  0
SECTION
  2
HEADER
  9
$ACADVER
  1
AC1015
  9
$ACADMAINTVER
 70
    20
  9
$DWGCODEPAGE
  3
ANSI_1252
  9
$INSBASE
 10
0.0
 20
0.0
 30
0.0
  9
$EXTMIN
 10
-16.64728399999999
 20
-51.99985599243312
 30
0.0
  9
$EXTMAX
 10
52.658666
 20
57.951905
 30
0.0000000000000042
  9
$LIMMIN
 10
0.0
 20
0.0
  9
$LIMMAX
 10
12.0
 20
9.0
  9
$ORTHOMODE
 70
     0
  9
$REGENMODE
 70
     1
  9
$FILLMODE
 70
     1
  9
$QTEXTMODE
 70
     0
  9
$MIRRTEXT
 70
     0
  9
$LTSCALE
 40
1.0
  9
$ATTMODE
 70
     1
  9
$TEXTSIZE
 40
0.0
  9
$TRACEWID
 40
0.05
  9
$TEXTSTYLE
  7
Standard
  9
$CLAYER
  8
0
  9
$CELTYPE
  6
ByLayer
  9
$CECOLOR
 62
   256
  9
$CELTSCALE
 40
1.0
  9
$DISPSILH
 70
     0
  9
$DIMSCALE
 40
1.0
  9
$DIMASZ
 40
0.18
  9
$DIMEXO
 40
0.0625
  9
$DIMDLI
 40
0.38
  9
$DIMRND
 40
0.0
  9
$DIMDLE
 40
0.0
  9
$DIMEXE
 40
0.18
  9
$DIMTP
 40
0.0
  9
$DIMTM
 40
0.0
  9
$DIMTXT
 40
0.18
  9
$DIMCEN
 40
0.09
  9
$DIMTSZ
 40
0.0
  9
$DIMTOL
 70
     0
  9
$DIMLIM
 70
     0
  9
$DIMTIH
 70
     1
  9
$DIMTOH
 70
     1
  9
$DIMSE1
 70
     0
  9
$DIMSE2
 70
     0
  9
$DIMTAD
 70
     0
  9
$DIMZIN
 70
     0
  9
$DIMBLK
  1

  9
$DIMASO
 70
     1
  9
$DIMSHO
 70
     1
  9
$DIMPOST
  1

  9
$DIMAPOST
  1

  9
$DIMALT
 70
     0
  9
$DIMALTD
 70
     2
  9
$DIMALTF
 40
25.4
  9
$DIMLFAC
 40
1.0
  9
$DIMTOFL
 70
     0
  9
$DIMTVP
 40
0.0
  9
$DIMTIX
 70
     0
  9
$DIMSOXD
 70
     0
  9
$DIMSAH
 70
     0
  9
$DIMBLK1
  1

  9
$DIMBLK2
  1

  9
$DIMSTYLE
  2
Standard
  9
$DIMCLRD
 70
     0
  9
$DIMCLRE
 70
     0
  9
$DIMCLRT
 70
     0
  9
$DIMTFAC
 40
1.0
  9
$DIMGAP
 40
0.09
  9
$DIMJUST
 70
     0
  9
$DIMSD1
 70
     0
  9
$DIMSD2
 70
     0
  9
$DIMTOLJ
 70
     1
  9
$DIMTZIN
 70
     0
  9
$DIMALTZ
 70
     0
  9
$DIMALTTZ
 70
     0
  9
$DIMUPT
 70
     0
  9
$DIMDEC
 70
     4
  9
$DIMTDEC
 70
     4
  9
$DIMALTU
 70
     2
  9
$DIMALTTD
 70
     2
  9
$DIMTXSTY
  7
Standard
  9
$DIMAUNIT
 70
     0
  9
$DIMADEC
 70
     0
  9
$DIMALTRND
 40
0.0
  9
$DIMAZIN
 70
     0
  9
$DIMDSEP
 70
    46
  9
$DIMATFIT
 70
     3
  9
$DIMFRAC
 70
     0
  9
$DIMLDRBLK
  1

  9
$DIMLUNIT
 70
     2
  9
$DIMLWD
 70
    -2
  9
$DIMLWE
 70
    -2
  9
$DIMTMOVE
 70
     0
  9
$LUNITS
 70
     2
  9
$LUPREC
 70
     4
  9
$SKETCHINC
 40
0.1
  9
$FILLETRAD
 40
0.0
  9
$AUNITS
 70
     0
  9
$AUPREC
 70
     0
  9
$MENU
  1
.
  9
$ELEVATION
 40
0.0
  9
$PELEVATION
 40
0.0
  9
$THICKNESS
 40
0.0
  9
$LIMCHECK
 70
     0
  9
$CHAMFERA
 40
0.0
  9
$CHAMFERB
 40
0.0
  9
$CHAMFERC
 40
0.0
  9
$CHAMFERD
 40
0.0
  9
$SKPOLY
 70
     0
  9
$TDCREATE
 40
2456818.480506597
  9
$TDUCREATE
 40
2456818.397173264
  9
$TDUPDATE
 40
2456818.480512373
  9
$TDUUPDATE
 40
2456818.397179039
  9
$TDINDWG
 40
0.0000066782
  9
$TDUSRTIMER
 40
0.0000066782
  9
$USRTIMER
 70
     1
  9
$ANGBASE
 50
0.0
  9
$ANGDIR
 70
     0
  9
$PDMODE
 70
     0
  9
$PDSIZE
 40
0.0
  9
$PLINEWID
 40
0.0
  9
$SPLFRAME
 70
     0
  9
$SPLINETYPE
 70
     6
  9
$SPLINESEGS
 70
     8
  9
$HANDSEED
  5
2DA
  9
$SURFTAB1
 70
     6
  9
$SURFTAB2
 70
     6
  9
$SURFTYPE
 70
     6
  9
$SURFU
 70
     6
  9
$SURFV
 70
     6
  9
$UCSBASE
  2

  9
$UCSNAME
  2

  9
$UCSORG
 10
0.0
 20
0.0
 30
0.0
  9
$UCSXDIR
 10
1.0
 20
0.0
 30
0.0
  9
$UCSYDIR
 10
0.0
 20
1.0
 30
0.0
  9
$UCSORTHOREF
  2

  9
$UCSORTHOVIEW
 70
     0
  9
$UCSORGTOP
 10
0.0
 20
0.0
 30
0.0
  9
$UCSORGBOTTOM
 10
0.0
 20
0.0
 30
0.0
  9
$UCSORGLEFT
 10
0.0
 20
0.0
 30
0.0
  9
$UCSORGRIGHT
 10
0.0
 20
0.0
 30
0.0
  9
$UCSORGFRONT
 10
0.0
 20
0.0
 30
0.0
  9
$UCSORGBACK
 10
0.0
 20
0.0
 30
0.0
  9
$PUCSBASE
  2

  9
$PUCSNAME
  2

  9
$PUCSORG
 10
0.0
 20
0.0
 30
0.0
  9
$PUCSXDIR
 10
1.0
 20
0.0
 30
0.0
  9
$PUCSYDIR
 10
0.0
 20
1.0
 30
0.0
  9
$PUCSORTHOREF
  2

  9
$PUCSORTHOVIEW
 70
     0
  9
$PUCSORGTOP
 10
0.0
 20
0.0
 30
0.0
  9
$PUCSORGBOTTOM
 10
0.0
 20
0.0
 30
0.0
  9
$PUCSORGLEFT
 10
0.0
 20
0.0
 30
0.0
  9
$PUCSORGRIGHT
 10
0.0
 20
0.0
 30
0.0
  9
$PUCSORGFRONT
 10
0.0
 20
0.0
 30
0.0
  9
$PUCSORGBACK
 10
0.0
 20
0.0
 30
0.0
  9
$USERI1
 70
     0
  9
$USERI2
 70
     0
  9
$USERI3
 70
     0
  9
$USERI4
 70
     0
  9
$USERI5
 70
     0
  9
$USERR1
 40
0.0
  9
$USERR2
 40
0.0
  9
$USERR3
 40
0.0
  9
$USERR4
 40
0.0
  9
$USERR5
 40
0.0
  9
$WORLDVIEW
 70
     1
  9
$SHADEDGE
 70
     3
  9
$SHADEDIF
 70
    70
  9
$TILEMODE
 70
     1
  9
$MAXACTVP
 70
    64
  9
$PINSBASE
 10
0.0
 20
0.0
 30
0.0
  9
$PLIMCHECK
 70
     0
  9
$PEXTMIN
 10
1.000000000000000E+20
 20
1.000000000000000E+20
 30
1.000000000000000E+20
  9
$PEXTMAX
 10
-1.000000000000000E+20
 20
-1.000000000000000E+20
 30
-1.000000000000000E+20
  9
$PLIMMIN
 10
0.0
 20
0.0
  9
$PLIMMAX
 10
12.0
 20
9.0
  9
$UNITMODE
 70
     0
  9
$VISRETAIN
 70
     1
  9
$PLINEGEN
 70
     0
  9
$PSLTSCALE
 70
     1
  9
$TREEDEPTH
 70
  3020
  9
$CMLSTYLE
  2
Standard
  9
$CMLJUST
 70
     0
  9
$CMLSCALE
 40
1.0
  9
$PROXYGRAPHICS
 70
     1
  9
$MEASUREMENT
 70
     0
  9
$CELWEIGHT
370
    -1
  9
$ENDCAPS
280
     0
  9
$JOINSTYLE
280
     0
  9
$LWDISPLAY
290
     0
  9
$INSUNITS
 70
     4
  9
$HYPERLINKBASE
  1

  9
$STYLESHEET
  1

  9
$XEDIT
290
     1
  9
$CEPSNTYPE
380
     0
  9
$PSTYLEMODE
290
     1
  9
$FINGERPRINTGUID
  2
{96D800A2-24AE-4893-B992-7CB46C6A21CA}
  9
$VERSIONGUID
  2
{919C936A-425B-4B69-84D5-447F05F643CC}
  9
$EXTNAMES
290
     1
  9
$PSVPSCALE
 40
0.0
  9
$OLESTARTUP
290
     0
  0
ENDSEC
  0
SECTION
  2
CLASSES
  0
CLASS
  1
RASTERVARIABLES
  2
AcDbRasterVariables
  3
ISM
 90
        0
280
     0
281
     0
  0
CLASS
  1
ACDBDICTIONARYWDFLT
  2
AcDbDictionaryWithDefault
  3
ObjectDBX Classes
 90
        0
280
     0
281
     0
  0
CLASS
  1
MATERIAL
  2
AcDbMaterial
  3
ObjectDBX Classes
 90
     1153
280
     0
281
     0
  0
CLASS
  1
VISUALSTYLE
  2
AcDbVisualStyle
  3
ObjectDBX Classes
 90
     4095
280
     0
281
     0
  0
CLASS
  1
TABLESTYLE
  2
AcDbTableStyle
  3
ObjectDBX Classes
 90
     4095
280
     0
281
     0
  0
CLASS
  1
SCALE
  2
AcDbScale
  3
ObjectDBX Classes
 90
     1153
280
     0
281
     0
  0
CLASS
  1
MLEADERSTYLE
  2
AcDbMLeaderStyle
  3
ACDB_MLEADERSTYLE_CLASS
 90
     4095
280
     0
281
     0
  0
CLASS
  1
ACDBSECTIONVIEWSTYLE
  2
AcDbSectionViewStyle
  3
ObjectDBX Classes
 90
     1025
280
     0
281
     0
  0
CLASS
  1
ACDBDETAILVIEWSTYLE
  2
AcDbDetailViewStyle
  3
ObjectDBX Classes
 90
     1025
280
     0
281
     0
  0
CLASS
  1
EXACXREFPANELOBJECT
  2
ExAcXREFPanelObject
  3
EXAC_ESW
 90
     1025
280
     0
281
     0
  0
CLASS
  1
NPOCOLLECTION
  2
AcDbImpNonPersistentObjectsCollection
  3
ObjectDBX Classes
 90
     1153
280
     0
281
     0
  0
CLASS
  1
DICTIONARYVAR
  2
AcDbDictionaryVar
  3
ObjectDBX Classes
 90
        0
280
     0
281
     0
  0
CLASS
  1
CELLSTYLEMAP
  2
AcDbCellStyleMap
  3
ObjectDBX Classes
 90
     1152
280
     0
281
     0
  0
CLASS
  1
ACDBPLACEHOLDER
  2
AcDbPlaceHolder
  3
ObjectDBX Classes
 90
        0
280
     0
281
     0
  0
CLASS
  1
LAYOUT
  2
AcDbLayout
  3
ObjectDBX Classes
 90
        0
280
     0
281
     0
  0
ENDSEC
  0
SECTION
  2
TABLES
  0
TABLE
  2
VPORT
  5
21B
330
0
100
AcDbSymbolTable
 70
     1
  0
VPORT
  5
1
330
21B
100
AcDbSymbolTableRecord
100
AcDbViewportTableRecord
  2
*Active
 70
     0
 10
0.0
 20
0.0
 11
1.0
 21
1.0
 12
18.005691
 22
2.976024503783435
 13
0.0
 23
0.0
 14
0.5
 24
0.5
 15
10.0
 25
10.0
 16
0.0
 26
0.0
 36
1.0
 17
0.0
 27
0.0
 37
0.0
 40
123.0454316263007
 41
2.2
 42
50.0
 43
0.0
 44
0.0
 50
0.0
 51
0.0
 71
     0
 72
   100
 73
     1
 74
     1
 75
     0
 76
     0
 77
     0
 78
     0
281
     0
 65
     1
110
0.0
120
0.0
130
0.0
111
1.0
121
0.0
131
0.0
112
0.0
122
1.0
132
0.0
 79
     0
146
0.0
1001
ACAD_NAV_VCDISPLAY
1070
     3
  0
ENDTAB
  0
TABLE
  2
LTYPE
  5
21C
330
0
100
AcDbSymbolTable
 70
     8
  0
LTYPE
  5
14
330
21C
100
AcDbSymbolTableRecord
100
AcDbLinetypeTableRecord
  2
ByBlock
 70
     0
  3

 72
    65
 73
     0
 40
0.0
  0
LTYPE
  5
15
330
21C
100
AcDbSymbolTableRecord
100
AcDbLinetypeTableRecord
  2
ByLayer
 70
     0
  3

 72
    65
 73
     0
 40
0.0
  0
LTYPE
  5
16
330
21C
100
AcDbSymbolTableRecord
100
AcDbLinetypeTableRecord
  2
CONTINUOUS
 70
     0
  3
Solid line
 72
    65
 73
     0
 40
0.0
  0
LTYPE
  5
3C
330
21C
100
AcDbSymbolTableRecord
100
AcDbLinetypeTableRecord
  2
DASHED
 70
     0
  3
__ __ __ __ __ __ __ __ __
 72
    65
 73
     2
 40
25.72
 49
12.86
 74
     0
 49
-12.86
 74
     0
  0
LTYPE
  5
3D
330
21C
100
AcDbSymbolTableRecord
100
AcDbLinetypeTableRecord
  2
HIDDEN
 70
     0
  3
_ _ _ _ _ _ _ _ _ _ _ _ _ _ _
 72
    65
 73
     2
 40
0.5
 49
0.25
 74
     0
 49
-0.25
 74
     0
  0
LTYPE
  5
3E
330
21C
100
AcDbSymbolTableRecord
100
AcDbLinetypeTableRecord
  2
PHANTOM
 70
     0
  3
____ _ _ ____ _ _ _____ _ _ ____
 72
    65
 73
     6
 40
50.5
 49
18.0
 74
     0
 49
-6.5
 74
     0
 49
6.5
 74
     0
 49
-6.5
 74
     0
 49
6.5
 74
     0
 49
-6.5
 74
     0
  0
LTYPE
  5
3F
330
21C
100
AcDbSymbolTableRecord
100
AcDbLinetypeTableRecord
  2
CENTER
 70
     0
  3
____ _ ____ _ ____ _ ____
 72
    65
 73
     4
 40
47.5
 49
22.0
 74
     0
 49
-8.5
 74
     0
 49
8.5
 74
     0
 49
-8.5
 74
     0
  0
LTYPE
  5
40
330
21C
100
AcDbSymbolTableRecord
100
AcDbLinetypeTableRecord
  2
DOT
 70
     0
  3
.........................
 72
    65
 73
     2
 40
10.0
 49
0.0
 74
     0
 49
-10.0
 74
     0
  0
LTYPE
  5
41
330
21C
100
AcDbSymbolTableRecord
100
AcDbLinetypeTableRecord
  2
DASHDOT
 70
     0
  3
_._._._._._._._._._._._._._._._.
 72
    65
 73
     4
 40
70.0
 49
31.0
 74
     0
 49
-13.0
 74
     0
 49
13.0
 74
     0
 49
-13.0
 74
     0
  0
LTYPE
  5
273
330
21C
100
AcDbSymbolTableRecord
100
AcDbLinetypeTableRecord
  2
PHANTOM2
 70
     0
  3
Phantom (.5x) ___ _ _ ___ _ _ ___ _ _ ___ _ _
 72
    65
 73
     6
 40
1.25
 49
0.625
 74
     0
 49
-0.125
 74
     0
 49
0.125
 74
     0
 49
-0.125
 74
     0
 49
0.125
 74
     0
 49
-0.125
 74
     0
  0
ENDTAB
  0
TABLE
  2
LAYER
  5
21D
330
0
100
AcDbSymbolTable
 70
     8
  0
LAYER
  5
10
102
{ACAD_XDICTIONARY
360
281
102
}
330
21D
100
AcDbSymbolTableRecord
100
AcDbLayerTableRecord
  2
0
 70
     0
 62
     7
  6
CONTINUOUS
370
    -3
390
228
  0
LAYER
  5
43
102
{ACAD_XDICTIONARY
360
283
102
}
330
21D
100
AcDbSymbolTableRecord
100
AcDbLayerTableRecord
  2
80
 70
     0
 62
    -6
  6
CONTINUOUS
370
    -3
390
228
  0
LAYER
  5
45
102
{ACAD_XDICTIONARY
360
285
102
}
330
21D
100
AcDbSymbolTableRecord
100
AcDbLayerTableRecord
  2
81
 70
     0
 62
    -3
  6
CONTINUOUS
370
    -3
390
228
  0
LAYER
  5
47
102
{ACAD_XDICTIONARY
360
287
102
}
330
21D
100
AcDbSymbolTableRecord
100
AcDbLayerTableRecord
  2
1
 70
     0
 62
     4
  6
CONTINUOUS
370
    -3
390
228
  0
LAYER
  5
F5
102
{ACAD_XDICTIONARY
360
289
102
}
330
21D
100
AcDbSymbolTableRecord
100
AcDbLayerTableRecord
  2
4
 70
     0
 62
    -2
  6
CENTER
370
    -3
390
228
  0
LAYER
  5
208
102
{ACAD_XDICTIONARY
360
28B
102
}
330
21D
100
AcDbSymbolTableRecord
100
AcDbLayerTableRecord
  2
SK4
 70
     0
 62
     2
  6
CENTER
370
    -3
390
228
  0
LAYER
  5
209
102
{ACAD_XDICTIONARY
360
28D
102
}
330
21D
100
AcDbSymbolTableRecord
100
AcDbLayerTableRecord
  2
SK6
 70
     0
 62
     5
  6
CONTINUOUS
370
    -3
390
228
  0
LAYER
  5
20A
102
{ACAD_XDICTIONARY
360
28F
102
}
330
21D
100
AcDbSymbolTableRecord
100
AcDbLayerTableRecord
  2
2L
 70
     0
 62
     7
  6
CONTINUOUS
370
    -3
390
228
  0
ENDTAB
  0
TABLE
  2
STYLE
  5
21E
330
0
100
AcDbSymbolTable
 70
     3
  0
STYLE
  5
11
330
21E
100
AcDbSymbolTableRecord
100
AcDbTextStyleTableRecord
  2
Standard
 70
     0
 40
0.0
 41
1.0
 50
0.0
 71
     0
 42
0.0
  3
txt
  4

  0
STYLE
  5
19E
330
21E
100
AcDbSymbolTableRecord
100
AcDbTextStyleTableRecord
  2
DEFAULT
 70
     0
 40
0.0
 41
1.0
 50
0.0
 71
     0
 42
0.0
  3
simplex.shx
  4

  0
STYLE
  5
19F
330
21E
100
AcDbSymbolTableRecord
100
AcDbTextStyleTableRecord
  2
DWGDirectTextStyle
 70
     0
 40
0.0
 41
1.0
 50
0.0
 71
     0
 42
0.0
  3
SIMPLEX
  4

  0
ENDTAB
  0
TABLE
  2
VIEW
  5
220
330
0
100
AcDbSymbolTable
 70
     0
  0
ENDTAB
  0
TABLE
  2
UCS
  5
221
330
0
100
AcDbSymbolTable
 70
     0
  0
ENDTAB
  0
TABLE
  2
APPID
  5
222
330
0
100
AcDbSymbolTable
 70
     3
  0
APPID
  5
12
330
222
100
AcDbSymbolTableRecord
100
AcDbRegAppTableRecord
  2
ACAD
 70
     0
  0
APPID
  5
29B
330
222
100
AcDbSymbolTableRecord
100
AcDbRegAppTableRecord
  2
ACAD_NAV_VCDISPLAY
 70
     0
  0
APPID
  5
2D5
330
222
100
AcDbSymbolTableRecord
100
AcDbRegAppTableRecord
  2
ACAD_MLEADERVER
 70
     0
  0
ENDTAB
  0
TABLE
  2
DIMSTYLE
  5
21F
330
0
100
AcDbSymbolTable
 70
     1
100
AcDbDimStyleTable
 71
     0
  0
DIMSTYLE
105
27
102
{ACAD_REACTORS
330
1AC
330
1CA
102
}
330
21F
100
AcDbSymbolTableRecord
100
AcDbDimStyleTableRecord
  2
Standard
 70
     0
  3
<>
 73
     0
 74
     0
 77
     1
271
     2
278
    52
340
11
  0
ENDTAB
  0
TABLE
  2
BLOCK_RECORD
  5
223
330
0
100
AcDbSymbolTable
 70
     5
  0
BLOCK_RECORD
  5
1F
330
223
100
AcDbSymbolTableRecord
100
AcDbBlockTableRecord
  2
*Model_Space
340
279
  0
BLOCK_RECORD
  5
1B
330
223
100
AcDbSymbolTableRecord
100
AcDbBlockTableRecord
  2
*Paper_Space
340
27A
  0
BLOCK_RECORD
  5
23
330
223
100
AcDbSymbolTableRecord
100
AcDbBlockTableRecord
  2
*Paper_Space0
340
0
  0
BLOCK_RECORD
  5
1A1
330
223
100
AcDbSymbolTableRecord
100
AcDbBlockTableRecord
  2
DimnDraft3D1
340
0
  0
BLOCK_RECORD
  5
1AD
330
223
100
AcDbSymbolTableRecord
100
AcDbBlockTableRecord
  2
DimnDraft3D22
340
0
102
{BLKREFS
331
1B6
102
}
  0
BLOCK_RECORD
  5
1B7
330
223
100
AcDbSymbolTableRecord
100
AcDbBlockTableRecord
  2
DimnDraft3D33
340
0
102
{BLKREFS
331
1C0
102
}
  0
BLOCK_RECORD
  5
1C1
330
223
100
AcDbSymbolTableRecord
100
AcDbBlockTableRecord
  2
DimnDraft3D4
340
0
  0
ENDTAB
  0
ENDSEC
  0
SECTION
  2
BLOCKS
  0
BLOCK
  5
20
330
1F
100
AcDbEntity
  8
0
100
AcDbBlockBegin
  2
*Model_Space
 70
     0
 10
0.0
 20
0.0
 30
0.0
  3
*Model_Space
  1

  0
ENDBLK
  5
21
330
1F
100
AcDbEntity
  8
0
100
AcDbBlockEnd
  0
BLOCK
  5
1C
330
1B
100
AcDbEntity
 67
     1
  8
0
100
AcDbBlockBegin
  2
*Paper_Space
 70
     0
 10
0.0
 20
0.0
 30
0.0
  3
*Paper_Space
  1

  0
ENDBLK
  5
1D
330
1B
100
AcDbEntity
 67
     1
  8
0
100
AcDbBlockEnd
  0
BLOCK
  5
24
330
23
100
AcDbEntity
  8
0
100
AcDbBlockBegin
  2
*Paper_Space0
 70
     0
 10
0.0
 20
0.0
 30
0.0
  3
*Paper_Space0
  1

  0
ENDBLK
  5
25
330
23
100
AcDbEntity
  8
0
100
AcDbBlockEnd
  0
BLOCK
  5
1AA
330
1A1
100
AcDbEntity
  8
0
100
AcDbBlockBegin
  2
DimnDraft3D1
 70
     0
 10
0.0
 20
0.0
 30
0.0
  3
DimnDraft3D1
  1

  0
MTEXT
  5
1A2
330
1A1
100
AcDbEntity
  8
2L
100
AcDbMText
 10
-13.629784
 20
5.426620999999999
 30
0.0
 40
3.174999999999999
 41
0.0
 71
     7
 72
     5
  1
\W01.000;\fsimplex.shx,bigfont.shx;80 
  7
DEFAULT
 11
0.0000000000000001
 21
1.0
 31
0.0
 73
     1
 44
1.084337
1001
ACAD
1000
MTEXTBEGIN
1070
    73
1070
     1
1070
    44
1040
1.084337
1070
    74
1070
     0
1000
MTEXTEND
  0
MTEXT
  5
1A4
330
1A1
100
AcDbEntity
  8
2L
100
AcDbMText
 10
-13.629784
 20
-3.304629
 30
0.0
 40
3.174999999999999
 41
0.0
 71
     7
 72
     5
  1
\W01.000;\fsimplex.shx,bigfont.shx;%%c 
  7
DEFAULT
 11
0.0000000000000001
 21
1.0
 31
0.0
 73
     1
 44
1.084337
1001
ACAD
1000
MTEXTBEGIN
1070
    73
1070
     1
1070
    44
1040
1.084337
1070
    74
1070
     0
1000
MTEXTEND
  0
LINE
  5
1A5
330
1A1
100
AcDbEntity
  8
2L
100
AcDbLine
 10
-1.9125
 20
-40.0
 30
0.0
 11
-15.217284
 21
-40.0
 31
0.0
  0
LINE
  5
1A6
330
1A1
100
AcDbEntity
  8
2L
100
AcDbLine
 10
11.904535
 20
40.0
 30
0.0
 11
-15.217284
 21
40.0
 31
0.0
  0
LINE
  5
1A7
330
1A1
100
AcDbEntity
  8
2L
100
AcDbLine
 10
-12.042284
 20
-40.0
 30
0.0
 11
-12.042284
 21
40.0
 31
0.0
  0
SOLID
  5
1A8
330
1A1
100
AcDbEntity
  8
2L
100
AcDbTrace
 10
-12.042284
 20
-40.0
 30
0.0
 11
-12.46028
 21
-36.82500200000001
 31
0.0
 12
-11.624287
 22
-36.824998
 32
0.0
 13
-12.042284
 23
-40.0
 33
0.0
  0
SOLID
  5
1A9
330
1A1
100
AcDbEntity
  8
2L
100
AcDbTrace
 10
-12.042284
 20
40.0
 30
0.0
 11
-11.624287
 21
36.82500200000001
 31
0.0
 12
-12.46028
 22
36.824998
 32
0.0
 13
-12.042284
 23
40.0
 33
0.0
  0
ENDBLK
  5
1AB
330
1A1
100
AcDbEntity
  8
0
100
AcDbBlockEnd
  0
BLOCK
  5
1AE
330
1AD
100
AcDbEntity
  8
0
100
AcDbBlockBegin
  2
DimnDraft3D22
 70
     0
 10
0.0
 20
0.0
 30
0.0
  3
DimnDraft3D22
  1

  0
LINE
  5
1B0
330
1AD
100
AcDbEntity
  8
2L
100
AcDbLine
 10
23.9125
 20
0.0
 30
0.0
 11
52.658666
 21
0.0
 31
0.0
  0
LINE
  5
1B1
330
1AD
100
AcDbEntity
  8
2L
100
AcDbLine
 10
23.9125
 20
40.0
 30
0.0
 11
52.658666
 21
40.0
 31
0.0
  0
LINE
  5
1B2
330
1AD
100
AcDbEntity
  8
2L
100
AcDbLine
 10
49.48366599999999
 20
0.0
 30
0.0
 11
49.48366599999999
 21
40.0
 31
0.0
  0
SOLID
  5
1B3
330
1AD
100
AcDbEntity
  8
2L
100
AcDbTrace
 10
49.48366599999999
 20
0.0
 30
0.0
 11
49.065669
 21
3.174997999999999
 31
0.0
 12
49.901662
 22
3.175002
 32
0.0
 13
49.48366599999999
 23
0.0
 33
0.0
  0
SOLID
  5
1B4
330
1AD
100
AcDbEntity
  8
2L
100
AcDbTrace
 10
49.48366599999999
 20
40.0
 30
0.0
 11
49.901662
 21
36.82500200000001
 31
0.0
 12
49.065669
 22
36.824998
 32
0.0
 13
49.48366599999999
 23
40.0
 33
0.0
  0
MTEXT
  5
1B5
330
1AD
100
AcDbEntity
  8
2L
100
AcDbMText
 10
48.689916
 20
18.771776
 30
0.0
 40
3.174999999999999
 41
0.0
 71
     7
 72
     5
  1
\W00.718;\fsimplex.shx,bigfont.shx;40 
  7
DEFAULT
 11
0.0000000000000001
 21
1.0
 31
0.0
 73
     1
 44
1.084337
1001
ACAD
1000
MTEXTBEGIN
1070
    73
1070
     1
1070
    44
1040
1.084337
1070
    74
1070
     0
1000
MTEXTEND
  0
ENDBLK
  5
1AF
330
1AD
100
AcDbEntity
  8
0
100
AcDbBlockEnd
  0
BLOCK
  5
1B8
330
1B7
100
AcDbEntity
  8
0
100
AcDbBlockBegin
  2
DimnDraft3D33
 70
     0
 10
0.0
 20
0.0
 30
0.0
  3
DimnDraft3D33
  1

  0
LINE
  5
1BA
330
1B7
100
AcDbEntity
  8
2L
100
AcDbLine
 10
31.5875
 20
20.0
 30
0.0
 11
38.98589600000001
 21
20.0
 31
0.0
  0
LINE
  5
1BB
330
1B7
100
AcDbEntity
  8
2L
100
AcDbLine
 10
24.5875
 20
0.0
 30
0.0
 11
38.98589600000001
 21
0.0
 31
0.0
  0
LINE
  5
1BC
330
1B7
100
AcDbEntity
  8
2L
100
AcDbLine
 10
35.810896
 20
20.0
 30
0.0
 11
35.810896
 21
0.0
 31
0.0
  0
SOLID
  5
1BD
330
1B7
100
AcDbEntity
  8
2L
100
AcDbTrace
 10
35.810896
 20
20.0
 30
0.0
 11
36.228893
 21
16.82500199999999
 31
0.0
 12
35.3929
 22
16.824998
 32
0.0
 13
35.810896
 23
20.0
 33
0.0
  0
SOLID
  5
1BE
330
1B7
100
AcDbEntity
  8
2L
100
AcDbTrace
 10
35.810896
 20
0.0
 30
0.0
 11
35.3929
 21
3.174997999999999
 31
0.0
 12
36.228893
 22
3.175002
 32
0.0
 13
35.810896
 23
0.0
 33
0.0
  0
MTEXT
  5
1BF
330
1B7
100
AcDbEntity
  8
2L
100
AcDbMText
 10
35.01714600000001
 20
8.938882000000001
 30
0.0
 40
3.174999999999999
 41
0.0
 71
     7
 72
     5
  1
\W00.656;\fsimplex.shx,bigfont.shx;20 
  7
DEFAULT
 11
0.0000000000000001
 21
1.0
 31
0.0
 73
     1
 44
1.084337
1001
ACAD
1000
MTEXTBEGIN
1070
    73
1070
     1
1070
    44
1040
1.084337
1070
    74
1070
     0
1000
MTEXTEND
  0
ENDBLK
  5
1B9
330
1B7
100
AcDbEntity
  8
0
100
AcDbBlockEnd
  0
BLOCK
  5
1C8
330
1C1
100
AcDbEntity
  8
0
100
AcDbBlockBegin
  2
DimnDraft3D4
 70
     0
 10
0.0
 20
0.0
 30
0.0
  3
DimnDraft3D4
  1

  0
MTEXT
  5
1C2
330
1C1
100
AcDbEntity
  8
2L
100
AcDbMText
 10
9.950402999999999
 20
54.935655
 30
0.0
 40
3.174999999999999
 41
0.0
 71
     7
 72
     5
  1
\W01.000;\fsimplex.shx,bigfont.shx;23 
  7
DEFAULT
 73
     1
 44
1.084337
1001
ACAD
1000
MTEXTBEGIN
1070
    73
1070
     1
1070
    44
1040
1.084337
1070
    74
1070
     0
1000
MTEXTEND
  0
LINE
  5
1C3
330
1C1
100
AcDbEntity
  8
2L
100
AcDbLine
 10
23.0
 20
21.5875
 30
0.0
 11
23.0
 21
57.316905
 31
0.0
  0
LINE
  5
1C4
330
1C1
100
AcDbEntity
  8
2L
100
AcDbLine
 10
0.0
 20
1.587499999999999
 30
0.0
 11
0.0
 21
57.316905
 31
0.0
  0
LINE
  5
1C5
330
1C1
100
AcDbEntity
  8
2L
100
AcDbLine
 10
23.0
 20
54.141905
 30
0.0
 11
0.0
 21
54.141905
 31
0.0
  0
SOLID
  5
1C6
330
1C1
100
AcDbEntity
  8
2L
100
AcDbTrace
 10
23.0
 20
54.141905
 30
0.0
 11
19.825002
 21
53.723909
 31
0.0
 12
19.824998
 22
54.559902
 32
0.0
 13
23.0
 23
54.141905
 33
0.0
  0
SOLID
  5
1C7
330
1C1
100
AcDbEntity
  8
2L
100
AcDbTrace
 10
0.0
 20
54.141905
 30
0.0
 11
3.174997999999999
 21
54.559902
 31
0.0
 12
3.175002
 22
53.723909
 32
0.0
 13
0.0
 23
54.141905
 33
0.0
  0
ENDBLK
  5
1C9
330
1C1
100
AcDbEntity
  8
0
100
AcDbBlockEnd
  0
ENDSEC
  0
SECTION
  2
ENTITIES
  0
ARC
  5
FB
330
1F
100
AcDbEntity
  8
1
100
AcDbCircle
 10
-11.0
 20
19.556821
 30
0.0
 40
2.5
210
0.0
220
0.0000000000000002
230
-1.0
100
AcDbArc
 50
270.0
 51
180.0
  0
ARC
  5
FC
330
1F
100
AcDbEntity
  8
1
100
AcDbCircle
 10
-11.0
 20
19.556821
 30
0.0
 40
2.5
210
0.0
220
0.0000000000000002
230
-1.0
100
AcDbArc
 50
180.0
 51
270.0
  0
ARC
  5
FD
330
1F
100
AcDbEntity
  8
1
100
AcDbCircle
 10
22.7595
 20
24.5
 30
0.0
 40
0.204499999999972
100
AcDbArc
 50
120.0
 51
240.0
  0
ARC
  5
FE
330
1F
100
AcDbEntity
  8
1
100
AcDbCircle
 10
22.7595
 20
23.0
 30
0.0
 40
0.204500000000074
100
AcDbArc
 50
120.0
 51
240.0
  0
ARC
  5
FF
330
1F
100
AcDbEntity
  8
1
100
AcDbCircle
 10
22.7595
 20
21.5
 30
0.0
 40
0.204500000000074
100
AcDbArc
 50
120.0
 51
240.0
  0
ARC
  5
100
330
1F
100
AcDbEntity
  8
1
100
AcDbCircle
 10
22.7595
 20
20.0
 30
0.0
 40
0.204500000000009
100
AcDbArc
 50
120.0
 51
240.0
  0
ARC
  5
101
330
1F
100
AcDbEntity
  8
1
100
AcDbCircle
 10
22.7595
 20
18.5
 30
0.0
 40
0.204500000000046
100
AcDbArc
 50
120.0
 51
240.0
  0
ARC
  5
102
330
1F
100
AcDbEntity
  8
1
100
AcDbCircle
 10
22.7595
 20
17.0
 30
0.0
 40
0.204500000000009
100
AcDbArc
 50
120.0
 51
240.0
  0
ARC
  5
103
330
1F
100
AcDbEntity
  8
1
100
AcDbCircle
 10
22.7595
 20
15.5
 30
0.0
 40
0.204499999999979
100
AcDbArc
 50
120.0
 51
240.0
  0
ARC
  5
104
330
1F
100
AcDbEntity
  8
1
100
AcDbCircle
 10
11.0
 20
19.556821
 30
0.0
 40
2.5
100
AcDbArc
 50
0.0
 51
270.0
  0
ARC
  5
105
330
1F
100
AcDbEntity
  8
1
100
AcDbCircle
 10
11.0
 20
19.556821
 30
0.0
 40
2.5
100
AcDbArc
 50
270.0
 51
0.0
  0
CIRCLE
  5
FA
330
1F
100
AcDbEntity
  8
1
100
AcDbCircle
 10
11.0
 20
19.556821
 30
0.0
 40
4.0
  0
ELLIPSE
  5
106
330
1F
100
AcDbEntity
  8
1
100
AcDbEllipse
 10
-0.6714100000000001
 20
-0.000008
 30
0.0
 11
-69.28202509749709
 21
0.00000000000007
 31
0.0
210
0.0
220
0.0
230
1.0
 40
0.5773500000000001
 41
1.575796348147799
 42
1.58544262239164
  0
ELLIPSE
  5
107
330
1F
100
AcDbEntity
  8
1
100
AcDbEllipse
 10
1.969983
 20
0.000313
 30
0.0
 11
-69.28230349673779
 21
-0.0000133305343452
 31
0.0
210
0.0
220
0.0
230
1.0
 40
0.577353
 41
1.53766506224363
 42
1.547314697971899
  0
ELLIPSE
  5
108
330
1F
100
AcDbEntity
  8
1
100
AcDbEllipse
 10
-3.269486999999999
 20
0.000011
 30
0.0
 11
-69.28204193064541
 21
0.0000005691816898
 31
0.0
210
0.0
220
0.0
230
1.0
 40
0.5773500000000001
 41
1.61330913980532
 42
1.62296576548944
  0
ELLIPSE
  5
109
330
1F
100
AcDbEntity
  8
1
100
AcDbEllipse
 10
4.568045999999999
 20
0.000019
 30
0.0
 11
-69.28204917164141
 21
-0.0000019130208728
 31
0.0
210
0.0
220
0.0
230
0.9999999999999998
 40
0.5773500000000001
 41
1.50011245225598
 42
1.50977920924252
  0
ELLIPSE
  5
10A
330
1F
100
AcDbEntity
  8
1
100
AcDbEllipse
 10
-5.867573999999999
 20
0.000078
 30
0.0
 11
-69.2821007744308
 21
0.0000097694401872
 31
0.0
210
0.0
220
0.0
230
0.9999999999999998
 40
0.5773510000000001
 41
1.650882072836749
 42
1.66056276106047
  0
ELLIPSE
  5
10B
330
1F
100
AcDbEntity
  8
1
100
AcDbEllipse
 10
-8.465644000000001
 20
0.000023
 30
0.0
 11
-69.2820524455867
 21
0.0000041618831444
 31
0.0
210
0.0
220
0.0
230
1.0
 40
0.5773500000000001
 41
1.68856846355463
 42
1.698287255567909
  0
ELLIPSE
  5
10C
330
1F
100
AcDbEntity
  8
1
100
AcDbEllipse
 10
-11.063686
 20
-0.000104
 30
0.0
 11
-69.28193857041799
 21
-0.0000251179565422
 31
0.0
210
0.0
220
0.0
230
1.0
 40
0.5773500000000001
 41
1.72642335375137
 42
1.73619478312898
  0
ELLIPSE
  5
10D
330
1F
100
AcDbEntity
  8
1
100
AcDbEllipse
 10
-13.661795
 20
0.000011
 30
0.0
 11
-69.2820421013361
 21
0.0000030680443649
 31
0.0
210
0.0
220
0.0
230
0.9999999999999998
 40
0.5773500000000001
 41
1.76450553942108
 42
1.77434480640785
  0
ELLIPSE
  5
10E
330
1F
100
AcDbEntity
  8
1
100
AcDbEllipse
 10
-16.259912
 20
0.000106
 30
0.0
 11
-69.2821317460049
 21
0.0000372304455615
 31
0.0
210
0.0
220
0.0
230
1.0
 40
0.5773510000000001
 41
1.80287463658676
 42
1.812797913343939
  0
ELLIPSE
  5
10F
330
1F
100
AcDbEntity
  8
1
100
AcDbEllipse
 10
-18.85788299999999
 20
-0.000124
 30
0.0
 11
-69.28191264132561
 21
-0.0000505247944764
 31
0.0
210
0.0
220
0.0
230
1.0
 40
0.577349
 41
1.841593019530219
 42
1.851617730224609
  0
ELLIPSE
  5
110
330
1F
100
AcDbEntity
  8
1
100
AcDbEllipse
 10
-21.455818
 20
-0.000357
 30
0.0
 11
-69.2816754509104
 21
-0.0001661652145091
 31
0.0
210
0.0
220
0.0
230
1.0
 40
0.577348
 41
1.88073196234426
 42
1.89087702781734
  0
ELLIPSE
  5
111
330
1F
100
AcDbEntity
  8
1
100
AcDbEllipse
 10
-24.054061
 20
-0.000055
 30
0.0
 11
-69.28197530017699
 21
-0.0000286714501421
 31
0.0
210
0.0
220
0.0
230
0.9999999999999998
 40
0.5773500000000001
 41
1.9203723962091
 42
1.93065859486785
  0
ELLIPSE
  5
112
330
1F
100
AcDbEntity
  8
1
100
AcDbEllipse
 10
-15.0
 20
0.0
 30
0.0
 11
0.0000000000000024
 21
40.00000010500889
 31
0.0
210
0.0
220
0.0
230
1.0
 40
1.0
 41
-2.76338820812447
 42
-2.73007580795512
  0
ELLIPSE
  5
113
330
1F
100
AcDbEntity
  8
1
100
AcDbEllipse
 10
-0.88963
 20
0.0
 30
0.0
 11
0.0000000000000003
 21
5.25000000003411
 31
0.0
210
0.0
220
0.0
230
1.0
 40
0.008727
 41
0.0
 42
0.4098782046597681
  0
ELLIPSE
  5
114
330
1F
100
AcDbEntity
  8
1
100
AcDbEllipse
 10
-0.8634489999999999
 20
-16.0
 30
0.0
 11
0.0000000000000002
 21
2.49999999999988
 31
0.0
210
0.0
220
0.0
230
1.0
 40
0.008727
 41
0.0
 42
1.5707963267949
  0
ELLIPSE
  5
115
330
1F
100
AcDbEntity
  8
1
100
AcDbEllipse
 10
-0.8634489999999999
 20
-16.0
 30
0.0
 11
0.0000000000000002
 21
2.49999999999988
 31
0.0
210
0.0
220
0.0
230
1.0
 40
0.008727
 41
1.5707963267949
 42
3.14159265358979
  0
ELLIPSE
  5
116
330
1F
100
AcDbEntity
  8
1
100
AcDbEllipse
 10
-0.8634489999999999
 20
-16.0
 30
0.0
 11
0.0000000000000002
 21
2.5
 31
0.0
210
0.0
220
0.0
230
1.0
 40
0.008727
 41
3.14159265358979
 42
6.283185307179586
  0
ELLIPSE
  5
117
330
1F
100
AcDbEntity
  8
1
100
AcDbEllipse
 10
-0.88963
 20
0.0
 30
0.0
 11
0.0000000000000003
 21
5.2499999999879
 31
0.0
210
0.0
220
0.0
230
1.0
 40
0.008727
 41
2.73171444892817
 42
3.141592653589779
  0
ELLIPSE
  5
118
330
1F
100
AcDbEntity
  8
1
100
AcDbEllipse
 10
-0.88963
 20
0.0
 30
0.0
 11
0.0000000000000003
 21
5.25
 31
0.0
210
0.0
220
0.0
230
1.0
 40
0.008727
 41
3.141592653589779
 42
6.283185307179557
  0
ELLIPSE
  5
119
330
1F
100
AcDbEntity
  8
1
100
AcDbEllipse
 10
-3.000001999999999
 20
0.000005
 30
0.0
 11
-2.096775589810989
 21
4.813115894418559
 31
0.0
210
0.0
220
0.0
230
1.0
 40
1.0
 41
3.14062444760641
 42
3.148287448719456
  0
ELLIPSE
  5
11A
330
1F
100
AcDbEntity
  8
1
100
AcDbEllipse
 10
-3.000053999999999
 20
-0.000122
 30
0.0
 11
-2.11068011518907
 21
-4.807174957970099
 31
0.0
210
0.0
220
0.0
230
1.0
 40
0.9999870000000001
 41
3.137777864531599
 42
3.145440771874835
  0
ELLIPSE
  5
11B
330
1F
100
AcDbEntity
  8
1
100
AcDbEllipse
 10
-0.8634489999999999
 20
16.044671
 30
0.0
 11
-0.0000592026425541
 21
-2.630385955586169
 31
0.0
210
0.0
220
0.0
230
0.9999999999999998
 40
0.008294
 41
-3.13887906990184
 42
-0.0253464625140367
  0
ELLIPSE
  5
11C
330
1F
100
AcDbEntity
  8
1
100
AcDbEllipse
 10
-0.8634489999999999
 20
16.044671
 30
0.0
 11
-0.0000592025868045
 21
-2.630385460063979
 31
0.0
210
0.0
220
0.0
230
1.0
 40
0.008294
 41
-0.0253464649021623
 42
0.0027135839434857
  0
ELLIPSE
  5
11D
330
1F
100
AcDbEntity
  8
1
100
AcDbEllipse
 10
-0.8634489999999999
 20
16.044671
 30
0.0
 11
-0.0000592026425541
 21
-2.630385955586169
 31
0.0
210
0.0
220
0.0
230
0.9999999999999998
 40
0.008294
 41
0.0027135836879581
 42
3.144306237277746
  0
ELLIPSE
  5
11E
330
1F
100
AcDbEntity
  8
1
100
AcDbEllipse
 10
11.0
 20
-20.497045
 30
0.0
 11
-2.5
 21
0.0000000000000025
 31
0.0
210
0.0
220
0.0
230
1.0
 40
0.8660250000000001
 41
0.0
 42
6.283185307179586
  0
ELLIPSE
  5
11F
330
1F
100
AcDbEntity
  8
1
100
AcDbEllipse
 10
7.166192999999998
 20
0.000411
 30
0.0
 11
-69.28239365719111
 21
-0.000063529755859
 31
0.0
210
0.0
220
0.0
230
0.9999999999999998
 40
0.577353
 41
1.462458495884529
 42
1.472156137702709
  0
ELLIPSE
  5
120
330
1F
100
AcDbEntity
  8
1
100
AcDbEllipse
 10
9.764207
 20
0.000044
 30
0.0
 11
-69.28207181729399
 21
-0.0000094503019406
 31
0.0
210
0.0
220
0.0
230
1.0
 40
0.5773510000000001
 41
1.424651493601409
 42
1.43439435989632
  0
ELLIPSE
  5
121
330
1F
100
AcDbEntity
  8
1
100
AcDbEllipse
 10
12.362282
 20
0.000031
 30
0.0
 11
-69.28206089169901
 21
-0.0000084178355441
 31
0.0
210
0.0
220
0.0
230
1.0
 40
0.5773500000000001
 41
1.386631918551699
 42
1.396434811168439
  0
ELLIPSE
  5
122
330
1F
100
AcDbEntity
  8
1
100
AcDbEllipse
 10
14.960314
 20
-0.00009
 30
0.0
 11
-69.2819483426111
 21
0.0000292076032092
 31
0.0
210
0.0
220
0.0
230
1.0
 40
0.5773500000000001
 41
1.34834159313362
 42
1.35822018786732
  0
ELLIPSE
  5
123
330
1F
100
AcDbEntity
  8
1
100
AcDbEllipse
 10
17.558579
 20
0.00034
 30
0.0
 11
-69.2823562588479
 21
-0.0001292440393918
 31
0.0
210
0.0
220
0.0
230
0.9999999999999998
 40
0.5773520000000002
 41
1.30971326572881
 42
1.31968422255912
  0
ELLIPSE
  5
124
330
1F
100
AcDbEntity
  8
1
100
AcDbEllipse
 10
20.156531
 20
0.000058
 30
0.0
 11
-69.28208912755261
 21
-0.0000252790957504
 31
0.0
210
0.0
220
0.0
230
1.0
 40
0.5773510000000001
 41
1.270686214478459
 42
1.28076772000225
  0
ELLIPSE
  5
125
330
1F
100
AcDbEntity
  8
1
100
AcDbEllipse
 10
22.754606
 20
0.000048
 30
0.0
 11
-69.2820812857516
 21
-0.0000236650197576
 31
0.0
210
0.0
220
0.0
230
0.9999999999999998
 40
0.5773510000000001
 41
1.231179989593189
 42
1.241391824685439
  0
ELLIPSE
  5
126
330
1F
100
AcDbEntity
  8
1
100
AcDbEllipse
 10
25.352892
 20
0.000352
 30
0.0
 11
-69.28240333745311
 21
-0.0001927341577382
 31
0.0
210
0.0
220
0.0
230
1.0
 40
0.5773520000000002
 41
1.19258869002972
 42
1.201475384585909
  0
ELLIPSE
  5
127
330
1F
100
AcDbEntity
  8
1
100
AcDbEllipse
 10
21.0
 20
0.0
 30
0.0
 11
-39.999999930907
 21
0.0000000000000404
 31
0.0
210
0.0
220
0.0
230
1.0
 40
1.0
 41
0.9911869094164821
 42
1.0471975508622
  0
ELLIPSE
  5
128
330
1F
100
AcDbEntity
  8
1
100
AcDbEllipse
 10
-1.099075
 20
0.0
 30
0.0
 11
0.0000000000000024
 21
40.0
 31
0.0
210
0.0
220
0.0
230
1.0
 40
0.008727
 41
-2.56198323665597
 42
-0.5796094169338511
  0
ELLIPSE
  5
129
330
1F
100
AcDbEntity
  8
1
100
AcDbEllipse
 10
21.0
 20
0.0
 30
0.0
 11
0.0000000000000024
 21
40.000000052272
 31
0.0
210
0.0
220
0.0
230
1.0
 40
1.0
 41
0.5235987754289022
 42
0.5796094167092
  0
ELLIPSE
  5
12A
330
1F
100
AcDbEntity
  8
1
100
AcDbEllipse
 10
-15.000001
 20
-0.000002
 30
0.0
 11
-15.3400402388751
 21
-36.941620450274
 31
0.0
210
0.0
220
0.0
230
1.0
 40
1.0
 41
3.123659967069539
 42
3.156972366481826
  0
ELLIPSE
  5
12B
330
1F
100
AcDbEntity
  8
1
100
AcDbEllipse
 10
25.352652
 20
0.000001
 30
0.0
 11
-69.2820306812356
 21
-0.0000009172684013
 31
0.0
210
0.0
220
0.0
230
1.0
 40
0.5773500000000001
 41
-1.20147863405006
 42
-1.19259189732109
  0
ELLIPSE
  5
12C
330
1F
100
AcDbEntity
  8
1
100
AcDbEllipse
 10
-24.054059
 20
0.000058
 30
0.0
 11
-69.2819725220821
 21
0.0000300581646942
 31
0.0
210
0.0
220
0.0
230
0.9999999999999998
 40
0.5773500000000001
 41
-1.93065857211457
 42
-1.920372373086729
  0
ELLIPSE
  5
12D
330
1F
100
AcDbEntity
  8
1
100
AcDbEllipse
 10
22.754634
 20
-0.000095
 30
0.0
 11
-69.28212845524429
 21
0.0000465766053565
 31
0.0
210
0.0
220
0.0
230
1.0
 40
0.5773510000000001
 41
-1.24139143913362
 42
-1.231179610314319
  0
ELLIPSE
  5
12E
330
1F
100
AcDbEntity
  8
1
100
AcDbEllipse
 10
-21.455991
 20
0.00005
 30
0.0
 11
-69.28198192876419
 21
0.0000234884696205
 31
0.0
210
0.0
220
0.0
230
0.9999999999999994
 40
0.5773500000000001
 41
-1.89087938528422
 42
-1.880734360758939
  0
ELLIPSE
  5
12F
330
1F
100
AcDbEntity
  8
1
100
AcDbEllipse
 10
20.15639
 20
0.000211
 30
0.0
 11
-69.2818251648917
 21
-0.0000918979815339
 31
0.0
210
0.0
220
0.0
230
1.0
 40
0.577349
 41
-1.280769689288669
 42
-1.270688148342099
  0
ELLIPSE
  5
130
330
1F
100
AcDbEntity
  8
1
100
AcDbEllipse
 10
-18.857976
 20
-0.000067
 30
0.0
 11
-69.28209676598479
 21
-0.000027185731568
 31
0.0
210
0.0
220
0.0
230
1.0
 40
0.5773510000000001
 41
-1.85161901199606
 42
-1.841594326109129
  0
ELLIPSE
  5
131
330
1F
100
AcDbEntity
  8
1
100
AcDbEllipse
 10
17.558565
 20
-0.000309
 30
0.0
 11
-69.28232716084879
 21
0.0001176322535505
 31
0.0
210
0.0
220
0.0
230
1.0
 40
0.5773520000000002
 41
-1.319684418120399
 42
-1.309713457355149
  0
ELLIPSE
  5
132
330
1F
100
AcDbEntity
  8
1
100
AcDbEllipse
 10
-16.259981
 20
-0.00027
 30
0.0
 11
-69.2822862166137
 21
-0.0000952227161678
 31
0.0
210
0.0
220
0.0
230
0.9999999999999998
 40
0.5773520000000002
 41
-1.812798870568709
 42
-1.802875614775139
  0
ELLIPSE
  5
133
330
1F
100
AcDbEntity
  8
1
100
AcDbEllipse
 10
14.960402
 20
-0.000142
 30
0.0
 11
-69.2821636781802
 21
0.0000457173705445
 31
0.0
210
0.0
220
0.0
230
0.9999999999999998
 40
0.5773510000000001
 41
-1.35821892618225
 42
-1.34834036079301
  0
ELLIPSE
  5
134
330
1F
100
AcDbEntity
  8
1
100
AcDbEllipse
 10
-13.661816
 20
-0.00007
 30
0.0
 11
-69.28209625454821
 21
-0.0000208322206967
 31
0.0
210
0.0
220
0.0
230
1.0
 40
0.5773510000000001
 41
-1.774345101719389
 42
-1.764505842124389
  0
ELLIPSE
  5
135
330
1F
100
AcDbEntity
  8
1
100
AcDbEllipse
 10
12.362203
 20
0.000223
 30
0.0
 11
-69.281830301537
 21
-0.0000592878237074
 31
0.0
210
0.0
220
0.0
230
1.0
 40
0.577349
 41
-1.39643595343603
 42
-1.386633029190889
  0
ELLIPSE
  5
136
330
1F
100
AcDbEntity
  8
1
100
AcDbEllipse
 10
-11.063614
 20
0.000362
 30
0.0
 11
-69.2817066699811
 21
0.0000866947161767
 31
0.0
210
0.0
220
0.0
230
1.0
 40
0.577348
 41
-1.73619377478329
 42
-1.72642231350708
  0
ELLIPSE
  5
137
330
1F
100
AcDbEntity
  8
1
100
AcDbEllipse
 10
9.764203
 20
-0.00003
 30
0.0
 11
-69.2820588331126
 21
0.0000061850730659
 31
0.0
210
0.0
220
0.0
230
1.0
 40
0.5773500000000001
 41
-1.434394416936809
 42
-1.424651548856069
  0
ELLIPSE
  5
138
330
1F
100
AcDbEntity
  8
1
100
AcDbEllipse
 10
-8.465644000000001
 20
-0.000023
 30
0.0
 11
-69.28205243851751
 21
-0.0000041601295692
 31
0.0
210
0.0
220
0.0
230
0.9999999999999998
 40
0.5773500000000001
 41
-1.69828725553659
 42
-1.68856846352235
  0
ELLIPSE
  5
139
330
1F
100
AcDbEntity
  8
1
100
AcDbEllipse
 10
7.166192999999998
 20
-0.000411
 30
0.0
 11
-69.28239365719111
 21
0.0000635297558452
 31
0.0
210
0.0
220
0.0
230
0.9999999999999998
 40
0.577353
 41
-1.472156137702709
 42
-1.462458495884529
  0
ELLIPSE
  5
13A
330
1F
100
AcDbEntity
  8
1
100
AcDbEllipse
 10
-5.867575
 20
-0.000086
 30
0.0
 11
-69.28210746749311
 21
-0.0000107284078932
 31
0.0
210
0.0
220
0.0
230
0.9999999999999998
 40
0.5773510000000001
 41
-1.660562776460189
 42
-1.650882089165189
  0
ELLIPSE
  5
13B
330
1F
100
AcDbEntity
  8
1
100
AcDbEllipse
 10
4.568022
 20
0.000188
 30
0.0
 11
-69.281868393536
 21
-0.0000184350148131
 31
0.0
210
0.0
220
0.0
230
0.9999999999999998
 40
0.577349
 41
-1.50977955989383
 42
-1.500112777790919
  0
ELLIPSE
  5
13C
330
1F
100
AcDbEntity
  8
1
100
AcDbEllipse
 10
-3.269486999999999
 20
-0.000011
 30
0.0
 11
-69.2820420193021
 21
-0.0000005762237485
 31
0.0
210
0.0
220
0.0
230
1.0
 40
0.5773500000000001
 41
-1.62296576559894
 42
-1.613309139927159
  0
ELLIPSE
  5
13D
330
1F
100
AcDbEntity
  8
1
100
AcDbEllipse
 10
1.969968999999999
 20
-0.000033
 30
0.0
 11
-69.2820611002145
 21
0.0000012098015335
 31
0.0
210
0.0
220
0.0
230
0.9999999999999998
 40
0.5773510000000001
 41
-1.5473149189576
 42
-1.537665249496139
  0
ELLIPSE
  5
13E
330
1F
100
AcDbEntity
  8
1
100
AcDbEllipse
 10
-0.6714100000000001
 20
0.000007
 30
0.0
 11
-69.28202661081549
 21
0.00000000000007
 31
0.0
210
0.0
220
0.0
230
1.0
 40
0.5773500000000001
 41
-1.585442622071759
 42
-1.57579634803864
  0
POINT
  5
42
330
1F
100
AcDbEntity
  8
80
100
AcDbPoint
 10
0.0
 20
0.0
 30
0.0
 50
360.0
  0
POINT
  5
44
330
1F
100
AcDbEntity
  8
81
100
AcDbPoint
 10
23.0
 20
20.0
 30
0.0
 50
360.0
  0
SPLINE
  5
13F
330
1F
100
AcDbEntity
  8
1
100
AcDbSpline
210
0.0
220
0.0
230
1.0
 70
    12
 71
     3
 72
    11
 73
     7
 74
     0
 42
0.000000001
 43
0.0000000001
 40
0.0
 40
0.0
 40
0.0
 40
0.0
 40
0.322308886686339
 40
0.644616654530743
 40
0.9669537012916419
 40
1.0
 40
1.0
 40
1.0
 40
1.0
 10
0.343278579257491
 20
-39.9957097980911
 30
0.0
 41
1.0
 10
0.363762126888717
 20
-39.9955388450266
 30
0.0
 41
1.0
 10
0.398682107622766
 20
-39.9950981753489
 30
0.0
 41
1.0
 10
0.43500974427719
 20
-39.9941211008846
 30
0.0
 41
1.0
 10
0.4448283412081901
 20
-39.9932563290381
 30
0.0
 41
1.0
 10
0.4452767420300021
 20
-39.9927792014127
 30
0.0
 41
1.0
 10
0.445278528195154
 20
-39.9927345132147
 30
0.0
 41
1.0
  0
SPLINE
  5
140
330
1F
100
AcDbEntity
  8
1
100
AcDbSpline
210
0.0
220
0.0
230
1.0
 70
    12
 71
     3
 72
    11
 73
     7
 74
     0
 42
0.000000001
 43
0.0000000001
 40
0.0
 40
0.0
 40
0.0
 40
0.0
 40
0.3221886317199551
 40
0.6443639147531651
 40
0.966869042640458
 40
1.0
 40
1.0
 40
1.0
 40
1.0
 10
0.343278579257491
 20
-39.9455793524169
 30
0.0
 41
1.0
 10
0.36376536069162
 20
-39.9449544203801
 30
0.0
 41
1.0
 10
0.3986881978752439
 20
-39.9434304167938
 30
0.0
 41
1.0
 10
0.4350079456849571
 20
-39.9401943789541
 30
0.0
 41
1.0
 10
0.4448272256638591
 20
-39.9375262034333
 30
0.0
 41
1.0
 10
0.445276740605903
 20
-39.93610370846671
 30
0.0
 41
1.0
 10
0.4452785279376761
 20
-39.93597060924761
 30
0.0
 41
1.0
  0
SPLINE
  5
141
330
1F
100
AcDbEntity
  8
1
100
AcDbSpline
210
0.0
220
0.0
230
1.0
 70
    12
 71
     3
 72
    11
 73
     7
 74
     0
 42
0.000000001
 43
0.0000000001
 40
0.0
 40
0.0
 40
0.0
 40
0.0
 40
0.321970448846034
 40
0.643901994235408
 40
0.9667870690194341
 40
1.0
 40
1.0
 40
1.0
 40
1.0
 10
0.343278579257491
 20
-39.8389484970092
 30
0.0
 41
1.0
 10
0.3637732217875349
 20
-39.8378658906455
 30
0.0
 41
1.0
 10
0.398703639661003
 20
-39.83525167735579
 30
0.0
 41
1.0
 10
0.435008166687143
 20
-39.82974344507379
 30
0.0
 41
1.0
 10
0.4448261556456951
 20
-39.8252626530973
 30
0.0
 41
1.0
 10
0.4452767402006961
 20
-39.8228878443775
 30
0.0
 41
1.0
 10
0.445278527406528
 20
-39.8226655088135
 30
0.0
 41
1.0
  0
SPLINE
  5
142
330
1F
100
AcDbEntity
  8
1
100
AcDbSpline
210
0.0
220
0.0
230
1.0
 70
    12
 71
     3
 72
    11
 73
     7
 74
     0
 42
0.000000001
 43
0.0000000001
 40
0.0
 40
0.0
 40
0.0
 40
0.0
 40
0.321653370827318
 40
0.6432288463389781
 40
0.9667125074733979
 40
1.0
 40
1.0
 40
1.0
 40
1.0
 10
0.343278579257491
 20
-39.6753616857423
 30
0.0
 41
1.0
 10
0.363785779977276
 20
-39.673814940568
 30
0.0
 41
1.0
 10
0.398728575314941
 20
-39.6700984808915
 30
0.0
 41
1.0
 10
0.4350105930898211
 20
-39.66229501508
 30
0.0
 41
1.0
 10
0.4448251947959251
 20
-39.6559859306443
 30
0.0
 41
1.0
 10
0.445276741174073
 20
-39.65264717526561
 30
0.0
 41
1.0
 10
0.445278526597685
 20
-39.6523345651314
 30
0.0
 41
1.0
  0
SPLINE
  5
143
330
1F
100
AcDbEntity
  8
1
100
AcDbSpline
210
0.0
220
0.0
230
1.0
 70
    12
 71
     3
 72
    11
 73
     7
 74
     0
 42
0.000000001
 43
0.0000000001
 40
0.0
 40
0.0
 40
0.0
 40
0.0
 40
0.321236058330276
 40
0.6423416211455671
 40
0.9666533115380429
 40
1.0
 40
1.0
 40
1.0
 40
1.0
 10
0.343278579257491
 20
-39.4541104631898
 30
0.0
 41
1.0
 10
0.363803148608723
 20
-39.4520901957118
 30
0.0
 41
1.0
 10
0.398763238628435
 20
-39.447254010887
 30
0.0
 41
1.0
 10
0.435015535668254
 20
-39.4371219045115
 30
0.0
 41
1.0
 10
0.4448244498511471
 20
-39.4289620241917
 30
0.0
 41
1.0
 10
0.445276744086062
 20
-39.4246427574136
 30
0.0
 41
1.0
 10
0.445278525506558
 20
-39.42423869439929
 30
0.0
 41
1.0
  0
SPLINE
  5
144
330
1F
100
AcDbEntity
  8
1
100
AcDbSpline
210
0.0
220
0.0
230
1.0
 70
    12
 71
     3
 72
    11
 73
     7
 74
     0
 42
0.000000001
 43
0.0000000001
 40
0.0
 40
0.0
 40
0.0
 40
0.0
 40
0.320716799253072
 40
0.64123666626303
 40
0.9666211035617299
 40
1.0
 40
1.0
 40
1.0
 40
1.0
 10
0.343278579257491
 20
-39.1742177967691
 30
0.0
 41
1.0
 10
0.3638254883619361
 20
-39.1717114807559
 30
0.0
 41
1.0
 10
0.398807963379858
 20
-39.1657322298815
 30
0.0
 41
1.0
 10
0.435023447020188
 20
-39.153226868532
 30
0.0
 41
1.0
 10
0.444824076471382
 20
-39.143186324632
 30
0.0
 41
1.0
 10
0.445276749713318
 20
-39.1378646914245
 30
0.0
 41
1.0
 10
0.4452785241292629
 20
-39.1373679755561
 30
0.0
 41
1.0
  0
SPLINE
  5
145
330
1F
100
AcDbEntity
  8
1
100
AcDbSpline
210
0.0
220
0.0
230
1.0
 70
    12
 71
     3
 72
    11
 73
     7
 74
     0
 42
0.000000001
 43
0.0000000001
 40
0.0
 40
0.0
 40
0.0
 40
0.0
 40
0.320093512593072
 40
0.639909537949528
 40
0.9666318341191828
 40
1.0
 40
1.0
 40
1.0
 40
1.0
 10
0.343278579257491
 20
-38.8344157614842
 30
0.0
 41
1.0
 10
0.363853012846794
 20
-38.8314074179198
 30
0.0
 41
1.0
 10
0.398863196028131
 20
-38.82425531523521
 30
0.0
 41
1.0
 10
0.4350349466862411
 20
-38.8093197055387
 30
0.0
 41
1.0
 10
0.444824287945685
 20
-38.7973605276361
 30
0.0
 41
1.0
 10
0.4452767590765751
 20
-38.791008893009
 30
0.0
 41
1.0
 10
0.4452785224649471
 20
-38.79041847995011
 30
0.0
 41
1.0
  0
SPLINE
  5
146
330
1F
100
AcDbEntity
  8
1
100
AcDbSpline
210
0.0
220
0.0
230
1.0
 70
    12
 71
     3
 72
    11
 73
     7
 74
     0
 42
0.000000001
 43
0.0000000001
 40
0.0
 40
0.0
 40
0.0
 40
0.0
 40
0.31936375958958
 40
0.6383550285818261
 40
0.9667067186606919
 40
1.0
 40
1.0
 40
1.0
 40
1.0
 10
0.343278579257491
 20
-38.4331153444907
 30
0.0
 41
1.0
 10
0.363885996473123
 20
-38.4295851270071
 30
0.0
 41
1.0
 10
0.3989295136707561
 20
-38.4212231617427
 30
0.0
 41
1.0
 10
0.4350508568514051
 20
-38.40378634998661
 30
0.0
 41
1.0
 10
0.444825367587557
 20
-38.3898614829367
 30
0.0
 41
1.0
 10
0.4452767734846691
 20
-38.3824457850679
 30
0.0
 41
1.0
 10
0.4452785205197971
 20
-38.3817610426728
 30
0.0
 41
1.0
  0
SPLINE
  5
147
330
1F
100
AcDbEntity
  8
1
100
AcDbSpline
210
0.0
220
0.0
230
1.0
 70
    12
 71
     3
 72
    11
 73
     7
 74
     0
 42
0.000000001
 43
0.0000000001
 40
0.0
 40
0.0
 40
0.0
 40
0.0
 40
0.318524766440125
 40
0.6365672198872021
 40
0.9668735414885681
 40
1.0
 40
1.0
 40
1.0
 40
1.0
 10
0.343278579257491
 20
-37.9683666047151
 30
0.0
 41
1.0
 10
0.3639247852855631
 20
-37.9642902545552
 30
0.0
 41
1.0
 10
0.399007648929837
 20
-37.9546731636831
 30
0.0
 41
1.0
 10
0.435072252106475
 20
-37.9346481325856
 30
0.0
 41
1.0
 10
0.444827686049078
 20
-37.9187001515694
 30
0.0
 41
1.0
 10
0.445276794604633
 20
-37.9101790612276
 30
0.0
 41
1.0
 10
0.445278518313889
 20
-37.9094001359721
 30
0.0
 41
1.0
  0
SPLINE
  5
148
330
1F
100
AcDbEntity
  8
1
100
AcDbSpline
210
0.0
220
0.0
230
1.0
 70
    12
 71
     3
 72
    11
 73
     7
 74
     0
 42
0.000000001
 43
0.0000000001
 40
0.0
 40
0.0
 40
0.0
 40
0.0
 40
0.317573465176117
 40
0.634539576319108
 40
0.967168460752252
 40
1.0
 40
1.0
 40
1.0
 40
1.0
 10
0.343278579257491
 20
-37.43780669560071
 30
0.0
 41
1.0
 10
0.363969811797128
 20
-37.43315482930821
 30
0.0
 41
1.0
 10
0.3990985242590789
 20
-37.4222277526016
 30
0.0
 41
1.0
 10
0.4351005284572701
 20
-37.3995086349724
 30
0.0
 41
1.0
 10
0.4448317253976321
 20
-37.3814680737958
 30
0.0
 41
1.0
 10
0.4452768245736771
 20
-37.3717919090269
 30
0.0
 41
1.0
 10
0.4452785158927771
 20
-37.3709202482818
 30
0.0
 41
1.0
  0
SPLINE
  5
149
330
1F
100
AcDbEntity
  8
1
100
AcDbSpline
210
0.0
220
0.0
230
1.0
 70
    12
 71
     3
 72
    10
 73
     6
 74
     0
 42
0.000000001
 43
0.0000000001
 40
0.0
 40
0.0
 40
0.0
 40
0.0
 40
0.3147639375007249
 40
0.6643698822365149
 40
1.0
 40
1.0
 40
1.0
 40
1.0
 10
0.4452785158927771
 20
-37.3709202482818
 30
0.0
 41
1.0
 10
0.445189910538096
 20
-37.362250603324
 30
0.0
 41
1.0
 10
0.4379352664792791
 20
-37.3449560120739
 30
0.0
 41
1.0
 10
0.4028307993471741
 20
-37.3202385025379
 30
0.0
 41
1.0
 10
0.365231675206057
 20
-37.30807700011661
 30
0.0
 41
1.0
 10
0.3432785792574899
 20
-37.302954217097
 30
0.0
 41
1.0
  0
SPLINE
  5
14A
330
1F
100
AcDbEntity
  8
1
100
AcDbSpline
210
0.0
220
0.0
230
1.0
 70
    12
 71
     3
 72
    10
 73
     6
 74
     0
 42
0.000000001
 43
0.0000000001
 40
0.0
 40
0.0
 40
0.0
 40
0.0
 40
0.309017687953692
 40
0.6527193669657661
 40
1.0
 40
1.0
 40
1.0
 40
1.0
 10
0.445278518313889
 20
-37.9094001359721
 30
0.0
 41
1.0
 10
0.445178423597911
 20
-37.90186670925579
 30
0.0
 41
1.0
 10
0.4381469572286341
 20
-37.8868140783326
 30
0.0
 41
1.0
 10
0.403460949168239
 20
-37.8649187939278
 30
0.0
 41
1.0
 10
0.365910261595107
 20
-37.8540698156022
 30
0.0
 41
1.0
 10
0.3432785792574899
 20
-37.8494108391393
 30
0.0
 41
1.0
  0
SPLINE
  5
14B
330
1F
100
AcDbEntity
  8
1
100
AcDbSpline
210
0.0
220
0.0
230
1.0
 70
    12
 71
     3
 72
    10
 73
     6
 74
     0
 42
0.000000001
 43
0.0000000001
 40
0.0
 40
0.0
 40
0.0
 40
0.0
 40
0.304200261846456
 40
0.6428447009526921
 40
1.0
 40
1.0
 40
1.0
 40
1.0
 10
0.4452785205197971
 20
-38.3817610426728
 30
0.0
 41
1.0
 10
0.445169407248158
 20
-38.3752777111853
 30
0.0
 41
1.0
 10
0.438322425613654
 20
-38.3623068048198
 30
0.0
 41
1.0
 10
0.403984971878045
 20
-38.3431470956946
 30
0.0
 41
1.0
 10
0.366480688532062
 20
-38.33359789694571
 30
0.0
 41
1.0
 10
0.3432785792574899
 20
-38.3294326649518
 30
0.0
 41
1.0
  0
SPLINE
  5
14C
330
1F
100
AcDbEntity
  8
1
100
AcDbSpline
210
0.0
220
0.0
230
1.0
 70
    12
 71
     3
 72
    10
 73
     6
 74
     0
 42
0.000000001
 43
0.0000000001
 40
0.0
 40
0.0
 40
0.0
 40
0.0
 40
0.300198791331575
 40
0.6345575317982651
 40
1.0
 40
1.0
 40
1.0
 40
1.0
 10
0.4452785224649471
 20
-38.79041847995011
 30
0.0
 41
1.0
 10
0.445162309935835
 20
-38.7849163943419
 30
0.0
 41
1.0
 10
0.438466790758648
 20
-38.7738974244629
 30
0.0
 41
1.0
 10
0.404417241193722
 20
-38.75740119353361
 30
0.0
 41
1.0
 10
0.3669559377878089
 20
-38.74913891005
 30
0.0
 41
1.0
 10
0.3432785792574899
 20
-38.7454889756754
 30
0.0
 41
1.0
  0
SPLINE
  5
14D
330
1F
100
AcDbEntity
  8
1
100
AcDbSpline
210
0.0
220
0.0
230
1.0
 70
    12
 71
     3
 72
    11
 73
     7
 74
     0
 42
0.000000001
 43
0.0000000001
 40
0.0
 40
0.0
 40
0.0
 40
0.0
 40
0.296691602149892
 40
0.6272155338526071
 40
0.953996805356825
 40
1.0
 40
1.0
 40
1.0
 40
1.0
 10
0.4452785241292629
 20
-39.1373679755561
 30
0.0
 41
1.0
 10
0.445156742532115
 20
-39.132792351645
 30
0.0
 41
1.0
 10
0.4384951642449061
 20
-39.1235978661048
 30
0.0
 41
1.0
 10
0.406646499120603
 20
-39.11044706296261
 30
0.0
 41
1.0
 10
0.368905877199596
 20
-39.1029738490202
 30
0.0
 41
1.0
 10
0.346140789069402
 20
-39.0999787938044
 30
0.0
 41
1.0
 10
0.3432785792574899
 20
-39.09962178220271
 30
0.0
 41
1.0
  0
SPLINE
  5
14E
330
1F
100
AcDbEntity
  8
1
100
AcDbSpline
210
0.0
220
0.0
230
1.0
 70
    12
 71
     3
 72
    11
 73
     7
 74
     0
 42
0.000000001
 43
0.0000000001
 40
0.0
 40
0.0
 40
0.0
 40
0.0
 40
0.2940413480973449
 40
0.6216135143914189
 40
0.9467668539274978
 40
1.0
 40
1.0
 40
1.0
 40
1.0
 10
0.445278525506557
 20
-39.42423869439929
 30
0.0
 41
1.0
 10
0.4451524286300081
 20
-39.420546441505
 30
0.0
 41
1.0
 10
0.43858787944449
 20
-39.4131208802221
 30
0.0
 41
1.0
 10
0.407159133356107
 20
-39.40246863069761
 30
0.0
 41
1.0
 10
0.369558254762692
 20
-39.396324734959
 30
0.0
 41
1.0
 10
0.346581385512188
 20
-39.3938373713107
 30
0.0
 41
1.0
 10
0.3432785792574899
 20
-39.3935011271963
 30
0.0
 41
1.0
  0
SPLINE
  5
14F
330
1F
100
AcDbEntity
  8
1
100
AcDbSpline
210
0.0
220
0.0
230
1.0
 70
    12
 71
     3
 72
    11
 73
     7
 74
     0
 42
0.000000001
 43
0.0000000001
 40
0.0
 40
0.0
 40
0.0
 40
0.0
 40
0.292004611354741
 40
0.6172576204948851
 40
0.9411021935372769
 40
1.0
 40
1.0
 40
1.0
 40
1.0
 10
0.445278526597685
 20
-39.6523345651314
 30
0.0
 41
1.0
 10
0.4451491722122311
 20
-39.6494925351709
 30
0.0
 41
1.0
 10
0.438658829316236
 20
-39.64377100086471
 30
0.0
 41
1.0
 10
0.4075543413944671
 20
-39.6355329851714
 30
0.0
 41
1.0
 10
0.37006357299534
 20
-39.6307208568199
 30
0.0
 41
1.0
 10
0.346924831851548
 20
-39.6287567962241
 30
0.0
 41
1.0
 10
0.3432785792574899
 20
-39.6284675278459
 30
0.0
 41
1.0
  0
SPLINE
  5
150
330
1F
100
AcDbEntity
  8
1
100
AcDbSpline
210
0.0
220
0.0
230
1.0
 70
    12
 71
     3
 72
    11
 73
     7
 74
     0
 42
0.000000001
 43
0.0000000001
 40
0.0
 40
0.0
 40
0.0
 40
0.0
 40
0.290541357971414
 40
0.614077913945571
 40
0.9369321457928741
 40
1.0
 40
1.0
 40
1.0
 40
1.0
 10
0.445278527406528
 20
-39.8226655088135
 30
0.0
 41
1.0
 10
0.4451468364094361
 20
-39.82064921890529
 30
0.0
 41
1.0
 10
0.4387097325427181
 20
-39.81658328747361
 30
0.0
 41
1.0
 10
0.4078404479062601
 20
-39.8106960279971
 30
0.0
 41
1.0
 10
0.370431639173937
 20
-39.8072167273047
 30
0.0
 41
1.0
 10
0.3471766411206049
 20
-39.80578726435201
 30
0.0
 41
1.0
 10
0.3432785792574899
 20
-39.80556426120161
 30
0.0
 41
1.0
  0
SPLINE
  5
151
330
1F
100
AcDbEntity
  8
1
100
AcDbSpline
210
0.0
220
0.0
230
1.0
 70
    12
 71
     3
 72
    11
 73
     7
 74
     0
 42
0.000000001
 43
0.0000000001
 40
0.0
 40
0.0
 40
0.0
 40
0.0
 40
0.289623414238973
 40
0.6120245446759649
 40
0.934205463353963
 40
1.0
 40
1.0
 40
1.0
 40
1.0
 10
0.4452785279376761
 20
-39.93597060924761
 30
0.0
 41
1.0
 10
0.445145329586481
 20
-39.93476333751051
 30
0.0
 41
1.0
 10
0.43874179183601
 20
-39.93231951031511
 30
0.0
 41
1.0
 10
0.40802332286537
 20
-39.9287386122598
 30
0.0
 41
1.0
 10
0.370669415283205
 20
-39.92659225228671
 30
0.0
 41
1.0
 10
0.3473407742977701
 20
-39.9257049331983
 30
0.0
 41
1.0
 10
0.3432785792574899
 20
-39.9255614074463
 30
0.0
 41
1.0
  0
SPLINE
  5
152
330
1F
100
AcDbEntity
  8
1
100
AcDbSpline
210
0.0
220
0.0
230
1.0
 70
    12
 71
     3
 72
    11
 73
     7
 74
     0
 42
0.000000001
 43
0.0000000001
 40
0.0
 40
0.0
 40
0.0
 40
0.0
 40
0.289233232597622
 40
0.611065803528697
 40
0.9328889256689979
 40
1.0
 40
1.0
 40
1.0
 40
1.0
 10
0.445278528195154
 20
-39.9927345132147
 30
0.0
 41
1.0
 10
0.445144596481825
 20
-39.9923267006275
 30
0.0
 41
1.0
 10
0.4387557572347321
 20
-39.9914853653713
 30
0.0
 41
1.0
 10
0.4081066599305301
 20
-39.990184317627
 30
0.0
 41
1.0
 10
0.370781330763849
 20
-39.9893703428791
 30
0.0
 41
1.0
 10
0.3474197841893889
 20
-39.9890293439972
 30
0.0
 41
1.0
 10
0.3432785792574899
 20
-39.9889729956507
 30
0.0
 41
1.0
  0
SPLINE
  5
153
330
1F
100
AcDbEntity
  8
1
100
AcDbSpline
210
0.0
220
0.0
230
1.0
 70
    12
 71
     3
 72
    11
 73
     7
 74
     0
 42
0.000000001
 43
0.0000000001
 40
0.0
 40
0.0
 40
0.0
 40
0.0
 40
0.318071566159346
 40
0.6355110233967851
 40
0.9691714116244959
 40
1.0
 40
1.0
 40
1.0
 40
1.0
 10
0.3432785792574899
 20
37.302954217097
 30
0.0
 41
1.0
 10
0.36400051019055
 20
37.3077618320724
 30
0.0
 41
1.0
 10
0.399170576039334
 20
37.3189772842439
 30
0.0
 41
1.0
 10
0.435185842201202
 20
37.3421501068499
 30
0.0
 41
1.0
 10
0.4448582754078561
 20
37.3603111247524
 30
0.0
 41
1.0
 10
0.445276884938483
 20
37.36997845460221
 30
0.0
 41
1.0
 10
0.445278516616414
 20
37.370797870926
 30
0.0
 41
1.0
  0
SPLINE
  5
154
330
1F
100
AcDbEntity
  8
1
100
AcDbSpline
210
0.0
220
0.0
230
1.0
 70
    12
 71
     3
 72
    11
 73
     7
 74
     0
 42
0.000000001
 43
0.0000000001
 40
0.0
 40
0.0
 40
0.0
 40
0.0
 40
0.318954827300717
 40
0.637405697531516
 40
0.9685893114545509
 40
1.0
 40
1.0
 40
1.0
 40
1.0
 10
0.3432785792574899
 20
37.8494108391393
 30
0.0
 41
1.0
 10
0.363951449857316
 20
37.85363436722921
 30
0.0
 41
1.0
 10
0.3990701876775129
 20
37.8635236282788
 30
0.0
 41
1.0
 10
0.435145788638753
 20
37.8839754584703
 30
0.0
 41
1.0
 10
0.4448504337050651
 20
37.9000394480033
 30
0.0
 41
1.0
 10
0.445276843833161
 20
37.9085548068416
 30
0.0
 41
1.0
 10
0.445278518670188
 20
37.909294118515
 30
0.0
 41
1.0
  0
SPLINE
  5
155
330
1F
100
AcDbEntity
  8
1
100
AcDbSpline
210
0.0
220
0.0
230
1.0
 70
    12
 71
     3
 72
    11
 73
     7
 74
     0
 42
0.000000001
 43
0.0000000001
 40
0.0
 40
0.0
 40
0.0
 40
0.0
 40
0.319731715690581
 40
0.6390722377690981
 40
0.96816460990366
 40
1.0
 40
1.0
 40
1.0
 40
1.0
 10
0.3432785792574899
 20
38.3294326649518
 30
0.0
 41
1.0
 10
0.363908930963969
 20
38.3331029740374
 30
0.0
 41
1.0
 10
0.398983270887668
 20
38.3417237110479
 30
0.0
 41
1.0
 10
0.4351136914509551
 20
38.35956523809171
 30
0.0
 41
1.0
 10
0.44484470229222
 20
38.37360241180421
 30
0.0
 41
1.0
 10
0.445276813924954
 20
38.3810149262489
 30
0.0
 41
1.0
 10
0.4452785206544311
 20
38.3816702439317
 30
0.0
 41
1.0
  0
SPLINE
  5
156
330
1F
100
AcDbEntity
  8
1
100
AcDbSpline
210
0.0
220
0.0
230
1.0
 70
    12
 71
     3
 72
    11
 73
     7
 74
     0
 42
0.000000001
 43
0.0000000001
 40
0.0
 40
0.0
 40
0.0
 40
0.0
 40
0.320404141558801
 40
0.640514884089733
 40
0.96785525792768
 40
1.0
 40
1.0
 40
1.0
 40
1.0
 10
0.3432785792574899
 20
38.7454889756754
 30
0.0
 41
1.0
 10
0.363872462486909
 20
38.74863158511401
 30
0.0
 41
1.0
 10
0.3989087614064001
 20
38.7560314438078
 30
0.0
 41
1.0
 10
0.4350879373900051
 20
38.7713537232235
 30
0.0
 41
1.0
 10
0.444840519068803
 20
38.78342214553621
 30
0.0
 41
1.0
 10
0.4452767922956931
 20
38.7897726786618
 30
0.0
 41
1.0
 10
0.445278522472563
 20
38.7903418624185
 30
0.0
 41
1.0
  0
SPLINE
  5
157
330
1F
100
AcDbEntity
  8
1
100
AcDbSpline
210
0.0
220
0.0
230
1.0
 70
    12
 71
     3
 72
    11
 73
     7
 74
     0
 42
0.000000001
 43
0.0000000001
 40
0.0
 40
0.0
 40
0.0
 40
0.0
 40
0.3209739263014519
 40
0.6417376703615791
 40
0.967628685935521
 40
1.0
 40
1.0
 40
1.0
 40
1.0
 10
0.3432785792574899
 20
39.09962178220271
 30
0.0
 41
1.0
 10
0.363841650185236
 20
39.1022576278972
 30
0.0
 41
1.0
 10
0.3988458100867271
 20
39.1084756781294
 30
0.0
 41
1.0
 10
0.4350672759525091
 20
39.1213531111514
 30
0.0
 41
1.0
 10
0.444837449076433
 20
39.1315003957799
 30
0.0
 41
1.0
 10
0.4452767767426121
 20
39.1368226111218
 30
0.0
 41
1.0
 10
0.445278524071201
 20
39.137304635043
 30
0.0
 41
1.0
  0
SPLINE
  5
158
330
1F
100
AcDbEntity
  8
1
100
AcDbSpline
210
0.0
220
0.0
230
1.0
 70
    12
 71
     3
 72
    11
 73
     7
 74
     0
 42
0.000000001
 43
0.0000000001
 40
0.0
 40
0.0
 40
0.0
 40
0.0
 40
0.321442710273726
 40
0.6427442278696671
 40
0.9674597128680359
 40
1.0
 40
1.0
 40
1.0
 40
1.0
 10
0.3432785792574899
 20
39.3935011271963
 30
0.0
 41
1.0
 10
0.3638161790868521
 20
39.3956471470936
 30
0.0
 41
1.0
 10
0.398793741996372
 20
39.40071498701921
 30
0.0
 41
1.0
 10
0.435050739482406
 20
39.411207569045
 30
0.0
 41
1.0
 10
0.444835156182218
 20
39.41947218337371
 30
0.0
 41
1.0
 10
0.445276765594461
 20
39.42379336914861
 30
0.0
 41
1.0
 10
0.4452785254223871
 20
39.4241878705894
 30
0.0
 41
1.0
  0
SPLINE
  5
159
330
1F
100
AcDbEntity
  8
1
100
AcDbSpline
210
0.0
220
0.0
230
1.0
 70
    12
 71
     3
 72
    11
 73
     7
 74
     0
 42
0.000000001
 43
0.0000000001
 40
0.0
 40
0.0
 40
0.0
 40
0.0
 40
0.321811891141465
 40
0.643537653991933
 40
0.9673290291997599
 40
1.0
 40
1.0
 40
1.0
 40
1.0
 10
0.3432785792574899
 20
39.6284675278459
 30
0.0
 41
1.0
 10
0.363795800669
 20
39.63013710831829
 30
0.0
 41
1.0
 10
0.398752026655738
 20
39.6340797048723
 30
0.0
 41
1.0
 10
0.435037585385367
 20
39.6422347188621
 30
0.0
 41
1.0
 10
0.4448333826773651
 20
39.64864698105561
 30
0.0
 41
1.0
 10
0.4452767575879041
 20
39.6519886842348
 30
0.0
 41
1.0
 10
0.445278526512693
 20
39.6522956428429
 30
0.0
 41
1.0
  0
SPLINE
  5
15A
330
1F
100
AcDbEntity
  8
1
100
AcDbSpline
210
0.0
220
0.0
230
1.0
 70
    12
 71
     3
 72
    11
 73
     7
 74
     0
 42
0.000000001
 43
0.0000000001
 40
0.0
 40
0.0
 40
0.0
 40
0.0
 40
0.322082582523106
 40
0.644120424205076
 40
0.967222097554859
 40
1.0
 40
1.0
 40
1.0
 40
1.0
 10
0.3432785792574899
 20
39.80556426120161
 30
0.0
 41
1.0
 10
0.363780323476199
 20
39.8067675728153
 30
0.0
 41
1.0
 10
0.398720256371328
 20
39.8096038930981
 30
0.0
 41
1.0
 10
0.4350272543513521
 20
39.8154571701017
 30
0.0
 41
1.0
 10
0.4448319345698339
 20
39.8200399997051
 30
0.0
 41
1.0
 10
0.4452767517848201
 20
39.82241850542671
 30
0.0
 41
1.0
 10
0.445278527336569
 20
39.8226380152384
 30
0.0
 41
1.0
  0
SPLINE
  5
15B
330
1F
100
AcDbEntity
  8
1
100
AcDbSpline
210
0.0
220
0.0
230
1.0
 70
    12
 71
     3
 72
    11
 73
     7
 74
     0
 42
0.000000001
 43
0.0000000001
 40
0.0
 40
0.0
 40
0.0
 40
0.0
 40
0.322255585996545
 40
0.6444943326991469
 40
0.9671283651599679
 40
1.0
 40
1.0
 40
1.0
 40
1.0
 10
0.3432785792574899
 20
39.9255614074463
 30
0.0
 41
1.0
 10
0.3637696063321721
 20
39.9263056501651
 30
0.0
 41
1.0
 10
0.39869813062761
 20
39.92804912205171
 30
0.0
 41
1.0
 10
0.435019340484584
 20
39.93162595366511
 30
0.0
 41
1.0
 10
0.444830671089644
 20
39.9343954185604
 30
0.0
 41
1.0
 10
0.445276747517158
 20
39.93582210011221
 30
0.0
 41
1.0
 10
0.4452785278922551
 20
39.9359542100315
 30
0.0
 41
1.0
  0
SPLINE
  5
15C
330
1F
100
AcDbEntity
  8
1
100
AcDbSpline
210
0.0
220
0.0
230
1.0
 70
    12
 71
     3
 72
    11
 73
     7
 74
     0
 42
0.000000001
 43
0.0000000001
 40
0.0
 40
0.0
 40
0.0
 40
0.0
 40
0.322331371809364
 40
0.6446604516923341
 40
0.9670407167710269
 40
1.0
 40
1.0
 40
1.0
 40
1.0
 10
0.3432785792574899
 20
39.9889729956507
 30
0.0
 41
1.0
 10
0.363763553579826
 20
39.9892625673306
 30
0.0
 41
1.0
 10
0.398685445173897
 20
39.9899213957458
 30
0.0
 41
1.0
 10
0.4350135705896251
 20
39.9912371564442
 30
0.0
 41
1.0
 10
0.4448294974184061
 20
39.99220284579701
 30
0.0
 41
1.0
 10
0.44527674435056
 20
39.9926844026949
 30
0.0
 41
1.0
 10
0.445278528179312
 20
39.992729008905
 30
0.0
 41
1.0
  0
SPLINE
  5
15D
330
1F
100
AcDbEntity
  8
1
100
AcDbSpline
210
0.0
220
0.0
230
1.0
 70
    12
 71
     3
 72
    10
 73
     6
 74
     0
 42
0.000000001
 43
0.0000000001
 40
0.0
 40
0.0
 40
0.0
 40
0.0
 40
0.317974179885805
 40
0.667397908994798
 40
1.0
 40
1.0
 40
1.0
 40
1.0
 10
0.445278516616414
 20
37.370797870926
 30
0.0
 41
1.0
 10
0.4451925264176741
 20
37.3795442997708
 30
0.0
 41
1.0
 10
0.4378393735562121
 20
37.39682007557121
 30
0.0
 41
1.0
 10
0.402512691128835
 20
37.4210954919467
 30
0.0
 41
1.0
 10
0.365028885558822
 20
37.43289250794671
 30
0.0
 41
1.0
 10
0.343278579257491
 20
37.43780669560071
 30
0.0
 41
1.0
  0
SPLINE
  5
15E
330
1F
100
AcDbEntity
  8
1
100
AcDbSpline
210
0.0
220
0.0
230
1.0
 70
    12
 71
     3
 72
    10
 73
     6
 74
     0
 42
0.000000001
 43
0.0000000001
 40
0.0
 40
0.0
 40
0.0
 40
0.0
 40
0.311753166842925
 40
0.655312839822945
 40
1.0
 40
1.0
 40
1.0
 40
1.0
 10
0.445278518670188
 20
37.909294118515
 30
0.0
 41
1.0
 10
0.4451802458158801
 20
37.9168840324568
 30
0.0
 41
1.0
 10
0.438065837251989
 20
37.9319087837351
 30
0.0
 41
1.0
 10
0.403190656444483
 20
37.9533886084355
 30
0.0
 41
1.0
 10
0.3657366650414211
 20
37.9639026545437
 30
0.0
 41
1.0
 10
0.343278579257491
 20
37.9683666047151
 30
0.0
 41
1.0
  0
SPLINE
  5
15F
330
1F
100
AcDbEntity
  8
1
100
AcDbSpline
210
0.0
220
0.0
230
1.0
 70
    12
 71
     3
 72
    10
 73
     6
 74
     0
 42
0.000000001
 43
0.0000000001
 40
0.0
 40
0.0
 40
0.0
 40
0.0
 40
0.306514058540948
 40
0.6450476527400639
 40
1.0
 40
1.0
 40
1.0
 40
1.0
 10
0.4452785206544311
 20
38.3816702439317
 30
0.0
 41
1.0
 10
0.445170664570475
 20
38.38819383847111
 30
0.0
 41
1.0
 10
0.4382542323547551
 20
38.401129425853
 30
0.0
 41
1.0
 10
0.4037568541450101
 20
38.419895532119
 30
0.0
 41
1.0
 10
0.366333263405025
 20
38.4291339401968
 30
0.0
 41
1.0
 10
0.343278579257491
 20
38.4331153444907
 30
0.0
 41
1.0
  0
SPLINE
  5
160
330
1F
100
AcDbEntity
  8
1
100
AcDbSpline
210
0.0
220
0.0
230
1.0
 70
    12
 71
     3
 72
    10
 73
     6
 74
     0
 42
0.000000001
 43
0.0000000001
 40
0.0
 40
0.0
 40
0.0
 40
0.0
 40
0.302132963107308
 40
0.636405409564374
 40
1.0
 40
1.0
 40
1.0
 40
1.0
 10
0.445278522472563
 20
38.7903418624185
 30
0.0
 41
1.0
 10
0.4451631658008921
 20
38.7958712653819
 30
0.0
 41
1.0
 10
0.438410080215598
 20
38.806848855838
 30
0.0
 41
1.0
 10
0.4042268804919661
 20
38.82296934419489
 30
0.0
 41
1.0
 10
0.3668322757801571
 20
38.8309404711782
 30
0.0
 41
1.0
 10
0.343278579257491
 20
38.8344157614842
 30
0.0
 41
1.0
  0
SPLINE
  5
161
330
1F
100
AcDbEntity
  8
1
100
AcDbSpline
210
0.0
220
0.0
230
1.0
 70
    12
 71
     3
 72
    11
 73
     7
 74
     0
 42
0.000000001
 43
0.0000000001
 40
0.0
 40
0.0
 40
0.0
 40
0.0
 40
0.298284465370075
 40
0.628748873030799
 40
0.955018759891886
 40
1.0
 40
1.0
 40
1.0
 40
1.0
 10
0.445278524071201
 20
39.137304635043
 30
0.0
 41
1.0
 10
0.445157314714804
 20
39.14189732131021
 30
0.0
 41
1.0
 10
0.4384479445922271
 20
39.1510428149419
 30
0.0
 41
1.0
 10
0.4064624951692971
 20
39.1638761722364
 30
0.0
 41
1.0
 10
0.3687536930287971
 20
39.1710321195586
 30
0.0
 41
1.0
 10
0.346076640282745
 20
39.1738842008678
 30
0.0
 41
1.0
 10
0.343278579257491
 20
39.1742177967691
 30
0.0
 41
1.0
  0
SPLINE
  5
162
330
1F
100
AcDbEntity
  8
1
100
AcDbSpline
210
0.0
220
0.0
230
1.0
 70
    12
 71
     3
 72
    11
 73
     7
 74
     0
 42
0.000000001
 43
0.0000000001
 40
0.0
 40
0.0
 40
0.0
 40
0.0
 40
0.29531276967163
 40
0.6228402896174901
 40
0.9475922124502719
 40
1.0
 40
1.0
 40
1.0
 40
1.0
 10
0.4452785254223871
 20
39.4241878705894
 30
0.0
 41
1.0
 10
0.4451528021871171
 20
39.4278891853319
 30
0.0
 41
1.0
 10
0.4385503158462539
 20
39.4352619487741
 30
0.0
 41
1.0
 10
0.407012847733404
 20
39.4456051168326
 30
0.0
 41
1.0
 10
0.3694365911038
 20
39.4514466433262
 30
0.0
 41
1.0
 10
0.3465296364888161
 20
39.4537970344249
 30
0.0
 41
1.0
 10
0.343278579257491
 20
39.4541104631898
 30
0.0
 41
1.0
  0
SPLINE
  5
163
330
1F
100
AcDbEntity
  8
1
100
AcDbSpline
210
0.0
220
0.0
230
1.0
 70
    12
 71
     3
 72
    11
 73
     7
 74
     0
 42
0.000000001
 43
0.0000000001
 40
0.0
 40
0.0
 40
0.0
 40
0.0
 40
0.29297460799544
 40
0.618195238945437
 40
0.9417376301530849
 40
1.0
 40
1.0
 40
1.0
 40
1.0
 10
0.445278526512693
 20
39.6522956428429
 30
0.0
 41
1.0
 10
0.4451494081107511
 20
39.6551406666938
 30
0.0
 41
1.0
 10
0.438630246370769
 20
39.6608064899758
 30
0.0
 41
1.0
 10
0.407443083916721
 20
39.66874177451961
 30
0.0
 41
1.0
 10
0.369970640290346
 20
39.6732629808289
 30
0.0
 41
1.0
 10
0.346885024949922
 20
39.6750947278871
 30
0.0
 41
1.0
 10
0.343278579257491
 20
39.6753616857423
 30
0.0
 41
1.0
  0
SPLINE
  5
164
330
1F
100
AcDbEntity
  8
1
100
AcDbSpline
210
0.0
220
0.0
230
1.0
 70
    12
 71
     3
 72
    11
 73
     7
 74
     0
 42
0.000000001
 43
0.0000000001
 40
0.0
 40
0.0
 40
0.0
 40
0.0
 40
0.29122473172588
 40
0.6147393409132011
 40
0.937382806707523
 40
1.0
 40
1.0
 40
1.0
 40
1.0
 10
0.445278527336569
 20
39.8226380152384
 30
0.0
 41
1.0
 10
0.445146977296733
 20
39.8246529303544
 30
0.0
 41
1.0
 10
0.438689634312288
 20
39.82866103933321
 30
0.0
 41
1.0
 10
0.4077622450588161
 20
39.8342501448773
 30
0.0
 41
1.0
 10
0.370366108799327
 20
39.8374468492015
 30
0.0
 41
1.0
 10
0.347148426799097
 20
39.83874741324349
 30
0.0
 41
1.0
 10
0.343278579257491
 20
39.8389484970092
 30
0.0
 41
1.0
  0
SPLINE
  5
165
330
1F
100
AcDbEntity
  8
1
100
AcDbSpline
210
0.0
220
0.0
230
1.0
 70
    12
 71
     3
 72
    10
 73
     6
 74
     0
 42
0.000000001
 43
0.0000000001
 40
0.0
 40
0.0
 40
0.0
 40
0.0
 40
0.454087578361791
 40
0.907707319938096
 40
1.0
 40
1.0
 40
1.0
 40
1.0
 10
0.4359874873691
 20
39.93936403414371
 30
0.0
 41
1.0
 10
0.428676904863557
 20
39.940607064883
 30
0.0
 41
1.0
 10
0.4082251835704961
 20
39.9428054414833
 30
0.0
 41
1.0
 10
0.370617186496243
 20
39.9446979956668
 30
0.0
 41
1.0
 10
0.347323906294925
 20
39.9454574797288
 30
0.0
 41
1.0
 10
0.343278579257491
 20
39.9455793524169
 30
0.0
 41
1.0
  0
SPLINE
  5
166
330
1F
100
AcDbEntity
  8
1
100
AcDbSpline
210
0.0
220
0.0
230
1.0
 70
    12
 71
     3
 72
    10
 73
     6
 74
     0
 42
0.000000001
 43
0.0000000001
 40
0.0
 40
0.0
 40
0.0
 40
0.0
 40
0.4528773413521831
 40
0.905688676903728
 40
1.0
 40
1.0
 40
1.0
 40
1.0
 10
0.4360219344129051
 20
39.9938439298732
 30
0.0
 41
1.0
 10
0.428733416278937
 20
39.9942345512165
 30
0.0
 41
1.0
 10
0.4083398019762841
 20
39.9949153884853
 30
0.0
 41
1.0
 10
0.3707546988419729
 20
39.9954597639987
 30
0.0
 41
1.0
 10
0.347414115912572
 20
39.9956749676488
 30
0.0
 41
1.0
 10
0.343278579257491
 20
39.9957097980911
 30
0.0
 41
1.0
  0
SPLINE
  5
167
330
1F
100
AcDbEntity
  8
1
100
AcDbSpline
210
0.0
220
0.0
230
1.0
 70
    28
 71
     1
 72
     4
 73
     2
 74
     0
 42
0.000000001
 43
0.0000000001
 40
0.0
 40
0.0
 40
1.0
 40
1.0
 10
22.65725
 20
9.67710219507391
 30
0.0
 41
1.0
 10
22.6961282360875
 20
9.699548555144669
 30
0.0
 41
1.0
  0
SPLINE
  5
168
330
1F
100
AcDbEntity
  8
1
100
AcDbSpline
210
0.0
220
0.0
230
1.0
 70
    12
 71
     3
 72
    12
 73
     8
 74
     0
 42
0.000000001
 43
0.0000000001
 40
0.0
 40
0.0
 40
0.0
 40
0.0
 40
0.152289261547462
 40
0.389936097547479
 40
0.627156053090157
 40
0.984130030271206
 40
1.0
 40
1.0
 40
1.0
 40
1.0
 10
22.5839826473685
 20
9.60494717206884
 30
0.0
 41
1.0
 10
22.5867255141742
 20
9.60956842598634
 30
0.0
 41
1.0
 10
22.59430367347389
 20
9.621167484643368
 30
0.0
 41
1.0
 10
22.6093934608474
 20
9.639762217386287
 30
0.0
 41
1.0
 10
22.63146883840461
 20
9.660482181105381
 30
0.0
 41
1.0
 10
22.6475532603751
 20
9.671458148173369
 30
0.0
 41
1.0
 10
22.6568546163096
 20
9.676874288772909
 30
0.0
 41
1.0
 10
22.65725
 20
9.67710219507391
 30
0.0
 41
1.0
  0
SPLINE
  5
169
330
1F
100
AcDbEntity
  8
1
100
AcDbSpline
210
0.0
220
0.0
230
1.0
 70
    28
 71
     1
 72
     4
 73
     2
 74
     0
 42
0.000000001
 43
0.0000000001
 40
0.0
 40
0.0
 40
1.0
 40
1.0
 10
22.65725
 20
8.177102195073899
 30
0.0
 41
1.0
 10
23.325
 20
8.56262783732529
 30
0.0
 41
1.0
  0
SPLINE
  5
16A
330
1F
100
AcDbEntity
  8
1
100
AcDbSpline
210
0.0
220
0.0
230
1.0
 70
    12
 71
     3
 72
    16
 73
    12
 74
     0
 42
0.000000001
 43
0.0000000001
 40
0.0
 40
0.0
 40
0.0
 40
0.0
 40
0.4463315666519822
 40
0.6342165122611469
 40
0.770473451482275
 40
0.8185739652460021
 40
0.8670185433215708
 40
0.897956374429377
 40
0.9290566675934091
 40
0.9577765182979549
 40
1.0
 40
1.0
 40
1.0
 40
1.0
 10
22.6572499999999
 20
7.82289780492609
 30
0.0
 41
1.0
 10
22.6163801530049
 20
7.843155248663619
 30
0.0
 41
1.0
 10
22.5766254254301
 20
7.891172918286829
 30
0.0
 41
1.0
 10
22.55306791009
 20
7.976823882787349
 30
0.0
 41
1.0
 10
22.5552342222399
 20
8.03130659925573
 30
0.0
 41
1.0
 10
22.5679938366536
 20
8.073833434253389
 30
0.0
 41
1.0
 10
22.5805934568766
 20
8.10068663836467
 30
0.0
 41
1.0
 10
22.5975058422304
 20
8.12575415060583
 30
0.0
 41
1.0
 10
22.6149491223432
 20
8.1454204560236
 30
0.0
 41
1.0
 10
22.6356884084729
 20
8.16344478802968
 30
0.0
 41
1.0
 10
22.6492769249442
 20
8.17273451202579
 30
0.0
 41
1.0
 10
22.65725
 20
8.177102195073899
 30
0.0
 41
1.0
  0
SPLINE
  5
16B
330
1F
100
AcDbEntity
  8
1
100
AcDbSpline
210
0.0
220
0.0
230
1.0
 70
    28
 71
     1
 72
     4
 73
     2
 74
     0
 42
0.000000001
 43
0.0000000001
 40
0.0
 40
0.0
 40
1.0
 40
1.0
 10
23.2375030427648
 20
7.48788855448775
 30
0.0
 41
1.0
 10
22.6572499999999
 20
7.82289780492609
 30
0.0
 41
1.0
  0
SPLINE
  5
16C
330
1F
100
AcDbEntity
  8
1
100
AcDbSpline
210
0.0
220
0.0
230
1.0
 70
    28
 71
     1
 72
     4
 73
     2
 74
     0
 42
0.000000001
 43
0.0000000001
 40
0.0
 40
0.0
 40
1.0
 40
1.0
 10
22.325
 20
6.98632425626587
 30
0.0
 41
1.0
 10
23.2375030427648
 20
7.48788855448775
 30
0.0
 41
1.0
  0
SPLINE
  5
16D
330
1F
100
AcDbEntity
  8
1
100
AcDbSpline
210
0.0
220
0.0
230
1.0
 70
    12
 71
     3
 72
    12
 73
     8
 74
     0
 42
0.000000001
 43
0.0000000001
 40
0.0
 40
0.0
 40
0.0
 40
0.0
 40
0.5648121452224221
 40
0.870088819497767
 40
0.9390766516924781
 40
0.997643849612211
 40
1.0
 40
1.0
 40
1.0
 40
1.0
 10
22.6572499999999
 20
9.3228978049261
 30
0.0
 41
1.0
 10
22.6091542152334
 20
9.34286148733743
 30
0.0
 41
1.0
 10
22.5676425991291
 20
9.40440218160014
 30
0.0
 41
1.0
 10
22.5485689151111
 20
9.50447953447758
 30
0.0
 41
1.0
 10
22.5665867639112
 20
9.57066041665883
 30
0.0
 41
1.0
 10
22.577211786075
 20
9.59353917689922
 30
0.0
 41
1.0
 10
22.5837285898789
 20
9.604521743872689
 30
0.0
 41
1.0
 10
22.5839826473685
 20
9.60494717206884
 30
0.0
 41
1.0
  0
SPLINE
  5
16E
330
1F
100
AcDbEntity
  8
1
100
AcDbSpline
210
0.0
220
0.0
230
1.0
 70
    28
 71
     1
 72
     4
 73
     2
 74
     0
 42
0.000000001
 43
0.0000000001
 40
0.0
 40
0.0
 40
1.0
 40
1.0
 10
23.325
 20
8.93737216267471
 30
0.0
 41
1.0
 10
22.6572499999999
 20
9.3228978049261
 30
0.0
 41
1.0
  0
SPLINE
  5
16F
330
1F
100
AcDbEntity
  8
1
100
AcDbSpline
210
0.0
220
0.0
230
1.0
 70
    12
 71
     3
 72
    12
 73
     8
 74
     0
 42
0.000000001
 43
0.0000000001
 40
0.0
 40
0.0
 40
0.0
 40
0.0
 40
0.162299968034323
 40
0.4092557799339529
 40
0.6695476868674741
 40
0.8461633610273031
 40
1.0
 40
1.0
 40
1.0
 40
1.0
 10
22.65725
 20
6.67710219507395
 30
0.0
 41
1.0
 10
22.6340216243228
 20
6.66180316018853
 30
0.0
 41
1.0
 10
22.5851798181703
 20
6.620606848884429
 30
0.0
 41
1.0
 10
22.551148145462
 20
6.53731557335357
 30
0.0
 41
1.0
 10
22.5551858190499
 20
6.44925301667937
 30
0.0
 41
1.0
 10
22.592074630324
 20
6.373495707994929
 30
0.0
 41
1.0
 10
22.6337875521486
 20
6.33827401710411
 30
0.0
 41
1.0
 10
22.6572499999999
 20
6.322897804926079
 30
0.0
 41
1.0
  0
SPLINE
  5
170
330
1F
100
AcDbEntity
  8
1
100
AcDbSpline
210
0.0
220
0.0
230
1.0
 70
    12
 71
     3
 72
    13
 73
     9
 74
     0
 42
0.000000001
 43
0.0000000001
 40
0.0
 40
0.0
 40
0.0
 40
0.0
 40
0.157108356666008
 40
0.313170090264676
 40
0.5025416270673001
 40
0.7168226596489741
 40
0.8848048751955028
 40
1.0
 40
1.0
 40
1.0
 40
1.0
 10
22.65725
 20
5.17710219507395
 30
0.0
 41
1.0
 10
22.63571462047611
 20
5.16376258059869
 30
0.0
 41
1.0
 10
22.59959180625
 20
5.133822594949839
 30
0.0
 41
1.0
 10
22.5638348280678
 20
5.072126492627029
 30
0.0
 41
1.0
 10
22.5496554243849
 20
4.997489650078299
 30
0.0
 41
1.0
 10
22.5655083790929
 20
4.920128161765849
 30
0.0
 41
1.0
 10
22.6063896398261
 20
4.859057354503219
 30
0.0
 41
1.0
 10
22.6411914396012
 20
4.832623328256259
 30
0.0
 41
1.0
 10
22.6572499999999
 20
4.822897804926089
 30
0.0
 41
1.0
  0
SPLINE
  5
171
330
1F
100
AcDbEntity
  8
1
100
AcDbSpline
210
0.0
220
0.0
230
1.0
 70
    12
 71
     3
 72
    13
 73
     9
 74
     0
 42
0.000000001
 43
0.0000000001
 40
0.0
 40
0.0
 40
0.0
 40
0.0
 40
0.159242703380659
 40
0.31798314423114
 40
0.4900659725530471
 40
0.672548471405071
 40
0.8535916635873499
 40
1.0
 40
1.0
 40
1.0
 40
1.0
 10
22.65725
 20
3.677102195073959
 30
0.0
 41
1.0
 10
22.636272929781
 20
3.664445442955099
 30
0.0
 41
1.0
 10
22.6007773001981
 20
3.635110043112529
 30
0.0
 41
1.0
 10
22.5647670569473
 20
3.5743786552557
 30
0.0
 41
1.0
 10
22.5506207386363
 20
3.503738851026819
 30
0.0
 41
1.0
 10
22.5625015883404
 20
3.42906654884924
 30
0.0
 41
1.0
 10
22.6005342227899
 20
3.364592061713099
 30
0.0
 41
1.0
 10
22.6378218488154
 20
3.33457865000864
 30
0.0
 41
1.0
 10
22.6572499999999
 20
3.322897804926089
 30
0.0
 41
1.0
  0
SPLINE
  5
172
330
1F
100
AcDbEntity
  8
1
100
AcDbSpline
210
0.0
220
0.0
230
1.0
 70
    28
 71
     1
 72
     4
 73
     2
 74
     0
 42
0.000000001
 43
0.0000000001
 40
0.0
 40
0.0
 40
1.0
 40
1.0
 10
23.0654705573478
 20
3.08721155625258
 30
0.0
 41
1.0
 10
22.325
 20
2.23221022649277
 30
0.0
 41
1.0
  0
SPLINE
  5
173
330
1F
100
AcDbEntity
  8
1
100
AcDbSpline
210
0.0
220
0.0
230
1.0
 70
    12
 71
     3
 72
    23
 73
    19
 74
     0
 42
0.000000001
 43
0.0000000001
 40
0.0
 40
0.0
 40
0.0
 40
0.0
 40
0.034330794785269
 40
0.496018527358333
 40
0.7271924032866221
 40
0.8429960837243671
 40
0.9012065154888059
 40
0.959269203990795
 40
0.9737222350274208
 40
0.978612053394573
 40
0.9810682001634118
 40
0.9820590730770748
 40
0.983059787706493
 40
0.9839453242333158
 40
0.985041984676144
 40
0.98700835957404
 40
0.9935221168355029
 40
1.0
 40
1.0
 40
1.0
 40
1.0
 10
22.651404117912
 20
0.326404117918525
 30
0.0
 41
1.0
 10
22.6513914638792
 20
0.326391570884835
 30
0.0
 41
1.0
 10
22.6502370775685
 20
0.327335769058759
 30
0.0
 41
1.0
 10
22.6191639674281
 20
0.34380676490887
 30
0.0
 41
1.0
 10
22.5673304206368
 20
0.413762262428109
 30
0.0
 41
1.0
 10
22.5556383427812
 20
0.480337767947583
 30
0.0
 41
1.0
 10
22.5524262912522
 20
0.5269260686510911
 30
0.0
 41
1.0
 10
22.5642273669099
 20
0.5685425848304751
 30
0.0
 41
1.0
 10
22.5846702547151
 20
0.6070669866750981
 30
0.0
 41
1.0
 10
22.5965166358312
 20
0.6237685295617101
 30
0.0
 41
1.0
 10
22.6038899166795
 20
0.6327950516399631
 30
0.0
 41
1.0
 10
22.60943704869911
 20
0.6389746318649909
 30
0.0
 41
1.0
 10
22.6138070928472
 20
0.6435538464753482
 30
0.0
 41
1.0
 10
22.61857458213
 20
0.648236203124384
 30
0.0
 41
1.0
 10
22.6242606515242
 20
0.6534737449364371
 30
0.0
 41
1.0
 10
22.6351952961772
 20
0.662720216649733
 30
0.0
 41
1.0
 10
22.64600931534261
 20
0.670220099631171
 30
0.0
 41
1.0
 10
22.6541141199284
 20
0.6754644465940381
 30
0.0
 41
1.0
 10
22.65725
 20
0.6771021950739681
 30
0.0
 41
1.0
  0
SPLINE
  5
174
330
1F
100
AcDbEntity
  8
1
100
AcDbSpline
210
0.0
220
0.0
230
1.0
 70
    28
 71
     1
 72
     4
 73
     2
 74
     0
 42
0.000000001
 43
0.0000000001
 40
0.0
 40
0.0
 40
1.0
 40
1.0
 10
22.65725
 20
2.17710219507391
 30
0.0
 41
1.0
 10
23.325
 20
2.562627837325289
 30
0.0
 41
1.0
  0
SPLINE
  5
175
330
1F
100
AcDbEntity
  8
1
100
AcDbSpline
210
0.0
220
0.0
230
1.0
 70
    12
 71
     3
 72
    19
 73
    15
 74
     0
 42
0.000000001
 43
0.0000000001
 40
0.0
 40
0.0
 40
0.0
 40
0.0
 40
0.203224377479124
 40
0.45851067063299
 40
0.7134883792708191
 40
0.812461895283914
 40
0.9100350098214528
 40
0.9345268730282819
 40
0.943731957339302
 40
0.9530263185883571
 40
0.9613900353962959
 40
0.9709499680178408
 40
0.9873141907427719
 40
1.0
 40
1.0
 40
1.0
 40
1.0
 10
22.6572499999999
 20
1.822897804926149
 30
0.0
 41
1.0
 10
22.6415520764324
 20
1.83201950344029
 30
0.0
 41
1.0
 10
22.6099121243934
 20
1.85715254300692
 30
0.0
 41
1.0
 10
22.569158740618
 20
1.90750832136814
 30
0.0
 41
1.0
 10
22.5551208574682
 20
1.973782422631019
 30
0.0
 41
1.0
 10
22.5534267982473
 20
2.032535462024549
 30
0.0
 41
1.0
 10
22.5664538164573
 20
2.075141899999469
 30
0.0
 41
1.0
 10
22.5885708210983
 20
2.113012572263969
 30
0.0
 41
1.0
 10
22.6003638175864
 20
2.128687012828749
 30
0.0
 41
1.0
 10
22.6098619362453
 20
2.139656292983989
 30
0.0
 41
1.0
 10
22.6207370182081
 20
2.15045299035377
 30
0.0
 41
1.0
 10
22.6337138640692
 20
2.16158393794209
 30
0.0
 41
1.0
 10
22.6459881207948
 20
2.17027764263236
 30
0.0
 41
1.0
 10
22.6540230907652
 20
2.175310739710949
 30
0.0
 41
1.0
 10
22.65725
 20
2.17710219507391
 30
0.0
 41
1.0
  0
SPLINE
  5
176
330
1F
100
AcDbEntity
  8
1
100
AcDbSpline
210
0.0
220
0.0
230
1.0
 70
    28
 71
     1
 72
     4
 73
     2
 74
     0
 42
0.000000001
 43
0.0000000001
 40
0.0
 40
0.0
 40
1.0
 40
1.0
 10
23.325
 20
2.93737216267471
 30
0.0
 41
1.0
 10
23.0654705573478
 20
3.08721155625258
 30
0.0
 41
1.0
  0
SPLINE
  5
177
330
1F
100
AcDbEntity
  8
1
100
AcDbSpline
210
0.0
220
0.0
230
1.0
 70
    28
 71
     1
 72
     4
 73
     2
 74
     0
 42
0.000000001
 43
0.0000000001
 40
0.0
 40
0.0
 40
1.0
 40
1.0
 10
23.325
 20
13.4373721626747
 30
0.0
 41
1.0
 10
22.65725
 20
13.8228978049261
 30
0.0
 41
1.0
  0
SPLINE
  5
178
330
1F
100
AcDbEntity
  8
1
100
AcDbSpline
210
0.0
220
0.0
230
1.0
 70
    28
 71
     1
 72
     4
 73
     2
 74
     0
 42
0.000000001
 43
0.0000000001
 40
0.0
 40
0.0
 40
1.0
 40
1.0
 10
22.65725
 20
12.6771021950739
 30
0.0
 41
1.0
 10
23.325
 20
13.0626278373253
 30
0.0
 41
1.0
  0
SPLINE
  5
179
330
1F
100
AcDbEntity
  8
1
100
AcDbSpline
210
0.0
220
0.0
230
1.0
 70
    12
 71
     3
 72
    15
 73
    11
 74
     0
 42
0.000000001
 43
0.0000000001
 40
0.0
 40
0.0
 40
0.0
 40
0.0
 40
0.254422204732287
 40
0.411100483192494
 40
0.534303093650903
 40
0.6309614938596012
 40
0.7280022657266731
 40
0.817618478701104
 40
0.9420270210583019
 40
1.0
 40
1.0
 40
1.0
 40
1.0
 10
22.65725
 20
12.3228978049261
 30
0.0
 41
1.0
 10
22.6311172025078
 20
12.3367078560162
 30
0.0
 41
1.0
 10
22.5965249198042
 20
12.3691933427833
 30
0.0
 41
1.0
 10
22.56364764145549
 20
12.4316450774758
 30
0.0
 41
1.0
 10
22.5531410453969
 20
12.487325921501
 30
0.0
 41
1.0
 10
22.5568650437609
 20
12.5398602638264
 30
0.0
 41
1.0
 10
22.5721787045818
 20
12.5865641658865
 30
0.0
 41
1.0
 10
22.5992696426368
 20
12.6305869252278
 30
0.0
 41
1.0
 10
22.6293286654209
 20
12.6592583344292
 30
0.0
 41
1.0
 10
22.6503622366594
 20
12.6732129964777
 30
0.0
 41
1.0
 10
22.65725
 20
12.6771021950739
 30
0.0
 41
1.0
  0
SPLINE
  5
17A
330
1F
100
AcDbEntity
  8
1
100
AcDbSpline
210
0.0
220
0.0
230
1.0
 70
    28
 71
     1
 72
     4
 73
     2
 74
     0
 42
0.000000001
 43
0.0000000001
 40
0.0
 40
0.0
 40
1.0
 40
1.0
 10
23.325
 20
11.9373721626747
 30
0.0
 41
1.0
 10
22.65725
 20
12.3228978049261
 30
0.0
 41
1.0
  0
SPLINE
  5
17B
330
1F
100
AcDbEntity
  8
1
100
AcDbSpline
210
0.0
220
0.0
230
1.0
 70
    28
 71
     1
 72
     4
 73
     2
 74
     0
 42
0.000000001
 43
0.0000000001
 40
0.0
 40
0.0
 40
1.0
 40
1.0
 10
22.65725
 20
11.1771021950739
 30
0.0
 41
1.0
 10
23.325
 20
11.5626278373253
 30
0.0
 41
1.0
  0
SPLINE
  5
17C
330
1F
100
AcDbEntity
  8
1
100
AcDbSpline
210
0.0
220
0.0
230
1.0
 70
    12
 71
     3
 72
    15
 73
    11
 74
     0
 42
0.000000001
 43
0.0000000001
 40
0.0
 40
0.0
 40
0.0
 40
0.0
 40
0.322104339091577
 40
0.4805903446069501
 40
0.6404727346622121
 40
0.720875863122226
 40
0.8019031117285379
 40
0.8728810917301681
 40
0.959977100332045
 40
1.0
 40
1.0
 40
1.0
 40
1.0
 10
22.65725
 20
10.8228978049261
 30
0.0
 41
1.0
 10
22.6263302255835
 20
10.8389514586799
 30
0.0
 41
1.0
 10
22.5903421712112
 20
10.8756728914614
 30
0.0
 41
1.0
 10
22.5585358862537
 20
10.9472480789851
 30
0.0
 41
1.0
 10
22.5520792870603
 20
11.0057267521323
 30
0.0
 41
1.0
 10
22.5625695072594
 20
11.0609910016232
 30
0.0
 41
1.0
 10
22.5806265663234
 20
11.1024442127557
 30
0.0
 41
1.0
 10
22.6079844279076
 20
11.1397676257012
 30
0.0
 41
1.0
 10
22.6346217769317
 20
11.1629238098548
 30
0.0
 41
1.0
 10
22.6517664457103
 20
11.1739992504796
 30
0.0
 41
1.0
 10
22.65725
 20
11.1771021950739
 30
0.0
 41
1.0
  0
SPLINE
  5
17D
330
1F
100
AcDbEntity
  8
1
100
AcDbSpline
210
0.0
220
0.0
230
1.0
 70
    28
 71
     1
 72
     4
 73
     2
 74
     0
 42
0.000000001
 43
0.0000000001
 40
0.0
 40
0.0
 40
1.0
 40
1.0
 10
22.65725
 20
14.1771021950739
 30
0.0
 41
1.0
 10
23.1261679578709
 20
14.4478321042785
 30
0.0
 41
1.0
  0
SPLINE
  5
17E
330
1F
100
AcDbEntity
  8
1
100
AcDbSpline
210
0.0
220
0.0
230
1.0
 70
    12
 71
     3
 72
    15
 73
    11
 74
     0
 42
0.000000001
 43
0.0000000001
 40
0.0
 40
0.0
 40
0.0
 40
0.0
 40
0.179376132964623
 40
0.324504643744014
 40
0.4406653515598111
 40
0.557597190447126
 40
0.657934653161374
 40
0.7598509816124021
 40
0.9166273364719319
 40
1.0
 40
1.0
 40
1.0
 40
1.0
 10
22.65725
 20
13.8228978049261
 30
0.0
 41
1.0
 10
22.6379508962725
 20
13.8333469518487
 30
0.0
 41
1.0
 10
22.6072686184926
 20
13.8589303314438
 30
0.0
 41
1.0
 10
22.5729699527707
 20
13.9096829305097
 30
0.0
 41
1.0
 10
22.5553942209192
 20
13.9652021851119
 30
0.0
 41
1.0
 10
22.5536334367313
 20
14.0204840276039
 30
0.0
 41
1.0
 10
22.5657823663393
 20
14.0711269158286
 30
0.0
 41
1.0
 10
22.5905757462846
 20
14.1200147762482
 30
0.0
 41
1.0
 10
22.62320846884581
 20
14.15472955618
 30
0.0
 41
1.0
 10
22.6481593801643
 20
14.1719945825677
 30
0.0
 41
1.0
 10
22.65725
 20
14.1771021950739
 30
0.0
 41
1.0
  0
SPLINE
  5
17F
330
1F
100
AcDbEntity
  8
1
100
AcDbSpline
210
0.0
220
0.0
230
1.0
 70
    28
 71
     1
 72
     4
 73
     2
 74
     0
 42
0.000000001
 43
0.0000000001
 40
0.0
 40
0.0
 40
1.0
 40
1.0
 10
22.65725
 20
30.3228978049261
 30
0.0
 41
1.0
 10
22.6961282360877
 20
30.3004514448552
 30
0.0
 41
1.0
  0
SPLINE
  5
180
330
1F
100
AcDbEntity
  8
1
100
AcDbSpline
210
0.0
220
0.0
230
1.0
 70
    12
 71
     3
 72
    15
 73
    11
 74
     0
 42
0.000000001
 43
0.0000000001
 40
0.0
 40
0.0
 40
0.0
 40
0.0
 40
0.322104339091711
 40
0.480590344607075
 40
0.6404727346623249
 40
0.7208758631223381
 40
0.8019031117286468
 40
0.8728810917302791
 40
0.9599771003321691
 40
1.0
 40
1.0
 40
1.0
 40
1.0
 10
22.65725
 20
29.1771021950739
 30
0.0
 41
1.0
 10
22.6263302255835
 20
29.1610485413201
 30
0.0
 41
1.0
 10
22.5903421712112
 20
29.12432710853861
 30
0.0
 41
1.0
 10
22.5585358862537
 20
29.0527519210148
 30
0.0
 41
1.0
 10
22.5520792870603
 20
28.9942732478677
 30
0.0
 41
1.0
 10
22.5625695072594
 20
28.9390089983768
 30
0.0
 41
1.0
 10
22.5806265663234
 20
28.8975557872443
 30
0.0
 41
1.0
 10
22.6079844279076
 20
28.8602323742988
 30
0.0
 41
1.0
 10
22.6346217769317
 20
28.8370761901452
 30
0.0
 41
1.0
 10
22.6517664457102
 20
28.8260007495204
 30
0.0
 41
1.0
 10
22.65725
 20
28.8228978049261
 30
0.0
 41
1.0
  0
SPLINE
  5
181
330
1F
100
AcDbEntity
  8
1
100
AcDbSpline
210
0.0
220
0.0
230
1.0
 70
    28
 71
     1
 72
     4
 73
     2
 74
     0
 42
0.000000001
 43
0.0000000001
 40
0.0
 40
0.0
 40
1.0
 40
1.0
 10
22.65725
 20
28.8228978049261
 30
0.0
 41
1.0
 10
23.325
 20
28.4373721626747
 30
0.0
 41
1.0
  0
SPLINE
  5
182
330
1F
100
AcDbEntity
  8
1
100
AcDbSpline
210
0.0
220
0.0
230
1.0
 70
    28
 71
     1
 72
     4
 73
     2
 74
     0
 42
0.000000001
 43
0.0000000001
 40
0.0
 40
0.0
 40
1.0
 40
1.0
 10
23.325
 20
28.0626278373253
 30
0.0
 41
1.0
 10
22.65725
 20
27.6771021950739
 30
0.0
 41
1.0
  0
SPLINE
  5
183
330
1F
100
AcDbEntity
  8
1
100
AcDbSpline
210
0.0
220
0.0
230
1.0
 70
    12
 71
     3
 72
    15
 73
    11
 74
     0
 42
0.000000001
 43
0.0000000001
 40
0.0
 40
0.0
 40
0.0
 40
0.0
 40
0.254422204732365
 40
0.411100483192571
 40
0.5343030936509821
 40
0.6309614938596811
 40
0.7280022657267529
 40
0.8176184787011859
 40
0.9420270210583929
 40
1.0
 40
1.0
 40
1.0
 40
1.0
 10
22.65725
 20
27.6771021950739
 30
0.0
 41
1.0
 10
22.6311172025078
 20
27.66329214398381
 30
0.0
 41
1.0
 10
22.5965249198042
 20
27.6308066572167
 30
0.0
 41
1.0
 10
22.56364764145549
 20
27.5683549225242
 30
0.0
 41
1.0
 10
22.553141045397
 20
27.512674078499
 30
0.0
 41
1.0
 10
22.5568650437609
 20
27.4601397361736
 30
0.0
 41
1.0
 10
22.5721787045818
 20
27.4134358341135
 30
0.0
 41
1.0
 10
22.5992696426368
 20
27.3694130747722
 30
0.0
 41
1.0
 10
22.6293286654209
 20
27.3407416655709
 30
0.0
 41
1.0
 10
22.6503622366594
 20
27.3267870035223
 30
0.0
 41
1.0
 10
22.65725
 20
27.3228978049261
 30
0.0
 41
1.0
  0
SPLINE
  5
184
330
1F
100
AcDbEntity
  8
1
100
AcDbSpline
210
0.0
220
0.0
230
1.0
 70
    28
 71
     1
 72
     4
 73
     2
 74
     0
 42
0.000000001
 43
0.0000000001
 40
0.0
 40
0.0
 40
1.0
 40
1.0
 10
22.65725
 20
27.3228978049261
 30
0.0
 41
1.0
 10
23.325
 20
26.9373721626747
 30
0.0
 41
1.0
  0
SPLINE
  5
185
330
1F
100
AcDbEntity
  8
1
100
AcDbSpline
210
0.0
220
0.0
230
1.0
 70
    28
 71
     1
 72
     4
 73
     2
 74
     0
 42
0.000000001
 43
0.0000000001
 40
0.0
 40
0.0
 40
1.0
 40
1.0
 10
23.325
 20
26.5626278373253
 30
0.0
 41
1.0
 10
22.65725
 20
26.1771021950739
 30
0.0
 41
1.0
  0
SPLINE
  5
186
330
1F
100
AcDbEntity
  8
1
100
AcDbSpline
210
0.0
220
0.0
230
1.0
 70
    12
 71
     3
 72
    15
 73
    11
 74
     0
 42
0.000000001
 43
0.0000000001
 40
0.0
 40
0.0
 40
0.0
 40
0.0
 40
0.179376132964656
 40
0.324504643744051
 40
0.440665351559828
 40
0.5575971904471371
 40
0.6579346531613801
 40
0.759850981612407
 40
0.9166273364719158
 40
1.0
 40
1.0
 40
1.0
 40
1.0
 10
22.65725
 20
26.1771021950739
 30
0.0
 41
1.0
 10
22.6379508962725
 20
26.16665304815131
 30
0.0
 41
1.0
 10
22.6072686184926
 20
26.1410696685562
 30
0.0
 41
1.0
 10
22.5729699527707
 20
26.0903170694903
 30
0.0
 41
1.0
 10
22.5553942209192
 20
26.0347978148881
 30
0.0
 41
1.0
 10
22.5536334367313
 20
25.9795159723961
 30
0.0
 41
1.0
 10
22.5657823663393
 20
25.9288730841714
 30
0.0
 41
1.0
 10
22.5905757462846
 20
25.8799852237518
 30
0.0
 41
1.0
 10
22.62320846884581
 20
25.84527044382
 30
0.0
 41
1.0
 10
22.6481593801642
 20
25.8280054174323
 30
0.0
 41
1.0
 10
22.65725
 20
25.8228978049261
 30
0.0
 41
1.0
  0
SPLINE
  5
187
330
1F
100
AcDbEntity
  8
1
100
AcDbSpline
210
0.0
220
0.0
230
1.0
 70
    28
 71
     1
 72
     4
 73
     2
 74
     0
 42
0.000000001
 43
0.0000000001
 40
0.0
 40
0.0
 40
1.0
 40
1.0
 10
22.65725
 20
25.8228978049261
 30
0.0
 41
1.0
 10
23.1261679578709
 20
25.5521678957215
 30
0.0
 41
1.0
  0
SPLINE
  5
188
330
1F
100
AcDbEntity
  8
1
100
AcDbSpline
210
0.0
220
0.0
230
1.0
 70
    12
 71
     3
 72
    12
 73
     8
 74
     0
 42
0.000000001
 43
0.0000000001
 40
0.0
 40
0.0
 40
0.0
 40
0.0
 40
0.152289261547081
 40
0.38993609754749
 40
0.627156053090546
 40
0.9841300302721791
 40
1.0
 40
1.0
 40
1.0
 40
1.0
 10
22.5839826473685
 20
30.3950528279311
 30
0.0
 41
1.0
 10
22.5867255141743
 20
30.3904315740136
 30
0.0
 41
1.0
 10
22.59430367347389
 20
30.37883251535661
 30
0.0
 41
1.0
 10
22.6093934608474
 20
30.3602377826137
 30
0.0
 41
1.0
 10
22.63146883840461
 20
30.3395178188945
 30
0.0
 41
1.0
 10
22.647553260375
 20
30.3285418518271
 30
0.0
 41
1.0
 10
22.6568546163096
 20
30.32312571122711
 30
0.0
 41
1.0
 10
22.65725
 20
30.3228978049261
 30
0.0
 41
1.0
  0
SPLINE
  5
189
330
1F
100
AcDbEntity
  8
1
100
AcDbSpline
210
0.0
220
0.0
230
1.0
 70
    12
 71
     3
 72
    23
 73
    19
 74
     0
 42
0.000000001
 43
0.0000000001
 40
0.0
 40
0.0
 40
0.0
 40
0.0
 40
0.0343307947914983
 40
0.496018527361528
 40
0.7271924032882971
 40
0.8429960837252819
 40
0.9012065154893381
 40
0.959269203990947
 40
0.973722235027477
 40
0.978612053394799
 40
0.9810682001637271
 40
0.9820590730773442
 40
0.983059787706713
 40
0.9839453242335041
 40
0.985041984676372
 40
0.9870083595744031
 40
0.9935221168365709
 40
1.0
 40
1.0
 40
1.0
 40
1.0
 10
22.651404117912
 20
39.6735958820815
 30
0.0
 41
1.0
 10
22.6513914638792
 20
39.67360842911521
 30
0.0
 41
1.0
 10
22.6502370775682
 20
39.672664230941
 30
0.0
 41
1.0
 10
22.6191639674274
 20
39.6561932350905
 30
0.0
 41
1.0
 10
22.5673304206365
 20
39.5862377375712
 30
0.0
 41
1.0
 10
22.5556383427812
 20
39.5196622320519
 30
0.0
 41
1.0
 10
22.5524262912524
 20
39.4730739313485
 30
0.0
 41
1.0
 10
22.5642273669099
 20
39.4314574151693
 30
0.0
 41
1.0
 10
22.5846702547152
 20
39.3929330133248
 30
0.0
 41
1.0
 10
22.5965166358313
 20
39.37623147043811
 30
0.0
 41
1.0
 10
22.60388991668
 20
39.3672049483595
 30
0.0
 41
1.0
 10
22.6094370486998
 20
39.3610253681343
 30
0.0
 41
1.0
 10
22.6138070928477
 20
39.35644615352411
 30
0.0
 41
1.0
 10
22.6185745821305
 20
39.35176379687521
 30
0.0
 41
1.0
 10
22.6242606515249
 20
39.346526255063
 30
0.0
 41
1.0
 10
22.63519529617861
 20
39.3372797833492
 30
0.0
 41
1.0
 10
22.6460093153431
 20
39.3297799003684
 30
0.0
 41
1.0
 10
22.654114119929
 20
39.324535553406
 30
0.0
 41
1.0
 10
22.6572499999999
 20
39.3228978049261
 30
0.0
 41
1.0
  0
SPLINE
  5
18A
330
1F
100
AcDbEntity
  8
1
100
AcDbSpline
210
0.0
220
0.0
230
1.0
 70
    12
 71
     3
 72
    19
 73
    15
 74
     0
 42
0.000000001
 43
0.0000000001
 40
0.0
 40
0.0
 40
0.0
 40
0.0
 40
0.203224377479576
 40
0.458510670633163
 40
0.7134883792707131
 40
0.8124618952839741
 40
0.9100350098216658
 40
0.9345268730285319
 40
0.9437319573395258
 40
0.953026318588558
 40
0.9613900353964741
 40
0.9709499680180307
 40
0.9873141907429939
 40
1.0
 40
1.0
 40
1.0
 40
1.0
 10
22.65725
 20
38.1771021950739
 30
0.0
 41
1.0
 10
22.6415520764324
 20
38.1679804965597
 30
0.0
 41
1.0
 10
22.6099121243934
 20
38.1428474569931
 30
0.0
 41
1.0
 10
22.5691587406181
 20
38.0924916786318
 30
0.0
 41
1.0
 10
22.5551208574683
 20
38.026217577369
 30
0.0
 41
1.0
 10
22.5534267982472
 20
37.9674645379755
 30
0.0
 41
1.0
 10
22.5664538164573
 20
37.9248581000005
 30
0.0
 41
1.0
 10
22.5885708210984
 20
37.886987427736
 30
0.0
 41
1.0
 10
22.6003638175865
 20
37.8713129871712
 30
0.0
 41
1.0
 10
22.6098619362454
 20
37.860343707016
 30
0.0
 41
1.0
 10
22.6207370182082
 20
37.8495470096462
 30
0.0
 41
1.0
 10
22.6337138640693
 20
37.8384160620579
 30
0.0
 41
1.0
 10
22.6459881207948
 20
37.8297223573677
 30
0.0
 41
1.0
 10
22.6540230907653
 20
37.824689260289
 30
0.0
 41
1.0
 10
22.6572499999999
 20
37.8228978049261
 30
0.0
 41
1.0
  0
SPLINE
  5
18B
330
1F
100
AcDbEntity
  8
1
100
AcDbSpline
210
0.0
220
0.0
230
1.0
 70
    28
 71
     1
 72
     4
 73
     2
 74
     0
 42
0.000000001
 43
0.0000000001
 40
0.0
 40
0.0
 40
1.0
 40
1.0
 10
22.6572499999999
 20
37.8228978049261
 30
0.0
 41
1.0
 10
23.325
 20
37.43737216267471
 30
0.0
 41
1.0
  0
SPLINE
  5
18C
330
1F
100
AcDbEntity
  8
1
100
AcDbSpline
210
0.0
220
0.0
230
1.0
 70
    28
 71
     1
 72
     4
 73
     2
 74
     0
 42
0.000000001
 43
0.0000000001
 40
0.0
 40
0.0
 40
1.0
 40
1.0
 10
23.325
 20
37.0626278373253
 30
0.0
 41
1.0
 10
22.65725
 20
36.6771021950739
 30
0.0
 41
1.0
  0
SPLINE
  5
18D
330
1F
100
AcDbEntity
  8
1
100
AcDbSpline
210
0.0
220
0.0
230
1.0
 70
    12
 71
     3
 72
    17
 73
    13
 74
     0
 42
0.000000001
 43
0.0000000001
 40
0.0
 40
0.0
 40
0.0
 40
0.0
 40
0.289662661718663
 40
0.6481631189111442
 40
0.805077958226016
 40
0.8838316285226209
 40
0.912034611785101
 40
0.9282586197040108
 40
0.94189470071215
 40
0.9555553985230849
 40
0.9734131359969239
 40
1.0
 40
1.0
 40
1.0
 40
1.0
 10
22.65725
 20
36.6771021950739
 30
0.0
 41
1.0
 10
22.6332418133193
 20
36.6640264238573
 30
0.0
 41
1.0
 10
22.5895942280034
 20
36.6237602158505
 30
0.0
 41
1.0
 10
22.55405083224561
 20
36.5514774529309
 30
0.0
 41
1.0
 10
22.5541502532348
 20
36.4713435866629
 30
0.0
 41
1.0
 10
22.5687795416371
 20
36.4219369724573
 30
0.0
 41
1.0
 10
22.5862046343467
 20
36.39061352979001
 30
0.0
 41
1.0
 10
22.5985832155008
 20
36.3733845677234
 30
0.0
 41
1.0
 10
22.6103105675007
 20
36.3597805239202
 30
0.0
 41
1.0
 10
22.6236983597652
 20
36.3466985760199
 30
0.0
 41
1.0
 10
22.6402060792894
 20
36.3334651439385
 30
0.0
 41
1.0
 10
22.6511837388426
 20
36.3261547631754
 30
0.0
 41
1.0
 10
22.6572499999999
 20
36.3228978049261
 30
0.0
 41
1.0
  0
SPLINE
  5
18E
330
1F
100
AcDbEntity
  8
1
100
AcDbSpline
210
0.0
220
0.0
230
1.0
 70
    28
 71
     1
 72
     4
 73
     2
 74
     0
 42
0.000000001
 43
0.0000000001
 40
0.0
 40
0.0
 40
1.0
 40
1.0
 10
22.6572499999999
 20
36.3228978049261
 30
0.0
 41
1.0
 10
23.325
 20
35.93737216267471
 30
0.0
 41
1.0
  0
SPLINE
  5
18F
330
1F
100
AcDbEntity
  8
1
100
AcDbSpline
210
0.0
220
0.0
230
1.0
 70
    28
 71
     1
 72
     4
 73
     2
 74
     0
 42
0.000000001
 43
0.0000000001
 40
0.0
 40
0.0
 40
1.0
 40
1.0
 10
23.325
 20
35.5626278373253
 30
0.0
 41
1.0
 10
22.65725
 20
35.1771021950739
 30
0.0
 41
1.0
  0
SPLINE
  5
190
330
1F
100
AcDbEntity
  8
1
100
AcDbSpline
210
0.0
220
0.0
230
1.0
 70
    12
 71
     3
 72
    16
 73
    12
 74
     0
 42
0.000000001
 43
0.0000000001
 40
0.0
 40
0.0
 40
0.0
 40
0.0
 40
0.352841986943961
 40
0.748071713200726
 40
0.8615732358594849
 40
0.8919977871398259
 40
0.9151885454037609
 40
0.9341101651138419
 40
0.9530328801365179
 40
0.9797249550485959
 40
1.0
 40
1.0
 40
1.0
 40
1.0
 10
22.65725
 20
35.1771021950739
 30
0.0
 41
1.0
 10
22.6262427477525
 20
35.1616874120245
 30
0.0
 41
1.0
 10
22.57919006976761
 20
35.1095124187702
 30
0.0
 41
1.0
 10
22.5448540468187
 20
35.0250120664524
 30
0.0
 41
1.0
 10
22.5635463010314
 20
34.9331967075388
 30
0.0
 41
1.0
 10
22.5838394753401
 20
34.8943867380859
 30
0.0
 41
1.0
 10
22.5968818464619
 20
34.8753751264339
 30
0.0
 41
1.0
 10
22.6108597267706
 20
34.8590705671749
 30
0.0
 41
1.0
 10
22.6269631303313
 20
34.8436992603025
 30
0.0
 41
1.0
 10
22.642796178191
 20
34.8317548217661
 30
0.0
 41
1.0
 10
22.653002502049
 20
34.8252701660258
 30
0.0
 41
1.0
 10
22.6572499999999
 20
34.8228978049261
 30
0.0
 41
1.0
  0
SPLINE
  5
191
330
1F
100
AcDbEntity
  8
1
100
AcDbSpline
210
0.0
220
0.0
230
1.0
 70
    28
 71
     1
 72
     4
 73
     2
 74
     0
 42
0.000000001
 43
0.0000000001
 40
0.0
 40
0.0
 40
1.0
 40
1.0
 10
22.6572499999999
 20
34.8228978049261
 30
0.0
 41
1.0
 10
23.325
 20
34.4373721626747
 30
0.0
 41
1.0
  0
SPLINE
  5
192
330
1F
100
AcDbEntity
  8
1
100
AcDbSpline
210
0.0
220
0.0
230
1.0
 70
    28
 71
     1
 72
     4
 73
     2
 74
     0
 42
0.000000001
 43
0.0000000001
 40
0.0
 40
0.0
 40
1.0
 40
1.0
 10
23.325
 20
34.0626278373253
 30
0.0
 41
1.0
 10
22.65725
 20
33.6771021950739
 30
0.0
 41
1.0
  0
SPLINE
  5
193
330
1F
100
AcDbEntity
  8
1
100
AcDbSpline
210
0.0
220
0.0
230
1.0
 70
    12
 71
     3
 72
    17
 73
    13
 74
     0
 42
0.000000001
 43
0.0000000001
 40
0.0
 40
0.0
 40
0.0
 40
0.0
 40
0.403125006645678
 40
0.630115543176189
 40
0.7571974633727959
 40
0.8233380470875909
 40
0.8692666013981709
 40
0.898148880513934
 40
0.922489244166193
 40
0.9468506669859408
 40
0.9796082107047419
 40
1.0
 40
1.0
 40
1.0
 40
1.0
 10
22.65725
 20
33.6771021950739
 30
0.0
 41
1.0
 10
22.6215036601953
 20
33.6586769418928
 30
0.0
 41
1.0
 10
22.5810353294518
 20
33.6135453541009
 30
0.0
 41
1.0
 10
22.5541674670171
 20
33.53467661437611
 30
0.0
 41
1.0
 10
22.5544919733625
 20
33.4761125975542
 30
0.0
 41
1.0
 10
22.5648066393428
 20
33.4342718068042
 30
0.0
 41
1.0
 10
22.5777664858661
 20
33.4046842475342
 30
0.0
 41
1.0
 10
22.5925107989382
 20
33.3811349555366
 30
0.0
 41
1.0
 10
22.607718310193
 20
33.3623048397944
 30
0.0
 41
1.0
 10
22.6256895131491
 20
33.34463919395881
 30
0.0
 41
1.0
 10
22.6425861058158
 20
33.33187148063031
 30
0.0
 41
1.0
 10
22.6532499025181
 20
33.3251477646921
 30
0.0
 41
1.0
 10
22.6572499999999
 20
33.3228978049261
 30
0.0
 41
1.0
  0
SPLINE
  5
194
330
1F
100
AcDbEntity
  8
1
100
AcDbSpline
210
0.0
220
0.0
230
1.0
 70
    28
 71
     1
 72
     4
 73
     2
 74
     0
 42
0.000000001
 43
0.0000000001
 40
0.0
 40
0.0
 40
1.0
 40
1.0
 10
22.6572499999999
 20
33.3228978049261
 30
0.0
 41
1.0
 10
23.325
 20
32.9373721626747
 30
0.0
 41
1.0
  0
SPLINE
  5
195
330
1F
100
AcDbEntity
  8
1
100
AcDbSpline
210
0.0
220
0.0
230
1.0
 70
    28
 71
     1
 72
     4
 73
     2
 74
     0
 42
0.000000001
 43
0.0000000001
 40
0.0
 40
0.0
 40
1.0
 40
1.0
 10
23.325
 20
32.5626278373253
 30
0.0
 41
1.0
 10
22.65725
 20
32.1771021950739
 30
0.0
 41
1.0
  0
SPLINE
  5
196
330
1F
100
AcDbEntity
  8
1
100
AcDbSpline
210
0.0
220
0.0
230
1.0
 70
    12
 71
     3
 72
    16
 73
    12
 74
     0
 42
0.000000001
 43
0.0000000001
 40
0.0
 40
0.0
 40
0.0
 40
0.0
 40
0.446331566652211
 40
0.634216512261308
 40
0.7704734514824521
 40
0.818573965246159
 40
0.867018543321711
 40
0.8979563744295258
 40
0.9290566675935579
 40
0.9577765182981009
 40
1.0
 40
1.0
 40
1.0
 40
1.0
 10
22.65725
 20
32.1771021950739
 30
0.0
 41
1.0
 10
22.6163801530049
 20
32.1568447513364
 30
0.0
 41
1.0
 10
22.5766254254301
 20
32.1088270817132
 30
0.0
 41
1.0
 10
22.5530679100901
 20
32.0231761172126
 30
0.0
 41
1.0
 10
22.5552342222399
 20
31.9686934007442
 30
0.0
 41
1.0
 10
22.5679938366536
 20
31.9261665657466
 30
0.0
 41
1.0
 10
22.5805934568767
 20
31.8993133616353
 30
0.0
 41
1.0
 10
22.5975058422304
 20
31.8742458493942
 30
0.0
 41
1.0
 10
22.6149491223432
 20
31.8545795439764
 30
0.0
 41
1.0
 10
22.6356884084728
 20
31.8365552119704
 30
0.0
 41
1.0
 10
22.6492769249442
 20
31.8272654879742
 30
0.0
 41
1.0
 10
22.6572499999999
 20
31.8228978049261
 30
0.0
 41
1.0
  0
SPLINE
  5
197
330
1F
100
AcDbEntity
  8
1
100
AcDbSpline
210
0.0
220
0.0
230
1.0
 70
    28
 71
     1
 72
     4
 73
     2
 74
     0
 42
0.000000001
 43
0.0000000001
 40
0.0
 40
0.0
 40
1.0
 40
1.0
 10
22.6572499999999
 20
31.8228978049261
 30
0.0
 41
1.0
 10
23.325
 20
31.4373721626747
 30
0.0
 41
1.0
  0
SPLINE
  5
198
330
1F
100
AcDbEntity
  8
1
100
AcDbSpline
210
0.0
220
0.0
230
1.0
 70
    28
 71
     1
 72
     4
 73
     2
 74
     0
 42
0.000000001
 43
0.0000000001
 40
0.0
 40
0.0
 40
1.0
 40
1.0
 10
23.325
 20
31.0626278373253
 30
0.0
 41
1.0
 10
22.65725
 20
30.6771021950739
 30
0.0
 41
1.0
  0
SPLINE
  5
199
330
1F
100
AcDbEntity
  8
1
100
AcDbSpline
210
0.0
220
0.0
230
1.0
 70
    12
 71
     3
 72
    12
 73
     8
 74
     0
 42
0.000000001
 43
0.0000000001
 40
0.0
 40
0.0
 40
0.0
 40
0.0
 40
0.564812145222505
 40
0.8700888194977979
 40
0.939076651692453
 40
0.9976438496121941
 40
1.0
 40
1.0
 40
1.0
 40
1.0
 10
22.65725
 20
30.6771021950739
 30
0.0
 41
1.0
 10
22.6091542152334
 20
30.6571385126626
 30
0.0
 41
1.0
 10
22.56764259912861
 20
30.5955978184001
 30
0.0
 41
1.0
 10
22.5485689151118
 20
30.4955204655221
 30
0.0
 41
1.0
 10
22.5665867639108
 20
30.4293395833413
 30
0.0
 41
1.0
 10
22.5772117860759
 20
30.4064608231004
 30
0.0
 41
1.0
 10
22.5837285898788
 20
30.3954782561273
 30
0.0
 41
1.0
 10
22.5839826473685
 20
30.3950528279311
 30
0.0
 41
1.0
  0
SPLINE
  5
19A
330
1F
100
AcDbEntity
  8
1
100
AcDbSpline
210
0.0
220
0.0
230
1.0
 70
    12
 71
     3
 72
    26
 73
    22
 74
     0
 42
0.000000001
 43
0.0000000001
 40
0.0
 40
0.0
 40
0.0
 40
0.0
 40
0.0528936166225195
 40
0.107321962841271
 40
0.160215347302874
 40
0.214641064732413
 40
0.267563141148468
 40
0.322018790464323
 40
0.3749586807809529
 40
0.42943553985157
 40
0.4823439845108031
 40
0.536788697491959
 40
0.5896655163753941
 40
0.644074898568844
 40
0.696969271575155
 40
0.7513952855220851
 40
0.8043289828135307
 40
0.8587976128886399
 40
0.9117310554424978
 40
0.9662018058608779
 40
1.0
 40
1.0
 40
1.0
 40
1.0
 10
8.5
 20
40.0
 30
0.0
 41
1.0
 10
8.500161468643849
 20
39.9999734321177
 30
0.0
 41
1.0
 10
8.52332086064462
 20
39.9990311596082
 30
0.0
 41
1.0
 10
8.62828288883565
 20
39.9947366904515
 30
0.0
 41
1.0
 10
8.80161721414861
 20
39.98807657720841
 30
0.0
 41
1.0
 10
9.03548700516813
 20
39.97988112140961
 30
0.0
 41
1.0
 10
9.32748485195672
 20
39.9709454233082
 30
0.0
 41
1.0
 10
9.664193815674231
 20
39.962416856318
 30
0.0
 41
1.0
 10
10.0421289401177
 20
39.9551206354553
 30
0.0
 41
1.0
 10
10.4437351895084
 20
39.9499997368718
 30
0.0
 41
1.0
 10
10.8648068050556
 20
39.9475490731448
 30
0.0
 41
1.0
 10
11.2857353431839
 20
39.9480830773441
 30
0.0
 41
1.0
 10
11.7022519982203
 20
39.9515474653371
 30
0.0
 41
1.0
 10
12.0951272772635
 20
39.9574939611854
 30
0.0
 41
1.0
 10
12.4604102726547
 20
39.9653502403894
 30
0.0
 41
1.0
 10
12.7812900924772
 20
39.9741074554384
 30
0.0
 41
1.0
 10
13.0544087357173
 20
39.98292136515451
 30
0.0
 41
1.0
 10
13.2670875563306
 20
39.9906573559928
 30
0.0
 41
1.0
 10
13.4170395636799
 20
39.9965642153506
 30
0.0
 41
1.0
 10
13.4877801991972
 20
39.9994940236836
 30
0.0
 41
1.0
 10
13.4999653109223
 20
39.99999343674821
 30
0.0
 41
1.0
 10
13.5
 20
40.0
 30
0.0
 41
1.0
  0
SPLINE
  5
19B
330
1F
100
AcDbEntity
  8
1
100
AcDbSpline
210
0.0
220
0.0
230
1.0
 70
    28
 71
     1
 72
     4
 73
     2
 74
     0
 42
0.000000001
 43
0.0000000001
 40
0.0
 40
0.0
 40
1.0
 40
1.0
 10
22.6961282360877
 20
30.3004514448552
 30
0.0
 41
1.0
 10
23.325
 20
29.9373721626747
 30
0.0
 41
1.0
  0
SPLINE
  5
19C
330
1F
100
AcDbEntity
  8
1
100
AcDbSpline
210
0.0
220
0.0
230
1.0
 70
    28
 71
     1
 72
     4
 73
     2
 74
     0
 42
0.000000001
 43
0.0000000001
 40
0.0
 40
0.0
 40
1.0
 40
1.0
 10
22.6961282360875
 20
9.699548555144669
 30
0.0
 41
1.0
 10
23.325
 20
10.0626278373253
 30
0.0
 41
1.0
  0
INSERT
  5
1B6
330
1F
100
AcDbEntity
  8
2L
100
AcDbBlockReference
  2
DimnDraft3D22
 10
0.0
 20
0.0
 30
0.0
  0
INSERT
  5
1C0
330
1F
100
AcDbEntity
  8
2L
100
AcDbBlockReference
  2
DimnDraft3D33
 10
0.0
 20
0.0
 30
0.0
  0
LINE
  5
46
330
1F
100
AcDbEntity
  8
1
100
AcDbLine
 10
-0.325
 20
-39.9995
 30
0.0
 11
-0.325
 21
-40.0
 31
0.0
  0
LINE
  5
48
330
1F
100
AcDbEntity
  8
1
100
AcDbLine
 10
-0.325
 20
-39.963859
 30
0.0
 11
-0.325
 21
-39.978049
 31
0.0
  0
LINE
  5
49
330
1F
100
AcDbEntity
  8
1
100
AcDbLine
 10
-0.325
 20
-39.871795
 30
0.0
 11
-0.325
 21
-39.900117
 31
0.0
  0
LINE
  5
4A
330
1F
100
AcDbEntity
  8
1
100
AcDbLine
 10
-0.325
 20
-39.722915
 30
0.0
 11
-0.325
 21
-39.765492
 31
0.0
  0
LINE
  5
4B
330
1F
100
AcDbEntity
  8
1
100
AcDbLine
 10
-0.325
 20
-39.516579
 30
0.0
 11
-0.325
 21
-39.573594
 31
0.0
  0
LINE
  5
4C
330
1F
100
AcDbEntity
  8
1
100
AcDbLine
 10
-0.325
 20
-39.251879
 30
0.0
 11
-0.325
 21
-39.32358499999999
 31
0.0
  0
LINE
  5
4D
330
1F
100
AcDbEntity
  8
1
100
AcDbLine
 10
-0.325
 20
-38.927625
 30
0.0
 11
-0.325
 21
-39.014348
 31
0.0
  0
LINE
  5
4E
330
1F
100
AcDbEntity
  8
1
100
AcDbLine
 10
-0.325
 20
-38.54231400000001
 30
0.0
 11
-0.325
 21
-38.644461
 31
0.0
  0
LINE
  5
4F
330
1F
100
AcDbEntity
  8
1
100
AcDbLine
 10
-0.325
 20
-38.094094
 30
0.0
 11
-0.325
 21
-38.21216300000001
 31
0.0
  0
LINE
  5
50
330
1F
100
AcDbEntity
  8
1
100
AcDbLine
 10
-0.325
 20
-37.58071300000001
 30
0.0
 11
-0.325
 21
-37.715307
 31
0.0
  0
LINE
  5
51
330
1F
100
AcDbEntity
  8
1
100
AcDbLine
 10
1.0
 20
-34.641016
 30
0.0
 11
1.0
 21
-36.660606
 31
0.0
  0
LINE
  5
52
330
1F
100
AcDbEntity
  8
1
100
AcDbLine
 10
-0.9078870000000001
 20
-33.46706500000001
 30
0.0
 11
-0.9078870000000001
 21
-4.815139
 31
0.0
  0
LINE
  5
53
330
1F
100
AcDbEntity
  8
1
100
AcDbLine
 10
-0.229904
 20
-37.173166
 30
0.0
 11
-0.229904
 21
-33.901197
 31
0.0
  0
LINE
  5
54
330
1F
100
AcDbEntity
  8
1
100
AcDbLine
 10
0.343279
 20
-37.302954
 30
0.0
 11
0.343279
 21
-37.437807
 31
0.0
  0
LINE
  5
55
330
1F
100
AcDbEntity
  8
1
100
AcDbLine
 10
-0.325
 20
-33.841459
 30
0.0
 11
-0.325
 21
-37.58071300000001
 31
0.0
  0
LINE
  5
56
330
1F
100
AcDbEntity
  8
1
100
AcDbLine
 10
0.343279
 20
-37.849411
 30
0.0
 11
0.343279
 21
-37.968367
 31
0.0
  0
LINE
  5
57
330
1F
100
AcDbEntity
  8
1
100
AcDbLine
 10
-0.325
 20
-37.715307
 30
0.0
 11
-0.325
 21
-38.094094
 31
0.0
  0
LINE
  5
58
330
1F
100
AcDbEntity
  8
1
100
AcDbLine
 10
0.343279
 20
-38.329433
 30
0.0
 11
0.343279
 21
-38.433115
 31
0.0
  0
LINE
  5
59
330
1F
100
AcDbEntity
  8
1
100
AcDbLine
 10
-0.325
 20
-38.21216300000001
 30
0.0
 11
-0.325
 21
-38.54231400000001
 31
0.0
  0
LINE
  5
5A
330
1F
100
AcDbEntity
  8
1
100
AcDbLine
 10
0.343279
 20
-38.745489
 30
0.0
 11
0.343279
 21
-38.834416
 31
0.0
  0
LINE
  5
5B
330
1F
100
AcDbEntity
  8
1
100
AcDbLine
 10
-0.325
 20
-38.644461
 30
0.0
 11
-0.325
 21
-38.927625
 31
0.0
  0
LINE
  5
5C
330
1F
100
AcDbEntity
  8
1
100
AcDbLine
 10
0.343279
 20
-39.099622
 30
0.0
 11
0.343279
 21
-39.17421799999999
 31
0.0
  0
LINE
  5
5D
330
1F
100
AcDbEntity
  8
1
100
AcDbLine
 10
-0.325
 20
-39.014348
 30
0.0
 11
-0.325
 21
-39.251879
 31
0.0
  0
LINE
  5
5E
330
1F
100
AcDbEntity
  8
1
100
AcDbLine
 10
0.343279
 20
-39.393501
 30
0.0
 11
0.343279
 21
-39.45411
 31
0.0
  0
LINE
  5
5F
330
1F
100
AcDbEntity
  8
1
100
AcDbLine
 10
-0.325
 20
-39.32358499999999
 30
0.0
 11
-0.325
 21
-39.516579
 31
0.0
  0
LINE
  5
60
330
1F
100
AcDbEntity
  8
1
100
AcDbLine
 10
0.343279
 20
-39.628468
 30
0.0
 11
0.343279
 21
-39.675362
 31
0.0
  0
LINE
  5
61
330
1F
100
AcDbEntity
  8
1
100
AcDbLine
 10
-0.325
 20
-39.573594
 30
0.0
 11
-0.325
 21
-39.722915
 31
0.0
  0
LINE
  5
62
330
1F
100
AcDbEntity
  8
1
100
AcDbLine
 10
0.343279
 20
-39.80556400000001
 30
0.0
 11
0.343279
 21
-39.838948
 31
0.0
  0
LINE
  5
63
330
1F
100
AcDbEntity
  8
1
100
AcDbLine
 10
-0.325
 20
-39.765492
 30
0.0
 11
-0.325
 21
-39.871795
 31
0.0
  0
LINE
  5
64
330
1F
100
AcDbEntity
  8
1
100
AcDbLine
 10
0.343279
 20
-39.925561
 30
0.0
 11
0.343279
 21
-39.945579
 31
0.0
  0
LINE
  5
65
330
1F
100
AcDbEntity
  8
1
100
AcDbLine
 10
-0.325
 20
-39.900117
 30
0.0
 11
-0.325
 21
-39.963859
 31
0.0
  0
LINE
  5
66
330
1F
100
AcDbEntity
  8
1
100
AcDbLine
 10
0.343279
 20
-39.988973
 30
0.0
 11
0.343279
 21
-39.99570999999999
 31
0.0
  0
LINE
  5
67
330
1F
100
AcDbEntity
  8
1
100
AcDbLine
 10
-0.325
 20
-39.978049
 30
0.0
 11
-0.325
 21
-39.9995
 31
0.0
  0
LINE
  5
68
330
1F
100
AcDbEntity
  8
1
100
AcDbLine
 10
-0.229904
 20
33.901197
 30
0.0
 11
-0.229904
 21
37.173166
 31
0.0
  0
LINE
  5
69
330
1F
100
AcDbEntity
  8
1
100
AcDbLine
 10
0.343279
 20
37.437807
 30
0.0
 11
0.343279
 21
37.302954
 31
0.0
  0
LINE
  5
6A
330
1F
100
AcDbEntity
  8
1
100
AcDbLine
 10
-0.325
 20
37.58071300000001
 30
0.0
 11
-0.325
 21
33.841459
 31
0.0
  0
LINE
  5
6B
330
1F
100
AcDbEntity
  8
1
100
AcDbLine
 10
0.343279
 20
37.968367
 30
0.0
 11
0.343279
 21
37.849411
 31
0.0
  0
LINE
  5
6C
330
1F
100
AcDbEntity
  8
1
100
AcDbLine
 10
-0.325
 20
38.094094
 30
0.0
 11
-0.325
 21
37.715307
 31
0.0
  0
LINE
  5
6D
330
1F
100
AcDbEntity
  8
1
100
AcDbLine
 10
0.343279
 20
38.433115
 30
0.0
 11
0.343279
 21
38.329433
 31
0.0
  0
LINE
  5
6E
330
1F
100
AcDbEntity
  8
1
100
AcDbLine
 10
-0.325
 20
38.54231400000001
 30
0.0
 11
-0.325
 21
38.21216300000001
 31
0.0
  0
LINE
  5
6F
330
1F
100
AcDbEntity
  8
1
100
AcDbLine
 10
0.343279
 20
38.834416
 30
0.0
 11
0.343279
 21
38.745489
 31
0.0
  0
LINE
  5
70
330
1F
100
AcDbEntity
  8
1
100
AcDbLine
 10
-0.325
 20
38.927625
 30
0.0
 11
-0.325
 21
38.644461
 31
0.0
  0
LINE
  5
71
330
1F
100
AcDbEntity
  8
1
100
AcDbLine
 10
0.343279
 20
39.17421799999999
 30
0.0
 11
0.343279
 21
39.099622
 31
0.0
  0
LINE
  5
72
330
1F
100
AcDbEntity
  8
1
100
AcDbLine
 10
-0.325
 20
39.251879
 30
0.0
 11
-0.325
 21
39.014348
 31
0.0
  0
LINE
  5
73
330
1F
100
AcDbEntity
  8
1
100
AcDbLine
 10
0.343279
 20
39.45411
 30
0.0
 11
0.343279
 21
39.393501
 31
0.0
  0
LINE
  5
74
330
1F
100
AcDbEntity
  8
1
100
AcDbLine
 10
-0.325
 20
39.516579
 30
0.0
 11
-0.325
 21
39.32358499999999
 31
0.0
  0
LINE
  5
75
330
1F
100
AcDbEntity
  8
1
100
AcDbLine
 10
0.343279
 20
39.675362
 30
0.0
 11
0.343279
 21
39.628468
 31
0.0
  0
LINE
  5
76
330
1F
100
AcDbEntity
  8
1
100
AcDbLine
 10
-0.325
 20
39.722915
 30
0.0
 11
-0.325
 21
39.573594
 31
0.0
  0
LINE
  5
77
330
1F
100
AcDbEntity
  8
1
100
AcDbLine
 10
0.343279
 20
39.838948
 30
0.0
 11
0.343279
 21
39.80556400000001
 31
0.0
  0
LINE
  5
78
330
1F
100
AcDbEntity
  8
1
100
AcDbLine
 10
-0.325
 20
39.871795
 30
0.0
 11
-0.325
 21
39.765492
 31
0.0
  0
LINE
  5
79
330
1F
100
AcDbEntity
  8
1
100
AcDbLine
 10
0.343279
 20
39.945579
 30
0.0
 11
0.343279
 21
39.925561
 31
0.0
  0
LINE
  5
7A
330
1F
100
AcDbEntity
  8
1
100
AcDbLine
 10
-0.325
 20
39.963859
 30
0.0
 11
-0.325
 21
39.900117
 31
0.0
  0
LINE
  5
7B
330
1F
100
AcDbEntity
  8
1
100
AcDbLine
 10
0.343279
 20
39.99570999999999
 30
0.0
 11
0.343279
 21
39.988973
 31
0.0
  0
LINE
  5
7C
330
1F
100
AcDbEntity
  8
1
100
AcDbLine
 10
-0.325
 20
39.9995
 30
0.0
 11
-0.325
 21
39.978049
 31
0.0
  0
LINE
  5
7D
330
1F
100
AcDbEntity
  8
1
100
AcDbLine
 10
17.325
 20
8.883383
 30
0.0
 11
6.5
 21
8.883383
 31
0.0
  0
LINE
  5
7E
330
1F
100
AcDbEntity
  8
1
100
AcDbLine
 10
17.325
 20
8.883383
 30
0.0
 11
17.325
 21
-40.0
 31
0.0
  0
LINE
  5
7F
330
1F
100
AcDbEntity
  8
1
100
AcDbLine
 10
17.325
 20
9.38648
 30
0.0
 11
22.325
 21
9.38648
 31
0.0
  0
LINE
  5
80
330
1F
100
AcDbEntity
  8
1
100
AcDbLine
 10
22.583983
 20
9.604946999999999
 30
0.0
 11
22.325
 21
9.38648
 31
0.0
  0
LINE
  5
81
330
1F
100
AcDbEntity
  8
1
100
AcDbLine
 10
22.325
 20
6.986324
 30
0.0
 11
17.325
 21
6.986324
 31
0.0
  0
LINE
  5
82
330
1F
100
AcDbEntity
  8
1
100
AcDbLine
 10
23.325
 20
7.437371999999999
 30
0.0
 11
23.325
 21
7.062628
 31
0.0
  0
LINE
  5
83
330
1F
100
AcDbEntity
  8
1
100
AcDbLine
 10
23.325
 20
7.062628
 30
0.0
 11
22.65725
 21
6.677102
 31
0.0
  0
LINE
  5
84
330
1F
100
AcDbEntity
  8
1
100
AcDbLine
 10
22.65725
 20
6.322898
 30
0.0
 11
23.325
 21
5.937371999999999
 31
0.0
  0
LINE
  5
85
330
1F
100
AcDbEntity
  8
1
100
AcDbLine
 10
23.325
 20
5.937371999999999
 30
0.0
 11
23.325
 21
5.562628
 31
0.0
  0
LINE
  5
86
330
1F
100
AcDbEntity
  8
1
100
AcDbLine
 10
23.325
 20
5.562628
 30
0.0
 11
22.65725
 21
5.177101999999999
 31
0.0
  0
LINE
  5
87
330
1F
100
AcDbEntity
  8
1
100
AcDbLine
 10
22.65725
 20
4.822898
 30
0.0
 11
23.325
 21
4.437371999999999
 31
0.0
  0
LINE
  5
88
330
1F
100
AcDbEntity
  8
1
100
AcDbLine
 10
23.325
 20
4.437371999999999
 30
0.0
 11
23.325
 21
4.062628
 31
0.0
  0
LINE
  5
89
330
1F
100
AcDbEntity
  8
1
100
AcDbLine
 10
23.325
 20
4.062628
 30
0.0
 11
22.65725
 21
3.677101999999999
 31
0.0
  0
LINE
  5
8A
330
1F
100
AcDbEntity
  8
1
100
AcDbLine
 10
22.65725
 20
3.322898
 30
0.0
 11
23.065471
 21
3.087212
 31
0.0
  0
LINE
  5
8B
330
1F
100
AcDbEntity
  8
1
100
AcDbLine
 10
17.325
 20
2.232209999999999
 30
0.0
 11
22.325
 21
2.232209999999999
 31
0.0
  0
LINE
  5
8C
330
1F
100
AcDbEntity
  8
1
100
AcDbLine
 10
23.277176
 20
7.464983
 30
0.0
 11
23.325
 21
7.437371999999999
 31
0.0
  0
LINE
  5
8D
330
1F
100
AcDbEntity
  8
1
100
AcDbLine
 10
22.325
 20
0.0
 30
0.0
 11
22.651066
 21
0.326066
 31
0.0
  0
LINE
  5
8E
330
1F
100
AcDbEntity
  8
1
100
AcDbLine
 10
23.325
 20
1.437371999999999
 30
0.0
 11
22.65725
 21
1.822897999999999
 31
0.0
  0
LINE
  5
8F
330
1F
100
AcDbEntity
  8
1
100
AcDbLine
 10
22.65725
 20
0.6771020000000001
 30
0.0
 11
23.325
 21
1.062628
 31
0.0
  0
LINE
  5
90
330
1F
100
AcDbEntity
  8
1
100
AcDbLine
 10
17.325
 20
0.0
 30
0.0
 11
22.325
 21
0.0
 31
0.0
  0
LINE
  5
91
330
1F
100
AcDbEntity
  8
1
100
AcDbLine
 10
9.481344999999999
 20
-21.218339
 30
0.0
 11
9.519377999999999
 21
-19.718701
 31
0.0
  0
LINE
  5
92
330
1F
100
AcDbEntity
  8
1
100
AcDbLine
 10
10.961967
 20
-21.996684
 30
0.0
 11
9.481344999999999
 21
-21.218339
 31
0.0
  0
LINE
  5
93
330
1F
100
AcDbEntity
  8
1
100
AcDbLine
 10
12.480622
 20
-21.27539
 30
0.0
 11
10.961967
 21
-21.996684
 31
0.0
  0
LINE
  5
94
330
1F
100
AcDbEntity
  8
1
100
AcDbLine
 10
12.518655
 20
-19.775751
 30
0.0
 11
12.480622
 21
-21.27539
 31
0.0
  0
LINE
  5
95
330
1F
100
AcDbEntity
  8
1
100
AcDbLine
 10
11.038033
 20
-18.997407
 30
0.0
 11
12.518655
 21
-19.775751
 31
0.0
  0
LINE
  5
96
330
1F
100
AcDbEntity
  8
1
100
AcDbLine
 10
9.519377999999999
 20
-19.718701
 30
0.0
 11
11.038033
 21
-18.997407
 31
0.0
  0
LINE
  5
97
330
1F
100
AcDbEntity
  8
1
100
AcDbLine
 10
12.480622
 20
-19.755758
 30
0.0
 11
12.480622
 21
-21.27539
 31
0.0
  0
LINE
  5
98
330
1F
100
AcDbEntity
  8
1
100
AcDbLine
 10
10.961967
 20
-19.996684
 30
0.0
 11
10.961967
 21
-21.996684
 31
0.0
  0
LINE
  5
99
330
1F
100
AcDbEntity
  8
1
100
AcDbLine
 10
12.000562
 20
-19.503396
 30
0.0
 11
10.961967
 21
-19.996684
 31
0.0
  0
LINE
  5
9A
330
1F
100
AcDbEntity
  8
1
100
AcDbLine
 10
10.961967
 20
-19.996684
 30
0.0
 11
9.999437999999999
 21
-19.490694
 31
0.0
  0
LINE
  5
9B
330
1F
100
AcDbEntity
  8
1
100
AcDbLine
 10
17.325
 20
26.778321
 30
0.0
 11
6.5
 21
26.778321
 31
0.0
  0
LINE
  5
9C
330
1F
100
AcDbEntity
  8
1
100
AcDbLine
 10
17.325
 20
14.447832
 30
0.0
 11
22.325
 21
14.447832
 31
0.0
  0
LINE
  5
9D
330
1F
100
AcDbEntity
  8
1
100
AcDbLine
 10
22.65725
 20
24.677102
 30
0.0
 11
23.325
 21
25.062628
 31
0.0
  0
LINE
  5
9E
330
1F
100
AcDbEntity
  8
1
100
AcDbLine
 10
23.325
 20
23.937372
 30
0.0
 11
22.65725
 21
24.322898
 31
0.0
  0
LINE
  5
9F
330
1F
100
AcDbEntity
  8
1
100
AcDbLine
 10
23.325
 20
23.562628
 30
0.0
 11
23.325
 21
23.937372
 31
0.0
  0
LINE
  5
A0
330
1F
100
AcDbEntity
  8
1
100
AcDbLine
 10
22.65725
 20
23.177102
 30
0.0
 11
23.325
 21
23.562628
 31
0.0
  0
LINE
  5
A1
330
1F
100
AcDbEntity
  8
1
100
AcDbLine
 10
23.325
 20
22.437372
 30
0.0
 11
22.65725
 21
22.822898
 31
0.0
  0
LINE
  5
A2
330
1F
100
AcDbEntity
  8
1
100
AcDbLine
 10
23.325
 20
22.062628
 30
0.0
 11
23.325
 21
22.437372
 31
0.0
  0
LINE
  5
A3
330
1F
100
AcDbEntity
  8
1
100
AcDbLine
 10
22.65725
 20
21.677102
 30
0.0
 11
23.325
 21
22.062628
 31
0.0
  0
LINE
  5
A4
330
1F
100
AcDbEntity
  8
1
100
AcDbLine
 10
23.325
 20
20.937372
 30
0.0
 11
22.65725
 21
21.322898
 31
0.0
  0
LINE
  5
A5
330
1F
100
AcDbEntity
  8
1
100
AcDbLine
 10
23.325
 20
20.562628
 30
0.0
 11
23.325
 21
20.937372
 31
0.0
  0
LINE
  5
A6
330
1F
100
AcDbEntity
  8
1
100
AcDbLine
 10
22.65725
 20
20.177102
 30
0.0
 11
23.325
 21
20.562628
 31
0.0
  0
LINE
  5
A7
330
1F
100
AcDbEntity
  8
1
100
AcDbLine
 10
23.325
 20
19.437372
 30
0.0
 11
22.65725
 21
19.822898
 31
0.0
  0
LINE
  5
A8
330
1F
100
AcDbEntity
  8
1
100
AcDbLine
 10
23.325
 20
19.062628
 30
0.0
 11
23.325
 21
19.437372
 31
0.0
  0
LINE
  5
A9
330
1F
100
AcDbEntity
  8
1
100
AcDbLine
 10
22.65725
 20
18.677102
 30
0.0
 11
23.325
 21
19.062628
 31
0.0
  0
LINE
  5
AA
330
1F
100
AcDbEntity
  8
1
100
AcDbLine
 10
23.325
 20
17.937372
 30
0.0
 11
22.65725
 21
18.322898
 31
0.0
  0
LINE
  5
AB
330
1F
100
AcDbEntity
  8
1
100
AcDbLine
 10
23.325
 20
17.562628
 30
0.0
 11
23.325
 21
17.937372
 31
0.0
  0
LINE
  5
AC
330
1F
100
AcDbEntity
  8
1
100
AcDbLine
 10
22.65725
 20
17.177102
 30
0.0
 11
23.325
 21
17.562628
 31
0.0
  0
LINE
  5
AD
330
1F
100
AcDbEntity
  8
1
100
AcDbLine
 10
23.325
 20
16.437372
 30
0.0
 11
22.65725
 21
16.822898
 31
0.0
  0
LINE
  5
AE
330
1F
100
AcDbEntity
  8
1
100
AcDbLine
 10
23.325
 20
16.062628
 30
0.0
 11
23.325
 21
16.437372
 31
0.0
  0
LINE
  5
AF
330
1F
100
AcDbEntity
  8
1
100
AcDbLine
 10
22.65725
 20
15.677102
 30
0.0
 11
23.325
 21
16.062628
 31
0.0
  0
LINE
  5
B0
330
1F
100
AcDbEntity
  8
1
100
AcDbLine
 10
23.325
 20
14.937372
 30
0.0
 11
22.65725
 21
15.322898
 31
0.0
  0
LINE
  5
B1
330
1F
100
AcDbEntity
  8
1
100
AcDbLine
 10
23.325
 20
14.562628
 30
0.0
 11
23.325
 21
14.937372
 31
0.0
  0
LINE
  5
B2
330
1F
100
AcDbEntity
  8
1
100
AcDbLine
 10
23.126168
 20
14.447832
 30
0.0
 11
23.325
 21
14.562628
 31
0.0
  0
LINE
  5
B3
330
1F
100
AcDbEntity
  8
1
100
AcDbLine
 10
23.126168
 20
14.447832
 30
0.0
 11
22.325
 21
14.447832
 31
0.0
  0
LINE
  5
B4
330
1F
100
AcDbEntity
  8
1
100
AcDbLine
 10
22.325
 20
14.447832
 30
0.0
 11
22.325
 21
25.552168
 31
0.0
  0
LINE
  5
B5
330
1F
100
AcDbEntity
  8
1
100
AcDbLine
 10
23.126168
 20
25.552168
 30
0.0
 11
22.325
 21
25.552168
 31
0.0
  0
LINE
  5
B6
330
1F
100
AcDbEntity
  8
1
100
AcDbLine
 10
23.325
 20
25.437372
 30
0.0
 11
23.126168
 21
25.552168
 31
0.0
  0
LINE
  5
B7
330
1F
100
AcDbEntity
  8
1
100
AcDbLine
 10
23.325
 20
25.062628
 30
0.0
 11
23.325
 21
25.437372
 31
0.0
  0
LINE
  5
B8
330
1F
100
AcDbEntity
  8
1
100
AcDbLine
 10
17.325
 20
25.552168
 30
0.0
 11
22.325
 21
25.552168
 31
0.0
  0
LINE
  5
B9
330
1F
100
AcDbEntity
  8
1
100
AcDbLine
 10
23.325
 20
13.062628
 30
0.0
 11
23.325
 21
13.437372
 31
0.0
  0
LINE
  5
BA
330
1F
100
AcDbEntity
  8
1
100
AcDbLine
 10
23.325
 20
11.562628
 30
0.0
 11
23.325
 21
11.937372
 31
0.0
  0
LINE
  5
BB
330
1F
100
AcDbEntity
  8
1
100
AcDbLine
 10
23.325
 20
10.437372
 30
0.0
 11
22.65725
 21
10.822898
 31
0.0
  0
LINE
  5
BC
330
1F
100
AcDbEntity
  8
1
100
AcDbLine
 10
23.325
 20
10.230039
 30
0.0
 11
23.325
 21
10.437372
 31
0.0
  0
LINE
  5
BD
330
1F
100
AcDbEntity
  8
1
100
AcDbLine
 10
17.325
 20
30.61352
 30
0.0
 11
22.325
 21
30.61352
 31
0.0
  0
LINE
  5
BE
330
1F
100
AcDbEntity
  8
1
100
AcDbLine
 10
22.325
 20
30.61352
 30
0.0
 11
22.325
 21
25.552168
 31
0.0
  0
LINE
  5
BF
330
1F
100
AcDbEntity
  8
1
100
AcDbLine
 10
23.325
 20
29.769961
 30
0.0
 11
22.696128
 21
30.30045100000001
 31
0.0
  0
LINE
  5
C0
330
1F
100
AcDbEntity
  8
1
100
AcDbLine
 10
23.325
 20
29.769961
 30
0.0
 11
23.325
 21
29.56262800000001
 31
0.0
  0
LINE
  5
C1
330
1F
100
AcDbEntity
  8
1
100
AcDbLine
 10
23.325
 20
29.56262800000001
 30
0.0
 11
22.65725
 21
29.177102
 31
0.0
  0
LINE
  5
C2
330
1F
100
AcDbEntity
  8
1
100
AcDbLine
 10
23.325
 20
28.43737199999999
 30
0.0
 11
23.325
 21
28.06262800000001
 31
0.0
  0
LINE
  5
C3
330
1F
100
AcDbEntity
  8
1
100
AcDbLine
 10
23.325
 20
26.937372
 30
0.0
 11
23.325
 21
26.562628
 31
0.0
  0
LINE
  5
C4
330
1F
100
AcDbEntity
  8
1
100
AcDbLine
 10
22.583983
 20
30.395053
 30
0.0
 11
22.325
 21
30.61352
 31
0.0
  0
LINE
  5
C5
330
1F
100
AcDbEntity
  8
1
100
AcDbLine
 10
17.325
 20
30.61352
 30
0.0
 11
6.5
 21
30.61352
 31
0.0
  0
LINE
  5
C6
330
1F
100
AcDbEntity
  8
1
100
AcDbLine
 10
6.5
 20
26.778321
 30
0.0
 11
6.5
 21
30.61352
 31
0.0
  0
LINE
  5
C7
330
1F
100
AcDbEntity
  8
1
100
AcDbLine
 10
17.325
 20
30.61352
 30
0.0
 11
17.325
 21
26.778321
 31
0.0
  0
LINE
  5
C8
330
1F
100
AcDbEntity
  8
1
100
AcDbLine
 10
22.651066
 20
39.673934
 30
0.0
 11
22.325
 21
40.0
 31
0.0
  0
LINE
  5
C9
330
1F
100
AcDbEntity
  8
1
100
AcDbLine
 10
23.325
 20
38.56262800000001
 30
0.0
 11
22.65725
 21
38.177102
 31
0.0
  0
LINE
  5
CA
330
1F
100
AcDbEntity
  8
1
100
AcDbLine
 10
22.65725
 20
39.32289799999999
 30
0.0
 11
23.325
 21
38.937372
 31
0.0
  0
LINE
  5
CB
330
1F
100
AcDbEntity
  8
1
100
AcDbLine
 10
8.5
 20
40.0
 30
0.0
 11
6.5
 21
40.0
 31
0.0
  0
LINE
  5
CC
330
1F
100
AcDbEntity
  8
1
100
AcDbLine
 10
22.325
 20
40.0
 30
0.0
 11
13.492035
 21
40.0
 31
0.0
  0
LINE
  5
CD
330
1F
100
AcDbEntity
  8
1
100
AcDbLine
 10
23.325
 20
10.062628
 30
0.0
 11
23.325
 21
10.230039
 31
0.0
  0
LINE
  5
CE
330
1F
100
AcDbEntity
  8
1
100
AcDbLine
 10
10.133975
 20
18.056821
 30
0.0
 11
9.267948999999999
 21
19.556821
 31
0.0
  0
LINE
  5
CF
330
1F
100
AcDbEntity
  8
1
100
AcDbLine
 10
11.866025
 20
18.056821
 30
0.0
 11
10.133975
 21
18.056821
 31
0.0
  0
LINE
  5
D0
330
1F
100
AcDbEntity
  8
1
100
AcDbLine
 10
12.732051
 20
19.556821
 30
0.0
 11
11.866025
 21
18.056821
 31
0.0
  0
LINE
  5
D1
330
1F
100
AcDbEntity
  8
1
100
AcDbLine
 10
11.866025
 20
21.056821
 30
0.0
 11
12.732051
 21
19.556821
 31
0.0
  0
LINE
  5
D2
330
1F
100
AcDbEntity
  8
1
100
AcDbLine
 10
10.133975
 20
21.056821
 30
0.0
 11
11.866025
 21
21.056821
 31
0.0
  0
LINE
  5
D3
330
1F
100
AcDbEntity
  8
1
100
AcDbLine
 10
9.267948999999999
 20
19.556821
 30
0.0
 11
10.133975
 21
21.056821
 31
0.0
  0
LINE
  5
D4
330
1F
100
AcDbEntity
  8
1
100
AcDbLine
 10
-0.325
 20
40.0
 30
0.0
 11
-0.325
 21
39.9995
 31
0.0
  0
LINE
  5
D5
330
1F
100
AcDbEntity
  8
1
100
AcDbLine
 10
6.5
 20
40.0
 30
0.0
 11
-0.325
 21
40.0
 31
0.0
  0
LINE
  5
D6
330
1F
100
AcDbEntity
  8
1
100
AcDbLine
 10
-0.325
 20
-40.0
 30
0.0
 11
17.325
 21
-40.0
 31
0.0
  0
LINE
  5
D7
330
1F
100
AcDbEntity
  8
1
100
AcDbLine
 10
1.0
 20
36.660606
 30
0.0
 11
1.0
 21
34.641016
 31
0.0
  0
LINE
  5
D8
330
1F
100
AcDbEntity
  8
1
100
AcDbLine
 10
-0.325
 20
37.715307
 30
0.0
 11
-0.325
 21
37.58071300000001
 31
0.0
  0
LINE
  5
D9
330
1F
100
AcDbEntity
  8
1
100
AcDbLine
 10
-0.325
 20
38.21216300000001
 30
0.0
 11
-0.325
 21
38.094094
 31
0.0
  0
LINE
  5
DA
330
1F
100
AcDbEntity
  8
1
100
AcDbLine
 10
-0.325
 20
38.644461
 30
0.0
 11
-0.325
 21
38.54231400000001
 31
0.0
  0
LINE
  5
DB
330
1F
100
AcDbEntity
  8
1
100
AcDbLine
 10
-0.325
 20
39.014348
 30
0.0
 11
-0.325
 21
38.927625
 31
0.0
  0
LINE
  5
DC
330
1F
100
AcDbEntity
  8
1
100
AcDbLine
 10
-0.325
 20
39.32358499999999
 30
0.0
 11
-0.325
 21
39.251879
 31
0.0
  0
LINE
  5
DD
330
1F
100
AcDbEntity
  8
1
100
AcDbLine
 10
-0.325
 20
39.573594
 30
0.0
 11
-0.325
 21
39.516579
 31
0.0
  0
LINE
  5
DE
330
1F
100
AcDbEntity
  8
1
100
AcDbLine
 10
-0.325
 20
39.765492
 30
0.0
 11
-0.325
 21
39.722915
 31
0.0
  0
LINE
  5
DF
330
1F
100
AcDbEntity
  8
1
100
AcDbLine
 10
-0.325
 20
39.900117
 30
0.0
 11
-0.325
 21
39.871795
 31
0.0
  0
LINE
  5
E0
330
1F
100
AcDbEntity
  8
1
100
AcDbLine
 10
-0.325
 20
39.978049
 30
0.0
 11
-0.325
 21
39.963859
 31
0.0
  0
LINE
  5
E1
330
1F
100
AcDbEntity
  8
1
100
AcDbLine
 10
-0.9078870000000001
 20
4.815139
 30
0.0
 11
-0.9078870000000001
 21
33.46706500000001
 31
0.0
  0
LINE
  5
E2
330
1F
100
AcDbEntity
  8
1
100
AcDbLine
 10
6.5
 20
8.883383
 30
0.0
 11
6.5
 21
26.778321
 31
0.0
  0
LINE
  5
E3
330
1F
100
AcDbEntity
  8
1
100
AcDbLine
 10
17.325
 20
26.778321
 30
0.0
 11
17.325
 21
8.883383
 31
0.0
  0
LINE
  5
E4
330
1F
100
AcDbEntity
  8
1
100
AcDbLine
 10
22.325
 20
9.38648
 30
0.0
 11
22.325
 21
14.447832
 31
0.0
  0
LINE
  5
E5
330
1F
100
AcDbEntity
  8
1
100
AcDbLine
 10
23.325
 20
10.230039
 30
0.0
 11
22.696128
 21
9.699549000000001
 31
0.0
  0
LINE
  5
E6
330
1F
100
AcDbEntity
  8
1
100
AcDbLine
 10
23.325
 20
8.562628
 30
0.0
 11
23.325
 21
8.937371999999999
 31
0.0
  0
LINE
  5
E7
330
1F
100
AcDbEntity
  8
1
100
AcDbLine
 10
22.325
 20
6.986324
 30
0.0
 11
22.325
 21
9.38648
 31
0.0
  0
LINE
  5
E8
330
1F
100
AcDbEntity
  8
1
100
AcDbLine
 10
22.325
 20
40.0
 30
0.0
 11
22.325
 21
30.61352
 31
0.0
  0
LINE
  5
E9
330
1F
100
AcDbEntity
  8
1
100
AcDbLine
 10
23.325
 20
38.937372
 30
0.0
 11
23.325
 21
38.56262800000001
 31
0.0
  0
LINE
  5
EA
330
1F
100
AcDbEntity
  8
1
100
AcDbLine
 10
23.325
 20
37.437372
 30
0.0
 11
23.325
 21
37.06262800000001
 31
0.0
  0
LINE
  5
EB
330
1F
100
AcDbEntity
  8
1
100
AcDbLine
 10
23.325
 20
35.937372
 30
0.0
 11
23.325
 21
35.56262800000001
 31
0.0
  0
LINE
  5
EC
330
1F
100
AcDbEntity
  8
1
100
AcDbLine
 10
23.325
 20
34.437372
 30
0.0
 11
23.325
 21
34.062628
 31
0.0
  0
LINE
  5
ED
330
1F
100
AcDbEntity
  8
1
100
AcDbLine
 10
23.325
 20
32.937372
 30
0.0
 11
23.325
 21
32.562628
 31
0.0
  0
LINE
  5
EE
330
1F
100
AcDbEntity
  8
1
100
AcDbLine
 10
23.325
 20
31.437372
 30
0.0
 11
23.325
 21
31.062628
 31
0.0
  0
LINE
  5
EF
330
1F
100
AcDbEntity
  8
1
100
AcDbLine
 10
6.5
 20
30.61352
 30
0.0
 11
6.5
 21
40.0
 31
0.0
  0
LINE
  5
F0
330
1F
100
AcDbEntity
  8
1
100
AcDbLine
 10
23.325
 20
29.937372
 30
0.0
 11
23.325
 21
29.769961
 31
0.0
  0
LINE
  5
F1
330
1F
100
AcDbEntity
  8
1
100
AcDbLine
 10
22.325
 20
0.0
 30
0.0
 11
22.325
 21
2.232209999999999
 31
0.0
  0
LINE
  5
F2
330
1F
100
AcDbEntity
  8
1
100
AcDbLine
 10
23.325
 20
2.562627999999999
 30
0.0
 11
23.325
 21
2.937372
 31
0.0
  0
LINE
  5
F3
330
1F
100
AcDbEntity
  8
1
100
AcDbLine
 10
23.325
 20
1.062628
 30
0.0
 11
23.325
 21
1.437371999999999
 31
0.0
  0
LINE
  5
F4
330
1F
100
AcDbEntity
  8
4
 48
0.05
100
AcDbLine
 10
0.0
 20
0.0
 30
0.0
 11
23.0
 21
0.0
 31
0.0
  0
LINE
  5
F6
330
1F
100
AcDbEntity
  8
SK4
 48
0.05
100
AcDbLine
 10
-5.0
 20
0.0
 30
0.0
 11
25.0
 21
0.0
 31
0.0
  0
LINE
  5
F8
330
1F
100
AcDbEntity
  8
80
100
AcDbLine
 10
0.0
 20
0.0
 30
0.0
 11
-7.0
 21
0.0
 31
0.0
  0
LINE
  5
F9
330
1F
100
AcDbEntity
  8
81
100
AcDbLine
 10
23.0
 20
20.0
 30
0.0
 11
30.0
 21
20.0
 31
0.0
  0
MTEXT
  5
19D
330
1F
100
AcDbEntity
  8
SK6
100
AcDbMText
 10
-2.33594
 20
-52.162997
 30
0.0
 40
3.174999999999999
 41
0.0
 71
     7
 72
     5
  1
\W00.734;\fsimplex.shx,bigfont.shx;SL70-80 23-RG 
  7
DEFAULT
 73
     1
 44
1.084337
1001
ACAD
1000
MTEXTBEGIN
1070
    73
1070
     1
1070
    44
1040
1.084337
1070
    74
1070
     0
1000
MTEXTEND
  0
DIMENSION
  5
1AC
330
1F
100
AcDbEntity
  8
2L
370
    -3
100
AcDbDimension
  2
DimnDraft3D1
 10
-15.217284
 20
40.0
 30
0.0
 11
-14.423534
 21
4.632870999999999
 31
0.0
 70
    33
 71
     5
 42
-1.0
  3
Standard
100
AcDbAlignedDimension
 13
-1.9125
 23
-40.0
 33
0.0
 14
11.904535
 24
40.0
 34
0.0
1001
ACAD
1000
DSTYLE
1002
{
1070
   279
1070
     0
1070
    74
1070
     0
1070
   173
1070
     1
1070
   340
1005
19E
1070
   271
1070
     3
1070
   272
1070
     3
1070
    77
1070
     1
1070
    73
1070
     0
1070
   171
1070
     4
1070
   274
1070
     4
1070
   177
1070
     7
1070
   176
1070
     7
1070
   178
1070
     7
1070
    78
1070
     8
1070
    48
1040
-0.005
1070
    41
1041
3.174999999999999
1070
   147
1041
1.587499999999999
1070
    42
1041
1.587499999999999
1070
    44
1041
3.174999999999999
1070
   140
1041
3.174999999999999
1070
   343
1005
0
1070
   344
1005
0
1002
}
  0
DIMENSION
  5
1CA
330
1F
100
AcDbEntity
  8
2L
370
    -3
100
AcDbDimension
  2
DimnDraft3D4
 10
-54.141905
 20
0.0
 30
0.0
 11
-54.141905
 21
9.156653
 31
0.0
 70
    32
 71
     5
 42
-1.0
  3
Standard
100
AcDbAlignedDimension
 13
-21.5875
 23
23.0
 33
0.0
 14
-1.587499999999999
 24
0.0
 34
0.0
 50
90.0
100
AcDbRotatedDimension
1001
ACAD
1000
DSTYLE
1002
{
1070
    74
1070
     0
1070
   279
1070
     0
1070
   173
1070
     1
1070
   340
1005
19E
1070
   271
1070
     3
1070
   272
1070
     3
1070
    77
1070
     1
1070
    73
1070
     0
1070
   171
1070
     4
1070
   274
1070
     4
1070
   177
1070
     7
1070
   176
1070
     7
1070
   178
1070
     7
1070
    78
1070
     8
1070
    48
1040
-0.005
1070
    41
1041
3.174999999999999
1070
   147
1041
1.587499999999999
1070
    42
1041
1.587499999999999
1070
    44
1041
3.174999999999999
1070
   140
1041
3.174999999999999
1070
   343
1005
0
1070
   344
1005
0
1002
}
  0
ENDSEC
  0
SECTION
  2
OBJECTS
  0
DICTIONARY
  5
218
330
0
100
AcDbDictionary
281
     1
  3
ACAD_CIP_PREVIOUS_PRODUCT_INFO
350
27E
  3
ACAD_COLOR
350
25B
  3
ACAD_DETAILVIEWSTYLE
350
275
  3
ACAD_GROUP
350
219
  3
ACAD_LAYOUT
350
277
  3
ACAD_MATERIAL
350
229
  3
ACAD_MLEADERSTYLE
350
270
  3
ACAD_MLINESTYLE
350
21A
  3
ACAD_PLOTSETTINGS
350
278
  3
ACAD_PLOTSTYLENAME
350
227
  3
ACAD_SCALELIST
350
25E
  3
ACAD_SECTIONVIEWSTYLE
350
272
  3
ACAD_TABLESTYLE
350
25C
  3
ACAD_VISUALSTYLE
350
242
  3
ACDB_RECOMPOSE_DATA
350
29E
  3
AcDbVariableDictionary
350
291
  3
DWGPROPS
350
29F
  0
DICTIONARY
  5
281
330
10
100
AcDbDictionary
280
     1
281
     1
  3
ADSK_XREC_LAYER_RECONCILED
360
282
  0
DICTIONARY
  5
283
330
43
100
AcDbDictionary
280
     1
281
     1
  3
ADSK_XREC_LAYER_RECONCILED
360
284
  0
DICTIONARY
  5
285
330
45
100
AcDbDictionary
280
     1
281
     1
  3
ADSK_XREC_LAYER_RECONCILED
360
286
  0
DICTIONARY
  5
287
330
47
100
AcDbDictionary
280
     1
281
     1
  3
ADSK_XREC_LAYER_RECONCILED
360
288
  0
DICTIONARY
  5
289
330
F5
100
AcDbDictionary
280
     1
281
     1
  3
ADSK_XREC_LAYER_RECONCILED
360
28A
  0
DICTIONARY
  5
28B
330
208
100
AcDbDictionary
280
     1
281
     1
  3
ADSK_XREC_LAYER_RECONCILED
360
28C
  0
DICTIONARY
  5
28D
330
209
100
AcDbDictionary
280
     1
281
     1
  3
ADSK_XREC_LAYER_RECONCILED
360
28E
  0
DICTIONARY
  5
28F
330
20A
100
AcDbDictionary
280
     1
281
     1
  3
ADSK_XREC_LAYER_RECONCILED
360
290
  0
XRECORD
  5
27E
102
{ACAD_REACTORS
330
218
102
}
330
218
100
AcDbXrecord
280
     1
300
AMECH_PP
300
2013
300
PDSU_F_S
  0
DICTIONARY
  5
25B
102
{ACAD_REACTORS
330
218
102
}
330
218
100
AcDbDictionary
281
     1
  0
DICTIONARY
  5
275
102
{ACAD_REACTORS
330
218
102
}
330
218
100
AcDbDictionary
281
     1
  3
Imperial24
350
276
  0
DICTIONARY
  5
219
330
218
100
AcDbDictionary
281
     1
  0
DICTIONARY
  5
277
102
{ACAD_REACTORS
330
218
102
}
330
218
100
AcDbDictionary
281
     1
  3
Layout1
350
27A
  3
Model
350
279
  0
DICTIONARY
  5
229
102
{ACAD_REACTORS
330
218
102
}
330
218
100
AcDbDictionary
281
     1
  3
ByBlock
350
232
  3
ByLayer
350
22A
  3
Global
350
23A
  0
DICTIONARY
  5
270
102
{ACAD_REACTORS
330
218
102
}
330
218
100
AcDbDictionary
281
     1
  3
Standard
350
271
  0
DICTIONARY
  5
21A
330
218
100
AcDbDictionary
281
     1
  3
Standard
350
18
  0
DICTIONARY
  5
278
102
{ACAD_REACTORS
330
218
102
}
330
218
100
AcDbDictionary
281
     1
  0
ACDBDICTIONARYWDFLT
  5
227
102
{ACAD_REACTORS
330
218
102
}
330
218
100
AcDbDictionary
281
     1
  3
Normal
350
228
100
AcDbDictionaryWithDefault
340
228
  0
DICTIONARY
  5
25E
102
{ACAD_REACTORS
330
218
102
}
330
218
100
AcDbDictionary
281
     1
  3
A0
350
25F
  3
A1
350
260
  3
A2
350
261
  3
A3
350
262
  3
A4
350
263
  3
A5
350
264
  3
A6
350
265
  3
A7
350
266
  3
A8
350
267
  3
A9
350
268
  3
B0
350
269
  3
B1
350
26A
  3
B2
350
26B
  3
B3
350
26C
  3
B4
350
26D
  3
B5
350
26E
  3
B6
350
26F
  0
DICTIONARY
  5
272
102
{ACAD_REACTORS
330
218
102
}
330
218
100
AcDbDictionary
281
     1
  3
Imperial24
350
274
  0
DICTIONARY
  5
25C
102
{ACAD_REACTORS
330
218
102
}
330
218
100
AcDbDictionary
281
     1
  3
Standard
350
25D
  0
DICTIONARY
  5
242
102
{ACAD_REACTORS
330
218
102
}
330
218
100
AcDbDictionary
281
     1
  3
2dWireframe
350
248
  3
Basic
350
247
  3
Brighten
350
24E
  3
ColorChange
350
252
  3
Conceptual
350
24B
  3
Dim
350
24D
  3
EdgeColorOff
350
25A
  3
Facepattern
350
251
  3
Flat
350
243
  3
FlatWithEdges
350
244
  3
Gouraud
350
245
  3
GouraudWithEdges
350
246
  3
Hidden
350
24A
  3
JitterOff
350
258
  3
Linepattern
350
250
  3
OverhangOff
350
259
  3
Realistic
350
24C
  3
Shaded
350
257
  3
Shaded with edges
350
256
  3
Shades of Gray
350
253
  3
Sketchy
350
254
  3
Thicken
350
24F
  3
Wireframe
350
249
  3
X-Ray
350
255
  0
XRECORD
  5
29E
102
{ACAD_REACTORS
330
218
102
}
330
218
100
AcDbXrecord
280
     1
 90
        1
330
25D
  0
DICTIONARY
  5
291
102
{ACAD_REACTORS
330
218
102
}
330
218
100
AcDbDictionary
281
     1
  3
CANNOSCALE
350
296
  3
CMLEADERSTYLE
350
293
  3
CTABLESTYLE
350
292
  3
CVIEWDETAILSTYLE
350
294
  3
CVIEWSECTIONSTYLE
350
295
  3
DIMASSOC
350
299
  3
INDEXCTL
350
298
  3
SORTENTS
350
297
  3
XCLIPFRAME
350
29A
  0
XRECORD
  5
29F
102
{ACAD_REACTORS
330
218
102
}
330
218
100
AcDbXrecord
280
     1
  1
DWGPROPS COOKIE
  2

  3

  4

  6

  7

  8
Micke
  9

300
=
301
=
302
=
303
=
304
=
305
=
306
=
307
=
308
=
309
=
 40
0.0000059490740741
 41
2456818.480506597
 42
2456818.480512373
  1

 90
        0
  0
XRECORD
  5
282
102
{ACAD_REACTORS
330
281
102
}
330
281
100
AcDbXrecord
280
     1
290
     1
  0
XRECORD
  5
284
102
{ACAD_REACTORS
330
283
102
}
330
283
100
AcDbXrecord
280
     1
290
     1
  0
XRECORD
  5
286
102
{ACAD_REACTORS
330
285
102
}
330
285
100
AcDbXrecord
280
     1
290
     1
  0
XRECORD
  5
288
102
{ACAD_REACTORS
330
287
102
}
330
287
100
AcDbXrecord
280
     1
290
     1
  0
XRECORD
  5
28A
102
{ACAD_REACTORS
330
289
102
}
330
289
100
AcDbXrecord
280
     1
290
     1
  0
XRECORD
  5
28C
102
{ACAD_REACTORS
330
28B
102
}
330
28B
100
AcDbXrecord
280
     1
290
     1
  0
XRECORD
  5
28E
102
{ACAD_REACTORS
330
28D
102
}
330
28D
100
AcDbXrecord
280
     1
290
     1
  0
XRECORD
  5
290
102
{ACAD_REACTORS
330
28F
102
}
330
28F
100
AcDbXrecord
280
     1
290
     1
  0
ACDBDETAILVIEWSTYLE
  5
276
102
{ACAD_REACTORS
330
275
102
}
330
275
100
AcDbModelDocViewStyle
 70
     0
  3
Imperial24
290
     0
100
AcDbDetailViewStyle
 70
     0
 71
     0
 90
        3
 71
     1
340
11
 40
0.24
340
0
 40
0.24
300

 40
0.36
280
     3
 71
     2
340
16
 90
       25
 71
     3
340
11
 40
0.24
 90
        1
 40
0.75
 90
        1
300
%<\AcVar ViewType \f "%tc1">% %<\AcVar ViewDetailId>%\PSCALE %<\AcVar ViewScale \f "%sn">%
 71
     4
340
16
 90
       25
340
16
 90
       25
280
     0
  0
LAYOUT
  5
27A
102
{ACAD_XDICTIONARY
360
2D8
102
}
102
{ACAD_REACTORS
330
277
102
}
330
277
100
AcDbPlotSettings
  1

  2
Brother DCP-9020CDW Printer
  4

  6

 40
0.0
 41
0.0
 42
0.0
 43
0.0
 44
0.0
 45
0.0
 46
0.0
 47
0.0
 48
0.0
 49
0.0
140
0.0
141
0.0
142
1.0
143
1.0
 70
   688
 72
     0
 73
     0
 74
     5
  7

 75
    16
147
1.0
148
0.0
149
0.0
100
AcDbLayout
  1
Layout1
 70
     1
 71
     1
 10
0.0
 20
0.0
 11
12.0
 21
9.0
 12
0.0
 22
0.0
 32
0.0
 14
1.000000000000000E+20
 24
1.000000000000000E+20
 34
1.000000000000000E+20
 15
-1.000000000000000E+20
 25
-1.000000000000000E+20
 35
-1.000000000000000E+20
146
0.0
 13
0.0
 23
0.0
 33
0.0
 16
1.0
 26
0.0
 36
0.0
 17
0.0
 27
1.0
 37
0.0
 76
     0
330
1B
  0
LAYOUT
  5
279
102
{ACAD_XDICTIONARY
360
2D6
102
}
102
{ACAD_REACTORS
330
277
102
}
330
277
100
AcDbPlotSettings
  1

  2
Brother DCP-9020CDW Printer
  4

  6

 40
0.0
 41
0.0
 42
0.0
 43
0.0
 44
0.0
 45
0.0
 46
0.0
 47
0.0
 48
0.0
 49
0.0
140
0.0
141
0.0
142
1.0
143
1.0
 70
  1712
 72
     0
 73
     0
 74
     0
  7

 75
     0
147
1.0
148
0.0
149
0.0
100
AcDbLayout
  1
Model
 70
     1
 71
     0
 10
0.0
 20
0.0
 11
12.0
 21
9.0
 12
0.0
 22
0.0
 32
0.0
 14
0.0
 24
0.0
 34
0.0
 15
0.0
 25
0.0
 35
0.0
146
0.0
 13
0.0
 23
0.0
 33
0.0
 16
1.0
 26
0.0
 36
0.0
 17
0.0
 27
1.0
 37
0.0
 76
     0
330
1F
331
1
  0
MATERIAL
  5
232
102
{ACAD_XDICTIONARY
360
233
102
}
102
{ACAD_REACTORS
330
229
102
}
330
229
100
AcDbMaterial
  1
ByBlock
 72
     0
 43
0.0008202099737533
 43
0.0
 43
0.0
 43
0.0
 43
0.0
 43
0.0008202099737533
 43
0.0
 43
0.0
 43
0.0
 43
0.0
 43
1.0
 43
0.0
 43
0.0
 43
0.0
 43
0.0
 43
1.0
 77
     0
 47
0.0008202099737533
 47
0.0
 47
0.0
 47
0.0
 47
0.0
 47
0.0008202099737533
 47
0.0
 47
0.0
 47
0.0
 47
0.0
 47
1.0
 47
0.0
 47
0.0
 47
0.0
 47
0.0
 47
1.0
171
     0
 49
0.0008202099737533
 49
0.0
 49
0.0
 49
0.0
 49
0.0
 49
0.0008202099737533
 49
0.0
 49
0.0
 49
0.0
 49
0.0
 49
1.0
 49
0.0
 49
0.0
 49
0.0
 49
0.0
 49
1.0
175
     0
142
0.0008202099737533
142
0.0
142
0.0
142
0.0
142
0.0
142
0.0008202099737533
142
0.0
142
0.0
142
0.0
142
0.0
142
1.0
142
0.0
142
0.0
142
0.0
142
0.0
142
1.0
179
     0
144
0.0008202099737533
144
0.0
144
0.0
144
0.0
144
0.0
144
0.0008202099737533
144
0.0
144
0.0
144
0.0
144
0.0
144
1.0
144
0.0
144
0.0
144
0.0
144
0.0
144
1.0
147
0.0008202099737533
147
0.0
147
0.0
147
0.0
147
0.0
147
0.0008202099737533
147
0.0
147
0.0
147
0.0
147
0.0
147
1.0
147
0.0
147
0.0
147
0.0
147
0.0
147
1.0
  0
MATERIAL
  5
22A
102
{ACAD_XDICTIONARY
360
22B
102
}
102
{ACAD_REACTORS
330
229
102
}
330
229
100
AcDbMaterial
  1
ByLayer
 72
     0
 43
0.0008202099737533
 43
0.0
 43
0.0
 43
0.0
 43
0.0
 43
0.0008202099737533
 43
0.0
 43
0.0
 43
0.0
 43
0.0
 43
1.0
 43
0.0
 43
0.0
 43
0.0
 43
0.0
 43
1.0
 77
     0
 47
0.0008202099737533
 47
0.0
 47
0.0
 47
0.0
 47
0.0
 47
0.0008202099737533
 47
0.0
 47
0.0
 47
0.0
 47
0.0
 47
1.0
 47
0.0
 47
0.0
 47
0.0
 47
0.0
 47
1.0
171
     0
 49
0.0008202099737533
 49
0.0
 49
0.0
 49
0.0
 49
0.0
 49
0.0008202099737533
 49
0.0
 49
0.0
 49
0.0
 49
0.0
 49
1.0
 49
0.0
 49
0.0
 49
0.0
 49
0.0
 49
1.0
175
     0
142
0.0008202099737533
142
0.0
142
0.0
142
0.0
142
0.0
142
0.0008202099737533
142
0.0
142
0.0
142
0.0
142
0.0
142
1.0
142
0.0
142
0.0
142
0.0
142
0.0
142
1.0
179
     0
144
0.0008202099737533
144
0.0
144
0.0
144
0.0
144
0.0
144
0.0008202099737533
144
0.0
144
0.0
144
0.0
144
0.0
144
1.0
144
0.0
144
0.0
144
0.0
144
0.0
144
1.0
147
0.0008202099737533
147
0.0
147
0.0
147
0.0
147
0.0
147
0.0008202099737533
147
0.0
147
0.0
147
0.0
147
0.0
147
1.0
147
0.0
147
0.0
147
0.0
147
0.0
147
1.0
  0
MATERIAL
  5
23A
102
{ACAD_XDICTIONARY
360
23B
102
}
102
{ACAD_REACTORS
330
229
102
}
330
229
100
AcDbMaterial
  1
Global
 72
     0
 43
0.0008202099737533
 43
0.0
 43
0.0
 43
0.0
 43
0.0
 43
0.0008202099737533
 43
0.0
 43
0.0
 43
0.0
 43
0.0
 43
1.0
 43
0.0
 43
0.0
 43
0.0
 43
0.0
 43
1.0
 77
     0
 47
0.0008202099737533
 47
0.0
 47
0.0
 47
0.0
 47
0.0
 47
0.0008202099737533
 47
0.0
 47
0.0
 47
0.0
 47
0.0
 47
1.0
 47
0.0
 47
0.0
 47
0.0
 47
0.0
 47
1.0
171
     0
 49
0.0008202099737533
 49
0.0
 49
0.0
 49
0.0
 49
0.0
 49
0.0008202099737533
 49
0.0
 49
0.0
 49
0.0
 49
0.0
 49
1.0
 49
0.0
 49
0.0
 49
0.0
 49
0.0
 49
1.0
175
     0
142
0.0008202099737533
142
0.0
142
0.0
142
0.0
142
0.0
142
0.0008202099737533
142
0.0
142
0.0
142
0.0
142
0.0
142
1.0
142
0.0
142
0.0
142
0.0
142
0.0
142
1.0
179
     0
144
0.0008202099737533
144
0.0
144
0.0
144
0.0
144
0.0
144
0.0008202099737533
144
0.0
144
0.0
144
0.0
144
0.0
144
1.0
144
0.0
144
0.0
144
0.0
144
0.0
144
1.0
147
0.0008202099737533
147
0.0
147
0.0
147
0.0
147
0.0
147
0.0008202099737533
147
0.0
147
0.0
147
0.0
147
0.0
147
1.0
147
0.0
147
0.0
147
0.0
147
0.0
147
1.0
  0
MLEADERSTYLE
  5
271
102
{ACAD_REACTORS
330
270
102
}
330
270
100
AcDbMLeaderStyle
170
     2
171
     1
172
     0
 90
        2
 40
0.0
 41
0.0
173
     1
 91
-1056964608
340
14
 92
       -2
290
     1
 42
0.09
291
     1
 43
0.36
  3
Standard
 44
0.18
300

342
11
174
     1
178
     6
175
     1
176
     0
 93
-1056964608
 45
0.18
292
     0
297
     0
 46
0.18
 94
-1056964608
 47
1.0
 49
1.0
140
1.0
293
     1
141
0.0
294
     1
177
     0
142
1.0
295
     0
296
     0
143
0.125
1001
ACAD_MLEADERVER
1070
     2
  0
MLINESTYLE
  5
18
330
21A
100
AcDbMlineStyle
  2
STANDARD
 70
     0
  3

 62
   256
 51
90.0
 52
90.0
 71
     2
 49
0.5
 62
   256
  6
BYLAYER
 49
-0.5
 62
   256
  6
BYLAYER
  0
ACDBPLACEHOLDER
  5
228
102
{ACAD_REACTORS
330
227
102
}
330
227
  0
SCALE
  5
25F
102
{ACAD_REACTORS
330
25E
102
}
330
25E
100
AcDbScale
 70
     0
300
1:1
140
1.0
141
1.0
290
     1
  0
SCALE
  5
260
102
{ACAD_REACTORS
330
25E
102
}
330
25E
100
AcDbScale
 70
     0
300
1/128" = 1'-0"
140
0.0078125
141
12.0
290
     0
  0
SCALE
  5
261
102
{ACAD_REACTORS
330
25E
102
}
330
25E
100
AcDbScale
 70
     0
300
1/64" = 1'-0"
140
0.015625
141
12.0
290
     0
  0
SCALE
  5
262
102
{ACAD_REACTORS
330
25E
102
}
330
25E
100
AcDbScale
 70
     0
300
1/32" = 1'-0"
140
0.03125
141
12.0
290
     0
  0
SCALE
  5
263
102
{ACAD_REACTORS
330
25E
102
}
330
25E
100
AcDbScale
 70
     0
300
1/16" = 1'-0"
140
0.0625
141
12.0
290
     0
  0
SCALE
  5
264
102
{ACAD_REACTORS
330
25E
102
}
330
25E
100
AcDbScale
 70
     0
300
3/32" = 1'-0"
140
0.09375
141
12.0
290
     0
  0
SCALE
  5
265
102
{ACAD_REACTORS
330
25E
102
}
330
25E
100
AcDbScale
 70
     0
300
1/8" = 1'-0"
140
0.125
141
12.0
290
     0
  0
SCALE
  5
266
102
{ACAD_REACTORS
330
25E
102
}
330
25E
100
AcDbScale
 70
     0
300
3/16" = 1'-0"
140
0.1875
141
12.0
290
     0
  0
SCALE
  5
267
102
{ACAD_REACTORS
330
25E
102
}
330
25E
100
AcDbScale
 70
     0
300
1/4" = 1'-0"
140
0.25
141
12.0
290
     0
  0
SCALE
  5
268
102
{ACAD_REACTORS
330
25E
102
}
330
25E
100
AcDbScale
 70
     0
300
3/8" = 1'-0"
140
0.375
141
12.0
290
     0
  0
SCALE
  5
269
102
{ACAD_REACTORS
330
25E
102
}
330
25E
100
AcDbScale
 70
     0
300
1/2" = 1'-0"
140
0.5
141
12.0
290
     0
  0
SCALE
  5
26A
102
{ACAD_REACTORS
330
25E
102
}
330
25E
100
AcDbScale
 70
     0
300
3/4" = 1'-0"
140
0.75
141
12.0
290
     0
  0
SCALE
  5
26B
102
{ACAD_REACTORS
330
25E
102
}
330
25E
100
AcDbScale
 70
     0
300
1" = 1'-0"
140
1.0
141
12.0
290
     0
  0
SCALE
  5
26C
102
{ACAD_REACTORS
330
25E
102
}
330
25E
100
AcDbScale
 70
     0
300
1-1/2" = 1'-0"
140
1.5
141
12.0
290
     0
  0
SCALE
  5
26D
102
{ACAD_REACTORS
330
25E
102
}
330
25E
100
AcDbScale
 70
     0
300
3" = 1'-0"
140
3.0
141
12.0
290
     0
  0
SCALE
  5
26E
102
{ACAD_REACTORS
330
25E
102
}
330
25E
100
AcDbScale
 70
     0
300
6" = 1'-0"
140
6.0
141
12.0
290
     0
  0
SCALE
  5
26F
102
{ACAD_REACTORS
330
25E
102
}
330
25E
100
AcDbScale
 70
     0
300
1'-0" = 1'-0"
140
12.0
141
12.0
290
     0
  0
ACDBSECTIONVIEWSTYLE
  5
274
102
{ACAD_REACTORS
330
272
102
}
330
272
100
AcDbModelDocViewStyle
 70
     0
  3
Imperial24
290
     0
100
AcDbSectionViewStyle
 70
     0
 71
     0
 90
       78
 71
     1
340
11
 40
0.24
340
0
340
0
 40
0.24
300
I, O, Q, S, X, Z
 40
0.48
 90
        3
 40
0.18
 90
        1
 71
     2
340
273
 90
       25
340
16
 90
       50
 40
0.24
 40
0.0
 40
0.24
 71
     3
340
11
 40
0.24
 90
        1
 40
0.75
 90
        1
300
%<\AcVar ViewType \f "%tc1">% %<\AcVar ViewSectionStartId>%-%<\AcVar ViewSectionEndId>%\PSCALE %<\AcVar ViewScale \f "%sn">%
 71
     4
300
ANSI31
 40
1.0
 90
        0
290
     0
290
     0
 90
        6
 40
0.0
 40
1.570796326794896
 40
0.2617993877991494
 40
1.308996938995747
 40
-0.2617993877991494
 40
1.832595714594046
  0
TABLESTYLE
  5
25D
102
{ACAD_XDICTIONARY
360
29C
102
}
102
{ACAD_REACTORS
330
25C
102
}
330
25C
100
AcDbTableStyle
  3
Standard
 70
     0
 71
     0
 40
0.06
 41
0.06
280
     0
281
     0
  7
Standard
140
0.18
170
     2
 62
     0
 63
     7
283
     0
274
    -2
284
     1
 64
     0
275
    -2
285
     1
 65
     0
276
    -2
286
     1
 66
     0
277
    -2
287
     1
 67
     0
278
    -2
288
     1
 68
     0
279
    -2
289
     1
 69
     0
  7
Standard
140
0.25
170
     5
 62
     0
 63
     7
283
     0
274
    -2
284
     1
 64
     0
275
    -2
285
     1
 65
     0
276
    -2
286
     1
 66
     0
277
    -2
287
     1
 67
     0
278
    -2
288
     1
 68
     0
279
    -2
289
     1
 69
     0
  7
Standard
140
0.18
170
     5
 62
     0
 63
     7
283
     0
274
    -2
284
     1
 64
     0
275
    -2
285
     1
 65
     0
276
    -2
286
     1
 66
     0
277
    -2
287
     1
 67
     0
278
    -2
288
     1
 68
     0
279
    -2
289
     1
 69
     0
  0
VISUALSTYLE
  5
248
102
{ACAD_XDICTIONARY
360
2AE
102
}
102
{ACAD_REACTORS
330
242
102
}
330
242
100
AcDbVisualStyle
  2
2dWireframe
 70
     4
 71
     0
 72
     2
 73
     0
 90
        0
 40
-0.6
 41
-30.0
 62
     5
 63
     7
 74
     1
 91
        4
 64
     7
 65
   257
 75
     1
175
     1
 42
1.0
 92
        0
 66
   257
 43
1.0
 76
     1
 77
     6
 78
     2
 67
     7
 79
     5
170
     0
171
     0
290
     0
174
     0
 93
        1
 44
0.0
173
     0
291
     0
 45
0.0
1001
ACAD
1000
AcDbSavedByObjectVersion
1070
     0
  0
VISUALSTYLE
  5
247
102
{ACAD_XDICTIONARY
360
2AC
102
}
102
{ACAD_REACTORS
330
242
102
}
330
242
100
AcDbVisualStyle
  2
Basic
 70
     7
 71
     1
 72
     0
 73
     1
 90
        0
 40
-0.6
 41
-30.0
 62
     5
 63
     7
 74
     0
 91
        4
 64
     7
 65
   257
 75
     1
175
     1
 42
1.0
 92
        8
 66
     7
 43
1.0
 76
     1
 77
     6
 78
     2
 67
     7
 79
     5
170
     0
171
     0
290
     0
174
     0
 93
        1
 44
0.0
173
     0
291
     1
 45
0.0
1001
ACAD
1000
AcDbSavedByObjectVersion
1070
     0
  0
VISUALSTYLE
  5
24E
102
{ACAD_XDICTIONARY
360
2BA
102
}
102
{ACAD_REACTORS
330
242
102
}
330
242
100
AcDbVisualStyle
  2
Brighten
 70
    12
 71
     2
 72
     2
 73
     0
 90
        0
 40
-0.6
 41
-30.0
 62
     5
 63
     7
 74
     1
 91
        4
 64
     7
 65
   257
 75
     1
175
     1
 42
1.0
 92
        8
 66
     7
 43
1.0
 76
     1
 77
     6
 78
     2
 67
     7
 79
     5
170
     0
171
     0
290
     0
174
     0
 93
        1
 44
50.0
173
     0
291
     1
 45
0.0
1001
ACAD
1000
AcDbSavedByObjectVersion
1070
     0
  0
VISUALSTYLE
  5
252
102
{ACAD_XDICTIONARY
360
2C2
102
}
102
{ACAD_REACTORS
330
242
102
}
330
242
100
AcDbVisualStyle
  2
ColorChange
 70
    16
 71
     2
 72
     2
 73
     3
 90
        0
 40
-0.6
 41
-30.0
 62
     5
 63
     8
 74
     1
 91
        4
 64
     7
 65
   257
 75
     1
175
     1
 42
1.0
 92
        8
 66
     8
 43
1.0
 76
     1
 77
     6
 78
     2
 67
     7
 79
     5
170
     0
171
     0
290
     0
174
     0
 93
        1
 44
0.0
173
     0
291
     1
 45
0.0
1001
ACAD
1000
AcDbSavedByObjectVersion
1070
     0
  0
VISUALSTYLE
  5
24B
102
{ACAD_XDICTIONARY
360
2B4
102
}
102
{ACAD_REACTORS
330
242
102
}
330
242
100
AcDbVisualStyle
  2
Conceptual
 70
     9
 71
     3
 72
     2
 73
     0
 90
        0
 40
-0.6
 41
-30.0
 62
     5
 63
     7
 74
     2
 91
        2
 64
     7
 65
   257
 75
     1
175
     1
 42
179.0
 92
        8
 66
     7
 43
1.0
 76
     1
 77
     6
 78
     2
 67
     7
 79
     3
170
     0
171
     0
290
     0
174
     0
 93
        1
 44
0.0
173
     0
291
     0
 45
0.0
1001
ACAD
1000
AcDbSavedByObjectVersion
1070
     0
  0
VISUALSTYLE
  5
24D
102
{ACAD_XDICTIONARY
360
2B8
102
}
102
{ACAD_REACTORS
330
242
102
}
330
242
100
AcDbVisualStyle
  2
Dim
 70
    11
 71
     2
 72
     2
 73
     0
 90
        0
 40
-0.6
 41
-30.0
 62
     5
 63
     7
 74
     1
 91
        4
 64
     7
 65
   257
 75
     1
175
     1
 42
1.0
 92
        8
 66
     7
 43
1.0
 76
     1
 77
     6
 78
     2
 67
     7
 79
     5
170
     0
171
     0
290
     0
174
     0
 93
        1
 44
-50.0
173
     0
291
     1
 45
0.0
1001
ACAD
1000
AcDbSavedByObjectVersion
1070
     0
  0
VISUALSTYLE
  5
25A
102
{ACAD_XDICTIONARY
360
2D2
102
}
102
{ACAD_REACTORS
330
242
102
}
330
242
100
AcDbVisualStyle
  2
EdgeColorOff
 70
    22
 71
     2
 72
     2
 73
     0
 90
        0
 40
-0.6
 41
-30.0
 62
     5
 63
     7
 74
     1
 91
        4
 64
     7
 65
   257
 75
     1
175
     1
 42
1.0
 92
        8
 66
     7
 43
1.0
 76
     1
 77
     6
 78
     2
 67
     7
 79
     5
170
     0
171
     0
290
     0
174
     0
 93
        1
 44
0.0
173
     0
291
     1
 45
0.0
1001
ACAD
1000
AcDbSavedByObjectVersion
1070
     0
  0
VISUALSTYLE
  5
251
102
{ACAD_XDICTIONARY
360
2C0
102
}
102
{ACAD_REACTORS
330
242
102
}
330
242
100
AcDbVisualStyle
  2
Facepattern
 70
    15
 71
     2
 72
     2
 73
     0
 90
        0
 40
-0.6
 41
-30.0
 62
     5
 63
     7
 74
     1
 91
        4
 64
     7
 65
   257
 75
     1
175
     1
 42
1.0
 92
        8
 66
     7
 43
1.0
 76
     1
 77
     6
 78
     2
 67
     7
 79
     5
170
     0
171
     0
290
     0
174
     0
 93
        1
 44
0.0
173
     0
291
     1
 45
0.0
1001
ACAD
1000
AcDbSavedByObjectVersion
1070
     0
  0
VISUALSTYLE
  5
243
102
{ACAD_XDICTIONARY
360
2A4
102
}
102
{ACAD_REACTORS
330
242
102
}
330
242
100
AcDbVisualStyle
  2
Flat
 70
     0
 71
     2
 72
     1
 73
     1
 90
        2
 40
-0.6
 41
30.0
 62
     5
 63
     7
 74
     0
 91
        0
 64
     7
 65
   257
 75
     1
175
     1
 42
1.0
 92
        8
 66
     7
 43
1.0
 76
     1
 77
     6
 78
     2
 67
     7
 79
     5
170
     0
171
     0
290
     0
174
     0
 93
       13
 44
0.0
173
     0
291
     1
 45
0.0
1001
ACAD
1000
AcDbSavedByObjectVersion
1070
     0
  0
VISUALSTYLE
  5
244
102
{ACAD_XDICTIONARY
360
2A6
102
}
102
{ACAD_REACTORS
330
242
102
}
330
242
100
AcDbVisualStyle
  2
FlatWithEdges
 70
     1
 71
     2
 72
     1
 73
     1
 90
        2
 40
-0.6
 41
30.0
 62
     5
 63
     7
 74
     1
 91
        0
 64
     7
 65
   257
 75
     1
175
     1
 42
1.0
 92
        0
 66
   257
 43
1.0
 76
     1
 77
     6
 78
     2
 67
     7
 79
     5
170
     0
171
     0
290
     0
174
     0
 93
       13
 44
0.0
173
     0
291
     1
 45
0.0
1001
ACAD
1000
AcDbSavedByObjectVersion
1070
     0
  0
VISUALSTYLE
  5
245
102
{ACAD_XDICTIONARY
360
2A8
102
}
102
{ACAD_REACTORS
330
242
102
}
330
242
100
AcDbVisualStyle
  2
Gouraud
 70
     2
 71
     2
 72
     2
 73
     1
 90
        2
 40
-0.6
 41
30.0
 62
     5
 63
     7
 74
     0
 91
        0
 64
     7
 65
   257
 75
     1
175
     1
 42
1.0
 92
        0
 66
     7
 43
1.0
 76
     1
 77
     6
 78
     2
 67
     7
 79
     5
170
     0
171
     0
290
     0
174
     0
 93
       13
 44
0.0
173
     0
291
     1
 45
0.0
1001
ACAD
1000
AcDbSavedByObjectVersion
1070
     0
  0
VISUALSTYLE
  5
246
102
{ACAD_XDICTIONARY
360
2AA
102
}
102
{ACAD_REACTORS
330
242
102
}
330
242
100
AcDbVisualStyle
  2
GouraudWithEdges
 70
     3
 71
     2
 72
     2
 73
     1
 90
        2
 40
-0.6
 41
30.0
 62
     5
 63
     7
 74
     1
 91
        0
 64
     7
 65
   257
 75
     1
175
     1
 42
1.0
 92
        0
 66
   257
 43
1.0
 76
     1
 77
     6
 78
     2
 67
     7
 79
     5
170
     0
171
     0
290
     0
174
     0
 93
       13
 44
0.0
173
     0
291
     1
 45
0.0
1001
ACAD
1000
AcDbSavedByObjectVersion
1070
     0
  0
VISUALSTYLE
  5
24A
102
{ACAD_XDICTIONARY
360
2B2
102
}
102
{ACAD_REACTORS
330
242
102
}
330
242
100
AcDbVisualStyle
  2
Hidden
 70
     6
 71
     1
 72
     2
 73
     2
 90
        0
 40
-0.6
 41
-30.0
 62
     5
 63
     7
 74
     2
 91
        2
 64
     7
 65
   257
 75
     2
175
     1
 42
40.0
 92
        0
 66
   257
 43
1.0
 76
     1
 77
     6
 78
     2
 67
     7
 79
     3
170
     0
171
     0
290
     0
174
     0
 93
        1
 44
0.0
173
     0
291
     0
 45
0.0
1001
ACAD
1000
AcDbSavedByObjectVersion
1070
     0
  0
VISUALSTYLE
  5
258
102
{ACAD_XDICTIONARY
360
2CE
102
}
102
{ACAD_REACTORS
330
242
102
}
330
242
100
AcDbVisualStyle
  2
JitterOff
 70
    20
 71
     2
 72
     2
 73
     0
 90
        0
 40
-0.6
 41
-30.0
 62
     5
 63
     7
 74
     1
 91
        4
 64
     7
 65
   257
 75
     1
175
     1
 42
1.0
 92
       10
 66
     7
 43
1.0
 76
     1
 77
     6
 78
     2
 67
     7
 79
     5
170
     0
171
     0
290
     0
174
     0
 93
        1
 44
0.0
173
     0
291
     1
 45
0.0
1001
ACAD
1000
AcDbSavedByObjectVersion
1070
     0
  0
VISUALSTYLE
  5
250
102
{ACAD_XDICTIONARY
360
2BE
102
}
102
{ACAD_REACTORS
330
242
102
}
330
242
100
AcDbVisualStyle
  2
Linepattern
 70
    14
 71
     2
 72
     2
 73
     0
 90
        0
 40
-0.6
 41
-30.0
 62
     5
 63
     7
 74
     1
 91
        4
 64
     7
 65
   257
 75
     7
175
     7
 42
1.0
 92
        8
 66
     7
 43
1.0
 76
     1
 77
     6
 78
     2
 67
     7
 79
     5
170
     0
171
     0
290
     0
174
     0
 93
        1
 44
0.0
173
     0
291
     1
 45
0.0
1001
ACAD
1000
AcDbSavedByObjectVersion
1070
     0
  0
VISUALSTYLE
  5
259
102
{ACAD_XDICTIONARY
360
2D0
102
}
102
{ACAD_REACTORS
330
242
102
}
330
242
100
AcDbVisualStyle
  2
OverhangOff
 70
    21
 71
     2
 72
     2
 73
     0
 90
        0
 40
-0.6
 41
-30.0
 62
     5
 63
     7
 74
     1
 91
        4
 64
     7
 65
   257
 75
     1
175
     1
 42
1.0
 92
        9
 66
     7
 43
1.0
 76
     1
 77
     6
 78
     2
 67
     7
 79
     5
170
     0
171
     0
290
     0
174
     0
 93
        1
 44
0.0
173
     0
291
     1
 45
0.0
1001
ACAD
1000
AcDbSavedByObjectVersion
1070
     0
  0
VISUALSTYLE
  5
24C
102
{ACAD_XDICTIONARY
360
2B6
102
}
102
{ACAD_REACTORS
330
242
102
}
330
242
100
AcDbVisualStyle
  2
Realistic
 70
     8
 71
     2
 72
     3
 73
     0
 90
        2
 40
-0.6
 41
30.0
 62
     5
 63
     7
 74
     0
 91
        0
 64
     7
 65
   257
 75
     1
175
     1
 42
1.0
 92
        8
 66
   257
 43
1.0
 76
     1
 77
     6
 78
     2
 67
     7
 79
     3
170
     0
171
     0
290
     0
174
     0
 93
       13
 44
0.0
173
     0
291
     0
 45
0.0
1001
ACAD
1000
AcDbSavedByObjectVersion
1070
     0
  0
VISUALSTYLE
  5
257
102
{ACAD_XDICTIONARY
360
2CC
102
}
102
{ACAD_REACTORS
330
242
102
}
330
242
100
AcDbVisualStyle
  2
Shaded
 70
    27
 71
     2
 72
     2
 73
     1
 90
        2
 40
-0.6
 41
30.0
 62
     5
 63
     7
 74
     0
 91
        4
 64
     7
 65
   257
 75
     1
175
     1
 42
1.0
 92
        8
 66
   257
 43
1.0
 76
     1
 77
     6
 78
     2
 67
     8
 79
     3
170
     0
171
     0
290
     0
174
     0
 93
        5
 44
0.0
173
     0
291
     0
 45
0.0
1001
ACAD
1000
AcDbSavedByObjectVersion
1070
     0
  0
VISUALSTYLE
  5
256
102
{ACAD_XDICTIONARY
360
2CA
102
}
102
{ACAD_REACTORS
330
242
102
}
330
242
100
AcDbVisualStyle
  2
Shaded with edges
 70
    26
 71
     2
 72
     2
 73
     1
 90
        2
 40
-0.6
 41
30.0
 62
     5
 63
     7
 74
     1
 91
       10
 64
     7
 65
   257
 75
     2
175
     1
 42
1.0
 92
        8
 66
   257
 43
1.0
 76
     1
 77
     6
 78
     2
 67
     7
 79
     3
170
     0
171
     0
290
     0
174
     0
 93
        5
 44
0.0
173
     0
291
     0
 45
0.0
1001
ACAD
1000
AcDbSavedByObjectVersion
1070
     0
  0
VISUALSTYLE
  5
253
102
{ACAD_XDICTIONARY
360
2C4
102
}
102
{ACAD_REACTORS
330
242
102
}
330
242
100
AcDbVisualStyle
  2
Shades of Gray
 70
    23
 71
     2
 72
     2
 73
     3
 90
        0
 40
-0.6
 41
-30.0
 62
     5
 63
     7
 74
     2
 91
        2
 64
     7
 65
     7
 75
     1
175
     1
 42
40.0
 92
        8
 66
     7
 43
1.0
 76
     1
 77
     6
 78
     2
 67
     7
 79
     3
170
     0
171
     0
290
     0
174
     0
 93
        1
 44
0.0
173
     0
291
     0
 45
0.0
1001
ACAD
1000
AcDbSavedByObjectVersion
1070
     0
  0
VISUALSTYLE
  5
254
102
{ACAD_XDICTIONARY
360
2C6
102
}
102
{ACAD_REACTORS
330
242
102
}
330
242
100
AcDbVisualStyle
  2
Sketchy
 70
    24
 71
     1
 72
     2
 73
     2
 90
        0
 40
-0.6
 41
-30.0
 62
     5
 63
     7
 74
     2
 91
        2
 64
     7
 65
     7
 75
     1
175
     1
 42
40.0
 92
       11
 66
     7
 43
1.0
 76
     1
 77
     6
 78
     2
 67
     7
 79
     6
170
     0
171
     0
290
     0
174
     0
 93
        1
 44
0.0
173
     0
291
     0
 45
0.0
1001
ACAD
1000
AcDbSavedByObjectVersion
1070
     0
  0
VISUALSTYLE
  5
24F
102
{ACAD_XDICTIONARY
360
2BC
102
}
102
{ACAD_REACTORS
330
242
102
}
330
242
100
AcDbVisualStyle
  2
Thicken
 70
    13
 71
     2
 72
     2
 73
     0
 90
        0
 40
-0.6
 41
-30.0
 62
     5
 63
     7
 74
     1
 91
        4
 64
     7
 65
   257
 75
     1
175
     1
 42
1.0
 92
       12
 66
     7
 43
1.0
 76
     1
 77
     6
 78
     2
 67
     7
 79
     5
170
     0
171
     0
290
     0
174
     0
 93
        1
 44
0.0
173
     0
291
     1
 45
0.0
1001
ACAD
1000
AcDbSavedByObjectVersion
1070
     0
  0
VISUALSTYLE
  5
249
102
{ACAD_XDICTIONARY
360
2B0
102
}
102
{ACAD_REACTORS
330
242
102
}
330
242
100
AcDbVisualStyle
  2
Wireframe
 70
     5
 71
     0
 72
     2
 73
     0
 90
        0
 40
-0.6
 41
-30.0
 62
     5
 63
     7
 74
     1
 91
        4
 64
     7
 65
   257
 75
     1
175
     1
 42
1.0
 92
        0
 66
   257
 43
1.0
 76
     1
 77
     6
 78
     2
 67
     7
 79
     3
170
     0
171
     0
290
     0
174
     0
 93
        1
 44
0.0
173
     0
291
     0
 45
0.0
1001
ACAD
1000
AcDbSavedByObjectVersion
1070
     0
  0
VISUALSTYLE
  5
255
102
{ACAD_XDICTIONARY
360
2C8
102
}
102
{ACAD_REACTORS
330
242
102
}
330
242
100
AcDbVisualStyle
  2
X-Ray
 70
    25
 71
     2
 72
     2
 73
     1
 90
        1
 40
0.5
 41
-30.0
 62
     5
 63
     7
 74
     1
 91
        0
 64
     7
 65
   257
 75
     1
175
     1
 42
1.0
 92
        8
 66
     7
 43
1.0
 76
     1
 77
     6
 78
     2
 67
     7
 79
     3
170
     0
171
     0
290
     0
174
     0
 93
       13
 44
0.0
173
     0
291
     0
 45
0.0
1001
ACAD
1000
AcDbSavedByObjectVersion
1070
     0
  0
DICTIONARYVAR
  5
296
102
{ACAD_REACTORS
330
291
102
}
330
291
100
DictionaryVariables
280
     0
  1
1:1
  0
DICTIONARYVAR
  5
293
102
{ACAD_REACTORS
330
291
102
}
330
291
100
DictionaryVariables
280
     0
  1
STANDARD
  0
DICTIONARYVAR
  5
292
102
{ACAD_REACTORS
330
291
102
}
330
291
100
DictionaryVariables
280
     0
  1
STANDARD
  0
DICTIONARYVAR
  5
294
102
{ACAD_REACTORS
330
291
102
}
330
291
100
DictionaryVariables
280
     0
  1
Imperial24
  0
DICTIONARYVAR
  5
295
102
{ACAD_REACTORS
330
291
102
}
330
291
100
DictionaryVariables
280
     0
  1
Imperial24
  0
DICTIONARYVAR
  5
299
102
{ACAD_REACTORS
330
291
102
}
330
291
100
DictionaryVariables
280
     0
  1
1
  0
DICTIONARYVAR
  5
298
102
{ACAD_REACTORS
330
291
102
}
330
291
100
DictionaryVariables
280
     0
  1
0
  0
DICTIONARYVAR
  5
297
102
{ACAD_REACTORS
330
291
102
}
330
291
100
DictionaryVariables
280
     0
  1
127
  0
DICTIONARYVAR
  5
29A
102
{ACAD_REACTORS
330
291
102
}
330
291
100
DictionaryVariables
280
     0
  1
2
  0
DICTIONARY
  5
2D8
330
27A
100
AcDbDictionary
280
     1
281
     1
  3
ACAD_XREC_ROUNDTRIP
360
2D9
  0
DICTIONARY
  5
2D6
330
279
100
AcDbDictionary
280
     1
281
     1
  3
ACAD_XREC_ROUNDTRIP
360
2D7
  0
DICTIONARY
  5
233
330
232
100
AcDbDictionary
280
     1
281
     1
  3
ACAD_XREC_ROUNDTRIP
360
2A2
  3
BUMPTILE
360
235
  3
DIFFUSETILE
360
234
  3
OPACITYTILE
360
238
  3
REFLECTIONTILE
360
237
  3
REFRACTIONTILE
360
239
  3
SPECULARTILE
360
236
  0
DICTIONARY
  5
22B
330
22A
100
AcDbDictionary
280
     1
281
     1
  3
ACAD_XREC_ROUNDTRIP
360
2A1
  3
BUMPTILE
360
22D
  3
DIFFUSETILE
360
22C
  3
OPACITYTILE
360
230
  3
REFLECTIONTILE
360
22F
  3
REFRACTIONTILE
360
231
  3
SPECULARTILE
360
22E
  0
DICTIONARY
  5
23B
330
23A
100
AcDbDictionary
280
     1
281
     1
  3
ACAD_XREC_ROUNDTRIP
360
2A3
  3
BUMPTILE
360
23D
  3
DIFFUSETILE
360
23C
  3
OPACITYTILE
360
240
  3
REFLECTIONTILE
360
23F
  3
REFRACTIONTILE
360
241
  3
SPECULARTILE
360
23E
  0
DICTIONARY
  5
29C
330
25D
100
AcDbDictionary
280
     1
281
     1
  3
ACAD_ROUNDTRIP_2008_TABLESTYLE_CELLSTYLEMAP
360
29D
  3
ACAD_XREC_ROUNDTRIP
360
2D4
  0
DICTIONARY
  5
2AE
330
248
100
AcDbDictionary
280
     1
281
     1
  3
ACAD_XREC_ROUNDTRIP
360
2AF
  0
DICTIONARY
  5
2AC
330
247
100
AcDbDictionary
280
     1
281
     1
  3
ACAD_XREC_ROUNDTRIP
360
2AD
  0
DICTIONARY
  5
2BA
330
24E
100
AcDbDictionary
280
     1
281
     1
  3
ACAD_XREC_ROUNDTRIP
360
2BB
  0
DICTIONARY
  5
2C2
330
252
100
AcDbDictionary
280
     1
281
     1
  3
ACAD_XREC_ROUNDTRIP
360
2C3
  0
DICTIONARY
  5
2B4
330
24B
100
AcDbDictionary
280
     1
281
     1
  3
ACAD_XREC_ROUNDTRIP
360
2B5
  0
DICTIONARY
  5
2B8
330
24D
100
AcDbDictionary
280
     1
281
     1
  3
ACAD_XREC_ROUNDTRIP
360
2B9
  0
DICTIONARY
  5
2D2
330
25A
100
AcDbDictionary
280
     1
281
     1
  3
ACAD_XREC_ROUNDTRIP
360
2D3
  0
DICTIONARY
  5
2C0
330
251
100
AcDbDictionary
280
     1
281
     1
  3
ACAD_XREC_ROUNDTRIP
360
2C1
  0
DICTIONARY
  5
2A4
330
243
100
AcDbDictionary
280
     1
281
     1
  3
ACAD_XREC_ROUNDTRIP
360
2A5
  0
DICTIONARY
  5
2A6
330
244
100
AcDbDictionary
280
     1
281
     1
  3
ACAD_XREC_ROUNDTRIP
360
2A7
  0
DICTIONARY
  5
2A8
330
245
100
AcDbDictionary
280
     1
281
     1
  3
ACAD_XREC_ROUNDTRIP
360
2A9
  0
DICTIONARY
  5
2AA
330
246
100
AcDbDictionary
280
     1
281
     1
  3
ACAD_XREC_ROUNDTRIP
360
2AB
  0
DICTIONARY
  5
2B2
330
24A
100
AcDbDictionary
280
     1
281
     1
  3
ACAD_XREC_ROUNDTRIP
360
2B3
  0
DICTIONARY
  5
2CE
330
258
100
AcDbDictionary
280
     1
281
     1
  3
ACAD_XREC_ROUNDTRIP
360
2CF
  0
DICTIONARY
  5
2BE
330
250
100
AcDbDictionary
280
     1
281
     1
  3
ACAD_XREC_ROUNDTRIP
360
2BF
  0
DICTIONARY
  5
2D0
330
259
100
AcDbDictionary
280
     1
281
     1
  3
ACAD_XREC_ROUNDTRIP
360
2D1
  0
DICTIONARY
  5
2B6
330
24C
100
AcDbDictionary
280
     1
281
     1
  3
ACAD_XREC_ROUNDTRIP
360
2B7
  0
DICTIONARY
  5
2CC
330
257
100
AcDbDictionary
280
     1
281
     1
  3
ACAD_XREC_ROUNDTRIP
360
2CD
  0
DICTIONARY
  5
2CA
330
256
100
AcDbDictionary
280
     1
281
     1
  3
ACAD_XREC_ROUNDTRIP
360
2CB
  0
DICTIONARY
  5
2C4
330
253
100
AcDbDictionary
280
     1
281
     1
  3
ACAD_XREC_ROUNDTRIP
360
2C5
  0
DICTIONARY
  5
2C6
330
254
100
AcDbDictionary
280
     1
281
     1
  3
ACAD_XREC_ROUNDTRIP
360
2C7
  0
DICTIONARY
  5
2BC
330
24F
100
AcDbDictionary
280
     1
281
     1
  3
ACAD_XREC_ROUNDTRIP
360
2BD
  0
DICTIONARY
  5
2B0
330
249
100
AcDbDictionary
280
     1
281
     1
  3
ACAD_XREC_ROUNDTRIP
360
2B1
  0
DICTIONARY
  5
2C8
330
255
100
AcDbDictionary
280
     1
281
     1
  3
ACAD_XREC_ROUNDTRIP
360
2C9
  0
XRECORD
  5
2D9
102
{ACAD_REACTORS
330
2D8
102
}
330
2D8
100
AcDbXrecord
280
     1
102
SHADEPLOT
 70
     0
102
SHADEPLOTRESLEVEL
 70
     2
102
SHADEPLOTCUSTOMDPI
 70
   300
  0
XRECORD
  5
2D7
102
{ACAD_REACTORS
330
2D6
102
}
330
2D6
100
AcDbXrecord
280
     1
102
SHADEPLOT
 70
     0
102
SHADEPLOTRESLEVEL
 70
     2
102
SHADEPLOTCUSTOMDPI
 70
   300
  0
XRECORD
  5
2A2
102
{ACAD_REACTORS
330
233
102
}
330
233
100
AcDbXrecord
280
     1
102
MATERIAL
148
0.0
149
0.0
149
0.0
 93
        0
 94
      127
282
     0
 72
     0
 77
     0
171
     0
175
     0
179
     0
273
     0
  0
XRECORD
  5
235
102
{ACAD_REACTORS
330
233
102
}
330
233
100
AcDbXrecord
280
     1
270
     1
271
     1
  0
XRECORD
  5
234
102
{ACAD_REACTORS
330
233
102
}
330
233
100
AcDbXrecord
280
     1
270
     1
271
     1
  0
XRECORD
  5
238
102
{ACAD_REACTORS
330
233
102
}
330
233
100
AcDbXrecord
280
     1
270
     1
271
     1
  0
XRECORD
  5
237
102
{ACAD_REACTORS
330
233
102
}
330
233
100
AcDbXrecord
280
     1
270
     1
271
     1
  0
XRECORD
  5
239
102
{ACAD_REACTORS
330
233
102
}
330
233
100
AcDbXrecord
280
     1
270
     1
271
     1
  0
XRECORD
  5
236
102
{ACAD_REACTORS
330
233
102
}
330
233
100
AcDbXrecord
280
     1
270
     1
271
     1
  0
XRECORD
  5
2A1
102
{ACAD_REACTORS
330
22B
102
}
330
22B
100
AcDbXrecord
280
     1
102
MATERIAL
148
0.0
149
0.0
149
0.0
 93
        0
 94
      127
282
     0
 72
     0
 77
     0
171
     0
175
     0
179
     0
273
     0
  0
XRECORD
  5
22D
102
{ACAD_REACTORS
330
22B
102
}
330
22B
100
AcDbXrecord
280
     1
270
     1
271
     1
  0
XRECORD
  5
22C
102
{ACAD_REACTORS
330
22B
102
}
330
22B
100
AcDbXrecord
280
     1
270
     1
271
     1
  0
XRECORD
  5
230
102
{ACAD_REACTORS
330
22B
102
}
330
22B
100
AcDbXrecord
280
     1
270
     1
271
     1
  0
XRECORD
  5
22F
102
{ACAD_REACTORS
330
22B
102
}
330
22B
100
AcDbXrecord
280
     1
270
     1
271
     1
  0
XRECORD
  5
231
102
{ACAD_REACTORS
330
22B
102
}
330
22B
100
AcDbXrecord
280
     1
270
     1
271
     1
  0
XRECORD
  5
22E
102
{ACAD_REACTORS
330
22B
102
}
330
22B
100
AcDbXrecord
280
     1
270
     1
271
     1
  0
XRECORD
  5
2A3
102
{ACAD_REACTORS
330
23B
102
}
330
23B
100
AcDbXrecord
280
     1
102
MATERIAL
148
0.0
149
0.0
149
0.0
 93
        0
 94
      127
282
     0
 72
     0
 77
     0
171
     0
175
     0
179
     0
273
     0
  0
XRECORD
  5
23D
102
{ACAD_REACTORS
330
23B
102
}
330
23B
100
AcDbXrecord
280
     1
270
     1
271
     1
  0
XRECORD
  5
23C
102
{ACAD_REACTORS
330
23B
102
}
330
23B
100
AcDbXrecord
280
     1
270
     1
271
     1
  0
XRECORD
  5
240
102
{ACAD_REACTORS
330
23B
102
}
330
23B
100
AcDbXrecord
280
     1
270
     1
271
     1
  0
XRECORD
  5
23F
102
{ACAD_REACTORS
330
23B
102
}
330
23B
100
AcDbXrecord
280
     1
270
     1
271
     1
  0
XRECORD
  5
241
102
{ACAD_REACTORS
330
23B
102
}
330
23B
100
AcDbXrecord
280
     1
270
     1
271
     1
  0
XRECORD
  5
23E
102
{ACAD_REACTORS
330
23B
102
}
330
23B
100
AcDbXrecord
280
     1
270
     1
271
     1
  0
CELLSTYLEMAP
  5
29D
102
{ACAD_REACTORS
330
29C
102
}
330
29C
100
AcDbCellStyleMap
 90
        3
300
CELLSTYLE
  1
TABLEFORMAT_BEGIN
 90
        5
170
     1
 91
        0
 92
    32768
 62
   257
 93
        1
300
CONTENTFORMAT
  1
CONTENTFORMAT_BEGIN
 90
        0
 91
        0
 92
      512
 93
        0
300

 40
0.0
140
1.0
 94
        5
 62
     0
340
11
144
0.25
309
CONTENTFORMAT_END
171
     0
 94
        0
309
TABLEFORMAT_END
  1
CELLSTYLE_BEGIN
 90
        1
 91
        1
300
_TITLE
309
CELLSTYLE_END
300
CELLSTYLE
  1
TABLEFORMAT_BEGIN
 90
        5
170
     1
 91
        0
 92
        0
 62
   257
 93
        1
300
CONTENTFORMAT
  1
CONTENTFORMAT_BEGIN
 90
        0
 91
        0
 92
      512
 93
        0
300

 40
0.0
140
1.0
 94
        5
 62
     0
340
11
144
0.18
309
CONTENTFORMAT_END
171
     0
 94
        0
309
TABLEFORMAT_END
  1
CELLSTYLE_BEGIN
 90
        2
 91
        1
300
_HEADER
309
CELLSTYLE_END
300
CELLSTYLE
  1
TABLEFORMAT_BEGIN
 90
        5
170
     1
 91
        0
 92
        0
 62
   257
 93
        1
300
CONTENTFORMAT
  1
CONTENTFORMAT_BEGIN
 90
        0
 91
        0
 92
      512
 93
        0
300

 40
0.0
140
1.0
 94
        2
 62
     0
340
11
144
0.18
309
CONTENTFORMAT_END
171
     0
 94
        0
309
TABLEFORMAT_END
  1
CELLSTYLE_BEGIN
 90
        3
 91
        2
300
_DATA
309
CELLSTYLE_END
  0
XRECORD
  5
2D4
102
{ACAD_REACTORS
330
29C
102
}
330
29C
100
AcDbXrecord
280
     1
102
ACAD_ROUNDTRIP_PRE2007_TABLESTYLE
 90
      512
 91
        0
  1

 92
      512
 93
        0
  2

 94
      512
 95
        0
  3

  0
XRECORD
  5
2AF
102
{ACAD_REACTORS
330
2AE
102
}
330
2AE
100
AcDbXrecord
280
     1
102
RTVSPost2010Prop28
280
     1
102
RTVSPost2010PropOp28
 70
     1
102
RTVSPost2010Prop29
280
     1
102
RTVSPost2010PropOp29
 70
     1
102
RTVSPost2010Prop30
280
     0
102
RTVSPost2010PropOp30
 70
     1
102
RTVSPost2010Prop31
280
     0
102
RTVSPost2010PropOp31
 70
     1
102
RTVSPost2010Prop32
280
     0
102
RTVSPost2010PropOp32
 70
     1
102
RTVSPost2010Prop33
280
     0
102
RTVSPost2010PropOp33
 70
     1
102
RTVSPost2010Prop34
280
     0
102
RTVSPost2010PropOp34
 70
     1
102
RTVSPost2010Prop35
280
     0
102
RTVSPost2010PropOp35
 70
     1
102
RTVSPost2010Prop36
280
     0
102
RTVSPost2010PropOp36
 70
     1
102
RTVSPost2010Prop37
 90
       50
102
RTVSPost2010PropOp37
 70
     1
102
RTVSPost2010Prop38
140
0.0
102
RTVSPost2010PropOp38
 70
     1
102
RTVSPost2010Prop39
140
1.0
102
RTVSPost2010PropOp39
 70
     1
102
RTVSPost2010Prop40
 90
        0
102
RTVSPost2010PropOp40
 70
     1
102
RTVSPost2010Prop41ColorIndex
 90
       18
102
RTVSPost2010Prop41ColorRGB
 90
        0
102
RTVSPost2010PropOp41
 70
     1
102
RTVSPost2010Prop42
 90
       50
102
RTVSPost2010PropOp42
 70
     1
102
RTVSPost2010Prop43
 90
        3
102
RTVSPost2010PropOp43
 70
     1
102
RTVSPost2010Prop44ColorIndex
 90
        5
102
RTVSPost2010Prop44ColorRGB
 90
      255
102
RTVSPost2010PropOp44
 70
     1
102
RTVSPost2010Prop45
280
     0
102
RTVSPost2010PropOp45
 70
     1
102
RTVSPost2010Prop46
 90
       50
102
RTVSPost2010PropOp46
 70
     1
102
RTVSPost2010Prop47
 90
       50
102
RTVSPost2010PropOp47
 70
     1
102
RTVSPost2010Prop48
 90
       50
102
RTVSPost2010PropOp48
 70
     1
102
RTVSPost2010Prop49
280
     0
102
RTVSPost2010PropOp49
 70
     1
102
RTVSPost2010Prop50
 90
       50
102
RTVSPost2010PropOp50
 70
     1
102
RTVSPost2010Prop51ColorIndex
 90
      256
102
RTVSPost2010Prop51ColorRGB
 90
-16777216
102
RTVSPost2010PropOp51
 70
     0
102
RTVSPost2010Prop52
140
1.0
102
RTVSPost2010PropOp52
 70
     0
102
RTVSPost2010Prop53
 90
        2
102
RTVSPost2010PropOp53
 70
     1
102
RTVSPost2010Prop54
  1
strokes_ogs.tif
102
RTVSPost2010PropOp54
 70
     1
102
RTVSPost2010Prop55
280
     0
102
RTVSPost2010PropOp55
 70
     1
102
RTVSPost2010Prop56
140
1.0
102
RTVSPost2010PropOp56
 70
     1
102
RTVSPost2010Prop57
140
1.0
102
RTVSPost2010PropOp57
 70
     1
102
RTVSPropertyOp0
 70
     1
102
RTVSPropertyOp1
 70
     1
102
RTVSPropertyOp2
 70
     1
102
RTVSPropertyOp3
 70
     1
102
RTVSPropertyOp4
 70
     1
102
RTVSPropertyOp5
 70
     1
102
RTVSPropertyOp6
 70
     1
102
RTVSPropertyOp7
 70
     1
102
RTVSPropertyOp8
 70
     1
102
RTVSPropertyOp9
 70
     1
102
RTVSPropertyOp10
 70
     1
102
RTVSPropertyOp11
 70
     1
102
RTVSPropertyOp12
 70
     1
102
RTVSPropertyOp13
 70
     1
102
RTVSPropertyOp14
 70
     1
102
RTVSPropertyOp15
 70
     1
102
RTVSPropertyOp16
 70
     1
102
RTVSPropertyOp17
 70
     1
102
RTVSPropertyOp18
 70
     1
102
RTVSPropertyOp19
 70
     1
102
RTVSPropertyOp20
 70
     1
102
RTVSPropertyOp21
 70
     1
102
RTVSPropertyOp22
 70
     1
102
RTVSPropertyOp23
 70
     1
102
RTVSPropertyOp24
 70
     1
102
RTVSPropertyOp25
 70
     1
102
RTVSPropertyOp26
 70
     1
102
RTVSPropertyOp27
 70
     1
102
RTVSPropertyOp28
 70
     1
102
RTVSPropertyOp29
 70
     1
102
RTVSPropertyOp30
 70
     1
102
RTVSPropertyOp31
 70
     1
102
RTVSPropertyOp32
 70
     1
102
RTVSPropertyOp33
 70
     1
102
RTVSPropertyOp34
 70
     1
102
RTVSPropertyOp35
 70
     1
102
RTVSPropertyOp36
 70
     1
102
RTVSPropertyOp37
 70
     1
102
RTVSPropertyOp38
 70
     1
102
RTVSPropertyOp39
 70
     1
102
RTVSPropertyOp40
 70
     1
102
RTVSPropertyOp41
 70
     1
102
RTVSPropertyOp42
 70
     1
102
RTVSPropertyOp43
 70
     1
102
RTVSPropertyOp44
 70
     1
102
RTVSPropertyOp45
 70
     1
102
RTVSPropertyOp46
 70
     1
102
RTVSPropertyOp47
 70
     1
102
RTVSPropertyOp48
 70
     1
102
RTVSPropertyOp49
 70
     1
102
RTVSPropertyOp50
 70
     1
102
RTVSPropertyOp51
 70
     0
102
RTVSPropertyOp52
 70
     0
102
RTVSPropertyOp53
 70
     1
102
RTVSPropertyOp54
 70
     1
102
RTVSPropertyOp55
 70
     1
102
RTVSPropertyOp56
 70
     1
102
RTVSPropertyOp57
 70
     1
102
RTVSPropertyOp58
 70
     1
102
RTVSPropertyOp59
 70
     1
102
RTVSPropertyOp60
 70
     1
102
RTVSPropertyOp61
 70
     1
102
RTVSPropertyOp62
 70
     1
  0
XRECORD
  5
2AD
102
{ACAD_REACTORS
330
2AC
102
}
330
2AC
100
AcDbXrecord
280
     1
102
RTVSPost2010Prop28
280
     0
102
RTVSPost2010PropOp28
 70
     1
102
RTVSPost2010Prop29
280
     1
102
RTVSPost2010PropOp29
 70
     1
102
RTVSPost2010Prop30
280
     1
102
RTVSPost2010PropOp30
 70
     1
102
RTVSPost2010Prop31
280
     0
102
RTVSPost2010PropOp31
 70
     1
102
RTVSPost2010Prop32
280
     0
102
RTVSPost2010PropOp32
 70
     1
102
RTVSPost2010Prop33
280
     0
102
RTVSPost2010PropOp33
 70
     1
102
RTVSPost2010Prop34
280
     0
102
RTVSPost2010PropOp34
 70
     1
102
RTVSPost2010Prop35
280
     0
102
RTVSPost2010PropOp35
 70
     1
102
RTVSPost2010Prop36
280
     0
102
RTVSPost2010PropOp36
 70
     1
102
RTVSPost2010Prop37
 90
       50
102
RTVSPost2010PropOp37
 70
     1
102
RTVSPost2010Prop38
140
0.0
102
RTVSPost2010PropOp38
 70
     1
102
RTVSPost2010Prop39
140
1.0
102
RTVSPost2010PropOp39
 70
     1
102
RTVSPost2010Prop40
 90
        0
102
RTVSPost2010PropOp40
 70
     1
102
RTVSPost2010Prop41ColorIndex
 90
       18
102
RTVSPost2010Prop41ColorRGB
 90
        0
102
RTVSPost2010PropOp41
 70
     1
102
RTVSPost2010Prop42
 90
       50
102
RTVSPost2010PropOp42
 70
     1
102
RTVSPost2010Prop43
 90
        3
102
RTVSPost2010PropOp43
 70
     1
102
RTVSPost2010Prop44ColorIndex
 90
        5
102
RTVSPost2010Prop44ColorRGB
 90
      255
102
RTVSPost2010PropOp44
 70
     1
102
RTVSPost2010Prop45
280
     0
102
RTVSPost2010PropOp45
 70
     1
102
RTVSPost2010Prop46
 90
       50
102
RTVSPost2010PropOp46
 70
     1
102
RTVSPost2010Prop47
 90
       50
102
RTVSPost2010PropOp47
 70
     1
102
RTVSPost2010Prop48
 90
       50
102
RTVSPost2010PropOp48
 70
     1
102
RTVSPost2010Prop49
280
     0
102
RTVSPost2010PropOp49
 70
     1
102
RTVSPost2010Prop50
 90
       50
102
RTVSPost2010PropOp50
 70
     1
102
RTVSPost2010Prop51ColorIndex
 90
      256
102
RTVSPost2010Prop51ColorRGB
 90
-16777216
102
RTVSPost2010PropOp51
 70
     0
102
RTVSPost2010Prop52
140
1.0
102
RTVSPost2010PropOp52
 70
     0
102
RTVSPost2010Prop53
 90
        2
102
RTVSPost2010PropOp53
 70
     1
102
RTVSPost2010Prop54
  1
strokes_ogs.tif
102
RTVSPost2010PropOp54
 70
     1
102
RTVSPost2010Prop55
280
     0
102
RTVSPost2010PropOp55
 70
     1
102
RTVSPost2010Prop56
140
1.0
102
RTVSPost2010PropOp56
 70
     1
102
RTVSPost2010Prop57
140
1.0
102
RTVSPost2010PropOp57
 70
     1
102
RTVSPropertyOp0
 70
     1
102
RTVSPropertyOp1
 70
     1
102
RTVSPropertyOp2
 70
     1
102
RTVSPropertyOp3
 70
     1
102
RTVSPropertyOp4
 70
     1
102
RTVSPropertyOp5
 70
     1
102
RTVSPropertyOp6
 70
     1
102
RTVSPropertyOp7
 70
     1
102
RTVSPropertyOp8
 70
     1
102
RTVSPropertyOp9
 70
     1
102
RTVSPropertyOp10
 70
     1
102
RTVSPropertyOp11
 70
     1
102
RTVSPropertyOp12
 70
     1
102
RTVSPropertyOp13
 70
     1
102
RTVSPropertyOp14
 70
     1
102
RTVSPropertyOp15
 70
     1
102
RTVSPropertyOp16
 70
     1
102
RTVSPropertyOp17
 70
     1
102
RTVSPropertyOp18
 70
     1
102
RTVSPropertyOp19
 70
     1
102
RTVSPropertyOp20
 70
     1
102
RTVSPropertyOp21
 70
     1
102
RTVSPropertyOp22
 70
     1
102
RTVSPropertyOp23
 70
     1
102
RTVSPropertyOp24
 70
     1
102
RTVSPropertyOp25
 70
     1
102
RTVSPropertyOp26
 70
     1
102
RTVSPropertyOp27
 70
     1
102
RTVSPropertyOp28
 70
     1
102
RTVSPropertyOp29
 70
     1
102
RTVSPropertyOp30
 70
     1
102
RTVSPropertyOp31
 70
     1
102
RTVSPropertyOp32
 70
     1
102
RTVSPropertyOp33
 70
     1
102
RTVSPropertyOp34
 70
     1
102
RTVSPropertyOp35
 70
     1
102
RTVSPropertyOp36
 70
     1
102
RTVSPropertyOp37
 70
     1
102
RTVSPropertyOp38
 70
     1
102
RTVSPropertyOp39
 70
     1
102
RTVSPropertyOp40
 70
     1
102
RTVSPropertyOp41
 70
     1
102
RTVSPropertyOp42
 70
     1
102
RTVSPropertyOp43
 70
     1
102
RTVSPropertyOp44
 70
     1
102
RTVSPropertyOp45
 70
     1
102
RTVSPropertyOp46
 70
     1
102
RTVSPropertyOp47
 70
     1
102
RTVSPropertyOp48
 70
     1
102
RTVSPropertyOp49
 70
     1
102
RTVSPropertyOp50
 70
     1
102
RTVSPropertyOp51
 70
     0
102
RTVSPropertyOp52
 70
     0
102
RTVSPropertyOp53
 70
     1
102
RTVSPropertyOp54
 70
     1
102
RTVSPropertyOp55
 70
     1
102
RTVSPropertyOp56
 70
     1
102
RTVSPropertyOp57
 70
     1
102
RTVSPropertyOp58
 70
     1
102
RTVSPropertyOp59
 70
     1
102
RTVSPropertyOp60
 70
     1
102
RTVSPropertyOp61
 70
     1
102
RTVSPropertyOp62
 70
     1
  0
XRECORD
  5
2BB
102
{ACAD_REACTORS
330
2BA
102
}
330
2BA
100
AcDbXrecord
280
     1
102
RTVSPost2010Prop28
280
     0
102
RTVSPost2010PropOp28
 70
     1
102
RTVSPost2010Prop29
280
     1
102
RTVSPost2010PropOp29
 70
     1
102
RTVSPost2010Prop30
280
     1
102
RTVSPost2010PropOp30
 70
     1
102
RTVSPost2010Prop31
280
     0
102
RTVSPost2010PropOp31
 70
     1
102
RTVSPost2010Prop32
280
     0
102
RTVSPost2010PropOp32
 70
     1
102
RTVSPost2010Prop33
280
     0
102
RTVSPost2010PropOp33
 70
     1
102
RTVSPost2010Prop34
280
     0
102
RTVSPost2010PropOp34
 70
     1
102
RTVSPost2010Prop35
280
     0
102
RTVSPost2010PropOp35
 70
     1
102
RTVSPost2010Prop36
280
     0
102
RTVSPost2010PropOp36
 70
     1
102
RTVSPost2010Prop37
 90
       50
102
RTVSPost2010PropOp37
 70
     1
102
RTVSPost2010Prop38
140
0.0
102
RTVSPost2010PropOp38
 70
     1
102
RTVSPost2010Prop39
140
1.0
102
RTVSPost2010PropOp39
 70
     1
102
RTVSPost2010Prop40
 90
        0
102
RTVSPost2010PropOp40
 70
     1
102
RTVSPost2010Prop41ColorIndex
 90
       18
102
RTVSPost2010Prop41ColorRGB
 90
        0
102
RTVSPost2010PropOp41
 70
     1
102
RTVSPost2010Prop42
 90
       50
102
RTVSPost2010PropOp42
 70
     1
102
RTVSPost2010Prop43
 90
        3
102
RTVSPost2010PropOp43
 70
     1
102
RTVSPost2010Prop44ColorIndex
 90
        5
102
RTVSPost2010Prop44ColorRGB
 90
      255
102
RTVSPost2010PropOp44
 70
     1
102
RTVSPost2010Prop45
280
     0
102
RTVSPost2010PropOp45
 70
     1
102
RTVSPost2010Prop46
 90
       50
102
RTVSPost2010PropOp46
 70
     1
102
RTVSPost2010Prop47
 90
       50
102
RTVSPost2010PropOp47
 70
     1
102
RTVSPost2010Prop48
 90
       50
102
RTVSPost2010PropOp48
 70
     1
102
RTVSPost2010Prop49
280
     0
102
RTVSPost2010PropOp49
 70
     1
102
RTVSPost2010Prop50
 90
       50
102
RTVSPost2010PropOp50
 70
     1
102
RTVSPost2010Prop51ColorIndex
 90
      256
102
RTVSPost2010Prop51ColorRGB
 90
-16777216
102
RTVSPost2010PropOp51
 70
     0
102
RTVSPost2010Prop52
140
1.0
102
RTVSPost2010PropOp52
 70
     0
102
RTVSPost2010Prop53
 90
        2
102
RTVSPost2010PropOp53
 70
     1
102
RTVSPost2010Prop54
  1
strokes_ogs.tif
102
RTVSPost2010PropOp54
 70
     1
102
RTVSPost2010Prop55
280
     0
102
RTVSPost2010PropOp55
 70
     1
102
RTVSPost2010Prop56
140
1.0
102
RTVSPost2010PropOp56
 70
     1
102
RTVSPost2010Prop57
140
1.0
102
RTVSPost2010PropOp57
 70
     1
102
RTVSPropertyOp0
 70
     1
102
RTVSPropertyOp1
 70
     1
102
RTVSPropertyOp2
 70
     1
102
RTVSPropertyOp3
 70
     1
102
RTVSPropertyOp4
 70
     1
102
RTVSPropertyOp5
 70
     1
102
RTVSPropertyOp6
 70
     1
102
RTVSPropertyOp7
 70
     1
102
RTVSPropertyOp8
 70
     1
102
RTVSPropertyOp9
 70
     1
102
RTVSPropertyOp10
 70
     1
102
RTVSPropertyOp11
 70
     1
102
RTVSPropertyOp12
 70
     1
102
RTVSPropertyOp13
 70
     1
102
RTVSPropertyOp14
 70
     1
102
RTVSPropertyOp15
 70
     1
102
RTVSPropertyOp16
 70
     1
102
RTVSPropertyOp17
 70
     1
102
RTVSPropertyOp18
 70
     1
102
RTVSPropertyOp19
 70
     1
102
RTVSPropertyOp20
 70
     1
102
RTVSPropertyOp21
 70
     1
102
RTVSPropertyOp22
 70
     1
102
RTVSPropertyOp23
 70
     1
102
RTVSPropertyOp24
 70
     1
102
RTVSPropertyOp25
 70
     1
102
RTVSPropertyOp26
 70
     1
102
RTVSPropertyOp27
 70
     1
102
RTVSPropertyOp28
 70
     1
102
RTVSPropertyOp29
 70
     1
102
RTVSPropertyOp30
 70
     1
102
RTVSPropertyOp31
 70
     1
102
RTVSPropertyOp32
 70
     1
102
RTVSPropertyOp33
 70
     1
102
RTVSPropertyOp34
 70
     1
102
RTVSPropertyOp35
 70
     1
102
RTVSPropertyOp36
 70
     1
102
RTVSPropertyOp37
 70
     1
102
RTVSPropertyOp38
 70
     1
102
RTVSPropertyOp39
 70
     1
102
RTVSPropertyOp40
 70
     1
102
RTVSPropertyOp41
 70
     1
102
RTVSPropertyOp42
 70
     1
102
RTVSPropertyOp43
 70
     1
102
RTVSPropertyOp44
 70
     1
102
RTVSPropertyOp45
 70
     1
102
RTVSPropertyOp46
 70
     1
102
RTVSPropertyOp47
 70
     1
102
RTVSPropertyOp48
 70
     1
102
RTVSPropertyOp49
 70
     1
102
RTVSPropertyOp50
 70
     1
102
RTVSPropertyOp51
 70
     0
102
RTVSPropertyOp52
 70
     0
102
RTVSPropertyOp53
 70
     1
102
RTVSPropertyOp54
 70
     1
102
RTVSPropertyOp55
 70
     1
102
RTVSPropertyOp56
 70
     1
102
RTVSPropertyOp57
 70
     1
102
RTVSPropertyOp58
 70
     1
102
RTVSPropertyOp59
 70
     1
102
RTVSPropertyOp60
 70
     1
102
RTVSPropertyOp61
 70
     1
102
RTVSPropertyOp62
 70
     1
  0
XRECORD
  5
2C3
102
{ACAD_REACTORS
330
2C2
102
}
330
2C2
100
AcDbXrecord
280
     1
102
RTVSPost2010Prop28
280
     0
102
RTVSPost2010PropOp28
 70
     1
102
RTVSPost2010Prop29
280
     1
102
RTVSPost2010PropOp29
 70
     1
102
RTVSPost2010Prop30
280
     1
102
RTVSPost2010PropOp30
 70
     1
102
RTVSPost2010Prop31
280
     0
102
RTVSPost2010PropOp31
 70
     1
102
RTVSPost2010Prop32
280
     0
102
RTVSPost2010PropOp32
 70
     1
102
RTVSPost2010Prop33
280
     0
102
RTVSPost2010PropOp33
 70
     1
102
RTVSPost2010Prop34
280
     0
102
RTVSPost2010PropOp34
 70
     1
102
RTVSPost2010Prop35
280
     0
102
RTVSPost2010PropOp35
 70
     1
102
RTVSPost2010Prop36
280
     0
102
RTVSPost2010PropOp36
 70
     1
102
RTVSPost2010Prop37
 90
       50
102
RTVSPost2010PropOp37
 70
     1
102
RTVSPost2010Prop38
140
0.0
102
RTVSPost2010PropOp38
 70
     1
102
RTVSPost2010Prop39
140
1.0
102
RTVSPost2010PropOp39
 70
     1
102
RTVSPost2010Prop40
 90
        0
102
RTVSPost2010PropOp40
 70
     1
102
RTVSPost2010Prop41ColorIndex
 90
       18
102
RTVSPost2010Prop41ColorRGB
 90
        0
102
RTVSPost2010PropOp41
 70
     1
102
RTVSPost2010Prop42
 90
       50
102
RTVSPost2010PropOp42
 70
     1
102
RTVSPost2010Prop43
 90
        3
102
RTVSPost2010PropOp43
 70
     1
102
RTVSPost2010Prop44ColorIndex
 90
        5
102
RTVSPost2010Prop44ColorRGB
 90
      255
102
RTVSPost2010PropOp44
 70
     1
102
RTVSPost2010Prop45
280
     0
102
RTVSPost2010PropOp45
 70
     1
102
RTVSPost2010Prop46
 90
       50
102
RTVSPost2010PropOp46
 70
     1
102
RTVSPost2010Prop47
 90
       50
102
RTVSPost2010PropOp47
 70
     1
102
RTVSPost2010Prop48
 90
       50
102
RTVSPost2010PropOp48
 70
     1
102
RTVSPost2010Prop49
280
     0
102
RTVSPost2010PropOp49
 70
     1
102
RTVSPost2010Prop50
 90
       50
102
RTVSPost2010PropOp50
 70
     1
102
RTVSPost2010Prop51ColorIndex
 90
      256
102
RTVSPost2010Prop51ColorRGB
 90
-16777216
102
RTVSPost2010PropOp51
 70
     0
102
RTVSPost2010Prop52
140
1.0
102
RTVSPost2010PropOp52
 70
     0
102
RTVSPost2010Prop53
 90
        2
102
RTVSPost2010PropOp53
 70
     1
102
RTVSPost2010Prop54
  1
strokes_ogs.tif
102
RTVSPost2010PropOp54
 70
     1
102
RTVSPost2010Prop55
280
     0
102
RTVSPost2010PropOp55
 70
     1
102
RTVSPost2010Prop56
140
1.0
102
RTVSPost2010PropOp56
 70
     1
102
RTVSPost2010Prop57
140
1.0
102
RTVSPost2010PropOp57
 70
     1
102
RTVSPropertyOp0
 70
     1
102
RTVSPropertyOp1
 70
     1
102
RTVSPropertyOp2
 70
     1
102
RTVSPropertyOp3
 70
     1
102
RTVSPropertyOp4
 70
     1
102
RTVSPropertyOp5
 70
     1
102
RTVSPropertyOp6
 70
     1
102
RTVSPropertyOp7
 70
     1
102
RTVSPropertyOp8
 70
     1
102
RTVSPropertyOp9
 70
     1
102
RTVSPropertyOp10
 70
     1
102
RTVSPropertyOp11
 70
     1
102
RTVSPropertyOp12
 70
     1
102
RTVSPropertyOp13
 70
     1
102
RTVSPropertyOp14
 70
     1
102
RTVSPropertyOp15
 70
     1
102
RTVSPropertyOp16
 70
     1
102
RTVSPropertyOp17
 70
     1
102
RTVSPropertyOp18
 70
     1
102
RTVSPropertyOp19
 70
     1
102
RTVSPropertyOp20
 70
     1
102
RTVSPropertyOp21
 70
     1
102
RTVSPropertyOp22
 70
     1
102
RTVSPropertyOp23
 70
     1
102
RTVSPropertyOp24
 70
     1
102
RTVSPropertyOp25
 70
     1
102
RTVSPropertyOp26
 70
     1
102
RTVSPropertyOp27
 70
     1
102
RTVSPropertyOp28
 70
     1
102
RTVSPropertyOp29
 70
     1
102
RTVSPropertyOp30
 70
     1
102
RTVSPropertyOp31
 70
     1
102
RTVSPropertyOp32
 70
     1
102
RTVSPropertyOp33
 70
     1
102
RTVSPropertyOp34
 70
     1
102
RTVSPropertyOp35
 70
     1
102
RTVSPropertyOp36
 70
     1
102
RTVSPropertyOp37
 70
     1
102
RTVSPropertyOp38
 70
     1
102
RTVSPropertyOp39
 70
     1
102
RTVSPropertyOp40
 70
     1
102
RTVSPropertyOp41
 70
     1
102
RTVSPropertyOp42
 70
     1
102
RTVSPropertyOp43
 70
     1
102
RTVSPropertyOp44
 70
     1
102
RTVSPropertyOp45
 70
     1
102
RTVSPropertyOp46
 70
     1
102
RTVSPropertyOp47
 70
     1
102
RTVSPropertyOp48
 70
     1
102
RTVSPropertyOp49
 70
     1
102
RTVSPropertyOp50
 70
     1
102
RTVSPropertyOp51
 70
     0
102
RTVSPropertyOp52
 70
     0
102
RTVSPropertyOp53
 70
     1
102
RTVSPropertyOp54
 70
     1
102
RTVSPropertyOp55
 70
     1
102
RTVSPropertyOp56
 70
     1
102
RTVSPropertyOp57
 70
     1
102
RTVSPropertyOp58
 70
     1
102
RTVSPropertyOp59
 70
     1
102
RTVSPropertyOp60
 70
     1
102
RTVSPropertyOp61
 70
     1
102
RTVSPropertyOp62
 70
     1
  0
XRECORD
  5
2B5
102
{ACAD_REACTORS
330
2B4
102
}
330
2B4
100
AcDbXrecord
280
     1
102
RTVSPost2010Prop28
280
     0
102
RTVSPost2010PropOp28
 70
     1
102
RTVSPost2010Prop29
280
     1
102
RTVSPost2010PropOp29
 70
     1
102
RTVSPost2010Prop30
280
     1
102
RTVSPost2010PropOp30
 70
     1
102
RTVSPost2010Prop31
280
     0
102
RTVSPost2010PropOp31
 70
     1
102
RTVSPost2010Prop32
280
     0
102
RTVSPost2010PropOp32
 70
     1
102
RTVSPost2010Prop33
280
     0
102
RTVSPost2010PropOp33
 70
     1
102
RTVSPost2010Prop34
280
     0
102
RTVSPost2010PropOp34
 70
     1
102
RTVSPost2010Prop35
280
     0
102
RTVSPost2010PropOp35
 70
     1
102
RTVSPost2010Prop36
280
     0
102
RTVSPost2010PropOp36
 70
     1
102
RTVSPost2010Prop37
 90
       50
102
RTVSPost2010PropOp37
 70
     1
102
RTVSPost2010Prop38
140
0.0
102
RTVSPost2010PropOp38
 70
     1
102
RTVSPost2010Prop39
140
1.0
102
RTVSPost2010PropOp39
 70
     1
102
RTVSPost2010Prop40
 90
        0
102
RTVSPost2010PropOp40
 70
     1
102
RTVSPost2010Prop41ColorIndex
 90
       18
102
RTVSPost2010Prop41ColorRGB
 90
        0
102
RTVSPost2010PropOp41
 70
     1
102
RTVSPost2010Prop42
 90
       50
102
RTVSPost2010PropOp42
 70
     1
102
RTVSPost2010Prop43
 90
        3
102
RTVSPost2010PropOp43
 70
     1
102
RTVSPost2010Prop44ColorIndex
 90
        5
102
RTVSPost2010Prop44ColorRGB
 90
      255
102
RTVSPost2010PropOp44
 70
     1
102
RTVSPost2010Prop45
280
     0
102
RTVSPost2010PropOp45
 70
     1
102
RTVSPost2010Prop46
 90
       50
102
RTVSPost2010PropOp46
 70
     1
102
RTVSPost2010Prop47
 90
       50
102
RTVSPost2010PropOp47
 70
     1
102
RTVSPost2010Prop48
 90
       50
102
RTVSPost2010PropOp48
 70
     1
102
RTVSPost2010Prop49
280
     0
102
RTVSPost2010PropOp49
 70
     1
102
RTVSPost2010Prop50
 90
       50
102
RTVSPost2010PropOp50
 70
     1
102
RTVSPost2010Prop51ColorIndex
 90
      256
102
RTVSPost2010Prop51ColorRGB
 90
-16777216
102
RTVSPost2010PropOp51
 70
     0
102
RTVSPost2010Prop52
140
1.0
102
RTVSPost2010PropOp52
 70
     0
102
RTVSPost2010Prop53
 90
        2
102
RTVSPost2010PropOp53
 70
     1
102
RTVSPost2010Prop54
  1
strokes_ogs.tif
102
RTVSPost2010PropOp54
 70
     1
102
RTVSPost2010Prop55
280
     0
102
RTVSPost2010PropOp55
 70
     1
102
RTVSPost2010Prop56
140
1.0
102
RTVSPost2010PropOp56
 70
     1
102
RTVSPost2010Prop57
140
1.0
102
RTVSPost2010PropOp57
 70
     1
102
RTVSPropertyOp0
 70
     1
102
RTVSPropertyOp1
 70
     1
102
RTVSPropertyOp2
 70
     1
102
RTVSPropertyOp3
 70
     1
102
RTVSPropertyOp4
 70
     1
102
RTVSPropertyOp5
 70
     1
102
RTVSPropertyOp6
 70
     1
102
RTVSPropertyOp7
 70
     1
102
RTVSPropertyOp8
 70
     1
102
RTVSPropertyOp9
 70
     1
102
RTVSPropertyOp10
 70
     1
102
RTVSPropertyOp11
 70
     1
102
RTVSPropertyOp12
 70
     1
102
RTVSPropertyOp13
 70
     1
102
RTVSPropertyOp14
 70
     1
102
RTVSPropertyOp15
 70
     1
102
RTVSPropertyOp16
 70
     1
102
RTVSPropertyOp17
 70
     1
102
RTVSPropertyOp18
 70
     1
102
RTVSPropertyOp19
 70
     1
102
RTVSPropertyOp20
 70
     1
102
RTVSPropertyOp21
 70
     1
102
RTVSPropertyOp22
 70
     1
102
RTVSPropertyOp23
 70
     1
102
RTVSPropertyOp24
 70
     1
102
RTVSPropertyOp25
 70
     1
102
RTVSPropertyOp26
 70
     1
102
RTVSPropertyOp27
 70
     1
102
RTVSPropertyOp28
 70
     1
102
RTVSPropertyOp29
 70
     1
102
RTVSPropertyOp30
 70
     1
102
RTVSPropertyOp31
 70
     1
102
RTVSPropertyOp32
 70
     1
102
RTVSPropertyOp33
 70
     1
102
RTVSPropertyOp34
 70
     1
102
RTVSPropertyOp35
 70
     1
102
RTVSPropertyOp36
 70
     1
102
RTVSPropertyOp37
 70
     1
102
RTVSPropertyOp38
 70
     1
102
RTVSPropertyOp39
 70
     1
102
RTVSPropertyOp40
 70
     1
102
RTVSPropertyOp41
 70
     1
102
RTVSPropertyOp42
 70
     1
102
RTVSPropertyOp43
 70
     1
102
RTVSPropertyOp44
 70
     1
102
RTVSPropertyOp45
 70
     1
102
RTVSPropertyOp46
 70
     1
102
RTVSPropertyOp47
 70
     1
102
RTVSPropertyOp48
 70
     1
102
RTVSPropertyOp49
 70
     1
102
RTVSPropertyOp50
 70
     1
102
RTVSPropertyOp51
 70
     0
102
RTVSPropertyOp52
 70
     0
102
RTVSPropertyOp53
 70
     1
102
RTVSPropertyOp54
 70
     1
102
RTVSPropertyOp55
 70
     1
102
RTVSPropertyOp56
 70
     1
102
RTVSPropertyOp57
 70
     1
102
RTVSPropertyOp58
 70
     1
102
RTVSPropertyOp59
 70
     1
102
RTVSPropertyOp60
 70
     1
102
RTVSPropertyOp61
 70
     1
102
RTVSPropertyOp62
 70
     1
  0
XRECORD
  5
2B9
102
{ACAD_REACTORS
330
2B8
102
}
330
2B8
100
AcDbXrecord
280
     1
102
RTVSPost2010Prop28
280
     0
102
RTVSPost2010PropOp28
 70
     1
102
RTVSPost2010Prop29
280
     1
102
RTVSPost2010PropOp29
 70
     1
102
RTVSPost2010Prop30
280
     1
102
RTVSPost2010PropOp30
 70
     1
102
RTVSPost2010Prop31
280
     0
102
RTVSPost2010PropOp31
 70
     1
102
RTVSPost2010Prop32
280
     0
102
RTVSPost2010PropOp32
 70
     1
102
RTVSPost2010Prop33
280
     0
102
RTVSPost2010PropOp33
 70
     1
102
RTVSPost2010Prop34
280
     0
102
RTVSPost2010PropOp34
 70
     1
102
RTVSPost2010Prop35
280
     0
102
RTVSPost2010PropOp35
 70
     1
102
RTVSPost2010Prop36
280
     0
102
RTVSPost2010PropOp36
 70
     1
102
RTVSPost2010Prop37
 90
       50
102
RTVSPost2010PropOp37
 70
     1
102
RTVSPost2010Prop38
140
0.0
102
RTVSPost2010PropOp38
 70
     1
102
RTVSPost2010Prop39
140
1.0
102
RTVSPost2010PropOp39
 70
     1
102
RTVSPost2010Prop40
 90
        0
102
RTVSPost2010PropOp40
 70
     1
102
RTVSPost2010Prop41ColorIndex
 90
       18
102
RTVSPost2010Prop41ColorRGB
 90
        0
102
RTVSPost2010PropOp41
 70
     1
102
RTVSPost2010Prop42
 90
       50
102
RTVSPost2010PropOp42
 70
     1
102
RTVSPost2010Prop43
 90
        3
102
RTVSPost2010PropOp43
 70
     1
102
RTVSPost2010Prop44ColorIndex
 90
        5
102
RTVSPost2010Prop44ColorRGB
 90
      255
102
RTVSPost2010PropOp44
 70
     1
102
RTVSPost2010Prop45
280
     0
102
RTVSPost2010PropOp45
 70
     1
102
RTVSPost2010Prop46
 90
       50
102
RTVSPost2010PropOp46
 70
     1
102
RTVSPost2010Prop47
 90
       50
102
RTVSPost2010PropOp47
 70
     1
102
RTVSPost2010Prop48
 90
       50
102
RTVSPost2010PropOp48
 70
     1
102
RTVSPost2010Prop49
280
     0
102
RTVSPost2010PropOp49
 70
     1
102
RTVSPost2010Prop50
 90
       50
102
RTVSPost2010PropOp50
 70
     1
102
RTVSPost2010Prop51ColorIndex
 90
      256
102
RTVSPost2010Prop51ColorRGB
 90
-16777216
102
RTVSPost2010PropOp51
 70
     0
102
RTVSPost2010Prop52
140
1.0
102
RTVSPost2010PropOp52
 70
     0
102
RTVSPost2010Prop53
 90
        2
102
RTVSPost2010PropOp53
 70
     1
102
RTVSPost2010Prop54
  1
strokes_ogs.tif
102
RTVSPost2010PropOp54
 70
     1
102
RTVSPost2010Prop55
280
     0
102
RTVSPost2010PropOp55
 70
     1
102
RTVSPost2010Prop56
140
1.0
102
RTVSPost2010PropOp56
 70
     1
102
RTVSPost2010Prop57
140
1.0
102
RTVSPost2010PropOp57
 70
     1
102
RTVSPropertyOp0
 70
     1
102
RTVSPropertyOp1
 70
     1
102
RTVSPropertyOp2
 70
     1
102
RTVSPropertyOp3
 70
     1
102
RTVSPropertyOp4
 70
     1
102
RTVSPropertyOp5
 70
     1
102
RTVSPropertyOp6
 70
     1
102
RTVSPropertyOp7
 70
     1
102
RTVSPropertyOp8
 70
     1
102
RTVSPropertyOp9
 70
     1
102
RTVSPropertyOp10
 70
     1
102
RTVSPropertyOp11
 70
     1
102
RTVSPropertyOp12
 70
     1
102
RTVSPropertyOp13
 70
     1
102
RTVSPropertyOp14
 70
     1
102
RTVSPropertyOp15
 70
     1
102
RTVSPropertyOp16
 70
     1
102
RTVSPropertyOp17
 70
     1
102
RTVSPropertyOp18
 70
     1
102
RTVSPropertyOp19
 70
     1
102
RTVSPropertyOp20
 70
     1
102
RTVSPropertyOp21
 70
     1
102
RTVSPropertyOp22
 70
     1
102
RTVSPropertyOp23
 70
     1
102
RTVSPropertyOp24
 70
     1
102
RTVSPropertyOp25
 70
     1
102
RTVSPropertyOp26
 70
     1
102
RTVSPropertyOp27
 70
     1
102
RTVSPropertyOp28
 70
     1
102
RTVSPropertyOp29
 70
     1
102
RTVSPropertyOp30
 70
     1
102
RTVSPropertyOp31
 70
     1
102
RTVSPropertyOp32
 70
     1
102
RTVSPropertyOp33
 70
     1
102
RTVSPropertyOp34
 70
     1
102
RTVSPropertyOp35
 70
     1
102
RTVSPropertyOp36
 70
     1
102
RTVSPropertyOp37
 70
     1
102
RTVSPropertyOp38
 70
     1
102
RTVSPropertyOp39
 70
     1
102
RTVSPropertyOp40
 70
     1
102
RTVSPropertyOp41
 70
     1
102
RTVSPropertyOp42
 70
     1
102
RTVSPropertyOp43
 70
     1
102
RTVSPropertyOp44
 70
     1
102
RTVSPropertyOp45
 70
     1
102
RTVSPropertyOp46
 70
     1
102
RTVSPropertyOp47
 70
     1
102
RTVSPropertyOp48
 70
     1
102
RTVSPropertyOp49
 70
     1
102
RTVSPropertyOp50
 70
     1
102
RTVSPropertyOp51
 70
     0
102
RTVSPropertyOp52
 70
     0
102
RTVSPropertyOp53
 70
     1
102
RTVSPropertyOp54
 70
     1
102
RTVSPropertyOp55
 70
     1
102
RTVSPropertyOp56
 70
     1
102
RTVSPropertyOp57
 70
     1
102
RTVSPropertyOp58
 70
     1
102
RTVSPropertyOp59
 70
     1
102
RTVSPropertyOp60
 70
     1
102
RTVSPropertyOp61
 70
     1
102
RTVSPropertyOp62
 70
     1
  0
XRECORD
  5
2D3
102
{ACAD_REACTORS
330
2D2
102
}
330
2D2
100
AcDbXrecord
280
     1
102
RTVSPost2010Prop28
280
     0
102
RTVSPost2010PropOp28
 70
     1
102
RTVSPost2010Prop29
280
     1
102
RTVSPost2010PropOp29
 70
     1
102
RTVSPost2010Prop30
280
     1
102
RTVSPost2010PropOp30
 70
     1
102
RTVSPost2010Prop31
280
     0
102
RTVSPost2010PropOp31
 70
     1
102
RTVSPost2010Prop32
280
     0
102
RTVSPost2010PropOp32
 70
     1
102
RTVSPost2010Prop33
280
     0
102
RTVSPost2010PropOp33
 70
     1
102
RTVSPost2010Prop34
280
     0
102
RTVSPost2010PropOp34
 70
     1
102
RTVSPost2010Prop35
280
     0
102
RTVSPost2010PropOp35
 70
     1
102
RTVSPost2010Prop36
280
     0
102
RTVSPost2010PropOp36
 70
     1
102
RTVSPost2010Prop37
 90
       50
102
RTVSPost2010PropOp37
 70
     0
102
RTVSPost2010Prop38
140
0.0
102
RTVSPost2010PropOp38
 70
     0
102
RTVSPost2010Prop39
140
1.0
102
RTVSPost2010PropOp39
 70
     0
102
RTVSPost2010Prop40
 90
        0
102
RTVSPost2010PropOp40
 70
     0
102
RTVSPost2010Prop41ColorIndex
 90
       18
102
RTVSPost2010Prop41ColorRGB
 90
        0
102
RTVSPost2010PropOp41
 70
     0
102
RTVSPost2010Prop42
 90
       50
102
RTVSPost2010PropOp42
 70
     0
102
RTVSPost2010Prop43
 90
        3
102
RTVSPost2010PropOp43
 70
     0
102
RTVSPost2010Prop44ColorIndex
 90
        5
102
RTVSPost2010Prop44ColorRGB
 90
      255
102
RTVSPost2010PropOp44
 70
     0
102
RTVSPost2010Prop45
280
     0
102
RTVSPost2010PropOp45
 70
     1
102
RTVSPost2010Prop46
 90
       50
102
RTVSPost2010PropOp46
 70
     0
102
RTVSPost2010Prop47
 90
       50
102
RTVSPost2010PropOp47
 70
     0
102
RTVSPost2010Prop48
 90
       50
102
RTVSPost2010PropOp48
 70
     0
102
RTVSPost2010Prop49
280
     0
102
RTVSPost2010PropOp49
 70
     1
102
RTVSPost2010Prop50
 90
       50
102
RTVSPost2010PropOp50
 70
     0
102
RTVSPost2010Prop51ColorIndex
 90
      256
102
RTVSPost2010Prop51ColorRGB
 90
-16777216
102
RTVSPost2010PropOp51
 70
     0
102
RTVSPost2010Prop52
140
1.0
102
RTVSPost2010PropOp52
 70
     0
102
RTVSPost2010Prop53
 90
        2
102
RTVSPost2010PropOp53
 70
     0
102
RTVSPost2010Prop54
  1
strokes_ogs.tif
102
RTVSPost2010PropOp54
 70
     0
102
RTVSPost2010Prop55
280
     0
102
RTVSPost2010PropOp55
 70
     1
102
RTVSPost2010Prop56
140
1.0
102
RTVSPost2010PropOp56
 70
     0
102
RTVSPost2010Prop57
140
1.0
102
RTVSPost2010PropOp57
 70
     0
102
RTVSPropertyOp0
 70
     0
102
RTVSPropertyOp1
 70
     0
102
RTVSPropertyOp2
 70
     0
102
RTVSPropertyOp3
 70
     0
102
RTVSPropertyOp4
 70
     0
102
RTVSPropertyOp5
 70
     0
102
RTVSPropertyOp6
 70
     0
102
RTVSPropertyOp7
 70
     0
102
RTVSPropertyOp8
 70
     0
102
RTVSPropertyOp9
 70
     0
102
RTVSPropertyOp10
 70
     0
102
RTVSPropertyOp11
 70
     0
102
RTVSPropertyOp12
 70
     0
102
RTVSPropertyOp13
 70
     0
102
RTVSPropertyOp14
 70
     2
102
RTVSPropertyOp15
 70
     0
102
RTVSPropertyOp16
 70
     0
102
RTVSPropertyOp17
 70
     0
102
RTVSPropertyOp18
 70
     0
102
RTVSPropertyOp19
 70
     0
102
RTVSPropertyOp20
 70
     0
102
RTVSPropertyOp21
 70
     0
102
RTVSPropertyOp22
 70
     0
102
RTVSPropertyOp23
 70
     0
102
RTVSPropertyOp24
 70
     0
102
RTVSPropertyOp25
 70
     0
102
RTVSPropertyOp26
 70
     0
102
RTVSPropertyOp27
 70
     0
102
RTVSPropertyOp28
 70
     1
102
RTVSPropertyOp29
 70
     1
102
RTVSPropertyOp30
 70
     1
102
RTVSPropertyOp31
 70
     1
102
RTVSPropertyOp32
 70
     1
102
RTVSPropertyOp33
 70
     1
102
RTVSPropertyOp34
 70
     1
102
RTVSPropertyOp35
 70
     1
102
RTVSPropertyOp36
 70
     1
102
RTVSPropertyOp37
 70
     0
102
RTVSPropertyOp38
 70
     0
102
RTVSPropertyOp39
 70
     0
102
RTVSPropertyOp40
 70
     0
102
RTVSPropertyOp41
 70
     0
102
RTVSPropertyOp42
 70
     0
102
RTVSPropertyOp43
 70
     0
102
RTVSPropertyOp44
 70
     0
102
RTVSPropertyOp45
 70
     1
102
RTVSPropertyOp46
 70
     0
102
RTVSPropertyOp47
 70
     0
102
RTVSPropertyOp48
 70
     0
102
RTVSPropertyOp49
 70
     1
102
RTVSPropertyOp50
 70
     0
102
RTVSPropertyOp51
 70
     0
102
RTVSPropertyOp52
 70
     0
102
RTVSPropertyOp53
 70
     0
102
RTVSPropertyOp54
 70
     0
102
RTVSPropertyOp55
 70
     1
102
RTVSPropertyOp56
 70
     0
102
RTVSPropertyOp57
 70
     0
102
RTVSPropertyOp58
 70
     0
102
RTVSPropertyOp59
 70
     0
102
RTVSPropertyOp60
 70
     0
102
RTVSPropertyOp61
 70
     0
102
RTVSPropertyOp62
 70
     0
  0
XRECORD
  5
2C1
102
{ACAD_REACTORS
330
2C0
102
}
330
2C0
100
AcDbXrecord
280
     1
102
RTVSPost2010Prop28
280
     0
102
RTVSPost2010PropOp28
 70
     1
102
RTVSPost2010Prop29
280
     1
102
RTVSPost2010PropOp29
 70
     1
102
RTVSPost2010Prop30
280
     1
102
RTVSPost2010PropOp30
 70
     1
102
RTVSPost2010Prop31
280
     0
102
RTVSPost2010PropOp31
 70
     1
102
RTVSPost2010Prop32
280
     0
102
RTVSPost2010PropOp32
 70
     1
102
RTVSPost2010Prop33
280
     0
102
RTVSPost2010PropOp33
 70
     1
102
RTVSPost2010Prop34
280
     0
102
RTVSPost2010PropOp34
 70
     1
102
RTVSPost2010Prop35
280
     0
102
RTVSPost2010PropOp35
 70
     1
102
RTVSPost2010Prop36
280
     0
102
RTVSPost2010PropOp36
 70
     1
102
RTVSPost2010Prop37
 90
       50
102
RTVSPost2010PropOp37
 70
     1
102
RTVSPost2010Prop38
140
0.0
102
RTVSPost2010PropOp38
 70
     1
102
RTVSPost2010Prop39
140
1.0
102
RTVSPost2010PropOp39
 70
     1
102
RTVSPost2010Prop40
 90
        0
102
RTVSPost2010PropOp40
 70
     1
102
RTVSPost2010Prop41ColorIndex
 90
       18
102
RTVSPost2010Prop41ColorRGB
 90
        0
102
RTVSPost2010PropOp41
 70
     1
102
RTVSPost2010Prop42
 90
       50
102
RTVSPost2010PropOp42
 70
     1
102
RTVSPost2010Prop43
 90
        3
102
RTVSPost2010PropOp43
 70
     1
102
RTVSPost2010Prop44ColorIndex
 90
        5
102
RTVSPost2010Prop44ColorRGB
 90
      255
102
RTVSPost2010PropOp44
 70
     1
102
RTVSPost2010Prop45
280
     0
102
RTVSPost2010PropOp45
 70
     1
102
RTVSPost2010Prop46
 90
       50
102
RTVSPost2010PropOp46
 70
     1
102
RTVSPost2010Prop47
 90
       50
102
RTVSPost2010PropOp47
 70
     1
102
RTVSPost2010Prop48
 90
       50
102
RTVSPost2010PropOp48
 70
     1
102
RTVSPost2010Prop49
280
     0
102
RTVSPost2010PropOp49
 70
     1
102
RTVSPost2010Prop50
 90
       50
102
RTVSPost2010PropOp50
 70
     1
102
RTVSPost2010Prop51ColorIndex
 90
      256
102
RTVSPost2010Prop51ColorRGB
 90
-16777216
102
RTVSPost2010PropOp51
 70
     0
102
RTVSPost2010Prop52
140
1.0
102
RTVSPost2010PropOp52
 70
     0
102
RTVSPost2010Prop53
 90
        2
102
RTVSPost2010PropOp53
 70
     1
102
RTVSPost2010Prop54
  1
strokes_ogs.tif
102
RTVSPost2010PropOp54
 70
     1
102
RTVSPost2010Prop55
280
     0
102
RTVSPost2010PropOp55
 70
     1
102
RTVSPost2010Prop56
140
1.0
102
RTVSPost2010PropOp56
 70
     1
102
RTVSPost2010Prop57
140
1.0
102
RTVSPost2010PropOp57
 70
     1
102
RTVSPropertyOp0
 70
     1
102
RTVSPropertyOp1
 70
     1
102
RTVSPropertyOp2
 70
     1
102
RTVSPropertyOp3
 70
     1
102
RTVSPropertyOp4
 70
     1
102
RTVSPropertyOp5
 70
     1
102
RTVSPropertyOp6
 70
     1
102
RTVSPropertyOp7
 70
     1
102
RTVSPropertyOp8
 70
     1
102
RTVSPropertyOp9
 70
     1
102
RTVSPropertyOp10
 70
     1
102
RTVSPropertyOp11
 70
     1
102
RTVSPropertyOp12
 70
     1
102
RTVSPropertyOp13
 70
     1
102
RTVSPropertyOp14
 70
     1
102
RTVSPropertyOp15
 70
     1
102
RTVSPropertyOp16
 70
     1
102
RTVSPropertyOp17
 70
     1
102
RTVSPropertyOp18
 70
     1
102
RTVSPropertyOp19
 70
     1
102
RTVSPropertyOp20
 70
     1
102
RTVSPropertyOp21
 70
     1
102
RTVSPropertyOp22
 70
     1
102
RTVSPropertyOp23
 70
     1
102
RTVSPropertyOp24
 70
     1
102
RTVSPropertyOp25
 70
     1
102
RTVSPropertyOp26
 70
     1
102
RTVSPropertyOp27
 70
     1
102
RTVSPropertyOp28
 70
     1
102
RTVSPropertyOp29
 70
     1
102
RTVSPropertyOp30
 70
     1
102
RTVSPropertyOp31
 70
     1
102
RTVSPropertyOp32
 70
     1
102
RTVSPropertyOp33
 70
     1
102
RTVSPropertyOp34
 70
     1
102
RTVSPropertyOp35
 70
     1
102
RTVSPropertyOp36
 70
     1
102
RTVSPropertyOp37
 70
     1
102
RTVSPropertyOp38
 70
     1
102
RTVSPropertyOp39
 70
     1
102
RTVSPropertyOp40
 70
     1
102
RTVSPropertyOp41
 70
     1
102
RTVSPropertyOp42
 70
     1
102
RTVSPropertyOp43
 70
     1
102
RTVSPropertyOp44
 70
     1
102
RTVSPropertyOp45
 70
     1
102
RTVSPropertyOp46
 70
     1
102
RTVSPropertyOp47
 70
     1
102
RTVSPropertyOp48
 70
     1
102
RTVSPropertyOp49
 70
     1
102
RTVSPropertyOp50
 70
     1
102
RTVSPropertyOp51
 70
     0
102
RTVSPropertyOp52
 70
     0
102
RTVSPropertyOp53
 70
     1
102
RTVSPropertyOp54
 70
     1
102
RTVSPropertyOp55
 70
     1
102
RTVSPropertyOp56
 70
     1
102
RTVSPropertyOp57
 70
     1
102
RTVSPropertyOp58
 70
     1
102
RTVSPropertyOp59
 70
     1
102
RTVSPropertyOp60
 70
     1
102
RTVSPropertyOp61
 70
     1
102
RTVSPropertyOp62
 70
     1
  0
XRECORD
  5
2A5
102
{ACAD_REACTORS
330
2A4
102
}
330
2A4
100
AcDbXrecord
280
     1
102
RTVSPost2010Prop28
280
     0
102
RTVSPost2010PropOp28
 70
     1
102
RTVSPost2010Prop29
280
     1
102
RTVSPost2010PropOp29
 70
     1
102
RTVSPost2010Prop30
280
     1
102
RTVSPost2010PropOp30
 70
     1
102
RTVSPost2010Prop31
280
     0
102
RTVSPost2010PropOp31
 70
     1
102
RTVSPost2010Prop32
280
     0
102
RTVSPost2010PropOp32
 70
     1
102
RTVSPost2010Prop33
280
     0
102
RTVSPost2010PropOp33
 70
     1
102
RTVSPost2010Prop34
280
     0
102
RTVSPost2010PropOp34
 70
     1
102
RTVSPost2010Prop35
280
     0
102
RTVSPost2010PropOp35
 70
     1
102
RTVSPost2010Prop36
280
     0
102
RTVSPost2010PropOp36
 70
     1
102
RTVSPost2010Prop37
 90
       50
102
RTVSPost2010PropOp37
 70
     1
102
RTVSPost2010Prop38
140
0.0
102
RTVSPost2010PropOp38
 70
     1
102
RTVSPost2010Prop39
140
1.0
102
RTVSPost2010PropOp39
 70
     1
102
RTVSPost2010Prop40
 90
        0
102
RTVSPost2010PropOp40
 70
     1
102
RTVSPost2010Prop41ColorIndex
 90
       18
102
RTVSPost2010Prop41ColorRGB
 90
        0
102
RTVSPost2010PropOp41
 70
     1
102
RTVSPost2010Prop42
 90
       50
102
RTVSPost2010PropOp42
 70
     1
102
RTVSPost2010Prop43
 90
        3
102
RTVSPost2010PropOp43
 70
     1
102
RTVSPost2010Prop44ColorIndex
 90
        5
102
RTVSPost2010Prop44ColorRGB
 90
      255
102
RTVSPost2010PropOp44
 70
     1
102
RTVSPost2010Prop45
280
     0
102
RTVSPost2010PropOp45
 70
     1
102
RTVSPost2010Prop46
 90
       50
102
RTVSPost2010PropOp46
 70
     1
102
RTVSPost2010Prop47
 90
       50
102
RTVSPost2010PropOp47
 70
     1
102
RTVSPost2010Prop48
 90
       50
102
RTVSPost2010PropOp48
 70
     1
102
RTVSPost2010Prop49
280
     0
102
RTVSPost2010PropOp49
 70
     1
102
RTVSPost2010Prop50
 90
       50
102
RTVSPost2010PropOp50
 70
     1
102
RTVSPost2010Prop51ColorIndex
 90
      256
102
RTVSPost2010Prop51ColorRGB
 90
-16777216
102
RTVSPost2010PropOp51
 70
     0
102
RTVSPost2010Prop52
140
1.0
102
RTVSPost2010PropOp52
 70
     0
102
RTVSPost2010Prop53
 90
        2
102
RTVSPost2010PropOp53
 70
     1
102
RTVSPost2010Prop54
  1
strokes_ogs.tif
102
RTVSPost2010PropOp54
 70
     1
102
RTVSPost2010Prop55
280
     0
102
RTVSPost2010PropOp55
 70
     1
102
RTVSPost2010Prop56
140
1.0
102
RTVSPost2010PropOp56
 70
     1
102
RTVSPost2010Prop57
140
1.0
102
RTVSPost2010PropOp57
 70
     1
102
RTVSPropertyOp0
 70
     1
102
RTVSPropertyOp1
 70
     1
102
RTVSPropertyOp2
 70
     1
102
RTVSPropertyOp3
 70
     1
102
RTVSPropertyOp4
 70
     1
102
RTVSPropertyOp5
 70
     1
102
RTVSPropertyOp6
 70
     1
102
RTVSPropertyOp7
 70
     1
102
RTVSPropertyOp8
 70
     1
102
RTVSPropertyOp9
 70
     1
102
RTVSPropertyOp10
 70
     1
102
RTVSPropertyOp11
 70
     1
102
RTVSPropertyOp12
 70
     1
102
RTVSPropertyOp13
 70
     1
102
RTVSPropertyOp14
 70
     1
102
RTVSPropertyOp15
 70
     1
102
RTVSPropertyOp16
 70
     1
102
RTVSPropertyOp17
 70
     1
102
RTVSPropertyOp18
 70
     1
102
RTVSPropertyOp19
 70
     1
102
RTVSPropertyOp20
 70
     1
102
RTVSPropertyOp21
 70
     1
102
RTVSPropertyOp22
 70
     1
102
RTVSPropertyOp23
 70
     1
102
RTVSPropertyOp24
 70
     1
102
RTVSPropertyOp25
 70
     1
102
RTVSPropertyOp26
 70
     1
102
RTVSPropertyOp27
 70
     1
102
RTVSPropertyOp28
 70
     1
102
RTVSPropertyOp29
 70
     1
102
RTVSPropertyOp30
 70
     1
102
RTVSPropertyOp31
 70
     1
102
RTVSPropertyOp32
 70
     1
102
RTVSPropertyOp33
 70
     1
102
RTVSPropertyOp34
 70
     1
102
RTVSPropertyOp35
 70
     1
102
RTVSPropertyOp36
 70
     1
102
RTVSPropertyOp37
 70
     1
102
RTVSPropertyOp38
 70
     1
102
RTVSPropertyOp39
 70
     1
102
RTVSPropertyOp40
 70
     1
102
RTVSPropertyOp41
 70
     1
102
RTVSPropertyOp42
 70
     1
102
RTVSPropertyOp43
 70
     1
102
RTVSPropertyOp44
 70
     1
102
RTVSPropertyOp45
 70
     1
102
RTVSPropertyOp46
 70
     1
102
RTVSPropertyOp47
 70
     1
102
RTVSPropertyOp48
 70
     1
102
RTVSPropertyOp49
 70
     1
102
RTVSPropertyOp50
 70
     1
102
RTVSPropertyOp51
 70
     0
102
RTVSPropertyOp52
 70
     0
102
RTVSPropertyOp53
 70
     1
102
RTVSPropertyOp54
 70
     1
102
RTVSPropertyOp55
 70
     1
102
RTVSPropertyOp56
 70
     1
102
RTVSPropertyOp57
 70
     1
102
RTVSPropertyOp58
 70
     1
102
RTVSPropertyOp59
 70
     1
102
RTVSPropertyOp60
 70
     1
102
RTVSPropertyOp61
 70
     1
102
RTVSPropertyOp62
 70
     1
  0
XRECORD
  5
2A7
102
{ACAD_REACTORS
330
2A6
102
}
330
2A6
100
AcDbXrecord
280
     1
102
RTVSPost2010Prop28
280
     0
102
RTVSPost2010PropOp28
 70
     1
102
RTVSPost2010Prop29
280
     1
102
RTVSPost2010PropOp29
 70
     1
102
RTVSPost2010Prop30
280
     1
102
RTVSPost2010PropOp30
 70
     1
102
RTVSPost2010Prop31
280
     0
102
RTVSPost2010PropOp31
 70
     1
102
RTVSPost2010Prop32
280
     0
102
RTVSPost2010PropOp32
 70
     1
102
RTVSPost2010Prop33
280
     0
102
RTVSPost2010PropOp33
 70
     1
102
RTVSPost2010Prop34
280
     0
102
RTVSPost2010PropOp34
 70
     1
102
RTVSPost2010Prop35
280
     0
102
RTVSPost2010PropOp35
 70
     1
102
RTVSPost2010Prop36
280
     0
102
RTVSPost2010PropOp36
 70
     1
102
RTVSPost2010Prop37
 90
       50
102
RTVSPost2010PropOp37
 70
     1
102
RTVSPost2010Prop38
140
0.0
102
RTVSPost2010PropOp38
 70
     1
102
RTVSPost2010Prop39
140
1.0
102
RTVSPost2010PropOp39
 70
     1
102
RTVSPost2010Prop40
 90
        0
102
RTVSPost2010PropOp40
 70
     1
102
RTVSPost2010Prop41ColorIndex
 90
       18
102
RTVSPost2010Prop41ColorRGB
 90
        0
102
RTVSPost2010PropOp41
 70
     1
102
RTVSPost2010Prop42
 90
       50
102
RTVSPost2010PropOp42
 70
     1
102
RTVSPost2010Prop43
 90
        3
102
RTVSPost2010PropOp43
 70
     1
102
RTVSPost2010Prop44ColorIndex
 90
        5
102
RTVSPost2010Prop44ColorRGB
 90
      255
102
RTVSPost2010PropOp44
 70
     1
102
RTVSPost2010Prop45
280
     0
102
RTVSPost2010PropOp45
 70
     1
102
RTVSPost2010Prop46
 90
       50
102
RTVSPost2010PropOp46
 70
     1
102
RTVSPost2010Prop47
 90
       50
102
RTVSPost2010PropOp47
 70
     1
102
RTVSPost2010Prop48
 90
       50
102
RTVSPost2010PropOp48
 70
     1
102
RTVSPost2010Prop49
280
     0
102
RTVSPost2010PropOp49
 70
     1
102
RTVSPost2010Prop50
 90
       50
102
RTVSPost2010PropOp50
 70
     1
102
RTVSPost2010Prop51ColorIndex
 90
      256
102
RTVSPost2010Prop51ColorRGB
 90
-16777216
102
RTVSPost2010PropOp51
 70
     0
102
RTVSPost2010Prop52
140
1.0
102
RTVSPost2010PropOp52
 70
     0
102
RTVSPost2010Prop53
 90
        2
102
RTVSPost2010PropOp53
 70
     1
102
RTVSPost2010Prop54
  1
strokes_ogs.tif
102
RTVSPost2010PropOp54
 70
     1
102
RTVSPost2010Prop55
280
     0
102
RTVSPost2010PropOp55
 70
     1
102
RTVSPost2010Prop56
140
1.0
102
RTVSPost2010PropOp56
 70
     1
102
RTVSPost2010Prop57
140
1.0
102
RTVSPost2010PropOp57
 70
     1
102
RTVSPropertyOp0
 70
     1
102
RTVSPropertyOp1
 70
     1
102
RTVSPropertyOp2
 70
     1
102
RTVSPropertyOp3
 70
     1
102
RTVSPropertyOp4
 70
     1
102
RTVSPropertyOp5
 70
     1
102
RTVSPropertyOp6
 70
     1
102
RTVSPropertyOp7
 70
     1
102
RTVSPropertyOp8
 70
     1
102
RTVSPropertyOp9
 70
     1
102
RTVSPropertyOp10
 70
     1
102
RTVSPropertyOp11
 70
     1
102
RTVSPropertyOp12
 70
     1
102
RTVSPropertyOp13
 70
     1
102
RTVSPropertyOp14
 70
     1
102
RTVSPropertyOp15
 70
     1
102
RTVSPropertyOp16
 70
     1
102
RTVSPropertyOp17
 70
     1
102
RTVSPropertyOp18
 70
     1
102
RTVSPropertyOp19
 70
     1
102
RTVSPropertyOp20
 70
     1
102
RTVSPropertyOp21
 70
     1
102
RTVSPropertyOp22
 70
     1
102
RTVSPropertyOp23
 70
     1
102
RTVSPropertyOp24
 70
     1
102
RTVSPropertyOp25
 70
     1
102
RTVSPropertyOp26
 70
     1
102
RTVSPropertyOp27
 70
     1
102
RTVSPropertyOp28
 70
     1
102
RTVSPropertyOp29
 70
     1
102
RTVSPropertyOp30
 70
     1
102
RTVSPropertyOp31
 70
     1
102
RTVSPropertyOp32
 70
     1
102
RTVSPropertyOp33
 70
     1
102
RTVSPropertyOp34
 70
     1
102
RTVSPropertyOp35
 70
     1
102
RTVSPropertyOp36
 70
     1
102
RTVSPropertyOp37
 70
     1
102
RTVSPropertyOp38
 70
     1
102
RTVSPropertyOp39
 70
     1
102
RTVSPropertyOp40
 70
     1
102
RTVSPropertyOp41
 70
     1
102
RTVSPropertyOp42
 70
     1
102
RTVSPropertyOp43
 70
     1
102
RTVSPropertyOp44
 70
     1
102
RTVSPropertyOp45
 70
     1
102
RTVSPropertyOp46
 70
     1
102
RTVSPropertyOp47
 70
     1
102
RTVSPropertyOp48
 70
     1
102
RTVSPropertyOp49
 70
     1
102
RTVSPropertyOp50
 70
     1
102
RTVSPropertyOp51
 70
     0
102
RTVSPropertyOp52
 70
     0
102
RTVSPropertyOp53
 70
     1
102
RTVSPropertyOp54
 70
     1
102
RTVSPropertyOp55
 70
     1
102
RTVSPropertyOp56
 70
     1
102
RTVSPropertyOp57
 70
     1
102
RTVSPropertyOp58
 70
     1
102
RTVSPropertyOp59
 70
     1
102
RTVSPropertyOp60
 70
     1
102
RTVSPropertyOp61
 70
     1
102
RTVSPropertyOp62
 70
     1
  0
XRECORD
  5
2A9
102
{ACAD_REACTORS
330
2A8
102
}
330
2A8
100
AcDbXrecord
280
     1
102
RTVSPost2010Prop28
280
     0
102
RTVSPost2010PropOp28
 70
     1
102
RTVSPost2010Prop29
280
     1
102
RTVSPost2010PropOp29
 70
     1
102
RTVSPost2010Prop30
280
     1
102
RTVSPost2010PropOp30
 70
     1
102
RTVSPost2010Prop31
280
     0
102
RTVSPost2010PropOp31
 70
     1
102
RTVSPost2010Prop32
280
     0
102
RTVSPost2010PropOp32
 70
     1
102
RTVSPost2010Prop33
280
     0
102
RTVSPost2010PropOp33
 70
     1
102
RTVSPost2010Prop34
280
     0
102
RTVSPost2010PropOp34
 70
     1
102
RTVSPost2010Prop35
280
     0
102
RTVSPost2010PropOp35
 70
     1
102
RTVSPost2010Prop36
280
     0
102
RTVSPost2010PropOp36
 70
     1
102
RTVSPost2010Prop37
 90
       50
102
RTVSPost2010PropOp37
 70
     1
102
RTVSPost2010Prop38
140
0.0
102
RTVSPost2010PropOp38
 70
     1
102
RTVSPost2010Prop39
140
1.0
102
RTVSPost2010PropOp39
 70
     1
102
RTVSPost2010Prop40
 90
        0
102
RTVSPost2010PropOp40
 70
     1
102
RTVSPost2010Prop41ColorIndex
 90
       18
102
RTVSPost2010Prop41ColorRGB
 90
        0
102
RTVSPost2010PropOp41
 70
     1
102
RTVSPost2010Prop42
 90
       50
102
RTVSPost2010PropOp42
 70
     1
102
RTVSPost2010Prop43
 90
        3
102
RTVSPost2010PropOp43
 70
     1
102
RTVSPost2010Prop44ColorIndex
 90
        5
102
RTVSPost2010Prop44ColorRGB
 90
      255
102
RTVSPost2010PropOp44
 70
     1
102
RTVSPost2010Prop45
280
     0
102
RTVSPost2010PropOp45
 70
     1
102
RTVSPost2010Prop46
 90
       50
102
RTVSPost2010PropOp46
 70
     1
102
RTVSPost2010Prop47
 90
       50
102
RTVSPost2010PropOp47
 70
     1
102
RTVSPost2010Prop48
 90
       50
102
RTVSPost2010PropOp48
 70
     1
102
RTVSPost2010Prop49
280
     0
102
RTVSPost2010PropOp49
 70
     1
102
RTVSPost2010Prop50
 90
       50
102
RTVSPost2010PropOp50
 70
     1
102
RTVSPost2010Prop51ColorIndex
 90
      256
102
RTVSPost2010Prop51ColorRGB
 90
-16777216
102
RTVSPost2010PropOp51
 70
     0
102
RTVSPost2010Prop52
140
1.0
102
RTVSPost2010PropOp52
 70
     0
102
RTVSPost2010Prop53
 90
        2
102
RTVSPost2010PropOp53
 70
     1
102
RTVSPost2010Prop54
  1
strokes_ogs.tif
102
RTVSPost2010PropOp54
 70
     1
102
RTVSPost2010Prop55
280
     0
102
RTVSPost2010PropOp55
 70
     1
102
RTVSPost2010Prop56
140
1.0
102
RTVSPost2010PropOp56
 70
     1
102
RTVSPost2010Prop57
140
1.0
102
RTVSPost2010PropOp57
 70
     1
102
RTVSPropertyOp0
 70
     1
102
RTVSPropertyOp1
 70
     1
102
RTVSPropertyOp2
 70
     1
102
RTVSPropertyOp3
 70
     1
102
RTVSPropertyOp4
 70
     1
102
RTVSPropertyOp5
 70
     1
102
RTVSPropertyOp6
 70
     1
102
RTVSPropertyOp7
 70
     1
102
RTVSPropertyOp8
 70
     1
102
RTVSPropertyOp9
 70
     1
102
RTVSPropertyOp10
 70
     1
102
RTVSPropertyOp11
 70
     1
102
RTVSPropertyOp12
 70
     1
102
RTVSPropertyOp13
 70
     1
102
RTVSPropertyOp14
 70
     1
102
RTVSPropertyOp15
 70
     1
102
RTVSPropertyOp16
 70
     1
102
RTVSPropertyOp17
 70
     1
102
RTVSPropertyOp18
 70
     1
102
RTVSPropertyOp19
 70
     1
102
RTVSPropertyOp20
 70
     1
102
RTVSPropertyOp21
 70
     1
102
RTVSPropertyOp22
 70
     1
102
RTVSPropertyOp23
 70
     1
102
RTVSPropertyOp24
 70
     1
102
RTVSPropertyOp25
 70
     1
102
RTVSPropertyOp26
 70
     1
102
RTVSPropertyOp27
 70
     1
102
RTVSPropertyOp28
 70
     1
102
RTVSPropertyOp29
 70
     1
102
RTVSPropertyOp30
 70
     1
102
RTVSPropertyOp31
 70
     1
102
RTVSPropertyOp32
 70
     1
102
RTVSPropertyOp33
 70
     1
102
RTVSPropertyOp34
 70
     1
102
RTVSPropertyOp35
 70
     1
102
RTVSPropertyOp36
 70
     1
102
RTVSPropertyOp37
 70
     1
102
RTVSPropertyOp38
 70
     1
102
RTVSPropertyOp39
 70
     1
102
RTVSPropertyOp40
 70
     1
102
RTVSPropertyOp41
 70
     1
102
RTVSPropertyOp42
 70
     1
102
RTVSPropertyOp43
 70
     1
102
RTVSPropertyOp44
 70
     1
102
RTVSPropertyOp45
 70
     1
102
RTVSPropertyOp46
 70
     1
102
RTVSPropertyOp47
 70
     1
102
RTVSPropertyOp48
 70
     1
102
RTVSPropertyOp49
 70
     1
102
RTVSPropertyOp50
 70
     1
102
RTVSPropertyOp51
 70
     0
102
RTVSPropertyOp52
 70
     0
102
RTVSPropertyOp53
 70
     1
102
RTVSPropertyOp54
 70
     1
102
RTVSPropertyOp55
 70
     1
102
RTVSPropertyOp56
 70
     1
102
RTVSPropertyOp57
 70
     1
102
RTVSPropertyOp58
 70
     1
102
RTVSPropertyOp59
 70
     1
102
RTVSPropertyOp60
 70
     1
102
RTVSPropertyOp61
 70
     1
102
RTVSPropertyOp62
 70
     1
  0
XRECORD
  5
2AB
102
{ACAD_REACTORS
330
2AA
102
}
330
2AA
100
AcDbXrecord
280
     1
102
RTVSPost2010Prop28
280
     0
102
RTVSPost2010PropOp28
 70
     1
102
RTVSPost2010Prop29
280
     1
102
RTVSPost2010PropOp29
 70
     1
102
RTVSPost2010Prop30
280
     1
102
RTVSPost2010PropOp30
 70
     1
102
RTVSPost2010Prop31
280
     0
102
RTVSPost2010PropOp31
 70
     1
102
RTVSPost2010Prop32
280
     0
102
RTVSPost2010PropOp32
 70
     1
102
RTVSPost2010Prop33
280
     0
102
RTVSPost2010PropOp33
 70
     1
102
RTVSPost2010Prop34
280
     0
102
RTVSPost2010PropOp34
 70
     1
102
RTVSPost2010Prop35
280
     0
102
RTVSPost2010PropOp35
 70
     1
102
RTVSPost2010Prop36
280
     0
102
RTVSPost2010PropOp36
 70
     1
102
RTVSPost2010Prop37
 90
       50
102
RTVSPost2010PropOp37
 70
     1
102
RTVSPost2010Prop38
140
0.0
102
RTVSPost2010PropOp38
 70
     1
102
RTVSPost2010Prop39
140
1.0
102
RTVSPost2010PropOp39
 70
     1
102
RTVSPost2010Prop40
 90
        0
102
RTVSPost2010PropOp40
 70
     1
102
RTVSPost2010Prop41ColorIndex
 90
       18
102
RTVSPost2010Prop41ColorRGB
 90
        0
102
RTVSPost2010PropOp41
 70
     1
102
RTVSPost2010Prop42
 90
       50
102
RTVSPost2010PropOp42
 70
     1
102
RTVSPost2010Prop43
 90
        3
102
RTVSPost2010PropOp43
 70
     1
102
RTVSPost2010Prop44ColorIndex
 90
        5
102
RTVSPost2010Prop44ColorRGB
 90
      255
102
RTVSPost2010PropOp44
 70
     1
102
RTVSPost2010Prop45
280
     0
102
RTVSPost2010PropOp45
 70
     1
102
RTVSPost2010Prop46
 90
       50
102
RTVSPost2010PropOp46
 70
     1
102
RTVSPost2010Prop47
 90
       50
102
RTVSPost2010PropOp47
 70
     1
102
RTVSPost2010Prop48
 90
       50
102
RTVSPost2010PropOp48
 70
     1
102
RTVSPost2010Prop49
280
     0
102
RTVSPost2010PropOp49
 70
     1
102
RTVSPost2010Prop50
 90
       50
102
RTVSPost2010PropOp50
 70
     1
102
RTVSPost2010Prop51ColorIndex
 90
      256
102
RTVSPost2010Prop51ColorRGB
 90
-16777216
102
RTVSPost2010PropOp51
 70
     0
102
RTVSPost2010Prop52
140
1.0
102
RTVSPost2010PropOp52
 70
     0
102
RTVSPost2010Prop53
 90
        2
102
RTVSPost2010PropOp53
 70
     1
102
RTVSPost2010Prop54
  1
strokes_ogs.tif
102
RTVSPost2010PropOp54
 70
     1
102
RTVSPost2010Prop55
280
     0
102
RTVSPost2010PropOp55
 70
     1
102
RTVSPost2010Prop56
140
1.0
102
RTVSPost2010PropOp56
 70
     1
102
RTVSPost2010Prop57
140
1.0
102
RTVSPost2010PropOp57
 70
     1
102
RTVSPropertyOp0
 70
     1
102
RTVSPropertyOp1
 70
     1
102
RTVSPropertyOp2
 70
     1
102
RTVSPropertyOp3
 70
     1
102
RTVSPropertyOp4
 70
     1
102
RTVSPropertyOp5
 70
     1
102
RTVSPropertyOp6
 70
     1
102
RTVSPropertyOp7
 70
     1
102
RTVSPropertyOp8
 70
     1
102
RTVSPropertyOp9
 70
     1
102
RTVSPropertyOp10
 70
     1
102
RTVSPropertyOp11
 70
     1
102
RTVSPropertyOp12
 70
     1
102
RTVSPropertyOp13
 70
     1
102
RTVSPropertyOp14
 70
     1
102
RTVSPropertyOp15
 70
     1
102
RTVSPropertyOp16
 70
     1
102
RTVSPropertyOp17
 70
     1
102
RTVSPropertyOp18
 70
     1
102
RTVSPropertyOp19
 70
     1
102
RTVSPropertyOp20
 70
     1
102
RTVSPropertyOp21
 70
     1
102
RTVSPropertyOp22
 70
     1
102
RTVSPropertyOp23
 70
     1
102
RTVSPropertyOp24
 70
     1
102
RTVSPropertyOp25
 70
     1
102
RTVSPropertyOp26
 70
     1
102
RTVSPropertyOp27
 70
     1
102
RTVSPropertyOp28
 70
     1
102
RTVSPropertyOp29
 70
     1
102
RTVSPropertyOp30
 70
     1
102
RTVSPropertyOp31
 70
     1
102
RTVSPropertyOp32
 70
     1
102
RTVSPropertyOp33
 70
     1
102
RTVSPropertyOp34
 70
     1
102
RTVSPropertyOp35
 70
     1
102
RTVSPropertyOp36
 70
     1
102
RTVSPropertyOp37
 70
     1
102
RTVSPropertyOp38
 70
     1
102
RTVSPropertyOp39
 70
     1
102
RTVSPropertyOp40
 70
     1
102
RTVSPropertyOp41
 70
     1
102
RTVSPropertyOp42
 70
     1
102
RTVSPropertyOp43
 70
     1
102
RTVSPropertyOp44
 70
     1
102
RTVSPropertyOp45
 70
     1
102
RTVSPropertyOp46
 70
     1
102
RTVSPropertyOp47
 70
     1
102
RTVSPropertyOp48
 70
     1
102
RTVSPropertyOp49
 70
     1
102
RTVSPropertyOp50
 70
     1
102
RTVSPropertyOp51
 70
     0
102
RTVSPropertyOp52
 70
     0
102
RTVSPropertyOp53
 70
     1
102
RTVSPropertyOp54
 70
     1
102
RTVSPropertyOp55
 70
     1
102
RTVSPropertyOp56
 70
     1
102
RTVSPropertyOp57
 70
     1
102
RTVSPropertyOp58
 70
     1
102
RTVSPropertyOp59
 70
     1
102
RTVSPropertyOp60
 70
     1
102
RTVSPropertyOp61
 70
     1
102
RTVSPropertyOp62
 70
     1
  0
XRECORD
  5
2B3
102
{ACAD_REACTORS
330
2B2
102
}
330
2B2
100
AcDbXrecord
280
     1
102
RTVSPost2010Prop28
280
     0
102
RTVSPost2010PropOp28
 70
     1
102
RTVSPost2010Prop29
280
     1
102
RTVSPost2010PropOp29
 70
     1
102
RTVSPost2010Prop30
280
     1
102
RTVSPost2010PropOp30
 70
     1
102
RTVSPost2010Prop31
280
     0
102
RTVSPost2010PropOp31
 70
     1
102
RTVSPost2010Prop32
280
     0
102
RTVSPost2010PropOp32
 70
     1
102
RTVSPost2010Prop33
280
     0
102
RTVSPost2010PropOp33
 70
     1
102
RTVSPost2010Prop34
280
     0
102
RTVSPost2010PropOp34
 70
     1
102
RTVSPost2010Prop35
280
     0
102
RTVSPost2010PropOp35
 70
     1
102
RTVSPost2010Prop36
280
     0
102
RTVSPost2010PropOp36
 70
     1
102
RTVSPost2010Prop37
 90
       50
102
RTVSPost2010PropOp37
 70
     1
102
RTVSPost2010Prop38
140
0.0
102
RTVSPost2010PropOp38
 70
     1
102
RTVSPost2010Prop39
140
1.0
102
RTVSPost2010PropOp39
 70
     1
102
RTVSPost2010Prop40
 90
        0
102
RTVSPost2010PropOp40
 70
     1
102
RTVSPost2010Prop41ColorIndex
 90
       18
102
RTVSPost2010Prop41ColorRGB
 90
        0
102
RTVSPost2010PropOp41
 70
     1
102
RTVSPost2010Prop42
 90
       50
102
RTVSPost2010PropOp42
 70
     1
102
RTVSPost2010Prop43
 90
        3
102
RTVSPost2010PropOp43
 70
     1
102
RTVSPost2010Prop44ColorIndex
 90
        5
102
RTVSPost2010Prop44ColorRGB
 90
      255
102
RTVSPost2010PropOp44
 70
     1
102
RTVSPost2010Prop45
280
     0
102
RTVSPost2010PropOp45
 70
     1
102
RTVSPost2010Prop46
 90
       50
102
RTVSPost2010PropOp46
 70
     1
102
RTVSPost2010Prop47
 90
       50
102
RTVSPost2010PropOp47
 70
     1
102
RTVSPost2010Prop48
 90
       50
102
RTVSPost2010PropOp48
 70
     1
102
RTVSPost2010Prop49
280
     0
102
RTVSPost2010PropOp49
 70
     1
102
RTVSPost2010Prop50
 90
       50
102
RTVSPost2010PropOp50
 70
     1
102
RTVSPost2010Prop51ColorIndex
 90
      256
102
RTVSPost2010Prop51ColorRGB
 90
-16777216
102
RTVSPost2010PropOp51
 70
     0
102
RTVSPost2010Prop52
140
1.0
102
RTVSPost2010PropOp52
 70
     0
102
RTVSPost2010Prop53
 90
        2
102
RTVSPost2010PropOp53
 70
     1
102
RTVSPost2010Prop54
  1
strokes_ogs.tif
102
RTVSPost2010PropOp54
 70
     1
102
RTVSPost2010Prop55
280
     0
102
RTVSPost2010PropOp55
 70
     1
102
RTVSPost2010Prop56
140
1.0
102
RTVSPost2010PropOp56
 70
     1
102
RTVSPost2010Prop57
140
1.0
102
RTVSPost2010PropOp57
 70
     1
102
RTVSPropertyOp0
 70
     1
102
RTVSPropertyOp1
 70
     1
102
RTVSPropertyOp2
 70
     1
102
RTVSPropertyOp3
 70
     1
102
RTVSPropertyOp4
 70
     1
102
RTVSPropertyOp5
 70
     1
102
RTVSPropertyOp6
 70
     1
102
RTVSPropertyOp7
 70
     1
102
RTVSPropertyOp8
 70
     1
102
RTVSPropertyOp9
 70
     1
102
RTVSPropertyOp10
 70
     1
102
RTVSPropertyOp11
 70
     1
102
RTVSPropertyOp12
 70
     1
102
RTVSPropertyOp13
 70
     1
102
RTVSPropertyOp14
 70
     1
102
RTVSPropertyOp15
 70
     1
102
RTVSPropertyOp16
 70
     1
102
RTVSPropertyOp17
 70
     1
102
RTVSPropertyOp18
 70
     1
102
RTVSPropertyOp19
 70
     1
102
RTVSPropertyOp20
 70
     1
102
RTVSPropertyOp21
 70
     1
102
RTVSPropertyOp22
 70
     1
102
RTVSPropertyOp23
 70
     1
102
RTVSPropertyOp24
 70
     1
102
RTVSPropertyOp25
 70
     1
102
RTVSPropertyOp26
 70
     1
102
RTVSPropertyOp27
 70
     1
102
RTVSPropertyOp28
 70
     1
102
RTVSPropertyOp29
 70
     1
102
RTVSPropertyOp30
 70
     1
102
RTVSPropertyOp31
 70
     1
102
RTVSPropertyOp32
 70
     1
102
RTVSPropertyOp33
 70
     1
102
RTVSPropertyOp34
 70
     1
102
RTVSPropertyOp35
 70
     1
102
RTVSPropertyOp36
 70
     1
102
RTVSPropertyOp37
 70
     1
102
RTVSPropertyOp38
 70
     1
102
RTVSPropertyOp39
 70
     1
102
RTVSPropertyOp40
 70
     1
102
RTVSPropertyOp41
 70
     1
102
RTVSPropertyOp42
 70
     1
102
RTVSPropertyOp43
 70
     1
102
RTVSPropertyOp44
 70
     1
102
RTVSPropertyOp45
 70
     1
102
RTVSPropertyOp46
 70
     1
102
RTVSPropertyOp47
 70
     1
102
RTVSPropertyOp48
 70
     1
102
RTVSPropertyOp49
 70
     1
102
RTVSPropertyOp50
 70
     1
102
RTVSPropertyOp51
 70
     0
102
RTVSPropertyOp52
 70
     0
102
RTVSPropertyOp53
 70
     1
102
RTVSPropertyOp54
 70
     1
102
RTVSPropertyOp55
 70
     1
102
RTVSPropertyOp56
 70
     1
102
RTVSPropertyOp57
 70
     1
102
RTVSPropertyOp58
 70
     1
102
RTVSPropertyOp59
 70
     1
102
RTVSPropertyOp60
 70
     1
102
RTVSPropertyOp61
 70
     1
102
RTVSPropertyOp62
 70
     1
  0
XRECORD
  5
2CF
102
{ACAD_REACTORS
330
2CE
102
}
330
2CE
100
AcDbXrecord
280
     1
102
RTVSPost2010Prop28
280
     0
102
RTVSPost2010PropOp28
 70
     1
102
RTVSPost2010Prop29
280
     1
102
RTVSPost2010PropOp29
 70
     1
102
RTVSPost2010Prop30
280
     1
102
RTVSPost2010PropOp30
 70
     1
102
RTVSPost2010Prop31
280
     0
102
RTVSPost2010PropOp31
 70
     1
102
RTVSPost2010Prop32
280
     0
102
RTVSPost2010PropOp32
 70
     1
102
RTVSPost2010Prop33
280
     0
102
RTVSPost2010PropOp33
 70
     1
102
RTVSPost2010Prop34
280
     0
102
RTVSPost2010PropOp34
 70
     1
102
RTVSPost2010Prop35
280
     0
102
RTVSPost2010PropOp35
 70
     1
102
RTVSPost2010Prop36
280
     0
102
RTVSPost2010PropOp36
 70
     1
102
RTVSPost2010Prop37
 90
       50
102
RTVSPost2010PropOp37
 70
     0
102
RTVSPost2010Prop38
140
0.0
102
RTVSPost2010PropOp38
 70
     0
102
RTVSPost2010Prop39
140
1.0
102
RTVSPost2010PropOp39
 70
     0
102
RTVSPost2010Prop40
 90
        0
102
RTVSPost2010PropOp40
 70
     0
102
RTVSPost2010Prop41ColorIndex
 90
       18
102
RTVSPost2010Prop41ColorRGB
 90
        0
102
RTVSPost2010PropOp41
 70
     0
102
RTVSPost2010Prop42
 90
       50
102
RTVSPost2010PropOp42
 70
     0
102
RTVSPost2010Prop43
 90
        3
102
RTVSPost2010PropOp43
 70
     0
102
RTVSPost2010Prop44ColorIndex
 90
        5
102
RTVSPost2010Prop44ColorRGB
 90
      255
102
RTVSPost2010PropOp44
 70
     0
102
RTVSPost2010Prop45
280
     0
102
RTVSPost2010PropOp45
 70
     1
102
RTVSPost2010Prop46
 90
       50
102
RTVSPost2010PropOp46
 70
     0
102
RTVSPost2010Prop47
 90
       50
102
RTVSPost2010PropOp47
 70
     0
102
RTVSPost2010Prop48
 90
       50
102
RTVSPost2010PropOp48
 70
     0
102
RTVSPost2010Prop49
280
     0
102
RTVSPost2010PropOp49
 70
     1
102
RTVSPost2010Prop50
 90
       50
102
RTVSPost2010PropOp50
 70
     0
102
RTVSPost2010Prop51ColorIndex
 90
      256
102
RTVSPost2010Prop51ColorRGB
 90
-16777216
102
RTVSPost2010PropOp51
 70
     0
102
RTVSPost2010Prop52
140
1.0
102
RTVSPost2010PropOp52
 70
     0
102
RTVSPost2010Prop53
 90
        2
102
RTVSPost2010PropOp53
 70
     0
102
RTVSPost2010Prop54
  1
strokes_ogs.tif
102
RTVSPost2010PropOp54
 70
     0
102
RTVSPost2010Prop55
280
     0
102
RTVSPost2010PropOp55
 70
     1
102
RTVSPost2010Prop56
140
1.0
102
RTVSPost2010PropOp56
 70
     0
102
RTVSPost2010Prop57
140
1.0
102
RTVSPost2010PropOp57
 70
     0
102
RTVSPropertyOp0
 70
     0
102
RTVSPropertyOp1
 70
     0
102
RTVSPropertyOp2
 70
     0
102
RTVSPropertyOp3
 70
     0
102
RTVSPropertyOp4
 70
     0
102
RTVSPropertyOp5
 70
     0
102
RTVSPropertyOp6
 70
     0
102
RTVSPropertyOp7
 70
     0
102
RTVSPropertyOp8
 70
     0
102
RTVSPropertyOp9
 70
     0
102
RTVSPropertyOp10
 70
     0
102
RTVSPropertyOp11
 70
     0
102
RTVSPropertyOp12
 70
     0
102
RTVSPropertyOp13
 70
     0
102
RTVSPropertyOp14
 70
     2
102
RTVSPropertyOp15
 70
     0
102
RTVSPropertyOp16
 70
     0
102
RTVSPropertyOp17
 70
     0
102
RTVSPropertyOp18
 70
     0
102
RTVSPropertyOp19
 70
     0
102
RTVSPropertyOp20
 70
     0
102
RTVSPropertyOp21
 70
     0
102
RTVSPropertyOp22
 70
     0
102
RTVSPropertyOp23
 70
     0
102
RTVSPropertyOp24
 70
     0
102
RTVSPropertyOp25
 70
     0
102
RTVSPropertyOp26
 70
     0
102
RTVSPropertyOp27
 70
     0
102
RTVSPropertyOp28
 70
     1
102
RTVSPropertyOp29
 70
     1
102
RTVSPropertyOp30
 70
     1
102
RTVSPropertyOp31
 70
     1
102
RTVSPropertyOp32
 70
     1
102
RTVSPropertyOp33
 70
     1
102
RTVSPropertyOp34
 70
     1
102
RTVSPropertyOp35
 70
     1
102
RTVSPropertyOp36
 70
     1
102
RTVSPropertyOp37
 70
     0
102
RTVSPropertyOp38
 70
     0
102
RTVSPropertyOp39
 70
     0
102
RTVSPropertyOp40
 70
     0
102
RTVSPropertyOp41
 70
     0
102
RTVSPropertyOp42
 70
     0
102
RTVSPropertyOp43
 70
     0
102
RTVSPropertyOp44
 70
     0
102
RTVSPropertyOp45
 70
     1
102
RTVSPropertyOp46
 70
     0
102
RTVSPropertyOp47
 70
     0
102
RTVSPropertyOp48
 70
     0
102
RTVSPropertyOp49
 70
     1
102
RTVSPropertyOp50
 70
     0
102
RTVSPropertyOp51
 70
     0
102
RTVSPropertyOp52
 70
     0
102
RTVSPropertyOp53
 70
     0
102
RTVSPropertyOp54
 70
     0
102
RTVSPropertyOp55
 70
     1
102
RTVSPropertyOp56
 70
     0
102
RTVSPropertyOp57
 70
     0
102
RTVSPropertyOp58
 70
     0
102
RTVSPropertyOp59
 70
     0
102
RTVSPropertyOp60
 70
     0
102
RTVSPropertyOp61
 70
     0
102
RTVSPropertyOp62
 70
     0
  0
XRECORD
  5
2BF
102
{ACAD_REACTORS
330
2BE
102
}
330
2BE
100
AcDbXrecord
280
     1
102
RTVSPost2010Prop28
280
     0
102
RTVSPost2010PropOp28
 70
     1
102
RTVSPost2010Prop29
280
     1
102
RTVSPost2010PropOp29
 70
     1
102
RTVSPost2010Prop30
280
     1
102
RTVSPost2010PropOp30
 70
     1
102
RTVSPost2010Prop31
280
     0
102
RTVSPost2010PropOp31
 70
     1
102
RTVSPost2010Prop32
280
     0
102
RTVSPost2010PropOp32
 70
     1
102
RTVSPost2010Prop33
280
     0
102
RTVSPost2010PropOp33
 70
     1
102
RTVSPost2010Prop34
280
     0
102
RTVSPost2010PropOp34
 70
     1
102
RTVSPost2010Prop35
280
     0
102
RTVSPost2010PropOp35
 70
     1
102
RTVSPost2010Prop36
280
     0
102
RTVSPost2010PropOp36
 70
     1
102
RTVSPost2010Prop37
 90
       50
102
RTVSPost2010PropOp37
 70
     1
102
RTVSPost2010Prop38
140
0.0
102
RTVSPost2010PropOp38
 70
     1
102
RTVSPost2010Prop39
140
1.0
102
RTVSPost2010PropOp39
 70
     1
102
RTVSPost2010Prop40
 90
        0
102
RTVSPost2010PropOp40
 70
     1
102
RTVSPost2010Prop41ColorIndex
 90
       18
102
RTVSPost2010Prop41ColorRGB
 90
        0
102
RTVSPost2010PropOp41
 70
     1
102
RTVSPost2010Prop42
 90
       50
102
RTVSPost2010PropOp42
 70
     1
102
RTVSPost2010Prop43
 90
        3
102
RTVSPost2010PropOp43
 70
     1
102
RTVSPost2010Prop44ColorIndex
 90
        5
102
RTVSPost2010Prop44ColorRGB
 90
      255
102
RTVSPost2010PropOp44
 70
     1
102
RTVSPost2010Prop45
280
     0
102
RTVSPost2010PropOp45
 70
     1
102
RTVSPost2010Prop46
 90
       50
102
RTVSPost2010PropOp46
 70
     1
102
RTVSPost2010Prop47
 90
       50
102
RTVSPost2010PropOp47
 70
     1
102
RTVSPost2010Prop48
 90
       50
102
RTVSPost2010PropOp48
 70
     1
102
RTVSPost2010Prop49
280
     0
102
RTVSPost2010PropOp49
 70
     1
102
RTVSPost2010Prop50
 90
       50
102
RTVSPost2010PropOp50
 70
     1
102
RTVSPost2010Prop51ColorIndex
 90
      256
102
RTVSPost2010Prop51ColorRGB
 90
-16777216
102
RTVSPost2010PropOp51
 70
     0
102
RTVSPost2010Prop52
140
1.0
102
RTVSPost2010PropOp52
 70
     0
102
RTVSPost2010Prop53
 90
        2
102
RTVSPost2010PropOp53
 70
     1
102
RTVSPost2010Prop54
  1
strokes_ogs.tif
102
RTVSPost2010PropOp54
 70
     1
102
RTVSPost2010Prop55
280
     0
102
RTVSPost2010PropOp55
 70
     1
102
RTVSPost2010Prop56
140
1.0
102
RTVSPost2010PropOp56
 70
     1
102
RTVSPost2010Prop57
140
1.0
102
RTVSPost2010PropOp57
 70
     1
102
RTVSPropertyOp0
 70
     1
102
RTVSPropertyOp1
 70
     1
102
RTVSPropertyOp2
 70
     1
102
RTVSPropertyOp3
 70
     1
102
RTVSPropertyOp4
 70
     1
102
RTVSPropertyOp5
 70
     1
102
RTVSPropertyOp6
 70
     1
102
RTVSPropertyOp7
 70
     1
102
RTVSPropertyOp8
 70
     1
102
RTVSPropertyOp9
 70
     1
102
RTVSPropertyOp10
 70
     1
102
RTVSPropertyOp11
 70
     1
102
RTVSPropertyOp12
 70
     1
102
RTVSPropertyOp13
 70
     1
102
RTVSPropertyOp14
 70
     1
102
RTVSPropertyOp15
 70
     1
102
RTVSPropertyOp16
 70
     1
102
RTVSPropertyOp17
 70
     1
102
RTVSPropertyOp18
 70
     1
102
RTVSPropertyOp19
 70
     1
102
RTVSPropertyOp20
 70
     1
102
RTVSPropertyOp21
 70
     1
102
RTVSPropertyOp22
 70
     1
102
RTVSPropertyOp23
 70
     1
102
RTVSPropertyOp24
 70
     1
102
RTVSPropertyOp25
 70
     1
102
RTVSPropertyOp26
 70
     1
102
RTVSPropertyOp27
 70
     1
102
RTVSPropertyOp28
 70
     1
102
RTVSPropertyOp29
 70
     1
102
RTVSPropertyOp30
 70
     1
102
RTVSPropertyOp31
 70
     1
102
RTVSPropertyOp32
 70
     1
102
RTVSPropertyOp33
 70
     1
102
RTVSPropertyOp34
 70
     1
102
RTVSPropertyOp35
 70
     1
102
RTVSPropertyOp36
 70
     1
102
RTVSPropertyOp37
 70
     1
102
RTVSPropertyOp38
 70
     1
102
RTVSPropertyOp39
 70
     1
102
RTVSPropertyOp40
 70
     1
102
RTVSPropertyOp41
 70
     1
102
RTVSPropertyOp42
 70
     1
102
RTVSPropertyOp43
 70
     1
102
RTVSPropertyOp44
 70
     1
102
RTVSPropertyOp45
 70
     1
102
RTVSPropertyOp46
 70
     1
102
RTVSPropertyOp47
 70
     1
102
RTVSPropertyOp48
 70
     1
102
RTVSPropertyOp49
 70
     1
102
RTVSPropertyOp50
 70
     1
102
RTVSPropertyOp51
 70
     0
102
RTVSPropertyOp52
 70
     0
102
RTVSPropertyOp53
 70
     1
102
RTVSPropertyOp54
 70
     1
102
RTVSPropertyOp55
 70
     1
102
RTVSPropertyOp56
 70
     1
102
RTVSPropertyOp57
 70
     1
102
RTVSPropertyOp58
 70
     1
102
RTVSPropertyOp59
 70
     1
102
RTVSPropertyOp60
 70
     1
102
RTVSPropertyOp61
 70
     1
102
RTVSPropertyOp62
 70
     1
  0
XRECORD
  5
2D1
102
{ACAD_REACTORS
330
2D0
102
}
330
2D0
100
AcDbXrecord
280
     1
102
RTVSPost2010Prop28
280
     0
102
RTVSPost2010PropOp28
 70
     1
102
RTVSPost2010Prop29
280
     1
102
RTVSPost2010PropOp29
 70
     1
102
RTVSPost2010Prop30
280
     1
102
RTVSPost2010PropOp30
 70
     1
102
RTVSPost2010Prop31
280
     0
102
RTVSPost2010PropOp31
 70
     1
102
RTVSPost2010Prop32
280
     0
102
RTVSPost2010PropOp32
 70
     1
102
RTVSPost2010Prop33
280
     0
102
RTVSPost2010PropOp33
 70
     1
102
RTVSPost2010Prop34
280
     0
102
RTVSPost2010PropOp34
 70
     1
102
RTVSPost2010Prop35
280
     0
102
RTVSPost2010PropOp35
 70
     1
102
RTVSPost2010Prop36
280
     0
102
RTVSPost2010PropOp36
 70
     1
102
RTVSPost2010Prop37
 90
       50
102
RTVSPost2010PropOp37
 70
     0
102
RTVSPost2010Prop38
140
0.0
102
RTVSPost2010PropOp38
 70
     0
102
RTVSPost2010Prop39
140
1.0
102
RTVSPost2010PropOp39
 70
     0
102
RTVSPost2010Prop40
 90
        0
102
RTVSPost2010PropOp40
 70
     0
102
RTVSPost2010Prop41ColorIndex
 90
       18
102
RTVSPost2010Prop41ColorRGB
 90
        0
102
RTVSPost2010PropOp41
 70
     0
102
RTVSPost2010Prop42
 90
       50
102
RTVSPost2010PropOp42
 70
     0
102
RTVSPost2010Prop43
 90
        3
102
RTVSPost2010PropOp43
 70
     0
102
RTVSPost2010Prop44ColorIndex
 90
        5
102
RTVSPost2010Prop44ColorRGB
 90
      255
102
RTVSPost2010PropOp44
 70
     0
102
RTVSPost2010Prop45
280
     0
102
RTVSPost2010PropOp45
 70
     1
102
RTVSPost2010Prop46
 90
       50
102
RTVSPost2010PropOp46
 70
     0
102
RTVSPost2010Prop47
 90
       50
102
RTVSPost2010PropOp47
 70
     0
102
RTVSPost2010Prop48
 90
       50
102
RTVSPost2010PropOp48
 70
     0
102
RTVSPost2010Prop49
280
     0
102
RTVSPost2010PropOp49
 70
     1
102
RTVSPost2010Prop50
 90
       50
102
RTVSPost2010PropOp50
 70
     0
102
RTVSPost2010Prop51ColorIndex
 90
      256
102
RTVSPost2010Prop51ColorRGB
 90
-16777216
102
RTVSPost2010PropOp51
 70
     0
102
RTVSPost2010Prop52
140
1.0
102
RTVSPost2010PropOp52
 70
     0
102
RTVSPost2010Prop53
 90
        2
102
RTVSPost2010PropOp53
 70
     0
102
RTVSPost2010Prop54
  1
strokes_ogs.tif
102
RTVSPost2010PropOp54
 70
     0
102
RTVSPost2010Prop55
280
     0
102
RTVSPost2010PropOp55
 70
     1
102
RTVSPost2010Prop56
140
1.0
102
RTVSPost2010PropOp56
 70
     0
102
RTVSPost2010Prop57
140
1.0
102
RTVSPost2010PropOp57
 70
     0
102
RTVSPropertyOp0
 70
     0
102
RTVSPropertyOp1
 70
     0
102
RTVSPropertyOp2
 70
     0
102
RTVSPropertyOp3
 70
     0
102
RTVSPropertyOp4
 70
     0
102
RTVSPropertyOp5
 70
     0
102
RTVSPropertyOp6
 70
     0
102
RTVSPropertyOp7
 70
     0
102
RTVSPropertyOp8
 70
     0
102
RTVSPropertyOp9
 70
     0
102
RTVSPropertyOp10
 70
     0
102
RTVSPropertyOp11
 70
     0
102
RTVSPropertyOp12
 70
     0
102
RTVSPropertyOp13
 70
     0
102
RTVSPropertyOp14
 70
     2
102
RTVSPropertyOp15
 70
     0
102
RTVSPropertyOp16
 70
     0
102
RTVSPropertyOp17
 70
     0
102
RTVSPropertyOp18
 70
     0
102
RTVSPropertyOp19
 70
     0
102
RTVSPropertyOp20
 70
     0
102
RTVSPropertyOp21
 70
     0
102
RTVSPropertyOp22
 70
     0
102
RTVSPropertyOp23
 70
     0
102
RTVSPropertyOp24
 70
     0
102
RTVSPropertyOp25
 70
     0
102
RTVSPropertyOp26
 70
     0
102
RTVSPropertyOp27
 70
     0
102
RTVSPropertyOp28
 70
     1
102
RTVSPropertyOp29
 70
     1
102
RTVSPropertyOp30
 70
     1
102
RTVSPropertyOp31
 70
     1
102
RTVSPropertyOp32
 70
     1
102
RTVSPropertyOp33
 70
     1
102
RTVSPropertyOp34
 70
     1
102
RTVSPropertyOp35
 70
     1
102
RTVSPropertyOp36
 70
     1
102
RTVSPropertyOp37
 70
     0
102
RTVSPropertyOp38
 70
     0
102
RTVSPropertyOp39
 70
     0
102
RTVSPropertyOp40
 70
     0
102
RTVSPropertyOp41
 70
     0
102
RTVSPropertyOp42
 70
     0
102
RTVSPropertyOp43
 70
     0
102
RTVSPropertyOp44
 70
     0
102
RTVSPropertyOp45
 70
     1
102
RTVSPropertyOp46
 70
     0
102
RTVSPropertyOp47
 70
     0
102
RTVSPropertyOp48
 70
     0
102
RTVSPropertyOp49
 70
     1
102
RTVSPropertyOp50
 70
     0
102
RTVSPropertyOp51
 70
     0
102
RTVSPropertyOp52
 70
     0
102
RTVSPropertyOp53
 70
     0
102
RTVSPropertyOp54
 70
     0
102
RTVSPropertyOp55
 70
     1
102
RTVSPropertyOp56
 70
     0
102
RTVSPropertyOp57
 70
     0
102
RTVSPropertyOp58
 70
     0
102
RTVSPropertyOp59
 70
     0
102
RTVSPropertyOp60
 70
     0
102
RTVSPropertyOp61
 70
     0
102
RTVSPropertyOp62
 70
     0
  0
XRECORD
  5
2B7
102
{ACAD_REACTORS
330
2B6
102
}
330
2B6
100
AcDbXrecord
280
     1
102
RTVSPost2010Prop28
280
     0
102
RTVSPost2010PropOp28
 70
     1
102
RTVSPost2010Prop29
280
     1
102
RTVSPost2010PropOp29
 70
     1
102
RTVSPost2010Prop30
280
     1
102
RTVSPost2010PropOp30
 70
     1
102
RTVSPost2010Prop31
280
     0
102
RTVSPost2010PropOp31
 70
     1
102
RTVSPost2010Prop32
280
     0
102
RTVSPost2010PropOp32
 70
     1
102
RTVSPost2010Prop33
280
     0
102
RTVSPost2010PropOp33
 70
     1
102
RTVSPost2010Prop34
280
     0
102
RTVSPost2010PropOp34
 70
     1
102
RTVSPost2010Prop35
280
     0
102
RTVSPost2010PropOp35
 70
     1
102
RTVSPost2010Prop36
280
     0
102
RTVSPost2010PropOp36
 70
     1
102
RTVSPost2010Prop37
 90
       50
102
RTVSPost2010PropOp37
 70
     1
102
RTVSPost2010Prop38
140
0.0
102
RTVSPost2010PropOp38
 70
     1
102
RTVSPost2010Prop39
140
1.0
102
RTVSPost2010PropOp39
 70
     1
102
RTVSPost2010Prop40
 90
        0
102
RTVSPost2010PropOp40
 70
     1
102
RTVSPost2010Prop41ColorIndex
 90
       18
102
RTVSPost2010Prop41ColorRGB
 90
        0
102
RTVSPost2010PropOp41
 70
     1
102
RTVSPost2010Prop42
 90
       50
102
RTVSPost2010PropOp42
 70
     1
102
RTVSPost2010Prop43
 90
        3
102
RTVSPost2010PropOp43
 70
     1
102
RTVSPost2010Prop44ColorIndex
 90
        5
102
RTVSPost2010Prop44ColorRGB
 90
      255
102
RTVSPost2010PropOp44
 70
     1
102
RTVSPost2010Prop45
280
     0
102
RTVSPost2010PropOp45
 70
     1
102
RTVSPost2010Prop46
 90
       50
102
RTVSPost2010PropOp46
 70
     1
102
RTVSPost2010Prop47
 90
       50
102
RTVSPost2010PropOp47
 70
     1
102
RTVSPost2010Prop48
 90
       50
102
RTVSPost2010PropOp48
 70
     1
102
RTVSPost2010Prop49
280
     0
102
RTVSPost2010PropOp49
 70
     1
102
RTVSPost2010Prop50
 90
       50
102
RTVSPost2010PropOp50
 70
     1
102
RTVSPost2010Prop51ColorIndex
 90
      256
102
RTVSPost2010Prop51ColorRGB
 90
-16777216
102
RTVSPost2010PropOp51
 70
     0
102
RTVSPost2010Prop52
140
1.0
102
RTVSPost2010PropOp52
 70
     0
102
RTVSPost2010Prop53
 90
        2
102
RTVSPost2010PropOp53
 70
     1
102
RTVSPost2010Prop54
  1
strokes_ogs.tif
102
RTVSPost2010PropOp54
 70
     1
102
RTVSPost2010Prop55
280
     0
102
RTVSPost2010PropOp55
 70
     1
102
RTVSPost2010Prop56
140
1.0
102
RTVSPost2010PropOp56
 70
     1
102
RTVSPost2010Prop57
140
1.0
102
RTVSPost2010PropOp57
 70
     1
102
RTVSPropertyOp0
 70
     1
102
RTVSPropertyOp1
 70
     1
102
RTVSPropertyOp2
 70
     1
102
RTVSPropertyOp3
 70
     1
102
RTVSPropertyOp4
 70
     1
102
RTVSPropertyOp5
 70
     1
102
RTVSPropertyOp6
 70
     1
102
RTVSPropertyOp7
 70
     1
102
RTVSPropertyOp8
 70
     1
102
RTVSPropertyOp9
 70
     1
102
RTVSPropertyOp10
 70
     1
102
RTVSPropertyOp11
 70
     1
102
RTVSPropertyOp12
 70
     1
102
RTVSPropertyOp13
 70
     1
102
RTVSPropertyOp14
 70
     1
102
RTVSPropertyOp15
 70
     1
102
RTVSPropertyOp16
 70
     1
102
RTVSPropertyOp17
 70
     1
102
RTVSPropertyOp18
 70
     1
102
RTVSPropertyOp19
 70
     1
102
RTVSPropertyOp20
 70
     1
102
RTVSPropertyOp21
 70
     1
102
RTVSPropertyOp22
 70
     1
102
RTVSPropertyOp23
 70
     1
102
RTVSPropertyOp24
 70
     1
102
RTVSPropertyOp25
 70
     1
102
RTVSPropertyOp26
 70
     1
102
RTVSPropertyOp27
 70
     1
102
RTVSPropertyOp28
 70
     1
102
RTVSPropertyOp29
 70
     1
102
RTVSPropertyOp30
 70
     1
102
RTVSPropertyOp31
 70
     1
102
RTVSPropertyOp32
 70
     1
102
RTVSPropertyOp33
 70
     1
102
RTVSPropertyOp34
 70
     1
102
RTVSPropertyOp35
 70
     1
102
RTVSPropertyOp36
 70
     1
102
RTVSPropertyOp37
 70
     1
102
RTVSPropertyOp38
 70
     1
102
RTVSPropertyOp39
 70
     1
102
RTVSPropertyOp40
 70
     1
102
RTVSPropertyOp41
 70
     1
102
RTVSPropertyOp42
 70
     1
102
RTVSPropertyOp43
 70
     1
102
RTVSPropertyOp44
 70
     1
102
RTVSPropertyOp45
 70
     1
102
RTVSPropertyOp46
 70
     1
102
RTVSPropertyOp47
 70
     1
102
RTVSPropertyOp48
 70
     1
102
RTVSPropertyOp49
 70
     1
102
RTVSPropertyOp50
 70
     1
102
RTVSPropertyOp51
 70
     0
102
RTVSPropertyOp52
 70
     0
102
RTVSPropertyOp53
 70
     1
102
RTVSPropertyOp54
 70
     1
102
RTVSPropertyOp55
 70
     1
102
RTVSPropertyOp56
 70
     1
102
RTVSPropertyOp57
 70
     1
102
RTVSPropertyOp58
 70
     1
102
RTVSPropertyOp59
 70
     1
102
RTVSPropertyOp60
 70
     1
102
RTVSPropertyOp61
 70
     1
102
RTVSPropertyOp62
 70
     1
  0
XRECORD
  5
2CD
102
{ACAD_REACTORS
330
2CC
102
}
330
2CC
100
AcDbXrecord
280
     1
102
RTVSPost2010Prop28
280
     0
102
RTVSPost2010PropOp28
 70
     1
102
RTVSPost2010Prop29
280
     1
102
RTVSPost2010PropOp29
 70
     1
102
RTVSPost2010Prop30
280
     1
102
RTVSPost2010PropOp30
 70
     1
102
RTVSPost2010Prop31
280
     0
102
RTVSPost2010PropOp31
 70
     1
102
RTVSPost2010Prop32
280
     0
102
RTVSPost2010PropOp32
 70
     1
102
RTVSPost2010Prop33
280
     0
102
RTVSPost2010PropOp33
 70
     1
102
RTVSPost2010Prop34
280
     0
102
RTVSPost2010PropOp34
 70
     1
102
RTVSPost2010Prop35
280
     0
102
RTVSPost2010PropOp35
 70
     1
102
RTVSPost2010Prop36
280
     0
102
RTVSPost2010PropOp36
 70
     1
102
RTVSPost2010Prop37
 90
       50
102
RTVSPost2010PropOp37
 70
     1
102
RTVSPost2010Prop38
140
0.0
102
RTVSPost2010PropOp38
 70
     1
102
RTVSPost2010Prop39
140
1.0
102
RTVSPost2010PropOp39
 70
     1
102
RTVSPost2010Prop40
 90
        0
102
RTVSPost2010PropOp40
 70
     1
102
RTVSPost2010Prop41ColorIndex
 90
       18
102
RTVSPost2010Prop41ColorRGB
 90
        0
102
RTVSPost2010PropOp41
 70
     1
102
RTVSPost2010Prop42
 90
       50
102
RTVSPost2010PropOp42
 70
     1
102
RTVSPost2010Prop43
 90
        3
102
RTVSPost2010PropOp43
 70
     1
102
RTVSPost2010Prop44ColorIndex
 90
        5
102
RTVSPost2010Prop44ColorRGB
 90
      255
102
RTVSPost2010PropOp44
 70
     1
102
RTVSPost2010Prop45
280
     0
102
RTVSPost2010PropOp45
 70
     1
102
RTVSPost2010Prop46
 90
       50
102
RTVSPost2010PropOp46
 70
     1
102
RTVSPost2010Prop47
 90
       50
102
RTVSPost2010PropOp47
 70
     1
102
RTVSPost2010Prop48
 90
       50
102
RTVSPost2010PropOp48
 70
     1
102
RTVSPost2010Prop49
280
     0
102
RTVSPost2010PropOp49
 70
     1
102
RTVSPost2010Prop50
 90
       50
102
RTVSPost2010PropOp50
 70
     1
102
RTVSPost2010Prop51ColorIndex
 90
      256
102
RTVSPost2010Prop51ColorRGB
 90
-16777216
102
RTVSPost2010PropOp51
 70
     0
102
RTVSPost2010Prop52
140
1.0
102
RTVSPost2010PropOp52
 70
     0
102
RTVSPost2010Prop53
 90
        2
102
RTVSPost2010PropOp53
 70
     1
102
RTVSPost2010Prop54
  1
strokes_ogs.tif
102
RTVSPost2010PropOp54
 70
     1
102
RTVSPost2010Prop55
280
     0
102
RTVSPost2010PropOp55
 70
     1
102
RTVSPost2010Prop56
140
1.0
102
RTVSPost2010PropOp56
 70
     1
102
RTVSPost2010Prop57
140
1.0
102
RTVSPost2010PropOp57
 70
     1
102
RTVSPropertyOp0
 70
     1
102
RTVSPropertyOp1
 70
     1
102
RTVSPropertyOp2
 70
     1
102
RTVSPropertyOp3
 70
     1
102
RTVSPropertyOp4
 70
     1
102
RTVSPropertyOp5
 70
     1
102
RTVSPropertyOp6
 70
     1
102
RTVSPropertyOp7
 70
     1
102
RTVSPropertyOp8
 70
     1
102
RTVSPropertyOp9
 70
     1
102
RTVSPropertyOp10
 70
     1
102
RTVSPropertyOp11
 70
     1
102
RTVSPropertyOp12
 70
     1
102
RTVSPropertyOp13
 70
     1
102
RTVSPropertyOp14
 70
     1
102
RTVSPropertyOp15
 70
     1
102
RTVSPropertyOp16
 70
     1
102
RTVSPropertyOp17
 70
     1
102
RTVSPropertyOp18
 70
     1
102
RTVSPropertyOp19
 70
     1
102
RTVSPropertyOp20
 70
     1
102
RTVSPropertyOp21
 70
     1
102
RTVSPropertyOp22
 70
     1
102
RTVSPropertyOp23
 70
     1
102
RTVSPropertyOp24
 70
     1
102
RTVSPropertyOp25
 70
     1
102
RTVSPropertyOp26
 70
     1
102
RTVSPropertyOp27
 70
     1
102
RTVSPropertyOp28
 70
     1
102
RTVSPropertyOp29
 70
     1
102
RTVSPropertyOp30
 70
     1
102
RTVSPropertyOp31
 70
     1
102
RTVSPropertyOp32
 70
     1
102
RTVSPropertyOp33
 70
     1
102
RTVSPropertyOp34
 70
     1
102
RTVSPropertyOp35
 70
     1
102
RTVSPropertyOp36
 70
     1
102
RTVSPropertyOp37
 70
     1
102
RTVSPropertyOp38
 70
     1
102
RTVSPropertyOp39
 70
     1
102
RTVSPropertyOp40
 70
     1
102
RTVSPropertyOp41
 70
     1
102
RTVSPropertyOp42
 70
     1
102
RTVSPropertyOp43
 70
     1
102
RTVSPropertyOp44
 70
     1
102
RTVSPropertyOp45
 70
     1
102
RTVSPropertyOp46
 70
     1
102
RTVSPropertyOp47
 70
     1
102
RTVSPropertyOp48
 70
     1
102
RTVSPropertyOp49
 70
     1
102
RTVSPropertyOp50
 70
     1
102
RTVSPropertyOp51
 70
     0
102
RTVSPropertyOp52
 70
     0
102
RTVSPropertyOp53
 70
     1
102
RTVSPropertyOp54
 70
     1
102
RTVSPropertyOp55
 70
     1
102
RTVSPropertyOp56
 70
     1
102
RTVSPropertyOp57
 70
     1
102
RTVSPropertyOp58
 70
     1
102
RTVSPropertyOp59
 70
     1
102
RTVSPropertyOp60
 70
     1
102
RTVSPropertyOp61
 70
     1
102
RTVSPropertyOp62
 70
     1
  0
XRECORD
  5
2CB
102
{ACAD_REACTORS
330
2CA
102
}
330
2CA
100
AcDbXrecord
280
     1
102
RTVSPost2010Prop28
280
     0
102
RTVSPost2010PropOp28
 70
     1
102
RTVSPost2010Prop29
280
     1
102
RTVSPost2010PropOp29
 70
     1
102
RTVSPost2010Prop30
280
     1
102
RTVSPost2010PropOp30
 70
     1
102
RTVSPost2010Prop31
280
     0
102
RTVSPost2010PropOp31
 70
     1
102
RTVSPost2010Prop32
280
     0
102
RTVSPost2010PropOp32
 70
     1
102
RTVSPost2010Prop33
280
     0
102
RTVSPost2010PropOp33
 70
     1
102
RTVSPost2010Prop34
280
     0
102
RTVSPost2010PropOp34
 70
     1
102
RTVSPost2010Prop35
280
     0
102
RTVSPost2010PropOp35
 70
     1
102
RTVSPost2010Prop36
280
     0
102
RTVSPost2010PropOp36
 70
     1
102
RTVSPost2010Prop37
 90
       50
102
RTVSPost2010PropOp37
 70
     1
102
RTVSPost2010Prop38
140
0.0
102
RTVSPost2010PropOp38
 70
     1
102
RTVSPost2010Prop39
140
1.0
102
RTVSPost2010PropOp39
 70
     1
102
RTVSPost2010Prop40
 90
        0
102
RTVSPost2010PropOp40
 70
     1
102
RTVSPost2010Prop41ColorIndex
 90
       18
102
RTVSPost2010Prop41ColorRGB
 90
        0
102
RTVSPost2010PropOp41
 70
     1
102
RTVSPost2010Prop42
 90
       50
102
RTVSPost2010PropOp42
 70
     1
102
RTVSPost2010Prop43
 90
        3
102
RTVSPost2010PropOp43
 70
     1
102
RTVSPost2010Prop44ColorIndex
 90
        5
102
RTVSPost2010Prop44ColorRGB
 90
      255
102
RTVSPost2010PropOp44
 70
     1
102
RTVSPost2010Prop45
280
     0
102
RTVSPost2010PropOp45
 70
     1
102
RTVSPost2010Prop46
 90
       50
102
RTVSPost2010PropOp46
 70
     1
102
RTVSPost2010Prop47
 90
       50
102
RTVSPost2010PropOp47
 70
     1
102
RTVSPost2010Prop48
 90
       50
102
RTVSPost2010PropOp48
 70
     1
102
RTVSPost2010Prop49
280
     0
102
RTVSPost2010PropOp49
 70
     1
102
RTVSPost2010Prop50
 90
       50
102
RTVSPost2010PropOp50
 70
     1
102
RTVSPost2010Prop51ColorIndex
 90
      256
102
RTVSPost2010Prop51ColorRGB
 90
-16777216
102
RTVSPost2010PropOp51
 70
     0
102
RTVSPost2010Prop52
140
1.0
102
RTVSPost2010PropOp52
 70
     0
102
RTVSPost2010Prop53
 90
        2
102
RTVSPost2010PropOp53
 70
     1
102
RTVSPost2010Prop54
  1
strokes_ogs.tif
102
RTVSPost2010PropOp54
 70
     1
102
RTVSPost2010Prop55
280
     0
102
RTVSPost2010PropOp55
 70
     1
102
RTVSPost2010Prop56
140
1.0
102
RTVSPost2010PropOp56
 70
     1
102
RTVSPost2010Prop57
140
1.0
102
RTVSPost2010PropOp57
 70
     1
102
RTVSPropertyOp0
 70
     1
102
RTVSPropertyOp1
 70
     1
102
RTVSPropertyOp2
 70
     1
102
RTVSPropertyOp3
 70
     1
102
RTVSPropertyOp4
 70
     1
102
RTVSPropertyOp5
 70
     1
102
RTVSPropertyOp6
 70
     1
102
RTVSPropertyOp7
 70
     1
102
RTVSPropertyOp8
 70
     1
102
RTVSPropertyOp9
 70
     1
102
RTVSPropertyOp10
 70
     1
102
RTVSPropertyOp11
 70
     1
102
RTVSPropertyOp12
 70
     1
102
RTVSPropertyOp13
 70
     1
102
RTVSPropertyOp14
 70
     1
102
RTVSPropertyOp15
 70
     1
102
RTVSPropertyOp16
 70
     1
102
RTVSPropertyOp17
 70
     1
102
RTVSPropertyOp18
 70
     1
102
RTVSPropertyOp19
 70
     1
102
RTVSPropertyOp20
 70
     1
102
RTVSPropertyOp21
 70
     1
102
RTVSPropertyOp22
 70
     1
102
RTVSPropertyOp23
 70
     1
102
RTVSPropertyOp24
 70
     1
102
RTVSPropertyOp25
 70
     1
102
RTVSPropertyOp26
 70
     1
102
RTVSPropertyOp27
 70
     1
102
RTVSPropertyOp28
 70
     1
102
RTVSPropertyOp29
 70
     1
102
RTVSPropertyOp30
 70
     1
102
RTVSPropertyOp31
 70
     1
102
RTVSPropertyOp32
 70
     1
102
RTVSPropertyOp33
 70
     1
102
RTVSPropertyOp34
 70
     1
102
RTVSPropertyOp35
 70
     1
102
RTVSPropertyOp36
 70
     1
102
RTVSPropertyOp37
 70
     1
102
RTVSPropertyOp38
 70
     1
102
RTVSPropertyOp39
 70
     1
102
RTVSPropertyOp40
 70
     1
102
RTVSPropertyOp41
 70
     1
102
RTVSPropertyOp42
 70
     1
102
RTVSPropertyOp43
 70
     1
102
RTVSPropertyOp44
 70
     1
102
RTVSPropertyOp45
 70
     1
102
RTVSPropertyOp46
 70
     1
102
RTVSPropertyOp47
 70
     1
102
RTVSPropertyOp48
 70
     1
102
RTVSPropertyOp49
 70
     1
102
RTVSPropertyOp50
 70
     1
102
RTVSPropertyOp51
 70
     0
102
RTVSPropertyOp52
 70
     0
102
RTVSPropertyOp53
 70
     1
102
RTVSPropertyOp54
 70
     1
102
RTVSPropertyOp55
 70
     1
102
RTVSPropertyOp56
 70
     1
102
RTVSPropertyOp57
 70
     1
102
RTVSPropertyOp58
 70
     1
102
RTVSPropertyOp59
 70
     1
102
RTVSPropertyOp60
 70
     1
102
RTVSPropertyOp61
 70
     1
102
RTVSPropertyOp62
 70
     1
  0
XRECORD
  5
2C5
102
{ACAD_REACTORS
330
2C4
102
}
330
2C4
100
AcDbXrecord
280
     1
102
RTVSPost2010Prop28
280
     0
102
RTVSPost2010PropOp28
 70
     1
102
RTVSPost2010Prop29
280
     1
102
RTVSPost2010PropOp29
 70
     1
102
RTVSPost2010Prop30
280
     1
102
RTVSPost2010PropOp30
 70
     1
102
RTVSPost2010Prop31
280
     0
102
RTVSPost2010PropOp31
 70
     1
102
RTVSPost2010Prop32
280
     0
102
RTVSPost2010PropOp32
 70
     1
102
RTVSPost2010Prop33
280
     0
102
RTVSPost2010PropOp33
 70
     1
102
RTVSPost2010Prop34
280
     0
102
RTVSPost2010PropOp34
 70
     1
102
RTVSPost2010Prop35
280
     0
102
RTVSPost2010PropOp35
 70
     1
102
RTVSPost2010Prop36
280
     0
102
RTVSPost2010PropOp36
 70
     1
102
RTVSPost2010Prop37
 90
       50
102
RTVSPost2010PropOp37
 70
     1
102
RTVSPost2010Prop38
140
0.0
102
RTVSPost2010PropOp38
 70
     1
102
RTVSPost2010Prop39
140
1.0
102
RTVSPost2010PropOp39
 70
     1
102
RTVSPost2010Prop40
 90
        0
102
RTVSPost2010PropOp40
 70
     1
102
RTVSPost2010Prop41ColorIndex
 90
       18
102
RTVSPost2010Prop41ColorRGB
 90
        0
102
RTVSPost2010PropOp41
 70
     1
102
RTVSPost2010Prop42
 90
       50
102
RTVSPost2010PropOp42
 70
     1
102
RTVSPost2010Prop43
 90
        3
102
RTVSPost2010PropOp43
 70
     1
102
RTVSPost2010Prop44ColorIndex
 90
        5
102
RTVSPost2010Prop44ColorRGB
 90
      255
102
RTVSPost2010PropOp44
 70
     1
102
RTVSPost2010Prop45
280
     0
102
RTVSPost2010PropOp45
 70
     1
102
RTVSPost2010Prop46
 90
       50
102
RTVSPost2010PropOp46
 70
     1
102
RTVSPost2010Prop47
 90
       50
102
RTVSPost2010PropOp47
 70
     1
102
RTVSPost2010Prop48
 90
       50
102
RTVSPost2010PropOp48
 70
     1
102
RTVSPost2010Prop49
280
     0
102
RTVSPost2010PropOp49
 70
     1
102
RTVSPost2010Prop50
 90
       50
102
RTVSPost2010PropOp50
 70
     1
102
RTVSPost2010Prop51ColorIndex
 90
      256
102
RTVSPost2010Prop51ColorRGB
 90
-16777216
102
RTVSPost2010PropOp51
 70
     0
102
RTVSPost2010Prop52
140
1.0
102
RTVSPost2010PropOp52
 70
     0
102
RTVSPost2010Prop53
 90
        2
102
RTVSPost2010PropOp53
 70
     1
102
RTVSPost2010Prop54
  1
strokes_ogs.tif
102
RTVSPost2010PropOp54
 70
     1
102
RTVSPost2010Prop55
280
     0
102
RTVSPost2010PropOp55
 70
     1
102
RTVSPost2010Prop56
140
1.0
102
RTVSPost2010PropOp56
 70
     1
102
RTVSPost2010Prop57
140
1.0
102
RTVSPost2010PropOp57
 70
     1
102
RTVSPropertyOp0
 70
     1
102
RTVSPropertyOp1
 70
     1
102
RTVSPropertyOp2
 70
     1
102
RTVSPropertyOp3
 70
     1
102
RTVSPropertyOp4
 70
     1
102
RTVSPropertyOp5
 70
     1
102
RTVSPropertyOp6
 70
     1
102
RTVSPropertyOp7
 70
     1
102
RTVSPropertyOp8
 70
     1
102
RTVSPropertyOp9
 70
     1
102
RTVSPropertyOp10
 70
     1
102
RTVSPropertyOp11
 70
     1
102
RTVSPropertyOp12
 70
     1
102
RTVSPropertyOp13
 70
     1
102
RTVSPropertyOp14
 70
     1
102
RTVSPropertyOp15
 70
     1
102
RTVSPropertyOp16
 70
     1
102
RTVSPropertyOp17
 70
     1
102
RTVSPropertyOp18
 70
     1
102
RTVSPropertyOp19
 70
     1
102
RTVSPropertyOp20
 70
     1
102
RTVSPropertyOp21
 70
     1
102
RTVSPropertyOp22
 70
     1
102
RTVSPropertyOp23
 70
     1
102
RTVSPropertyOp24
 70
     1
102
RTVSPropertyOp25
 70
     1
102
RTVSPropertyOp26
 70
     1
102
RTVSPropertyOp27
 70
     1
102
RTVSPropertyOp28
 70
     1
102
RTVSPropertyOp29
 70
     1
102
RTVSPropertyOp30
 70
     1
102
RTVSPropertyOp31
 70
     1
102
RTVSPropertyOp32
 70
     1
102
RTVSPropertyOp33
 70
     1
102
RTVSPropertyOp34
 70
     1
102
RTVSPropertyOp35
 70
     1
102
RTVSPropertyOp36
 70
     1
102
RTVSPropertyOp37
 70
     1
102
RTVSPropertyOp38
 70
     1
102
RTVSPropertyOp39
 70
     1
102
RTVSPropertyOp40
 70
     1
102
RTVSPropertyOp41
 70
     1
102
RTVSPropertyOp42
 70
     1
102
RTVSPropertyOp43
 70
     1
102
RTVSPropertyOp44
 70
     1
102
RTVSPropertyOp45
 70
     1
102
RTVSPropertyOp46
 70
     1
102
RTVSPropertyOp47
 70
     1
102
RTVSPropertyOp48
 70
     1
102
RTVSPropertyOp49
 70
     1
102
RTVSPropertyOp50
 70
     1
102
RTVSPropertyOp51
 70
     0
102
RTVSPropertyOp52
 70
     0
102
RTVSPropertyOp53
 70
     1
102
RTVSPropertyOp54
 70
     1
102
RTVSPropertyOp55
 70
     1
102
RTVSPropertyOp56
 70
     1
102
RTVSPropertyOp57
 70
     1
102
RTVSPropertyOp58
 70
     1
102
RTVSPropertyOp59
 70
     1
102
RTVSPropertyOp60
 70
     1
102
RTVSPropertyOp61
 70
     1
102
RTVSPropertyOp62
 70
     1
  0
XRECORD
  5
2C7
102
{ACAD_REACTORS
330
2C6
102
}
330
2C6
100
AcDbXrecord
280
     1
102
RTVSPost2010Prop28
280
     0
102
RTVSPost2010PropOp28
 70
     1
102
RTVSPost2010Prop29
280
     1
102
RTVSPost2010PropOp29
 70
     1
102
RTVSPost2010Prop30
280
     1
102
RTVSPost2010PropOp30
 70
     1
102
RTVSPost2010Prop31
280
     0
102
RTVSPost2010PropOp31
 70
     1
102
RTVSPost2010Prop32
280
     0
102
RTVSPost2010PropOp32
 70
     1
102
RTVSPost2010Prop33
280
     0
102
RTVSPost2010PropOp33
 70
     1
102
RTVSPost2010Prop34
280
     0
102
RTVSPost2010PropOp34
 70
     1
102
RTVSPost2010Prop35
280
     0
102
RTVSPost2010PropOp35
 70
     1
102
RTVSPost2010Prop36
280
     0
102
RTVSPost2010PropOp36
 70
     1
102
RTVSPost2010Prop37
 90
       50
102
RTVSPost2010PropOp37
 70
     1
102
RTVSPost2010Prop38
140
0.0
102
RTVSPost2010PropOp38
 70
     1
102
RTVSPost2010Prop39
140
1.0
102
RTVSPost2010PropOp39
 70
     1
102
RTVSPost2010Prop40
 90
        0
102
RTVSPost2010PropOp40
 70
     1
102
RTVSPost2010Prop41ColorIndex
 90
       18
102
RTVSPost2010Prop41ColorRGB
 90
        0
102
RTVSPost2010PropOp41
 70
     1
102
RTVSPost2010Prop42
 90
       50
102
RTVSPost2010PropOp42
 70
     1
102
RTVSPost2010Prop43
 90
        3
102
RTVSPost2010PropOp43
 70
     1
102
RTVSPost2010Prop44ColorIndex
 90
        5
102
RTVSPost2010Prop44ColorRGB
 90
      255
102
RTVSPost2010PropOp44
 70
     1
102
RTVSPost2010Prop45
280
     0
102
RTVSPost2010PropOp45
 70
     1
102
RTVSPost2010Prop46
 90
       50
102
RTVSPost2010PropOp46
 70
     1
102
RTVSPost2010Prop47
 90
       50
102
RTVSPost2010PropOp47
 70
     1
102
RTVSPost2010Prop48
 90
       50
102
RTVSPost2010PropOp48
 70
     1
102
RTVSPost2010Prop49
280
     0
102
RTVSPost2010PropOp49
 70
     1
102
RTVSPost2010Prop50
 90
       50
102
RTVSPost2010PropOp50
 70
     1
102
RTVSPost2010Prop51ColorIndex
 90
      256
102
RTVSPost2010Prop51ColorRGB
 90
-16777216
102
RTVSPost2010PropOp51
 70
     0
102
RTVSPost2010Prop52
140
1.0
102
RTVSPost2010PropOp52
 70
     0
102
RTVSPost2010Prop53
 90
        2
102
RTVSPost2010PropOp53
 70
     1
102
RTVSPost2010Prop54
  1
strokes_ogs.tif
102
RTVSPost2010PropOp54
 70
     1
102
RTVSPost2010Prop55
280
     0
102
RTVSPost2010PropOp55
 70
     1
102
RTVSPost2010Prop56
140
1.0
102
RTVSPost2010PropOp56
 70
     1
102
RTVSPost2010Prop57
140
1.0
102
RTVSPost2010PropOp57
 70
     1
102
RTVSPropertyOp0
 70
     1
102
RTVSPropertyOp1
 70
     1
102
RTVSPropertyOp2
 70
     1
102
RTVSPropertyOp3
 70
     1
102
RTVSPropertyOp4
 70
     1
102
RTVSPropertyOp5
 70
     1
102
RTVSPropertyOp6
 70
     1
102
RTVSPropertyOp7
 70
     1
102
RTVSPropertyOp8
 70
     1
102
RTVSPropertyOp9
 70
     1
102
RTVSPropertyOp10
 70
     1
102
RTVSPropertyOp11
 70
     1
102
RTVSPropertyOp12
 70
     1
102
RTVSPropertyOp13
 70
     1
102
RTVSPropertyOp14
 70
     1
102
RTVSPropertyOp15
 70
     1
102
RTVSPropertyOp16
 70
     1
102
RTVSPropertyOp17
 70
     1
102
RTVSPropertyOp18
 70
     1
102
RTVSPropertyOp19
 70
     1
102
RTVSPropertyOp20
 70
     1
102
RTVSPropertyOp21
 70
     1
102
RTVSPropertyOp22
 70
     1
102
RTVSPropertyOp23
 70
     1
102
RTVSPropertyOp24
 70
     1
102
RTVSPropertyOp25
 70
     1
102
RTVSPropertyOp26
 70
     1
102
RTVSPropertyOp27
 70
     1
102
RTVSPropertyOp28
 70
     1
102
RTVSPropertyOp29
 70
     1
102
RTVSPropertyOp30
 70
     1
102
RTVSPropertyOp31
 70
     1
102
RTVSPropertyOp32
 70
     1
102
RTVSPropertyOp33
 70
     1
102
RTVSPropertyOp34
 70
     1
102
RTVSPropertyOp35
 70
     1
102
RTVSPropertyOp36
 70
     1
102
RTVSPropertyOp37
 70
     1
102
RTVSPropertyOp38
 70
     1
102
RTVSPropertyOp39
 70
     1
102
RTVSPropertyOp40
 70
     1
102
RTVSPropertyOp41
 70
     1
102
RTVSPropertyOp42
 70
     1
102
RTVSPropertyOp43
 70
     1
102
RTVSPropertyOp44
 70
     1
102
RTVSPropertyOp45
 70
     1
102
RTVSPropertyOp46
 70
     1
102
RTVSPropertyOp47
 70
     1
102
RTVSPropertyOp48
 70
     1
102
RTVSPropertyOp49
 70
     1
102
RTVSPropertyOp50
 70
     1
102
RTVSPropertyOp51
 70
     0
102
RTVSPropertyOp52
 70
     0
102
RTVSPropertyOp53
 70
     1
102
RTVSPropertyOp54
 70
     1
102
RTVSPropertyOp55
 70
     1
102
RTVSPropertyOp56
 70
     1
102
RTVSPropertyOp57
 70
     1
102
RTVSPropertyOp58
 70
     1
102
RTVSPropertyOp59
 70
     1
102
RTVSPropertyOp60
 70
     1
102
RTVSPropertyOp61
 70
     1
102
RTVSPropertyOp62
 70
     1
  0
XRECORD
  5
2BD
102
{ACAD_REACTORS
330
2BC
102
}
330
2BC
100
AcDbXrecord
280
     1
102
RTVSPost2010Prop28
280
     0
102
RTVSPost2010PropOp28
 70
     1
102
RTVSPost2010Prop29
280
     1
102
RTVSPost2010PropOp29
 70
     1
102
RTVSPost2010Prop30
280
     1
102
RTVSPost2010PropOp30
 70
     1
102
RTVSPost2010Prop31
280
     0
102
RTVSPost2010PropOp31
 70
     1
102
RTVSPost2010Prop32
280
     0
102
RTVSPost2010PropOp32
 70
     1
102
RTVSPost2010Prop33
280
     0
102
RTVSPost2010PropOp33
 70
     1
102
RTVSPost2010Prop34
280
     0
102
RTVSPost2010PropOp34
 70
     1
102
RTVSPost2010Prop35
280
     0
102
RTVSPost2010PropOp35
 70
     1
102
RTVSPost2010Prop36
280
     0
102
RTVSPost2010PropOp36
 70
     1
102
RTVSPost2010Prop37
 90
       50
102
RTVSPost2010PropOp37
 70
     1
102
RTVSPost2010Prop38
140
0.0
102
RTVSPost2010PropOp38
 70
     1
102
RTVSPost2010Prop39
140
1.0
102
RTVSPost2010PropOp39
 70
     1
102
RTVSPost2010Prop40
 90
        0
102
RTVSPost2010PropOp40
 70
     1
102
RTVSPost2010Prop41ColorIndex
 90
       18
102
RTVSPost2010Prop41ColorRGB
 90
        0
102
RTVSPost2010PropOp41
 70
     1
102
RTVSPost2010Prop42
 90
       50
102
RTVSPost2010PropOp42
 70
     1
102
RTVSPost2010Prop43
 90
        3
102
RTVSPost2010PropOp43
 70
     1
102
RTVSPost2010Prop44ColorIndex
 90
        5
102
RTVSPost2010Prop44ColorRGB
 90
      255
102
RTVSPost2010PropOp44
 70
     1
102
RTVSPost2010Prop45
280
     0
102
RTVSPost2010PropOp45
 70
     1
102
RTVSPost2010Prop46
 90
       50
102
RTVSPost2010PropOp46
 70
     1
102
RTVSPost2010Prop47
 90
       50
102
RTVSPost2010PropOp47
 70
     1
102
RTVSPost2010Prop48
 90
       50
102
RTVSPost2010PropOp48
 70
     1
102
RTVSPost2010Prop49
280
     0
102
RTVSPost2010PropOp49
 70
     1
102
RTVSPost2010Prop50
 90
       50
102
RTVSPost2010PropOp50
 70
     1
102
RTVSPost2010Prop51ColorIndex
 90
      256
102
RTVSPost2010Prop51ColorRGB
 90
-16777216
102
RTVSPost2010PropOp51
 70
     0
102
RTVSPost2010Prop52
140
1.0
102
RTVSPost2010PropOp52
 70
     0
102
RTVSPost2010Prop53
 90
        2
102
RTVSPost2010PropOp53
 70
     1
102
RTVSPost2010Prop54
  1
strokes_ogs.tif
102
RTVSPost2010PropOp54
 70
     1
102
RTVSPost2010Prop55
280
     0
102
RTVSPost2010PropOp55
 70
     1
102
RTVSPost2010Prop56
140
1.0
102
RTVSPost2010PropOp56
 70
     1
102
RTVSPost2010Prop57
140
1.0
102
RTVSPost2010PropOp57
 70
     1
102
RTVSPropertyOp0
 70
     1
102
RTVSPropertyOp1
 70
     1
102
RTVSPropertyOp2
 70
     1
102
RTVSPropertyOp3
 70
     1
102
RTVSPropertyOp4
 70
     1
102
RTVSPropertyOp5
 70
     1
102
RTVSPropertyOp6
 70
     1
102
RTVSPropertyOp7
 70
     1
102
RTVSPropertyOp8
 70
     1
102
RTVSPropertyOp9
 70
     1
102
RTVSPropertyOp10
 70
     1
102
RTVSPropertyOp11
 70
     1
102
RTVSPropertyOp12
 70
     1
102
RTVSPropertyOp13
 70
     1
102
RTVSPropertyOp14
 70
     1
102
RTVSPropertyOp15
 70
     1
102
RTVSPropertyOp16
 70
     1
102
RTVSPropertyOp17
 70
     1
102
RTVSPropertyOp18
 70
     1
102
RTVSPropertyOp19
 70
     1
102
RTVSPropertyOp20
 70
     1
102
RTVSPropertyOp21
 70
     1
102
RTVSPropertyOp22
 70
     1
102
RTVSPropertyOp23
 70
     1
102
RTVSPropertyOp24
 70
     1
102
RTVSPropertyOp25
 70
     1
102
RTVSPropertyOp26
 70
     1
102
RTVSPropertyOp27
 70
     1
102
RTVSPropertyOp28
 70
     1
102
RTVSPropertyOp29
 70
     1
102
RTVSPropertyOp30
 70
     1
102
RTVSPropertyOp31
 70
     1
102
RTVSPropertyOp32
 70
     1
102
RTVSPropertyOp33
 70
     1
102
RTVSPropertyOp34
 70
     1
102
RTVSPropertyOp35
 70
     1
102
RTVSPropertyOp36
 70
     1
102
RTVSPropertyOp37
 70
     1
102
RTVSPropertyOp38
 70
     1
102
RTVSPropertyOp39
 70
     1
102
RTVSPropertyOp40
 70
     1
102
RTVSPropertyOp41
 70
     1
102
RTVSPropertyOp42
 70
     1
102
RTVSPropertyOp43
 70
     1
102
RTVSPropertyOp44
 70
     1
102
RTVSPropertyOp45
 70
     1
102
RTVSPropertyOp46
 70
     1
102
RTVSPropertyOp47
 70
     1
102
RTVSPropertyOp48
 70
     1
102
RTVSPropertyOp49
 70
     1
102
RTVSPropertyOp50
 70
     1
102
RTVSPropertyOp51
 70
     0
102
RTVSPropertyOp52
 70
     0
102
RTVSPropertyOp53
 70
     1
102
RTVSPropertyOp54
 70
     1
102
RTVSPropertyOp55
 70
     1
102
RTVSPropertyOp56
 70
     1
102
RTVSPropertyOp57
 70
     1
102
RTVSPropertyOp58
 70
     1
102
RTVSPropertyOp59
 70
     1
102
RTVSPropertyOp60
 70
     1
102
RTVSPropertyOp61
 70
     1
102
RTVSPropertyOp62
 70
     1
  0
XRECORD
  5
2B1
102
{ACAD_REACTORS
330
2B0
102
}
330
2B0
100
AcDbXrecord
280
     1
102
RTVSPost2010Prop28
280
     0
102
RTVSPost2010PropOp28
 70
     1
102
RTVSPost2010Prop29
280
     1
102
RTVSPost2010PropOp29
 70
     1
102
RTVSPost2010Prop30
280
     1
102
RTVSPost2010PropOp30
 70
     1
102
RTVSPost2010Prop31
280
     0
102
RTVSPost2010PropOp31
 70
     1
102
RTVSPost2010Prop32
280
     0
102
RTVSPost2010PropOp32
 70
     1
102
RTVSPost2010Prop33
280
     0
102
RTVSPost2010PropOp33
 70
     1
102
RTVSPost2010Prop34
280
     0
102
RTVSPost2010PropOp34
 70
     1
102
RTVSPost2010Prop35
280
     0
102
RTVSPost2010PropOp35
 70
     1
102
RTVSPost2010Prop36
280
     0
102
RTVSPost2010PropOp36
 70
     1
102
RTVSPost2010Prop37
 90
       50
102
RTVSPost2010PropOp37
 70
     1
102
RTVSPost2010Prop38
140
0.0
102
RTVSPost2010PropOp38
 70
     1
102
RTVSPost2010Prop39
140
1.0
102
RTVSPost2010PropOp39
 70
     1
102
RTVSPost2010Prop40
 90
        0
102
RTVSPost2010PropOp40
 70
     1
102
RTVSPost2010Prop41ColorIndex
 90
       18
102
RTVSPost2010Prop41ColorRGB
 90
        0
102
RTVSPost2010PropOp41
 70
     1
102
RTVSPost2010Prop42
 90
       50
102
RTVSPost2010PropOp42
 70
     1
102
RTVSPost2010Prop43
 90
        3
102
RTVSPost2010PropOp43
 70
     1
102
RTVSPost2010Prop44ColorIndex
 90
        5
102
RTVSPost2010Prop44ColorRGB
 90
      255
102
RTVSPost2010PropOp44
 70
     1
102
RTVSPost2010Prop45
280
     0
102
RTVSPost2010PropOp45
 70
     1
102
RTVSPost2010Prop46
 90
       50
102
RTVSPost2010PropOp46
 70
     1
102
RTVSPost2010Prop47
 90
       50
102
RTVSPost2010PropOp47
 70
     1
102
RTVSPost2010Prop48
 90
       50
102
RTVSPost2010PropOp48
 70
     1
102
RTVSPost2010Prop49
280
     0
102
RTVSPost2010PropOp49
 70
     1
102
RTVSPost2010Prop50
 90
       50
102
RTVSPost2010PropOp50
 70
     1
102
RTVSPost2010Prop51ColorIndex
 90
      256
102
RTVSPost2010Prop51ColorRGB
 90
-16777216
102
RTVSPost2010PropOp51
 70
     0
102
RTVSPost2010Prop52
140
1.0
102
RTVSPost2010PropOp52
 70
     0
102
RTVSPost2010Prop53
 90
        2
102
RTVSPost2010PropOp53
 70
     1
102
RTVSPost2010Prop54
  1
strokes_ogs.tif
102
RTVSPost2010PropOp54
 70
     1
102
RTVSPost2010Prop55
280
     0
102
RTVSPost2010PropOp55
 70
     1
102
RTVSPost2010Prop56
140
1.0
102
RTVSPost2010PropOp56
 70
     1
102
RTVSPost2010Prop57
140
1.0
102
RTVSPost2010PropOp57
 70
     1
102
RTVSPropertyOp0
 70
     1
102
RTVSPropertyOp1
 70
     1
102
RTVSPropertyOp2
 70
     1
102
RTVSPropertyOp3
 70
     1
102
RTVSPropertyOp4
 70
     1
102
RTVSPropertyOp5
 70
     1
102
RTVSPropertyOp6
 70
     1
102
RTVSPropertyOp7
 70
     1
102
RTVSPropertyOp8
 70
     1
102
RTVSPropertyOp9
 70
     1
102
RTVSPropertyOp10
 70
     1
102
RTVSPropertyOp11
 70
     1
102
RTVSPropertyOp12
 70
     1
102
RTVSPropertyOp13
 70
     1
102
RTVSPropertyOp14
 70
     1
102
RTVSPropertyOp15
 70
     1
102
RTVSPropertyOp16
 70
     1
102
RTVSPropertyOp17
 70
     1
102
RTVSPropertyOp18
 70
     1
102
RTVSPropertyOp19
 70
     1
102
RTVSPropertyOp20
 70
     1
102
RTVSPropertyOp21
 70
     1
102
RTVSPropertyOp22
 70
     1
102
RTVSPropertyOp23
 70
     1
102
RTVSPropertyOp24
 70
     1
102
RTVSPropertyOp25
 70
     1
102
RTVSPropertyOp26
 70
     1
102
RTVSPropertyOp27
 70
     1
102
RTVSPropertyOp28
 70
     1
102
RTVSPropertyOp29
 70
     1
102
RTVSPropertyOp30
 70
     1
102
RTVSPropertyOp31
 70
     1
102
RTVSPropertyOp32
 70
     1
102
RTVSPropertyOp33
 70
     1
102
RTVSPropertyOp34
 70
     1
102
RTVSPropertyOp35
 70
     1
102
RTVSPropertyOp36
 70
     1
102
RTVSPropertyOp37
 70
     1
102
RTVSPropertyOp38
 70
     1
102
RTVSPropertyOp39
 70
     1
102
RTVSPropertyOp40
 70
     1
102
RTVSPropertyOp41
 70
     1
102
RTVSPropertyOp42
 70
     1
102
RTVSPropertyOp43
 70
     1
102
RTVSPropertyOp44
 70
     1
102
RTVSPropertyOp45
 70
     1
102
RTVSPropertyOp46
 70
     1
102
RTVSPropertyOp47
 70
     1
102
RTVSPropertyOp48
 70
     1
102
RTVSPropertyOp49
 70
     1
102
RTVSPropertyOp50
 70
     1
102
RTVSPropertyOp51
 70
     0
102
RTVSPropertyOp52
 70
     0
102
RTVSPropertyOp53
 70
     1
102
RTVSPropertyOp54
 70
     1
102
RTVSPropertyOp55
 70
     1
102
RTVSPropertyOp56
 70
     1
102
RTVSPropertyOp57
 70
     1
102
RTVSPropertyOp58
 70
     1
102
RTVSPropertyOp59
 70
     1
102
RTVSPropertyOp60
 70
     1
102
RTVSPropertyOp61
 70
     1
102
RTVSPropertyOp62
 70
     1
  0
XRECORD
  5
2C9
102
{ACAD_REACTORS
330
2C8
102
}
330
2C8
100
AcDbXrecord
280
     1
102
RTVSPost2010Prop28
280
     0
102
RTVSPost2010PropOp28
 70
     1
102
RTVSPost2010Prop29
280
     1
102
RTVSPost2010PropOp29
 70
     1
102
RTVSPost2010Prop30
280
     1
102
RTVSPost2010PropOp30
 70
     1
102
RTVSPost2010Prop31
280
     0
102
RTVSPost2010PropOp31
 70
     1
102
RTVSPost2010Prop32
280
     0
102
RTVSPost2010PropOp32
 70
     1
102
RTVSPost2010Prop33
280
     0
102
RTVSPost2010PropOp33
 70
     1
102
RTVSPost2010Prop34
280
     0
102
RTVSPost2010PropOp34
 70
     1
102
RTVSPost2010Prop35
280
     0
102
RTVSPost2010PropOp35
 70
     1
102
RTVSPost2010Prop36
280
     0
102
RTVSPost2010PropOp36
 70
     1
102
RTVSPost2010Prop37
 90
       50
102
RTVSPost2010PropOp37
 70
     1
102
RTVSPost2010Prop38
140
0.0
102
RTVSPost2010PropOp38
 70
     1
102
RTVSPost2010Prop39
140
1.0
102
RTVSPost2010PropOp39
 70
     1
102
RTVSPost2010Prop40
 90
        0
102
RTVSPost2010PropOp40
 70
     1
102
RTVSPost2010Prop41ColorIndex
 90
       18
102
RTVSPost2010Prop41ColorRGB
 90
        0
102
RTVSPost2010PropOp41
 70
     1
102
RTVSPost2010Prop42
 90
       50
102
RTVSPost2010PropOp42
 70
     1
102
RTVSPost2010Prop43
 90
        3
102
RTVSPost2010PropOp43
 70
     1
102
RTVSPost2010Prop44ColorIndex
 90
        5
102
RTVSPost2010Prop44ColorRGB
 90
      255
102
RTVSPost2010PropOp44
 70
     1
102
RTVSPost2010Prop45
280
     0
102
RTVSPost2010PropOp45
 70
     1
102
RTVSPost2010Prop46
 90
       50
102
RTVSPost2010PropOp46
 70
     1
102
RTVSPost2010Prop47
 90
       50
102
RTVSPost2010PropOp47
 70
     1
102
RTVSPost2010Prop48
 90
       50
102
RTVSPost2010PropOp48
 70
     1
102
RTVSPost2010Prop49
280
     0
102
RTVSPost2010PropOp49
 70
     1
102
RTVSPost2010Prop50
 90
       50
102
RTVSPost2010PropOp50
 70
     1
102
RTVSPost2010Prop51ColorIndex
 90
      256
102
RTVSPost2010Prop51ColorRGB
 90
-16777216
102
RTVSPost2010PropOp51
 70
     0
102
RTVSPost2010Prop52
140
1.0
102
RTVSPost2010PropOp52
 70
     0
102
RTVSPost2010Prop53
 90
        2
102
RTVSPost2010PropOp53
 70
     1
102
RTVSPost2010Prop54
  1
strokes_ogs.tif
102
RTVSPost2010PropOp54
 70
     1
102
RTVSPost2010Prop55
280
     0
102
RTVSPost2010PropOp55
 70
     1
102
RTVSPost2010Prop56
140
1.0
102
RTVSPost2010PropOp56
 70
     1
102
RTVSPost2010Prop57
140
1.0
102
RTVSPost2010PropOp57
 70
     1
102
RTVSPropertyOp0
 70
     1
102
RTVSPropertyOp1
 70
     1
102
RTVSPropertyOp2
 70
     1
102
RTVSPropertyOp3
 70
     1
102
RTVSPropertyOp4
 70
     1
102
RTVSPropertyOp5
 70
     1
102
RTVSPropertyOp6
 70
     1
102
RTVSPropertyOp7
 70
     1
102
RTVSPropertyOp8
 70
     1
102
RTVSPropertyOp9
 70
     1
102
RTVSPropertyOp10
 70
     1
102
RTVSPropertyOp11
 70
     1
102
RTVSPropertyOp12
 70
     1
102
RTVSPropertyOp13
 70
     1
102
RTVSPropertyOp14
 70
     1
102
RTVSPropertyOp15
 70
     1
102
RTVSPropertyOp16
 70
     1
102
RTVSPropertyOp17
 70
     1
102
RTVSPropertyOp18
 70
     1
102
RTVSPropertyOp19
 70
     1
102
RTVSPropertyOp20
 70
     1
102
RTVSPropertyOp21
 70
     1
102
RTVSPropertyOp22
 70
     1
102
RTVSPropertyOp23
 70
     1
102
RTVSPropertyOp24
 70
     1
102
RTVSPropertyOp25
 70
     1
102
RTVSPropertyOp26
 70
     1
102
RTVSPropertyOp27
 70
     1
102
RTVSPropertyOp28
 70
     1
102
RTVSPropertyOp29
 70
     1
102
RTVSPropertyOp30
 70
     1
102
RTVSPropertyOp31
 70
     1
102
RTVSPropertyOp32
 70
     1
102
RTVSPropertyOp33
 70
     1
102
RTVSPropertyOp34
 70
     1
102
RTVSPropertyOp35
 70
     1
102
RTVSPropertyOp36
 70
     1
102
RTVSPropertyOp37
 70
     1
102
RTVSPropertyOp38
 70
     1
102
RTVSPropertyOp39
 70
     1
102
RTVSPropertyOp40
 70
     1
102
RTVSPropertyOp41
 70
     1
102
RTVSPropertyOp42
 70
     1
102
RTVSPropertyOp43
 70
     1
102
RTVSPropertyOp44
 70
     1
102
RTVSPropertyOp45
 70
     1
102
RTVSPropertyOp46
 70
     1
102
RTVSPropertyOp47
 70
     1
102
RTVSPropertyOp48
 70
     1
102
RTVSPropertyOp49
 70
     1
102
RTVSPropertyOp50
 70
     1
102
RTVSPropertyOp51
 70
     0
102
RTVSPropertyOp52
 70
     0
102
RTVSPropertyOp53
 70
     1
102
RTVSPropertyOp54
 70
     1
102
RTVSPropertyOp55
 70
     1
102
RTVSPropertyOp56
 70
     1
102
RTVSPropertyOp57
 70
     1
102
RTVSPropertyOp58
 70
     1
102
RTVSPropertyOp59
 70
     1
102
RTVSPropertyOp60
 70
     1
102
RTVSPropertyOp61
 70
     1
102
RTVSPropertyOp62
 70
     1
  0
ENDSEC
  0
EOF
