0
SECTION
2
HEADER
9
$ACADVER
1
AC1015
9
$DWGCODEPAGE
3
ANSI_1252
9
$HANDSEED
5
399
9
$ANGBASE
50
0
9
$ANGDIR
70
0
9
$ATTMODE
70
1
9
$AUNITS
70
0
9
$AUPREC
70
0
9
$CECOLOR
62
256
9
$CELTSCALE
40
1
9
$CELTYPE
6
ByLayer
9
$CELWEIGHT
370
18
9
$CLAYER
8
0
9
$CMLJUST
70
0
9
$CMLSCALE
40
1
9
$CMLSTYLE
2
Standard
9
$DIMSTYLE
2
Standard
9
$TEXTSIZE
40
0.2
9
$TEXTSTYLE
7
Standard
9
$LUNITS
70
2
9
$LUPREC
70
4
9
$EXTNAMES
290
1
9
$INSUNITS
70
4
9
$LTSCALE
40
1
9
$LWDISPLAY
290
1
9
$PDMODE
70
0
9
$PDSIZE
40
0
9
$PLINEGEN
70
0
0
ENDSEC
0
SECTION
2
CLASSES
0
CLASS
1
RASTERVARIABLES
2
AcDbRasterVariables
3
ISM
90
0
280
0
281
0
0
ENDSEC
0
SECTION
2
TABLES
0
TABLE
2
VPORT
5
38f
100
AcDbSymbolTable
0
VPORT
5
1
100
AcDbSymbolTableRecord
100
AcDbViewportTableRecord
2
*Active
70
0
10
0
20
0
11
1
21
1
12
-1
22
1
13
0
23
0
14
0.5
24
0.5
15
10
25
10
16
0
26
0
36
1
17
0
27
0
37
0
0
ENDTAB
0
TABLE
2
LTYPE
5
390
100
AcDbSymbolTable
0
LTYPE
5
14
100
AcDbSymbolTableRecord
100
AcDbLinetypeTableRecord
70
0
2
ByBlock
3

72
65
73
0
40
0
0
LTYPE
5
15
100
AcDbSymbolTableRecord
100
AcDbLinetypeTableRecord
70
0
2
ByLayer
3

72
65
73
0
40
0
0
LTYPE
5
16
100
AcDbSymbolTableRecord
100
AcDbLinetypeTableRecord
70
0
2
CONTINUOUS
3
Solid line
72
65
73
0
40
0
0
LTYPE
5
6A
100
AcDbSymbolTableRecord
100
AcDbLinetypeTableRecord
70
0
2
CENTER
3
____ _ ____ _ ____ _ ____
72
65
73
4
40
47.5
49
22
74
0
49
-8.5
74
0
49
8.5
74
0
49
-8.5
74
0
0
LTYPE
5
6B
100
AcDbSymbolTableRecord
100
AcDbLinetypeTableRecord
70
0
2
DASHED
3
__ __ __ __ __ __ __ __ __
72
65
73
2
40
25.72
49
12.86
74
0
49
-12.86
74
0
0
ENDTAB
0
TABLE
2
LAYER
5
391
100
AcDbSymbolTable
0
LAYER
5
10
100
AcDbSymbolTableRecord
100
AcDbLayerTableRecord
2
0
70
0
62
7
6
CONTINUOUS
290
1
370
-3
390
0
0
LAYER
5
6D
100
AcDbSymbolTableRecord
100
AcDbLayerTableRecord
2
80
70
0
62
-6
6
CONTINUOUS
290
1
370
-3
390
0
0
LAYER
5
6F
100
AcDbSymbolTableRecord
100
AcDbLayerTableRecord
2
81
70
0
62
-3
6
CONTINUOUS
290
1
370
-3
390
0
0
LAYER
5
71
100
AcDbSymbolTableRecord
100
AcDbLayerTableRecord
2
1
70
0
62
4
6
CONTINUOUS
290
1
370
-3
390
0
0
LAYER
5
138
100
AcDbSymbolTableRecord
100
AcDbLayerTableRecord
2
4
70
0
62
-2
6
CENTER
290
1
370
-3
390
0
0
LAYER
5
37b
100
AcDbSymbolTableRecord
100
AcDbLayerTableRecord
2
SK1
70
0
62
4
6
CONTINUOUS
290
1
370
-3
390
0
0
LAYER
5
37c
100
AcDbSymbolTableRecord
100
AcDbLayerTableRecord
2
SK4
70
0
62
2
6
CENTER
290
1
370
-3
390
0
0
LAYER
5
37d
100
AcDbSymbolTableRecord
100
AcDbLayerTableRecord
2
SK6
70
0
62
5
6
CONTINUOUS
290
1
370
-3
390
0
0
LAYER
5
37e
100
AcDbSymbolTableRecord
100
AcDbLayerTableRecord
2
2L
70
0
62
7
6
CONTINUOUS
290
1
370
-3
390
0
0
ENDTAB
0
TABLE
2
STYLE
5
392
100
AcDbSymbolTable
0
STYLE
5
11
100
AcDbSymbolTableRecord
100
AcDbTextStyleTableRecord
2
Standard
3
txt
70
0
71
0
40
0
41
1
42
0
50
0
0
STYLE
5
2F5
100
AcDbSymbolTableRecord
100
AcDbTextStyleTableRecord
2
iso_b_vert
3
simplex.shx
70
0
71
0
40
0
41
1
42
0
50
0
0
STYLE
5
2F6
100
AcDbSymbolTableRecord
100
AcDbTextStyleTableRecord
2
DWGDirectTextStyle
3
simplex
70
0
71
0
40
0
41
1
42
0
50
0
0
ENDTAB
0
TABLE
2
DIMSTYLE
5
393
100
AcDbSymbolTable
100
AcDbDimStyleTable
0
DIMSTYLE
105
27
100
AcDbSymbolTableRecord
100
AcDbDimStyleTableRecord
2
Standard
70
0
3
<>
41
0.18
42
0.0625
44
0.18
140
0.18
147
0.09
73
0
74
0
77
1
271
2
275
0
278
52
280
0
340
11
0
ENDTAB
0
TABLE
2
VIEW
5
394
100
AcDbSymbolTable
0
ENDTAB
0
TABLE
2
UCS
5
395
100
AcDbSymbolTable
0
ENDTAB
0
TABLE
2
APPID
5
396
100
AcDbSymbolTable
0
APPID
5
12
100
AcDbSymbolTableRecord
100
AcDbRegAppTableRecord
2
ACAD
70
0
0
ENDTAB
0
TABLE
2
BLOCK_RECORD
5
397
100
AcDbSymbolTable
0
BLOCK_RECORD
5
1F
100
AcDbSymbolTableRecord
100
AcDbBlockTableRecord
2
*Model_Space
340
0
70
0
0
BLOCK_RECORD
5
1B
100
AcDbSymbolTableRecord
100
AcDbBlockTableRecord
2
*Paper_Space
340
0
70
0
0
BLOCK_RECORD
5
23
100
AcDbSymbolTableRecord
100
AcDbBlockTableRecord
2
*Paper_Space0
340
0
70
0
0
BLOCK_RECORD
5
2F8
100
AcDbSymbolTableRecord
100
AcDbBlockTableRecord
2
DimnDraft3D1
340
0
70
0
0
BLOCK_RECORD
5
304
100
AcDbSymbolTableRecord
100
AcDbBlockTableRecord
2
DimnDraft3D2
340
0
70
0
0
BLOCK_RECORD
5
30E
100
AcDbSymbolTableRecord
100
AcDbBlockTableRecord
2
DimnDraft3D3
340
0
70
0
0
BLOCK_RECORD
5
318
100
AcDbSymbolTableRecord
100
AcDbBlockTableRecord
2
DimnDraft3D4
340
0
70
0
0
ENDTAB
0
ENDSEC
0
SECTION
2
BLOCKS
0
BLOCK
5
20
100
AcDbEntity
8
0
100
AcDbBlockBegin
2
*Model_Space
70
0
10
0
20
0
30
0
3
*Model_Space
0
ENDBLK
5
21
100
AcDbEntity
8
0
100
AcDbBlockEnd
0
BLOCK
5
1C
100
AcDbEntity
8
0
100
AcDbBlockBegin
2
*Paper_Space
70
0
10
0
20
0
30
0
3
*Paper_Space
0
ENDBLK
5
1D
100
AcDbEntity
8
0
100
AcDbBlockEnd
0
BLOCK
5
24
100
AcDbEntity
8
0
100
AcDbBlockBegin
2
*Paper_Space0
70
0
10
0
20
0
30
0
3
*Paper_Space0
0
ENDBLK
5
25
100
AcDbEntity
8
0
100
AcDbBlockEnd
0
BLOCK
5
301
100
AcDbEntity
8
0
100
AcDbBlockBegin
2
DimnDraft3D1
70
0
10
0
20
0
30
0
3
DimnDraft3D1
0
MTEXT
5
2F9
100
AcDbEntity
8
2L
62
256
6
ByLayer
370
13
48
1
60
0
100
AcDbMText
10
-12.61134
20
2.072105
30
0
210
0
220
0
230
1
1
\W0.6740;25
40
3.175
41
0
44
1.084337
50
90
71
7
72
5
7
iso_b_vert
0
MTEXT
5
2FB
100
AcDbEntity
8
2L
62
256
6
ByLayer
370
13
48
1
60
0
100
AcDbMText
10
-12.61134
20
-2.66559
30
0
210
0
220
0
230
1
1
%%c
40
3.175
41
0
44
1.084337
50
90
71
7
72
5
7
iso_b_vert
0
LINE
5
2FC
100
AcDbEntity
8
2L
62
256
6
ByLayer
370
13
48
1
60
0
100
AcDbLine
10
-1.1085
20
-12.5
30
0
11
-14.19884
21
-12.5
31
0
39
0
210
0
220
0
230
1
0
LINE
5
2FD
100
AcDbEntity
8
2L
62
256
6
ByLayer
370
13
48
1
60
0
100
AcDbLine
10
-1.1085
20
12.5
30
0
11
-14.19884
21
12.5
31
0
39
0
210
0
220
0
230
1
0
LINE
5
2FE
100
AcDbEntity
8
2L
62
256
6
ByLayer
370
13
48
1
60
0
100
AcDbLine
10
-11.02384
20
-12.5
30
0
11
-11.02384
21
12.5
31
0
39
0
210
0
220
0
230
1
0
SOLID
5
2FF
100
AcDbEntity
8
2L
62
256
6
ByLayer
370
13
48
1
60
0
100
AcDbTrace
10
-11.02384
20
-12.5
30
0
11
-11.441836
21
-9.325002
31
0
12
-10.605843
22
-9.324998
32
0
13
-11.02384
23
-12.5
33
0
39
0
210
0
220
0
230
1
0
SOLID
5
300
100
AcDbEntity
8
2L
62
256
6
ByLayer
370
13
48
1
60
0
100
AcDbTrace
10
-11.02384
20
12.5
30
0
11
-10.605843
21
9.325002
31
0
12
-11.441836
22
9.324998
32
0
13
-11.02384
23
12.5
33
0
39
0
210
0
220
0
230
1
0
ENDBLK
5
302
100
AcDbEntity
8
0
100
AcDbBlockEnd
0
BLOCK
5
30B
100
AcDbEntity
8
0
100
AcDbBlockBegin
2
DimnDraft3D2
70
0
10
0
20
0
30
0
3
DimnDraft3D2
0
MTEXT
5
305
100
AcDbEntity
8
2L
62
256
6
ByLayer
370
13
48
1
60
0
100
AcDbMText
10
10.725964
20
-22.266378
30
0
210
0
220
0
230
1
1
\W0.7167;24
40
3.175
41
0
44
1.084337
50
0
71
7
72
5
7
iso_b_vert
0
LINE
5
306
100
AcDbEntity
8
2L
62
256
6
ByLayer
370
13
48
1
60
0
100
AcDbLine
10
0
20
-1.5875
30
0
11
0
21
-26.235128
31
0
39
0
210
0
220
0
230
1
0
LINE
5
307
100
AcDbEntity
8
2L
62
256
6
ByLayer
370
13
48
1
60
0
100
AcDbLine
10
23.991929
20
12.420493
30
0
11
23.991929
21
-26.235128
31
0
39
0
210
0
220
0
230
1
0
LINE
5
308
100
AcDbEntity
8
2L
62
256
6
ByLayer
370
13
48
1
60
0
100
AcDbLine
10
0
20
-23.060128
30
0
11
23.991929
21
-23.060128
31
0
39
0
210
0
220
0
230
1
0
SOLID
5
309
100
AcDbEntity
8
2L
62
256
6
ByLayer
370
13
48
1
60
0
100
AcDbTrace
10
0
20
-23.060128
30
0
11
3.174998
21
-22.642132
31
0
12
3.175002
22
-23.478125
32
0
13
0
23
-23.060128
33
0
39
0
210
0
220
0
230
1
0
SOLID
5
30A
100
AcDbEntity
8
2L
62
256
6
ByLayer
370
13
48
1
60
0
100
AcDbTrace
10
23.991929
20
-23.060128
30
0
11
20.81693
21
-23.478125
31
0
12
20.816927
22
-22.642132
32
0
13
23.991929
23
-23.060128
33
0
39
0
210
0
220
0
230
1
0
ENDBLK
5
30C
100
AcDbEntity
8
0
100
AcDbBlockEnd
0
BLOCK
5
315
100
AcDbEntity
8
0
100
AcDbBlockBegin
2
DimnDraft3D3
70
0
10
0
20
0
30
0
3
DimnDraft3D3
0
MTEXT
5
30F
100
AcDbEntity
8
2L
62
256
6
ByLayer
370
13
48
1
60
0
100
AcDbMText
10
37.02143
20
12.400855
30
0
210
0
220
0
230
1
1
\W0.7150;30,5
40
3.175
41
0
44
1.084337
50
90
71
7
72
5
7
iso_b_vert
0
LINE
5
310
100
AcDbEntity
8
2L
62
256
6
ByLayer
370
13
48
1
60
0
100
AcDbLine
10
30.5875
20
0
30
0
11
40.99018
21
0
31
0
39
0
210
0
220
0
230
1
0
LINE
5
311
100
AcDbEntity
8
2L
62
256
6
ByLayer
370
13
48
1
60
0
100
AcDbLine
10
8.5875
20
30.5
30
0
11
40.99018
21
30.5
31
0
39
0
210
0
220
0
230
1
0
LINE
5
312
100
AcDbEntity
8
2L
62
256
6
ByLayer
370
13
48
1
60
0
100
AcDbLine
10
37.81518
20
0
30
0
11
37.81518
21
30.5
31
0
39
0
210
0
220
0
230
1
0
SOLID
5
313
100
AcDbEntity
8
2L
62
256
6
ByLayer
370
13
48
1
60
0
100
AcDbTrace
10
37.81518
20
0
30
0
11
37.397184
21
3.174998
31
0
12
38.233177
22
3.175002
32
0
13
37.81518
23
0
33
0
39
0
210
0
220
0
230
1
0
SOLID
5
314
100
AcDbEntity
8
2L
62
256
6
ByLayer
370
13
48
1
60
0
100
AcDbTrace
10
37.81518
20
30.5
30
0
11
38.233177
21
27.325002
31
0
12
37.397184
22
27.324998
32
0
13
37.81518
23
30.5
33
0
39
0
210
0
220
0
230
1
0
ENDBLK
5
316
100
AcDbEntity
8
0
100
AcDbBlockEnd
0
BLOCK
5
31F
100
AcDbEntity
8
0
100
AcDbBlockBegin
2
DimnDraft3D4
70
0
10
0
20
0
30
0
3
DimnDraft3D4
0
MTEXT
5
319
100
AcDbEntity
8
2L
62
256
6
ByLayer
370
13
48
1
60
0
100
AcDbMText
10
-5.267415
20
37.719429
30
0
210
0
220
0
230
1
1
\W0.5404;7
40
3.175
41
0
44
1.084337
50
0
71
7
72
5
7
iso_b_vert
0
LINE
5
31A
100
AcDbEntity
8
2L
62
256
6
ByLayer
370
13
48
1
60
0
100
AcDbLine
10
0
20
1.5875
30
0
11
0
21
40.100679
31
0
39
0
210
0
220
0
230
1
0
LINE
5
31B
100
AcDbEntity
8
2L
62
256
6
ByLayer
370
13
48
1
60
0
100
AcDbLine
10
7
20
32.0875
30
0
11
7
21
40.100679
31
0
39
0
210
0
220
0
230
1
0
LINE
5
31C
100
AcDbEntity
8
2L
62
256
6
ByLayer
370
13
48
1
60
0
100
AcDbLine
10
7
20
36.925679
30
0
11
-6.061165
21
36.925679
31
0
39
0
210
0
220
0
230
1
0
SOLID
5
31D
100
AcDbEntity
8
2L
62
256
6
ByLayer
370
13
48
1
60
0
100
AcDbTrace
10
0
20
36.925679
30
0
11
3.174998
21
37.343676
31
0
12
3.175002
22
36.507683
32
0
13
0
23
36.925679
33
0
39
0
210
0
220
0
230
1
0
SOLID
5
31E
100
AcDbEntity
8
2L
62
256
6
ByLayer
370
13
48
1
60
0
100
AcDbTrace
10
7
20
36.925679
30
0
11
3.825002
21
36.507683
31
0
12
3.824998
22
37.343676
32
0
13
7
23
36.925679
33
0
39
0
210
0
220
0
230
1
0
ENDBLK
5
320
100
AcDbEntity
8
0
100
AcDbBlockEnd
0
ENDSEC
0
SECTION
2
ENTITIES
0
ARC
5
13D
100
AcDbEntity
8
1
62
256
6
ByLayer
370
18
48
1
60
1
100
AcDbCircle
39
0
10
17.268564
20
-19.600501
30
-2.090394
40
0.794
210
0.00365077175753467
220
-0.0696608749212155
230
-0.997564050259824
100
AcDbArc
50
0
51
100
0
ARC
5
13E
100
AcDbEntity
8
1
62
256
6
ByLayer
370
18
48
1
60
1
100
AcDbCircle
39
0
10
9.331564
20
-21.000008
30
-2.090394
40
0.794
210
0.00365077175753467
220
-0.0696608749212155
230
-0.997564050259824
100
AcDbArc
50
100
51
180
0
ARC
5
13F
100
AcDbEntity
8
1
62
256
6
ByLayer
370
18
48
1
60
1
100
AcDbCircle
39
0
10
9.331564
20
-29.059449
30
-2.090394
40
0.794000000000001
210
0.00365077175753467
220
-0.0696608749212155
230
-0.997564050259824
100
AcDbArc
50
180
51
280
0
ARC
5
140
100
AcDbEntity
8
1
62
256
6
ByLayer
370
18
48
1
60
1
100
AcDbCircle
39
0
10
17.268564
20
-27.659942
30
-2.090394
40
0.793999999999998
210
0.00365077175753467
220
-0.0696608749212155
230
-0.997564050259824
100
AcDbArc
50
280
51
0
0
ARC
5
142
100
AcDbEntity
8
1
62
256
6
ByLayer
370
18
48
1
60
1
100
AcDbCircle
39
0
10
13.300064
20
-24.329975
30
-1.152139
40
2.93439086623231
210
0.00365077175753467
220
-0.0696608749212155
230
-0.997564050259824
100
AcDbArc
50
230
51
50.005565
0
ARC
5
143
100
AcDbEntity
8
1
62
256
6
ByLayer
370
18
48
1
60
1
100
AcDbCircle
39
0
10
13.300064
20
-24.329975
30
-1.152139
40
2.93439086623231
210
0.00365077175753467
220
-0.0696608749212155
230
-0.997564050259824
100
AcDbArc
50
50.005565
51
230
0
ARC
5
145
100
AcDbEntity
8
1
62
256
6
ByLayer
370
18
48
1
60
1
100
AcDbCircle
39
0
10
0
20
0
30
-3.571
40
3
210
1
220
0
230
0
100
AcDbArc
50
0
51
90
0
ARC
5
146
100
AcDbEntity
8
1
62
256
6
ByLayer
370
18
48
1
60
1
100
AcDbCircle
39
0
10
0
20
0
30
-3.571
40
3
210
1
220
0
230
0
100
AcDbArc
50
90
51
180
0
ARC
5
147
100
AcDbEntity
8
1
62
256
6
ByLayer
370
18
48
1
60
1
100
AcDbCircle
39
0
10
0
20
0
30
4.071
40
2.86602540378444
210
-1
220
0
230
0
100
AcDbArc
50
0
51
90
0
ARC
5
148
100
AcDbEntity
8
1
62
256
6
ByLayer
370
18
48
1
60
1
100
AcDbCircle
39
0
10
0
20
0
30
4.071
40
2.86602540378444
210
-1
220
0
230
0
100
AcDbArc
50
90
51
180
0
ARC
5
149
100
AcDbEntity
8
1
62
256
6
ByLayer
370
18
48
1
60
1
100
AcDbCircle
39
0
10
0
20
0
30
-0.271
40
11.75
210
1
220
0
230
0
100
AcDbArc
50
0
51
0.760715
0
ARC
5
14A
100
AcDbEntity
8
1
62
256
6
ByLayer
370
18
48
1
60
1
100
AcDbCircle
39
0
10
0
20
0
30
0.479
40
12.5
210
1
220
0
230
0
100
AcDbArc
50
0
51
180
0
ARC
5
14B
100
AcDbEntity
8
1
62
256
6
ByLayer
370
18
48
1
60
1
100
AcDbCircle
39
0
10
0
20
0
30
-0.271
40
11.75
210
1
220
0
230
0
100
AcDbArc
50
120.192524
51
123.092811
0
ARC
5
14C
100
AcDbEntity
8
1
62
256
6
ByLayer
370
18
48
1
60
1
100
AcDbCircle
39
0
10
0
20
0
30
-0.271
40
11.75
210
1
220
0
230
0
100
AcDbArc
50
103.898349
51
109.235885
0
ARC
5
14D
100
AcDbEntity
8
1
62
256
6
ByLayer
370
18
48
1
60
1
100
AcDbCircle
39
0
10
0
20
0
30
-0.271
40
11.75
210
1
220
0
230
0
100
AcDbArc
50
70.764115
51
76.101651
0
ARC
5
14E
100
AcDbEntity
8
1
62
256
6
ByLayer
370
18
48
1
60
1
100
AcDbCircle
39
0
10
0
20
0
30
-0.271
40
11.75
210
1
220
0
230
0
100
AcDbArc
50
56.907189
51
59.807476
0
ARC
5
14F
100
AcDbEntity
8
1
62
256
6
ByLayer
370
18
48
1
60
1
100
AcDbCircle
39
0
10
0
20
0
30
-0.271
40
11.75
210
1
220
0
230
0
100
AcDbArc
50
47.004247
51
49.28446
0
ARC
5
150
100
AcDbEntity
8
1
62
256
6
ByLayer
370
18
48
1
60
1
100
AcDbCircle
39
0
10
0
20
0
30
-0.271
40
11.75
210
1
220
0
230
0
100
AcDbArc
50
38.683749
51
40.660415
0
ARC
5
151
100
AcDbEntity
8
1
62
256
6
ByLayer
370
18
48
1
60
1
100
AcDbCircle
39
0
10
0
20
0
30
-0.271
40
11.75
210
1
220
0
230
0
100
AcDbArc
50
31.240955
51
33.03775
0
ARC
5
152
100
AcDbEntity
8
1
62
256
6
ByLayer
370
18
48
1
60
1
100
AcDbCircle
39
0
10
0
20
0
30
-0.271
40
11.75
210
1
220
0
230
0
100
AcDbArc
50
24.346589
51
26.027884
0
ARC
5
153
100
AcDbEntity
8
1
62
256
6
ByLayer
370
18
48
1
60
1
100
AcDbCircle
39
0
10
0
20
0
30
-0.271
40
11.75
210
1
220
0
230
0
100
AcDbArc
50
17.810654
51
19.416062
0
ARC
5
154
100
AcDbEntity
8
1
62
256
6
ByLayer
370
18
48
1
60
1
100
AcDbCircle
39
0
10
0
20
0
30
-0.271
40
11.75
210
1
220
0
230
0
100
AcDbArc
50
11.5071
51
13.064192
0
ARC
5
155
100
AcDbEntity
8
1
62
256
6
ByLayer
370
18
48
1
60
1
100
AcDbCircle
39
0
10
0
20
0
30
-0.271
40
11.75
210
1
220
0
230
0
100
AcDbArc
50
5.34234
51
6.872456
0
ARC
5
156
100
AcDbEntity
8
1
62
256
6
ByLayer
370
18
48
1
60
1
100
AcDbCircle
39
0
10
0
20
0
30
-0.271
40
11.75
210
1
220
0
230
0
100
AcDbArc
50
179.239285
51
180
0
ARC
5
157
100
AcDbEntity
8
1
62
256
6
ByLayer
370
18
48
1
60
1
100
AcDbCircle
39
0
10
0
20
0
30
-0.271
40
11.75
210
1
220
0
230
0
100
AcDbArc
50
173.127544
51
174.65766
0
ARC
5
158
100
AcDbEntity
8
1
62
256
6
ByLayer
370
18
48
1
60
1
100
AcDbCircle
39
0
10
0
20
0
30
-0.271
40
11.75
210
1
220
0
230
0
100
AcDbArc
50
166.935808
51
168.4929
0
ARC
5
159
100
AcDbEntity
8
1
62
256
6
ByLayer
370
18
48
1
60
1
100
AcDbCircle
39
0
10
0
20
0
30
-0.271
40
11.75
210
1
220
0
230
0
100
AcDbArc
50
160.583938
51
162.189346
0
ARC
5
15A
100
AcDbEntity
8
1
62
256
6
ByLayer
370
18
48
1
60
1
100
AcDbCircle
39
0
10
0
20
0
30
-0.271
40
11.75
210
1
220
0
230
0
100
AcDbArc
50
153.972116
51
155.653411
0
ARC
5
15B
100
AcDbEntity
8
1
62
256
6
ByLayer
370
18
48
1
60
1
100
AcDbCircle
39
0
10
0
20
0
30
-0.271
40
11.75
210
1
220
0
230
0
100
AcDbArc
50
146.96225
51
148.759045
0
ARC
5
15C
100
AcDbEntity
8
1
62
256
6
ByLayer
370
18
48
1
60
1
100
AcDbCircle
39
0
10
0
20
0
30
-0.271
40
11.75
210
1
220
0
230
0
100
AcDbArc
50
139.339585
51
141.316251
0
ARC
5
15D
100
AcDbEntity
8
1
62
256
6
ByLayer
370
18
48
1
60
1
100
AcDbCircle
39
0
10
0
20
0
30
-0.271
40
11.75
210
1
220
0
230
0
100
AcDbArc
50
130.71554
51
132.995753
0
ARC
5
15E
100
AcDbEntity
8
1
62
256
6
ByLayer
370
18
48
1
60
1
100
AcDbCircle
39
0
10
0
20
0
30
-7.574086
40
12.5
210
-1
220
0
230
0
100
AcDbArc
50
145.604529
51
180
0
ARC
5
15F
100
AcDbEntity
8
1
62
256
6
ByLayer
370
18
48
1
60
1
100
AcDbCircle
39
0
10
-7.574086
20
13.5
30
0
40
1
210
0
220
0
230
-1
100
AcDbArc
50
194.437561
51
270
0
ARC
5
160
100
AcDbEntity
8
1
62
256
6
ByLayer
370
18
48
1
60
1
100
AcDbCircle
39
0
10
19
20
-9.5
30
0.6
40
11
210
0
220
0
230
1
100
AcDbArc
50
130.552113
51
174.90555
0
ARC
5
161
100
AcDbEntity
8
1
62
256
6
ByLayer
370
18
48
1
60
1
100
AcDbCircle
39
0
10
-9.511419
20
1.269706
30
-7.788602
40
1
210
0.0871555850507143
220
0.996192895607442
230
0.00190229748649692
100
AcDbArc
50
319.088796
51
0
0
ARC
5
162
100
AcDbEntity
8
1
62
256
6
ByLayer
370
18
48
1
60
1
100
AcDbCircle
39
0
10
-9.39221
20
1.206125
30
8.111582
40
1
210
0.747751716922277
220
0.663772443557984
230
0.016538228830509
100
AcDbArc
50
312.250463
51
360
0
ARC
5
163
100
AcDbEntity
8
1
62
256
6
ByLayer
370
18
48
1
60
1
100
AcDbCircle
39
0
10
19
20
-9.5
30
0.6
40
11
210
0
220
0
230
1
100
AcDbArc
50
115.49467
51
130.552113
0
ARC
5
164
100
AcDbEntity
8
1
62
256
6
ByLayer
370
18
48
1
60
1
100
AcDbCircle
39
0
10
-10.863167
20
1.6
30
9.256045
40
1
210
0.625390598062361
220
0.780311860639836
230
0
100
AcDbArc
50
270
51
0
0
ARC
5
165
100
AcDbEntity
8
1
62
256
6
ByLayer
370
18
48
1
60
1
100
AcDbCircle
39
0
10
-1
20
11.060519
30
-0.6
40
17
210
0
220
0
230
-1
100
AcDbArc
50
158.648412
51
218.710862
0
ARC
5
166
100
AcDbEntity
8
1
62
256
6
ByLayer
370
18
48
1
60
1
100
AcDbCircle
39
0
10
-3.840064
20
-18.464501
30
1.670394
40
5.5
210
-0.00365077175753434
220
0.0696608749212149
230
0.997564050259824
100
AcDbArc
50
173.184069
51
180
0
ARC
5
167
100
AcDbEntity
8
1
62
256
6
ByLayer
370
18
48
1
60
0
100
AcDbCircle
39
0
10
19
20
-9.5
30
0.6
40
11
210
0
220
0
230
1
100
AcDbArc
50
174.90555
51
175
0
ARC
5
168
100
AcDbEntity
8
1
62
256
6
ByLayer
370
18
48
1
60
1
100
AcDbCircle
39
0
10
-9.511419
20
1.254871
30
-7.807891
40
1
210
0.0871557427476587
220
0.996194698091746
230
-1.61679261769978E-15
100
AcDbArc
50
319.090103
51
360
0
ARC
5
169
100
AcDbEntity
8
1
62
256
6
ByLayer
370
18
48
1
60
1
100
AcDbCircle
39
0
10
19
20
-9.5
30
0.6
40
11
210
0
220
0
230
1
100
AcDbArc
50
112.619865
51
115.49467
0
ARC
5
16A
100
AcDbEntity
8
1
62
256
6
ByLayer
370
18
48
1
60
1
100
AcDbCircle
39
0
10
9
20
14.5
30
0.6
40
15
210
0
220
0
230
1
100
AcDbArc
50
292.619865
51
358.120333
0
ARC
5
16B
100
AcDbEntity
8
1
62
256
6
ByLayer
370
18
48
1
60
1
100
AcDbCircle
39
0
10
17.478184
20
-19.350686
30
-1.670394
40
1.5
210
0.00365077175753467
220
-0.0696608749212155
230
-0.997564050259824
100
AcDbArc
50
334.964368
51
360
0
ARC
5
16C
100
AcDbEntity
8
1
62
256
6
ByLayer
370
18
48
1
60
1
100
AcDbCircle
39
0
10
17.276884
20
-20.521383
30
-1.670394
40
1.64983640960441
210
0.00365077175753467
220
-0.0696608749212155
230
-0.997564050259824
100
AcDbArc
50
359.75
51
18.955558
0
ARC
5
16D
100
AcDbEntity
8
1
62
256
6
ByLayer
370
18
48
1
60
1
100
AcDbCircle
39
0
10
17.275818
20
-20.765681
30
-1.670394
40
1.64983640960441
210
0.00365077175753467
220
-0.0696608749212155
230
-0.997564050259824
100
AcDbArc
50
298.480739
51
359.75
0
ARC
5
16E
100
AcDbEntity
8
1
62
256
6
ByLayer
370
18
48
1
60
1
100
AcDbCircle
39
0
10
-17.478184
20
-19.350686
30
-2.529606
40
1.5
210
-0.00365077175753434
220
0.0696608749212149
230
0.997564050259824
100
AcDbArc
50
185.618114
51
247.071195
0
ARC
5
16F
100
AcDbEntity
8
1
62
256
6
ByLayer
370
18
48
1
60
1
100
AcDbCircle
39
0
10
17.478184
20
-19.350686
30
1.879606
40
1.5
210
0.00365077175753467
220
-0.0696608749212155
230
-0.997564050259824
100
AcDbArc
50
292.928805
51
326.917661
0
ARC
5
170
100
AcDbEntity
8
1
62
256
6
ByLayer
370
18
48
1
60
1
100
AcDbCircle
39
0
10
17.478184
20
-19.350686
30
-1.670394
40
1.5
210
0.00365077175753467
220
-0.0696608749212155
230
-0.997564050259824
100
AcDbArc
50
360
51
169.231864
0
ARC
5
171
100
AcDbEntity
8
1
62
256
6
ByLayer
370
18
48
1
60
1
100
AcDbCircle
39
0
10
-17.276884
20
-20.521383
30
0.320394
40
1.5
210
-0.00365077175753434
220
0.0696608749212149
230
0.997564050259824
100
AcDbArc
50
166.430729
51
180.25
0
ARC
5
172
100
AcDbEntity
8
1
62
256
6
ByLayer
370
18
48
1
60
1
100
AcDbCircle
39
0
10
-17.275818
20
-20.765681
30
0.320394
40
1.5
210
-0.00365077175753434
220
0.0696608749212149
230
0.997564050259824
100
AcDbArc
50
180.25
51
238.36557
0
ARC
5
173
100
AcDbEntity
8
1
62
256
6
ByLayer
370
18
48
1
60
1
100
AcDbCircle
39
0
10
-17.275818
20
-20.765681
30
-1.879606
40
1.5
210
-0.00365077175753434
220
0.0696608749212149
230
0.997564050259824
100
AcDbArc
50
180.25
51
238.36557
0
ARC
5
174
100
AcDbEntity
8
1
62
256
6
ByLayer
370
18
48
1
60
1
100
AcDbCircle
39
0
10
13.300064
20
-24.329975
30
-1.651811
40
2.625
210
0.00365077175753467
220
-0.0696608749212155
230
-0.997564050259824
100
AcDbArc
50
50
51
180
0
ARC
5
176
100
AcDbEntity
8
1
62
256
6
ByLayer
370
18
48
1
60
1
100
AcDbCircle
39
0
10
13.300064
20
-24.329975
30
-1.927251
40
1.6765
210
0.00365077175753467
220
-0.0696608749212155
230
-0.997564050259824
100
AcDbArc
50
289.840113
51
350.159887
0
ARC
5
177
100
AcDbEntity
8
1
62
256
6
ByLayer
370
18
48
1
60
1
100
AcDbCircle
39
0
10
13.300064
20
-24.329975
30
-1.927251
40
1.6765
210
0.00365077175753467
220
-0.0696608749212155
230
-0.997564050259824
100
AcDbArc
50
230
51
289.840113
0
ARC
5
178
100
AcDbEntity
8
1
62
256
6
ByLayer
370
18
48
1
60
1
100
AcDbCircle
39
0
10
13.300064
20
-24.329975
30
-1.927251
40
1.6765
210
0.00365077175753467
220
-0.0696608749212155
230
-0.997564050259824
100
AcDbArc
50
170.159887
51
230
0
ARC
5
179
100
AcDbEntity
8
1
62
256
6
ByLayer
370
18
48
1
60
1
100
AcDbCircle
39
0
10
13.300064
20
-24.329975
30
-1.927251
40
1.6765
210
0.00365077175753467
220
-0.0696608749212155
230
-0.997564050259824
100
AcDbArc
50
109.840113
51
170.159887
0
ARC
5
17A
100
AcDbEntity
8
1
62
256
6
ByLayer
370
18
48
1
60
1
100
AcDbCircle
39
0
10
13.300064
20
-24.329975
30
-1.927251
40
1.6765
210
0.00365077175753467
220
-0.0696608749212155
230
-0.997564050259824
100
AcDbArc
50
50
51
109.840113
0
ARC
5
17B
100
AcDbEntity
8
1
62
256
6
ByLayer
370
18
48
1
60
1
100
AcDbCircle
39
0
10
13.300064
20
-24.329975
30
-1.927251
40
1.6765
210
0.00365077175753467
220
-0.0696608749212155
230
-0.997564050259824
100
AcDbArc
50
350.159887
51
50
0
ARC
5
17C
100
AcDbEntity
8
1
62
256
6
ByLayer
370
18
48
1
60
1
100
AcDbCircle
39
0
10
13.300064
20
-24.329975
30
-1.655897
40
1.2065
210
0.00365077175753467
220
-0.0696608749212155
230
-0.997564050259824
100
AcDbArc
50
136.044721
51
143.955279
0
ARC
5
17D
100
AcDbEntity
8
1
62
256
6
ByLayer
370
18
48
1
60
1
100
AcDbCircle
39
0
10
-11.935932
20
-24.093365
30
0.502251
40
0.292
210
-0.00365077175753434
220
0.0696608749212149
230
0.997564050259824
100
AcDbArc
50
295.000702
51
338.565896
0
ARC
5
17E
100
AcDbEntity
8
1
62
256
6
ByLayer
370
18
48
1
60
0
100
AcDbCircle
39
0
10
-11.935932
20
-24.093365
30
0.502251
40
0.292
210
-0.00365077175753434
220
0.0696608749212149
230
0.997564050259824
100
AcDbArc
50
338.565896
51
340.86357
0
ARC
5
17F
100
AcDbEntity
8
1
62
256
6
ByLayer
370
18
48
1
60
1
100
AcDbCircle
39
0
10
-14.664196
20
-24.566585
30
0.502251
40
0.292
210
-0.00365077175753434
220
0.0696608749212149
230
0.997564050259824
100
AcDbArc
50
189.683299
51
265.335935
0
ARC
5
180
100
AcDbEntity
8
1
62
256
6
ByLayer
370
18
48
1
60
1
100
AcDbCircle
39
0
10
-15.077528
20
-23.680221
30
0.502251
40
0.686
210
-0.00365077175753434
220
0.0696608749212149
230
0.997564050259824
100
AcDbArc
50
0
51
24.839412
0
ARC
5
181
100
AcDbEntity
8
1
62
256
6
ByLayer
370
18
48
1
60
1
100
AcDbCircle
39
0
10
13.300064
20
-24.329975
30
-1.655897
40
1.2065
210
0.00365077175753467
220
-0.0696608749212155
230
-0.997564050259824
100
AcDbArc
50
316.044721
51
323.955279
0
ARC
5
182
100
AcDbEntity
8
1
62
256
6
ByLayer
370
18
48
1
60
1
100
AcDbCircle
39
0
10
13.300064
20
-24.329975
30
-0.527251
40
2.625
210
0.00365077175753467
220
-0.0696608749212155
230
-0.997564050259824
100
AcDbArc
50
0
51
50
0
ARC
5
183
100
AcDbEntity
8
1
62
256
6
ByLayer
370
18
48
1
60
1
100
AcDbCircle
39
0
10
13.300064
20
-24.329975
30
-1.651811
40
2.625
210
0.00365077175753467
220
-0.0696608749212155
230
-0.997564050259824
100
AcDbArc
50
360
51
50
0
ARC
5
184
100
AcDbEntity
8
1
62
256
6
ByLayer
370
18
48
1
60
1
100
AcDbCircle
39
0
10
13.300064
20
-24.329975
30
-1.651811
40
2.625
210
0.00365077175753467
220
-0.0696608749212155
230
-0.997564050259824
100
AcDbArc
50
180
51
360
0
ARC
5
185
100
AcDbEntity
8
1
62
256
6
ByLayer
370
18
48
1
60
1
100
AcDbCircle
39
0
10
13.300064
20
-24.329975
30
-0.527251
40
2.625
210
0.00365077175753467
220
-0.0696608749212155
230
-0.997564050259824
100
AcDbArc
50
50
51
180
0
ARC
5
186
100
AcDbEntity
8
1
62
256
6
ByLayer
370
18
48
1
60
1
100
AcDbCircle
39
0
10
-12.410125
20
-25.390564
30
0.502251000000001
40
0.292
210
-0.00365077175753434
220
0.0696608749212149
230
0.997564050259824
100
AcDbArc
50
235.160588
51
350.052401
0
ARC
5
187
100
AcDbEntity
8
1
62
256
6
ByLayer
370
18
48
1
60
1
100
AcDbCircle
39
0
10
-11.522601
20
-24.979729
30
0.502251
40
0.686
210
-0.00365077175753434
220
0.0696608749212149
230
0.997564050259824
100
AcDbArc
50
159.920057
51
180
0
ARC
5
188
100
AcDbEntity
8
1
62
256
6
ByLayer
370
18
48
1
60
1
100
AcDbCircle
39
0
10
-11.522601
20
-24.979729
30
0.502251
40
0.686
210
-0.00365077175753434
220
0.0696608749212149
230
0.997564050259824
100
AcDbArc
50
115.000702
51
159.920057
0
ARC
5
189
100
AcDbEntity
8
1
62
256
6
ByLayer
370
18
48
1
60
1
100
AcDbCircle
39
0
10
-13.769959
20
-25.632296
30
0.502251
40
0.292
210
-0.00365077175753434
220
0.0696608749212149
230
0.997564050259824
100
AcDbArc
50
192.462035
51
324.999298
0
ARC
5
18A
100
AcDbEntity
8
1
62
256
6
ByLayer
370
18
48
1
60
1
100
AcDbCircle
39
0
10
-12.968835
20
-26.193263
30
0.502251
40
0.686
210
-0.00365077175753434
220
0.0696608749212149
230
0.997564050259824
100
AcDbArc
50
100.079943
51
144.999298
0
ARC
5
18B
100
AcDbEntity
8
1
62
256
6
ByLayer
370
18
48
1
60
1
100
AcDbCircle
39
0
10
-12.968835
20
-26.193263
30
0.502251
40
0.686
210
-0.00365077175753434
220
0.0696608749212149
230
0.997564050259824
100
AcDbArc
50
55.160588
51
100.079943
0
ARC
5
18C
100
AcDbEntity
8
1
62
256
6
ByLayer
370
18
48
1
60
1
100
AcDbCircle
39
0
10
-14.743721
20
-25.541347
30
0.502251
40
0.686
210
-0.00365077175753434
220
0.0696608749212149
230
0.997564050259824
100
AcDbArc
50
46.967971
51
85.335935
0
ARC
5
18D
100
AcDbEntity
8
1
62
256
6
ByLayer
370
18
48
1
60
1
100
AcDbCircle
39
0
10
-14.743721
20
-25.541347
30
0.502251
40
0.686
210
-0.00365077175753434
220
0.0696608749212149
230
0.997564050259824
100
AcDbArc
50
0
51
33.032029
0
ARC
5
18E
100
AcDbEntity
8
1
62
256
6
ByLayer
370
18
48
1
60
1
100
AcDbCircle
39
0
10
13.300064
20
-24.329975
30
-0.502251
40
1.2065
210
0.00365077175753467
220
-0.0696608749212155
230
-0.997564050259824
100
AcDbArc
50
316.044721
51
323.955279
0
ARC
5
18F
100
AcDbEntity
8
1
62
256
6
ByLayer
370
18
48
1
60
1
100
AcDbCircle
39
0
10
13.300064
20
-24.329975
30
-0.502251
40
1.2065
210
0.00365077175753467
220
-0.0696608749212155
230
-0.997564050259824
100
AcDbArc
50
90.16361
51
132.17592
0
ARC
5
190
100
AcDbEntity
8
1
62
256
6
ByLayer
370
18
48
1
60
1
100
AcDbCircle
39
0
10
-13.300064
20
-24.329975
30
0.502251
40
1.2065
210
-0.00365077175753434
220
0.0696608749212149
230
0.997564050259824
100
AcDbArc
50
339.920057
51
28.250633
0
ARC
5
191
100
AcDbEntity
8
1
62
256
6
ByLayer
370
18
48
1
60
1
100
AcDbCircle
39
0
10
-13.300064
20
-24.329975
30
0.502251
40
1.2065
210
-0.00365077175753434
220
0.0696608749212149
230
0.997564050259824
100
AcDbArc
50
280.079943
51
339.920057
0
ARC
5
192
100
AcDbEntity
8
1
62
256
6
ByLayer
370
18
48
1
60
1
100
AcDbCircle
39
0
10
-13.300064
20
-24.329975
30
0.502251
40
1.2065
210
-0.00365077175753434
220
0.0696608749212149
230
0.997564050259824
100
AcDbArc
50
223.955279
51
280.079943
0
ARC
5
193
100
AcDbEntity
8
1
62
256
6
ByLayer
370
18
48
1
60
1
100
AcDbCircle
39
0
10
-13.300064
20
-24.329975
30
0.502251
40
1.2065
210
-0.00365077175753434
220
0.0696608749212149
230
0.997564050259824
100
AcDbArc
50
164.797308
51
216.044721
0
ARC
5
194
100
AcDbEntity
8
1
62
256
6
ByLayer
370
18
48
1
60
1
100
AcDbCircle
39
0
10
-13.300064
20
-24.329975
30
0.502251
40
1.2065
210
-0.00365077175753434
220
0.0696608749212149
230
0.997564050259824
100
AcDbArc
50
110.697245
51
156.797924
0
ARC
5
195
100
AcDbEntity
8
1
62
256
6
ByLayer
370
18
48
1
60
0
100
AcDbCircle
39
0
10
19.256239
20
-9.505466
30
0
40
11.4999999998564
210
0
220
0
230
1
100
AcDbArc
50
160.207622
51
170.732113
0
ARC
5
196
100
AcDbEntity
8
1
62
256
6
ByLayer
370
18
48
1
60
0
100
AcDbCircle
39
0
10
19
20
-9.5
30
0
40
11
210
0
220
0
230
1
100
AcDbArc
50
130.552113
51
174.90555
0
ARC
5
197
100
AcDbEntity
8
1
62
256
6
ByLayer
370
18
48
1
60
0
100
AcDbCircle
39
0
10
1
20
11.060519
30
0
40
16.0000000001178
210
0
220
0
230
1
100
AcDbArc
50
311.595175
51
326.625297
0
ARC
5
198
100
AcDbEntity
8
1
62
256
6
ByLayer
370
18
48
1
60
0
100
AcDbCircle
39
0
10
19
20
-9.5
30
0
40
11
210
0
220
0
230
1
100
AcDbArc
50
115.49467
51
130.552113
0
ARC
5
199
100
AcDbEntity
8
1
62
256
6
ByLayer
370
18
48
1
60
0
100
AcDbCircle
39
0
10
19
20
-9.5
30
0
40
11
210
0
220
0
230
1
100
AcDbArc
50
112.619865
51
115.49467
0
ARC
5
19A
100
AcDbEntity
8
1
62
256
6
ByLayer
370
18
48
1
60
0
100
AcDbCircle
39
0
10
-1
20
11.060519
30
0
40
17
210
0
220
0
230
-1
100
AcDbArc
50
158.648412
51
218.710862
0
ARC
5
19B
100
AcDbEntity
8
1
62
256
6
ByLayer
370
18
48
1
60
0
100
AcDbCircle
39
0
10
-7.574086
20
13.5
30
0
40
1
210
0
220
0
230
-1
100
AcDbArc
50
194.437561
51
270
0
ARC
5
19C
100
AcDbEntity
8
1
62
256
6
ByLayer
370
18
48
1
60
0
100
AcDbCircle
39
0
10
19.256239
20
-9.505466
30
0
40
11.499999999952
210
0
220
0
230
1
100
AcDbArc
50
131.595175
51
144.216249
0
ARC
5
19D
100
AcDbEntity
8
1
62
256
6
ByLayer
370
18
48
1
60
0
100
AcDbCircle
39
0
10
1
20
11.060519
30
0
40
16.0000000000013
210
0
220
0
230
1
100
AcDbArc
50
345.364903
51
21.147526
0
ARC
5
19E
100
AcDbEntity
8
1
62
256
6
ByLayer
370
18
48
1
60
0
100
AcDbCircle
39
0
10
9
20
14.5
30
0
40
15
210
0
220
0
230
1
100
AcDbArc
50
292.619865
51
358.120333
0
CIRCLE
5
141
100
AcDbEntity
8
1
62
256
6
ByLayer
370
18
48
1
60
1
100
AcDbCircle
10
13.300064
20
-24.329975
30
-2.090394
40
3
39
0
210
0.00365077175753467
220
-0.0696608749212155
230
-0.997564050259824
0
CIRCLE
5
144
100
AcDbEntity
8
1
62
256
6
ByLayer
370
18
48
1
60
1
100
AcDbCircle
10
-13.300064
20
-24.329975
30
1.00531
40
2.88383409409708
39
0
210
-0.00365077175753434
220
0.0696608749212149
230
0.997564050259824
0
CIRCLE
5
175
100
AcDbEntity
8
1
62
256
6
ByLayer
370
18
48
1
60
1
100
AcDbCircle
10
13.300064
20
-24.329975
30
-1.927251
40
1.8
39
0
210
0.00365077175753467
220
-0.0696608749212155
230
-0.997564050259824
0
ELLIPSE
5
19F
100
AcDbEntity
8
1
62
256
6
ByLayer
370
18
48
1
60
1
100
AcDbEllipse
10
1
20
11.060519
30
16.101616
11
16
21
3.95488893740956E-15
31
-14.4064647087654
210
-0.669130606358858
220
0
230
-0.743144825477394
40
0.743145
41
-0.369093960285093
42
0.255430635765863
0
ELLIPSE
5
1A0
100
AcDbEntity
8
1
62
256
6
ByLayer
370
18
48
1
60
1
100
AcDbEllipse
10
12.600083
20
5.656854
30
5.656854
11
4.16479693060947
21
-1.02945683171404E-15
31
-3.75
210
0.669130606358858
220
0
230
0.743144825477394
40
0.669131
41
0.371434279961599
42
1.5707963267949
0
ELLIPSE
5
1A1
100
AcDbEntity
8
1
62
256
6
ByLayer
370
18
48
1
60
1
100
AcDbEllipse
10
1
20
11.060519
30
16.101616
11
16
21
3.95488893740956E-15
31
-14.4064647087654
210
-0.669130606358858
220
0
230
-0.743144825477394
40
0.743145
41
0.582498456142657
42
0.844823569084774
0
ELLIPSE
5
1A2
100
AcDbEntity
8
1
62
256
6
ByLayer
370
18
48
1
60
1
100
AcDbEllipse
10
19.256239
20
-9.505466
30
-0.336375
11
11.5
21
-2.84257642376313E-15
31
-10.3546465094252
210
0.669130606358858
220
0
230
0.743144825477394
40
0.743145
41
2.29676908450502
42
2.51704837128096
0
ELLIPSE
5
1A3
100
AcDbEntity
8
1
62
256
6
ByLayer
370
18
48
1
60
1
100
AcDbEllipse
10
12.600083
20
-5.656854
30
5.656854
11
4.16479693060947
21
-1.02945683171404E-15
31
-3.75
210
0.669130606358858
220
0
230
0.743144825477394
40
0.669131
41
2.2676453990105
42
3.12947640430251
0
ELLIPSE
5
1A4
100
AcDbEntity
8
1
62
256
6
ByLayer
370
18
48
1
60
1
100
AcDbEllipse
10
19.256239
20
-9.505466
30
-0.336375
11
11.5
21
-2.84257642376313E-15
31
-10.3546465094252
210
0.669130606358858
220
0
230
0.743144825477394
40
0.743145
41
2.79615048757845
42
2.97983750247794
0
ELLIPSE
5
1A5
100
AcDbEntity
8
1
62
256
6
ByLayer
370
18
48
1
60
1
100
AcDbEllipse
10
18.882656
20
0
30
0
11
-13.8826564353649
21
-1.14384092412671E-15
31
12.5
210
-0.669130606358858
220
0
230
-0.743144825477394
40
0.669131
41
-0.658929294261719
42
0.970482115214928
0
ELLIPSE
5
1A6
100
AcDbEntity
8
1
62
256
6
ByLayer
370
18
48
1
60
1
100
AcDbEllipse
10
6.962304
20
15.678005
30
10.733134
11
-7.21898134638975
21
5.94797280545892E-16
31
6.5
210
0.669130606358858
220
0
230
0.743144825477394
40
0.669131
41
2.17111053837486
42
3.01941960595019
0
ELLIPSE
5
1A7
100
AcDbEntity
8
1
62
256
6
ByLayer
370
18
48
1
60
1
100
AcDbEllipse
10
8.789124
20
0
30
0
11
-1.09360829407405
21
-12.5
31
0
210
-0.996194698091746
220
0.0871557427476581
230
0
40
0.996195
41
0
42
0.0480184511365472
0
ELLIPSE
5
1A8
100
AcDbEntity
8
1
62
256
6
ByLayer
370
18
48
1
60
1
100
AcDbEllipse
10
8.543931
20
0
30
0
11
-1.09360829407405
21
-12.5
31
1.53660518893566E-15
210
0.996194698091746
220
-0.0871557427476582
230
0
40
0.996195
41
-0.822687207275273
42
-0.100559101144668
0
ELLIPSE
5
1A9
100
AcDbEntity
8
1
62
256
6
ByLayer
370
18
48
1
60
1
100
AcDbEllipse
10
12.600083
20
5.656854
30
5.656854
11
4.16479693060947
21
-1.02945683171404E-15
31
-3.75
210
0.669130606358858
220
0
230
0.743144825477394
40
0.669131
41
-1.5707963267949
42
-1.13413264632336
0
ELLIPSE
5
1AA
100
AcDbEntity
8
1
62
256
6
ByLayer
370
18
48
1
60
1
100
AcDbEllipse
10
12.600083
20
5.656854
30
5.656854
11
4.16479693060947
21
-1.02945683171404E-15
31
-3.75
210
0.669130606358858
220
0
230
0.743144825477394
40
0.669131
41
1.5707963267949
42
-1.5707963267949
0
ELLIPSE
5
1AB
100
AcDbEntity
8
1
62
256
6
ByLayer
370
18
48
1
60
1
100
AcDbEllipse
10
2.856397
20
18.870049
30
2.647149
11
0.495635138802549
21
5.0624784599272
31
-6.16289603532943
210
0.0600698942596735
220
0.768949837508733
230
0.636480757917257
40
0.688277
41
-1.75317416844551
42
-1.7336758586411
0
ELLIPSE
5
1AC
100
AcDbEntity
8
1
62
256
6
ByLayer
370
18
48
1
60
1
100
AcDbEllipse
10
23.831483
20
17.069487
30
1.572151
11
0.0527206081019738
21
-1.00596912945437
31
0.0704407507370791
210
-0.998629534754575
220
-0.0523359562429202
230
-1.73689188032178E-15
40
0.990286
41
-1.5707963267949
42
-1.40453887691209
0
ELLIPSE
5
1AD
100
AcDbEntity
8
1
62
256
6
ByLayer
370
18
48
1
60
1
100
AcDbEllipse
10
-76.014122
20
25.75829
30
0.6
11
102.710665256284
21
-8.93812751055461
31
0
210
0
220
0
230
-1
40
0.009699
41
0.235394609007939
42
0.440989487004408
0
ELLIPSE
5
1AE
100
AcDbEntity
8
1
62
256
6
ByLayer
370
18
48
1
60
1
100
AcDbEllipse
10
17.85029
20
23
30
0.133687
11
-7.32555681664645
21
0.721409793156885
31
-0.0771859945057312
210
0.00365077175753458
220
-0.0696608749212158
230
-0.997564050259824
40
0.815063
41
2.09220637594607
42
2.32974433069881
0
ELLIPSE
5
1AF
100
AcDbEntity
8
1
62
256
6
ByLayer
370
18
48
1
60
0
100
AcDbEllipse
10
18.882656
20
0
30
0
11
13.8826564353649
21
0
31
0
210
0
220
0
230
1
40
0.900404
41
2.17111053837486
42
-2.48266335932808
0
ELLIPSE
5
1B0
100
AcDbEntity
8
1
62
256
6
ByLayer
370
18
48
1
60
0
100
AcDbEllipse
10
8.796195
20
-8.590331
30
0
11
-0.996194697889476
21
0.0871557427298228
31
0
210
0
220
0
230
1
40
0.001902
41
-0.71403521634596
42
0
0
ELLIPSE
5
1B1
100
AcDbEntity
8
1
62
256
6
ByLayer
370
18
48
1
60
0
100
AcDbEllipse
10
2.8647
20
18.711613
30
0
11
5.49246243935306
21
0.287847774354677
31
0
210
0
220
0
230
1
40
0.997564
41
-0.118960444658771
42
-2.73727339685449E-09
0
ELLIPSE
5
1B2
100
AcDbEntity
8
1
62
256
6
ByLayer
370
18
48
1
60
0
100
AcDbEllipse
10
12.003975
20
25.079137
30
0
11
2.99588860426369
21
0.157007868729424
31
0
210
0
220
0
230
1
40
0.997564
41
0
42
6.28318530717959
0
ELLIPSE
5
1B3
100
AcDbEntity
8
1
62
256
6
ByLayer
370
18
48
1
60
0
100
AcDbEllipse
10
12.007936
20
25.003549
30
0
11
2.87988189969756
21
0.150928214960338
31
0
210
0
220
0
230
1
40
0.997564
41
0
42
6.28318530717959
0
ELLIPSE
5
1B4
100
AcDbEntity
8
1
62
256
6
ByLayer
370
18
48
1
60
0
100
AcDbEllipse
10
12.005576
20
25.048584
30
0
11
2.62140252873072
21
0.137381885138375
31
0
210
0
220
0
230
1
40
0.997564
41
0
42
3.14159265358979
0
ELLIPSE
5
1B5
100
AcDbEntity
8
1
62
256
6
ByLayer
370
18
48
1
60
0
100
AcDbEllipse
10
12.005576
20
25.048584
30
0
11
2.62140252873067
21
0.13738188513952
31
0
210
0
220
0
230
1
40
0.997564
41
3.14159265358979
42
-0.872664625997852
0
ELLIPSE
5
1B6
100
AcDbEntity
8
1
62
256
6
ByLayer
370
18
48
1
60
0
100
AcDbEllipse
10
12.00457
20
25.067772
30
0
11
1.79753316255819
21
0.0942047212382031
31
0
210
0
220
0
230
1
40
0.997564
41
0
42
6.28318530717959
0
ELLIPSE
5
1B7
100
AcDbEntity
8
1
62
256
6
ByLayer
370
18
48
1
60
0
100
AcDbEllipse
10
12.00457
20
25.067772
30
0
11
1.67420241501445
21
0.0877412306667702
31
0
210
0
220
0
230
1
40
0.997564
41
2.26892802757737
42
-2.96985027608687
0
ELLIPSE
5
1B8
100
AcDbEntity
8
1
62
256
6
ByLayer
370
18
48
1
60
0
100
AcDbEllipse
10
12.00457
20
25.067772
30
0
11
1.67420241501738
21
0.0877412306112288
31
0
210
0
220
0
230
1
40
0.997564
41
-2.96985027605379
42
-1.91707162949441
0
ELLIPSE
5
1B9
100
AcDbEntity
8
1
62
256
6
ByLayer
370
18
48
1
60
0
100
AcDbEllipse
10
10.659863
20
24.661402
30
0
11
0.291599824152805
21
0.015282099148877
31
0
210
0
220
0
230
1
40
0.997564
41
2.00714088598418
42
2.76749696126664
0
ELLIPSE
5
1BA
100
AcDbEntity
8
1
62
256
6
ByLayer
370
18
48
1
60
0
100
AcDbEllipse
10
10.200822
20
25.522763
30
0
11
0.685059860845958
21
0.0359024659114225
31
0
210
0
220
0
230
1
40
0.997564
41
-1.13445176775603
42
-0.350461124135668
0
ELLIPSE
5
1BB
100
AcDbEntity
8
1
62
256
6
ByLayer
370
18
48
1
60
0
100
AcDbEllipse
10
11.065681
20
25.978484
30
0
11
0.291599824148223
21
0.0152820992249001
31
0
210
0
220
0
230
1
40
0.997564
41
0.962733882207434
42
2.96797429784348
0
ELLIPSE
5
1BC
100
AcDbEntity
8
1
62
256
6
ByLayer
370
18
48
1
60
0
100
AcDbEllipse
10
12.009773
20
24.968505
30
0
11
1.20484653368119
21
0.0631433311782938
31
0
210
0
220
0
230
1
40
0.997564
41
2.7911315293738
42
-2.64852608990495
0
ELLIPSE
5
1BD
100
AcDbEntity
8
1
62
256
6
ByLayer
370
18
48
1
60
0
100
AcDbEllipse
10
12.009773
20
24.968505
30
0
11
1.20484653368052
21
0.0631433312223737
31
0
210
0
220
0
230
1
40
0.997564
41
1.74672452582232
42
2.79113152933763
0
ELLIPSE
5
1BE
100
AcDbEntity
8
1
62
256
6
ByLayer
370
18
48
1
60
0
100
AcDbEllipse
10
10.200822
20
25.522763
30
0
11
0.685059860787205
21
0.0359024667028791
31
0
210
0
220
0
230
1
40
0.997564
41
-0.350461125293867
42
-1.04996607113959E-09
0
ELLIPSE
5
1BF
100
AcDbEntity
8
1
62
256
6
ByLayer
370
18
48
1
60
0
100
AcDbEllipse
10
12.00457
20
25.067772
30
0
11
1.6742024150162
21
0.0877412306385071
31
0
210
0
220
0
230
1
40
0.997564
41
1.22452102407904
42
2.26892802759429
0
ELLIPSE
5
1C0
100
AcDbEntity
8
1
62
256
6
ByLayer
370
18
48
1
60
0
100
AcDbEllipse
10
6.962304
20
15.678005
30
0
11
7.21898134639083
21
0
31
0
210
0
220
0
230
1
40
0.900404
41
-0.970482115214856
42
-0.122173047639621
0
ELLIPSE
5
1C1
100
AcDbEntity
8
1
62
256
6
ByLayer
370
18
48
1
60
0
100
AcDbEllipse
10
11.581718
20
26.807372
30
0
11
0.685059860851042
21
0.0359024657572926
31
0
210
0
220
0
230
1
40
0.997564
41
-2.17885877104811
42
-1.39486812742457
0
ELLIPSE
5
1C2
100
AcDbEntity
8
1
62
256
6
ByLayer
370
18
48
1
60
0
100
AcDbEllipse
10
12.00457
20
25.067772
30
0
11
1.67420241501363
21
0.0877412306783935
31
0
210
0
220
0
230
1
40
0.997564
41
-1.91707162953475
42
-0.872664626019187
0
ELLIPSE
5
1C3
100
AcDbEntity
8
1
62
256
6
ByLayer
370
18
48
1
60
0
100
AcDbEllipse
10
12.009773
20
24.968505
30
0
11
1.20484653368484
21
0.0631433311294007
31
0
210
0
220
0
230
1
40
0.997564
41
0.767164334273843
42
1.74672452589971
0
ELLIPSE
5
1C4
100
AcDbEntity
8
1
62
256
6
ByLayer
370
18
48
1
60
0
100
AcDbEllipse
10
11.581718
20
26.807372
30
0
11
0.685059860833615
21
0.0359024661188642
31
0
210
0
220
0
230
1
40
0.997564
41
-1.39486812795406
42
-0.610877484332431
0
ELLIPSE
5
1C5
100
AcDbEntity
8
1
62
256
6
ByLayer
370
18
48
1
60
0
100
AcDbEllipse
10
12.411031
20
26.290465
30
0
11
0.291599824148351
21
0.015282099222688
31
0
210
0
220
0
230
1
40
0.997564
41
0.217503536256587
42
2.53071516945664
0
ELLIPSE
5
1C6
100
AcDbEntity
8
1
62
256
6
ByLayer
370
18
48
1
60
0
100
AcDbEllipse
10
12.00457
20
25.067772
30
0
11
1.67420241501629
21
0.0877412306358044
31
0
210
0
220
0
230
1
40
0.997564
41
0.171742377521361
42
1.22452102408065
0
ELLIPSE
5
1C7
100
AcDbEntity
8
1
62
256
6
ByLayer
370
18
48
1
60
0
100
AcDbEllipse
10
12.600083
20
5.656854
30
0
11
4.16479693060862
21
0
31
0
210
0
220
0
230
1
40
0.900404
41
-1.5707963267949
42
-1.13413264632327
0
ELLIPSE
5
1C8
100
AcDbEntity
8
1
62
256
6
ByLayer
370
18
48
1
60
0
100
AcDbEllipse
10
13.388207
20
26.250825
30
0
11
0.685059860839211
21
0.0359024660616175
31
0
210
0
220
0
230
1
40
0.997564
41
3.14159265347495
42
-2.56507499412454
0
ELLIPSE
5
1C9
100
AcDbEntity
8
1
62
256
6
ByLayer
370
18
48
1
60
0
100
AcDbEllipse
10
12.009773
20
24.968505
30
0
11
1.20484656112486
21
0.0631427151109842
31
0
210
0
220
0
230
1
40
0.997564
41
0.629099578350151
42
0.76716484552313
0
ELLIPSE
5
1CA
100
AcDbEntity
8
1
62
256
6
ByLayer
370
18
48
1
60
0
100
AcDbEllipse
10
12.009773
20
24.968505
30
0
11
1.20484653368062
21
0.0631433312369191
31
0
210
0
220
0
230
1
40
0.997564
41
-0.265337023907846
42
0.62909906736097
0
ELLIPSE
5
1CB
100
AcDbEntity
8
1
62
256
6
ByLayer
370
18
48
1
60
0
100
AcDbEllipse
10
13.388207
20
26.250825
30
0
11
0.685059860851632
21
0.0359024657621608
31
0
210
0
220
0
230
1
40
0.997564
41
-2.321846911254
42
-1.65219961754834
0
ELLIPSE
5
1CC
100
AcDbEntity
8
1
62
256
6
ByLayer
370
18
48
1
60
0
100
AcDbEllipse
10
12.00457
20
25.067772
30
0
11
1.6742024150121
21
0.0877412307021167
31
0
210
0
220
0
230
1
40
0.997564
41
-0.872664626033641
42
0.171742377481875
0
ELLIPSE
5
1CD
100
AcDbEntity
8
1
62
256
6
ByLayer
370
18
48
1
60
0
100
AcDbEllipse
10
-76.014122
20
25.75829
30
0
11
102.710665256284
21
-8.93812751055461
31
0
210
0
220
0
230
-1
40
0.009699
41
0.235394609007939
42
0.440989487004408
0
ELLIPSE
5
1CE
100
AcDbEntity
8
1
62
256
6
ByLayer
370
18
48
1
60
0
100
AcDbEllipse
10
16.166828
20
21.613173
30
0
11
1.49794430213131
21
0.0785039343778922
31
0
210
0
220
0
230
1
40
0.997564
41
0.00436332312102919
42
1.01867136351714
0
ELLIPSE
5
1CF
100
AcDbEntity
8
1
62
256
6
ByLayer
370
18
48
1
60
0
100
AcDbEllipse
10
16.174859
20
21.459919
30
0
11
1.49794430213671
21
0.0785039342532704
31
0
210
0
220
0
230
1
40
0.997564
41
0.00436332320394953
42
1.01867136360051
0
ELLIPSE
5
1D0
100
AcDbEntity
8
1
62
256
6
ByLayer
370
18
48
1
60
0
100
AcDbEllipse
10
16.180647
20
21.36986
30
0
11
1.49794430173266
21
0.0785039393634705
31
0
210
0
220
0
230
1
40
0.997564
41
-0.236828451866783
42
0.00436331979638625
0
ELLIPSE
5
1D1
100
AcDbEntity
8
1
62
256
6
ByLayer
370
18
48
1
60
0
100
AcDbEllipse
10
16.175718
20
21.463902
30
0
11
1.64757536593214
21
0.0863457687856965
31
0
210
0
220
0
230
1
40
0.997564
41
-0.330836903433332
42
0.00436332152656634
0
ELLIPSE
5
1D2
100
AcDbEntity
8
1
62
256
6
ByLayer
370
18
48
1
60
0
100
AcDbEllipse
10
7.793995
20
29.582929
30
0
11
0.792911850595872
21
0.041554749244155
31
0
210
0
220
0
230
1
40
0.997564
41
1.3962634016116
42
3.14159265358979
0
ELLIPSE
5
1D3
100
AcDbEntity
8
1
62
256
6
ByLayer
370
18
48
1
60
0
100
AcDbEllipse
10
15.793183
20
28.604135
30
0
11
0.792911850595496
21
0.0415547492490117
31
0
210
0
220
0
230
1
40
0.997564
41
0
42
1.39626340160542
0
ELLIPSE
5
1D4
100
AcDbEntity
8
1
62
256
6
ByLayer
370
18
48
1
60
0
100
AcDbEllipse
10
16.213955
20
20.575344
30
0
11
0.792911850596142
21
0.0415547492393822
31
0
210
0
220
0
230
1
40
0.997564
41
-1.74532925197215
42
0
0
ELLIPSE
5
1D5
100
AcDbEntity
8
1
62
256
6
ByLayer
370
18
48
1
60
0
100
AcDbEllipse
10
8.214766
20
21.554138
30
0
11
0.792911850594422
21
0.0415547492723397
31
0
210
0
220
0
230
1
40
0.997564
41
3.14159265358979
42
-1.74532925201385
0
ELLIPSE
5
1D6
100
AcDbEntity
8
1
62
256
6
ByLayer
370
18
48
1
60
0
100
AcDbEllipse
10
2.8564
20
18.870048
30
0
11
-5.50111732057661
21
0.0955414357960981
31
0
210
0
220
0
230
1
40
0.92409
41
2.88505480046422
42
2.90455311712094
0
ELLIPSE
5
1D7
100
AcDbEntity
8
1
62
256
6
ByLayer
370
18
48
1
60
0
100
AcDbEllipse
10
12.600083
20
-5.656854
30
0
11
4.16479693060954
21
0
31
0
210
0
220
0
230
1
40
0.900404
41
2.26764539901051
42
3.12947640430252
0
ELLIPSE
5
1D8
100
AcDbEntity
8
1
62
256
6
ByLayer
370
18
48
1
60
0
100
AcDbEllipse
10
12.009681
20
24.970247
30
0
11
2.62140252873079
21
0.137381885137132
31
0
210
0
220
0
230
1
40
0.997564
41
3.14159265358979
42
-0.872664625996937
0
ELLIPSE
5
1D9
100
AcDbEntity
8
1
62
256
6
ByLayer
370
18
48
1
60
0
100
AcDbEllipse
10
12.009681
20
24.970247
30
0
11
2.62140252872426
21
0.137381885239873
31
0
210
0
220
0
230
1
40
0.997564
41
-0.872664626036259
42
0
0
ELLIPSE
5
1DA
100
AcDbEntity
8
1
62
256
6
ByLayer
370
18
48
1
60
0
100
AcDbEllipse
10
12.005576
20
25.048584
30
0
11
2.62140252873563
21
0.137381885061464
31
0
210
0
220
0
230
1
40
0.997564
41
-0.872664625967969
42
0
0
ELLIPSE
5
1DB
100
AcDbEntity
8
1
62
256
6
ByLayer
370
18
48
1
60
0
100
AcDbEllipse
10
12.0074
20
25.013777
30
0
11
2.93036938553363
21
0.15357415197513
31
0
210
0
220
0
230
1
40
0.997564
41
2.26892802759253
42
-0.872761759586164
0
ELLIPSE
5
1DC
100
AcDbEntity
8
1
62
256
6
ByLayer
370
18
48
1
60
0
100
AcDbEllipse
10
12.0074
20
25.013777
30
0
11
2.93036938553362
21
0.153574151975356
31
0
210
0
220
0
230
1
40
0.997564
41
-0.87276175958624
42
2.26892802759245
0
ELLIPSE
5
1DD
100
AcDbEntity
8
1
62
256
6
ByLayer
370
18
48
1
60
0
100
AcDbEllipse
10
12.005561
20
25.048869
30
0
11
1.20484656112486
21
0.0631427151109842
31
0
210
0
220
0
230
1
40
0.997564
41
-2.51249307523964
42
-2.37442780806666
0
ELLIPSE
5
1DE
100
AcDbEntity
8
1
62
256
6
ByLayer
370
18
48
1
60
0
100
AcDbEllipse
10
12.009773
20
24.968505
30
0
11
1.20484653370697
21
0.0631433306378933
31
0
210
0
220
0
230
1
40
0.997564
41
-2.30690500097508
42
-1.57365185400594
0
ELLIPSE
5
1DF
100
AcDbEntity
8
1
62
256
6
ByLayer
370
18
48
1
60
0
100
AcDbEllipse
10
12.285675
20
-1.652999
30
0
11
-0.663863237376882
21
0.747853997808673
31
0
210
0
220
0
230
1
40
0.016538
41
-0.833386642202046
42
-1.34263275442841E-14
0
ELLIPSE
5
1E0
100
AcDbEntity
8
1
62
256
6
ByLayer
370
18
48
1
60
0
100
AcDbEllipse
10
12.009773
20
24.968505
30
0
11
1.20484653368261
21
0.0631433311865004
31
0
210
0
220
0
230
1
40
0.997564
41
-1.20956124939789
42
-0.404952612981835
0
ELLIPSE
5
1E1
100
AcDbEntity
8
1
62
256
6
ByLayer
370
18
48
1
60
0
100
AcDbEllipse
10
12.600083
20
5.656854
30
0
11
4.16479693060947
21
0
31
0
210
0
220
0
230
1
40
0.900404
41
1.5707963267949
42
-1.5707963267949
0
ELLIPSE
5
1E2
100
AcDbEntity
8
1
62
256
6
ByLayer
370
18
48
1
60
0
100
AcDbEllipse
10
12.600083
20
5.656854
30
0
11
4.16479693060961
21
0
31
0
210
0
220
0
230
1
40
0.900404
41
0.371434279961633
42
1.5707963267949
0
ELLIPSE
5
1E3
100
AcDbEntity
8
1
62
256
6
ByLayer
370
18
48
1
60
0
100
AcDbEllipse
10
12.005561
20
25.048869
30
0
11
1.20484654379016
21
0.0631431045308891
31
0
210
0
220
0
230
1
40
0.997564
41
0.629099255375718
42
0.767164522327731
0
ELLIPSE
5
1E4
100
AcDbEntity
8
1
62
256
6
ByLayer
370
18
48
1
60
0
100
AcDbEllipse
10
13.818723
20
24.414248
30
0
11
0.685059860892122
21
0.0359024642257291
31
0
210
0
220
0
230
1
40
0.997564
41
-3.14159265103468
42
-2.70806313163997
0
ELLIPSE
5
1E5
100
AcDbEntity
8
1
62
256
6
ByLayer
370
18
48
1
60
0
100
AcDbEllipse
10
13.359682
20
25.275609
30
0
11
0.291599824148556
21
0.0152820992185864
31
0
210
0
220
0
230
1
40
0.997564
41
0.169005443407254
42
1.48939303573387
0
ELLIPSE
5
1E6
100
AcDbEntity
8
1
62
256
6
ByLayer
370
18
48
1
60
0
100
AcDbEllipse
10
16.437862
20
20.308193
30
0
11
1.49794430213189
21
0.0785039343638882
31
0
210
0
220
0
230
1
40
0.997564
41
-2.9536532224768
42
0
0
ELLIPSE
5
1E7
100
AcDbEntity
8
1
62
256
6
ByLayer
370
18
48
1
60
0
100
AcDbEllipse
10
16.437862
20
20.308193
30
0
11
1.49794430208548
21
0.0785039361113475
31
0
210
0
220
0
230
1
40
0.997564
41
0
42
0.43695420381708
0
ELLIPSE
5
1E8
100
AcDbEntity
8
1
62
256
6
ByLayer
370
18
48
1
60
0
100
AcDbEllipse
10
17.85029
20
23
30
0
11
-7.32657396121227
21
0.711044533366474
31
0
210
0
220
0
230
1
40
0.813166
41
-2.3314843156417
42
-2.09394636089174
0
ELLIPSE
5
1E9
100
AcDbEntity
8
1
62
256
6
ByLayer
370
18
48
1
60
0
100
AcDbEllipse
10
16.161899
20
21.707215
30
0
11
1.64757536614113
21
0.0863457662166743
31
0
210
0
220
0
230
1
40
0.997564
41
0.00436332308423694
42
1.07371365359885
0
ELLIPSE
5
1EA
100
AcDbEntity
8
1
62
256
6
ByLayer
370
18
48
1
60
0
100
AcDbEllipse
10
16.453196
20
20.015617
30
0
11
1.49794430213014
21
0.07850393440475
31
0
210
0
220
0
230
1
40
0.997564
41
0.0980545885082253
42
1.17061318046584
0
ELLIPSE
5
1EB
100
AcDbEntity
8
1
62
256
6
ByLayer
370
18
48
1
60
0
100
AcDbEllipse
10
16.450823
20
20.060896
30
0
11
1.49794430210452
21
0.0785039349654409
31
0
210
0
220
0
230
1
40
0.997564
41
0.577395741928463
42
1.17061318009109
0
POINT
5
6C
100
AcDbEntity
8
80
62
256
6
ByLayer
370
18
48
1
60
0
100
AcDbPoint
10
0
20
0
30
0
39
0
210
0
220
0
230
1
50
360
0
POINT
5
6E
100
AcDbEntity
8
81
62
256
6
ByLayer
370
18
48
1
60
0
100
AcDbPoint
10
7
20
30.5
30
0
39
0
210
0
220
0
230
1
50
360
0
SPLINE
5
1EC
100
AcDbEntity
8
1
62
256
6
ByLayer
370
18
48
1
60
1
100
AcDbSpline
70
4
71
1
72
4
73
2
40
0
40
0
40
1
40
1
41
1
10
0.268331828749801
20
-8.12819294108704
30
9.21738337651123
41
1
10
-0.270999999999999
20
-7.6645720037064
30
8.906
0
SPLINE
5
1ED
100
AcDbEntity
8
1
62
256
6
ByLayer
370
18
48
1
60
1
100
AcDbSpline
70
4
71
3
72
13
73
9
40
0
40
0
40
0
40
0
40
0.111341735716079
40
0.284907862326489
40
0.415754075135784
40
0.546372899553361
40
0.738571050023027
40
1
40
1
40
1
40
1
41
1
10
0.268331828746601
20
-8.12819294108565
30
9.21738337650821
41
1
10
0.274127245359725
20
-8.13328237777808
30
9.22062213222866
41
1
10
0.288784005633879
20
-8.14446128894175
30
9.23030480977211
41
1
10
0.310886255313658
20
-8.15580930334156
30
9.24976964586674
41
1
10
0.330795928151663
20
-8.15645797559949
30
9.27573052333816
41
1
10
0.346285820784915
20
-8.14714485150735
30
9.30452069108574
41
1
10
0.357170472345849
20
-8.12329378494178
30
9.33981051559195
41
1
10
0.359993139972261
20
-8.10034265809882
30
9.36342265400493
41
1
10
0.359329328033872
20
-8.0848029970337
30
9.37595407250539
0
SPLINE
5
1EE
100
AcDbEntity
8
1
62
256
6
ByLayer
370
18
48
1
60
1
100
AcDbSpline
70
4
71
1
72
4
73
2
40
0
40
0
40
1
40
1
41
1
10
0.2683318287498
20
-7.75608774490777
30
9.53261662348877
41
1
10
-0.271
20
-6.41546288275445
30
9.844
0
SPLINE
5
1EF
100
AcDbEntity
8
1
62
256
6
ByLayer
370
18
48
1
60
1
100
AcDbSpline
70
4
71
1
72
4
73
2
40
0
40
0
40
1
40
1
41
1
10
0.268331828749801
20
-6.43906530843252
30
10.4673833765112
41
1
10
-0.270999999999998
20
-5.9091593310724
30
10.156
0
SPLINE
5
1F0
100
AcDbEntity
8
1
62
256
6
ByLayer
370
18
48
1
60
1
100
AcDbSpline
70
4
71
3
72
14
73
10
40
0
40
0
40
0
40
0
40
0.0684795826381984
40
0.194568754154414
40
0.286967672671278
40
0.379389809378595
40
0.505638411628555
40
0.72081200314913
40
1
40
1
40
1
40
1
41
1
10
0.268331828737952
20
-6.43906530842538
30
10.4673833765018
41
1
10
0.272161546963239
20
-6.44286822719119
30
10.4695398505357
41
1
10
0.283150632312131
20
-6.45252477733936
30
10.4765005602377
41
1
10
0.300515953153845
20
-6.46357084773643
30
10.4900908286607
41
1
10
0.318554964589359
20
-6.46664744301672
30
10.5093826226072
41
1
10
0.333635023129583
20
-6.46105706102569
30
10.5305212756401
41
1
10
0.348196036379336
20
-6.44242055557296
30
10.5590126665616
41
1
10
0.357749015678481
20
-6.40370455316539
30
10.5937398051415
41
1
10
0.36026725317564
20
-6.36997056165786
30
10.6169527055585
41
1
10
0.359300056387305
20
-6.34893140737091
30
10.6284006073672
0
SPLINE
5
1F1
100
AcDbEntity
8
1
62
256
6
ByLayer
370
18
48
1
60
1
100
AcDbSpline
70
4
71
2
72
6
73
3
40
0
40
0
40
0
40
1
40
1
40
1
41
1
10
0.2683318287498
20
-5.89600335379709
30
10.7826166234888
41
1
10
-0.0500062923016505
20
-4.90085566286656
30
10.9664092233711
41
1
10
-0.270999999999998
20
-3.87113213414371
30
11.094
0
SPLINE
5
1F2
100
AcDbEntity
8
1
62
256
6
ByLayer
370
18
48
1
60
1
100
AcDbSpline
70
4
71
1
72
4
73
2
40
0
40
0
40
1
40
1
41
1
10
0.268331828749799
20
-3.7054829111711
30
11.7173833765112
41
1
10
-0.271
20
-2.82235079322184
30
11.406
0
SPLINE
5
1F3
100
AcDbEntity
8
1
62
256
6
ByLayer
370
18
48
1
60
1
100
AcDbSpline
70
4
71
3
72
15
73
11
40
0
40
0
40
0
40
0
40
0.0735794556672162
40
0.117337412783846
40
0.161512553787976
40
0.201285889870928
40
0.246983780601475
40
0.324285439557976
40
0.552206145790471
40
1
40
1
40
1
40
1
41
1
10
0.268331828749694
20
-3.70548291117094
30
11.7173833765112
41
1
10
0.273172716641034
20
-3.71323795227813
30
11.7200055738729
41
1
10
0.281660549583895
20
-3.72373770242339
30
11.7255824251175
41
1
10
0.294994108695801
20
-3.73539203964323
30
11.7358663630624
41
1
10
0.306592550255219
20
-3.74011211861692
30
11.7465356509257
41
1
10
0.317722482983459
20
-3.73821805832592
30
11.7588187881761
41
1
10
0.328848612210137
20
-3.72863089765879
30
11.7735371010624
41
1
10
0.344838890609922
20
-3.69670939973574
30
11.8003944386773
41
1
10
0.357652064254882
20
-3.61043940822513
30
11.840671847896
41
1
10
0.362696847142541
20
-3.53212662877287
30
11.8694012633967
41
1
10
0.359189874572762
20
-3.47602307280857
30
11.8821868748045
0
SPLINE
5
1F4
100
AcDbEntity
8
1
62
256
6
ByLayer
370
18
48
1
60
1
100
AcDbSpline
70
4
71
3
72
10
73
6
40
0
40
0
40
0
40
0
40
0.290526091644656
40
0.883216910578994
40
1
40
1
40
1
40
1
41
1
10
0.268331828749789
20
2.49876249156741
30
12.0326166234888
41
1
10
0.281351188167005
20
2.59527153649536
30
12.0258878659402
41
1
10
0.316278307784875
20
2.88771679041894
30
11.9973219148432
41
1
10
0.3529336881787
20
3.21986715615612
30
11.9497134992589
41
1
10
0.358667205179748
20
3.45000753939294
30
11.8892841988717
41
1
10
0.359291388638563
20
3.48781576225676
30
11.8788364782142
0
SPLINE
5
1F5
100
AcDbEntity
8
1
62
256
6
ByLayer
370
18
48
1
60
1
100
AcDbSpline
70
4
71
1
72
4
73
2
40
0
40
0
40
1
40
1
41
1
10
-0.270999999999999
20
2.82235079322184
30
11.406
41
1
10
0.268331828749799
20
3.7054829111711
30
11.7173833765112
0
SPLINE
5
1F6
100
AcDbEntity
8
1
62
256
6
ByLayer
370
18
48
1
60
1
100
AcDbSpline
70
4
71
2
72
6
73
3
40
0
40
0
40
0
40
1
40
1
40
1
41
1
10
-0.270999999999998
20
3.87113213414371
30
11.094
41
1
10
-0.0500116079328964
20
4.90085228983694
30
10.9664122923523
41
1
10
0.2683318287498
20
5.89600335379709
30
10.7826166234888
0
SPLINE
5
1F7
100
AcDbEntity
8
1
62
256
6
ByLayer
370
18
48
1
60
1
100
AcDbSpline
70
4
71
3
72
10
73
6
40
0
40
0
40
0
40
0
40
0.682295883440757
40
0.948845624007791
40
1
40
1
40
1
40
1
41
1
10
0.268331828749801
20
5.89600335379709
30
10.7826166234888
41
1
10
0.304762525528105
20
6.0037482306526
30
10.7653647650846
41
1
10
0.339186889874316
20
6.14884338865686
30
10.7230682633348
41
1
10
0.358216652156643
20
6.29935887168926
30
10.6567101101091
41
1
10
0.359250617271193
20
6.34471673938015
30
10.6308627005812
41
1
10
0.359324739626246
20
6.35198220554971
30
10.6266063594631
0
SPLINE
5
1F8
100
AcDbEntity
8
1
62
256
6
ByLayer
370
18
48
1
60
1
100
AcDbSpline
70
4
71
1
72
4
73
2
40
0
40
0
40
1
40
1
41
1
10
-0.270999999999998
20
5.9091593310724
30
10.156
41
1
10
0.268331828749827
20
6.43906530843254
30
10.4673833765113
0
SPLINE
5
1F9
100
AcDbEntity
8
1
62
256
6
ByLayer
370
18
48
1
60
1
100
AcDbSpline
70
4
71
1
72
4
73
2
40
0
40
0
40
1
40
1
41
1
10
-0.271
20
6.41546288275445
30
9.844
41
1
10
0.2683318287498
20
7.75608774490777
30
9.53261662348877
0
SPLINE
5
1FA
100
AcDbEntity
8
1
62
256
6
ByLayer
370
18
48
1
60
1
100
AcDbSpline
70
4
71
2
72
6
73
3
40
0
40
0
40
0
40
1
40
1
40
1
41
1
10
0.268331828749801
20
7.75608774490777
30
9.53261662348877
41
1
10
0.350900078778038
20
7.93394269592645
30
9.49474698129949
41
1
10
0.359330333578334
20
8.08505542682336
30
9.37573772637194
0
SPLINE
5
1FB
100
AcDbEntity
8
1
62
256
6
ByLayer
370
18
48
1
60
1
100
AcDbSpline
70
4
71
1
72
4
73
2
40
0
40
0
40
1
40
1
41
1
10
-0.270999999999999
20
7.6645720037064
30
8.906
41
1
10
0.268331828749837
20
8.12819294108708
30
9.21738337651126
0
SPLINE
5
1FC
100
AcDbEntity
8
1
62
256
6
ByLayer
370
18
48
1
60
1
100
AcDbSpline
70
4
71
1
72
4
73
2
40
0
40
0
40
1
40
1
41
1
10
-0.271000000000001
20
8.01284368997674
30
8.594
41
1
10
0.2683318287498
20
9.07887320461247
30
8.28261662348877
0
SPLINE
5
1FD
100
AcDbEntity
8
1
62
256
6
ByLayer
370
18
48
1
60
1
100
AcDbSpline
70
4
71
3
72
10
73
6
40
0
40
0
40
0
40
0
40
0.508650756871763
40
0.801191435939504
40
1
40
1
40
1
40
1
41
1
10
0.2683318287498
20
9.07887320461247
30
8.28261662348877
41
1
10
0.294295374956084
20
9.12672930699614
30
8.26877621363944
41
1
10
0.326454572350503
20
9.19890646035472
30
8.23675089119696
41
1
10
0.354097729856306
20
9.28704197955008
30
8.1790016196632
41
1
10
0.358641873555229
20
9.32486496100232
30
8.14265064036448
41
1
10
0.359322960709039
20
9.33957028487368
30
8.12679663246005
0
SPLINE
5
1FE
100
AcDbEntity
8
1
62
256
6
ByLayer
370
18
48
1
60
1
100
AcDbSpline
70
4
71
1
72
4
73
2
40
0
40
0
40
1
40
1
41
1
10
-0.271000000000001
20
8.91336995754131
30
7.656
41
1
10
0.268331828748701
20
9.35673441585249
30
7.9673833765106
0
SPLINE
5
1FF
100
AcDbEntity
8
1
62
256
6
ByLayer
370
18
48
1
60
1
100
AcDbSpline
70
4
71
1
72
4
73
2
40
0
40
0
40
1
40
1
41
1
10
-0.271
20
9.17214064436432
30
7.344
41
1
10
0.268331828749801
20
10.078193301587
30
7.03261662348877
0
SPLINE
5
200
100
AcDbEntity
8
1
62
256
6
ByLayer
370
18
48
1
60
1
100
AcDbSpline
70
4
71
3
72
10
73
6
40
0
40
0
40
0
40
0
40
0.554873866463313
40
0.826171516936044
40
1
40
1
40
1
40
1
41
1
10
0.2683318287498
20
10.078193301587
30
7.03261662348877
41
1
10
0.297042485611954
20
10.1237146656171
30
7.01768561471055
41
1
10
0.32956483263089
20
10.1866767140122
30
6.98367372185437
41
1
10
0.355411467980932
20
10.2591469816994
30
6.92292756985453
41
1
10
0.35891007264258
20
10.2857151880664
30
6.88958885036494
41
1
10
0.359330476521856
20
10.295499528587
30
6.87570157618557
0
SPLINE
5
201
100
AcDbEntity
8
1
62
256
6
ByLayer
370
18
48
1
60
1
100
AcDbSpline
70
4
71
1
72
4
73
2
40
0
40
0
40
1
40
1
41
1
10
-0.271
20
9.85016060782767
30
6.406
41
1
10
0.268331828749326
20
10.2909881629553
30
6.71738337651096
0
SPLINE
5
202
100
AcDbEntity
8
1
62
256
6
ByLayer
370
18
48
1
60
1
100
AcDbSpline
70
4
71
1
72
4
73
2
40
0
40
0
40
1
40
1
41
1
10
-0.271
20
10.0461765861446
30
6.094
41
1
10
0.2683318287498
20
10.8438471855183
30
5.78261662348877
0
SPLINE
5
203
100
AcDbEntity
8
1
62
256
6
ByLayer
370
18
48
1
60
1
100
AcDbSpline
70
4
71
3
72
10
73
6
40
0
40
0
40
0
40
0
40
0.502359070501753
40
0.789833822561367
40
1
40
1
40
1
40
1
41
1
10
0.2683318287498
20
10.8438471855183
30
5.78261662348877
41
1
10
0.29401660320913
20
10.8802342940266
30
5.76909353922792
41
1
10
0.325877720238668
20
10.9328599599138
30
5.73762750311099
41
1
10
0.354299302489963
20
10.9956003895488
30
5.67858579628588
41
1
10
0.358777329684227
20
11.0194505660648
30
5.64187904666131
41
1
10
0.359331762285981
20
11.0286100524652
30
5.62515554051009
0
SPLINE
5
204
100
AcDbEntity
8
1
62
256
6
ByLayer
370
18
48
1
60
1
100
AcDbSpline
70
4
71
1
72
4
73
2
40
0
40
0
40
1
40
1
41
1
10
-0.271
20
10.5583220257766
30
5.156
41
1
10
0.26833182874957
20
11.0061526343844
30
5.4673833765111
0
SPLINE
5
205
100
AcDbEntity
8
1
62
256
6
ByLayer
370
18
48
1
60
1
100
AcDbSpline
70
4
71
1
72
4
73
2
40
0
40
0
40
1
40
1
41
1
10
-0.271000000000001
20
10.7050531993073
30
4.844
41
1
10
0.268331828749799
20
11.4229183373425
30
4.53261662348877
0
SPLINE
5
206
100
AcDbEntity
8
1
62
256
6
ByLayer
370
18
48
1
60
1
100
AcDbSpline
70
4
71
3
72
11
73
7
40
0
40
0
40
0
40
0
40
0.461149537622175
40
0.752671226609314
40
0.979282741504935
40
1
40
1
40
1
40
1
41
1
10
0.2683318287498
20
11.4229183373425
30
4.53261662348877
41
1
10
0.2916156622496
20
11.4529243050156
30
4.52025274735624
41
1
10
0.322693217161748
20
11.4977694880928
30
4.49106941074317
41
1
10
0.352015463308785
20
11.5508939474715
30
4.43505317873391
41
1
10
0.359063806539511
20
11.5733355050969
30
4.39593861234121
41
1
10
0.359327178887015
20
11.5808355757214
30
4.37684258699885
41
1
10
0.359331679926706
20
11.5814485668552
30
4.37523274789866
0
SPLINE
5
207
100
AcDbEntity
8
1
62
256
6
ByLayer
370
18
48
1
60
1
100
AcDbSpline
70
4
71
1
72
4
73
2
40
0
40
0
40
1
40
1
41
1
10
-0.270999999999999
20
11.0817716995073
30
3.906
41
1
10
0.26833182874968
20
11.5430218856523
30
4.21738337651117
0
SPLINE
5
208
100
AcDbEntity
8
1
62
256
6
ByLayer
370
18
48
1
60
1
100
AcDbSpline
70
4
71
1
72
4
73
2
40
0
40
0
40
1
40
1
41
1
10
-0.271
20
11.1868522829257
30
3.594
41
1
10
0.268331828749799
20
11.8428081509546
30
3.28261662348877
0
SPLINE
5
209
100
AcDbEntity
8
1
62
256
6
ByLayer
370
18
48
1
60
1
100
AcDbSpline
70
4
71
3
72
11
73
7
40
0
40
0
40
0
40
0
40
0.425652297409833
40
0.715271558366482
40
0.942938862323264
40
1
40
1
40
1
40
1
41
1
10
0.268331828749799
20
11.8428081509547
30
3.28261662348878
41
1
10
0.289592674416181
20
11.8680580883411
30
3.27125417772756
41
1
10
0.319541575238034
20
11.9065203882598
30
3.24420538834825
41
1
10
0.349495602476345
20
11.9517069356899
30
3.19170788124588
41
1
10
0.358541842308457
20
11.9717982382006
30
3.1511157775868
41
1
10
0.359306169822707
20
11.9781885962433
30
3.12969569844296
41
1
10
0.359331525754294
20
11.979353402347
30
3.12533210223571
0
SPLINE
5
20A
100
AcDbEntity
8
1
62
256
6
ByLayer
370
18
48
1
60
1
100
AcDbSpline
70
4
71
1
72
4
73
2
40
0
40
0
40
1
40
1
41
1
10
-0.271000000000001
20
11.4458797826991
30
2.656
41
1
10
0.268331828749736
20
11.9256996731398
30
2.9673833765112
0
SPLINE
5
20B
100
AcDbEntity
8
1
62
256
6
ByLayer
370
18
48
1
60
1
100
AcDbSpline
70
4
71
1
72
4
73
2
40
0
40
0
40
1
40
1
41
1
10
-0.270999999999999
20
11.5138249074754
30
2.344
41
1
10
0.268331828749795
20
12.1200720484261
30
2.03261662348877
0
SPLINE
5
20C
100
AcDbEntity
8
1
62
256
6
ByLayer
370
18
48
1
60
1
100
AcDbSpline
70
4
71
3
72
11
73
7
40
0
40
0
40
0
40
0
40
0.341460539759499
40
0.641527162254542
40
0.875753048474617
40
1
40
1
40
1
40
1
41
1
10
0.268331828749798
20
12.1200720484261
30
2.03261662348878
41
1
10
0.285063281614811
20
12.1385849885249
30
2.02350868796069
41
1
10
0.312759840387382
20
12.1704484752409
30
2.00060422920553
41
1
10
0.343687769859024
20
12.2091694393068
30
1.95516531676097
41
1
10
0.357316938825073
20
12.229973191456
30
1.91077533204164
41
1
10
0.359233996956258
20
12.2359581750239
30
1.88456348844729
41
1
10
0.359331764949148
20
12.2375004848054
30
1.87515239236622
0
SPLINE
5
20D
100
AcDbEntity
8
1
62
256
6
ByLayer
370
18
48
1
60
1
100
AcDbSpline
70
4
71
1
72
4
73
2
40
0
40
0
40
1
40
1
41
1
10
-0.271
20
11.665576025212
30
1.406
41
1
10
0.268331828749766
20
12.1687415592248
30
1.71738337651121
0
SPLINE
5
20E
100
AcDbEntity
8
1
62
256
6
ByLayer
370
18
48
1
60
1
100
AcDbSpline
70
4
71
1
72
4
73
2
40
0
40
0
40
1
40
1
41
1
10
-0.271
20
11.6989599537737
30
1.094
41
1
10
0.26833182874979
20
12.2643869809201
30
0.782616623488775
0
SPLINE
5
20F
100
AcDbEntity
8
1
62
256
6
ByLayer
370
18
48
1
60
1
100
AcDbSpline
70
4
71
3
72
11
73
7
40
0
40
0
40
0
40
0
40
0.356535147199946
40
0.63549193094116
40
0.86212611855998
40
1
40
1
40
1
40
1
41
1
10
0.268331828749795
20
12.2643869809201
30
0.78261662348879
41
1
10
0.285852283113383
20
12.2825688910374
30
0.773143099082829
41
1
10
0.313208330494386
20
12.3113952849431
30
0.750164710775476
41
1
10
0.343641433543293
20
12.3445753150566
30
0.704710263647616
41
1
10
0.35716273855204
20
12.360500693031
30
0.661425863647716
41
1
10
0.359243073557546
20
12.3639354283892
30
0.63528131263404
41
1
10
0.359331824520917
20
12.3645437457717
30
0.625039234082152
0
SPLINE
5
210
100
AcDbEntity
8
1
62
256
6
ByLayer
370
18
48
1
60
1
100
AcDbSpline
70
4
71
1
72
4
73
2
40
0
40
0
40
1
40
1
41
1
10
-0.271000000000001
20
11.7489643798932
30
0.156
41
1
10
0.268331828749782
20
12.2804409357516
30
0.467383376511224
0
SPLINE
5
211
100
AcDbEntity
8
1
62
256
6
ByLayer
370
18
48
1
60
1
100
AcDbSpline
70
4
71
1
72
4
73
2
40
0
40
0
40
1
40
1
41
1
10
0.2683318287498
20
-12.2804409357516
30
0.467383376511234
41
1
10
-0.271000000000001
20
-11.7489643798932
30
0.156
0
SPLINE
5
212
100
AcDbEntity
8
1
62
256
6
ByLayer
370
18
48
1
60
1
100
AcDbSpline
70
4
71
3
72
10
73
6
40
0
40
0
40
0
40
0
40
0.435265736454991
40
0.741631653415972
40
1
40
1
40
1
40
1
41
1
10
0.268331828749787
20
-12.2804409357516
30
0.467383376511199
41
1
10
0.286582115910595
20
-12.2983533087583
30
0.477195010388735
41
1
10
0.31355878567506
20
-12.3244306865986
30
0.500146275689451
41
1
10
0.343890169166377
20
-12.3528584309289
30
0.546046064367647
41
1
10
0.353389011893081
20
-12.3609081906518
30
0.577468630142344
41
1
10
0.356508057771058
20
-12.3632916438505
30
0.593064456263885
0
SPLINE
5
213
100
AcDbEntity
8
1
62
256
6
ByLayer
370
18
48
1
60
1
100
AcDbSpline
70
4
71
1
72
4
73
2
40
0
40
0
40
1
40
1
41
1
10
0.268331828749789
20
-12.2643869809201
30
0.782616623488776
41
1
10
-0.271
20
-11.6989599537737
30
1.094
0
SPLINE
5
214
100
AcDbEntity
8
1
62
256
6
ByLayer
370
18
48
1
60
1
100
AcDbSpline
70
4
71
1
72
4
73
2
40
0
40
0
40
1
40
1
41
1
10
0.2683318287498
20
-12.1687415592248
30
1.71738337651123
41
1
10
-0.271
20
-11.665576025212
30
1.406
0
SPLINE
5
215
100
AcDbEntity
8
1
62
256
6
ByLayer
370
18
48
1
60
1
100
AcDbSpline
70
4
71
3
72
11
73
7
40
0
40
0
40
0
40
0
40
0.305334701178529
40
0.566670533472722
40
0.785166129615035
40
1
40
1
40
1
40
1
41
1
10
0.268331828749775
20
-12.1687415592248
30
1.71738337651118
41
1
10
0.283217655583705
20
-12.1826435743731
30
1.7254903437914
41
1
10
0.308152648795547
20
-12.2049941013474
30
1.74537717547605
41
1
10
0.338093443372239
20
-12.2295124190781
30
1.78514697675319
41
1
10
0.355640806340482
20
-12.2406233998851
30
1.83003880914368
41
1
10
0.359193571016923
20
-12.2397309857166
30
1.85964264422732
41
1
10
0.359331826023104
20
-12.2375190696703
30
1.87503150424102
0
SPLINE
5
216
100
AcDbEntity
8
1
62
256
6
ByLayer
370
18
48
1
60
1
100
AcDbSpline
70
4
71
1
72
4
73
2
40
0
40
0
40
1
40
1
41
1
10
0.268331828749795
20
-12.1200720484261
30
2.03261662348877
41
1
10
-0.271
20
-11.5138249074754
30
2.344
0
SPLINE
5
217
100
AcDbEntity
8
1
62
256
6
ByLayer
370
18
48
1
60
1
100
AcDbSpline
70
4
71
1
72
4
73
2
40
0
40
0
40
1
40
1
41
1
10
0.268331828749801
20
-11.9256996731398
30
2.96738337651124
41
1
10
-0.271000000000001
20
-11.4458797826991
30
2.656
0
SPLINE
5
218
100
AcDbEntity
8
1
62
256
6
ByLayer
370
18
48
1
60
1
100
AcDbSpline
70
4
71
3
72
12
73
8
40
0
40
0
40
0
40
0
40
0.276374459700141
40
0.527068997920377
40
0.739352031508911
40
0.952080087822829
40
1
40
1
40
1
40
1
41
1
10
0.268331828749748
20
-11.9256996731398
30
2.96738337651114
41
1
10
0.281796496511545
20
-11.9377516403157
30
2.97474868381722
41
1
10
0.305324905981324
20
-11.9574502392373
30
2.99295746360557
41
1
10
0.334750107021627
20
-11.9785454703085
30
3.02975873371299
41
1
10
0.353360017939275
20
-11.9869676998408
30
3.07212352611523
41
1
10
0.358899750643325
20
-11.9842876866774
30
3.10468072676565
41
1
10
0.359338236301602
20
-11.9802358944881
30
3.12197561730544
41
1
10
0.359331760064782
20
-11.9793990344134
30
3.12515811816991
0
SPLINE
5
219
100
AcDbEntity
8
1
62
256
6
ByLayer
370
18
48
1
60
1
100
AcDbSpline
70
4
71
1
72
4
73
2
40
0
40
0
40
1
40
1
41
1
10
0.268331828749798
20
-11.8428081509546
30
3.28261662348877
41
1
10
-0.271
20
-11.1868522829257
30
3.594
0
SPLINE
5
21A
100
AcDbEntity
8
1
62
256
6
ByLayer
370
18
48
1
60
1
100
AcDbSpline
70
4
71
1
72
4
73
2
40
0
40
0
40
1
40
1
41
1
10
0.268331828749801
20
-11.5430218856524
30
4.21738337651124
41
1
10
-0.270999999999999
20
-11.0817716995073
30
3.906
0
SPLINE
5
21B
100
AcDbEntity
8
1
62
256
6
ByLayer
370
18
48
1
60
1
100
AcDbSpline
70
4
71
3
72
12
73
8
40
0
40
0
40
0
40
0
40
0.246906046477253
40
0.485032711050036
40
0.724878208682713
40
0.929066725912335
40
1
40
1
40
1
40
1
41
1
10
0.268331828749696
20
-11.5430218856523
30
4.21738337651106
41
1
10
0.280380192303373
20
-11.5534371238155
30
4.22400338587034
41
1
10
0.302394949583374
20
-11.5708114950485
30
4.24057102457991
41
1
10
0.332501154433383
20
-11.5899306836977
30
4.27584848889647
41
1
10
0.352440182646738
20
-11.5953422966892
30
4.31864048691946
41
1
10
0.3587123608123
20
-11.5891002928853
30
4.35319669636837
41
1
10
0.359352312878336
20
-11.5831506043792
30
4.37078533397837
41
1
10
0.359331568261181
20
-11.5814200468529
30
4.37530792498522
0
SPLINE
5
21C
100
AcDbEntity
8
1
62
256
6
ByLayer
370
18
48
1
60
1
100
AcDbSpline
70
4
71
1
72
4
73
2
40
0
40
0
40
1
40
1
41
1
10
0.268331828749799
20
-11.4229183373425
30
4.53261662348877
41
1
10
-0.271
20
-10.7050531993073
30
4.844
0
SPLINE
5
21D
100
AcDbEntity
8
1
62
256
6
ByLayer
370
18
48
1
60
1
100
AcDbSpline
70
4
71
1
72
4
73
2
40
0
40
0
40
1
40
1
41
1
10
0.268331828749801
20
-11.0061526343846
30
5.46738337651124
41
1
10
-0.271
20
-10.5583220257766
30
5.156
0
SPLINE
5
21E
100
AcDbEntity
8
1
62
256
6
ByLayer
370
18
48
1
60
1
100
AcDbSpline
70
4
71
3
72
12
73
8
40
0
40
0
40
0
40
0
40
0.215919551435519
40
0.438606705213571
40
0.662811235534128
40
0.855417451380314
40
1
40
1
40
1
40
1
41
1
10
0.268331828749586
20
-11.0061526343845
30
5.46738337651093
41
1
10
0.278941214840581
20
-11.0150943469462
30
5.47323911677429
41
1
10
0.299287206148938
20
-11.0304218172409
30
5.48810429676805
41
1
10
0.328165933937002
20
-11.0469069833106
30
5.51978429920609
41
1
10
0.348843794130816
20
-11.0503247797689
30
5.55912216254715
41
1
10
0.357936067414267
20
-11.0418960092203
30
5.59598048984023
41
1
10
0.359441914104705
20
-11.0329806068844
30
5.61682730854188
41
1
10
0.359330518587423
20
-11.0283357433787
30
5.62569057812323
0
SPLINE
5
21F
100
AcDbEntity
8
1
62
256
6
ByLayer
370
18
48
1
60
1
100
AcDbSpline
70
4
71
1
72
4
73
2
40
0
40
0
40
1
40
1
41
1
10
0.268331828749801
20
-10.8438471855183
30
5.78261662348877
41
1
10
-0.271000000000001
20
-10.0461765861446
30
6.094
0
SPLINE
5
220
100
AcDbEntity
8
1
62
256
6
ByLayer
370
18
48
1
60
1
100
AcDbSpline
70
4
71
1
72
4
73
2
40
0
40
0
40
1
40
1
41
1
10
0.268331828749801
20
-10.2909881629557
30
6.71738337651123
41
1
10
-0.271
20
-9.85016060782767
30
6.406
0
SPLINE
5
221
100
AcDbEntity
8
1
62
256
6
ByLayer
370
18
48
1
60
1
100
AcDbSpline
70
4
71
3
72
12
73
8
40
0
40
0
40
0
40
0
40
0.18426984380517
40
0.38952707753695
40
0.596145831485378
40
0.77438323292498
40
1
40
1
40
1
40
1
41
1
10
0.268331828749333
20
-10.2909881629555
30
6.71738337651066
41
1
10
0.277448232722892
20
-10.2985777129342
30
6.72243820876249
41
1
10
0.295919536916762
20
-10.3120918870975
30
6.73552247594521
41
1
10
0.323194234188898
20
-10.3264524470617
30
6.76340807841849
41
1
10
0.344320170425645
20
-10.3284066412758
30
6.79893558783571
41
1
10
0.356864389313924
20
-10.3175891487659
30
6.83808826676969
41
1
10
0.359614415361102
20
-10.3049134110336
30
6.86210655319013
41
1
10
0.359331619391968
20
-10.295785068539
30
6.87527605471702
0
SPLINE
5
222
100
AcDbEntity
8
1
62
256
6
ByLayer
370
18
48
1
60
1
100
AcDbSpline
70
4
71
1
72
4
73
2
40
0
40
0
40
1
40
1
41
1
10
0.268331828749799
20
-10.078193301587
30
7.03261662348877
41
1
10
-0.271
20
-9.17214064436432
30
7.344
0
SPLINE
5
223
100
AcDbEntity
8
1
62
256
6
ByLayer
370
18
48
1
60
1
100
AcDbSpline
70
4
71
1
72
4
73
2
40
0
40
0
40
1
40
1
41
1
10
0.2683318287498
20
-9.3567344158534
30
7.96738337651123
41
1
10
-0.271000000000001
20
-8.91336995754131
30
7.656
0
SPLINE
5
224
100
AcDbEntity
8
1
62
256
6
ByLayer
370
18
48
1
60
1
100
AcDbSpline
70
4
71
3
72
13
73
9
40
0
40
0
40
0
40
0
40
0.149464143870112
40
0.363612188326277
40
0.548112532227521
40
0.705883740861749
40
0.95078248143923
40
1
40
1
40
1
40
1
41
1
10
0.268331828748689
20
-9.35673441585297
30
7.96738337651002
41
1
10
0.275876398904954
20
-9.36307721718998
30
7.97157301969809
41
1
10
0.293671025394595
20
-9.37606033690258
30
7.98377072821332
41
1
10
0.320471309038502
20
-9.38904365822945
30
8.009864278203
41
1
10
0.341560184544513
20
-9.38772214718416
30
8.0438707398614
41
1
10
0.355319137588398
20
-9.37417993703804
30
8.08075325247302
41
1
10
0.359029878973064
20
-9.35614597888583
30
8.10728331435807
41
1
10
0.359350816121389
20
-9.34292465102795
30
8.12298319360737
41
1
10
0.359330919657451
20
-9.34064347837261
30
8.12557524672325
0
SPLINE
5
225
100
AcDbEntity
8
1
62
256
6
ByLayer
370
18
48
1
60
1
100
AcDbSpline
70
4
71
1
72
4
73
2
40
0
40
0
40
1
40
1
41
1
10
0.268331828749799
20
-9.07887320461247
30
8.28261662348877
41
1
10
-0.271
20
-8.01284368997674
30
8.594
0
SPLINE
5
226
100
AcDbEntity
8
1
62
256
6
ByLayer
370
18
48
1
60
1
100
AcDbSpline
70
4
71
3
72
11
73
7
40
0
40
0
40
0
40
0
40
0.246526439308418
40
0.494384046030048
40
0.746467221578939
40
1
40
1
40
1
40
1
41
1
10
0.2683318287498
20
-2.49876249156749
30
12.0326166234888
41
1
10
0.215049138641747
20
-2.09041515546022
30
12.0633793989658
41
1
10
0.134534050048713
20
-1.26952935194266
30
12.1098648070388
41
1
10
0.0917702246293394
20
-0.0211511880603666
30
12.1345545131563
41
1
10
0.131931211675475
20
1.23915001486168
30
12.1113675564743
41
1
10
0.213521442329358
20
2.07876453007925
30
12.064261414843
41
1
10
0.268331828749302
20
2.49876249156749
30
12.0326166234891
0
SPLINE
5
227
100
AcDbEntity
8
1
62
256
6
ByLayer
370
18
48
1
60
1
100
AcDbSpline
70
4
71
1
72
4
73
2
40
0
40
0
40
1
40
1
41
1
10
7.90635847109393
20
-7.6533831434717
30
9.88310307844774
41
1
10
7.8
20
-8.50317507591
30
9.16220571851685
0
SPLINE
5
228
100
AcDbEntity
8
1
62
256
6
ByLayer
370
18
48
1
60
1
100
AcDbSpline
70
4
71
3
72
10
73
6
40
0
40
0
40
0
40
0
40
0.465612792682578
40
0.931235443292175
40
1
40
1
40
1
40
1
41
1
10
7.69677635970333
20
-12.4855916960311
30
0.6
41
1
10
7.62231794270794
20
-12.4817001280243
30
0.68763294767688
41
1
10
7.50837609537402
20
-12.4705410520751
30
0.874024903940341
41
1
10
7.45763378922701
20
-12.4509680997056
30
1.11269356969223
41
1
10
7.45570397970544
20
-12.4384934183399
30
1.23859404527243
41
1
10
7.45584782731224
20
-12.43685240984
30
1.25487136227418
0
SPLINE
5
229
100
AcDbEntity
8
1
62
256
6
ByLayer
370
18
48
1
60
1
100
AcDbSpline
70
4
71
3
72
16
73
12
40
0
40
0
40
0
40
0
40
0.352985857991921
40
0.621519473627946
40
0.721231930166433
40
0.769202152102697
40
0.809849657630438
40
0.850732707054667
40
0.89562416181658
40
0.968320103448865
40
1
40
1
40
1
40
1
41
1
10
0.359291388638563
20
3.48781576225676
30
11.8788364782142
41
1
10
0.360840731741436
20
3.5298402060432
30
11.8681028406707
41
1
10
0.357534519502321
20
3.60052771636165
30
11.8435094479358
41
1
10
0.348474740895333
20
3.68156293791818
30
11.8089566349775
41
1
10
0.333407105297636
20
3.72145576095365
30
11.7805903821497
41
1
10
0.322620749571187
20
3.73475689772065
30
11.7650584616509
41
1
10
0.312944513689892
20
3.73978465904797
30
11.7533061913147
41
1
10
0.301952396897738
20
3.73889399965953
30
11.7420537282622
41
1
10
0.288416298230962
20
3.73079597473624
30
11.7304265543009
41
1
10
0.277307023016078
20
3.71821990158696
30
11.7227664252243
41
1
10
0.270357985016394
20
3.70857329287197
30
11.7185308213277
41
1
10
0.268331828744226
20
3.70548291116442
30
11.7173833765076
0
SPLINE
5
22A
100
AcDbEntity
8
1
62
256
6
ByLayer
370
18
48
1
60
1
100
AcDbSpline
70
4
71
2
72
6
73
3
40
0
40
0
40
0
40
1
40
1
40
1
41
1
10
0.359189874572762
20
-3.47602307280857
30
11.8821868748045
41
1
10
0.346383745690238
20
-2.99491737130348
30
12.0095146653944
41
1
10
0.2683318287498
20
-2.49876249156749
30
12.0326166234888
0
SPLINE
5
22B
100
AcDbEntity
8
1
62
256
6
ByLayer
370
18
48
1
60
1
100
AcDbSpline
70
4
71
3
72
10
73
6
40
0
40
0
40
0
40
0
40
0.152967841041737
40
0.96496172139909
40
1
40
1
40
1
40
1
41
1
10
0.359300056387305
20
-6.34893140737091
30
10.6284006073672
41
1
10
0.358576062276997
20
-6.32706150447388
30
10.6406143011013
41
1
10
0.350721602089447
20
-6.18832539256197
30
10.7138153872462
41
1
10
0.310738464062822
20
-6.0308912515514
30
10.7570976257968
41
1
10
0.270041108984367
20
-5.90136643216484
30
10.7816325912449
41
1
10
0.2683318287498
20
-5.89600335379709
30
10.7826166234888
0
SPLINE
5
22C
100
AcDbEntity
8
1
62
256
6
ByLayer
370
18
48
1
60
1
100
AcDbSpline
70
4
71
3
72
14
73
10
40
0
40
0
40
0
40
0
40
0.311119280725991
40
0.454448335464595
40
0.598836965548051
40
0.696103494601892
40
0.793734707190399
40
0.907036761787054
40
1
40
1
40
1
40
1
41
1
10
0.359324739626246
20
6.35198220554971
30
10.6266063594631
41
1
10
0.360269027972228
20
6.37509698464239
30
10.6138819501791
41
1
10
0.35756619331041
20
6.40555562757495
30
10.5923952363508
41
1
10
0.347776921733131
20
6.44131457264663
30
10.5591894943186
41
1
10
0.33618248458527
20
6.45915399987678
30
10.5346789750014
41
1
10
0.320617327429636
20
6.4665177516001
30
10.5118843563569
41
1
10
0.303166472405808
20
6.4644915252724
30
10.492636844507
41
1
10
0.285038984476191
20
6.45400651391755
30
10.4778055215555
41
1
10
0.273484915520481
20
6.44422746261473
30
10.4702570582279
41
1
10
0.268331828749827
20
6.43906530843254
30
10.4673833765113
0
SPLINE
5
22D
100
AcDbEntity
8
1
62
256
6
ByLayer
370
18
48
1
60
1
100
AcDbSpline
70
4
71
3
72
10
73
6
40
0
40
0
40
0
40
0
40
0.0373063099455023
40
0.417845763129555
40
1
40
1
40
1
40
1
41
1
10
0.359329328033872
20
-8.0848029970337
30
9.37595407250539
41
1
10
0.359292207775334
20
-8.08120175972707
30
9.37901022389903
41
1
10
0.358359825785802
20
-8.04060943014346
30
9.41274382963168
41
1
10
0.335839447441502
20
-7.93073619985954
30
9.47652140808624
41
1
10
0.29913074145784
20
-7.82389768154568
30
9.5172770088851
41
1
10
0.268331828749801
20
-7.75608774490777
30
9.53261662348877
0
SPLINE
5
22E
100
AcDbEntity
8
1
62
256
6
ByLayer
370
18
48
1
60
1
100
AcDbSpline
70
4
71
3
72
12
73
8
40
0
40
0
40
0
40
0
40
0.0798518267712543
40
0.399570910818962
40
0.722000206808118
40
0.93118901070308
40
1
40
1
40
1
40
1
41
1
10
0.359330333578334
20
8.08505542682336
30
9.37573772637194
41
1
10
0.359351028161649
20
8.08797534119765
30
9.37324705844245
41
1
10
0.359111552097395
20
8.10231655778713
30
9.3605522557041
41
1
10
0.356274243702658
20
8.12662341626271
30
9.33571703169213
41
1
10
0.345400519919753
20
8.14869161376322
30
9.30199141677763
41
1
10
0.331230225668064
20
8.15557079450897
30
9.2770843779925
41
1
10
0.32337685376007
20
8.15587850657045
30
9.26635287055601
41
1
10
0.321346378447252
20
8.15579876082248
30
9.26371743408321
0
SPLINE
5
22F
100
AcDbEntity
8
1
62
256
6
ByLayer
370
18
48
1
60
1
100
AcDbSpline
70
4
71
3
72
10
73
6
40
0
40
0
40
0
40
0
40
0.264716456313345
40
0.64100698770001
40
1
40
1
40
1
40
1
41
1
10
0.321346378447252
20
8.15579876082248
30
9.26371743408321
41
1
10
0.317074955897475
20
8.15553097071433
30
9.25826103084331
41
1
10
0.306461664086428
20
8.15347959463448
30
9.24592413208605
41
1
10
0.288052435188702
20
8.14383136525851
30
9.22988491825391
41
1
10
0.274850731660052
20
8.13391702845703
30
9.2210270103143
41
1
10
0.268331828749838
20
8.12819294108707
30
9.21738337651126
0
SPLINE
5
230
100
AcDbEntity
8
1
62
256
6
ByLayer
370
18
48
1
60
1
100
AcDbSpline
70
4
71
1
72
4
73
2
40
0
40
0
40
1
40
1
41
1
10
9.96182995681297
20
-2.73317256093416
30
3.30853881412401
41
1
10
9.89031703179189
20
-2.83242294666663
30
3.19005717319728
0
SPLINE
5
231
100
AcDbEntity
8
1
62
256
6
ByLayer
370
18
48
1
60
1
100
AcDbSpline
70
4
71
3
72
13
73
9
40
0
40
0
40
0
40
0
40
0.0490898569354414
40
0.24377059594091
40
0.442743655361325
40
0.664663190818651
40
0.893702664400579
40
1
40
1
40
1
40
1
41
1
10
9.89031703179189
20
-2.83242294666663
30
3.19005717319728
41
1
10
9.86607079722311
20
-2.8663898606299
30
3.15119245288074
41
1
10
9.74503107549574
20
-3.03839321673737
30
2.96220734100292
41
1
10
9.51574997798501
20
-3.38294236275545
30
2.65396115419375
41
1
10
9.19443827846603
20
-3.92348242127019
30
2.30985994486061
41
1
10
8.86709297600808
20
-4.55481808390051
30
2.04865043293989
41
1
10
8.61072884214056
20
-5.14166003352085
30
1.92833907152286
41
1
10
8.47389384658665
20
-5.50484911523881
30
1.90834106873373
41
1
10
8.43200340152277
20
-5.62140598649711
30
1.90702179714859
0
SPLINE
5
232
100
AcDbEntity
8
1
62
256
6
ByLayer
370
18
48
1
60
1
100
AcDbSpline
70
4
71
1
72
4
73
2
40
0
40
0
40
1
40
1
41
1
10
7.91959778563579
20
-7.57399897031704
30
2.43395863849066
41
1
10
7.89108313356024
20
-7.74955282413922
30
2.54508422655188
0
SPLINE
5
233
100
AcDbEntity
8
1
62
256
6
ByLayer
370
18
48
1
60
1
100
AcDbSpline
70
4
71
3
72
17
73
13
40
0
40
0
40
0
40
0
40
0.0475649192939268
40
0.144356412962939
40
0.241170583439792
40
0.361754255120597
40
0.48238517832496
40
0.602752727257168
40
0.723114668403756
40
0.848051097878101
40
0.972865132561184
40
1
40
1
40
1
40
1
41
1
10
16.4808732811519
20
7.01792529193905
30
2.1625752655798
41
1
10
16.4582469794669
20
6.93106572006368
30
2.12881161340179
41
1
10
16.386521650113
20
6.6657094600348
30
2.03649852007573
41
1
10
16.250294430829
20
6.20926027355365
30
1.93421140738963
41
1
10
16.0481035523933
20
5.61035065080874
30
1.88980525924404
41
1
10
15.8030838536885
20
4.97535968764093
30
1.94935922963624
41
1
10
15.5196961637447
20
4.32678401635154
30
2.12916869546619
41
1
10
15.224456985376
20
3.72608295266989
30
2.41980533302341
41
1
10
14.9277459149486
20
3.17767980192454
30
2.81547030443475
41
1
10
14.6448114265214
20
2.69979242970105
30
3.31608053542709
41
1
10
14.4609110038147
20
2.41048551239712
30
3.76008258199965
41
1
10
14.3761696438139
20
2.28100719664952
30
4.02324018883327
41
1
10
14.3614532296243
20
2.25872539198424
30
4.07090965154123
0
SPLINE
5
234
100
AcDbEntity
8
1
62
256
6
ByLayer
370
18
48
1
60
1
100
AcDbSpline
70
4
71
3
72
13
73
9
40
0
40
0
40
0
40
0
40
0.148757804846854
40
0.339113122076449
40
0.531100495813448
40
0.700205697517716
40
0.858219270085242
40
1
40
1
40
1
40
1
41
1
10
0.359322960709039
20
9.33957028487368
30
8.12679663246005
41
1
10
0.359528396515942
20
9.34671142013038
30
8.11890130954668
41
1
10
0.358350304356801
20
9.36138320538778
30
8.1002011972079
41
1
10
0.351572442543491
20
9.38028818629838
30
8.0679132023181
41
1
10
0.335682204535846
20
9.38972572892811
30
8.03248935964933
41
1
10
0.313446476528067
20
9.38604257558648
30
8.00255142767901
41
1
10
0.290375431911969
20
9.37365901694332
30
7.9815084087094
41
1
10
0.27551244779608
20
9.36274468205874
30
7.97140156425728
41
1
10
0.268331828748701
20
9.35673441585249
30
7.9673833765106
0
SPLINE
5
235
100
AcDbEntity
8
1
62
256
6
ByLayer
370
18
48
1
60
1
100
AcDbSpline
70
4
71
3
72
10
73
6
40
0
40
0
40
0
40
0
40
0.230968598894399
40
0.70694425389563
40
1
40
1
40
1
40
1
41
1
10
0.359330919657451
20
-9.34064347837261
30
8.12557524672325
41
1
10
0.358395120404956
20
-9.32331345124478
30
8.14405389094994
41
1
10
0.351339474635258
20
-9.26837015710501
30
8.19614341419524
41
1
10
0.316681218812439
20
-9.1761360387591
30
8.24743665693671
41
1
10
0.282961446927167
20
-9.10613792066976
30
8.27446880992286
41
1
10
0.268331828749799
20
-9.07887320461247
30
8.28261662348877
0
SPLINE
5
236
100
AcDbEntity
8
1
62
256
6
ByLayer
370
18
48
1
60
1
100
AcDbSpline
70
4
71
1
72
4
73
2
40
0
40
0
40
1
40
1
41
1
10
8.56948205551746
20
12.6504531681449
30
4.98127055751779
41
1
10
8.57372228132067
20
12.4812546711074
30
5.07355888809384
0
SPLINE
5
237
100
AcDbEntity
8
1
62
256
6
ByLayer
370
18
48
1
60
1
100
AcDbSpline
70
4
71
3
72
11
73
7
40
0
40
0
40
0
40
0
40
0.244903608865377
40
0.491750853749574
40
0.744794107941347
40
1
40
1
40
1
40
1
41
1
10
8.38715630490646
20
14.8858542502333
30
4.28158374930761
41
1
10
8.40425027000582
20
14.6947024300227
30
4.30508086657486
41
1
10
8.437576647716
20
14.3145952464034
30
4.36895546027452
41
1
10
8.48531714159989
20
13.7482655444554
30
4.51686820708194
41
1
10
8.52998090688492
20
13.1896870094292
30
4.7183271428612
41
1
10
8.55678550351792
20
12.8284593784163
30
4.88763135520585
41
1
10
8.56948205551746
20
12.6504531681449
30
4.98127055751779
0
SPLINE
5
238
100
AcDbEntity
8
1
62
256
6
ByLayer
370
18
48
1
60
1
100
AcDbSpline
70
4
71
3
72
13
73
9
40
0
40
0
40
0
40
0
40
0.0486465239378063
40
0.225226702783108
40
0.402223101392967
40
0.696052177570631
40
0.995849386233107
40
1
40
1
40
1
40
1
41
1
10
8.57372228132067
20
12.4812546711074
30
5.07355888809384
41
1
10
8.57262367597618
20
12.4366949350597
30
5.09874020579112
41
1
10
8.5623440955304
20
12.2324053826407
30
5.21727224410825
41
1
10
8.49261714448943
20
11.881812896831
30
5.44780198732228
41
1
10
8.29905903057664
20
11.3674524972971
30
5.85062293474529
41
1
10
7.9884460037949
20
10.829971846708
30
6.3755641772776
41
1
10
7.71494850171986
20
10.4792699344726
30
6.82102175606331
41
1
10
7.57598428328895
20
10.3166939726888
30
7.05803372555636
41
1
10
7.57408585715134
20
10.3144769620834
30
7.06127219406329
0
SPLINE
5
239
100
AcDbEntity
8
1
62
256
6
ByLayer
370
18
48
1
60
1
100
AcDbSpline
70
4
71
3
72
13
73
9
40
0
40
0
40
0
40
0
40
0.0780620867939261
40
0.288567872222583
40
0.500735129592157
40
0.682348981822426
40
0.910668274426209
40
1
40
1
40
1
40
1
41
1
10
0.359330476521856
20
10.295499528587
30
6.87570157618558
41
1
10
0.35937460635741
20
10.2985211896028
30
6.87125615243408
41
1
10
0.358779852491413
20
10.3089323149146
30
6.85457394393812
41
1
10
0.353561212148371
20
10.3234416019678
30
6.82326074413619
41
1
10
0.337034573258188
20
10.3291690565376
30
6.78450896019819
41
1
10
0.311806866284287
20
10.3215651514505
30
6.75007600527163
41
1
10
0.287942285079819
20
10.3064367634574
30
6.72959234094605
41
1
10
0.272684972960692
20
10.2945743105251
30
6.7198539106411
41
1
10
0.268331828742707
20
10.2909881629533
30
6.71738337650191
0
SPLINE
5
23A
100
AcDbEntity
8
1
62
256
6
ByLayer
370
18
48
1
60
1
100
AcDbSpline
70
4
71
3
72
11
73
7
40
0
40
0
40
0
40
0
40
0.0143855280853833
40
0.279361894059205
40
0.719453354947138
40
1
40
1
40
1
40
1
41
1
10
0.359331619391968
20
-10.295785068539
30
6.87527605471702
41
1
10
0.359327976142009
20
-10.2950101172007
30
6.87642997547021
41
1
10
0.359098015644737
20
-10.2798443190759
30
6.89871885124365
41
1
10
0.348337625057407
20
-10.2323458596401
30
6.95003520581846
41
1
10
0.314106267754836
20
-10.15665644218
30
6.99994079260596
41
1
10
0.282225042198502
20
-10.1005592744009
30
7.02487344253164
41
1
10
0.2683318287498
20
-10.078193301587
30
7.03261662348877
0
SPLINE
5
23B
100
AcDbEntity
8
1
62
256
6
ByLayer
370
18
48
1
60
1
100
AcDbSpline
70
4
71
3
72
13
73
9
40
0
40
0
40
0
40
0
40
0.0202710400744316
40
0.237105346645276
40
0.455253032433905
40
0.64759399886816
40
0.901690810887442
40
1
40
1
40
1
40
1
41
1
10
0.359331762285981
20
11.0286100524652
30
5.62515554051009
41
1
10
0.359334155922905
20
11.0292357472774
30
5.62393406341607
41
1
10
0.359195195694611
20
11.0363858722057
30
5.60960414592919
41
1
10
0.355601364506347
20
11.0472083530105
30
5.58032783384116
41
1
10
0.34000230748215
20
11.0501308630473
30
5.53979394586448
41
1
10
0.31475139568811
20
11.040282598471
30
5.50300803953918
41
1
10
0.289622286149112
20
11.0232994843837
30
5.48071938017403
41
1
10
0.27304470706528
20
11.0100873546476
30
5.47005701594441
41
1
10
0.268331828744508
20
11.0061526343827
30
5.46738337650312
0
SPLINE
5
23C
100
AcDbEntity
8
1
62
256
6
ByLayer
370
18
48
1
60
1
100
AcDbSpline
70
4
71
3
72
11
73
7
40
0
40
0
40
0
40
0
40
0.0819747132127391
40
0.361132569883597
40
0.796525474466886
40
1
40
1
40
1
40
1
41
1
10
0.359330518587423
20
-11.0283357433787
30
5.62569057812323
41
1
10
0.359241260918893
20
-11.0249323147136
30
5.63216492003135
41
1
10
0.357784037726482
20
-11.0091320083731
30
5.65987321378876
41
1
10
0.341633801713023
20
-10.9634344321392
30
5.71318381239165
41
1
10
0.307106097990214
20
-10.901764417126
30
5.75628422916527
41
1
10
0.278228677233275
20
-10.8580487462897
30
5.77703461176622
41
1
10
0.268331828749986
20
-10.8438471855183
30
5.78261662348918
0
SPLINE
5
23D
100
AcDbEntity
8
1
62
256
6
ByLayer
370
18
48
1
60
1
100
AcDbSpline
70
4
71
1
72
4
73
2
40
0
40
0
40
1
40
1
41
1
10
8.16212205296386
20
12.7095241252492
30
-12.5
41
1
10
8.01244506799424
20
14.8111151485794
30
-12.5
0
SPLINE
5
23E
100
AcDbEntity
8
1
62
256
6
ByLayer
370
18
48
1
60
1
100
AcDbSpline
70
4
71
1
72
4
73
2
40
0
40
0
40
1
40
1
41
1
10
8.01244506799424
20
14.8111151485794
30
-12.5
41
1
10
7.95407153726679
20
15.6102095540878
30
-12.4822536999978
0
SPLINE
5
23F
100
AcDbEntity
8
1
62
256
6
ByLayer
370
18
48
1
60
1
100
AcDbSpline
70
4
71
3
72
11
73
7
40
0
40
0
40
0
40
0
40
0.315755581654797
40
0.631585257863285
40
0.94788105034627
40
1
40
1
40
1
40
1
41
1
10
7.9540715372668
20
15.6102095540878
30
-12.4822536999978
41
1
10
7.99596344067446
20
15.7789253908025
30
-11.5836564239506
41
1
10
8.06957778994382
20
16.1037760335193
30
-9.78373031278445
41
1
10
8.15038509623354
20
16.5668539105305
30
-7.07680302037849
41
1
10
8.18536144030884
20
16.8543593769877
30
-5.11445758055081
41
1
10
8.1970679208795
20
16.9868328989239
30
-4.05499960114294
41
1
10
8.19857952583925
20
17.005197560332
30
-3.90506493787565
0
SPLINE
5
240
100
AcDbEntity
8
1
62
256
6
ByLayer
370
18
48
1
60
1
100
AcDbSpline
70
4
71
1
72
4
73
2
40
0
40
0
40
1
40
1
41
1
10
8.16432586349443
20
17.3533026620481
30
3.97861917951236
41
1
10
8.15508768717631
20
17.4877729689794
30
3.81703380067614
0
SPLINE
5
241
100
AcDbEntity
8
1
62
256
6
ByLayer
370
18
48
1
60
1
100
AcDbSpline
70
4
71
1
72
4
73
2
40
0
40
0
40
1
40
1
41
1
10
8.16432586349444
20
17.3533026620481
30
3.97861917951236
41
1
10
8.38715630490646
20
14.8858542502333
30
4.28158374930761
0
SPLINE
5
242
100
AcDbEntity
8
1
62
256
6
ByLayer
370
18
48
1
60
1
100
AcDbSpline
70
4
71
3
72
12
73
8
40
0
40
0
40
0
40
0
40
0.191976352451521
40
0.409977497462686
40
0.609555752104418
40
0.883210016354505
40
1
40
1
40
1
40
1
41
1
10
0.359331679926706
20
11.5814485668552
30
4.37523274789866
41
1
10
0.359406194153562
20
11.5862842890075
30
4.36263196529241
41
1
10
0.356716055471152
20
11.5933620614225
30
4.33617385327659
41
1
10
0.343109093604424
20
11.5938489262939
30
4.29584046566937
41
1
10
0.318446713757944
20
11.5818758663026
30
4.25703606463645
41
1
10
0.292026661806311
20
11.5627568304243
30
4.23240912809324
41
1
10
0.273896895405281
20
11.5477971651707
30
4.22053241909257
41
1
10
0.268331828741789
20
11.5430218856492
30
4.21738337649657
0
SPLINE
5
243
100
AcDbEntity
8
1
62
256
6
ByLayer
370
18
48
1
60
1
100
AcDbSpline
70
4
71
3
72
11
73
7
40
0
40
0
40
0
40
0
40
0.111264760423342
40
0.380721557630775
40
0.781002584000571
40
1
40
1
40
1
40
1
41
1
10
0.359331568261181
20
-11.5814200468529
30
4.37530792498522
41
1
10
0.359206910240325
20
-11.5779970869357
30
4.38401259351231
41
1
10
0.357275791389287
20
-11.5650578961897
30
4.41270395210205
41
1
10
0.340356229611401
20
-11.527100045096
30
4.4644179713306
41
1
10
0.306741613514441
20
-11.4746029519853
30
4.50637810569761
41
1
10
0.278947205061363
20
-11.4367117769403
30
4.52665915945484
41
1
10
0.2683318287498
20
-11.4229183373425
30
4.53261662348896
0
SPLINE
5
244
100
AcDbEntity
8
1
62
256
6
ByLayer
370
18
48
1
60
1
100
AcDbSpline
70
4
71
3
72
11
73
7
40
0
40
0
40
0
40
0
40
0.137009995627842
40
0.396228881501614
40
0.766738296919897
40
1
40
1
40
1
40
1
41
1
10
0.359331760064782
20
-11.9793990344134
30
3.12515811816991
41
1
10
0.359172312081908
20
-11.9764691337797
30
3.13574988905513
41
1
10
0.356800675964921
20
-11.966329805437
30
3.16507012406059
41
1
10
0.339323236356044
20
-11.9348368029315
30
3.21538748228576
41
1
10
0.306532034699477
20
-11.8896793276495
30
3.25639452503304
41
1
10
0.279603670601442
20
-11.856258689331
30
3.27632287444035
41
1
10
0.268331828749936
20
-11.8428081509529
30
3.28261662349572
0
SPLINE
5
245
100
AcDbEntity
8
1
62
256
6
ByLayer
370
18
48
1
60
1
100
AcDbSpline
70
4
71
3
72
12
73
8
40
0
40
0
40
0
40
0
40
0.149560785128423
40
0.364720931774405
40
0.569120585865867
40
0.858729366242803
40
1
40
1
40
1
40
1
41
1
10
0.359331525754294
20
11.979353402347
30
3.12533210223571
41
1
10
0.359359245302602
20
11.9820272558659
30
3.11518557473872
41
1
10
0.357411336226793
20
11.9863324591018
30
3.09085575275826
41
1
10
0.346129828879961
20
11.9845194025845
30
3.05248038004695
41
1
10
0.322469129568561
20
11.9704225303163
30
3.011739790755
41
1
10
0.294847551375109
20
11.948768616163
30
2.98446989769002
41
1
10
0.275053863626249
20
11.9316854344225
30
2.97117294367942
41
1
10
0.268331828735615
20
11.9256996731331
30
2.96738337647971
0
SPLINE
5
246
100
AcDbEntity
8
1
62
256
6
ByLayer
370
18
48
1
60
1
100
AcDbSpline
70
4
71
3
72
12
73
8
40
0
40
0
40
0
40
0
40
0.079022335971404
40
0.292848471955138
40
0.498904688148993
40
0.792562107831166
40
1
40
1
40
1
40
1
41
1
10
0.359331764949148
20
12.2375004848054
30
1.87515239236622
41
1
10
0.359336278476171
20
12.2383440066074
30
1.86967521358912
41
1
10
0.358465935135043
20
12.2405339111161
30
1.84955386010203
41
1
10
0.35096492299014
20
12.2381469608872
30
1.81488234688221
41
1
10
0.32992574821046
20
12.2231972307218
30
1.77181070916456
41
1
10
0.300843725704097
20
12.1984942948419
30
1.73915761861668
41
1
10
0.278263045943692
20
12.177995685096
30
1.72291225156437
41
1
10
0.268331828749765
20
12.1687415592248
30
1.71738337651121
0
SPLINE
5
247
100
AcDbEntity
8
1
62
256
6
ByLayer
370
18
48
1
60
1
100
AcDbSpline
70
4
71
3
72
12
73
8
40
0
40
0
40
0
40
0
40
0.0040628894778726
40
0.192720662732257
40
0.452799876357123
40
0.815203839378054
40
1
40
1
40
1
40
1
41
1
10
0.359331826023104
20
-12.2375190696703
30
1.87503150424102
41
1
10
0.359331737651604
20
-12.2374725072878
30
1.87533481130233
41
1
10
0.359294618303096
20
-12.2352318088165
30
1.88971033880068
41
1
10
0.355107048018287
20
-12.2258339625568
30
1.92297440319988
41
1
10
0.334133737249373
20
-12.1965009017341
30
1.97378860948367
41
1
10
0.301856914226288
20
-12.1577884270214
30
2.01029564126832
41
1
10
0.277170250367839
20
-12.129872340899
30
2.0276455798206
41
1
10
0.268331828748931
20
-12.1200720484234
30
2.03261662349977
0
SPLINE
5
248
100
AcDbEntity
8
1
62
256
6
ByLayer
370
18
48
1
60
1
100
AcDbSpline
70
4
71
3
72
12
73
8
40
0
40
0
40
0
40
0
40
0.236179856990101
40
0.484910551603073
40
0.7644834940607
40
0.899043887819592
40
1
40
1
40
1
40
1
41
1
10
16.0048067439699
20
16.7724157957271
30
1.27230340885141
41
1
10
16.0332389316146
20
16.7947408409995
30
1.1763952512219
41
1
10
16.1087993567903
20
16.8557595060051
30
0.998660000845092
41
1
10
16.2863469514316
20
17.0150614091001
30
0.774825558609348
41
1
10
16.4876906190513
20
17.1739011590339
30
0.649887524477689
41
1
10
16.691458483168
20
17.2483240585718
30
0.605367885462892
41
1
10
16.7896723959428
20
17.2525648825301
30
0.599763928884952
41
1
10
16.8331843813062
20
17.2500480733335
30
0.599999999999997
0
SPLINE
5
249
100
AcDbEntity
8
1
62
256
6
ByLayer
370
18
48
1
60
1
100
AcDbSpline
70
4
71
3
72
13
73
9
40
0
40
0
40
0
40
0
40
0.0796949718387847
40
0.417646242664148
40
0.615007512919048
40
0.813419523618183
40
0.999499228034166
40
1
40
1
40
1
40
1
41
1
10
11.4878151925839
20
17.2952379157566
30
0.918252529955849
41
1
10
11.4592122346269
20
17.3086714373373
30
0.901263166796811
41
1
10
11.3062516879503
20
17.3762122238172
30
0.818205048918834
41
1
10
11.0551418378755
20
17.4763217218178
30
0.735949080669204
41
1
10
10.7235739735757
20
17.5191087565705
30
0.719787245054511
41
1
10
10.4653001727429
20
17.4809027511912
30
0.776122456520418
41
1
10
10.3193379200073
20
17.4284293716111
30
0.857365733019007
41
1
10
10.2553304932373
20
17.4032893980723
30
0.904996766001675
41
1
10
10.255158746109
20
17.4032219017789
30
0.905124672109011
0
SPLINE
5
24A
100
AcDbEntity
8
1
62
256
6
ByLayer
370
18
48
1
60
1
100
AcDbSpline
70
4
71
3
72
11
73
7
40
0
40
0
40
0
40
0
40
0.241243642546965
40
0.594965704132264
40
0.946929105496227
40
1
40
1
40
1
40
1
41
1
10
8.23572054760386
20
17.5684246190687
30
0.902390835736251
41
1
10
8.24614727728914
20
17.6084589524002
30
0.835729619884649
41
1
10
8.27155293420709
20
17.721537418589
30
0.687617871045276
41
1
10
8.31614568760563
20
17.967460213258
30
0.50685026221197
41
1
10
8.34213665161239
20
18.2026015501798
30
0.437138673305796
41
1
10
8.3512909844461
20
18.3303205113361
30
0.425013608493334
41
1
10
8.35242327993993
20
18.347168627347
30
0.42383909627494
0
SPLINE
5
24B
100
AcDbEntity
8
1
62
256
6
ByLayer
370
18
48
1
60
1
100
AcDbSpline
70
4
71
1
72
4
73
2
40
0
40
0
40
1
40
1
41
1
10
15.9535032564865
20
16.7536664054133
30
1.56537438594114
41
1
10
15.9597349785245
20
16.7507260585353
30
1.49642716782614
0
SPLINE
5
24C
100
AcDbEntity
8
1
62
256
6
ByLayer
370
18
48
1
60
1
100
AcDbSpline
70
4
71
1
72
4
73
2
40
0
40
0
40
1
40
1
41
1
10
15.9518911672074
20
16.7562146117251
30
1.6
41
1
10
15.9535032564865
20
16.7536664054133
30
1.56537438594114
0
SPLINE
5
24D
100
AcDbEntity
8
1
62
256
6
ByLayer
370
18
48
1
60
1
100
AcDbSpline
70
4
71
3
72
12
73
8
40
0
40
0
40
0
40
0
40
0.0676024576778735
40
0.2649031642723
40
0.52923551631365
40
0.892569878405846
40
1
40
1
40
1
40
1
41
1
10
0.359331781776585
20
-12.364539075899
30
0.62513076026916
41
1
10
0.359317067357946
20
-12.3642735663434
30
0.630086865263763
41
1
10
0.358552845086089
20
-12.3625286586241
30
0.649247990891589
41
1
10
0.350862758840437
20
-12.3528260040261
30
0.686601390047585
41
1
10
0.326154303002382
20
-12.3252777418964
30
0.735278325781166
41
1
10
0.295007920137619
20
-12.2921866755954
30
0.765735975565058
41
1
10
0.273408859506763
20
-12.2696599792873
30
0.779726714189175
41
1
10
0.268331828749668
20
-12.2643869809199
30
0.782616623489373
0
SPLINE
5
24E
100
AcDbEntity
8
1
62
256
6
ByLayer
370
18
48
1
60
1
100
AcDbSpline
70
4
71
3
72
11
73
7
40
0
40
0
40
0
40
0
40
0.226193530646301
40
0.459685087549659
40
0.81985564538588
40
1
40
1
40
1
40
1
41
1
10
0.358245292003583
20
12.3644456612012
30
0.605142537586037
41
1
10
0.356374928692003
20
12.3632943347409
30
0.59027369259555
41
1
10
0.349951284318715
20
12.3582021495976
30
0.562019785155635
41
1
10
0.327456842114196
20
12.3376214053285
30
0.517766444677894
41
1
10
0.298315730382637
20
12.309690087183
30
0.487022904100269
41
1
10
0.276090553216713
20
12.2880419707856
30
0.471750596951015
41
1
10
0.268331828743178
20
12.2804409357459
30
0.467383376487134
0
SPLINE
5
24F
100
AcDbEntity
8
1
62
256
6
ByLayer
370
18
48
1
60
1
100
AcDbSpline
70
4
71
1
72
4
73
2
40
0
40
0
40
1
40
1
41
1
10
17.6551525983538
20
21.095579541322
30
-1.08733661926355
41
1
10
17.7619266027796
20
21.011679248852
30
0.272209542154516
0
SPLINE
5
250
100
AcDbEntity
8
1
62
256
6
ByLayer
370
18
48
1
60
1
100
AcDbSpline
70
4
71
3
72
12
73
8
40
0
40
0
40
0
40
0
40
0.0573009716925445
40
0.280031064926636
40
0.505395285878044
40
0.744943740650588
40
1
40
1
40
1
40
1
41
1
10
11.5186838389365
20
23.4670015566955
30
0.335388393766093
41
1
10
11.5260212239763
20
23.4647926451904
30
0.335567688310746
41
1
10
11.5619707808837
20
23.4553827633367
30
0.335670727622934
41
1
10
11.6302484801908
20
23.4506702250654
30
0.328736457577806
41
1
10
11.7178204954645
20
23.4707098987702
30
0.305277905159861
41
1
10
11.7960058264779
20
23.5162316954837
30
0.268118060383928
41
1
10
11.8348235849265
20
23.5585397992238
30
0.237047601810509
41
1
10
11.8513163524567
20
23.5838903853577
30
0.219233406991807
0
SPLINE
5
251
100
AcDbEntity
8
1
62
256
6
ByLayer
370
18
48
1
60
1
100
AcDbSpline
70
4
71
3
72
13
73
9
40
0
40
0
40
0
40
0
40
0.212275459580104
40
0.386387479228189
40
0.56152033741987
40
0.714816097899348
40
0.917450657562086
40
1
40
1
40
1
40
1
41
1
10
12.7949871448613
20
23.8027237677789
30
0.207405596836712
41
1
10
12.7332818315057
20
23.8392073566851
30
0.164835233341421
41
1
10
12.612194533181
20
23.8852882390161
30
0.102018832095489
41
1
10
12.4061482009662
20
23.9036482498311
30
0.0386277109086289
41
1
10
12.2153209983905
20
23.8673147086738
30
0.0328750786869106
41
1
10
12.036848144267
20
23.7821348305231
30
0.0793961083692344
41
1
10
11.9219181948817
20
23.6808918486283
30
0.150525385506151
41
1
10
11.8659939172434
20
23.6064275600831
30
0.203109358017871
41
1
10
11.8513163524567
20
23.5838903853577
30
0.219233406991808
0
SPLINE
5
252
100
AcDbEntity
8
1
62
256
6
ByLayer
370
18
48
1
60
1
100
AcDbSpline
70
4
71
3
72
11
73
7
40
0
40
0
40
0
40
0
40
0.28418618105357
40
0.569985742254247
40
0.8289610924066
40
1
40
1
40
1
40
1
41
1
10
12.7949871448613
20
23.8027237677789
30
0.207405596836712
41
1
10
12.8246596170965
20
23.7853913097076
30
0.226788430386441
41
1
10
12.8874854972776
20
23.7626977092451
30
0.260766800157898
41
1
10
12.9943565446718
20
23.7618765430937
30
0.298568469609171
41
1
10
13.0850064736062
20
23.7952009269765
30
0.315025101789802
41
1
10
13.1305753067445
20
23.8290117337202
30
0.315945297708324
41
1
10
13.1477767360676
20
23.8447815111324
30
0.314969618842101
0
SPLINE
5
253
100
AcDbEntity
8
1
62
256
6
ByLayer
370
18
48
1
60
1
100
AcDbSpline
70
4
71
3
72
12
73
8
40
0
40
0
40
0
40
0
40
0.0628011180647
40
0.283352165783305
40
0.506851807023896
40
0.744678285731811
40
1
40
1
40
1
40
1
41
1
10
10.3699562352537
20
24.6958982949391
30
0.245369347627541
41
1
10
10.3718484208691
20
24.6876461116074
30
0.245950078603601
41
1
10
10.3818419041318
20
24.6510838334438
30
0.247765369760837
41
1
10
10.4128711540228
20
24.5888316611683
30
0.244356311269216
41
1
10
10.4755972366911
20
24.5226273620218
30
0.226507513267428
41
1
10
10.5567444470987
20
24.4768008362018
30
0.195321295504981
41
1
10
10.6149845715823
20
24.4637085818532
30
0.167869792152218
41
1
10
10.6465483378919
20
24.4617892401114
30
0.151776381053316
0
SPLINE
5
254
100
AcDbEntity
8
1
62
256
6
ByLayer
370
18
48
1
60
1
100
AcDbSpline
70
4
71
3
72
10
73
6
40
0
40
0
40
0
40
0
40
0.420489505399805
40
0.841816614128221
40
1
40
1
40
1
40
1
41
1
10
11.06843668677
20
24.2905893510334
30
0.0042114409196806
41
1
10
11.0137422950786
20
24.3352451185997
30
0.0107287581918275
41
1
10
10.9010309209254
20
24.4073495059874
30
0.0350429638868689
41
1
10
10.7531756696084
20
24.4507127844008
30
0.0986789637021076
41
1
10
10.6694822109182
20
24.4603547091206
30
0.139901848339323
41
1
10
10.6465483378919
20
24.4617892401114
30
0.151776381053316
0
SPLINE
5
255
100
AcDbEntity
8
1
62
256
6
ByLayer
370
18
48
1
60
1
100
AcDbSpline
70
4
71
1
72
4
73
2
40
0
40
0
40
1
40
1
41
1
10
11.3119620106991
20
23.7499366743038
30
0.203920948591975
41
1
10
11.3118003530773
20
23.8097833196537
30
0.168155938905978
0
SPLINE
5
256
100
AcDbEntity
8
1
62
256
6
ByLayer
370
18
48
1
60
1
100
AcDbSpline
70
4
71
1
72
4
73
2
40
0
40
0
40
1
40
1
41
1
10
11.3119620106991
20
23.7499366743038
30
0.203920948591976
41
1
10
11.31203298514
20
23.7244189298866
30
0.219277648217297
0
SPLINE
5
257
100
AcDbEntity
8
1
62
256
6
ByLayer
370
18
48
1
60
1
100
AcDbSpline
70
4
71
1
72
4
73
2
40
0
40
0
40
1
40
1
41
1
10
11.31203298514
20
23.7244189298866
30
0.219277648217297
41
1
10
11.3177526021848
20
23.6809510112939
30
0.244097486098702
0
SPLINE
5
258
100
AcDbEntity
8
1
62
256
6
ByLayer
370
18
48
1
60
1
100
AcDbSpline
70
4
71
3
72
11
73
7
40
0
40
0
40
0
40
0
40
0.105141683344682
40
0.459566310665675
40
0.780591855631663
40
1
40
1
40
1
40
1
41
1
10
11.3177526021848
20
23.6809510112939
30
0.244097486098702
41
1
10
11.319831458264
20
23.6711381514746
30
0.249507596711459
41
1
10
11.3313560557696
20
23.6290016867643
30
0.27225904460886
41
1
10
11.369259550676
20
23.5593015492817
30
0.305933245549623
41
1
10
11.4427119346164
20
23.4969968248459
30
0.329661545770424
41
1
10
11.4954939036349
20
23.474200569818
30
0.334729909327173
41
1
10
11.5186838389365
20
23.4670015566955
30
0.335388393766094
0
SPLINE
5
259
100
AcDbEntity
8
1
62
256
6
ByLayer
370
18
48
1
60
1
100
AcDbSpline
70
4
71
2
72
6
73
3
40
0
40
0
40
0
40
1
40
1
40
1
41
1
10
13.240421484151
20
24.0700145068449
30
0.248176848635664
41
1
10
13.2367518541569
20
24.1330097856061
30
0.21857335233467
41
1
10
13.2072790058659
20
24.1862676820198
30
0.182131208542392
0
SPLINE
5
25A
100
AcDbEntity
8
1
62
256
6
ByLayer
370
18
48
1
60
1
100
AcDbSpline
70
4
71
3
72
11
73
7
40
0
40
0
40
0
40
0
40
0.0969126571401719
40
0.437261038890662
40
0.782159592017314
40
1
40
1
40
1
40
1
41
1
10
13.1477767360676
20
23.8447815111324
30
0.314969618842102
41
1
10
13.1539787226477
20
23.8505611365192
30
0.314586267413895
41
1
10
13.1806044500681
20
23.877482766638
30
0.312026200871339
41
1
10
13.2185848021976
20
23.9345786201232
30
0.300352698008319
41
1
10
13.2395841966314
20
24.0078978438529
30
0.275658657812811
41
1
10
13.2414213047452
20
24.052590530391
30
0.256344930613469
41
1
10
13.240421484151
20
24.0700145068449
30
0.248176848635664
0
SPLINE
5
25B
100
AcDbEntity
8
1
62
256
6
ByLayer
370
18
48
1
60
1
100
AcDbSpline
70
4
71
3
72
11
73
7
40
0
40
0
40
0
40
0
40
0.325091780950838
40
0.652028794151926
40
0.948280574187275
40
1
40
1
40
1
40
1
41
1
10
13.4919324261455
20
25.110110934887
30
0.118660071425086
41
1
10
13.5229246555485
20
25.1276817824815
30
0.135610422404514
41
1
10
13.5760492005922
20
25.1716679299579
30
0.164894967521428
41
1
10
13.6326692471002
20
25.2649337192551
30
0.195951392424256
41
1
10
13.6472839809594
20
25.3435274692427
30
0.205703330411662
41
1
10
13.6464012457216
20
25.3838434734863
30
0.206757859046599
41
1
10
13.6460944864712
20
25.3898689654356
30
0.206831059554958
0
SPLINE
5
25C
100
AcDbEntity
8
1
62
256
6
ByLayer
370
18
48
1
60
1
100
AcDbSpline
70
4
71
3
72
11
73
7
40
0
40
0
40
0
40
0
40
0.296973256967903
40
0.540555736657796
40
0.785566367308957
40
1
40
1
40
1
40
1
41
1
10
13.4919324261455
20
25.110110934887
30
0.118660071425086
41
1
10
13.4269709642403
20
25.0737082435251
30
0.0811674898452359
41
1
10
13.3227180816824
20
24.9900789260334
30
0.0275229382099132
41
1
10
13.1996347753463
20
24.8196345123727
30
-0.0225814487106343
41
1
10
13.1348354452262
20
24.6352580803614
30
-0.0168551592831634
41
1
10
13.1263530591314
20
24.5173914738929
30
0.0153113317971907
41
1
10
13.1293168649793
20
24.4612711671299
30
0.0367166918688946
0
SPLINE
5
25D
100
AcDbEntity
8
1
62
256
6
ByLayer
370
18
48
1
60
1
100
AcDbSpline
70
4
71
1
72
4
73
2
40
0
40
0
40
1
40
1
41
1
10
10.3630610002103
20
24.7453874268764
30
0.239820963218138
41
1
10
10.3699562352537
20
24.6958982949391
30
0.245369347627541
0
SPLINE
5
25E
100
AcDbEntity
8
1
62
256
6
ByLayer
370
18
48
1
60
1
100
AcDbSpline
70
4
71
3
72
11
73
7
40
0
40
0
40
0
40
0
40
0.325091780950841
40
0.652028794151925
40
0.948280574187273
40
1
40
1
40
1
40
1
41
1
10
10.5180034610924
20
25.0102545277383
30
0.114749494269619
41
1
10
10.4868796584898
20
24.9951942463502
30
0.133751183745779
41
1
10
10.4335208552701
20
24.9556780111492
30
0.168477086370931
41
1
10
10.3766286726226
20
24.8676048887295
30
0.211781165952113
41
1
10
10.3619033222988
20
24.7911218266225
30
0.232254894141375
41
1
10
10.3627578470693
20
24.7513441101617
30
0.238908803586281
41
1
10
10.3630610002103
20
24.7453874268764
30
0.239820963218138
0
SPLINE
5
25F
100
AcDbEntity
8
1
62
256
6
ByLayer
370
18
48
1
60
1
100
AcDbSpline
70
4
71
3
72
11
73
7
40
0
40
0
40
0
40
0
40
0.0969126571401951
40
0.437261038890665
40
0.782159592017301
40
1
40
1
40
1
40
1
41
1
10
10.8613636930813
20
26.2907621960183
30
0.135796836235922
41
1
10
10.8551617243599
20
26.2849822298672
30
0.136175307820858
41
1
10
10.8285416603854
20
26.2579525347643
30
0.13718785226578
41
1
10
10.7906183068593
20
26.1997690831357
30
0.133286632443246
41
1
10
10.7697620450903
20
26.1237187254642
30
0.118870037868194
41
1
10
10.7680429303224
20
26.0767745917656
30
0.105942384939436
41
1
10
10.7690933562016
20
26.0583850089512
30
0.100282702150576
0
SPLINE
5
260
100
AcDbEntity
8
1
62
256
6
ByLayer
370
18
48
1
60
1
100
AcDbSpline
70
4
71
3
72
11
73
7
40
0
40
0
40
0
40
0
40
0.296973256967899
40
0.540555736657788
40
0.785566367308953
40
1
40
1
40
1
40
1
41
1
10
10.5180034610924
20
25.0102545277383
30
0.114749494269619
41
1
10
10.5832547938035
20
25.0411261546323
30
0.0730356191544932
41
1
10
10.6879381678037
20
25.1165412060697
30
0.0090494846367101
41
1
10
10.8114698348608
20
25.2784303875279
30
-0.0633595493047976
41
1
10
10.8763195085066
20
25.4618462078426
30
-0.0828420784573321
41
1
10
10.8846273262949
20
25.5830437760302
30
-0.0673082260154636
41
1
10
10.8815362325816
20
25.6415928799507
30
-0.0539325022655005
0
SPLINE
5
261
100
AcDbEntity
8
1
62
256
6
ByLayer
370
18
48
1
60
1
100
AcDbSpline
70
4
71
1
72
4
73
2
40
0
40
0
40
1
40
1
41
1
10
13.6460944864712
20
25.3898689654356
30
0.206831059554958
41
1
10
13.6391841938953
20
25.4396454122116
30
0.205397107450484
0
SPLINE
5
262
100
AcDbEntity
8
1
62
256
6
ByLayer
370
18
48
1
60
1
100
AcDbSpline
70
4
71
3
72
12
73
8
40
0
40
0
40
0
40
0
40
0.06280111806471
40
0.283352165783293
40
0.506851807023866
40
0.744678285731762
40
1
40
1
40
1
40
1
41
1
10
13.6391841938953
20
25.4396454122116
30
0.205397107450483
41
1
10
13.6372920261387
20
25.4478972547756
30
0.204811496582401
41
1
10
13.6273041838661
20
25.4843518964365
30
0.201454819306519
41
1
10
13.5963322552951
20
25.5455103127692
30
0.189200973629592
41
1
10
13.5337715246024
20
25.6085595082687
30
0.161867767001611
41
1
10
13.452876938952
20
25.6495656665664
30
0.124024915654293
41
1
10
13.3948449761596
20
25.6586859592305
30
0.0945967689862705
41
1
10
13.3634002479616
20
25.6583339184935
30
0.0781633203816422
0
SPLINE
5
263
100
AcDbEntity
8
1
62
256
6
ByLayer
370
18
48
1
60
1
100
AcDbSpline
70
4
71
3
72
10
73
6
40
0
40
0
40
0
40
0
40
6.83190500834E-05
40
0.710559961748428
40
1
40
1
40
1
40
1
41
1
10
13.1293168649793
20
24.4612711671299
30
0.0367166918688946
41
1
10
13.1293172248488
20
24.4612643007105
30
0.0367192562940072
41
1
10
13.133061077363
20
24.3898497805141
30
0.0633913492730798
41
1
10
13.1550684906927
20
24.2934589398234
30
0.112286443906082
41
1
10
13.1942697694068
20
24.2096944994666
30
0.165843724733022
41
1
10
13.2072790058661
20
24.1862676820194
30
0.182131208542674
0
SPLINE
5
264
100
AcDbEntity
8
1
62
256
6
ByLayer
370
18
48
1
60
1
100
AcDbSpline
70
4
71
1
72
4
73
2
40
0
40
0
40
1
40
1
41
1
10
12.6979865751545
20
26.3701864843009
30
0.0260187528430805
41
1
10
12.6978167272712
20
26.3975908463864
30
0.0376789685904684
0
SPLINE
5
265
100
AcDbEntity
8
1
62
256
6
ByLayer
370
18
48
1
60
1
100
AcDbSpline
70
4
71
3
72
10
73
6
40
0
40
0
40
0
40
0
40
0.420489505399742
40
0.841816614128142
40
1
40
1
40
1
40
1
41
1
10
12.9426850499924
20
25.8071487547228
30
-0.0948322264159767
41
1
10
12.9973077998297
20
25.7638599951679
30
-0.0817735901829023
41
1
10
13.1098023961522
20
25.6958919751986
30
-0.0468538077906012
41
1
10
13.2571681410732
20
25.6618690352372
30
0.0232665637823848
41
1
10
13.3405542071297
20
25.6580925113787
30
0.0660379305225441
41
1
10
13.3634002479616
20
25.6583339184935
30
0.0781633203816422
0
SPLINE
5
266
100
AcDbEntity
8
1
62
256
6
ByLayer
370
18
48
1
60
1
100
AcDbSpline
70
4
71
1
72
4
73
2
40
0
40
0
40
1
40
1
41
1
10
12.6979865751545
20
26.3701864843009
30
0.0260187528430796
41
1
10
12.6983782922048
20
26.3059500435498
30
-0.0010793882011537
0
SPLINE
5
267
100
AcDbEntity
8
1
62
256
6
ByLayer
370
18
48
1
60
1
100
AcDbSpline
70
4
71
3
72
10
73
6
40
0
40
0
40
0
40
0
40
0.411412061370728
40
0.882278356339919
40
1
40
1
40
1
40
1
41
1
10
11.3118003530773
20
23.8097833196537
30
0.168155938905978
41
1
10
11.3097242216367
20
23.8602754245059
30
0.137966654511271
41
1
10
11.2913741250897
20
23.966887392303
30
0.0817895670091561
41
1
10
11.2369638365851
20
24.0898035822073
30
0.0319389577492283
41
1
10
11.1915499017043
20
24.1560432829348
30
0.0159174952511065
41
1
10
11.1819346073412
20
24.1691704664025
30
0.0131056073985978
0
SPLINE
5
268
100
AcDbEntity
8
1
62
256
6
ByLayer
370
18
48
1
60
1
100
AcDbSpline
70
4
71
3
72
12
73
8
40
0
40
0
40
0
40
0
40
0.0573009716925487
40
0.280031064926644
40
0.505395285878045
40
0.744943740650585
40
1
40
1
40
1
40
1
41
1
10
12.4904565902125
20
26.6685421504551
30
0.11537806131193
41
1
10
12.4831192183449
20
26.6707508106191
30
0.11519516748836
41
1
10
12.4471746553714
20
26.6800654025377
30
0.113727548508074
41
1
10
12.3789516805805
20
26.683733734834
30
0.105708484376854
41
1
10
12.2915426732354
20
26.660583684562
30
0.0846255369977377
41
1
10
12.2136069358043
20
26.6102993585886
30
0.0535845734506848
41
1
10
12.1749950025209
20
26.5640638767386
30
0.0284138318002733
41
1
10
12.1586195347812
20
26.5364750772676
30
0.0141761587027171
0
SPLINE
5
269
100
AcDbEntity
8
1
62
256
6
ByLayer
370
18
48
1
60
1
100
AcDbSpline
70
4
71
3
72
13
73
9
40
0
40
0
40
0
40
0
40
0.212275459580106
40
0.38638747922819
40
0.561520337419871
40
0.714816097899347
40
0.917450657562085
40
1
40
1
40
1
40
1
41
1
10
11.2149487423766
20
26.3176416948463
30
0.026003968857994
41
1
10
11.2769439263782
20
26.275627044524
30
-0.0106320806400816
41
1
10
11.3984620981826
20
26.2213246064305
30
-0.0655507562965754
41
1
10
11.6049553250267
20
26.1944373381086
30
-0.12427245016963
41
1
10
11.7958378220367
20
26.2297157986075
30
-0.133628880762459
41
1
10
11.9740103960533
20
26.3206253625223
30
-0.0980991388468743
41
1
10
12.088470688853
20
26.4308299259228
30
-0.0408959545598161
41
1
10
12.1440483417772
20
26.5119082080173
30
0.0012343899803156
41
1
10
12.1586195347812
20
26.5364750772676
30
0.0141761587027171
0
SPLINE
5
26A
100
AcDbEntity
8
1
62
256
6
ByLayer
370
18
48
1
60
1
100
AcDbSpline
70
4
71
3
72
11
73
7
40
0
40
0
40
0
40
0
40
0.284186181053569
40
0.569985742254249
40
0.828961092406599
40
1
40
1
40
1
40
1
41
1
10
11.2149487423766
20
26.3176416948463
30
0.026003968857994
41
1
10
11.1851446970843
20
26.3374847164055
30
0.0425731368326871
41
1
10
11.1220845440964
20
26.3646485083152
30
0.0726092126256599
41
1
10
11.0149414249702
20
26.3706611123733
30
0.10915044843728
41
1
10
10.9241570964646
20
26.3399012250808
30
0.129418155540729
41
1
10
10.8785655782824
20
26.3065232747603
30
0.134696589874945
41
1
10
10.8613636930813
20
26.2907621960183
30
0.135796836235923
0
SPLINE
5
26B
100
AcDbEntity
8
1
62
256
6
ByLayer
370
18
48
1
60
1
100
AcDbSpline
70
4
71
2
72
6
73
3
40
0
40
0
40
0
40
1
40
1
40
1
41
1
10
10.7690933562016
20
26.0583850089512
30
0.100282702150576
41
1
10
10.7729464716511
20
25.9918886191359
30
0.079749266816887
41
1
10
10.802656881372
20
25.9340977806054
30
0.0512783571522939
0
SPLINE
5
26C
100
AcDbEntity
8
1
62
256
6
ByLayer
370
18
48
1
60
1
100
AcDbSpline
70
4
71
3
72
10
73
6
40
0
40
0
40
0
40
0
40
6.83190500759E-05
40
0.710559961748419
40
1
40
1
40
1
40
1
41
1
10
10.8815362325816
20
25.6415928799507
30
-0.0539325022655005
41
1
10
10.8815358575355
20
25.6416000359565
30
-0.0539309197296352
41
1
10
10.8776341554696
20
25.716026505034
30
-0.0374710262382951
41
1
10
10.8553202162294
20
25.8182662085114
30
-0.0026086993619872
41
1
10
10.815772489506
20
25.908641270691
30
0.0385000527253768
41
1
10
10.8026568813718
20
25.9340977806059
30
0.0512783571525056
0
SPLINE
5
26D
100
AcDbEntity
8
1
62
256
6
ByLayer
370
18
48
1
60
1
100
AcDbSpline
70
4
71
1
72
4
73
2
40
0
40
0
40
1
40
1
41
1
10
12.6978167272712
20
26.3975908463864
30
0.0376789685904684
41
1
10
12.6925299672712
20
26.4411158417665
30
0.0550412912126439
0
SPLINE
5
26E
100
AcDbEntity
8
1
62
256
6
ByLayer
370
18
48
1
60
1
100
AcDbSpline
70
4
71
3
72
11
73
7
40
0
40
0
40
0
40
0
40
0.114000629818419
40
0.464916513080196
40
0.782763959271639
40
1
40
1
40
1
40
1
41
1
10
12.6925299672712
20
26.4411158417665
30
0.0550412912126439
41
1
10
12.6903306677218
20
26.4526033969346
30
0.0594310499383923
41
1
10
12.6786410528202
20
26.4984840944654
30
0.076441010663007
41
1
10
12.6400458467696
20
26.5731228747255
30
0.100126753179698
41
1
10
12.5664526797048
20
26.6380802211395
30
0.114428985939632
41
1
10
12.51364704195
20
26.6613332831485
30
0.115895430958023
41
1
10
12.4904565902125
20
26.6685421504552
30
0.115378061311931
0
SPLINE
5
26F
100
AcDbEntity
8
1
62
256
6
ByLayer
370
18
48
1
60
1
100
AcDbSpline
70
4
71
3
72
10
73
6
40
0
40
0
40
0
40
0
40
0.411412061370732
40
0.882278356339929
40
1
40
1
40
1
40
1
41
1
10
12.6983782922048
20
26.3059500435498
30
-0.0010793882011537
41
1
10
12.700648577829
20
26.2517532561812
30
-0.02394223816652
41
1
10
12.7193531392546
20
26.1383776955854
30
-0.0646217726098652
41
1
10
12.7740625580276
20
26.0097537601396
30
-0.0965077445610083
41
1
10
12.8195582871617
20
25.9419533320855
30
-0.102836352673661
41
1
10
12.8291871294213
20
25.9285676393534
30
-0.103726392898707
0
SPLINE
5
270
100
AcDbEntity
8
1
62
256
6
ByLayer
370
18
48
1
60
0
100
AcDbSpline
70
4
71
1
72
4
73
2
40
0
40
0
40
1
40
1
41
1
10
0.2683318287498
20
-12.2804409357516
30
0
41
1
10
-0.271000000000001
20
-11.7489643798932
30
0
0
SPLINE
5
271
100
AcDbEntity
8
1
62
256
6
ByLayer
370
18
48
1
60
0
100
AcDbSpline
70
4
71
1
72
4
73
2
40
0
40
0
40
1
40
1
41
1
10
0.2683318287498
20
-12.1687415592248
30
0
41
1
10
-0.271
20
-11.665576025212
30
0
0
SPLINE
5
272
100
AcDbEntity
8
1
62
256
6
ByLayer
370
18
48
1
60
0
100
AcDbSpline
70
4
71
1
72
4
73
2
40
0
40
0
40
1
40
1
41
1
10
0.268331828749801
20
-11.9256996731398
30
0
41
1
10
-0.271000000000001
20
-11.4458797826991
30
0
0
SPLINE
5
273
100
AcDbEntity
8
1
62
256
6
ByLayer
370
18
48
1
60
0
100
AcDbSpline
70
4
71
1
72
4
73
2
40
0
40
0
40
1
40
1
41
1
10
0.268331828749801
20
-11.5430218856524
30
0
41
1
10
-0.270999999999999
20
-11.0817716995073
30
0
0
SPLINE
5
274
100
AcDbEntity
8
1
62
256
6
ByLayer
370
18
48
1
60
0
100
AcDbSpline
70
4
71
1
72
4
73
2
40
0
40
0
40
1
40
1
41
1
10
0.268331828749801
20
-11.0061526343846
30
0
41
1
10
-0.271
20
-10.5583220257766
30
0
0
SPLINE
5
275
100
AcDbEntity
8
1
62
256
6
ByLayer
370
18
48
1
60
0
100
AcDbSpline
70
4
71
1
72
4
73
2
40
0
40
0
40
1
40
1
41
1
10
0.268331828749801
20
-10.2909881629557
30
0
41
1
10
-0.271
20
-9.85016060782767
30
0
0
SPLINE
5
276
100
AcDbEntity
8
1
62
256
6
ByLayer
370
18
48
1
60
0
100
AcDbSpline
70
4
71
1
72
4
73
2
40
0
40
0
40
1
40
1
41
1
10
0.2683318287498
20
-9.3567344158534
30
0
41
1
10
-0.271000000000001
20
-8.91336995754131
30
0
0
SPLINE
5
277
100
AcDbEntity
8
1
62
256
6
ByLayer
370
18
48
1
60
0
100
AcDbSpline
70
4
71
1
72
4
73
2
40
0
40
0
40
1
40
1
41
1
10
0.268331828749801
20
-8.12819294108704
30
0
41
1
10
-0.270999999999999
20
-7.6645720037064
30
0
0
SPLINE
5
278
100
AcDbEntity
8
1
62
256
6
ByLayer
370
18
48
1
60
0
100
AcDbSpline
70
4
71
1
72
4
73
2
40
0
40
0
40
1
40
1
41
1
10
0.268331828749801
20
-6.43906530843252
30
0
41
1
10
-0.270999999999998
20
-5.9091593310724
30
0
0
SPLINE
5
279
100
AcDbEntity
8
1
62
256
6
ByLayer
370
18
48
1
60
0
100
AcDbSpline
70
4
71
1
72
4
73
2
40
0
40
0
40
1
40
1
41
1
10
0.268331828749799
20
-3.7054829111711
30
0
41
1
10
-0.271
20
-2.82235079322184
30
0
0
SPLINE
5
27A
100
AcDbEntity
8
1
62
256
6
ByLayer
370
18
48
1
60
0
100
AcDbSpline
70
4
71
1
72
4
73
2
40
0
40
0
40
1
40
1
41
1
10
-0.270999999999999
20
2.82235079322184
30
0
41
1
10
0.268331828749799
20
3.7054829111711
30
0
0
SPLINE
5
27B
100
AcDbEntity
8
1
62
256
6
ByLayer
370
18
48
1
60
0
100
AcDbSpline
70
4
71
1
72
4
73
2
40
0
40
0
40
1
40
1
41
1
10
-0.270999999999998
20
5.9091593310724
30
0
41
1
10
0.268331828749827
20
6.43906530843254
30
0
0
SPLINE
5
27C
100
AcDbEntity
8
1
62
256
6
ByLayer
370
18
48
1
60
0
100
AcDbSpline
70
4
71
1
72
4
73
2
40
0
40
0
40
1
40
1
41
1
10
-0.270999999999999
20
7.6645720037064
30
0
41
1
10
0.268331828749837
20
8.12819294108708
30
0
0
SPLINE
5
27D
100
AcDbEntity
8
1
62
256
6
ByLayer
370
18
48
1
60
0
100
AcDbSpline
70
4
71
1
72
4
73
2
40
0
40
0
40
1
40
1
41
1
10
-0.271000000000001
20
8.91336995754131
30
0
41
1
10
0.268331828748701
20
9.35673441585249
30
0
0
SPLINE
5
27E
100
AcDbEntity
8
1
62
256
6
ByLayer
370
18
48
1
60
0
100
AcDbSpline
70
4
71
1
72
4
73
2
40
0
40
0
40
1
40
1
41
1
10
-0.271
20
9.85016060782767
30
0
41
1
10
0.268331828749326
20
10.2909881629553
30
0
0
SPLINE
5
27F
100
AcDbEntity
8
1
62
256
6
ByLayer
370
18
48
1
60
0
100
AcDbSpline
70
4
71
1
72
4
73
2
40
0
40
0
40
1
40
1
41
1
10
-0.271
20
10.5583220257766
30
0
41
1
10
0.26833182874957
20
11.0061526343844
30
0
0
SPLINE
5
280
100
AcDbEntity
8
1
62
256
6
ByLayer
370
18
48
1
60
0
100
AcDbSpline
70
4
71
1
72
4
73
2
40
0
40
0
40
1
40
1
41
1
10
-0.270999999999999
20
11.0817716995073
30
0
41
1
10
0.26833182874968
20
11.5430218856523
30
0
0
SPLINE
5
281
100
AcDbEntity
8
1
62
256
6
ByLayer
370
18
48
1
60
0
100
AcDbSpline
70
4
71
1
72
4
73
2
40
0
40
0
40
1
40
1
41
1
10
-0.271000000000001
20
11.4458797826991
30
0
41
1
10
0.268331828749736
20
11.9256996731398
30
0
0
SPLINE
5
282
100
AcDbEntity
8
1
62
256
6
ByLayer
370
18
48
1
60
0
100
AcDbSpline
70
4
71
1
72
4
73
2
40
0
40
0
40
1
40
1
41
1
10
-0.271
20
11.665576025212
30
0
41
1
10
0.268331828749766
20
12.1687415592248
30
0
0
SPLINE
5
283
100
AcDbEntity
8
1
62
256
6
ByLayer
370
18
48
1
60
0
100
AcDbSpline
70
4
71
1
72
4
73
2
40
0
40
0
40
1
40
1
41
1
10
-0.271000000000001
20
11.7489643798932
30
0
41
1
10
0.268331828749782
20
12.2804409357516
30
0
0
SPLINE
5
284
100
AcDbEntity
8
1
62
256
6
ByLayer
370
18
48
1
60
0
100
AcDbSpline
70
4
71
3
72
16
73
12
40
0
40
0
40
0
40
0
40
0.352985857991921
40
0.621519473627946
40
0.721231930166433
40
0.769202152102697
40
0.809849657630438
40
0.850732707054667
40
0.89562416181658
40
0.968320103448865
40
1
40
1
40
1
40
1
41
1
10
0.359291388638563
20
3.48781576225676
30
0
41
1
10
0.360840731741436
20
3.5298402060432
30
0
41
1
10
0.357534519502321
20
3.60052771636165
30
0
41
1
10
0.348474740895333
20
3.68156293791818
30
0
41
1
10
0.333407105297636
20
3.72145576095365
30
0
41
1
10
0.322620749571187
20
3.73475689772065
30
0
41
1
10
0.312944513689892
20
3.73978465904797
30
0
41
1
10
0.301952396897738
20
3.73889399965953
30
0
41
1
10
0.288416298230962
20
3.73079597473624
30
0
41
1
10
0.277307023016078
20
3.71821990158696
30
0
41
1
10
0.270357985016394
20
3.70857329287197
30
0
41
1
10
0.268331828744226
20
3.70548291116442
30
0
0
SPLINE
5
285
100
AcDbEntity
8
1
62
256
6
ByLayer
370
18
48
1
60
0
100
AcDbSpline
70
4
71
3
72
10
73
6
40
0
40
0
40
0
40
0
40
0.465612792682578
40
0.931235443292175
40
1
40
1
40
1
40
1
41
1
10
7.69677635970333
20
-12.4855916960311
30
0
41
1
10
7.62231794270794
20
-12.4817001280243
30
0
41
1
10
7.50837609537402
20
-12.4705410520751
30
0
41
1
10
7.45763378922701
20
-12.4509680997056
30
0
41
1
10
7.45570397970544
20
-12.4384934183399
30
0
41
1
10
7.45584782731224
20
-12.43685240984
30
0
0
SPLINE
5
286
100
AcDbEntity
8
1
62
256
6
ByLayer
370
18
48
1
60
0
100
AcDbSpline
70
4
71
3
72
13
73
9
40
0
40
0
40
0
40
0
40
0.0486465239378063
40
0.225226702783108
40
0.402223101392967
40
0.696052177570631
40
0.995849386233107
40
1
40
1
40
1
40
1
41
1
10
8.57372228132067
20
12.4812546711074
30
0
41
1
10
8.57262367597618
20
12.4366949350597
30
0
41
1
10
8.5623440955304
20
12.2324053826407
30
0
41
1
10
8.49261714448943
20
11.881812896831
30
0
41
1
10
8.29905903057664
20
11.3674524972971
30
0
41
1
10
7.9884460037949
20
10.829971846708
30
0
41
1
10
7.71494850171986
20
10.4792699344726
30
0
41
1
10
7.57598428328895
20
10.3166939726888
30
0
41
1
10
7.57408585715134
20
10.3144769620834
30
0
0
SPLINE
5
287
100
AcDbEntity
8
1
62
256
6
ByLayer
370
18
48
1
60
0
100
AcDbSpline
70
4
71
1
72
4
73
2
40
0
40
0
40
1
40
1
41
1
10
7.90635847109393
20
-7.6533831434717
30
0
41
1
10
7.8
20
-8.50317507591
30
0
0
SPLINE
5
288
100
AcDbEntity
8
1
62
256
6
ByLayer
370
18
48
1
60
0
100
AcDbSpline
70
4
71
1
72
4
73
2
40
0
40
0
40
1
40
1
41
1
10
8.16432586349443
20
17.3533026620481
30
0
41
1
10
8.15508768717631
20
17.4877729689794
30
0
0
SPLINE
5
289
100
AcDbEntity
8
1
62
256
6
ByLayer
370
18
48
1
60
0
100
AcDbSpline
70
4
71
1
72
4
73
2
40
0
40
0
40
1
40
1
41
1
10
8.16432586349444
20
17.3533026620481
30
0
41
1
10
8.38715630490646
20
14.8858542502333
30
0
0
SPLINE
5
28A
100
AcDbEntity
8
1
62
256
6
ByLayer
370
18
48
1
60
0
100
AcDbSpline
70
4
71
3
72
11
73
7
40
0
40
0
40
0
40
0
40
0.241243642546965
40
0.594965704132264
40
0.946929105496227
40
1
40
1
40
1
40
1
41
1
10
8.23572054760386
20
17.5684246190687
30
0
41
1
10
8.24614727728914
20
17.6084589524002
30
0
41
1
10
8.27155293420709
20
17.721537418589
30
0
41
1
10
8.31614568760563
20
17.967460213258
30
0
41
1
10
8.34213665161239
20
18.2026015501798
30
0
41
1
10
8.3512909844461
20
18.3303205113361
30
0
41
1
10
8.35242327993993
20
18.347168627347
30
0
0
SPLINE
5
28B
100
AcDbEntity
8
1
62
256
6
ByLayer
370
18
48
1
60
0
100
AcDbSpline
70
4
71
1
72
4
73
2
40
0
40
0
40
1
40
1
41
1
10
10.3630610002103
20
24.7453874268764
30
0
41
1
10
10.3699562352537
20
24.6958982949391
30
0
0
SPLINE
5
28C
100
AcDbEntity
8
1
62
256
6
ByLayer
370
18
48
1
60
0
100
AcDbSpline
70
4
71
3
72
12
73
8
40
0
40
0
40
0
40
0
40
0.0628011180647
40
0.283352165783305
40
0.506851807023896
40
0.744678285731811
40
1
40
1
40
1
40
1
41
1
10
10.3699562352537
20
24.6958982949391
30
0
41
1
10
10.3718484208691
20
24.6876461116074
30
0
41
1
10
10.3818419041318
20
24.6510838334438
30
0
41
1
10
10.4128711540228
20
24.5888316611683
30
0
41
1
10
10.4755972366911
20
24.5226273620218
30
0
41
1
10
10.5567444470987
20
24.4768008362018
30
0
41
1
10
10.6149845715823
20
24.4637085818532
30
0
41
1
10
10.6465483378919
20
24.4617892401114
30
0
0
SPLINE
5
28D
100
AcDbEntity
8
1
62
256
6
ByLayer
370
18
48
1
60
0
100
AcDbSpline
70
4
71
3
72
11
73
7
40
0
40
0
40
0
40
0
40
0.296973256967899
40
0.540555736657788
40
0.785566367308953
40
1
40
1
40
1
40
1
41
1
10
10.5180034610924
20
25.0102545277383
30
0
41
1
10
10.5832547938035
20
25.0411261546323
30
0
41
1
10
10.6879381678037
20
25.1165412060697
30
0
41
1
10
10.8114698348608
20
25.2784303875279
30
0
41
1
10
10.8763195085066
20
25.4618462078426
30
0
41
1
10
10.8846273262949
20
25.5830437760302
30
0
41
1
10
10.8815362325816
20
25.6415928799507
30
0
0
SPLINE
5
28E
100
AcDbEntity
8
1
62
256
6
ByLayer
370
18
48
1
60
0
100
AcDbSpline
70
4
71
3
72
11
73
7
40
0
40
0
40
0
40
0
40
0.0969126571401951
40
0.437261038890665
40
0.782159592017301
40
1
40
1
40
1
40
1
41
1
10
10.8613636930813
20
26.2907621960183
30
0
41
1
10
10.8551617243599
20
26.2849822298672
30
0
41
1
10
10.8285416603854
20
26.2579525347643
30
0
41
1
10
10.7906183068593
20
26.1997690831357
30
0
41
1
10
10.7697620450903
20
26.1237187254642
30
0
41
1
10
10.7680429303224
20
26.0767745917656
30
0
41
1
10
10.7690933562016
20
26.0583850089512
30
0
0
SPLINE
5
28F
100
AcDbEntity
8
1
62
256
6
ByLayer
370
18
48
1
60
0
100
AcDbSpline
70
4
71
3
72
10
73
6
40
0
40
0
40
0
40
0
40
6.83190500759E-05
40
0.710559961748419
40
1
40
1
40
1
40
1
41
1
10
10.8815362325816
20
25.6415928799507
30
0
41
1
10
10.8815358575355
20
25.6416000359565
30
0
41
1
10
10.8776341554696
20
25.716026505034
30
0
41
1
10
10.8553202162294
20
25.8182662085114
30
0
41
1
10
10.815772489506
20
25.908641270691
30
0
41
1
10
10.8026568813718
20
25.9340977806059
30
0
0
SPLINE
5
290
100
AcDbEntity
8
1
62
256
6
ByLayer
370
18
48
1
60
0
100
AcDbSpline
70
4
71
3
72
11
73
7
40
0
40
0
40
0
40
0
40
0.284186181053569
40
0.569985742254249
40
0.828961092406599
40
1
40
1
40
1
40
1
41
1
10
11.2149487423766
20
26.3176416948463
30
0
41
1
10
11.1851446970843
20
26.3374847164055
30
0
41
1
10
11.1220845440964
20
26.3646485083152
30
0
41
1
10
11.0149414249702
20
26.3706611123733
30
0
41
1
10
10.9241570964646
20
26.3399012250808
30
0
41
1
10
10.8785655782824
20
26.3065232747603
30
0
41
1
10
10.8613636930813
20
26.2907621960183
30
0
0
SPLINE
5
291
100
AcDbEntity
8
1
62
256
6
ByLayer
370
18
48
1
60
0
100
AcDbSpline
70
4
71
3
72
10
73
6
40
0
40
0
40
0
40
0
40
0.411412061370728
40
0.882278356339919
40
1
40
1
40
1
40
1
41
1
10
11.3118003530773
20
23.8097833196537
30
0
41
1
10
11.3097242216367
20
23.8602754245059
30
0
41
1
10
11.2913741250897
20
23.966887392303
30
0
41
1
10
11.2369638365851
20
24.0898035822073
30
0
41
1
10
11.1915499017043
20
24.1560432829348
30
0
41
1
10
11.1819346073412
20
24.1691704664025
30
0
0
SPLINE
5
292
100
AcDbEntity
8
1
62
256
6
ByLayer
370
18
48
1
60
0
100
AcDbSpline
70
4
71
1
72
4
73
2
40
0
40
0
40
1
40
1
41
1
10
11.3119620106991
20
23.7499366743038
30
0
41
1
10
11.3118003530773
20
23.8097833196537
30
0
0
SPLINE
5
293
100
AcDbEntity
8
1
62
256
6
ByLayer
370
18
48
1
60
0
100
AcDbSpline
70
4
71
3
72
11
73
7
40
0
40
0
40
0
40
0
40
0.105141683344682
40
0.459566310665675
40
0.780591855631663
40
1
40
1
40
1
40
1
41
1
10
11.3177526021848
20
23.6809510112939
30
0
41
1
10
11.319831458264
20
23.6711381514746
30
0
41
1
10
11.3313560557696
20
23.6290016867643
30
0
41
1
10
11.369259550676
20
23.5593015492817
30
0
41
1
10
11.4427119346164
20
23.4969968248459
30
0
41
1
10
11.4954939036349
20
23.474200569818
30
0
41
1
10
11.5186838389365
20
23.4670015566955
30
0
0
SPLINE
5
294
100
AcDbEntity
8
1
62
256
6
ByLayer
370
18
48
1
60
0
100
AcDbSpline
70
4
71
3
72
12
73
8
40
0
40
0
40
0
40
0
40
0.0573009716925445
40
0.280031064926636
40
0.505395285878044
40
0.744943740650588
40
1
40
1
40
1
40
1
41
1
10
11.5186838389365
20
23.4670015566955
30
0
41
1
10
11.5260212239763
20
23.4647926451904
30
0
41
1
10
11.5619707808837
20
23.4553827633367
30
0
41
1
10
11.6302484801908
20
23.4506702250654
30
0
41
1
10
11.7178204954645
20
23.4707098987702
30
0
41
1
10
11.7960058264779
20
23.5162316954837
30
0
41
1
10
11.8348235849265
20
23.5585397992238
30
0
41
1
10
11.8513163524567
20
23.5838903853577
30
0
0
SPLINE
5
295
100
AcDbEntity
8
1
62
256
6
ByLayer
370
18
48
1
60
0
100
AcDbSpline
70
4
71
3
72
12
73
8
40
0
40
0
40
0
40
0
40
0.0573009716925487
40
0.280031064926644
40
0.505395285878045
40
0.744943740650585
40
1
40
1
40
1
40
1
41
1
10
12.4904565902125
20
26.6685421504551
30
0
41
1
10
12.4831192183449
20
26.6707508106191
30
0
41
1
10
12.4471746553714
20
26.6800654025377
30
0
41
1
10
12.3789516805805
20
26.683733734834
30
0
41
1
10
12.2915426732354
20
26.660583684562
30
0
41
1
10
12.2136069358043
20
26.6102993585886
30
0
41
1
10
12.1749950025209
20
26.5640638767386
30
0
41
1
10
12.1586195347812
20
26.5364750772676
30
0
0
SPLINE
5
296
100
AcDbEntity
8
1
62
256
6
ByLayer
370
18
48
1
60
0
100
AcDbSpline
70
4
71
3
72
11
73
7
40
0
40
0
40
0
40
0
40
0.114000629818419
40
0.464916513080196
40
0.782763959271639
40
1
40
1
40
1
40
1
41
1
10
12.6925299672712
20
26.4411158417665
30
0
41
1
10
12.6903306677218
20
26.4526033969346
30
0
41
1
10
12.6786410528202
20
26.4984840944654
30
0
41
1
10
12.6400458467696
20
26.5731228747255
30
0
41
1
10
12.5664526797048
20
26.6380802211395
30
0
41
1
10
12.51364704195
20
26.6613332831485
30
0
41
1
10
12.4904565902125
20
26.6685421504552
30
0
0
SPLINE
5
297
100
AcDbEntity
8
1
62
256
6
ByLayer
370
18
48
1
60
0
100
AcDbSpline
70
4
71
1
72
4
73
2
40
0
40
0
40
1
40
1
41
1
10
12.6979865751545
20
26.3701864843009
30
0
41
1
10
12.6983782922048
20
26.3059500435498
30
0
0
SPLINE
5
298
100
AcDbEntity
8
1
62
256
6
ByLayer
370
18
48
1
60
0
100
AcDbSpline
70
4
71
3
72
10
73
6
40
0
40
0
40
0
40
0
40
0.411412061370732
40
0.882278356339929
40
1
40
1
40
1
40
1
41
1
10
12.6983782922048
20
26.3059500435498
30
0
41
1
10
12.700648577829
20
26.2517532561812
30
0
41
1
10
12.7193531392546
20
26.1383776955854
30
0
41
1
10
12.7740625580276
20
26.0097537601396
30
0
41
1
10
12.8195582871617
20
25.9419533320855
30
0
41
1
10
12.8291871294213
20
25.9285676393534
30
0
0
SPLINE
5
299
100
AcDbEntity
8
1
62
256
6
ByLayer
370
18
48
1
60
0
100
AcDbSpline
70
4
71
3
72
11
73
7
40
0
40
0
40
0
40
0
40
0.28418618105357
40
0.569985742254247
40
0.8289610924066
40
1
40
1
40
1
40
1
41
1
10
12.7949871448613
20
23.8027237677789
30
0
41
1
10
12.8246596170965
20
23.7853913097076
30
0
41
1
10
12.8874854972776
20
23.7626977092451
30
0
41
1
10
12.9943565446718
20
23.7618765430937
30
0
41
1
10
13.0850064736062
20
23.7952009269765
30
0
41
1
10
13.1305753067445
20
23.8290117337202
30
0
41
1
10
13.1477767360676
20
23.8447815111324
30
0
0
SPLINE
5
29A
100
AcDbEntity
8
1
62
256
6
ByLayer
370
18
48
1
60
0
100
AcDbSpline
70
4
71
3
72
10
73
6
40
0
40
0
40
0
40
0
40
0.420489505399742
40
0.841816614128142
40
1
40
1
40
1
40
1
41
1
10
12.9426850499924
20
25.8071487547228
30
0
41
1
10
12.9973077998297
20
25.7638599951679
30
0
41
1
10
13.1098023961522
20
25.6958919751986
30
0
41
1
10
13.2571681410732
20
25.6618690352372
30
0
41
1
10
13.3405542071297
20
25.6580925113787
30
0
41
1
10
13.3634002479616
20
25.6583339184935
30
0
0
SPLINE
5
29B
100
AcDbEntity
8
1
62
256
6
ByLayer
370
18
48
1
60
0
100
AcDbSpline
70
4
71
3
72
11
73
7
40
0
40
0
40
0
40
0
40
0.296973256967903
40
0.540555736657796
40
0.785566367308957
40
1
40
1
40
1
40
1
41
1
10
13.4919324261455
20
25.110110934887
30
0
41
1
10
13.4269709642403
20
25.0737082435251
30
0
41
1
10
13.3227180816824
20
24.9900789260334
30
0
41
1
10
13.1996347753463
20
24.8196345123727
30
0
41
1
10
13.1348354452262
20
24.6352580803614
30
0
41
1
10
13.1263530591314
20
24.5173914738929
30
0
41
1
10
13.1293168649793
20
24.4612711671299
30
0
0
SPLINE
5
29C
100
AcDbEntity
8
1
62
256
6
ByLayer
370
18
48
1
60
0
100
AcDbSpline
70
4
71
3
72
10
73
6
40
0
40
0
40
0
40
0
40
6.83190500834E-05
40
0.710559961748428
40
1
40
1
40
1
40
1
41
1
10
13.1293168649793
20
24.4612711671299
30
0
41
1
10
13.1293172248488
20
24.4612643007105
30
0
41
1
10
13.133061077363
20
24.3898497805141
30
0
41
1
10
13.1550684906927
20
24.2934589398234
30
0
41
1
10
13.1942697694068
20
24.2096944994666
30
0
41
1
10
13.2072790058661
20
24.1862676820194
30
0
0
SPLINE
5
29D
100
AcDbEntity
8
1
62
256
6
ByLayer
370
18
48
1
60
0
100
AcDbSpline
70
4
71
3
72
11
73
7
40
0
40
0
40
0
40
0
40
0.0969126571401719
40
0.437261038890662
40
0.782159592017314
40
1
40
1
40
1
40
1
41
1
10
13.1477767360676
20
23.8447815111324
30
0
41
1
10
13.1539787226477
20
23.8505611365192
30
0
41
1
10
13.1806044500681
20
23.877482766638
30
0
41
1
10
13.2185848021976
20
23.9345786201232
30
0
41
1
10
13.2395841966314
20
24.0078978438529
30
0
41
1
10
13.2414213047452
20
24.052590530391
30
0
41
1
10
13.240421484151
20
24.0700145068449
30
0
0
SPLINE
5
29E
100
AcDbEntity
8
1
62
256
6
ByLayer
370
18
48
1
60
0
100
AcDbSpline
70
4
71
3
72
12
73
8
40
0
40
0
40
0
40
0
40
0.06280111806471
40
0.283352165783293
40
0.506851807023866
40
0.744678285731762
40
1
40
1
40
1
40
1
41
1
10
13.6391841938953
20
25.4396454122116
30
0
41
1
10
13.6372920261387
20
25.4478972547756
30
0
41
1
10
13.6273041838661
20
25.4843518964365
30
0
41
1
10
13.5963322552951
20
25.5455103127692
30
0
41
1
10
13.5337715246024
20
25.6085595082687
30
0
41
1
10
13.452876938952
20
25.6495656665664
30
0
41
1
10
13.3948449761596
20
25.6586859592305
30
0
41
1
10
13.3634002479616
20
25.6583339184935
30
0
0
SPLINE
5
29F
100
AcDbEntity
8
1
62
256
6
ByLayer
370
18
48
1
60
0
100
AcDbSpline
70
4
71
3
72
17
73
13
40
0
40
0
40
0
40
0
40
0.0475649192939268
40
0.144356412962939
40
0.241170583439792
40
0.361754255120597
40
0.48238517832496
40
0.602752727257168
40
0.723114668403756
40
0.848051097878101
40
0.972865132561184
40
1
40
1
40
1
40
1
41
1
10
16.4808732811519
20
7.01792529193905
30
0
41
1
10
16.4582469794669
20
6.93106572006368
30
0
41
1
10
16.386521650113
20
6.6657094600348
30
0
41
1
10
16.250294430829
20
6.20926027355365
30
0
41
1
10
16.0481035523933
20
5.61035065080874
30
0
41
1
10
15.8030838536885
20
4.97535968764093
30
0
41
1
10
15.5196961637447
20
4.32678401635154
30
0
41
1
10
15.224456985376
20
3.72608295266989
30
0
41
1
10
14.9277459149486
20
3.17767980192454
30
0
41
1
10
14.6448114265214
20
2.69979242970105
30
0
41
1
10
14.4609110038147
20
2.41048551239712
30
0
41
1
10
14.3761696438139
20
2.28100719664952
30
0
41
1
10
14.3614532296243
20
2.25872539198424
30
0
0
SPLINE
5
2A0
100
AcDbEntity
8
1
62
256
6
ByLayer
370
18
48
1
60
0
100
AcDbSpline
70
4
71
1
72
4
73
2
40
0
40
0
40
1
40
1
41
1
10
17.6551525983538
20
21.095579541322
30
0
41
1
10
17.7619266027796
20
21.011679248852
30
0
0
SPLINE
5
2A1
100
AcDbEntity
8
1
62
256
6
ByLayer
370
18
48
1
60
0
100
AcDbSpline
70
4
71
1
72
4
73
2
40
0
40
0
40
1
40
1
41
1
10
0.268331828749789
20
-12.2643869809201
30
0
41
1
10
-0.271
20
-11.6989599537737
30
0
0
SPLINE
5
2A2
100
AcDbEntity
8
1
62
256
6
ByLayer
370
18
48
1
60
0
100
AcDbSpline
70
4
71
3
72
12
73
8
40
0
40
0
40
0
40
0
40
0.0676024576778735
40
0.2649031642723
40
0.52923551631365
40
0.892569878405846
40
1
40
1
40
1
40
1
41
1
10
0.359331781776585
20
-12.364539075899
30
0
41
1
10
0.359317067357946
20
-12.3642735663434
30
0
41
1
10
0.358552845086089
20
-12.3625286586241
30
0
41
1
10
0.350862758840437
20
-12.3528260040261
30
0
41
1
10
0.326154303002382
20
-12.3252777418964
30
0
41
1
10
0.295007920137619
20
-12.2921866755954
30
0
41
1
10
0.273408859506763
20
-12.2696599792873
30
0
41
1
10
0.268331828749668
20
-12.2643869809199
30
0
0
SPLINE
5
2A3
100
AcDbEntity
8
1
62
256
6
ByLayer
370
18
48
1
60
0
100
AcDbSpline
70
4
71
1
72
4
73
2
40
0
40
0
40
1
40
1
41
1
10
0.268331828749795
20
-12.1200720484261
30
0
41
1
10
-0.271
20
-11.5138249074754
30
0
0
SPLINE
5
2A4
100
AcDbEntity
8
1
62
256
6
ByLayer
370
18
48
1
60
0
100
AcDbSpline
70
4
71
3
72
12
73
8
40
0
40
0
40
0
40
0
40
0.0040628894778726
40
0.192720662732257
40
0.452799876357123
40
0.815203839378054
40
1
40
1
40
1
40
1
41
1
10
0.359331826023104
20
-12.2375190696703
30
0
41
1
10
0.359331737651604
20
-12.2374725072878
30
0
41
1
10
0.359294618303096
20
-12.2352318088165
30
0
41
1
10
0.355107048018287
20
-12.2258339625568
30
0
41
1
10
0.334133737249373
20
-12.1965009017341
30
0
41
1
10
0.301856914226288
20
-12.1577884270214
30
0
41
1
10
0.277170250367839
20
-12.129872340899
30
0
41
1
10
0.268331828748931
20
-12.1200720484234
30
0
0
SPLINE
5
2A5
100
AcDbEntity
8
1
62
256
6
ByLayer
370
18
48
1
60
0
100
AcDbSpline
70
4
71
3
72
11
73
7
40
0
40
0
40
0
40
0
40
0.305334701178529
40
0.566670533472722
40
0.785166129615035
40
1
40
1
40
1
40
1
41
1
10
0.268331828749775
20
-12.1687415592248
30
0
41
1
10
0.283217655583705
20
-12.1826435743731
30
0
41
1
10
0.308152648795547
20
-12.2049941013474
30
0
41
1
10
0.338093443372239
20
-12.2295124190781
30
0
41
1
10
0.355640806340482
20
-12.2406233998851
30
0
41
1
10
0.359193571016923
20
-12.2397309857166
30
0
41
1
10
0.359331826023104
20
-12.2375190696703
30
0
0
SPLINE
5
2A6
100
AcDbEntity
8
1
62
256
6
ByLayer
370
18
48
1
60
0
100
AcDbSpline
70
4
71
1
72
4
73
2
40
0
40
0
40
1
40
1
41
1
10
0.268331828749798
20
-11.8428081509546
30
0
41
1
10
-0.271
20
-11.1868522829257
30
0
0
SPLINE
5
2A7
100
AcDbEntity
8
1
62
256
6
ByLayer
370
18
48
1
60
0
100
AcDbSpline
70
4
71
3
72
11
73
7
40
0
40
0
40
0
40
0
40
0.137009995627842
40
0.396228881501614
40
0.766738296919897
40
1
40
1
40
1
40
1
41
1
10
0.359331760064782
20
-11.9793990344134
30
0
41
1
10
0.359172312081908
20
-11.9764691337797
30
0
41
1
10
0.356800675964921
20
-11.966329805437
30
0
41
1
10
0.339323236356044
20
-11.9348368029315
30
0
41
1
10
0.306532034699477
20
-11.8896793276495
30
0
41
1
10
0.279603670601442
20
-11.856258689331
30
0
41
1
10
0.268331828749936
20
-11.8428081509529
30
0
0
SPLINE
5
2A8
100
AcDbEntity
8
1
62
256
6
ByLayer
370
18
48
1
60
0
100
AcDbSpline
70
4
71
3
72
12
73
8
40
0
40
0
40
0
40
0
40
0.276374459700141
40
0.527068997920377
40
0.739352031508911
40
0.952080087822829
40
1
40
1
40
1
40
1
41
1
10
0.268331828749748
20
-11.9256996731398
30
0
41
1
10
0.281796496511545
20
-11.9377516403157
30
0
41
1
10
0.305324905981324
20
-11.9574502392373
30
0
41
1
10
0.334750107021627
20
-11.9785454703085
30
0
41
1
10
0.353360017939275
20
-11.9869676998408
30
0
41
1
10
0.358899750643325
20
-11.9842876866774
30
0
41
1
10
0.359338236301602
20
-11.9802358944881
30
0
41
1
10
0.359331760064782
20
-11.9793990344134
30
0
0
SPLINE
5
2A9
100
AcDbEntity
8
1
62
256
6
ByLayer
370
18
48
1
60
0
100
AcDbSpline
70
4
71
1
72
4
73
2
40
0
40
0
40
1
40
1
41
1
10
0.268331828749799
20
-11.4229183373425
30
0
41
1
10
-0.271
20
-10.7050531993073
30
0
0
SPLINE
5
2AA
100
AcDbEntity
8
1
62
256
6
ByLayer
370
18
48
1
60
0
100
AcDbSpline
70
4
71
3
72
11
73
7
40
0
40
0
40
0
40
0
40
0.111264760423342
40
0.380721557630775
40
0.781002584000571
40
1
40
1
40
1
40
1
41
1
10
0.359331568261181
20
-11.5814200468529
30
0
41
1
10
0.359206910240325
20
-11.5779970869357
30
0
41
1
10
0.357275791389287
20
-11.5650578961897
30
0
41
1
10
0.340356229611401
20
-11.527100045096
30
0
41
1
10
0.306741613514441
20
-11.4746029519853
30
0
41
1
10
0.278947205061363
20
-11.4367117769403
30
0
41
1
10
0.2683318287498
20
-11.4229183373425
30
0
0
SPLINE
5
2AB
100
AcDbEntity
8
1
62
256
6
ByLayer
370
18
48
1
60
0
100
AcDbSpline
70
4
71
3
72
12
73
8
40
0
40
0
40
0
40
0
40
0.246906046477253
40
0.485032711050036
40
0.724878208682713
40
0.929066725912335
40
1
40
1
40
1
40
1
41
1
10
0.268331828749696
20
-11.5430218856523
30
0
41
1
10
0.280380192303373
20
-11.5534371238155
30
0
41
1
10
0.302394949583374
20
-11.5708114950485
30
0
41
1
10
0.332501154433383
20
-11.5899306836977
30
0
41
1
10
0.352440182646738
20
-11.5953422966892
30
0
41
1
10
0.3587123608123
20
-11.5891002928853
30
0
41
1
10
0.359352312878336
20
-11.5831506043792
30
0
41
1
10
0.359331568261181
20
-11.5814200468529
30
0
0
SPLINE
5
2AC
100
AcDbEntity
8
1
62
256
6
ByLayer
370
18
48
1
60
0
100
AcDbSpline
70
4
71
1
72
4
73
2
40
0
40
0
40
1
40
1
41
1
10
0.268331828749801
20
-10.8438471855183
30
0
41
1
10
-0.271000000000001
20
-10.0461765861446
30
0
0
SPLINE
5
2AD
100
AcDbEntity
8
1
62
256
6
ByLayer
370
18
48
1
60
0
100
AcDbSpline
70
4
71
3
72
11
73
7
40
0
40
0
40
0
40
0
40
0.0819747132127391
40
0.361132569883597
40
0.796525474466886
40
1
40
1
40
1
40
1
41
1
10
0.359330518587423
20
-11.0283357433787
30
0
41
1
10
0.359241260918893
20
-11.0249323147136
30
0
41
1
10
0.357784037726482
20
-11.0091320083731
30
0
41
1
10
0.341633801713023
20
-10.9634344321392
30
0
41
1
10
0.307106097990214
20
-10.901764417126
30
0
41
1
10
0.278228677233275
20
-10.8580487462897
30
0
41
1
10
0.268331828749986
20
-10.8438471855183
30
0
0
SPLINE
5
2AE
100
AcDbEntity
8
1
62
256
6
ByLayer
370
18
48
1
60
0
100
AcDbSpline
70
4
71
3
72
12
73
8
40
0
40
0
40
0
40
0
40
0.215919551435519
40
0.438606705213571
40
0.662811235534128
40
0.855417451380314
40
1
40
1
40
1
40
1
41
1
10
0.268331828749586
20
-11.0061526343845
30
0
41
1
10
0.278941214840581
20
-11.0150943469462
30
0
41
1
10
0.299287206148938
20
-11.0304218172409
30
0
41
1
10
0.328165933937002
20
-11.0469069833106
30
0
41
1
10
0.348843794130816
20
-11.0503247797689
30
0
41
1
10
0.357936067414267
20
-11.0418960092203
30
0
41
1
10
0.359441914104705
20
-11.0329806068844
30
0
41
1
10
0.359330518587423
20
-11.0283357433787
30
0
0
SPLINE
5
2AF
100
AcDbEntity
8
1
62
256
6
ByLayer
370
18
48
1
60
0
100
AcDbSpline
70
4
71
1
72
4
73
2
40
0
40
0
40
1
40
1
41
1
10
0.268331828749799
20
-10.078193301587
30
0
41
1
10
-0.271
20
-9.17214064436432
30
0
0
SPLINE
5
2B0
100
AcDbEntity
8
1
62
256
6
ByLayer
370
18
48
1
60
0
100
AcDbSpline
70
4
71
3
72
11
73
7
40
0
40
0
40
0
40
0
40
0.0143855280853833
40
0.279361894059205
40
0.719453354947138
40
1
40
1
40
1
40
1
41
1
10
0.359331619391968
20
-10.295785068539
30
0
41
1
10
0.359327976142009
20
-10.2950101172007
30
0
41
1
10
0.359098015644737
20
-10.2798443190759
30
0
41
1
10
0.348337625057407
20
-10.2323458596401
30
0
41
1
10
0.314106267754836
20
-10.15665644218
30
0
41
1
10
0.282225042198502
20
-10.1005592744009
30
0
41
1
10
0.2683318287498
20
-10.078193301587
30
0
0
SPLINE
5
2B1
100
AcDbEntity
8
1
62
256
6
ByLayer
370
18
48
1
60
0
100
AcDbSpline
70
4
71
3
72
12
73
8
40
0
40
0
40
0
40
0
40
0.18426984380517
40
0.38952707753695
40
0.596145831485378
40
0.77438323292498
40
1
40
1
40
1
40
1
41
1
10
0.268331828749333
20
-10.2909881629555
30
0
41
1
10
0.277448232722892
20
-10.2985777129342
30
0
41
1
10
0.295919536916762
20
-10.3120918870975
30
0
41
1
10
0.323194234188898
20
-10.3264524470617
30
0
41
1
10
0.344320170425645
20
-10.3284066412758
30
0
41
1
10
0.356864389313924
20
-10.3175891487659
30
0
41
1
10
0.359614415361102
20
-10.3049134110336
30
0
41
1
10
0.359331619391968
20
-10.295785068539
30
0
0
SPLINE
5
2B2
100
AcDbEntity
8
1
62
256
6
ByLayer
370
18
48
1
60
0
100
AcDbSpline
70
4
71
1
72
4
73
2
40
0
40
0
40
1
40
1
41
1
10
0.268331828749799
20
-9.07887320461247
30
0
41
1
10
-0.271
20
-8.01284368997674
30
0
0
SPLINE
5
2B3
100
AcDbEntity
8
1
62
256
6
ByLayer
370
18
48
1
60
0
100
AcDbSpline
70
4
71
3
72
10
73
6
40
0
40
0
40
0
40
0
40
0.230968598894399
40
0.70694425389563
40
1
40
1
40
1
40
1
41
1
10
0.359330919657451
20
-9.34064347837261
30
0
41
1
10
0.358395120404956
20
-9.32331345124478
30
0
41
1
10
0.351339474635258
20
-9.26837015710501
30
0
41
1
10
0.316681218812439
20
-9.1761360387591
30
0
41
1
10
0.282961446927167
20
-9.10613792066976
30
0
41
1
10
0.268331828749799
20
-9.07887320461247
30
0
0
SPLINE
5
2B4
100
AcDbEntity
8
1
62
256
6
ByLayer
370
18
48
1
60
0
100
AcDbSpline
70
4
71
3
72
13
73
9
40
0
40
0
40
0
40
0
40
0.149464143870112
40
0.363612188326277
40
0.548112532227521
40
0.705883740861749
40
0.95078248143923
40
1
40
1
40
1
40
1
41
1
10
0.268331828748689
20
-9.35673441585297
30
0
41
1
10
0.275876398904954
20
-9.36307721718998
30
0
41
1
10
0.293671025394595
20
-9.37606033690258
30
0
41
1
10
0.320471309038502
20
-9.38904365822945
30
0
41
1
10
0.341560184544513
20
-9.38772214718416
30
0
41
1
10
0.355319137588398
20
-9.37417993703804
30
0
41
1
10
0.359029878973064
20
-9.35614597888583
30
0
41
1
10
0.359350816121389
20
-9.34292465102795
30
0
41
1
10
0.359330919657451
20
-9.34064347837261
30
0
0
SPLINE
5
2B5
100
AcDbEntity
8
1
62
256
6
ByLayer
370
18
48
1
60
0
100
AcDbSpline
70
4
71
1
72
4
73
2
40
0
40
0
40
1
40
1
41
1
10
0.2683318287498
20
-7.75608774490777
30
0
41
1
10
-0.271
20
-6.41546288275445
30
0
0
SPLINE
5
2B6
100
AcDbEntity
8
1
62
256
6
ByLayer
370
18
48
1
60
0
100
AcDbSpline
70
4
71
3
72
10
73
6
40
0
40
0
40
0
40
0
40
0.0373063099455022
40
0.417845763129555
40
1
40
1
40
1
40
1
41
1
10
0.359329328033872
20
-8.0848029970337
30
0
41
1
10
0.359292207775334
20
-8.08120175972707
30
0
41
1
10
0.358359825785802
20
-8.04060943014346
30
0
41
1
10
0.335839447441502
20
-7.93073619985954
30
0
41
1
10
0.29913074145784
20
-7.82389768154568
30
0
41
1
10
0.268331828749801
20
-7.75608774490777
30
0
0
SPLINE
5
2B7
100
AcDbEntity
8
1
62
256
6
ByLayer
370
18
48
1
60
0
100
AcDbSpline
70
4
71
3
72
13
73
9
40
0
40
0
40
0
40
0
40
0.111341735716079
40
0.284907862326489
40
0.415754075135784
40
0.546372899553361
40
0.738571050023027
40
1
40
1
40
1
40
1
41
1
10
0.268331828746601
20
-8.12819294108565
30
0
41
1
10
0.274127245359725
20
-8.13328237777808
30
0
41
1
10
0.288784005633879
20
-8.14446128894175
30
0
41
1
10
0.310886255313658
20
-8.15580930334156
30
0
41
1
10
0.330795928151663
20
-8.15645797559949
30
0
41
1
10
0.346285820784915
20
-8.14714485150735
30
0
41
1
10
0.357170472345849
20
-8.12329378494178
30
0
41
1
10
0.359993139972261
20
-8.10034265809882
30
0
41
1
10
0.359329328033872
20
-8.0848029970337
30
0
0
SPLINE
5
2B8
100
AcDbEntity
8
1
62
256
6
ByLayer
370
18
48
1
60
0
100
AcDbSpline
70
4
71
2
72
6
73
3
40
0
40
0
40
0
40
1
40
1
40
1
41
1
10
0.2683318287498
20
-5.89600335379709
30
0
41
1
10
-0.0500062923016505
20
-4.90085566286656
30
0
41
1
10
-0.270999999999998
20
-3.87113213414371
30
0
0
SPLINE
5
2B9
100
AcDbEntity
8
1
62
256
6
ByLayer
370
18
48
1
60
0
100
AcDbSpline
70
4
71
3
72
10
73
6
40
0
40
0
40
0
40
0
40
0.152967841041737
40
0.96496172139909
40
1
40
1
40
1
40
1
41
1
10
0.359300056387305
20
-6.34893140737091
30
0
41
1
10
0.358576062276997
20
-6.32706150447388
30
0
41
1
10
0.350721602089447
20
-6.18832539256197
30
0
41
1
10
0.310738464062822
20
-6.0308912515514
30
0
41
1
10
0.270041108984367
20
-5.90136643216484
30
0
41
1
10
0.2683318287498
20
-5.89600335379709
30
0
0
SPLINE
5
2BA
100
AcDbEntity
8
1
62
256
6
ByLayer
370
18
48
1
60
0
100
AcDbSpline
70
4
71
3
72
14
73
10
40
0
40
0
40
0
40
0
40
0.0684795826381984
40
0.194568754154414
40
0.286967672671278
40
0.379389809378595
40
0.505638411628555
40
0.72081200314913
40
1
40
1
40
1
40
1
41
1
10
0.268331828737952
20
-6.43906530842538
30
0
41
1
10
0.272161546963239
20
-6.44286822719119
30
0
41
1
10
0.283150632312131
20
-6.45252477733936
30
0
41
1
10
0.300515953153845
20
-6.46357084773643
30
0
41
1
10
0.318554964589359
20
-6.46664744301672
30
0
41
1
10
0.333635023129583
20
-6.46105706102569
30
0
41
1
10
0.348196036379336
20
-6.44242055557296
30
0
41
1
10
0.357749015678481
20
-6.40370455316539
30
0
41
1
10
0.36026725317564
20
-6.36997056165786
30
0
41
1
10
0.359300056387305
20
-6.34893140737091
30
0
0
SPLINE
5
2BB
100
AcDbEntity
8
1
62
256
6
ByLayer
370
18
48
1
60
0
100
AcDbSpline
70
4
71
2
72
6
73
3
40
0
40
0
40
0
40
1
40
1
40
1
41
1
10
0.2683318287498
20
5.89600335379709
30
0
41
1
10
-0.0500116079328964
20
4.90085228983694
30
0
41
1
10
-0.270999999999998
20
3.87113213414371
30
0
0
SPLINE
5
2BC
100
AcDbEntity
8
1
62
256
6
ByLayer
370
18
48
1
60
0
100
AcDbSpline
70
4
71
3
72
10
73
6
40
0
40
0
40
0
40
0
40
0.0511543759922088
40
0.317704116559243
40
1
40
1
40
1
40
1
41
1
10
0.359324739626246
20
6.35198220554971
30
0
41
1
10
0.359250617271193
20
6.34471673938015
30
0
41
1
10
0.358216652156643
20
6.29935887168926
30
0
41
1
10
0.339186889874316
20
6.14884338865686
30
0
41
1
10
0.304762525528105
20
6.0037482306526
30
0
41
1
10
0.268331828749801
20
5.89600335379709
30
0
0
SPLINE
5
2BD
100
AcDbEntity
8
1
62
256
6
ByLayer
370
18
48
1
60
0
100
AcDbSpline
70
4
71
3
72
14
73
10
40
0
40
0
40
0
40
0
40
0.0929632382129463
40
0.206265292809601
40
0.303896505398108
40
0.40116303445195
40
0.545551664535405
40
0.688880719274009
40
1
40
1
40
1
40
1
41
1
10
0.268331828749827
20
6.43906530843254
30
0
41
1
10
0.273484915520481
20
6.44422746261473
30
0
41
1
10
0.285038984476191
20
6.45400651391755
30
0
41
1
10
0.303166472405808
20
6.4644915252724
30
0
41
1
10
0.320617327429636
20
6.4665177516001
30
0
41
1
10
0.33618248458527
20
6.45915399987678
30
0
41
1
10
0.347776921733131
20
6.44131457264663
30
0
41
1
10
0.35756619331041
20
6.40555562757495
30
0
41
1
10
0.360269027972228
20
6.37509698464239
30
0
41
1
10
0.359324739626246
20
6.35198220554971
30
0
0
SPLINE
5
2BE
100
AcDbEntity
8
1
62
256
6
ByLayer
370
18
48
1
60
0
100
AcDbSpline
70
4
71
3
72
10
73
6
40
0
40
0
40
0
40
0
40
0.264716456313345
40
0.64100698770001
40
1
40
1
40
1
40
1
41
1
10
0.321346378447252
20
8.15579876082248
30
0
41
1
10
0.317074955897475
20
8.15553097071433
30
0
41
1
10
0.306461664086428
20
8.15347959463448
30
0
41
1
10
0.288052435188702
20
8.14383136525851
30
0
41
1
10
0.274850731660052
20
8.13391702845703
30
0
41
1
10
0.268331828749838
20
8.12819294108707
30
0
0
SPLINE
5
2BF
100
AcDbEntity
8
1
62
256
6
ByLayer
370
18
48
1
60
0
100
AcDbSpline
70
4
71
3
72
12
73
8
40
0
40
0
40
0
40
0
40
0.0798518267712542
40
0.399570910818962
40
0.722000206808118
40
0.93118901070308
40
1
40
1
40
1
40
1
41
1
10
0.359330333578334
20
8.08505542682336
30
0
41
1
10
0.359351028161649
20
8.08797534119765
30
0
41
1
10
0.359111552097395
20
8.10231655778713
30
0
41
1
10
0.356274243702658
20
8.12662341626271
30
0
41
1
10
0.345400519919753
20
8.14869161376322
30
0
41
1
10
0.331230225668064
20
8.15557079450897
30
0
41
1
10
0.32337685376007
20
8.15587850657045
30
0
41
1
10
0.321346378447252
20
8.15579876082248
30
0
0
SPLINE
5
2C0
100
AcDbEntity
8
1
62
256
6
ByLayer
370
18
48
1
60
0
100
AcDbSpline
70
4
71
2
72
6
73
3
40
0
40
0
40
0
40
1
40
1
40
1
41
1
10
0.268331828749801
20
7.75608774490777
30
0
41
1
10
0.350900078778038
20
7.93394269592645
30
0
41
1
10
0.359330333578334
20
8.08505542682336
30
0
0
SPLINE
5
2C1
100
AcDbEntity
8
1
62
256
6
ByLayer
370
18
48
1
60
0
100
AcDbSpline
70
4
71
1
72
4
73
2
40
0
40
0
40
1
40
1
41
1
10
-0.271
20
6.41546288275445
30
0
41
1
10
0.2683318287498
20
7.75608774490777
30
0
0
SPLINE
5
2C2
100
AcDbEntity
8
1
62
256
6
ByLayer
370
18
48
1
60
0
100
AcDbSpline
70
4
71
3
72
13
73
9
40
0
40
0
40
0
40
0
40
0.148757804846854
40
0.339113122076449
40
0.531100495813448
40
0.700205697517716
40
0.858219270085242
40
1
40
1
40
1
40
1
41
1
10
0.359322960709039
20
9.33957028487368
30
0
41
1
10
0.359528396515942
20
9.34671142013038
30
0
41
1
10
0.358350304356801
20
9.36138320538778
30
0
41
1
10
0.351572442543491
20
9.38028818629838
30
0
41
1
10
0.335682204535846
20
9.38972572892811
30
0
41
1
10
0.313446476528067
20
9.38604257558648
30
0
41
1
10
0.290375431911969
20
9.37365901694332
30
0
41
1
10
0.27551244779608
20
9.36274468205874
30
0
41
1
10
0.268331828748701
20
9.35673441585249
30
0
0
SPLINE
5
2C3
100
AcDbEntity
8
1
62
256
6
ByLayer
370
18
48
1
60
0
100
AcDbSpline
70
4
71
3
72
10
73
6
40
0
40
0
40
0
40
0
40
0.508650756871763
40
0.801191435939504
40
1
40
1
40
1
40
1
41
1
10
0.2683318287498
20
9.07887320461247
30
0
41
1
10
0.294295374956084
20
9.12672930699614
30
0
41
1
10
0.326454572350503
20
9.19890646035472
30
0
41
1
10
0.354097729856306
20
9.28704197955008
30
0
41
1
10
0.358641873555229
20
9.32486496100232
30
0
41
1
10
0.359322960709039
20
9.33957028487368
30
0
0
SPLINE
5
2C4
100
AcDbEntity
8
1
62
256
6
ByLayer
370
18
48
1
60
0
100
AcDbSpline
70
4
71
1
72
4
73
2
40
0
40
0
40
1
40
1
41
1
10
-0.271000000000001
20
8.01284368997674
30
0
41
1
10
0.2683318287498
20
9.07887320461247
30
0
0
SPLINE
5
2C5
100
AcDbEntity
8
1
62
256
6
ByLayer
370
18
48
1
60
0
100
AcDbSpline
70
4
71
3
72
13
73
9
40
0
40
0
40
0
40
0
40
0.0780620867939261
40
0.288567872222583
40
0.500735129592157
40
0.682348981822426
40
0.910668274426209
40
1
40
1
40
1
40
1
41
1
10
0.359330476521856
20
10.295499528587
30
0
41
1
10
0.35937460635741
20
10.2985211896028
30
0
41
1
10
0.358779852491413
20
10.3089323149146
30
0
41
1
10
0.353561212148371
20
10.3234416019678
30
0
41
1
10
0.337034573258188
20
10.3291690565376
30
0
41
1
10
0.311806866284287
20
10.3215651514505
30
0
41
1
10
0.287942285079819
20
10.3064367634574
30
0
41
1
10
0.272684972960692
20
10.2945743105251
30
0
41
1
10
0.268331828742707
20
10.2909881629533
30
0
0
SPLINE
5
2C6
100
AcDbEntity
8
1
62
256
6
ByLayer
370
18
48
1
60
0
100
AcDbSpline
70
4
71
3
72
10
73
6
40
0
40
0
40
0
40
0
40
0.554873866463313
40
0.826171516936044
40
1
40
1
40
1
40
1
41
1
10
0.2683318287498
20
10.078193301587
30
0
41
1
10
0.297042485611954
20
10.1237146656171
30
0
41
1
10
0.32956483263089
20
10.1866767140122
30
0
41
1
10
0.355411467980932
20
10.2591469816994
30
0
41
1
10
0.35891007264258
20
10.2857151880664
30
0
41
1
10
0.359330476521856
20
10.295499528587
30
0
0
SPLINE
5
2C7
100
AcDbEntity
8
1
62
256
6
ByLayer
370
18
48
1
60
0
100
AcDbSpline
70
4
71
1
72
4
73
2
40
0
40
0
40
1
40
1
41
1
10
-0.271
20
9.17214064436432
30
0
41
1
10
0.268331828749801
20
10.078193301587
30
0
0
SPLINE
5
2C8
100
AcDbEntity
8
1
62
256
6
ByLayer
370
18
48
1
60
0
100
AcDbSpline
70
4
71
3
72
13
73
9
40
0
40
0
40
0
40
0
40
0.0202710400744316
40
0.237105346645276
40
0.455253032433906
40
0.64759399886816
40
0.901690810887442
40
1
40
1
40
1
40
1
41
1
10
0.359331762285981
20
11.0286100524652
30
0
41
1
10
0.359334155922905
20
11.0292357472774
30
0
41
1
10
0.359195195694611
20
11.0363858722057
30
0
41
1
10
0.355601364506347
20
11.0472083530105
30
0
41
1
10
0.34000230748215
20
11.0501308630473
30
0
41
1
10
0.31475139568811
20
11.040282598471
30
0
41
1
10
0.289622286149112
20
11.0232994843837
30
0
41
1
10
0.27304470706528
20
11.0100873546476
30
0
41
1
10
0.268331828744508
20
11.0061526343827
30
0
0
SPLINE
5
2C9
100
AcDbEntity
8
1
62
256
6
ByLayer
370
18
48
1
60
0
100
AcDbSpline
70
4
71
3
72
10
73
6
40
0
40
0
40
0
40
0
40
0.502359070501753
40
0.789833822561367
40
1
40
1
40
1
40
1
41
1
10
0.2683318287498
20
10.8438471855183
30
0
41
1
10
0.29401660320913
20
10.8802342940266
30
0
41
1
10
0.325877720238668
20
10.9328599599138
30
0
41
1
10
0.354299302489963
20
10.9956003895488
30
0
41
1
10
0.358777329684227
20
11.0194505660648
30
0
41
1
10
0.359331762285981
20
11.0286100524652
30
0
0
SPLINE
5
2CA
100
AcDbEntity
8
1
62
256
6
ByLayer
370
18
48
1
60
0
100
AcDbSpline
70
4
71
1
72
4
73
2
40
0
40
0
40
1
40
1
41
1
10
-0.271
20
10.0461765861446
30
0
41
1
10
0.2683318287498
20
10.8438471855183
30
0
0
SPLINE
5
2CB
100
AcDbEntity
8
1
62
256
6
ByLayer
370
18
48
1
60
0
100
AcDbSpline
70
4
71
3
72
12
73
8
40
0
40
0
40
0
40
0
40
0.191976352451521
40
0.409977497462686
40
0.609555752104418
40
0.883210016354505
40
1
40
1
40
1
40
1
41
1
10
0.359331679926706
20
11.5814485668552
30
0
41
1
10
0.359406194153562
20
11.5862842890075
30
0
41
1
10
0.356716055471152
20
11.5933620614225
30
0
41
1
10
0.343109093604424
20
11.5938489262939
30
0
41
1
10
0.318446713757944
20
11.5818758663026
30
0
41
1
10
0.292026661806311
20
11.5627568304243
30
0
41
1
10
0.273896895405281
20
11.5477971651707
30
0
41
1
10
0.268331828741789
20
11.5430218856492
30
0
0
SPLINE
5
2CC
100
AcDbEntity
8
1
62
256
6
ByLayer
370
18
48
1
60
0
100
AcDbSpline
70
4
71
3
72
11
73
7
40
0
40
0
40
0
40
0
40
0.461149537622175
40
0.752671226609314
40
0.979282741504935
40
1
40
1
40
1
40
1
41
1
10
0.2683318287498
20
11.4229183373425
30
0
41
1
10
0.2916156622496
20
11.4529243050156
30
0
41
1
10
0.322693217161748
20
11.4977694880928
30
0
41
1
10
0.352015463308785
20
11.5508939474715
30
0
41
1
10
0.359063806539511
20
11.5733355050969
30
0
41
1
10
0.359327178887015
20
11.5808355757214
30
0
41
1
10
0.359331679926706
20
11.5814485668552
30
0
0
SPLINE
5
2CD
100
AcDbEntity
8
1
62
256
6
ByLayer
370
18
48
1
60
0
100
AcDbSpline
70
4
71
1
72
4
73
2
40
0
40
0
40
1
40
1
41
1
10
-0.271000000000001
20
10.7050531993073
30
0
41
1
10
0.268331828749799
20
11.4229183373425
30
0
0
SPLINE
5
2CE
100
AcDbEntity
8
1
62
256
6
ByLayer
370
18
48
1
60
0
100
AcDbSpline
70
4
71
3
72
12
73
8
40
0
40
0
40
0
40
0
40
0.149560785128423
40
0.364720931774405
40
0.569120585865867
40
0.858729366242803
40
1
40
1
40
1
40
1
41
1
10
0.359331525754294
20
11.979353402347
30
0
41
1
10
0.359359245302602
20
11.9820272558659
30
0
41
1
10
0.357411336226793
20
11.9863324591018
30
0
41
1
10
0.346129828879961
20
11.9845194025845
30
0
41
1
10
0.322469129568561
20
11.9704225303163
30
0
41
1
10
0.294847551375109
20
11.948768616163
30
0
41
1
10
0.275053863626249
20
11.9316854344225
30
0
41
1
10
0.268331828735615
20
11.9256996731331
30
0
0
SPLINE
5
2CF
100
AcDbEntity
8
1
62
256
6
ByLayer
370
18
48
1
60
0
100
AcDbSpline
70
4
71
3
72
11
73
7
40
0
40
0
40
0
40
0
40
0.425652297409833
40
0.715271558366482
40
0.942938862323264
40
1
40
1
40
1
40
1
41
1
10
0.268331828749799
20
11.8428081509547
30
0
41
1
10
0.289592674416181
20
11.8680580883411
30
0
41
1
10
0.319541575238034
20
11.9065203882598
30
0
41
1
10
0.349495602476345
20
11.9517069356899
30
0
41
1
10
0.358541842308457
20
11.9717982382006
30
0
41
1
10
0.359306169822707
20
11.9781885962433
30
0
41
1
10
0.359331525754294
20
11.979353402347
30
0
0
SPLINE
5
2D0
100
AcDbEntity
8
1
62
256
6
ByLayer
370
18
48
1
60
0
100
AcDbSpline
70
4
71
1
72
4
73
2
40
0
40
0
40
1
40
1
41
1
10
-0.271
20
11.1868522829257
30
0
41
1
10
0.268331828749799
20
11.8428081509546
30
0
0
SPLINE
5
2D1
100
AcDbEntity
8
1
62
256
6
ByLayer
370
18
48
1
60
0
100
AcDbSpline
70
4
71
3
72
12
73
8
40
0
40
0
40
0
40
0
40
0.0790223359714041
40
0.292848471955138
40
0.498904688148993
40
0.792562107831166
40
1
40
1
40
1
40
1
41
1
10
0.359331764949148
20
12.2375004848054
30
0
41
1
10
0.359336278476171
20
12.2383440066074
30
0
41
1
10
0.358465935135043
20
12.2405339111161
30
0
41
1
10
0.35096492299014
20
12.2381469608872
30
0
41
1
10
0.32992574821046
20
12.2231972307218
30
0
41
1
10
0.300843725704097
20
12.1984942948419
30
0
41
1
10
0.278263045943692
20
12.177995685096
30
0
41
1
10
0.268331828749765
20
12.1687415592248
30
0
0
SPLINE
5
2D2
100
AcDbEntity
8
1
62
256
6
ByLayer
370
18
48
1
60
0
100
AcDbSpline
70
4
71
3
72
11
73
7
40
0
40
0
40
0
40
0
40
0.341460539759499
40
0.641527162254542
40
0.875753048474617
40
1
40
1
40
1
40
1
41
1
10
0.268331828749798
20
12.1200720484261
30
0
41
1
10
0.285063281614811
20
12.1385849885249
30
0
41
1
10
0.312759840387382
20
12.1704484752409
30
0
41
1
10
0.343687769859024
20
12.2091694393068
30
0
41
1
10
0.357316938825073
20
12.229973191456
30
0
41
1
10
0.359233996956258
20
12.2359581750239
30
0
41
1
10
0.359331764949148
20
12.2375004848054
30
0
0
SPLINE
5
2D3
100
AcDbEntity
8
1
62
256
6
ByLayer
370
18
48
1
60
0
100
AcDbSpline
70
4
71
1
72
4
73
2
40
0
40
0
40
1
40
1
41
1
10
-0.270999999999999
20
11.5138249074754
30
0
41
1
10
0.268331828749795
20
12.1200720484261
30
0
0
SPLINE
5
2D4
100
AcDbEntity
8
1
62
256
6
ByLayer
370
18
48
1
60
0
100
AcDbSpline
70
4
71
3
72
11
73
7
40
0
40
0
40
0
40
0
40
0.226193530646301
40
0.459685087549659
40
0.81985564538588
40
1
40
1
40
1
40
1
41
1
10
0.358245292003583
20
12.3644456612012
30
0
41
1
10
0.356374928692003
20
12.3632943347409
30
0
41
1
10
0.349951284318715
20
12.3582021495976
30
0
41
1
10
0.327456842114196
20
12.3376214053285
30
0
41
1
10
0.298315730382637
20
12.309690087183
30
0
41
1
10
0.276090553216713
20
12.2880419707856
30
0
41
1
10
0.268331828743178
20
12.2804409357459
30
0
0
SPLINE
5
2D5
100
AcDbEntity
8
1
62
256
6
ByLayer
370
18
48
1
60
0
100
AcDbSpline
70
4
71
3
72
11
73
7
40
0
40
0
40
0
40
0
40
0.356535147199946
40
0.63549193094116
40
0.86212611855998
40
1
40
1
40
1
40
1
41
1
10
0.268331828749795
20
12.2643869809201
30
0
41
1
10
0.285852283113383
20
12.2825688910374
30
0
41
1
10
0.313208330494386
20
12.3113952849431
30
0
41
1
10
0.343641433543293
20
12.3445753150566
30
0
41
1
10
0.35716273855204
20
12.360500693031
30
0
41
1
10
0.359243073557546
20
12.3639354283892
30
0
41
1
10
0.359331824520917
20
12.3645437457717
30
0
0
SPLINE
5
2D6
100
AcDbEntity
8
1
62
256
6
ByLayer
370
18
48
1
60
0
100
AcDbSpline
70
4
71
1
72
4
73
2
40
0
40
0
40
1
40
1
41
1
10
-0.271
20
11.6989599537737
30
0
41
1
10
0.26833182874979
20
12.2643869809201
30
0
0
SPLINE
5
2D7
100
AcDbEntity
8
1
62
256
6
ByLayer
370
18
48
1
60
0
100
AcDbSpline
70
4
71
3
72
10
73
6
40
0
40
0
40
0
40
0
40
0.435265736454991
40
0.741631653415972
40
1
40
1
40
1
40
1
41
1
10
0.268331828749787
20
-12.2804409357516
30
0
41
1
10
0.286582115910595
20
-12.2983533087583
30
0
41
1
10
0.31355878567506
20
-12.3244306865986
30
0
41
1
10
0.343890169166377
20
-12.3528584309289
30
0
41
1
10
0.353389011893081
20
-12.3609081906518
30
0
41
1
10
0.356508057771058
20
-12.3632916438505
30
0
0
SPLINE
5
2D8
100
AcDbEntity
8
1
62
256
6
ByLayer
370
18
48
1
60
0
100
AcDbSpline
70
4
71
3
72
10
73
6
40
0
40
0
40
0
40
0
40
0.290526091644656
40
0.883216910578994
40
1
40
1
40
1
40
1
41
1
10
0.268331828749789
20
2.49876249156741
30
0
41
1
10
0.281351188167005
20
2.59527153649536
30
0
41
1
10
0.316278307784875
20
2.88771679041894
30
0
41
1
10
0.3529336881787
20
3.21986715615612
30
0
41
1
10
0.358667205179748
20
3.45000753939294
30
0
41
1
10
0.359291388638563
20
3.48781576225676
30
0
0
SPLINE
5
2D9
100
AcDbEntity
8
1
62
256
6
ByLayer
370
18
48
1
60
0
100
AcDbSpline
70
4
71
3
72
11
73
7
40
0
40
0
40
0
40
0
40
0.246526439308418
40
0.494384046030048
40
0.746467221578939
40
1
40
1
40
1
40
1
41
1
10
0.2683318287498
20
-2.49876249156749
30
0
41
1
10
0.215049138641747
20
-2.09041515546022
30
0
41
1
10
0.134534050048713
20
-1.26952935194266
30
0
41
1
10
0.0917702246293394
20
-0.0211511880603666
30
0
41
1
10
0.131931211675475
20
1.23915001486168
30
0
41
1
10
0.213521442329358
20
2.07876453007925
30
0
41
1
10
0.268331828749302
20
2.49876249156749
30
0
0
SPLINE
5
2DA
100
AcDbEntity
8
1
62
256
6
ByLayer
370
18
48
1
60
0
100
AcDbSpline
70
4
71
2
72
6
73
3
40
0
40
0
40
0
40
1
40
1
40
1
41
1
10
0.359189874572762
20
-3.47602307280857
30
0
41
1
10
0.346383745690238
20
-2.99491737130348
30
0
41
1
10
0.2683318287498
20
-2.49876249156749
30
0
0
SPLINE
5
2DB
100
AcDbEntity
8
1
62
256
6
ByLayer
370
18
48
1
60
0
100
AcDbSpline
70
4
71
3
72
15
73
11
40
0
40
0
40
0
40
0
40
0.0735794556672162
40
0.117337412783846
40
0.161512553787976
40
0.201285889870928
40
0.246983780601475
40
0.324285439557976
40
0.552206145790471
40
1
40
1
40
1
40
1
41
1
10
0.268331828749694
20
-3.70548291117094
30
0
41
1
10
0.273172716641034
20
-3.71323795227813
30
0
41
1
10
0.281660549583895
20
-3.72373770242339
30
0
41
1
10
0.294994108695801
20
-3.73539203964323
30
0
41
1
10
0.306592550255219
20
-3.74011211861692
30
0
41
1
10
0.317722482983459
20
-3.73821805832592
30
0
41
1
10
0.328848612210137
20
-3.72863089765879
30
0
41
1
10
0.344838890609922
20
-3.69670939973574
30
0
41
1
10
0.357652064254882
20
-3.61043940822513
30
0
41
1
10
0.362696847142541
20
-3.53212662877287
30
0
41
1
10
0.359189874572762
20
-3.47602307280857
30
0
0
SPLINE
5
2DC
100
AcDbEntity
8
1
62
256
6
ByLayer
370
18
48
1
60
0
100
AcDbSpline
70
4
71
1
72
4
73
2
40
0
40
0
40
1
40
1
41
1
10
7.91959778563579
20
-7.57399897031704
30
0
41
1
10
7.89108313356024
20
-7.74955282413922
30
0
0
SPLINE
5
2DD
100
AcDbEntity
8
1
62
256
6
ByLayer
370
18
48
1
60
0
100
AcDbSpline
70
4
71
3
72
11
73
7
40
0
40
0
40
0
40
0
40
0.315755581654797
40
0.631585257863285
40
0.94788105034627
40
1
40
1
40
1
40
1
41
1
10
7.9540715372668
20
15.6102095540878
30
0
41
1
10
7.99596344067446
20
15.7789253908025
30
0
41
1
10
8.06957778994382
20
16.1037760335193
30
0
41
1
10
8.15038509623354
20
16.5668539105305
30
0
41
1
10
8.18536144030884
20
16.8543593769877
30
0
41
1
10
8.1970679208795
20
16.9868328989239
30
0
41
1
10
8.19857952583925
20
17.005197560332
30
0
0
SPLINE
5
2DE
100
AcDbEntity
8
1
62
256
6
ByLayer
370
18
48
1
60
0
100
AcDbSpline
70
4
71
1
72
4
73
2
40
0
40
0
40
1
40
1
41
1
10
8.01244506799424
20
14.8111151485794
30
0
41
1
10
7.95407153726679
20
15.6102095540878
30
0
0
SPLINE
5
2DF
100
AcDbEntity
8
1
62
256
6
ByLayer
370
18
48
1
60
0
100
AcDbSpline
70
4
71
1
72
4
73
2
40
0
40
0
40
1
40
1
41
1
10
8.16212205296386
20
12.7095241252492
30
0
41
1
10
8.01244506799424
20
14.8111151485794
30
0
0
SPLINE
5
2E0
100
AcDbEntity
8
1
62
256
6
ByLayer
370
18
48
1
60
0
100
AcDbSpline
70
4
71
1
72
4
73
2
40
0
40
0
40
1
40
1
41
1
10
8.56948205551746
20
12.6504531681449
30
0
41
1
10
8.57372228132067
20
12.4812546711074
30
0
0
SPLINE
5
2E1
100
AcDbEntity
8
1
62
256
6
ByLayer
370
18
48
1
60
0
100
AcDbSpline
70
4
71
3
72
11
73
7
40
0
40
0
40
0
40
0
40
0.244903608865377
40
0.491750853749574
40
0.744794107941347
40
1
40
1
40
1
40
1
41
1
10
8.38715630490646
20
14.8858542502333
30
0
41
1
10
8.40425027000582
20
14.6947024300227
30
0
41
1
10
8.437576647716
20
14.3145952464034
30
0
41
1
10
8.48531714159989
20
13.7482655444554
30
0
41
1
10
8.52998090688492
20
13.1896870094292
30
0
41
1
10
8.55678550351792
20
12.8284593784163
30
0
41
1
10
8.56948205551746
20
12.6504531681449
30
0
0
SPLINE
5
2E2
100
AcDbEntity
8
1
62
256
6
ByLayer
370
18
48
1
60
0
100
AcDbSpline
70
4
71
3
72
13
73
9
40
0
40
0
40
0
40
0
40
0.0490898569354414
40
0.24377059594091
40
0.442743655361325
40
0.664663190818651
40
0.893702664400579
40
1
40
1
40
1
40
1
41
1
10
9.89031703179189
20
-2.83242294666663
30
0
41
1
10
9.86607079722311
20
-2.8663898606299
30
0
41
1
10
9.74503107549574
20
-3.03839321673737
30
0
41
1
10
9.51574997798501
20
-3.38294236275545
30
0
41
1
10
9.19443827846603
20
-3.92348242127019
30
0
41
1
10
8.86709297600808
20
-4.55481808390051
30
0
41
1
10
8.61072884214056
20
-5.14166003352085
30
0
41
1
10
8.47389384658665
20
-5.50484911523881
30
0
41
1
10
8.43200340152277
20
-5.62140598649711
30
0
0
SPLINE
5
2E3
100
AcDbEntity
8
1
62
256
6
ByLayer
370
18
48
1
60
0
100
AcDbSpline
70
4
71
1
72
4
73
2
40
0
40
0
40
1
40
1
41
1
10
9.96182995681297
20
-2.73317256093416
30
0
41
1
10
9.89031703179189
20
-2.83242294666663
30
0
0
SPLINE
5
2E4
100
AcDbEntity
8
1
62
256
6
ByLayer
370
18
48
1
60
0
100
AcDbSpline
70
4
71
3
72
13
73
9
40
0
40
0
40
0
40
0
40
0.0796949718387847
40
0.417646242664148
40
0.615007512919048
40
0.813419523618183
40
0.999499228034166
40
1
40
1
40
1
40
1
41
1
10
11.4878151925839
20
17.2952379157566
30
0
41
1
10
11.4592122346269
20
17.3086714373373
30
0
41
1
10
11.3062516879503
20
17.3762122238172
30
0
41
1
10
11.0551418378755
20
17.4763217218178
30
0
41
1
10
10.7235739735757
20
17.5191087565705
30
0
41
1
10
10.4653001727429
20
17.4809027511912
30
0
41
1
10
10.3193379200073
20
17.4284293716111
30
0
41
1
10
10.2553304932373
20
17.4032893980723
30
0
41
1
10
10.255158746109
20
17.4032219017789
30
0
0
SPLINE
5
2E5
100
AcDbEntity
8
1
62
256
6
ByLayer
370
18
48
1
60
0
100
AcDbSpline
70
4
71
3
72
11
73
7
40
0
40
0
40
0
40
0
40
0.325091780950841
40
0.652028794151925
40
0.948280574187273
40
1
40
1
40
1
40
1
41
1
10
10.5180034610924
20
25.0102545277383
30
0
41
1
10
10.4868796584898
20
24.9951942463502
30
0
41
1
10
10.4335208552701
20
24.9556780111492
30
0
41
1
10
10.3766286726226
20
24.8676048887295
30
0
41
1
10
10.3619033222988
20
24.7911218266225
30
0
41
1
10
10.3627578470693
20
24.7513441101617
30
0
41
1
10
10.3630610002103
20
24.7453874268764
30
0
0
SPLINE
5
2E6
100
AcDbEntity
8
1
62
256
6
ByLayer
370
18
48
1
60
0
100
AcDbSpline
70
4
71
3
72
10
73
6
40
0
40
0
40
0
40
0
40
0.420489505399805
40
0.841816614128221
40
1
40
1
40
1
40
1
41
1
10
11.06843668677
20
24.2905893510334
30
0
41
1
10
11.0137422950786
20
24.3352451185997
30
0
41
1
10
10.9010309209254
20
24.4073495059874
30
0
41
1
10
10.7531756696084
20
24.4507127844008
30
0
41
1
10
10.6694822109182
20
24.4603547091206
30
0
41
1
10
10.6465483378919
20
24.4617892401114
30
0
0
SPLINE
5
2E7
100
AcDbEntity
8
1
62
256
6
ByLayer
370
18
48
1
60
0
100
AcDbSpline
70
4
71
2
72
6
73
3
40
0
40
0
40
0
40
1
40
1
40
1
41
1
10
10.7690933562016
20
26.0583850089512
30
0
41
1
10
10.7729464716511
20
25.9918886191359
30
0
41
1
10
10.802656881372
20
25.9340977806054
30
0
0
SPLINE
5
2E8
100
AcDbEntity
8
1
62
256
6
ByLayer
370
18
48
1
60
0
100
AcDbSpline
70
4
71
3
72
13
73
9
40
0
40
0
40
0
40
0
40
0.212275459580106
40
0.38638747922819
40
0.561520337419871
40
0.714816097899347
40
0.917450657562085
40
1
40
1
40
1
40
1
41
1
10
11.2149487423766
20
26.3176416948463
30
0
41
1
10
11.2769439263782
20
26.275627044524
30
0
41
1
10
11.3984620981826
20
26.2213246064305
30
0
41
1
10
11.6049553250267
20
26.1944373381086
30
0
41
1
10
11.7958378220367
20
26.2297157986075
30
0
41
1
10
11.9740103960533
20
26.3206253625223
30
0
41
1
10
12.088470688853
20
26.4308299259228
30
0
41
1
10
12.1440483417772
20
26.5119082080173
30
0
41
1
10
12.1586195347812
20
26.5364750772676
30
0
0
SPLINE
5
2E9
100
AcDbEntity
8
1
62
256
6
ByLayer
370
18
48
1
60
0
100
AcDbSpline
70
4
71
1
72
4
73
2
40
0
40
0
40
1
40
1
41
1
10
11.31203298514
20
23.7244189298866
30
0
41
1
10
11.3177526021848
20
23.6809510112939
30
0
0
SPLINE
5
2EA
100
AcDbEntity
8
1
62
256
6
ByLayer
370
18
48
1
60
0
100
AcDbSpline
70
4
71
1
72
4
73
2
40
0
40
0
40
1
40
1
41
1
10
11.3119620106991
20
23.7499366743038
30
0
41
1
10
11.31203298514
20
23.7244189298866
30
0
0
SPLINE
5
2EB
100
AcDbEntity
8
1
62
256
6
ByLayer
370
18
48
1
60
0
100
AcDbSpline
70
4
71
3
72
13
73
9
40
0
40
0
40
0
40
0
40
0.212275459580104
40
0.386387479228189
40
0.56152033741987
40
0.714816097899348
40
0.917450657562086
40
1
40
1
40
1
40
1
41
1
10
12.7949871448613
20
23.8027237677789
30
0
41
1
10
12.7332818315057
20
23.8392073566851
30
0
41
1
10
12.612194533181
20
23.8852882390161
30
0
41
1
10
12.4061482009662
20
23.9036482498311
30
0
41
1
10
12.2153209983905
20
23.8673147086738
30
0
41
1
10
12.036848144267
20
23.7821348305231
30
0
41
1
10
11.9219181948817
20
23.6808918486283
30
0
41
1
10
11.8659939172434
20
23.6064275600831
30
0
41
1
10
11.8513163524567
20
23.5838903853577
30
0
0
SPLINE
5
2EC
100
AcDbEntity
8
1
62
256
6
ByLayer
370
18
48
1
60
0
100
AcDbSpline
70
4
71
1
72
4
73
2
40
0
40
0
40
1
40
1
41
1
10
12.6978167272712
20
26.3975908463864
30
0
41
1
10
12.6925299672712
20
26.4411158417665
30
0
0
SPLINE
5
2ED
100
AcDbEntity
8
1
62
256
6
ByLayer
370
18
48
1
60
0
100
AcDbSpline
70
4
71
1
72
4
73
2
40
0
40
0
40
1
40
1
41
1
10
12.6979865751545
20
26.3701864843009
30
0
41
1
10
12.6978167272712
20
26.3975908463864
30
0
0
SPLINE
5
2EE
100
AcDbEntity
8
1
62
256
6
ByLayer
370
18
48
1
60
0
100
AcDbSpline
70
4
71
2
72
6
73
3
40
0
40
0
40
0
40
1
40
1
40
1
41
1
10
13.2072790058659
20
24.1862676820198
30
0
41
1
10
13.2367518541569
20
24.1330097856061
30
0
41
1
10
13.240421484151
20
24.0700145068449
30
0
0
SPLINE
5
2EF
100
AcDbEntity
8
1
62
256
6
ByLayer
370
18
48
1
60
0
100
AcDbSpline
70
4
71
1
72
4
73
2
40
0
40
0
40
1
40
1
41
1
10
13.6460944864712
20
25.3898689654356
30
0
41
1
10
13.6391841938953
20
25.4396454122116
30
0
0
SPLINE
5
2F0
100
AcDbEntity
8
1
62
256
6
ByLayer
370
18
48
1
60
0
100
AcDbSpline
70
4
71
3
72
11
73
7
40
0
40
0
40
0
40
0
40
0.325091780950838
40
0.652028794151926
40
0.948280574187275
40
1
40
1
40
1
40
1
41
1
10
13.4919324261455
20
25.110110934887
30
0
41
1
10
13.5229246555485
20
25.1276817824815
30
0
41
1
10
13.5760492005922
20
25.1716679299579
30
0
41
1
10
13.6326692471002
20
25.2649337192551
30
0
41
1
10
13.6472839809594
20
25.3435274692427
30
0
41
1
10
13.6464012457216
20
25.3838434734863
30
0
41
1
10
13.6460944864712
20
25.3898689654356
30
0
0
SPLINE
5
2F1
100
AcDbEntity
8
1
62
256
6
ByLayer
370
18
48
1
60
0
100
AcDbSpline
70
4
71
1
72
4
73
2
40
0
40
0
40
1
40
1
41
1
10
15.9535032564865
20
16.7536664054133
30
0
41
1
10
15.9597349785245
20
16.7507260585353
30
0
0
SPLINE
5
2F2
100
AcDbEntity
8
1
62
256
6
ByLayer
370
18
48
1
60
0
100
AcDbSpline
70
4
71
1
72
4
73
2
40
0
40
0
40
1
40
1
41
1
10
15.9518911672074
20
16.7562146117251
30
0
41
1
10
15.9535032564865
20
16.7536664054133
30
0
0
SPLINE
5
2F3
100
AcDbEntity
8
1
62
256
6
ByLayer
370
18
48
1
60
0
100
AcDbSpline
70
4
71
3
72
12
73
8
40
0
40
0
40
0
40
0
40
0.236179856990101
40
0.484910551603073
40
0.7644834940607
40
0.899043887819592
40
1
40
1
40
1
40
1
41
1
10
16.0048067439699
20
16.7724157957271
30
0
41
1
10
16.0332389316146
20
16.7947408409995
30
0
41
1
10
16.1087993567903
20
16.8557595060051
30
0
41
1
10
16.2863469514316
20
17.0150614091001
30
0
41
1
10
16.4876906190513
20
17.1739011590339
30
0
41
1
10
16.691458483168
20
17.2483240585718
30
0
41
1
10
16.7896723959428
20
17.2525648825301
30
0
41
1
10
16.8331843813062
20
17.2500480733335
30
0
0
LINE
5
70
100
AcDbEntity
8
1
62
256
6
ByLayer
370
18
48
1
60
1
100
AcDbLine
10
8.117902
20
20.767959
30
0.67496
11
16.117091
21
19.789165
31
0.772585
39
0
210
0
220
0
230
1
0
LINE
5
72
100
AcDbEntity
8
1
62
256
6
ByLayer
370
18
48
1
60
1
100
AcDbLine
10
7.001083
20
29.541374
30
0.058217
11
7.421854
21
21.512584
31
0.620415
39
0
210
0
220
0
230
1
0
LINE
5
73
100
AcDbEntity
8
1
62
256
6
ByLayer
370
18
48
1
60
1
100
AcDbLine
10
15.890047
20
29.390314
30
0.101296
11
7.890859
21
30.369108
31
0.003672
39
0
210
0
220
0
230
1
0
LINE
5
74
100
AcDbEntity
8
1
62
256
6
ByLayer
370
18
48
1
60
1
100
AcDbLine
10
17.006866
20
20.616899
30
0.71804
11
16.586095
21
28.645689
31
0.155842
39
0
210
0
220
0
230
1
0
LINE
5
75
100
AcDbEntity
8
1
62
256
6
ByLayer
370
18
48
1
60
1
100
AcDbLine
10
-3.571
20
-3
30
0
11
-0.271
21
-3
31
0
39
0
210
0
220
0
230
1
0
LINE
5
76
100
AcDbEntity
8
1
62
256
6
ByLayer
370
18
48
1
60
1
100
AcDbLine
10
-0.271
20
3
30
0
11
-3.571
21
3
31
0
39
0
210
0
220
0
230
1
0
LINE
5
77
100
AcDbEntity
8
1
62
256
6
ByLayer
370
18
48
1
60
1
100
AcDbLine
10
-3.571
20
3
30
0
11
-4.071
21
2.866025
31
0
39
0
210
0
220
0
230
1
0
LINE
5
78
100
AcDbEntity
8
1
62
256
6
ByLayer
370
18
48
1
60
1
100
AcDbLine
10
-4.071
20
-2.866025
30
0
11
-3.571
21
-3
31
0
39
0
210
0
220
0
230
1
0
LINE
5
79
100
AcDbEntity
8
1
62
256
6
ByLayer
370
18
48
1
60
1
100
AcDbLine
10
0.479
20
12.5
30
0
11
-0.271
21
11.75
31
0
39
0
210
0
220
0
230
1
0
LINE
5
7A
100
AcDbEntity
8
1
62
256
6
ByLayer
370
18
48
1
60
1
100
AcDbLine
10
-0.271
20
-11.75
30
0
11
0.479
21
-12.5
31
0
39
0
210
0
220
0
230
1
0
LINE
5
7B
100
AcDbEntity
8
1
62
256
6
ByLayer
370
18
48
1
60
1
100
AcDbLine
10
14.127476
20
14.885854
30
4.281584
11
14.390127
21
16.811926
31
4.045092
39
0
210
0
220
0
230
1
0
LINE
5
7C
100
AcDbEntity
8
1
62
256
6
ByLayer
370
18
48
1
60
1
100
AcDbLine
10
14.697437
20
17.016954
30
3.768388
11
14.390127
21
16.811926
31
4.045092
39
0
210
0
220
0
230
1
0
LINE
5
7D
100
AcDbEntity
8
1
62
256
6
ByLayer
370
18
48
1
60
1
100
AcDbLine
10
14.697437
20
17.016954
30
3.768388
11
15.922474
21
16.832848
31
2.665361
39
0
210
0
220
0
230
1
0
LINE
5
7E
100
AcDbEntity
8
1
62
256
6
ByLayer
370
18
48
1
60
1
100
AcDbLine
10
0.479
20
-12.5
30
0
11
7.695516
21
-12.5
31
0
39
0
210
0
220
0
230
1
0
LINE
5
7F
100
AcDbEntity
8
1
62
256
6
ByLayer
370
18
48
1
60
1
100
AcDbLine
10
7.574086
20
12.5
30
0
11
0.479
21
12.5
31
0
39
0
210
0
220
0
230
1
0
LINE
5
80
100
AcDbEntity
8
1
62
256
6
ByLayer
370
18
48
1
60
1
100
AcDbLine
10
11.040319
20
10.314477
30
7.061272
11
7.574086
21
10.314477
31
7.061272
39
0
210
0
220
0
230
1
0
LINE
5
81
100
AcDbEntity
8
1
62
256
6
ByLayer
370
18
48
1
60
1
100
AcDbLine
10
0.268332
20
3.705483
30
11.717383
11
0.268332
21
2.498762
31
11.717383
39
0
210
0
220
0
230
1
0
LINE
5
82
100
AcDbEntity
8
1
62
256
6
ByLayer
370
18
48
1
60
1
100
AcDbLine
10
0.268332
20
-2.498762
30
11.717383
11
0.268332
21
-3.705483
31
11.717383
39
0
210
0
220
0
230
1
0
LINE
5
83
100
AcDbEntity
8
1
62
256
6
ByLayer
370
18
48
1
60
1
100
AcDbLine
10
-0.271
20
2.822351
30
11.406
11
-0.271
21
-2.822351
31
11.406
39
0
210
0
220
0
230
1
0
LINE
5
84
100
AcDbEntity
8
1
62
256
6
ByLayer
370
18
48
1
60
1
100
AcDbLine
10
0.268332
20
6.439065
30
10.467383
11
0.268332
21
5.896003
31
10.467383
39
0
210
0
220
0
230
1
0
LINE
5
85
100
AcDbEntity
8
1
62
256
6
ByLayer
370
18
48
1
60
1
100
AcDbLine
10
0.268332
20
-5.896003
30
10.467383
11
0.268332
21
-6.439065
31
10.467383
39
0
210
0
220
0
230
1
0
LINE
5
86
100
AcDbEntity
8
1
62
256
6
ByLayer
370
18
48
1
60
1
100
AcDbLine
10
-0.271
20
5.909159
30
10.156
11
-0.271
21
3.871132
31
10.156
39
0
210
0
220
0
230
1
0
LINE
5
87
100
AcDbEntity
8
1
62
256
6
ByLayer
370
18
48
1
60
1
100
AcDbLine
10
-0.271
20
-3.871132
30
10.156
11
-0.271
21
-5.909159
31
10.156
39
0
210
0
220
0
230
1
0
LINE
5
88
100
AcDbEntity
8
1
62
256
6
ByLayer
370
18
48
1
60
1
100
AcDbLine
10
0.268332
20
8.128193
30
9.217383
11
0.268332
21
7.756088
31
9.217383
39
0
210
0
220
0
230
1
0
LINE
5
89
100
AcDbEntity
8
1
62
256
6
ByLayer
370
18
48
1
60
1
100
AcDbLine
10
0.268332
20
-7.756088
30
9.217383
11
0.268332
21
-8.128193
31
9.217383
39
0
210
0
220
0
230
1
0
LINE
5
8A
100
AcDbEntity
8
1
62
256
6
ByLayer
370
18
48
1
60
1
100
AcDbLine
10
-0.271
20
7.664572
30
8.906
11
-0.271
21
6.415463
31
8.906
39
0
210
0
220
0
230
1
0
LINE
5
8B
100
AcDbEntity
8
1
62
256
6
ByLayer
370
18
48
1
60
1
100
AcDbLine
10
-0.271
20
-6.415463
30
8.906
11
-0.271
21
-7.664572
31
8.906
39
0
210
0
220
0
230
1
0
LINE
5
8C
100
AcDbEntity
8
1
62
256
6
ByLayer
370
18
48
1
60
1
100
AcDbLine
10
0.268332
20
9.356734
30
7.967383
11
0.268332
21
9.078873
31
7.967383
39
0
210
0
220
0
230
1
0
LINE
5
8D
100
AcDbEntity
8
1
62
256
6
ByLayer
370
18
48
1
60
1
100
AcDbLine
10
0.268332
20
-9.078873
30
7.967383
11
0.268332
21
-9.356734
31
7.967383
39
0
210
0
220
0
230
1
0
LINE
5
8E
100
AcDbEntity
8
1
62
256
6
ByLayer
370
18
48
1
60
1
100
AcDbLine
10
-0.271
20
-8.026119
30
7.656
11
-0.271
21
-8.91337
31
7.656
39
0
210
0
220
0
230
1
0
LINE
5
8F
100
AcDbEntity
8
1
62
256
6
ByLayer
370
18
48
1
60
1
100
AcDbLine
10
-0.271
20
8.91337
30
7.656
11
-0.271
21
8.026119
31
7.656
39
0
210
0
220
0
230
1
0
LINE
5
90
100
AcDbEntity
8
1
62
256
6
ByLayer
370
18
48
1
60
1
100
AcDbLine
10
14.127476
20
14.885854
30
4.281584
11
8.387156
21
14.885854
31
4.281584
39
0
210
0
220
0
230
1
0
LINE
5
91
100
AcDbEntity
8
1
62
256
6
ByLayer
370
18
48
1
60
1
100
AcDbLine
10
0.268332
20
10.290988
30
6.717383
11
0.268332
21
10.078193
31
6.717383
39
0
210
0
220
0
230
1
0
LINE
5
92
100
AcDbEntity
8
1
62
256
6
ByLayer
370
18
48
1
60
1
100
AcDbLine
10
0.268332
20
-10.078193
30
6.717383
11
0.268332
21
-10.290988
31
6.717383
39
0
210
0
220
0
230
1
0
LINE
5
93
100
AcDbEntity
8
1
62
256
6
ByLayer
370
18
48
1
60
1
100
AcDbLine
10
-0.271
20
-9.172141
30
6.406
11
-0.271
21
-9.850161
31
6.406
39
0
210
0
220
0
230
1
0
LINE
5
94
100
AcDbEntity
8
1
62
256
6
ByLayer
370
18
48
1
60
1
100
AcDbLine
10
-0.271
20
9.850161
30
6.406
11
-0.271
21
9.172141
31
6.406
39
0
210
0
220
0
230
1
0
LINE
5
95
100
AcDbEntity
8
1
62
256
6
ByLayer
370
18
48
1
60
1
100
AcDbLine
10
0.268332
20
11.006153
30
5.467383
11
0.268332
21
10.843847
31
5.467383
39
0
210
0
220
0
230
1
0
LINE
5
96
100
AcDbEntity
8
1
62
256
6
ByLayer
370
18
48
1
60
1
100
AcDbLine
10
0.268332
20
-10.843847
30
5.467383
11
0.268332
21
-11.006153
31
5.467383
39
0
210
0
220
0
230
1
0
LINE
5
97
100
AcDbEntity
8
1
62
256
6
ByLayer
370
18
48
1
60
1
100
AcDbLine
10
-0.271
20
-10.046177
30
5.156
11
-0.271
21
-10.558322
31
5.156
39
0
210
0
220
0
230
1
0
LINE
5
98
100
AcDbEntity
8
1
62
256
6
ByLayer
370
18
48
1
60
1
100
AcDbLine
10
-0.271
20
10.558322
30
5.156
11
-0.271
21
10.046177
31
5.156
39
0
210
0
220
0
230
1
0
LINE
5
99
100
AcDbEntity
8
1
62
256
6
ByLayer
370
18
48
1
60
1
100
AcDbLine
10
0.268332
20
11.543022
30
4.217383
11
0.268332
21
11.422918
31
4.217383
39
0
210
0
220
0
230
1
0
LINE
5
9A
100
AcDbEntity
8
1
62
256
6
ByLayer
370
18
48
1
60
1
100
AcDbLine
10
0.268332
20
-11.422918
30
4.217383
11
0.268332
21
-11.543022
31
4.217383
39
0
210
0
220
0
230
1
0
LINE
5
9B
100
AcDbEntity
8
1
62
256
6
ByLayer
370
18
48
1
60
1
100
AcDbLine
10
14.390127
20
16.811926
30
4.045092
11
8.164326
21
17.353303
31
3.978619
39
0
210
0
220
0
230
1
0
LINE
5
9C
100
AcDbEntity
8
1
62
256
6
ByLayer
370
18
48
1
60
1
100
AcDbLine
10
-0.271
20
-10.705053
30
3.906
11
-0.271
21
-11.081772
31
3.906
39
0
210
0
220
0
230
1
0
LINE
5
9D
100
AcDbEntity
8
1
62
256
6
ByLayer
370
18
48
1
60
1
100
AcDbLine
10
-0.271
20
11.081772
30
3.906
11
-0.271
21
10.705053
31
3.906
39
0
210
0
220
0
230
1
0
LINE
5
9E
100
AcDbEntity
8
1
62
256
6
ByLayer
370
18
48
1
60
1
100
AcDbLine
10
8.18296
20
17.583433
30
3.698833
11
14.697437
21
17.016954
31
3.768388
39
0
210
0
220
0
230
1
0
LINE
5
9F
100
AcDbEntity
8
1
62
256
6
ByLayer
370
18
48
1
60
1
100
AcDbLine
10
0.268332
20
-11.842808
30
2.967383
11
0.268332
21
-11.9257
31
2.967383
39
0
210
0
220
0
230
1
0
LINE
5
A0
100
AcDbEntity
8
1
62
256
6
ByLayer
370
18
48
1
60
1
100
AcDbLine
10
0.268332
20
11.9257
30
2.967383
11
0.268332
21
11.842808
31
2.967383
39
0
210
0
220
0
230
1
0
LINE
5
A1
100
AcDbEntity
8
1
62
256
6
ByLayer
370
18
48
1
60
1
100
AcDbLine
10
-0.271
20
-11.186852
30
2.656
11
-0.271
21
-11.44588
31
2.656
39
0
210
0
220
0
230
1
0
LINE
5
A2
100
AcDbEntity
8
1
62
256
6
ByLayer
370
18
48
1
60
1
100
AcDbLine
10
-0.271
20
11.44588
30
2.656
11
-0.271
21
11.186852
31
2.656
39
0
210
0
220
0
230
1
0
LINE
5
A3
100
AcDbEntity
8
1
62
256
6
ByLayer
370
18
48
1
60
1
100
AcDbLine
10
0.268332
20
12.168742
30
1.717383
11
0.268332
21
12.120072
31
1.717383
39
0
210
0
220
0
230
1
0
LINE
5
A4
100
AcDbEntity
8
1
62
256
6
ByLayer
370
18
48
1
60
1
100
AcDbLine
10
0.268332
20
-12.120072
30
1.717383
11
0.268332
21
-12.168742
31
1.717383
39
0
210
0
220
0
230
1
0
LINE
5
A5
100
AcDbEntity
8
1
62
256
6
ByLayer
370
18
48
1
60
1
100
AcDbLine
10
-0.271
20
-11.513825
30
1.406
11
-0.271
21
-11.665576
31
1.406
39
0
210
0
220
0
230
1
0
LINE
5
A6
100
AcDbEntity
8
1
62
256
6
ByLayer
370
18
48
1
60
1
100
AcDbLine
10
-0.271
20
11.665576
30
1.406
11
-0.271
21
11.513825
31
1.406
39
0
210
0
220
0
230
1
0
LINE
5
A7
100
AcDbEntity
8
1
62
256
6
ByLayer
370
18
48
1
60
1
100
AcDbLine
10
8.352423
20
18.347169
30
0.423839
11
23.835133
21
16.999826
31
0.574587
39
0
210
0
220
0
230
1
0
LINE
5
A8
100
AcDbEntity
8
1
62
256
6
ByLayer
370
18
48
1
60
1
100
AcDbLine
10
8.041858
20
-8.541287
30
0.6
11
7.696776
21
-12.485592
31
0.6
39
0
210
0
220
0
230
1
0
LINE
5
A9
100
AcDbEntity
8
1
62
256
6
ByLayer
370
18
48
1
60
0
100
AcDbLine
10
0.268332
20
-12.264387
30
0.467383
11
0.268332
21
-12.280441
31
0.467383
39
0
210
0
220
0
230
1
0
LINE
5
AA
100
AcDbEntity
8
1
62
256
6
ByLayer
370
18
48
1
60
0
100
AcDbLine
10
0.268332
20
12.280441
30
0.467383
11
0.268332
21
12.264387
31
0.467383
39
0
210
0
220
0
230
1
0
LINE
5
AB
100
AcDbEntity
8
1
62
256
6
ByLayer
370
18
48
1
60
1
100
AcDbLine
10
23.991929
20
14.007993
30
0.6
11
23.843808
21
16.834306
31
0.6
39
0
210
0
220
0
230
1
0
LINE
5
AC
100
AcDbEntity
8
1
62
256
6
ByLayer
370
18
48
1
60
1
100
AcDbLine
10
8.357162
20
18.999461
30
0.378306
11
8.265425
21
20.749908
31
0.255735
39
0
210
0
220
0
230
1
0
LINE
5
AD
100
AcDbEntity
8
1
62
256
6
ByLayer
370
18
48
1
60
1
100
AcDbLine
10
17.822902
20
21.557418
30
0.234323
11
17.809083
21
21.800731
31
0.217282
39
0
210
0
220
0
230
1
0
LINE
5
AE
100
AcDbEntity
8
1
62
256
6
ByLayer
370
18
48
1
60
1
100
AcDbLine
10
16.595389
20
28.468362
30
-0.252767
11
22.011592
21
27.805626
31
-0.186666
39
0
210
0
220
0
230
1
0
LINE
5
AF
100
AcDbEntity
8
1
62
256
6
ByLayer
370
18
48
1
60
1
100
AcDbLine
10
23.3202
20
26.825336
30
-0.113422
11
23.835133
21
16.999826
31
0.574587
39
0
210
0
220
0
230
1
0
LINE
5
B0
100
AcDbEntity
8
1
62
256
6
ByLayer
370
18
48
1
60
1
100
AcDbLine
10
-0.271
20
-11.69896
30
0.156
11
-0.271
21
-11.748964
31
0.156
39
0
210
0
220
0
230
1
0
LINE
5
B1
100
AcDbEntity
8
1
62
256
6
ByLayer
370
18
48
1
60
1
100
AcDbLine
10
-0.271
20
11.748964
30
0.156
11
-0.271
21
11.69896
31
0.156
39
0
210
0
220
0
230
1
0
LINE
5
B2
100
AcDbEntity
8
1
62
256
6
ByLayer
370
18
48
1
60
1
100
AcDbLine
10
17.655153
20
21.09558
30
-1.087337
11
17.663184
21
20.942326
31
-3.281978
39
0
210
0
220
0
230
1
0
LINE
5
B3
100
AcDbEntity
8
1
62
256
6
ByLayer
370
18
48
1
60
1
100
AcDbLine
10
17.822902
20
21.557418
30
0.234323
11
17.678235
21
21.454883
31
-1.112343
39
0
210
0
220
0
230
1
0
LINE
5
B4
100
AcDbEntity
8
1
62
256
6
ByLayer
370
18
48
1
60
1
100
AcDbLine
10
17.664416
20
21.698196
30
-1.129384
11
17.678235
21
21.454883
31
-1.112343
39
0
210
0
220
0
230
1
0
LINE
5
B5
100
AcDbEntity
8
1
62
256
6
ByLayer
370
18
48
1
60
1
100
AcDbLine
10
17.809083
20
21.800731
30
0.217282
11
17.664416
21
21.698196
31
-1.129384
39
0
210
0
220
0
230
1
0
LINE
5
B6
100
AcDbEntity
8
1
62
256
6
ByLayer
370
18
48
1
60
1
100
AcDbLine
10
17.672448
20
21.544942
30
-3.324025
11
17.680103
21
21.410156
31
-3.314585
39
0
210
0
220
0
230
1
0
LINE
5
B7
100
AcDbEntity
8
1
62
256
6
ByLayer
370
18
48
1
60
1
100
AcDbLine
10
17.672448
20
21.544942
30
-3.324025
11
17.664416
21
21.698196
31
-1.129384
39
0
210
0
220
0
230
1
0
LINE
5
B8
100
AcDbEntity
8
1
62
256
6
ByLayer
370
18
48
1
60
1
100
AcDbLine
10
13.212084
20
24.09459
30
-1.130719
11
13.207279
21
24.186268
31
0.182131
39
0
210
0
220
0
230
1
0
LINE
5
B9
100
AcDbEntity
8
1
62
256
6
ByLayer
370
18
48
1
60
1
100
AcDbLine
10
10.522808
20
24.918577
30
-1.198101
11
10.518003
21
25.010255
31
0.114749
39
0
210
0
220
0
230
1
0
LINE
5
BA
100
AcDbEntity
8
1
62
256
6
ByLayer
370
18
48
1
60
1
100
AcDbLine
10
13.368199
20
25.566777
30
-1.232952
11
13.3634
21
25.658334
31
0.078163
39
0
210
0
220
0
230
1
0
LINE
5
BB
100
AcDbEntity
8
1
62
256
6
ByLayer
370
18
48
1
60
1
100
AcDbLine
10
13.129317
20
24.461272
30
0.036719
11
13.133663
21
24.378345
31
-1.150821
39
0
210
0
220
0
230
1
0
LINE
5
BC
100
AcDbEntity
8
1
62
256
6
ByLayer
370
18
48
1
60
1
100
AcDbLine
10
14.631084
20
25.107629
30
-1.171206
11
14.626978
21
25.185966
31
-0.049386
39
0
210
0
220
0
230
1
0
LINE
5
BD
100
AcDbEntity
8
1
62
256
6
ByLayer
370
18
48
1
60
1
100
AcDbLine
10
9.384173
20
24.911203
30
-0.049386
11
9.388279
21
24.832865
31
-1.171206
39
0
210
0
220
0
230
1
0
LINE
5
BE
100
AcDbEntity
8
1
62
256
6
ByLayer
370
18
48
1
60
1
100
AcDbLine
10
11.316398
20
23.722088
30
-1.111645
11
11.311706
21
23.811615
31
0.17041
39
0
210
0
220
0
230
1
0
LINE
5
BF
100
AcDbEntity
8
1
62
256
6
ByLayer
370
18
48
1
60
1
100
AcDbLine
10
11.219753
20
26.225964
30
-1.286846
11
11.214949
21
26.317642
31
0.026004
39
0
210
0
220
0
230
1
0
LINE
5
C0
100
AcDbEntity
8
1
62
256
6
ByLayer
370
18
48
1
60
1
100
AcDbLine
10
10.885882
20
25.558665
30
-1.24147
11
10.881536
21
25.641592
31
-0.053931
39
0
210
0
220
0
230
1
0
LINE
5
C1
100
AcDbEntity
8
1
62
256
6
ByLayer
370
18
48
1
60
1
100
AcDbLine
10
12.163424
20
26.444797
30
-1.298674
11
12.15862
21
26.536475
31
0.014176
39
0
210
0
220
0
230
1
0
LINE
5
C2
100
AcDbEntity
8
1
62
256
6
ByLayer
370
18
48
1
60
1
100
AcDbLine
10
12.946897
20
25.726785
30
-1.245667
11
12.942685
21
25.807149
31
-0.094832
39
0
210
0
220
0
230
1
0
LINE
5
C3
100
AcDbEntity
8
1
62
256
6
ByLayer
370
18
48
1
60
1
100
AcDbLine
10
12.698455
20
26.30445
30
0.001408
11
12.703147
21
26.214922
31
-1.280647
39
0
210
0
220
0
230
1
0
LINE
5
C4
100
AcDbEntity
8
1
62
256
6
ByLayer
370
18
48
1
60
1
100
AcDbLine
10
12.829187
20
25.928568
30
-0.103726
11
12.833399
21
25.848204
31
-1.254562
39
0
210
0
220
0
230
1
0
LINE
5
C5
100
AcDbEntity
8
SK1
62
256
6
ByLayer
370
18
48
1
60
0
100
AcDbLine
10
-4.071
20
-2.866025
30
0
11
-3.571
21
-3
31
0
39
0
210
0
220
0
230
1
0
LINE
5
C7
100
AcDbEntity
8
SK1
62
256
6
ByLayer
370
18
48
1
60
0
100
AcDbLine
10
-3.571
20
3
30
0
11
-4.071
21
2.866025
31
0
39
0
210
0
220
0
230
1
0
LINE
5
C8
100
AcDbEntity
8
SK1
62
256
6
ByLayer
370
18
48
1
60
0
100
AcDbLine
10
-3.571
20
0
30
0
11
-3.571
21
-3
31
0
39
0
210
0
220
0
230
1
0
LINE
5
C9
100
AcDbEntity
8
SK1
62
256
6
ByLayer
370
18
48
1
60
0
100
AcDbLine
10
-3.571
20
-3
30
0
11
-0.271
21
-3
31
0
39
0
210
0
220
0
230
1
0
LINE
5
CA
100
AcDbEntity
8
SK1
62
256
6
ByLayer
370
18
48
1
60
0
100
AcDbLine
10
-3.571
20
3
30
0
11
-3.571
21
0
31
0
39
0
210
0
220
0
230
1
0
LINE
5
CB
100
AcDbEntity
8
SK1
62
256
6
ByLayer
370
18
48
1
60
0
100
AcDbLine
10
-0.271
20
3
30
0
11
-3.571
21
3
31
0
39
0
210
0
220
0
230
1
0
LINE
5
CC
100
AcDbEntity
8
1
62
256
6
ByLayer
370
18
48
1
60
0
100
AcDbLine
10
-0.271
20
-11.75
30
0
11
0.479
21
-12.5
31
0
39
0
210
0
220
0
230
1
0
LINE
5
CD
100
AcDbEntity
8
1
62
256
6
ByLayer
370
18
48
1
60
0
100
AcDbLine
10
-0.271
20
-11.748964
30
0
11
-0.271
21
-11.75
31
0
39
0
210
0
220
0
230
1
0
LINE
5
CE
100
AcDbEntity
8
1
62
256
6
ByLayer
370
18
48
1
60
0
100
AcDbLine
10
-0.271
20
-11.69896
30
0
11
-0.271
21
-11.748964
31
0
39
0
210
0
220
0
230
1
0
LINE
5
CF
100
AcDbEntity
8
1
62
256
6
ByLayer
370
18
48
1
60
0
100
AcDbLine
10
-0.271
20
-11.665576
30
0
11
-0.271
21
-11.69896
31
0
39
0
210
0
220
0
230
1
0
LINE
5
D0
100
AcDbEntity
8
1
62
256
6
ByLayer
370
18
48
1
60
0
100
AcDbLine
10
-0.271
20
-11.513825
30
0
11
-0.271
21
-11.665576
31
0
39
0
210
0
220
0
230
1
0
LINE
5
D1
100
AcDbEntity
8
1
62
256
6
ByLayer
370
18
48
1
60
0
100
AcDbLine
10
-0.271
20
-11.44588
30
0
11
-0.271
21
-11.513825
31
0
39
0
210
0
220
0
230
1
0
LINE
5
D2
100
AcDbEntity
8
1
62
256
6
ByLayer
370
18
48
1
60
0
100
AcDbLine
10
-0.271
20
-11.186852
30
0
11
-0.271
21
-11.44588
31
0
39
0
210
0
220
0
230
1
0
LINE
5
D3
100
AcDbEntity
8
1
62
256
6
ByLayer
370
18
48
1
60
0
100
AcDbLine
10
-0.271
20
-11.081772
30
0
11
-0.271
21
-11.186852
31
0
39
0
210
0
220
0
230
1
0
LINE
5
D4
100
AcDbEntity
8
1
62
256
6
ByLayer
370
18
48
1
60
0
100
AcDbLine
10
-0.271
20
-10.705053
30
0
11
-0.271
21
-11.081772
31
0
39
0
210
0
220
0
230
1
0
LINE
5
D5
100
AcDbEntity
8
1
62
256
6
ByLayer
370
18
48
1
60
0
100
AcDbLine
10
-0.271
20
-10.558322
30
0
11
-0.271
21
-10.705053
31
0
39
0
210
0
220
0
230
1
0
LINE
5
D6
100
AcDbEntity
8
1
62
256
6
ByLayer
370
18
48
1
60
0
100
AcDbLine
10
-0.271
20
-10.046177
30
0
11
-0.271
21
-10.558322
31
0
39
0
210
0
220
0
230
1
0
LINE
5
D7
100
AcDbEntity
8
1
62
256
6
ByLayer
370
18
48
1
60
0
100
AcDbLine
10
-0.271
20
-9.850161
30
0
11
-0.271
21
-10.046177
31
0
39
0
210
0
220
0
230
1
0
LINE
5
D8
100
AcDbEntity
8
1
62
256
6
ByLayer
370
18
48
1
60
0
100
AcDbLine
10
-0.271
20
-9.172141
30
0
11
-0.271
21
-9.850161
31
0
39
0
210
0
220
0
230
1
0
LINE
5
D9
100
AcDbEntity
8
1
62
256
6
ByLayer
370
18
48
1
60
0
100
AcDbLine
10
-0.271
20
-8.91337
30
0
11
-0.271
21
-9.172141
31
0
39
0
210
0
220
0
230
1
0
LINE
5
DA
100
AcDbEntity
8
1
62
256
6
ByLayer
370
18
48
1
60
0
100
AcDbLine
10
-0.271
20
-8.026119
30
0
11
-0.271
21
-8.91337
31
0
39
0
210
0
220
0
230
1
0
LINE
5
DB
100
AcDbEntity
8
1
62
256
6
ByLayer
370
18
48
1
60
0
100
AcDbLine
10
-0.271
20
-7.664572
30
0
11
-0.271
21
-8.012844
31
0
39
0
210
0
220
0
230
1
0
LINE
5
DC
100
AcDbEntity
8
1
62
256
6
ByLayer
370
18
48
1
60
0
100
AcDbLine
10
-0.271
20
-6.415463
30
0
11
-0.271
21
-7.664572
31
0
39
0
210
0
220
0
230
1
0
LINE
5
DD
100
AcDbEntity
8
1
62
256
6
ByLayer
370
18
48
1
60
0
100
AcDbLine
10
-0.271
20
-5.909159
30
0
11
-0.271
21
-6.415463
31
0
39
0
210
0
220
0
230
1
0
LINE
5
DE
100
AcDbEntity
8
1
62
256
6
ByLayer
370
18
48
1
60
0
100
AcDbLine
10
-0.271
20
-3.871132
30
0
11
-0.271
21
-5.909159
31
0
39
0
210
0
220
0
230
1
0
LINE
5
DF
100
AcDbEntity
8
1
62
256
6
ByLayer
370
18
48
1
60
0
100
AcDbLine
10
-0.271
20
-2.822351
30
0
11
-0.271
21
-3.871132
31
0
39
0
210
0
220
0
230
1
0
LINE
5
E0
100
AcDbEntity
8
1
62
256
6
ByLayer
370
18
48
1
60
0
100
AcDbLine
10
-0.271
20
2.822351
30
0
11
-0.271
21
-2.822351
31
0
39
0
210
0
220
0
230
1
0
LINE
5
E1
100
AcDbEntity
8
1
62
256
6
ByLayer
370
18
48
1
60
0
100
AcDbLine
10
-0.271
20
5.909159
30
0
11
-0.271
21
3.871132
31
0
39
0
210
0
220
0
230
1
0
LINE
5
E2
100
AcDbEntity
8
1
62
256
6
ByLayer
370
18
48
1
60
0
100
AcDbLine
10
-0.271
20
6.415463
30
0
11
-0.271
21
5.909159
31
0
39
0
210
0
220
0
230
1
0
LINE
5
E3
100
AcDbEntity
8
1
62
256
6
ByLayer
370
18
48
1
60
0
100
AcDbLine
10
-0.271
20
7.664572
30
0
11
-0.271
21
6.415463
31
0
39
0
210
0
220
0
230
1
0
LINE
5
E4
100
AcDbEntity
8
1
62
256
6
ByLayer
370
18
48
1
60
0
100
AcDbLine
10
-0.271
20
8.012844
30
0
11
-0.271
21
7.664572
31
0
39
0
210
0
220
0
230
1
0
LINE
5
E5
100
AcDbEntity
8
1
62
256
6
ByLayer
370
18
48
1
60
0
100
AcDbLine
10
-0.271
20
8.91337
30
0
11
-0.271
21
8.026119
31
0
39
0
210
0
220
0
230
1
0
LINE
5
E6
100
AcDbEntity
8
1
62
256
6
ByLayer
370
18
48
1
60
0
100
AcDbLine
10
-0.271
20
9.172141
30
0
11
-0.271
21
8.91337
31
0
39
0
210
0
220
0
230
1
0
LINE
5
E7
100
AcDbEntity
8
1
62
256
6
ByLayer
370
18
48
1
60
0
100
AcDbLine
10
-0.271
20
9.850161
30
0
11
-0.271
21
9.172141
31
0
39
0
210
0
220
0
230
1
0
LINE
5
E8
100
AcDbEntity
8
1
62
256
6
ByLayer
370
18
48
1
60
0
100
AcDbLine
10
-0.271
20
10.046177
30
0
11
-0.271
21
9.850161
31
0
39
0
210
0
220
0
230
1
0
LINE
5
E9
100
AcDbEntity
8
1
62
256
6
ByLayer
370
18
48
1
60
0
100
AcDbLine
10
-0.271
20
10.558322
30
0
11
-0.271
21
10.046177
31
0
39
0
210
0
220
0
230
1
0
LINE
5
EA
100
AcDbEntity
8
1
62
256
6
ByLayer
370
18
48
1
60
0
100
AcDbLine
10
-0.271
20
10.705053
30
0
11
-0.271
21
10.558322
31
0
39
0
210
0
220
0
230
1
0
LINE
5
EB
100
AcDbEntity
8
1
62
256
6
ByLayer
370
18
48
1
60
0
100
AcDbLine
10
-0.271
20
11.081772
30
0
11
-0.271
21
10.705053
31
0
39
0
210
0
220
0
230
1
0
LINE
5
EC
100
AcDbEntity
8
1
62
256
6
ByLayer
370
18
48
1
60
0
100
AcDbLine
10
-0.271
20
11.186852
30
0
11
-0.271
21
11.081772
31
0
39
0
210
0
220
0
230
1
0
LINE
5
ED
100
AcDbEntity
8
1
62
256
6
ByLayer
370
18
48
1
60
0
100
AcDbLine
10
-0.271
20
11.44588
30
0
11
-0.271
21
11.186852
31
0
39
0
210
0
220
0
230
1
0
LINE
5
EE
100
AcDbEntity
8
1
62
256
6
ByLayer
370
18
48
1
60
0
100
AcDbLine
10
-0.271
20
11.513825
30
0
11
-0.271
21
11.44588
31
0
39
0
210
0
220
0
230
1
0
LINE
5
EF
100
AcDbEntity
8
1
62
256
6
ByLayer
370
18
48
1
60
0
100
AcDbLine
10
-0.271
20
11.665576
30
0
11
-0.271
21
11.513825
31
0
39
0
210
0
220
0
230
1
0
LINE
5
F0
100
AcDbEntity
8
1
62
256
6
ByLayer
370
18
48
1
60
0
100
AcDbLine
10
-0.271
20
11.69896
30
0
11
-0.271
21
11.665576
31
0
39
0
210
0
220
0
230
1
0
LINE
5
F1
100
AcDbEntity
8
1
62
256
6
ByLayer
370
18
48
1
60
0
100
AcDbLine
10
-0.271
20
11.748964
30
0
11
-0.271
21
11.69896
31
0
39
0
210
0
220
0
230
1
0
LINE
5
F2
100
AcDbEntity
8
1
62
256
6
ByLayer
370
18
48
1
60
0
100
AcDbLine
10
-0.271
20
11.75
30
0
11
-0.271
21
11.748964
31
0
39
0
210
0
220
0
230
1
0
LINE
5
F3
100
AcDbEntity
8
1
62
256
6
ByLayer
370
18
48
1
60
0
100
AcDbLine
10
0.268332
20
3.705483
30
0
11
0.268332
21
2.498762
31
0
39
0
210
0
220
0
230
1
0
LINE
5
F4
100
AcDbEntity
8
1
62
256
6
ByLayer
370
18
48
1
60
0
100
AcDbLine
10
0.479
20
12.5
30
0
11
0.479
21
-12.5
31
0
39
0
210
0
220
0
230
1
0
LINE
5
F5
100
AcDbEntity
8
1
62
256
6
ByLayer
370
18
48
1
60
0
100
AcDbLine
10
0.479
20
-12.5
30
0
11
7.695516
21
-12.5
31
0
39
0
210
0
220
0
230
1
0
LINE
5
F6
100
AcDbEntity
8
1
62
256
6
ByLayer
370
18
48
1
60
0
100
AcDbLine
10
7.574086
20
10.314477
30
0
11
7.574086
21
12.5
31
0
39
0
210
0
220
0
230
1
0
LINE
5
F7
100
AcDbEntity
8
1
62
256
6
ByLayer
370
18
48
1
60
0
100
AcDbLine
10
11.040319
20
10.314477
30
0
11
7.574086
21
10.314477
31
0
39
0
210
0
220
0
230
1
0
LINE
5
F8
100
AcDbEntity
8
1
62
256
6
ByLayer
370
18
48
1
60
0
100
AcDbLine
10
7.695516
20
-12.5
30
0
11
7.696776
21
-12.485592
31
0
39
0
210
0
220
0
230
1
0
LINE
5
F9
100
AcDbEntity
8
1
62
256
6
ByLayer
370
18
48
1
60
0
100
AcDbLine
10
8.041858
20
-8.541287
30
0
11
7.696776
21
-12.485592
31
0
39
0
210
0
220
0
230
1
0
LINE
5
FA
100
AcDbEntity
8
1
62
256
6
ByLayer
370
18
48
1
60
0
100
AcDbLine
10
8.041858
20
-8.541287
30
0
11
7.798528
21
-8.519998
31
0
39
0
210
0
220
0
230
1
0
LINE
5
FB
100
AcDbEntity
8
1
62
256
6
ByLayer
370
18
48
1
60
0
100
AcDbLine
10
14.390127
20
16.811926
30
0
11
8.164326
21
17.353303
31
0
39
0
210
0
220
0
230
1
0
LINE
5
FC
100
AcDbEntity
8
1
62
256
6
ByLayer
370
18
48
1
60
0
100
AcDbLine
10
8.18296
20
17.583433
30
0
11
14.697437
21
17.016954
31
0
39
0
210
0
220
0
230
1
0
LINE
5
FD
100
AcDbEntity
8
1
62
256
6
ByLayer
370
18
48
1
60
0
100
AcDbLine
10
8.352423
20
18.347169
30
0
11
23.835133
21
16.999826
31
0
39
0
210
0
220
0
230
1
0
LINE
5
FE
100
AcDbEntity
8
1
62
256
6
ByLayer
370
18
48
1
60
0
100
AcDbLine
10
14.127476
20
14.885854
30
0
11
8.387156
21
14.885854
31
0
39
0
210
0
220
0
230
1
0
LINE
5
FF
100
AcDbEntity
8
1
62
256
6
ByLayer
370
18
48
1
60
0
100
AcDbLine
10
9.384173
20
24.911203
30
0
11
9.388279
21
24.832865
31
0
39
0
210
0
220
0
230
1
0
LINE
5
100
100
AcDbEntity
8
1
62
256
6
ByLayer
370
18
48
1
60
0
100
AcDbLine
10
10.522808
20
24.918577
30
0
11
10.518003
21
25.010255
31
0
39
0
210
0
220
0
230
1
0
LINE
5
101
100
AcDbEntity
8
1
62
256
6
ByLayer
370
18
48
1
60
0
100
AcDbLine
10
10.885882
20
25.558665
30
0
11
10.881536
21
25.641592
31
0
39
0
210
0
220
0
230
1
0
LINE
5
102
100
AcDbEntity
8
1
62
256
6
ByLayer
370
18
48
1
60
0
100
AcDbLine
10
11.219753
20
26.225964
30
0
11
11.214949
21
26.317642
31
0
39
0
210
0
220
0
230
1
0
LINE
5
103
100
AcDbEntity
8
1
62
256
6
ByLayer
370
18
48
1
60
0
100
AcDbLine
10
11.316398
20
23.722088
30
0
11
11.311706
21
23.811615
31
0
39
0
210
0
220
0
230
1
0
LINE
5
104
100
AcDbEntity
8
1
62
256
6
ByLayer
370
18
48
1
60
0
100
AcDbLine
10
12.163424
20
26.444797
30
0
11
12.15862
21
26.536475
31
0
39
0
210
0
220
0
230
1
0
LINE
5
105
100
AcDbEntity
8
1
62
256
6
ByLayer
370
18
48
1
60
0
100
AcDbLine
10
12.698455
20
26.30445
30
0
11
12.703147
21
26.214922
31
0
39
0
210
0
220
0
230
1
0
LINE
5
106
100
AcDbEntity
8
1
62
256
6
ByLayer
370
18
48
1
60
0
100
AcDbLine
10
12.829187
20
25.928568
30
0
11
12.833399
21
25.848204
31
0
39
0
210
0
220
0
230
1
0
LINE
5
107
100
AcDbEntity
8
1
62
256
6
ByLayer
370
18
48
1
60
0
100
AcDbLine
10
12.946897
20
25.726785
30
0
11
12.942685
21
25.807149
31
0
39
0
210
0
220
0
230
1
0
LINE
5
108
100
AcDbEntity
8
1
62
256
6
ByLayer
370
18
48
1
60
0
100
AcDbLine
10
13.129317
20
24.461272
30
0
11
13.133663
21
24.378345
31
0
39
0
210
0
220
0
230
1
0
LINE
5
109
100
AcDbEntity
8
1
62
256
6
ByLayer
370
18
48
1
60
0
100
AcDbLine
10
13.368199
20
25.566777
30
0
11
13.3634
21
25.658334
31
0
39
0
210
0
220
0
230
1
0
LINE
5
10A
100
AcDbEntity
8
1
62
256
6
ByLayer
370
18
48
1
60
0
100
AcDbLine
10
14.265302
20
0.428879
30
0
11
13.48499
21
1.054269
31
0
39
0
210
0
220
0
230
1
0
LINE
5
10B
100
AcDbEntity
8
1
62
256
6
ByLayer
370
18
48
1
60
0
100
AcDbLine
10
14.127476
20
14.885854
30
0
11
14.390127
21
16.811926
31
0
39
0
210
0
220
0
230
1
0
LINE
5
10C
100
AcDbEntity
8
1
62
256
6
ByLayer
370
18
48
1
60
0
100
AcDbLine
10
14.697437
20
17.016954
30
0
11
14.390127
21
16.811926
31
0
39
0
210
0
220
0
230
1
0
LINE
5
10D
100
AcDbEntity
8
1
62
256
6
ByLayer
370
18
48
1
60
0
100
AcDbLine
10
14.697437
20
17.016954
30
0
11
15.922474
21
16.832848
31
0
39
0
210
0
220
0
230
1
0
LINE
5
10E
100
AcDbEntity
8
1
62
256
6
ByLayer
370
18
48
1
60
0
100
AcDbLine
10
17.655153
20
21.09558
30
0
11
17.663184
21
20.942326
31
0
39
0
210
0
220
0
230
1
0
LINE
5
10F
100
AcDbEntity
8
1
62
256
6
ByLayer
370
18
48
1
60
0
100
AcDbLine
10
17.664416
20
21.698196
30
0
11
17.678235
21
21.454883
31
0
39
0
210
0
220
0
230
1
0
LINE
5
110
100
AcDbEntity
8
1
62
256
6
ByLayer
370
18
48
1
60
0
100
AcDbLine
10
17.672448
20
21.544942
30
0
11
17.664416
21
21.698196
31
0
39
0
210
0
220
0
230
1
0
LINE
5
111
100
AcDbEntity
8
1
62
256
6
ByLayer
370
18
48
1
60
0
100
AcDbLine
10
17.809083
20
21.800731
30
0
11
17.664416
21
21.698196
31
0
39
0
210
0
220
0
230
1
0
LINE
5
112
100
AcDbEntity
8
1
62
256
6
ByLayer
370
18
48
1
60
0
100
AcDbLine
10
17.672448
20
21.544942
30
0
11
17.680103
21
21.410156
31
0
39
0
210
0
220
0
230
1
0
LINE
5
113
100
AcDbEntity
8
1
62
256
6
ByLayer
370
18
48
1
60
0
100
AcDbLine
10
17.822902
20
21.557418
30
0
11
17.678235
21
21.454883
31
0
39
0
210
0
220
0
230
1
0
LINE
5
114
100
AcDbEntity
8
1
62
256
6
ByLayer
370
18
48
1
60
0
100
AcDbLine
10
17.822902
20
21.557418
30
0
11
17.809083
21
21.800731
31
0
39
0
210
0
220
0
230
1
0
LINE
5
115
100
AcDbEntity
8
1
62
256
6
ByLayer
370
18
48
1
60
0
100
AcDbLine
10
23.835133
20
16.999826
30
0
11
23.843808
21
16.834306
31
0
39
0
210
0
220
0
230
1
0
LINE
5
116
100
AcDbEntity
8
1
62
256
6
ByLayer
370
18
48
1
60
0
100
AcDbLine
10
23.991929
20
14.007993
30
0
11
23.843808
21
16.834306
31
0
39
0
210
0
220
0
230
1
0
LINE
5
117
100
AcDbEntity
8
SK1
62
256
6
ByLayer
370
18
48
1
60
0
100
AcDbLine
10
-4.071
20
0
30
0
11
-4.071
21
2.866025
31
0
39
0
210
0
220
0
230
1
0
LINE
5
118
100
AcDbEntity
8
SK1
62
256
6
ByLayer
370
18
48
1
60
0
100
AcDbLine
10
-4.071
20
-2.866025
30
0
11
-4.071
21
0
31
0
39
0
210
0
220
0
230
1
0
LINE
5
119
100
AcDbEntity
8
1
62
256
6
ByLayer
370
18
48
1
60
0
100
AcDbLine
10
0.268332
20
-12.120072
30
0
11
0.268332
21
-12.168742
31
0
39
0
210
0
220
0
230
1
0
LINE
5
11A
100
AcDbEntity
8
1
62
256
6
ByLayer
370
18
48
1
60
0
100
AcDbLine
10
0.268332
20
-11.842808
30
0
11
0.268332
21
-11.9257
31
0
39
0
210
0
220
0
230
1
0
LINE
5
11B
100
AcDbEntity
8
1
62
256
6
ByLayer
370
18
48
1
60
0
100
AcDbLine
10
0.268332
20
-11.422918
30
0
11
0.268332
21
-11.543022
31
0
39
0
210
0
220
0
230
1
0
LINE
5
11C
100
AcDbEntity
8
1
62
256
6
ByLayer
370
18
48
1
60
0
100
AcDbLine
10
0.268332
20
-10.843847
30
0
11
0.268332
21
-11.006153
31
0
39
0
210
0
220
0
230
1
0
LINE
5
11D
100
AcDbEntity
8
1
62
256
6
ByLayer
370
18
48
1
60
0
100
AcDbLine
10
0.268332
20
-10.078193
30
0
11
0.268332
21
-10.290988
31
0
39
0
210
0
220
0
230
1
0
LINE
5
11E
100
AcDbEntity
8
1
62
256
6
ByLayer
370
18
48
1
60
0
100
AcDbLine
10
0.268332
20
-9.078873
30
0
11
0.268332
21
-9.356734
31
0
39
0
210
0
220
0
230
1
0
LINE
5
11F
100
AcDbEntity
8
1
62
256
6
ByLayer
370
18
48
1
60
0
100
AcDbLine
10
0.268332
20
-7.756088
30
0
11
0.268332
21
-8.128193
31
0
39
0
210
0
220
0
230
1
0
LINE
5
120
100
AcDbEntity
8
1
62
256
6
ByLayer
370
18
48
1
60
0
100
AcDbLine
10
0.268332
20
-5.896003
30
0
11
0.268332
21
-6.439065
31
0
39
0
210
0
220
0
230
1
0
LINE
5
121
100
AcDbEntity
8
1
62
256
6
ByLayer
370
18
48
1
60
0
100
AcDbLine
10
-0.271
20
3.871132
30
0
11
-0.271
21
2.822351
31
0
39
0
210
0
220
0
230
1
0
LINE
5
122
100
AcDbEntity
8
1
62
256
6
ByLayer
370
18
48
1
60
0
100
AcDbLine
10
0.268332
20
5.896003
30
0
11
0.268332
21
6.439065
31
0
39
0
210
0
220
0
230
1
0
LINE
5
123
100
AcDbEntity
8
1
62
256
6
ByLayer
370
18
48
1
60
0
100
AcDbLine
10
0.268332
20
8.128193
30
0
11
0.268332
21
7.756088
31
0
39
0
210
0
220
0
230
1
0
LINE
5
124
100
AcDbEntity
8
1
62
256
6
ByLayer
370
18
48
1
60
0
100
AcDbLine
10
0.268332
20
9.356734
30
0
11
0.268332
21
9.078873
31
0
39
0
210
0
220
0
230
1
0
LINE
5
125
100
AcDbEntity
8
1
62
256
6
ByLayer
370
18
48
1
60
0
100
AcDbLine
10
0.268332
20
10.290988
30
0
11
0.268332
21
10.078193
31
0
39
0
210
0
220
0
230
1
0
LINE
5
126
100
AcDbEntity
8
1
62
256
6
ByLayer
370
18
48
1
60
0
100
AcDbLine
10
0.268332
20
11.006153
30
0
11
0.268332
21
10.843847
31
0
39
0
210
0
220
0
230
1
0
LINE
5
127
100
AcDbEntity
8
1
62
256
6
ByLayer
370
18
48
1
60
0
100
AcDbLine
10
0.268332
20
11.543022
30
0
11
0.268332
21
11.422918
31
0
39
0
210
0
220
0
230
1
0
LINE
5
128
100
AcDbEntity
8
1
62
256
6
ByLayer
370
18
48
1
60
0
100
AcDbLine
10
0.268332
20
11.9257
30
0
11
0.268332
21
11.842808
31
0
39
0
210
0
220
0
230
1
0
LINE
5
129
100
AcDbEntity
8
1
62
256
6
ByLayer
370
18
48
1
60
0
100
AcDbLine
10
0.268332
20
12.168742
30
0
11
0.268332
21
12.120072
31
0
39
0
210
0
220
0
230
1
0
LINE
5
12A
100
AcDbEntity
8
1
62
256
6
ByLayer
370
18
48
1
60
0
100
AcDbLine
10
0.479
20
12.5
30
0
11
-0.271
21
11.75
31
0
39
0
210
0
220
0
230
1
0
LINE
5
12B
100
AcDbEntity
8
1
62
256
6
ByLayer
370
18
48
1
60
0
100
AcDbLine
10
7.574086
20
12.5
30
0
11
0.479
21
12.5
31
0
39
0
210
0
220
0
230
1
0
LINE
5
12C
100
AcDbEntity
8
1
62
256
6
ByLayer
370
18
48
1
60
0
100
AcDbLine
10
0.268332
20
-2.498762
30
0
11
0.268332
21
-3.705483
31
0
39
0
210
0
220
0
230
1
0
LINE
5
12D
100
AcDbEntity
8
1
62
256
6
ByLayer
370
18
48
1
60
0
100
AcDbLine
10
7.001083
20
29.541374
30
0
11
7.421854
21
21.512584
31
0
39
0
210
0
220
0
230
1
0
LINE
5
12E
100
AcDbEntity
8
1
62
256
6
ByLayer
370
18
48
1
60
0
100
AcDbLine
10
15.890047
20
29.390314
30
0
11
7.890859
21
30.369108
31
0
39
0
210
0
220
0
230
1
0
LINE
5
12F
100
AcDbEntity
8
1
62
256
6
ByLayer
370
18
48
1
60
0
100
AcDbLine
10
17.006866
20
20.616899
30
0
11
16.586095
21
28.645689
31
0
39
0
210
0
220
0
230
1
0
LINE
5
130
100
AcDbEntity
8
1
62
256
6
ByLayer
370
18
48
1
60
0
100
AcDbLine
10
8.117902
20
20.767959
30
0
11
16.117091
21
19.789165
31
0
39
0
210
0
220
0
230
1
0
LINE
5
131
100
AcDbEntity
8
1
62
256
6
ByLayer
370
18
48
1
60
0
100
AcDbLine
10
7.8
20
-8.503175
30
0
11
7.455848
21
-12.436852
31
0
39
0
210
0
220
0
230
1
0
LINE
5
132
100
AcDbEntity
8
1
62
256
6
ByLayer
370
18
48
1
60
0
100
AcDbLine
10
8.357162
20
18.999461
30
0
11
8.265425
21
20.749908
31
0
39
0
210
0
220
0
230
1
0
LINE
5
133
100
AcDbEntity
8
1
62
256
6
ByLayer
370
18
48
1
60
0
100
AcDbLine
10
14.626978
20
25.185966
30
0
11
14.631084
21
25.107629
31
0
39
0
210
0
220
0
230
1
0
LINE
5
134
100
AcDbEntity
8
1
62
256
6
ByLayer
370
18
48
1
60
0
100
AcDbLine
10
13.212084
20
24.09459
30
0
11
13.207279
21
24.186268
31
0
39
0
210
0
220
0
230
1
0
LINE
5
135
100
AcDbEntity
8
1
62
256
6
ByLayer
370
18
48
1
60
0
100
AcDbLine
10
23.3202
20
26.825336
30
0
11
23.835133
21
16.999826
31
0
39
0
210
0
220
0
230
1
0
LINE
5
136
100
AcDbEntity
8
1
62
256
6
ByLayer
370
18
48
1
60
0
100
AcDbLine
10
16.595389
20
28.468362
30
0
11
22.011592
21
27.805626
31
0
39
0
210
0
220
0
230
1
0
LINE
5
137
100
AcDbEntity
8
4
62
256
6
ByLayer
370
18
48
0.05
60
0
100
AcDbLine
10
0
20
0
30
0
11
7
21
0
31
0
39
0
210
0
220
0
230
1
0
LINE
5
139
100
AcDbEntity
8
SK4
62
256
6
ByLayer
370
18
48
0.05
60
0
100
AcDbLine
10
-5
20
0
30
0
11
29
21
0
31
0
39
0
210
0
220
0
230
1
0
LINE
5
13B
100
AcDbEntity
8
80
62
256
6
ByLayer
370
18
48
1
60
0
100
AcDbLine
10
0
20
0
30
0
11
-0.7
21
0
31
0
39
0
210
0
220
0
230
1
0
LINE
5
13C
100
AcDbEntity
8
81
62
256
6
ByLayer
370
18
48
1
60
0
100
AcDbLine
10
7
20
30.5
30
0
11
6.3
21
30.5
31
0
39
0
210
0
220
0
230
1
0
MTEXT
5
2F4
100
AcDbEntity
8
SK6
62
256
6
ByLayer
370
13
48
1
60
0
100
AcDbMText
10
-17.741863
20
53.797991
30
0
210
0
220
0
230
1
1
\W0.7428;SL-SCUCR-25-09-18X
40
3.175
41
0
44
1.084337
50
0
71
7
72
5
7
iso_b_vert
0
DIMENSION
5
303
100
AcDbEntity
8
2L
62
256
6
ByLayer
370
13
48
1
60
0
100
AcDbDimension
2
DimnDraft3D1
10
-14.19884
20
12.5
30
0
11
-13.40509
21
1.278355
31
0
70
33
71
5
72
1
41
1
210
0
220
0
230
1
3
Standard
100
AcDbAlignedDimension
13
-1.1085
23
-12.5
33
0
14
-1.1085
24
12.5
34
0
1001
ACAD
1000
DSTYLE
1002
{
1070
   279
1070
     0
1070
    74
1070
     0
1070
   173
1070
     1
1070
   340
1005
2F5
1070
   271
1070
     1
1070
   272
1070
     2
1070
    77
1070
     1
1070
    73
1070
     0
1070
   171
1070
     3
1070
   274
1070
     4
1070
   177
1070
     7
1070
   176
1070
     7
1070
   178
1070
     7
1070
    78
1070
     8
1070
    48
1040
-0.005
1070
    41
1041
3.175
1070
   147
1041
1.5875
1070
    42
1041
1.5875
1070
    44
1041
3.175
1070
   140
1041
3.175
1070
   343
1005
0
1070
   344
1005
0
1002
}
0
DIMENSION
5
30D
100
AcDbEntity
8
2L
62
256
6
ByLayer
370
13
48
1
60
0
100
AcDbDimension
2
DimnDraft3D2
10
23.991929
20
-23.060128
30
0
11
9.932214
21
-23.060128
31
0
70
32
71
5
72
1
41
1
210
0
220
0
230
1
3
Standard
100
AcDbAlignedDimension
13
0
23
-1.5875
33
0
14
23.991929
24
12.420493
34
0
50
0
100
AcDbRotatedDimension
1001
ACAD
1000
DSTYLE
1002
{
1070
   279
1070
     0
1070
   173
1070
     1
1070
   340
1005
2F5
1070
   271
1070
     1
1070
   272
1070
     2
1070
    77
1070
     1
1070
    73
1070
     0
1070
   171
1070
     3
1070
   274
1070
     4
1070
   177
1070
     7
1070
   176
1070
     7
1070
   178
1070
     7
1070
    78
1070
     8
1070
    48
1040
-0.005
1070
    41
1041
3.175
1070
   147
1041
1.5875
1070
    42
1041
1.5875
1070
    44
1041
3.175
1070
   140
1041
3.175
1070
   343
1005
0
1070
   344
1005
0
1002
}
0
DIMENSION
5
317
100
AcDbEntity
8
2L
62
256
6
ByLayer
370
13
48
1
60
0
100
AcDbDimension
2
DimnDraft3D3
10
37.81518
20
30.5
30
0
11
37.81518
21
11.607105
31
0
70
32
71
5
72
1
41
1
210
0
220
0
230
1
3
Standard
100
AcDbAlignedDimension
13
30.5875
23
0
33
0
14
8.5875
24
30.5
34
0
50
90
100
AcDbRotatedDimension
1001
ACAD
1000
DSTYLE
1002
{
1070
    74
1070
     0
1070
   279
1070
     0
1070
   173
1070
     1
1070
   340
1005
2F5
1070
   271
1070
     1
1070
   272
1070
     2
1070
    77
1070
     1
1070
    73
1070
     0
1070
   171
1070
     3
1070
   274
1070
     4
1070
   177
1070
     7
1070
   176
1070
     7
1070
   178
1070
     7
1070
    78
1070
     8
1070
    48
1040
-0.005
1070
    41
1041
3.175
1070
   147
1041
1.5875
1070
    42
1041
1.5875
1070
    44
1041
3.175
1070
   140
1041
3.175
1070
   343
1005
0
1070
   344
1005
0
1002
}
0
DIMENSION
5
321
100
AcDbEntity
8
2L
62
256
6
ByLayer
370
13
48
1
60
0
100
AcDbDimension
2
DimnDraft3D4
10
7
20
36.925679
30
0
11
-6.061165
21
36.925679
31
0
70
32
71
5
72
1
41
1
210
0
220
0
230
1
3
Standard
100
AcDbAlignedDimension
13
0
23
1.5875
33
0
14
7
24
32.0875
34
0
50
0
100
AcDbRotatedDimension
1001
ACAD
1000
DSTYLE
1002
{
1070
   279
1070
     0
1070
   173
1070
     1
1070
   340
1005
2F5
1070
   271
1070
     1
1070
   272
1070
     2
1070
    77
1070
     1
1070
    73
1070
     0
1070
   171
1070
     3
1070
   274
1070
     4
1070
   177
1070
     7
1070
   176
1070
     7
1070
   178
1070
     7
1070
    78
1070
     8
1070
    48
1040
-0.005
1070
    41
1041
3.175
1070
   147
1041
1.5875
1070
    42
1041
1.5875
1070
    44
1041
3.175
1070
   140
1041
3.175
1070
   343
1005
0
1070
   344
1005
0
1002
}
0
ENDSEC
0
SECTION
2
OBJECTS
0
DICTIONARY
5
38c
330
0
100
AcDbDictionary
280
0
281
1
3
ACAD_GROUP
350
38d
3
ACAD_MLINESTYLE
350
38e
0
DICTIONARY
5
38d
330
0
100
AcDbDictionary
280
0
281
1
0
DICTIONARY
5
38e
330
0
100
AcDbDictionary
280
0
281
1
3
Standard
350
18
0
MLINESTYLE
5
18
330
38e
100
AcDbMlineStyle
2
Standard
70
0
3

62
256
51
90
52
90
71
2
49
-0.5
62
256
6
ByLayer
49
0.5
62
256
6
ByLayer
0
RASTERVARIABLES
5
37a
330

100
AcDbRasterVariables
90
0
70
1
71
1
72
1
0
ENDSEC
0
EOF
