0
SECTION
2
HEADER
9
$ACADVER
1
AC1015
9
$DWGCODEPAGE
3
ANSI_1252
9
$HANDSEED
5
344
9
$ANGBASE
50
0
9
$ANGDIR
70
0
9
$ATTMODE
70
1
9
$AUNITS
70
0
9
$AUPREC
70
0
9
$CECOLOR
62
256
9
$CELTSCALE
40
1
9
$CELTYPE
6
ByLayer
9
$CELWEIGHT
370
18
9
$CLAYER
8
0
9
$CMLJUST
70
0
9
$CMLSCALE
40
1
9
$CMLSTYLE
2
Standard
9
$DIMSTYLE
2
Standard
9
$TEXTSIZE
40
0.2
9
$TEXTSTYLE
7
Standard
9
$LUNITS
70
2
9
$LUPREC
70
4
9
$EXTNAMES
290
1
9
$INSUNITS
70
4
9
$LTSCALE
40
1
9
$LWDISPLAY
290
1
9
$PDMODE
70
0
9
$PDSIZE
40
0
9
$PLINEGEN
70
0
0
ENDSEC
0
SECTION
2
CLASSES
0
CLASS
1
RASTERVARIABLES
2
AcDbRasterVariables
3
ISM
90
0
280
0
281
0
0
ENDSEC
0
SECTION
2
TABLES
0
TABLE
2
VPORT
5
33a
100
AcDbSymbolTable
0
VPORT
5
1
100
AcDbSymbolTableRecord
100
AcDbViewportTableRecord
2
*Active
70
0
10
0
20
0
11
1
21
1
12
-1
22
1
13
0
23
0
14
0.5
24
0.5
15
10
25
10
16
0
26
0
36
1
17
0
27
0
37
0
0
ENDTAB
0
TABLE
2
LTYPE
5
33b
100
AcDbSymbolTable
0
LTYPE
5
14
100
AcDbSymbolTableRecord
100
AcDbLinetypeTableRecord
70
0
2
ByBlock
3

72
65
73
0
40
0
0
LTYPE
5
15
100
AcDbSymbolTableRecord
100
AcDbLinetypeTableRecord
70
0
2
ByLayer
3

72
65
73
0
40
0
0
LTYPE
5
16
100
AcDbSymbolTableRecord
100
AcDbLinetypeTableRecord
70
0
2
CONTINUOUS
3
Solid line
72
65
73
0
40
0
0
LTYPE
5
6A
100
AcDbSymbolTableRecord
100
AcDbLinetypeTableRecord
70
0
2
CENTER
3
____ _ ____ _ ____ _ ____
72
65
73
4
40
47.5
49
22
74
0
49
-8.5
74
0
49
8.5
74
0
49
-8.5
74
0
0
LTYPE
5
6B
100
AcDbSymbolTableRecord
100
AcDbLinetypeTableRecord
70
0
2
DASHED
3
__ __ __ __ __ __ __ __ __
72
65
73
2
40
25.72
49
12.86
74
0
49
-12.86
74
0
0
ENDTAB
0
TABLE
2
LAYER
5
33c
100
AcDbSymbolTable
0
LAYER
5
10
100
AcDbSymbolTableRecord
100
AcDbLayerTableRecord
2
0
70
0
62
7
6
CONTINUOUS
290
1
370
-3
390
0
0
LAYER
5
6D
100
AcDbSymbolTableRecord
100
AcDbLayerTableRecord
2
81
70
0
62
-3
6
CONTINUOUS
290
1
370
-3
390
0
0
LAYER
5
6F
100
AcDbSymbolTableRecord
100
AcDbLayerTableRecord
2
80
70
0
62
-6
6
CONTINUOUS
290
1
370
-3
390
0
0
LAYER
5
73
100
AcDbSymbolTableRecord
100
AcDbLayerTableRecord
2
1
70
0
62
4
6
CONTINUOUS
290
1
370
-3
390
0
0
LAYER
5
2A6
100
AcDbSymbolTableRecord
100
AcDbLayerTableRecord
2
2
70
0
62
7
6
CONTINUOUS
290
1
370
-3
390
0
0
LAYER
5
328
100
AcDbSymbolTableRecord
100
AcDbLayerTableRecord
2
SK6
70
0
62
5
6
CONTINUOUS
290
1
370
-3
390
0
0
LAYER
5
329
100
AcDbSymbolTableRecord
100
AcDbLayerTableRecord
2
SK2
70
0
62
7
6
CONTINUOUS
290
1
370
-3
390
0
0
ENDTAB
0
TABLE
2
STYLE
5
33d
100
AcDbSymbolTable
0
STYLE
5
11
100
AcDbSymbolTableRecord
100
AcDbTextStyleTableRecord
2
Standard
3
txt
70
0
71
0
40
0
41
1
42
0
50
0
0
STYLE
5
28B
100
AcDbSymbolTableRecord
100
AcDbTextStyleTableRecord
2
iso_b_vert
3
simplex.shx
70
0
71
0
40
0
41
1
42
0
50
0
0
STYLE
5
28C
100
AcDbSymbolTableRecord
100
AcDbTextStyleTableRecord
2
DWGDirectTextStyle
3
simplex
70
0
71
0
40
0
41
1
42
0
50
0
0
ENDTAB
0
TABLE
2
DIMSTYLE
5
33e
100
AcDbSymbolTable
100
AcDbDimStyleTable
0
DIMSTYLE
105
27
100
AcDbSymbolTableRecord
100
AcDbDimStyleTableRecord
2
Standard
70
0
3
<>
41
0.18
42
0.0625
44
0.18
140
0.18
147
0.09
73
0
74
0
77
1
271
2
275
0
278
52
280
0
340
11
0
ENDTAB
0
TABLE
2
VIEW
5
33f
100
AcDbSymbolTable
0
ENDTAB
0
TABLE
2
UCS
5
340
100
AcDbSymbolTable
0
ENDTAB
0
TABLE
2
APPID
5
341
100
AcDbSymbolTable
0
APPID
5
12
100
AcDbSymbolTableRecord
100
AcDbRegAppTableRecord
2
ACAD
70
0
0
ENDTAB
0
TABLE
2
BLOCK_RECORD
5
342
100
AcDbSymbolTable
0
BLOCK_RECORD
5
1F
100
AcDbSymbolTableRecord
100
AcDbBlockTableRecord
2
*Model_Space
340
0
70
0
0
BLOCK_RECORD
5
1B
100
AcDbSymbolTableRecord
100
AcDbBlockTableRecord
2
*Paper_Space
340
0
70
0
0
BLOCK_RECORD
5
23
100
AcDbSymbolTableRecord
100
AcDbBlockTableRecord
2
*Paper_Space0
340
0
70
0
0
BLOCK_RECORD
5
28E
100
AcDbSymbolTableRecord
100
AcDbBlockTableRecord
2
DimnDraft3D1
340
0
70
0
0
BLOCK_RECORD
5
29D
100
AcDbSymbolTableRecord
100
AcDbBlockTableRecord
2
_CLOSED
340
0
70
0
0
BLOCK_RECORD
5
2A4
100
AcDbSymbolTableRecord
100
AcDbBlockTableRecord
2
DimnDraft3D2
340
0
70
0
0
BLOCK_RECORD
5
2B3
100
AcDbSymbolTableRecord
100
AcDbBlockTableRecord
2
DimnDraft3D3
340
0
70
0
0
BLOCK_RECORD
5
2C1
100
AcDbSymbolTableRecord
100
AcDbBlockTableRecord
2
DimnDraft3D4
340
0
70
0
0
ENDTAB
0
ENDSEC
0
SECTION
2
BLOCKS
0
BLOCK
5
20
100
AcDbEntity
8
0
100
AcDbBlockBegin
2
*Model_Space
70
0
10
0
20
0
30
0
3
*Model_Space
0
ENDBLK
5
21
100
AcDbEntity
8
0
100
AcDbBlockEnd
0
BLOCK
5
1C
100
AcDbEntity
8
0
100
AcDbBlockBegin
2
*Paper_Space
70
0
10
0
20
0
30
0
3
*Paper_Space
0
ENDBLK
5
1D
100
AcDbEntity
8
0
100
AcDbBlockEnd
0
BLOCK
5
24
100
AcDbEntity
8
0
100
AcDbBlockBegin
2
*Paper_Space0
70
0
10
0
20
0
30
0
3
*Paper_Space0
0
ENDBLK
5
25
100
AcDbEntity
8
0
100
AcDbBlockEnd
0
BLOCK
5
29A
100
AcDbEntity
8
0
100
AcDbBlockBegin
2
DimnDraft3D1
70
0
10
0
20
0
30
0
3
DimnDraft3D1
0
MTEXT
5
28F
100
AcDbEntity
8
SK2
62
256
6
ByLayer
370
18
48
1
60
0
100
AcDbMText
10
14.782895
20
24.558524
30
0
210
0
220
0
230
1
1
\W0.7528;36.4
40
3.5
41
0
44
1.084337
50
0
71
7
72
5
7
iso_b_vert
0
LINE
5
291
100
AcDbEntity
8
SK2
62
256
6
ByLayer
370
13
48
1
60
0
100
AcDbLine
10
0
20
2
30
0
11
0
21
25.683524
31
0
39
0
210
0
220
0
230
1
0
LINE
5
292
100
AcDbEntity
8
SK2
62
256
6
ByLayer
370
13
48
1
60
0
100
AcDbLine
10
36.4
20
-7
30
0
11
36.4
21
25.683524
31
0
39
0
210
0
220
0
230
1
0
LINE
5
293
100
AcDbEntity
8
SK2
62
256
6
ByLayer
370
13
48
1
60
0
100
AcDbLine
10
0
20
23.683524
30
0
11
36.4
21
23.683524
31
0
39
0
210
0
220
0
230
1
0
LINE
5
294
100
AcDbEntity
8
SK2
62
256
6
ByLayer
370
13
48
1
60
0
100
AcDbLine
10
0
20
23.683524
30
0
11
3.174998
21
24.10152
31
0
39
0
210
0
220
0
230
1
0
LINE
5
295
100
AcDbEntity
8
SK2
62
256
6
ByLayer
370
13
48
1
60
0
100
AcDbLine
10
0
20
23.683524
30
0
11
3.175002
21
23.265527
31
0
39
0
210
0
220
0
230
1
0
LINE
5
296
100
AcDbEntity
8
SK2
62
256
6
ByLayer
370
13
48
1
60
0
100
AcDbLine
10
3.174998
20
24.10152
30
0
11
3.175002
21
23.265527
31
0
39
0
210
0
220
0
230
1
0
LINE
5
297
100
AcDbEntity
8
SK2
62
256
6
ByLayer
370
13
48
1
60
0
100
AcDbLine
10
36.4
20
23.683524
30
0
11
33.225002
21
23.265527
31
0
39
0
210
0
220
0
230
1
0
LINE
5
298
100
AcDbEntity
8
SK2
62
256
6
ByLayer
370
13
48
1
60
0
100
AcDbLine
10
36.4
20
23.683524
30
0
11
33.224998
21
24.10152
31
0
39
0
210
0
220
0
230
1
0
LINE
5
299
100
AcDbEntity
8
SK2
62
256
6
ByLayer
370
13
48
1
60
0
100
AcDbLine
10
33.225002
20
23.265527
30
0
11
33.224998
21
24.10152
31
0
39
0
210
0
220
0
230
1
0
ENDBLK
5
29B
100
AcDbEntity
8
0
100
AcDbBlockEnd
0
BLOCK
5
29E
100
AcDbEntity
8
0
100
AcDbBlockBegin
2
_CLOSED
70
0
10
0
20
0
30
0
3
_CLOSED
0
LINE
5
2A0
100
AcDbEntity
8
0
62
256
6
ByLayer
370
-2
48
1
60
0
100
AcDbLine
10
-1
20
0.166667
30
0
11
0
21
0
31
0
39
0
210
0
220
0
230
1
0
LINE
5
2A1
100
AcDbEntity
8
0
62
256
6
ByLayer
370
-2
48
1
60
0
100
AcDbLine
10
0
20
0
30
0
11
-1
21
-0.166667
31
0
39
0
210
0
220
0
230
1
0
LINE
5
2A2
100
AcDbEntity
8
0
62
256
6
ByLayer
370
-2
48
1
60
0
100
AcDbLine
10
-1
20
0.166667
30
0
11
-1
21
-0.166667
31
0
39
0
210
0
220
0
230
1
0
LINE
5
2A3
100
AcDbEntity
8
0
62
256
6
ByLayer
370
-2
48
1
60
0
100
AcDbLine
10
0
20
0
30
0
11
-1
21
0
31
0
39
0
210
0
220
0
230
1
0
ENDBLK
5
29F
100
AcDbEntity
8
0
100
AcDbBlockEnd
0
BLOCK
5
2B0
100
AcDbEntity
8
0
100
AcDbBlockBegin
2
DimnDraft3D2
70
0
10
0
20
0
30
0
3
DimnDraft3D2
0
MTEXT
5
2A5
100
AcDbEntity
8
2
62
256
6
ByLayer
370
18
48
1
60
0
100
AcDbMText
10
24.184211
20
-21.233569
30
0
210
0
220
0
230
1
1
\W0.6740;22
40
3.5
41
0
44
1.084337
50
0
71
7
72
5
7
iso_b_vert
0
LINE
5
2A7
100
AcDbEntity
8
2
62
256
6
ByLayer
370
13
48
1
60
0
100
AcDbLine
10
36.4
20
-11
30
0
11
36.4
21
-24.108569
31
0
39
0
210
0
220
0
230
1
0
LINE
5
2A8
100
AcDbEntity
8
2
62
256
6
ByLayer
370
13
48
1
60
0
100
AcDbLine
10
14.4
20
-2
30
0
11
14.4
21
-24.108569
31
0
39
0
210
0
220
0
230
1
0
LINE
5
2A9
100
AcDbEntity
8
2
62
256
6
ByLayer
370
13
48
1
60
0
100
AcDbLine
10
36.4
20
-22.108569
30
0
11
14.4
21
-22.108569
31
0
39
0
210
0
220
0
230
1
0
LINE
5
2AA
100
AcDbEntity
8
2
62
256
6
ByLayer
370
13
48
1
60
0
100
AcDbLine
10
36.4
20
-22.108569
30
0
11
33.225002
21
-22.526566
31
0
39
0
210
0
220
0
230
1
0
LINE
5
2AB
100
AcDbEntity
8
2
62
256
6
ByLayer
370
13
48
1
60
0
100
AcDbLine
10
36.4
20
-22.108569
30
0
11
33.224998
21
-21.690573
31
0
39
0
210
0
220
0
230
1
0
LINE
5
2AC
100
AcDbEntity
8
2
62
256
6
ByLayer
370
13
48
1
60
0
100
AcDbLine
10
33.225002
20
-22.526566
30
0
11
33.224998
21
-21.690573
31
0
39
0
210
0
220
0
230
1
0
LINE
5
2AD
100
AcDbEntity
8
2
62
256
6
ByLayer
370
13
48
1
60
0
100
AcDbLine
10
14.4
20
-22.108569
30
0
11
17.574998
21
-21.690573
31
0
39
0
210
0
220
0
230
1
0
LINE
5
2AE
100
AcDbEntity
8
2
62
256
6
ByLayer
370
13
48
1
60
0
100
AcDbLine
10
14.4
20
-22.108569
30
0
11
17.575002
21
-22.526566
31
0
39
0
210
0
220
0
230
1
0
LINE
5
2AF
100
AcDbEntity
8
2
62
256
6
ByLayer
370
13
48
1
60
0
100
AcDbLine
10
17.574998
20
-21.690573
30
0
11
17.575002
21
-22.526566
31
0
39
0
210
0
220
0
230
1
0
ENDBLK
5
2B1
100
AcDbEntity
8
0
100
AcDbBlockEnd
0
BLOCK
5
2BE
100
AcDbEntity
8
0
100
AcDbBlockBegin
2
DimnDraft3D3
70
0
10
0
20
0
30
0
3
DimnDraft3D3
0
MTEXT
5
2B4
100
AcDbEntity
8
2
62
256
6
ByLayer
370
18
48
1
60
0
100
AcDbMText
10
60.625
20
-4.407895
30
0
210
0
220
0
230
1
1
\W0.5742;9
40
3.5
41
0
44
1.084337
50
90
71
7
72
5
7
iso_b_vert
0
LINE
5
2B5
100
AcDbEntity
8
2
62
256
6
ByLayer
370
13
48
1
60
0
100
AcDbLine
10
29.4
20
0
30
0
11
63.5
21
0
31
0
39
0
210
0
220
0
230
1
0
LINE
5
2B6
100
AcDbEntity
8
2
62
256
6
ByLayer
370
13
48
1
60
0
100
AcDbLine
10
38.4
20
-9
30
0
11
63.5
21
-9
31
0
39
0
210
0
220
0
230
1
0
LINE
5
2B7
100
AcDbEntity
8
2
62
256
6
ByLayer
370
13
48
1
60
0
100
AcDbLine
10
61.5
20
8.75
30
0
11
61.5
21
-17.75
31
0
39
0
210
0
220
0
230
1
0
LINE
5
2B8
100
AcDbEntity
8
2
62
256
6
ByLayer
370
13
48
1
60
0
100
AcDbLine
10
61.5
20
0
30
0
11
61.082003
21
3.174998
31
0
39
0
210
0
220
0
230
1
0
LINE
5
2B9
100
AcDbEntity
8
2
62
256
6
ByLayer
370
13
48
1
60
0
100
AcDbLine
10
61.5
20
0
30
0
11
61.917997
21
3.175002
31
0
39
0
210
0
220
0
230
1
0
LINE
5
2BA
100
AcDbEntity
8
2
62
256
6
ByLayer
370
13
48
1
60
0
100
AcDbLine
10
61.082003
20
3.174998
30
0
11
61.917997
21
3.175002
31
0
39
0
210
0
220
0
230
1
0
LINE
5
2BB
100
AcDbEntity
8
2
62
256
6
ByLayer
370
13
48
1
60
0
100
AcDbLine
10
61.5
20
-9
30
0
11
61.917997
21
-12.174998
31
0
39
0
210
0
220
0
230
1
0
LINE
5
2BC
100
AcDbEntity
8
2
62
256
6
ByLayer
370
13
48
1
60
0
100
AcDbLine
10
61.5
20
-9
30
0
11
61.082003
21
-12.175002
31
0
39
0
210
0
220
0
230
1
0
LINE
5
2BD
100
AcDbEntity
8
2
62
256
6
ByLayer
370
13
48
1
60
0
100
AcDbLine
10
61.917997
20
-12.174998
30
0
11
61.082003
21
-12.175002
31
0
39
0
210
0
220
0
230
1
0
ENDBLK
5
2BF
100
AcDbEntity
8
0
100
AcDbBlockEnd
0
BLOCK
5
2CC
100
AcDbEntity
8
0
100
AcDbBlockBegin
2
DimnDraft3D4
70
0
10
0
20
0
30
0
3
DimnDraft3D4
0
MTEXT
5
2C2
100
AcDbEntity
8
2
62
256
6
ByLayer
370
18
48
1
60
0
100
AcDbMText
10
53.625
20
-19.945789
30
0
210
0
220
0
230
1
1
\W0.5404;3
40
3.5
41
0
44
1.084337
50
90
71
7
72
5
7
iso_b_vert
0
LINE
5
2C3
100
AcDbEntity
8
2
62
256
6
ByLayer
370
13
48
1
60
0
100
AcDbLine
10
38.4
20
-9
30
0
11
56.5
21
-9
31
0
39
0
210
0
220
0
230
1
0
LINE
5
2C4
100
AcDbEntity
8
2
62
256
6
ByLayer
370
13
48
1
60
0
100
AcDbLine
10
38.4
20
-6
30
0
11
56.5
21
-6
31
0
39
0
210
0
220
0
230
1
0
LINE
5
2C5
100
AcDbEntity
8
2
62
256
6
ByLayer
370
13
48
1
60
0
100
AcDbLine
10
54.5
20
2.75
30
0
11
54.5
21
-20.820789
31
0
39
0
210
0
220
0
230
1
0
LINE
5
2C6
100
AcDbEntity
8
2
62
256
6
ByLayer
370
13
48
1
60
0
100
AcDbLine
10
54.5
20
-9
30
0
11
54.917997
21
-12.174998
31
0
39
0
210
0
220
0
230
1
0
LINE
5
2C7
100
AcDbEntity
8
2
62
256
6
ByLayer
370
13
48
1
60
0
100
AcDbLine
10
54.5
20
-9
30
0
11
54.082003
21
-12.175002
31
0
39
0
210
0
220
0
230
1
0
LINE
5
2C8
100
AcDbEntity
8
2
62
256
6
ByLayer
370
13
48
1
60
0
100
AcDbLine
10
54.917997
20
-12.174998
30
0
11
54.082003
21
-12.175002
31
0
39
0
210
0
220
0
230
1
0
LINE
5
2C9
100
AcDbEntity
8
2
62
256
6
ByLayer
370
13
48
1
60
0
100
AcDbLine
10
54.5
20
-6
30
0
11
54.082003
21
-2.825002
31
0
39
0
210
0
220
0
230
1
0
LINE
5
2CA
100
AcDbEntity
8
2
62
256
6
ByLayer
370
13
48
1
60
0
100
AcDbLine
10
54.5
20
-6
30
0
11
54.917997
21
-2.824998
31
0
39
0
210
0
220
0
230
1
0
LINE
5
2CB
100
AcDbEntity
8
2
62
256
6
ByLayer
370
13
48
1
60
0
100
AcDbLine
10
54.082003
20
-2.825002
30
0
11
54.917997
21
-2.824998
31
0
39
0
210
0
220
0
230
1
0
ENDBLK
5
2CD
100
AcDbEntity
8
0
100
AcDbBlockEnd
0
ENDSEC
0
SECTION
2
ENTITIES
0
ARC
5
14F
100
AcDbEntity
8
1
62
256
6
ByLayer
370
18
48
1
60
0
100
AcDbCircle
39
0
10
26.6
20
-6.45
30
0
40
0.2
210
0
220
0
230
1
100
AcDbArc
50
120
51
141.318614
0
ARC
5
150
100
AcDbEntity
8
1
62
256
6
ByLayer
370
18
48
1
60
0
100
AcDbCircle
39
0
10
26.6
20
-8.55
30
0
40
0.2
210
0
220
0
230
1
100
AcDbArc
50
218.681386
51
240
0
ELLIPSE
5
151
100
AcDbEntity
8
1
62
256
6
ByLayer
370
13
48
1
60
0
100
AcDbEllipse
10
28.708132
20
-6.230414
30
0
11
0.979582052556353
21
-0.30172620926131
31
0
210
0
220
0
230
-1
40
0.270086
41
2.05273074522888
42
2.24185105461159
0
ELLIPSE
5
152
100
AcDbEntity
8
1
62
256
6
ByLayer
370
13
48
1
60
0
100
AcDbEllipse
10
28.708132
20
-6.230414
30
0
11
0.998914191699367
21
-0.226032306473759
31
0
210
0
220
0
230
-1
40
0.206112
41
1.99506909479824
42
2.24548541567082
0
ELLIPSE
5
153
100
AcDbEntity
8
1
62
256
6
ByLayer
370
13
48
1
60
0
100
AcDbEllipse
10
28.708132
20
-8.769586
30
0
11
0.998914191589353
21
0.226032306465505
31
0
210
0
220
0
230
-1
40
0.206112
41
-2.24548541564619
42
-1.99506909475176
0
ELLIPSE
5
154
100
AcDbEntity
8
1
62
256
6
ByLayer
370
13
48
1
60
0
100
AcDbEllipse
10
35.77413
20
-7.5
30
0
11
-7.38495814331257
21
9.04366666501288E-16
31
0
210
0
220
0
230
1
40
0.121869
41
1.16456723893879
42
1.18682389135614
0
ELLIPSE
5
155
100
AcDbEntity
8
1
62
256
6
ByLayer
370
13
48
1
60
0
100
AcDbEllipse
10
35.77413
20
-7.5
30
0
11
-7.38495814331257
21
9.04366666501288E-16
31
0
210
0
220
0
230
1
40
0.121869
41
-1.18682389135615
42
-1.16456723893881
0
ELLIPSE
5
156
100
AcDbEntity
8
1
62
256
6
ByLayer
370
13
48
1
60
0
100
AcDbEllipse
10
34.858781
20
-8.681166
30
0
11
0.0322705528359686
21
0.237820544570188
31
0
210
0
220
0
230
1
40
0.009402
41
0.684082575267941
42
1.50161815253495
0
ELLIPSE
5
157
100
AcDbEntity
8
1
62
256
6
ByLayer
370
13
48
1
60
0
100
AcDbEllipse
10
33.628622
20
-8.559701
30
0
11
-0.0129780832447762
21
0.239648845929397
31
0
210
0
220
0
230
1
40
0.707925
41
-1.55967335367816
42
-0.878821726711962
0
ELLIPSE
5
158
100
AcDbEntity
8
1
62
256
6
ByLayer
370
13
48
1
60
0
100
AcDbEllipse
10
34.858781
20
-6.318834
30
0
11
0.0322705528359684
21
-0.237820544570188
31
0
210
0
220
0
230
1
40
0.009402
41
-1.50161815253474
42
-0.684082575267941
0
ELLIPSE
5
159
100
AcDbEntity
8
1
62
256
6
ByLayer
370
13
48
1
60
0
100
AcDbEllipse
10
33.628622
20
-6.440299
30
0
11
-0.0129780832447759
21
-0.239648845929397
31
0
210
0
220
0
230
1
40
0.707925
41
0.878821726712002
42
1.55967335367816
0
ELLIPSE
5
15A
100
AcDbEntity
8
1
62
256
6
ByLayer
370
13
48
1
60
0
100
AcDbEllipse
10
35.774131
20
-7.5
30
0
11
7.34839807354162
21
3.78670975199351E-08
31
0
210
0
220
0
230
-1
40
0.08165
41
1.9547687959413
42
2.00162052158244
0
ELLIPSE
5
15B
100
AcDbEntity
8
1
62
256
6
ByLayer
370
13
48
1
60
0
100
AcDbEllipse
10
33.386644
20
-7.5
30
0
11
1.63150680868568
21
2.62193320749265E-10
31
0
210
0
220
0
230
-1
40
0.367758
41
-2.17407423384893
42
-2.00162049162841
0
ELLIPSE
5
15C
100
AcDbEntity
8
1
62
256
6
ByLayer
370
13
48
1
60
0
100
AcDbEllipse
10
35.77413
20
-7.5
30
0
11
7.34839701879318
21
1.66683159557206E-08
31
0
210
0
220
0
230
-1
40
0.08165
41
-2.00162047873763
42
-1.95476874728333
0
ELLIPSE
5
15D
100
AcDbEntity
8
1
62
256
6
ByLayer
370
13
48
1
60
0
100
AcDbEllipse
10
33.386644
20
-7.5
30
0
11
1.63150680719475
21
-6.99566183298853E-10
31
0
210
0
220
0
230
-1
40
0.367758
41
2.00162049115771
42
2.17407423350426
0
ELLIPSE
5
15E
100
AcDbEntity
8
1
62
256
6
ByLayer
370
13
48
1
60
0
100
AcDbEllipse
10
33.523829
20
-8.561383
30
0
11
0.1082392992065
21
-0.214206101937563
31
0
210
0
220
0
230
1
40
0.678671
41
1.29279293091362
42
1.84879976311947
0
ELLIPSE
5
15F
100
AcDbEntity
8
1
62
256
6
ByLayer
370
13
48
1
60
0
100
AcDbEllipse
10
33.523829
20
-6.438617
30
0
11
0.1082392992065
21
0.214206101937563
31
0
210
0
220
0
230
1
40
0.678671
41
-1.84879976311947
42
-1.29279293091362
0
ELLIPSE
5
160
100
AcDbEntity
8
1
62
256
6
ByLayer
370
13
48
1
60
0
100
AcDbEllipse
10
33.259452
20
-8.321836
30
0
11
0.219354463278089
21
0.119931728245622
31
0
210
0
220
0
230
1
40
0.441633
41
0.600579851753408
42
1.30662817391546
0
ELLIPSE
5
161
100
AcDbEntity
8
1
62
256
6
ByLayer
370
13
48
1
60
0
100
AcDbEllipse
10
33.259452
20
-6.678164
30
0
11
-0.219354463278086
21
0.119931728245626
31
0
210
0
220
0
230
1
40
0.441633
41
1.83496447967433
42
2.54101280183637
0
ELLIPSE
5
162
100
AcDbEntity
8
1
62
256
6
ByLayer
370
13
48
1
60
0
100
AcDbEllipse
10
32.695115
20
-8.226897
30
0
11
-0.0433548151255266
21
-0.195244359727577
31
0
210
0
220
0
230
1
40
0.334809
41
-2.68611088405472
42
-1.49658713340602
0
ELLIPSE
5
163
100
AcDbEntity
8
1
62
256
6
ByLayer
370
13
48
1
60
0
100
AcDbEllipse
10
32.695115
20
-6.773103
30
0
11
-0.0433548151255279
21
0.195244359727577
31
0
210
0
220
0
230
1
40
0.334809
41
1.49658713340599
42
2.68611088405466
0
ELLIPSE
5
164
100
AcDbEntity
8
1
62
256
6
ByLayer
370
13
48
1
60
0
100
AcDbEllipse
10
33.31824
20
-7.5
30
0
11
1.65588067817057
21
1.67349768391545E-15
31
0
210
0
220
0
230
-1
40
0.483127
41
2.00162049191957
42
2.17407423407246
0
ELLIPSE
5
165
100
AcDbEntity
8
1
62
256
6
ByLayer
370
13
48
1
60
0
100
AcDbEllipse
10
33.31824
20
-7.5
30
0
11
1.65588067836654
21
1.6734976841135E-15
31
0
210
0
220
0
230
-1
40
0.483127
41
-2.1740742340407
42
-2.00162049190851
0
ELLIPSE
5
166
100
AcDbEntity
8
1
62
256
6
ByLayer
370
13
48
1
60
0
100
AcDbEllipse
10
33.525564
20
-8.561022
30
0
11
0.00742724597932589
21
0.239885047506431
31
0
210
0
220
0
230
1
40
0.70617
41
-1.49951821957463
42
-0.846393084122536
0
ELLIPSE
5
167
100
AcDbEntity
8
1
62
256
6
ByLayer
370
13
48
1
60
0
100
AcDbEllipse
10
33.525564
20
-6.438978
30
0
11
0.00742724597932567
21
-0.239885047506431
31
0
210
0
220
0
230
1
40
0.70617
41
0.846393084122576
42
1.49951821957463
0
ELLIPSE
5
168
100
AcDbEntity
8
1
62
256
6
ByLayer
370
13
48
1
60
0
100
AcDbEllipse
10
32.447188
20
-8.158784
30
0
11
-0.0631638165780187
21
-0.189763885592856
31
0
210
0
220
0
230
1
40
0.326425
41
-2.50339446299672
42
-1.46256868006916
0
ELLIPSE
5
169
100
AcDbEntity
8
1
62
256
6
ByLayer
370
13
48
1
60
0
100
AcDbEllipse
10
32.447188
20
-6.841216
30
0
11
-0.0631638165785347
21
0.189763885592684
31
0
210
0
220
0
230
1
40
0.326425
41
1.46256868006823
42
2.50339446299232
0
ELLIPSE
5
16A
100
AcDbEntity
8
1
62
256
6
ByLayer
370
13
48
1
60
0
100
AcDbEllipse
10
33.250683
20
-8.334465
30
0
11
0.195064510201759
21
-0.227925068519783
31
0
210
0
220
0
230
1
40
0.863833
41
1.64869430110509
42
2.31141389753819
0
ELLIPSE
5
16B
100
AcDbEntity
8
1
62
256
6
ByLayer
370
13
48
1
60
0
100
AcDbEllipse
10
33.250683
20
-6.665535
30
0
11
-0.195064510201764
21
-0.227925068519779
31
0
210
0
220
0
230
1
40
0.863833
41
0.830178756051598
42
1.49289835248472
0
ELLIPSE
5
16C
100
AcDbEntity
8
1
62
256
6
ByLayer
370
13
48
1
60
0
100
AcDbEllipse
10
32.350966
20
-8.197967
30
0
11
0.182866340278506
21
-0.0809932194269721
31
0
210
0
220
0
230
1
40
0.14582
41
-2.77286095187729
42
-1.8888514906867
0
ELLIPSE
5
16D
100
AcDbEntity
8
1
62
256
6
ByLayer
370
13
48
1
60
0
100
AcDbEllipse
10
32.350966
20
-6.802033
30
0
11
0.182866340278443
21
0.0809932194271139
31
0
210
0
220
0
230
1
40
0.14582
41
1.88885149068659
42
2.77286095187523
0
ELLIPSE
5
16E
100
AcDbEntity
8
1
62
256
6
ByLayer
370
13
48
1
60
0
100
AcDbEllipse
10
33.302412
20
-6.793067
30
0
11
-0.299757884748935
21
0.0120503332254432
31
0
210
0
220
0
230
1
40
0.786325
41
1.677914350623
42
2.2522099004542
0
ELLIPSE
5
16F
100
AcDbEntity
8
1
62
256
6
ByLayer
370
13
48
1
60
0
100
AcDbEllipse
10
33.302412
20
-8.206933
30
0
11
0.299757884748933
21
0.0120503332254948
31
0
210
0
220
0
230
1
40
0.786325
41
0.889382753135446
42
1.46367830296668
0
ELLIPSE
5
170
100
AcDbEntity
8
1
62
256
6
ByLayer
370
13
48
1
60
0
100
AcDbEllipse
10
32.092326
20
-6.374098
30
0
11
0.0570319130279923
21
-0.138734858259803
31
0
210
0
220
0
230
1
40
0.776494
41
-1.87977830526726
42
-1.56980601158793
0
ELLIPSE
5
171
100
AcDbEntity
8
1
62
256
6
ByLayer
370
13
48
1
60
0
100
AcDbEllipse
10
32.092326
20
-8.625902
30
0
11
-0.0570319130268966
21
-0.138734858260253
31
0
210
0
220
0
230
1
40
0.776494
41
-1.57178664200835
42
-1.26181434832865
0
ELLIPSE
5
172
100
AcDbEntity
8
1
62
256
6
ByLayer
370
13
48
1
60
0
100
AcDbEllipse
10
32.48147
20
-7.979243
30
0
11
-0.105329348464612
21
0.280901634655301
31
0
210
0
220
0
230
1
40
0.319781
41
-1.09012327608121
42
-0.203695114399971
0
ELLIPSE
5
173
100
AcDbEntity
8
1
62
256
6
ByLayer
370
13
48
1
60
0
100
AcDbEllipse
10
32.48147
20
-7.020757
30
0
11
-0.105329348464631
21
-0.280901634655294
31
0
210
0
220
0
230
1
40
0.319781
41
0.203695114400075
42
1.09012327608122
0
ELLIPSE
5
174
100
AcDbEntity
8
1
62
256
6
ByLayer
370
13
48
1
60
0
100
AcDbEllipse
10
33.409329
20
-7.788572
30
0
11
-0.263738087060282
21
0.142976296755033
31
0
210
0
220
0
230
1
40
0.337339
41
-2.12742665195263
42
-1.51944467242795
0
ELLIPSE
5
175
100
AcDbEntity
8
1
62
256
6
ByLayer
370
13
48
1
60
0
100
AcDbEllipse
10
33.409329
20
-7.211428
30
0
11
-0.26373808706239
21
-0.142976296751144
31
0
210
0
220
0
230
1
40
0.337339
41
1.51944467242558
42
2.1274266519039
0
ELLIPSE
5
176
100
AcDbEntity
8
1
62
256
6
ByLayer
370
13
48
1
60
0
100
AcDbEllipse
10
32.089927
20
-8.625438
30
0
11
4.24912383924225E-17
21
0.15
31
0
210
0
220
0
230
1
40
0.795546
41
1.23482044578598
42
1.5707963267949
0
ELLIPSE
5
177
100
AcDbEntity
8
1
62
256
6
ByLayer
370
13
48
1
60
0
100
AcDbEllipse
10
32.089927
20
-6.374562
30
0
11
4.24912383924225E-17
21
0.15
31
0
210
0
220
0
230
1
40
0.795546
41
1.5707963267949
42
1.90677220780376
0
ELLIPSE
5
178
100
AcDbEntity
8
1
62
256
6
ByLayer
370
13
48
1
60
0
100
AcDbEllipse
10
31.833293
20
-8.625438
30
0
11
-2.75536429610035E-17
21
-0.15
31
0
210
0
220
0
230
1
40
0.34202
41
-1.75278811305915
42
-1.57079632679492
0
ELLIPSE
5
179
100
AcDbEntity
8
1
62
256
6
ByLayer
370
13
48
1
60
0
100
AcDbEllipse
10
31.833293
20
-6.374562
30
0
11
4.24912383924225E-17
21
0.15
31
0
210
0
220
0
230
1
40
0.34202
41
1.57079632679492
42
1.75278811305915
0
ELLIPSE
5
17A
100
AcDbEntity
8
1
62
256
6
ByLayer
370
13
48
1
60
0
100
AcDbEllipse
10
32.339982
20
-7.066549
30
0
11
-0.0205626710087509
21
-0.198940133107892
31
0
210
0
220
0
230
1
40
0.702979
41
-1.10867675839078
42
-0.337059544638758
0
ELLIPSE
5
17B
100
AcDbEntity
8
1
62
256
6
ByLayer
370
13
48
1
60
0
100
AcDbEllipse
10
32.339982
20
-7.933451
30
0
11
-0.0205626710087514
21
0.198940133107892
31
0
210
0
220
0
230
1
40
0.702979
41
0.337059544638758
42
1.10867675839078
0
ELLIPSE
5
17C
100
AcDbEntity
8
1
62
256
6
ByLayer
370
13
48
1
60
0
100
AcDbEllipse
10
32.472352
20
-7.017337
30
0
11
0.1054031629799
21
0.280873945452106
31
0
210
0
220
0
230
1
40
0.321796
41
-2.93702761420032
42
-2.05551827773612
0
ELLIPSE
5
17D
100
AcDbEntity
8
1
62
256
6
ByLayer
370
13
48
1
60
0
100
AcDbEllipse
10
32.472352
20
-7.982663
30
0
11
-0.105403162979924
21
0.280873945452097
31
0
210
0
220
0
230
1
40
0.321796
41
-1.08607437585373
42
-0.204565039389451
0
ELLIPSE
5
17E
100
AcDbEntity
8
1
62
256
6
ByLayer
370
13
48
1
60
0
100
AcDbEllipse
10
35.547654
20
-8.691357
30
0
11
-0.00560126668057228
21
0.239934628204378
31
0
210
0
220
0
230
1
40
0.172043
41
0.732097455141062
42
1.49800588930574
0
ELLIPSE
5
17F
100
AcDbEntity
8
1
62
256
6
ByLayer
370
13
48
1
60
0
100
AcDbEllipse
10
35.547654
20
-6.308643
30
0
11
-0.00560126668057245
21
-0.239934628204378
31
0
210
0
220
0
230
1
40
0.172043
41
-1.49800588930574
42
-0.732097455140939
0
ELLIPSE
5
180
100
AcDbEntity
8
1
62
256
6
ByLayer
370
13
48
1
60
0
100
AcDbEllipse
10
32.331197
20
-7.066064
30
0
11
5.665498452323E-17
21
0.2
31
0
210
0
220
0
230
1
40
0.803713
41
1.90677220780379
42
2.72521072930058
0
ELLIPSE
5
181
100
AcDbEntity
8
1
62
256
6
ByLayer
370
13
48
1
60
0
100
AcDbEllipse
10
32.331197
20
-7.933936
30
0
11
5.665498452323E-17
21
0.2
31
0
210
0
220
0
230
1
40
0.803713
41
0.416381924289214
42
1.234820445786
0
ELLIPSE
5
182
100
AcDbEntity
8
1
62
256
6
ByLayer
370
13
48
1
60
0
100
AcDbEllipse
10
31.933999
20
-7.933936
30
0
11
-3.67381906146713E-17
21
-0.2
31
0
210
0
220
0
230
1
40
0.34202
41
-2.72521072930061
42
-1.90677220780381
0
ELLIPSE
5
183
100
AcDbEntity
8
1
62
256
6
ByLayer
370
13
48
1
60
0
100
AcDbEllipse
10
31.933999
20
-7.066064
30
0
11
5.665498452323E-17
21
0.2
31
0
210
0
220
0
230
1
40
0.34202
41
1.90677220780381
42
2.72521072930061
0
ELLIPSE
5
184
100
AcDbEntity
8
1
62
256
6
ByLayer
370
13
48
1
60
0
100
AcDbEllipse
10
36.152853
20
-8.421167
30
0
11
-0.0533981556875965
21
0.0845496124719871
31
0
210
0
220
0
230
1
40
0.139768
41
-1.57717485146101
42
-0.740023965274921
0
ELLIPSE
5
185
100
AcDbEntity
8
1
62
256
6
ByLayer
370
13
48
1
60
0
100
AcDbEllipse
10
36.313527
20
-8.27169
30
0
11
-0.0833341889559589
21
0.0552757899179428
31
0
210
0
220
0
230
1
40
0.125151
41
-1.63388084261208
42
-1.00888984397348
0
ELLIPSE
5
186
100
AcDbEntity
8
1
62
256
6
ByLayer
370
13
48
1
60
0
100
AcDbEllipse
10
36.152853
20
-6.578833
30
0
11
-0.0533981556875966
21
-0.0845496124719871
31
0
210
0
220
0
230
1
40
0.139768
41
0.740023965275157
42
1.57717485146101
0
ELLIPSE
5
187
100
AcDbEntity
8
1
62
256
6
ByLayer
370
13
48
1
60
0
100
AcDbEllipse
10
36.313527
20
-6.72831
30
0
11
-0.0833341889559589
21
-0.0552757899179427
31
0
210
0
220
0
230
1
40
0.125151
41
1.00888984397374
42
1.63388084261208
0
ELLIPSE
5
188
100
AcDbEntity
8
1
62
256
6
ByLayer
370
13
48
1
60
0
100
AcDbEllipse
10
35.658678
20
-8.089076
30
0
11
0.0148293336171642
21
0.399725019062444
31
0
210
0
220
0
230
1
40
0.406503
41
-2.33595515067488
42
-1.5557166718563
0
ELLIPSE
5
189
100
AcDbEntity
8
1
62
256
6
ByLayer
370
13
48
1
60
0
100
AcDbEllipse
10
35.658678
20
-6.910924
30
0
11
0.014829333617164
21
-0.399725019062444
31
0
210
0
220
0
230
1
40
0.406503
41
1.5557166718563
42
2.33595515067486
0
ELLIPSE
5
18A
100
AcDbEntity
8
1
62
256
6
ByLayer
370
13
48
1
60
0
100
AcDbEllipse
10
36.020403
20
-6.496743
30
0
11
-0.0518341759381039
21
-0.0855173561612945
31
0
210
0
220
0
230
1
40
0.13986
41
0.736311954700232
42
1.57460332353076
0
ELLIPSE
5
18B
100
AcDbEntity
8
1
62
256
6
ByLayer
370
13
48
1
60
0
100
AcDbEllipse
10
35.923358
20
-6.41937
30
0
11
-0.0777628762498878
21
-0.0628723713354653
31
0
210
0
220
0
230
1
40
0.13045
41
1.15581636427968
42
1.62182792903084
0
ELLIPSE
5
18C
100
AcDbEntity
8
1
62
256
6
ByLayer
370
13
48
1
60
0
100
AcDbEllipse
10
36.020403
20
-8.503257
30
0
11
-0.0518341759381039
21
0.0855173561612945
31
0
210
0
220
0
230
1
40
0.13986
41
-1.57460332353069
42
-0.73631195470061
0
ELLIPSE
5
18D
100
AcDbEntity
8
1
62
256
6
ByLayer
370
13
48
1
60
0
100
AcDbEllipse
10
35.923358
20
-8.58063
30
0
11
-0.0777628762498878
21
0.0628723713354654
31
0
210
0
220
0
230
1
40
0.13045
41
-1.62182792903077
42
-1.15581636427937
0
ELLIPSE
5
18E
100
AcDbEntity
8
1
62
256
6
ByLayer
370
13
48
1
60
0
100
AcDbEllipse
10
35.158781
20
-6.304849
30
0
11
-0.0082466205512047
21
-0.239858277425409
31
0
210
0
220
0
230
1
40
0.002403
41
0.70937315765915
42
1.50102444918737
0
ELLIPSE
5
18F
100
AcDbEntity
8
1
62
256
6
ByLayer
370
13
48
1
60
0
100
AcDbEllipse
10
35.158781
20
-8.695151
30
0
11
-0.00824662055120453
21
0.239858277425409
31
0
210
0
220
0
230
1
40
0.002403
41
-1.50102444918823
42
-0.709373157670905
0
ELLIPSE
5
190
100
AcDbEntity
8
1
62
256
6
ByLayer
370
13
48
1
60
0
100
AcDbEllipse
10
32.182996
20
-5.419859
30
0
11
5.665498452323E-16
21
2
31
0
210
0
220
0
230
1
40
0.34202
41
2.7252107293006
42
2.79252680319093
0
ELLIPSE
5
191
100
AcDbEntity
8
1
62
256
6
ByLayer
370
13
48
1
60
0
100
AcDbEllipse
10
32.182996
20
-9.580141
30
0
11
-3.67381906146713E-16
21
-2
31
0
210
0
220
0
230
1
40
0.34202
41
-2.79252680319093
42
-2.7252107293006
0
ELLIPSE
5
192
100
AcDbEntity
8
1
62
256
6
ByLayer
370
13
48
1
60
0
100
AcDbEllipse
10
36.335862
20
-8.23707
30
0
11
-0.0846493904271157
21
0.0532398412874958
31
0
210
0
220
0
230
1
40
0.065231
41
-1.67414184501556
42
-1.04577954889681
0
ELLIPSE
5
193
100
AcDbEntity
8
1
62
256
6
ByLayer
370
13
48
1
60
0
100
AcDbEllipse
10
36.335862
20
-6.76293
30
0
11
-0.0846493904271157
21
-0.0532398412874957
31
0
210
0
220
0
230
1
40
0.065231
41
1.04577954889675
42
1.67414184501564
0
ELLIPSE
5
194
100
AcDbEntity
8
1
62
256
6
ByLayer
370
13
48
1
60
0
100
AcDbEllipse
10
31.927689
20
-7.5
30
0
11
5.94877337493915E-17
21
0.21
31
0
210
0
220
0
230
1
40
0.34202
41
-2.7925268031909
42
-0.349065850398889
0
ELLIPSE
5
195
100
AcDbEntity
8
1
62
256
6
ByLayer
370
13
48
1
60
0
100
AcDbEllipse
10
28.708132
20
-8.769586
30
0
11
0.979582052613763
21
0.301726209267184
31
0
210
0
220
0
230
-1
40
0.270086
41
-2.24185105462407
42
-2.05273074525011
0
ELLIPSE
5
196
100
AcDbEntity
8
1
62
256
6
ByLayer
370
18
48
1
60
0
100
AcDbEllipse
10
31.182033
20
-7.5
30
0
11
1.28358760011039
21
1.297243759291E-15
31
0
210
0
220
0
230
-1
40
0.46744
41
1.05457302641543
42
-1.05457302641541
0
ELLIPSE
5
197
100
AcDbEntity
8
1
62
256
6
ByLayer
370
18
48
1
60
0
100
AcDbEllipse
10
31.841428
20
-7.5
30
0
11
-3.67381906146666E-17
21
0.599999999999923
31
0
210
0
220
0
230
-1
40
0.087172
41
-2.62536935321051
42
-0.516223300379281
0
ELLIPSE
5
198
100
AcDbEntity
8
1
62
256
6
ByLayer
370
18
48
1
60
0
100
AcDbEllipse
10
35.906337
20
-8.973303
30
0
11
0.239997044873211
21
-0.016948992989429
31
0
210
0
220
0
230
-1
40
0.070266
41
1.44395567124071
42
1.7399503764131
0
ELLIPSE
5
199
100
AcDbEntity
8
1
62
256
6
ByLayer
370
18
48
1
60
0
100
AcDbEllipse
10
36.448748
20
-8.23707
30
0
11
1.1330996904646E-16
21
0.4
31
0
210
0
220
0
230
1
40
0.121869
41
1.5707963267949
42
1.64009079051253
0
ELLIPSE
5
19A
100
AcDbEntity
8
1
62
256
6
ByLayer
370
18
48
1
60
0
100
AcDbEllipse
10
36.448748
20
-6.76293
30
0
11
1.1330996904646E-16
21
0.4
31
0
210
0
220
0
230
1
40
0.121869
41
1.50150186307726
42
1.5707963267949
0
ELLIPSE
5
19B
100
AcDbEntity
8
1
62
256
6
ByLayer
370
18
48
1
60
0
100
AcDbEllipse
10
32.942652
20
-6.05
30
0
11
0.201946432116473
21
0
31
0
210
0
220
0
230
1
40
0.990362
41
-1.5707963267949
42
-1.04299365512072
0
ELLIPSE
5
19C
100
AcDbEntity
8
1
62
256
6
ByLayer
370
18
48
1
60
0
100
AcDbEllipse
10
33.536306
20
-8.841309
30
0
11
0.251841921999541
21
-0.0177818623396741
31
0
210
0
220
0
230
-1
40
0.06924
41
0.77440019884623
42
1.56101782171987
0
ELLIPSE
5
19D
100
AcDbEntity
8
1
62
256
6
ByLayer
370
18
48
1
60
0
100
AcDbEllipse
10
32.953398
20
-8.95
30
0
11
-0.201490790302156
21
2.46746902040712E-17
31
0
210
0
220
0
230
1
40
0.992601
41
-2.09761674342106
42
-1.5707963267949
0
ELLIPSE
5
19E
100
AcDbEntity
8
1
62
256
6
ByLayer
370
18
48
1
60
0
100
AcDbEllipse
10
33.536306
20
-6.158691
30
0
11
0.251841921979775
21
0.0177818623373524
31
0
210
0
220
0
230
-1
40
0.06924
41
-1.56101782177432
42
-0.774400198844634
0
ELLIPSE
5
19F
100
AcDbEntity
8
1
62
256
6
ByLayer
370
18
48
1
60
0
100
AcDbEllipse
10
35.906337
20
-6.026697
30
0
11
0.239997045184295
21
0.0169489930110017
31
0
210
0
220
0
230
-1
40
0.070266
41
-1.73995037621562
42
-1.4439556714297
0
ELLIPSE
5
1A0
100
AcDbEntity
8
1
62
256
6
ByLayer
370
18
48
1
60
0
100
AcDbEllipse
10
33.19757
20
-6.365831
30
0
11
0.058624730201206
21
-0.191752852286547
31
0
210
-1.59644179966719E-15
220
4.38574520942052E-19
230
1
40
0.997435
41
2.91526219766618
42
-2.91526219766617
0
ELLIPSE
5
1A1
100
AcDbEntity
8
1
62
256
6
ByLayer
370
18
48
1
60
0
100
AcDbEllipse
10
33.209275
20
-8.634987
30
0
11
0.00297293931671267
21
0.200467814146891
31
0
210
-1.59612295829283E-15
220
-1.26268957575375E-19
230
1
40
0.997557
41
2.63386280411413
42
3.08674247812914
0
POINT
5
6C
100
AcDbEntity
8
81
62
256
6
ByLayer
370
18
48
1
60
0
100
AcDbPoint
10
36.4
20
-9
30
0
39
0
210
0
220
0
230
1
50
360
0
POINT
5
6E
100
AcDbEntity
8
80
62
256
6
ByLayer
370
18
48
1
60
0
100
AcDbPoint
10
0
20
0
30
0
39
0
210
0
220
0
230
1
50
360
0
SPLINE
5
1A2
100
AcDbEntity
8
1
62
256
6
ByLayer
370
18
48
1
60
0
100
AcDbSpline
70
4
71
3
72
12
73
8
40
0
40
0
40
0
40
0
40
0.0522267753343272
40
0.0522267753343272
40
0.682808736275965
40
0.682808736275965
40
1
40
1
40
1
40
1
41
1
10
-8.01533068949934
20
0.279152949387935
30
0
41
1
10
-8.01681639506791
20
0.279726393516654
30
0
41
1
10
-8.0182982138052
20
0.280291057508776
30
0
41
1
10
-8.0377244037569
20
0.287596321267188
30
0
41
1
10
-8.05535765135755
20
0.293125766877324
30
0
41
1
10
-8.07935508149731
20
0.297787753949592
30
0
41
1
10
-8.08703346281044
20
0.298734122646351
30
0
41
1
10
-8.09389757592481
20
0.298734122646977
30
0
0
SPLINE
5
1A3
100
AcDbEntity
8
1
62
256
6
ByLayer
370
18
48
1
60
0
100
AcDbSpline
70
4
71
3
72
10
73
6
40
0
40
0
40
0
40
0
40
0.696330279559776
40
0.696330279559776
40
1
40
1
40
1
40
1
41
1
10
-8.04249029642921
20
0.298734122634727
30
0
41
1
10
-8.03224468986448
20
0.298734122633391
30
0
41
1
10
-8.02042150697611
20
0.296865258844377
30
0
41
1
10
-8.0027888792518
20
0.29273114688047
30
0
41
1
10
-7.99731781369533
20
0.291281653847847
30
0
41
1
10
-7.99175232748266
20
0.289661107885451
30
0
0
SPLINE
5
1A4
100
AcDbEntity
8
1
62
256
6
ByLayer
370
18
48
1
60
0
100
AcDbSpline
70
4
71
3
72
12
73
8
40
0
40
0
40
0
40
0
40
0.0522267753344197
40
0.0522267753344197
40
0.682808736275982
40
0.682808736275982
40
1
40
1
40
1
40
1
41
1
10
8.01533068949934
20
0.279152949387935
30
0
41
1
10
8.01681639506791
20
0.279726393516654
30
0
41
1
10
8.0182982138052
20
0.280291057508776
30
0
41
1
10
8.0377244037569
20
0.287596321267188
30
0
41
1
10
8.05535765135755
20
0.293125766877324
30
0
41
1
10
8.07935508149731
20
0.297787753949592
30
0
41
1
10
8.08703346281044
20
0.298734122646351
30
0
41
1
10
8.09389757592481
20
0.298734122646948
30
0
0
SPLINE
5
1A5
100
AcDbEntity
8
1
62
256
6
ByLayer
370
13
48
1
60
0
100
AcDbSpline
70
4
71
3
72
10
73
6
40
0
40
0
40
0
40
0
40
0.664993946719532
40
0.664993946719532
40
1
40
1
40
1
40
1
41
1
10
33.4317952361579
20
-8.1487363109571
30
0
41
1
10
33.4544008183665
20
-8.12790972923793
30
0
41
1
10
33.471972629713
20
-8.10206539777366
30
0
41
1
10
33.4836688596485
20
-8.0537893475429
30
0
41
1
10
33.4849134160383
20
-8.03560891555239
30
0
41
1
10
33.4838678419132
20
-8.01627328434691
30
0
0
SPLINE
5
1A6
100
AcDbEntity
8
1
62
256
6
ByLayer
370
13
48
1
60
0
100
AcDbSpline
70
4
71
3
72
12
73
8
40
0
40
0
40
0
40
0
40
0.274450233641753
40
0.274450233641753
40
0.728710906931613
40
0.728710906931613
40
1
40
1
40
1
40
1
41
1
10
34.5146869282979
20
-8.31938421983517
30
0
41
1
10
34.4122143236957
20
-8.28890493442611
30
0
41
1
10
34.309497462749
20
-8.25855761374444
30
0
41
1
10
34.0439453836002
20
-8.1804224140219
30
0
41
1
10
33.8820473482734
20
-8.13312922823633
30
0
41
1
10
33.646079380226
20
-8.0640519317748
30
0
41
1
10
33.5617198878049
20
-8.03948409520436
30
0
41
1
10
33.4838678419132
20
-8.01627328434691
30
0
0
SPLINE
5
1A7
100
AcDbEntity
8
1
62
256
6
ByLayer
370
13
48
1
60
0
100
AcDbSpline
70
4
71
3
72
16
73
12
40
0
40
0
40
0
40
0
40
0.0442199247554627
40
0.0442199247554627
40
0.048439955548864
40
0.048439955548864
40
0.216895358525141
40
0.216895358525141
40
0.889245809546153
40
0.889245809546153
40
1
40
1
40
1
40
1
41
1
10
35.2219297662851
20
-8.39129551224883
30
0
41
1
10
35.2113300785451
20
-8.39166524527801
30
0
41
1
10
35.2007291289449
20
-8.3919965677045
30
0
41
1
10
35.1891179461187
20
-8.39240335750651
30
0
41
1
10
35.1881063966876
20
-8.39243892470958
30
0
41
1
10
35.1467182945273
20
-8.39389908341127
30
0
41
1
10
35.1063476610927
20
-8.39579527699576
30
0
41
1
10
34.9067119730517
20
-8.40253871303509
30
0
41
1
10
34.7453726295507
20
-8.3815925254051
30
0
41
1
10
34.5656324617666
20
-8.33411187239886
30
0
41
1
10
34.5400997197492
20
-8.32694295933138
30
0
41
1
10
34.5146869282979
20
-8.31938421983517
30
0
0
SPLINE
5
1A8
100
AcDbEntity
8
1
62
256
6
ByLayer
370
13
48
1
60
0
100
AcDbSpline
70
4
71
3
72
12
73
8
40
0
40
0
40
0
40
0
40
0.609383607480292
40
0.609383607480292
40
0.614539779329414
40
0.614539779329414
40
1
40
1
40
1
40
1
41
1
10
35.7656057053218
20
-8.37029373551317
30
0
41
1
10
35.6600213620048
20
-8.37464674766321
30
0
41
1
10
35.5496097970341
20
-8.37897620064146
30
0
41
1
10
35.4373081383666
20
-8.38324771277203
30
0
41
1
10
35.4363601843112
20
-8.38328376790881
30
0
41
1
10
35.3647049543389
20
-8.386009066924
30
0
41
1
10
35.2932165299022
20
-8.38880892286059
30
0
41
1
10
35.2219297662851
20
-8.39129551224883
30
0
0
SPLINE
5
1A9
100
AcDbEntity
8
1
62
256
6
ByLayer
370
13
48
1
60
0
100
AcDbSpline
70
4
71
3
72
12
73
8
40
0
40
0
40
0
40
0
40
0.178891096392299
40
0.178891096392299
40
0.986291642516443
40
0.986291642516443
40
1
40
1
40
1
40
1
41
1
10
36.1213895076228
20
-8.35369877703761
30
0
41
1
10
36.1003115269679
20
-8.35453511808475
30
0
41
1
10
36.0792221384665
20
-8.35537813843467
30
0
41
1
10
35.9629014296375
20
-8.36006683050621
30
0
41
1
10
35.8679540502601
20
-8.3657104928001
30
0
41
1
10
35.7689156735317
20
-8.37015426893441
30
0
41
1
10
35.7672607449414
20
-8.37022550184003
30
0
41
1
10
35.7656057053218
20
-8.37029373551317
30
0
0
SPLINE
5
1AA
100
AcDbEntity
8
1
62
256
6
ByLayer
370
13
48
1
60
0
100
AcDbSpline
70
4
71
3
72
8
73
4
40
0
40
0
40
0
40
0
40
1
40
1
40
1
40
1
41
1
10
35.9900286630424
20
-8.43502396633551
30
0
41
1
10
36.034090020669
20
-8.40836099842866
30
0
41
1
10
36.0778395366007
20
-8.3811841798811
30
0
41
1
10
36.1213895076228
20
-8.35369877703761
30
0
0
SPLINE
5
1AB
100
AcDbEntity
8
1
62
256
6
ByLayer
370
13
48
1
60
0
100
AcDbSpline
70
4
71
3
72
8
73
4
40
0
40
0
40
0
40
0
40
1
40
1
40
1
40
1
41
1
10
35.5158957172693
20
-8.51354421216195
30
0
41
1
10
35.6755545267195
20
-8.51302779994396
30
0
41
1
10
35.8354150796997
20
-8.47883505077195
30
0
41
1
10
35.9900286630425
20
-8.43502396633551
30
0
0
SPLINE
5
1AC
100
AcDbEntity
8
1
62
256
6
ByLayer
370
13
48
1
60
0
100
AcDbSpline
70
4
71
3
72
8
73
4
40
0
40
0
40
0
40
0
40
1
40
1
40
1
40
1
41
1
10
35.1528986418118
20
-8.51314053186908
30
0
41
1
10
35.2744062234274
20
-8.50909037630623
30
0
41
1
10
35.3966210532665
20
-8.51393000292592
30
0
41
1
10
35.5158957172706
20
-8.51354421216379
30
0
0
SPLINE
5
1AD
100
AcDbEntity
8
1
62
256
6
ByLayer
370
13
48
1
60
0
100
AcDbSpline
70
4
71
3
72
8
73
4
40
0
40
0
40
0
40
0
40
1
40
1
40
1
40
1
41
1
10
34.8823771357602
20
-8.49666327692179
30
0
41
1
10
34.9716495580755
20
-8.51036485825441
30
0
41
1
10
35.0625883571385
20
-8.51615080247964
30
0
41
1
10
35.1528986418103
20
-8.51314053186951
30
0
0
SPLINE
5
1AE
100
AcDbEntity
8
1
62
256
6
ByLayer
370
13
48
1
60
0
100
AcDbSpline
70
4
71
3
72
14
73
10
40
0
40
0
40
0
40
0
40
0.102691686735347
40
0.102691686735347
40
0.53816841361549
40
0.53816841361549
40
0.926474667639871
40
0.926474667639871
40
1
40
1
40
1
40
1
41
1
10
33.7509720530678
20
-8.39971618844956
30
0
41
1
10
33.780893999408
20
-8.39647330533083
30
0
41
1
10
33.8122711139629
20
-8.39426833866472
30
0
41
1
10
33.9807977171794
20
-8.3875856117881
30
0
41
1
10
34.142161843352
20
-8.39790023917004
30
0
41
1
10
34.4640413220708
20
-8.43246605465393
30
0
41
1
10
34.6272620626367
20
-8.45594504470932
30
0
41
1
10
34.8201021624027
20
-8.48704198800459
30
0
41
1
10
34.8512578164011
20
-8.4918870663725
30
0
41
1
10
34.8823771357602
20
-8.49666327692168
30
0
0
SPLINE
5
1AF
100
AcDbEntity
8
1
62
256
6
ByLayer
370
13
48
1
60
0
100
AcDbSpline
70
4
71
3
72
8
73
4
40
0
40
0
40
0
40
0
40
1
40
1
40
1
40
1
41
1
10
33.6573483090604
20
-8.40598072546726
30
0
41
1
10
33.6886707932501
20
-8.40531437730607
30
0
41
1
10
33.7198681643654
20
-8.40308716821312
30
0
41
1
10
33.7509720530678
20
-8.39971618844956
30
0
0
SPLINE
5
1B0
100
AcDbEntity
8
1
62
256
6
ByLayer
370
13
48
1
60
0
100
AcDbSpline
70
4
71
3
72
10
73
6
40
0
40
0
40
0
40
0
40
0.436659189793396
40
0.436659189793396
40
1
40
1
40
1
40
1
41
1
10
33.4305156049705
20
-8.19372882913729
30
0
41
1
10
33.4626760675876
20
-8.22551322201676
30
0
41
1
10
33.4951835994715
20
-8.25695131329445
30
0
41
1
10
33.5705662077347
20
-8.32796696046415
30
0
41
1
10
33.6138220700954
20
-8.36717453485699
30
0
41
1
10
33.6573483090634
20
-8.40598072546797
30
0
0
SPLINE
5
1B1
100
AcDbEntity
8
1
62
256
6
ByLayer
370
13
48
1
60
0
100
AcDbSpline
70
4
71
3
72
10
73
6
40
0
40
0
40
0
40
0
40
0.73561768390405
40
0.73561768390405
40
1
40
1
40
1
40
1
41
1
10
33.4305156049705
20
-8.19372882913729
30
0
41
1
10
33.4246851208416
20
-8.18796652402247
30
0
41
1
10
33.4191348692196
20
-8.18165398777595
30
0
41
1
10
33.4131625911601
20
-8.1728770110706
30
0
41
1
10
33.4117118978094
20
-8.17049524638597
30
0
41
1
10
33.410489557918
20
-8.16814594589172
30
0
0
SPLINE
5
1B2
100
AcDbEntity
8
1
62
256
6
ByLayer
370
13
48
1
60
0
100
AcDbSpline
70
4
71
3
72
8
73
4
40
0
40
0
40
0
40
0
40
1
40
1
40
1
40
1
41
1
10
33.410489557921
20
-8.16814594588834
30
0
41
1
10
33.4176603296031
20
-8.16168335254298
30
0
41
1
10
33.4247646325939
20
-8.15521362431764
30
0
41
1
10
33.4317952361579
20
-8.1487363109571
30
0
0
SPLINE
5
1B3
100
AcDbEntity
8
1
62
256
6
ByLayer
370
13
48
1
60
0
100
AcDbSpline
70
4
71
3
72
12
73
8
40
0
40
0
40
0
40
0
40
0.233793069268613
40
0.233793069268613
40
0.849542984529965
40
0.849542984529965
40
1
40
1
40
1
40
1
41
1
10
33.4104895579289
20
-6.83185405410339
30
0
41
1
10
33.4115678802706
20
-6.82978155100579
30
0
41
1
10
33.4128235703367
20
-6.82768418486074
30
0
41
1
10
33.4177801949081
20
-6.82021082787622
30
0
41
1
10
33.4222297367628
20
-6.81487055525392
30
0
41
1
10
33.4281198492317
20
-6.80867441669005
30
0
41
1
10
33.4293089587678
20
-6.80746370709656
30
0
41
1
10
33.4305156049705
20
-6.80627117086249
30
0
0
SPLINE
5
1B4
100
AcDbEntity
8
1
62
256
6
ByLayer
370
13
48
1
60
0
100
AcDbSpline
70
4
71
3
72
10
73
6
40
0
40
0
40
0
40
0
40
0.436659189793399
40
0.436659189793399
40
1
40
1
40
1
40
1
41
1
10
33.4305156049705
20
-6.80627117086246
30
0
41
1
10
33.4626760675876
20
-6.77448677798299
30
0
41
1
10
33.4951835994715
20
-6.74304868670529
30
0
41
1
10
33.5705662077347
20
-6.67203303953562
30
0
41
1
10
33.6138220700954
20
-6.63282546514276
30
0
41
1
10
33.6573483090634
20
-6.59401927453177
30
0
0
SPLINE
5
1B5
100
AcDbEntity
8
1
62
256
6
ByLayer
370
13
48
1
60
0
100
AcDbSpline
70
4
71
3
72
8
73
4
40
0
40
0
40
0
40
0
40
1
40
1
40
1
40
1
41
1
10
33.6573483090604
20
-6.59401927453249
30
0
41
1
10
33.6886707932501
20
-6.59468562269368
30
0
41
1
10
33.7198681643654
20
-6.59691283178663
30
0
41
1
10
33.7509720530678
20
-6.60028381155021
30
0
0
SPLINE
5
1B6
100
AcDbEntity
8
1
62
256
6
ByLayer
370
13
48
1
60
0
100
AcDbSpline
70
4
71
3
72
14
73
10
40
0
40
0
40
0
40
0
40
0.102691686735347
40
0.102691686735347
40
0.53816841361549
40
0.53816841361549
40
0.926474667639871
40
0.926474667639871
40
1
40
1
40
1
40
1
41
1
10
33.7509720530678
20
-6.60028381155021
30
0
41
1
10
33.780893999408
20
-6.60352669466891
30
0
41
1
10
33.8122711139629
20
-6.60573166133506
30
0
41
1
10
33.9807977171794
20
-6.61241438821165
30
0
41
1
10
34.142161843352
20
-6.60209976082973
30
0
41
1
10
34.4640413220708
20
-6.56753394534582
30
0
41
1
10
34.6272620626367
20
-6.54405495529042
30
0
41
1
10
34.8201021624027
20
-6.51295801199515
30
0
41
1
10
34.8512578164011
20
-6.50811293362725
30
0
41
1
10
34.8823771357602
20
-6.50333672307806
30
0
0
SPLINE
5
1B7
100
AcDbEntity
8
1
62
256
6
ByLayer
370
13
48
1
60
0
100
AcDbSpline
70
4
71
3
72
8
73
4
40
0
40
0
40
0
40
0
40
1
40
1
40
1
40
1
41
1
10
34.8823771357602
20
-6.50333672307795
30
0
41
1
10
34.9716495580755
20
-6.48963514174534
30
0
41
1
10
35.0625883571385
20
-6.48384919752013
30
0
41
1
10
35.1528986418103
20
-6.48685946813023
30
0
0
SPLINE
5
1B8
100
AcDbEntity
8
1
62
256
6
ByLayer
370
13
48
1
60
0
100
AcDbSpline
70
4
71
3
72
8
73
4
40
0
40
0
40
0
40
0
40
1
40
1
40
1
40
1
41
1
10
35.1528986418118
20
-6.48685946813066
30
0
41
1
10
35.2744062234274
20
-6.49090962369351
30
0
41
1
10
35.3966210532665
20
-6.48606999707383
30
0
41
1
10
35.5158957172706
20
-6.48645578783598
30
0
0
SPLINE
5
1B9
100
AcDbEntity
8
1
62
256
6
ByLayer
370
13
48
1
60
0
100
AcDbSpline
70
4
71
3
72
8
73
4
40
0
40
0
40
0
40
0
40
1
40
1
40
1
40
1
41
1
10
35.5158957172693
20
-6.48645578783783
30
0
41
1
10
35.6755545267195
20
-6.48697220005579
30
0
41
1
10
35.8354150796997
20
-6.52116494922782
30
0
41
1
10
35.9900286630425
20
-6.56497603366424
30
0
0
SPLINE
5
1BA
100
AcDbEntity
8
1
62
256
6
ByLayer
370
13
48
1
60
0
100
AcDbSpline
70
4
71
3
72
8
73
4
40
0
40
0
40
0
40
0
40
1
40
1
40
1
40
1
41
1
10
35.9900286630424
20
-6.56497603366424
30
0
41
1
10
36.034090020669
20
-6.59163900157108
30
0
41
1
10
36.0778395366007
20
-6.61881582011864
30
0
41
1
10
36.1213895076228
20
-6.64630122296214
30
0
0
SPLINE
5
1BB
100
AcDbEntity
8
1
62
256
6
ByLayer
370
13
48
1
60
0
100
AcDbSpline
70
4
71
3
72
12
73
8
40
0
40
0
40
0
40
0
40
0.178891096392299
40
0.178891096392299
40
0.986291642516443
40
0.986291642516443
40
1
40
1
40
1
40
1
41
1
10
36.1213895076228
20
-6.64630122296214
30
0
41
1
10
36.1003115269679
20
-6.64546488191499
30
0
41
1
10
36.0792221384665
20
-6.64462186156507
30
0
41
1
10
35.9629014296375
20
-6.63993316949353
30
0
41
1
10
35.8679540502601
20
-6.63428950719964
30
0
41
1
10
35.7689156735317
20
-6.62984573106533
30
0
41
1
10
35.7672607449414
20
-6.62977449815972
30
0
41
1
10
35.7656057053218
20
-6.62970626448657
30
0
0
SPLINE
5
1BC
100
AcDbEntity
8
1
62
256
6
ByLayer
370
13
48
1
60
0
100
AcDbSpline
70
4
71
3
72
12
73
8
40
0
40
0
40
0
40
0
40
0.609383607480292
40
0.609383607480292
40
0.614539779329414
40
0.614539779329414
40
1
40
1
40
1
40
1
41
1
10
35.7656057053218
20
-6.62970626448657
30
0
41
1
10
35.6600213620048
20
-6.62535325233654
30
0
41
1
10
35.5496097970341
20
-6.62102379935828
30
0
41
1
10
35.4373081383666
20
-6.61675228722771
30
0
41
1
10
35.4363601843112
20
-6.61671623209094
30
0
41
1
10
35.3647049543389
20
-6.61399093307574
30
0
41
1
10
35.2932165299022
20
-6.61119107713915
30
0
41
1
10
35.2219297662851
20
-6.60870448775094
30
0
0
SPLINE
5
1BD
100
AcDbEntity
8
1
62
256
6
ByLayer
370
13
48
1
60
0
100
AcDbSpline
70
4
71
3
72
16
73
12
40
0
40
0
40
0
40
0
40
0.0442199247554627
40
0.0442199247554627
40
0.048439955548864
40
0.048439955548864
40
0.216895358525141
40
0.216895358525141
40
0.889245809546153
40
0.889245809546153
40
1
40
1
40
1
40
1
41
1
10
35.2219297662851
20
-6.60870448775094
30
0
41
1
10
35.2113300785451
20
-6.60833475472174
30
0
41
1
10
35.2007291289449
20
-6.60800343229525
30
0
41
1
10
35.1891179461187
20
-6.60759664249323
30
0
41
1
10
35.1881063966876
20
-6.60756107529016
30
0
41
1
10
35.1467182945273
20
-6.60610091658847
30
0
41
1
10
35.1063476610927
20
-6.60420472300399
30
0
41
1
10
34.9067119730517
20
-6.59746128696466
30
0
41
1
10
34.7453726295507
20
-6.61840747459465
30
0
41
1
10
34.5656324617666
20
-6.66588812760088
30
0
41
1
10
34.5400997197492
20
-6.67305704066837
30
0
41
1
10
34.5146869282979
20
-6.68061578016457
30
0
0
SPLINE
5
1BE
100
AcDbEntity
8
1
62
256
6
ByLayer
370
13
48
1
60
0
100
AcDbSpline
70
4
71
3
72
12
73
8
40
0
40
0
40
0
40
0
40
0.274450233641753
40
0.274450233641753
40
0.728710906931611
40
0.728710906931611
40
1
40
1
40
1
40
1
41
1
10
34.5146869282979
20
-6.68061578016457
30
0
41
1
10
34.4122143236957
20
-6.71109506557363
30
0
41
1
10
34.309497462749
20
-6.74144238625533
30
0
41
1
10
34.0439453836002
20
-6.81957758597784
30
0
41
1
10
33.8820473482734
20
-6.86687077176342
30
0
41
1
10
33.646079380226
20
-6.93594806822494
30
0
41
1
10
33.5617198878049
20
-6.96051590479539
30
0
41
1
10
33.4838678419132
20
-6.98372671565284
30
0
0
SPLINE
5
1BF
100
AcDbEntity
8
1
62
256
6
ByLayer
370
13
48
1
60
0
100
AcDbSpline
70
4
71
3
72
10
73
6
40
0
40
0
40
0
40
0
40
0.659159716151023
40
0.659159716151023
40
1
40
1
40
1
40
1
41
1
10
33.4838678419132
20
-6.98372671565284
30
0
41
1
10
33.4859020371366
20
-6.9461086762459
30
0
41
1
10
33.4777349617729
20
-6.91374083617418
30
0
41
1
10
33.4536893544428
20
-6.87422069365522
30
0
41
1
10
33.4434984870353
20
-6.86204592453336
30
0
41
1
10
33.4317952361579
20
-6.85126368904264
30
0
0
SPLINE
5
1C0
100
AcDbEntity
8
1
62
256
6
ByLayer
370
13
48
1
60
0
100
AcDbSpline
70
4
71
3
72
8
73
4
40
0
40
0
40
0
40
0
40
1
40
1
40
1
40
1
41
1
10
33.4317952361579
20
-6.85126368904264
30
0
41
1
10
33.4247646325939
20
-6.84478637568211
30
0
41
1
10
33.4176603296031
20
-6.83831664745676
30
0
41
1
10
33.410489557921
20
-6.8318540541114
30
0
0
SPLINE
5
1C1
100
AcDbEntity
8
1
62
256
6
ByLayer
370
13
48
1
60
0
100
AcDbSpline
70
4
71
3
72
8
73
4
40
0
40
0
40
0
40
0
40
1
40
1
40
1
40
1
41
1
10
33.5169741247547
20
-8.56484469921591
30
0
41
1
10
33.4355486668608
20
-8.49544931961586
30
0
41
1
10
33.3571073551694
20
-8.42252054199426
30
0
41
1
10
33.2804455603128
20
-8.34789619534769
30
0
0
SPLINE
5
1C2
100
AcDbEntity
8
1
62
256
6
ByLayer
370
13
48
1
60
0
100
AcDbSpline
70
4
71
3
72
8
73
4
40
0
40
0
40
0
40
0
40
1
40
1
40
1
40
1
41
1
10
33.5169741247547
20
-6.43515530078383
30
0
41
1
10
33.4355486668608
20
-6.50455068038389
30
0
41
1
10
33.3571073551694
20
-6.57747945800549
30
0
41
1
10
33.2804455603128
20
-6.65210380465206
30
0
0
SPLINE
5
1C3
100
AcDbEntity
8
1
62
256
6
ByLayer
370
13
48
1
60
0
100
AcDbSpline
70
4
71
3
72
12
73
8
40
0
40
0
40
0
40
0
40
0.46817896742225
40
0.46817896742225
40
0.899165978787896
40
0.899165978787896
40
1
40
1
40
1
40
1
41
1
10
34.8587805434613
20
-8.66442418535101
30
0
41
1
10
34.6775060355049
20
-8.63590048824645
30
0
41
1
10
34.4936117660434
20
-8.60111827020384
30
0
41
1
10
34.1658158689767
20
-8.55746536272898
30
0
41
1
10
34.0153724323278
20
-8.5433983198626
30
0
41
1
10
33.8560286247614
20
-8.54465252212768
30
0
41
1
10
33.8264524991724
20
-8.54575209600924
30
0
41
1
10
33.7981203716814
20
-8.54784802843125
30
0
0
SPLINE
5
1C4
100
AcDbEntity
8
1
62
256
6
ByLayer
370
13
48
1
60
0
100
AcDbSpline
70
4
71
3
72
12
73
8
40
0
40
0
40
0
40
0
40
0.46817896742225
40
0.46817896742225
40
0.899165978787896
40
0.899165978787896
40
1
40
1
40
1
40
1
41
1
10
34.8587805434613
20
-6.33557581464873
30
0
41
1
10
34.6775060355049
20
-6.3640995117533
30
0
41
1
10
34.4936117660434
20
-6.3988817297959
30
0
41
1
10
34.1658158689767
20
-6.44253463727077
30
0
41
1
10
34.0153724323278
20
-6.45660168013714
30
0
41
1
10
33.8560286247614
20
-6.45534747787207
30
0
41
1
10
33.8264524991724
20
-6.45424790399051
30
0
41
1
10
33.7981203716814
20
-6.4521519715685
30
0
0
SPLINE
5
1C5
100
AcDbEntity
8
1
62
256
6
ByLayer
370
13
48
1
60
0
100
AcDbSpline
70
4
71
3
72
10
73
6
40
0
40
0
40
0
40
0
40
0.132191617121101
40
0.132191617121101
40
1
40
1
40
1
40
1
41
1
10
33.6573483090604
20
-8.40598072546726
30
0
41
1
10
33.6564468305522
20
-8.40694594065772
30
0
41
1
10
33.65552642843
20
-8.4079366369628
30
0
41
1
10
33.648454107713
20
-8.41558766048709
30
0
41
1
10
33.6414978788605
20
-8.42332919370662
30
0
41
1
10
33.6339180002563
20
-8.43195860899502
30
0
0
SPLINE
5
1C6
100
AcDbEntity
8
1
62
256
6
ByLayer
370
13
48
1
60
0
100
AcDbSpline
70
4
71
3
72
14
73
10
40
0
40
0
40
0
40
0
40
0.447953066725052
40
0.447953066725052
40
0.912809598186729
40
0.912809598186729
40
0.983423615312508
40
0.983423615312508
40
1
40
1
40
1
40
1
41
1
10
33.6339180002563
20
-8.43195860899561
30
0
41
1
10
33.6203040290404
20
-8.44745761864584
30
0
41
1
10
33.6040154112901
20
-8.46599075134168
30
0
41
1
10
33.5683740707567
20
-8.50650507970207
30
0
41
1
10
33.5483538761323
20
-8.52924317278431
30
0
41
1
10
33.5253006224606
20
-8.55539969292249
30
0
41
1
10
33.5222095971504
20
-8.55890629504339
30
0
41
1
10
33.5184037038144
20
-8.5632232403093
30
0
41
1
10
33.5176888999301
20
-8.56403397224946
30
0
41
1
10
33.5169741247485
20
-8.56484469921483
30
0
0
SPLINE
5
1C7
100
AcDbEntity
8
1
62
256
6
ByLayer
370
13
48
1
60
0
100
AcDbSpline
70
4
71
3
72
14
73
10
40
0
40
0
40
0
40
0
40
0.447953066725053
40
0.447953066725053
40
0.912809598186729
40
0.912809598186729
40
0.983423615312508
40
0.983423615312508
40
1
40
1
40
1
40
1
41
1
10
33.6339180002563
20
-6.56804139100413
30
0
41
1
10
33.6203040290404
20
-6.5525423813539
30
0
41
1
10
33.6040154112901
20
-6.53400924865807
30
0
41
1
10
33.5683740707567
20
-6.49349492029771
30
0
41
1
10
33.5483538761323
20
-6.47075682721544
30
0
41
1
10
33.5253006224606
20
-6.44460030707725
30
0
41
1
10
33.5222095971504
20
-6.44109370495636
30
0
41
1
10
33.5184037038144
20
-6.43677675969047
30
0
41
1
10
33.5176888999301
20
-6.43596602775028
30
0
41
1
10
33.5169741247485
20
-6.43515530078491
30
0
0
SPLINE
5
1C8
100
AcDbEntity
8
1
62
256
6
ByLayer
370
13
48
1
60
0
100
AcDbSpline
70
4
71
3
72
10
73
6
40
0
40
0
40
0
40
0
40
0.132191617121101
40
0.132191617121101
40
1
40
1
40
1
40
1
41
1
10
33.6573483090604
20
-6.59401927453249
30
0
41
1
10
33.6564468305522
20
-6.59305405934202
30
0
41
1
10
33.65552642843
20
-6.59206336303694
30
0
41
1
10
33.648454107713
20
-6.58441233951265
30
0
41
1
10
33.6414978788605
20
-6.57667080629312
30
0
41
1
10
33.6339180002563
20
-6.56804139100473
30
0
0
SPLINE
5
1C9
100
AcDbEntity
8
1
62
256
6
ByLayer
370
13
48
1
60
0
100
AcDbSpline
70
4
71
3
72
12
73
8
40
0
40
0
40
0
40
0
40
0.559278359968975
40
0.559278359968975
40
0.982064699130975
40
0.982064699130975
40
1
40
1
40
1
40
1
41
1
10
33.2655988415542
20
-8.19700762342219
30
0
41
1
10
33.2639058993619
20
-8.16480806215438
30
0
41
1
10
33.2615176185074
20
-8.13563308751796
30
0
41
1
10
33.2565061637905
20
-8.0946350461351
30
0
41
1
10
33.2540306406306
20
-8.07989245971569
30
0
41
1
10
33.2512781291035
20
-8.06851921291164
30
0
41
1
10
33.2511665651817
20
-8.06806610520633
30
0
41
1
10
33.2510546870628
20
-8.06761951385369
30
0
0
SPLINE
5
1CA
100
AcDbEntity
8
1
62
256
6
ByLayer
370
13
48
1
60
0
100
AcDbSpline
70
4
71
3
72
10
73
6
40
0
40
0
40
0
40
0
40
0.709641074204652
40
0.709641074204652
40
1
40
1
40
1
40
1
41
1
10
33.2804455603128
20
-8.34789619534769
30
0
41
1
10
33.2753414889782
20
-8.31103198859191
30
0
41
1
10
33.2711861437205
20
-8.27339417655344
30
0
41
1
10
33.2672412502849
20
-8.22439290248505
30
0
41
1
10
33.2663022439904
20
-8.21038625498676
30
0
41
1
10
33.2655988415525
20
-8.19700762342214
30
0
0
SPLINE
5
1CB
100
AcDbEntity
8
1
62
256
6
ByLayer
370
13
48
1
60
0
100
AcDbSpline
70
4
71
3
72
12
73
8
40
0
40
0
40
0
40
0
40
0.135507654329451
40
0.135507654329451
40
0.742115377580087
40
0.742115377580087
40
1
40
1
40
1
40
1
41
1
10
33.2804455603128
20
-6.65210380465206
30
0
41
1
10
33.2794577311546
20
-6.65923841072274
30
0
41
1
10
33.2785068164279
20
-6.66638267298202
30
0
41
1
10
33.2735694178171
20
-6.7050350454403
30
0
41
1
10
33.2702919601627
20
-6.73670564906041
30
0
41
1
10
33.2670296012879
20
-6.7787994893875
30
0
41
1
10
33.2662219824782
20
-6.79114030955031
30
0
41
1
10
33.2655988415537
20
-6.80299237657755
30
0
0
SPLINE
5
1CC
100
AcDbEntity
8
1
62
256
6
ByLayer
370
13
48
1
60
0
100
AcDbSpline
70
4
71
3
72
14
73
10
40
0
40
0
40
0
40
0
40
0.0177509856471946
40
0.0177509856471946
40
0.340726860481444
40
0.340726860481444
40
0.792711195890233
40
0.792711195890233
40
1
40
1
40
1
40
1
41
1
10
33.2510546870628
20
-6.93238048614609
30
0
41
1
10
33.2511665651505
20
-6.93193389479364
30
0
41
1
10
33.2512781289784
20
-6.93148078708893
30
0
41
1
10
33.2534062656342
20
-6.92268743004436
30
0
41
1
10
33.255323964045
20
-6.91215262402383
30
0
41
1
10
33.2595178404373
20
-6.88254103823971
30
0
41
1
10
33.2616827821098
20
-6.8613706218627
30
0
41
1
10
33.2642384176627
20
-6.82665312227203
30
0
41
1
10
33.2649648606851
20
-6.81505061809872
30
0
41
1
10
33.2655988415542
20
-6.80299237657755
30
0
0
SPLINE
5
1CD
100
AcDbEntity
8
1
62
256
6
ByLayer
370
13
48
1
60
0
100
AcDbSpline
70
4
71
3
72
18
73
14
40
0
40
0
40
0
40
0
40
0.10212592206704
40
0.10212592206704
40
0.219798180864097
40
0.219798180864097
40
0.395678331134856
40
0.395678331134856
40
0.733655817510089
40
0.733655817510089
40
0.802063348489368
40
0.802063348489368
40
1
40
1
40
1
40
1
41
1
10
32.8559779585026
20
-8.32675567745099
30
0
41
1
10
32.8564416368177
20
-8.31347604721969
30
0
41
1
10
32.85608929913
20
-8.30011695257122
30
0
41
1
10
32.8536446728814
20
-8.2718846307219
30
0
41
1
10
32.8512850832915
20
-8.25695210644261
30
0
41
1
10
32.8431564052165
20
-8.22120155862447
30
0
41
1
10
32.8362096466949
20
-8.20077334525439
30
0
41
1
10
32.8118798067115
20
-8.14653355932157
30
0
41
1
10
32.7902866995539
20
-8.11615181986494
30
0
41
1
10
32.7616240935597
20
-8.08719393333263
30
0
41
1
10
32.756622989345
20
-8.08249458645574
30
0
41
1
10
32.7368310070575
20
-8.06516411549663
30
0
41
1
10
32.7212866355731
20
-8.05421914629324
30
0
41
1
10
32.7052940680712
20
-8.0451731223788
30
0
0
SPLINE
5
1CE
100
AcDbEntity
8
1
62
256
6
ByLayer
370
13
48
1
60
0
100
AcDbSpline
70
4
71
3
72
14
73
10
40
0
40
0
40
0
40
0
40
0.447954004797037
40
0.447954004797037
40
0.912810038934036
40
0.912810038934036
40
0.983423779130199
40
0.983423779130199
40
1
40
1
40
1
40
1
41
1
10
33.6933275812136
20
-8.54953045594911
30
0
41
1
10
33.6727755286919
20
-8.55131539602743
30
0
41
1
10
33.6481939779357
20
-8.55345021007523
30
0
41
1
10
33.5944355442363
20
-8.55811861833618
30
0
41
1
10
33.5642532997474
20
-8.56073950393437
30
0
41
1
10
33.5295181484127
20
-8.56375553025188
30
0
41
1
10
33.5248611889835
20
-8.5641598862849
30
0
41
1
10
33.5191276857054
20
-8.56465771169789
30
0
41
1
10
33.5180508939063
20
-8.56475120632902
30
0
41
1
10
33.5169741247543
20
-8.56484469921597
30
0
0
SPLINE
5
1CF
100
AcDbEntity
8
1
62
256
6
ByLayer
370
13
48
1
60
0
100
AcDbSpline
70
4
71
3
72
14
73
10
40
0
40
0
40
0
40
0
40
0.447954004797037
40
0.447954004797037
40
0.912810038934036
40
0.912810038934036
40
0.983423779130199
40
0.983423779130199
40
1
40
1
40
1
40
1
41
1
10
33.6933275812136
20
-6.45046954405063
30
0
41
1
10
33.6727755286919
20
-6.44868460397231
30
0
41
1
10
33.6481939779357
20
-6.44654978992452
30
0
41
1
10
33.5944355442363
20
-6.44188138166356
30
0
41
1
10
33.5642532997474
20
-6.43926049606537
30
0
41
1
10
33.5295181484127
20
-6.43624446974786
30
0
41
1
10
33.5248611889835
20
-6.43584011371487
30
0
41
1
10
33.5191276857054
20
-6.43534228830185
30
0
41
1
10
33.5180508939063
20
-6.43524879367072
30
0
41
1
10
33.5169741247543
20
-6.43515530078378
30
0
0
SPLINE
5
1D0
100
AcDbEntity
8
1
62
256
6
ByLayer
370
13
48
1
60
0
100
AcDbSpline
70
4
71
3
72
12
73
8
40
0
40
0
40
0
40
0
40
0.356479833160399
40
0.356479833160399
40
0.824168720346733
40
0.824168720346733
40
1
40
1
40
1
40
1
41
1
10
33.264378753796
20
-6.94368968725979
30
0
41
1
10
33.2767763033464
20
-6.95020268645143
30
0
41
1
10
33.2880463981536
20
-6.95779876379049
30
0
41
1
10
33.3095864832785
20
-6.97831510883211
30
0
41
1
10
33.3185295226103
20
-6.99249489355682
30
0
41
1
10
33.3240732667399
20
-7.01520044007503
30
0
41
1
10
33.3249217874922
20
-7.02181598234975
30
0
41
1
10
33.3250392603487
20
-7.02871104769517
30
0
0
SPLINE
5
1D1
100
AcDbEntity
8
1
62
256
6
ByLayer
370
13
48
1
60
0
100
AcDbSpline
70
4
71
3
72
12
73
8
40
0
40
0
40
0
40
0
40
0.443558069836982
40
0.443558069836982
40
0.507222026557664
40
0.507222026557664
40
1
40
1
40
1
40
1
41
1
10
33.3250392603487
20
-7.02871104769523
30
0
41
1
10
33.325625933741
20
-7.06314582266035
30
0
41
1
10
33.3334575781989
20
-7.10407418505454
30
0
41
1
10
33.3513800260717
20
-7.15261593058659
30
0
41
1
10
33.3538277204396
20
-7.15884065505205
30
0
41
1
10
33.376282853545
20
-7.21260346183027
30
0
41
1
10
33.406340828125
20
-7.26250087339659
30
0
41
1
10
33.4439598709927
20
-7.30761851578507
30
0
0
SPLINE
5
1D2
100
AcDbEntity
8
1
62
256
6
ByLayer
370
13
48
1
60
0
100
AcDbSpline
70
4
71
3
72
18
73
14
40
0
40
0
40
0
40
0
40
0.262962488711577
40
0.262962488711577
40
0.43136352889061
40
0.43136352889061
40
0.488169625072958
40
0.488169625072958
40
0.652801403480982
40
0.652801403480982
40
0.712254155913291
40
0.712254155913291
40
1
40
1
40
1
40
1
41
1
10
33.4439598709927
20
-7.30761851578507
30
0
41
1
10
33.4671201854563
20
-7.33539537308596
30
0
41
1
10
33.4885389915201
20
-7.36615665508242
30
0
41
1
10
33.513950371308
20
-7.42208948386329
30
0
41
1
10
33.5214580237961
20
-7.44579242783914
30
0
41
1
10
33.5259784141927
20
-7.47828783334046
30
0
41
1
10
33.5266641796623
20
-7.48665630033722
30
0
41
1
10
33.5274106952604
20
-7.51892150576435
30
0
41
1
10
33.52374714007
20
-7.5432293424189
30
0
41
1
10
33.5143596854291
20
-7.57416578823162
30
0
41
1
10
33.5114227244077
20
-7.5823043815642
30
0
41
1
10
33.4925277493289
20
-7.62811384248746
30
0
41
1
10
33.4692256559174
20
-7.66207947326492
30
0
41
1
10
33.4439598709998
20
-7.69238148420609
30
0
0
SPLINE
5
1D3
100
AcDbEntity
8
1
62
256
6
ByLayer
370
13
48
1
60
0
100
AcDbSpline
70
4
71
3
72
12
73
8
40
0
40
0
40
0
40
0
40
0.0695374380305743
40
0.0695374380305743
40
0.564718845075643
40
0.564718845075643
40
1
40
1
40
1
40
1
41
1
10
33.4439598709998
20
-7.69238148420609
30
0
41
1
10
33.4385610813285
20
-7.69885641400609
30
0
41
1
10
33.4333230650435
20
-7.70541096353017
30
0
41
1
10
33.3927993674551
20
-7.7583263081585
30
0
41
1
10
33.3653523725795
20
-7.8087888540874
30
0
41
1
10
33.3331669750442
20
-7.89741176718468
30
0
41
1
10
33.3256153955241
20
-7.93747271762203
30
0
41
1
10
33.3250392603487
20
-7.97128895230455
30
0
0
SPLINE
5
1D4
100
AcDbEntity
8
1
62
256
6
ByLayer
370
13
48
1
60
0
100
AcDbSpline
70
4
71
3
72
10
73
6
40
0
40
0
40
0
40
0
40
0.323499890762715
40
0.323499890762715
40
1
40
1
40
1
40
1
41
1
10
33.3250392603487
20
-7.97128895230455
30
0
41
1
10
33.3248229895013
20
-7.98398296239677
30
0
41
1
10
33.3221009308091
20
-7.99574652666672
30
0
41
1
10
33.3072698303882
20
-8.02768607451819
30
0
41
1
10
33.2876680100065
20
-8.04407540242511
30
0
41
1
10
33.264378753796
20
-8.05631031273995
30
0
0
SPLINE
5
1D5
100
AcDbEntity
8
1
62
256
6
ByLayer
370
13
48
1
60
0
100
AcDbSpline
70
4
71
3
72
12
73
8
40
0
40
0
40
0
40
0
40
0.833271550695841
40
0.833271550695841
40
0.924873187913958
40
0.924873187913958
40
1
40
1
40
1
40
1
41
1
10
32.4610166945645
20
-7.99408820314815
30
0
41
1
10
32.4544754484441
20
-7.95957089979623
30
0
41
1
10
32.4449923927373
20
-7.91689667932988
30
0
41
1
10
32.440181068922
20
-7.86356693418878
30
0
41
1
10
32.4397613475273
20
-7.85814730555853
30
0
41
1
10
32.4391308505303
20
-7.84816316617932
30
0
41
1
10
32.4388959908553
20
-7.84361889189267
30
0
41
1
10
32.4387159227923
20
-7.83903296324291
30
0
0
SPLINE
5
1D6
100
AcDbEntity
8
1
62
256
6
ByLayer
370
13
48
1
60
0
100
AcDbSpline
70
4
71
3
72
8
73
4
40
0
40
0
40
0
40
0
40
1
40
1
40
1
40
1
41
1
10
32.4387159227923
20
-7.83903296324291
30
0
41
1
10
32.4599873122029
20
-7.83289424152949
30
0
41
1
10
32.4815114137464
20
-7.82715221194934
30
0
41
1
10
32.5032105368037
20
-7.82177562535759
30
0
0
SPLINE
5
1D7
100
AcDbEntity
8
1
62
256
6
ByLayer
370
13
48
1
60
0
100
AcDbSpline
70
4
71
3
72
8
73
4
40
0
40
0
40
0
40
0
40
1
40
1
40
1
40
1
41
1
10
32.5032105368034
20
-7.82177562535591
30
0
41
1
10
32.5062783445422
20
-7.82101548708161
30
0
41
1
10
32.5093468504694
20
-7.82025544275152
30
0
41
1
10
32.5124160421628
20
-7.81949549106707
30
0
0
SPLINE
5
1D8
100
AcDbEntity
8
1
62
256
6
ByLayer
370
13
48
1
60
0
100
AcDbSpline
70
4
71
3
72
26
73
22
40
0
40
0
40
0
40
0
40
0.0783346115779722
40
0.0783346115779722
40
0.229067417424992
40
0.229067417424992
40
0.361148737487712
40
0.361148737487712
40
0.451044286208709
40
0.451044286208709
40
0.480076288213215
40
0.480076288213215
40
0.580804987892491
40
0.580804987892491
40
0.598553408472289
40
0.598553408472289
40
0.721865021031447
40
0.721865021031447
40
0.852573440596253
40
0.852573440596253
40
1
40
1
40
1
40
1
41
1
10
32.5124160421628
20
-7.81949549106707
30
0
41
1
10
32.5363716105935
20
-7.81356393761592
30
0
41
1
10
32.5598327503349
20
-7.80615867064284
30
0
41
1
10
32.6253859658397
20
-7.77990082960787
30
0
41
1
10
32.6659116446279
20
-7.75630104982363
30
0
41
1
10
32.7301656555828
20
-7.69934843260813
30
0
41
1
10
32.7562012292316
20
-7.66662924968639
30
0
41
1
10
32.7871009177855
20
-7.60422694671448
30
0
41
1
10
32.7963228169934
20
-7.57621811581481
30
0
41
1
10
32.8026526489823
20
-7.53814761159421
30
0
41
1
10
32.8037565534503
20
-7.52864706678437
30
0
41
1
10
32.806535622122
20
-7.48664874240984
30
0
41
1
10
32.8029896944569
20
-7.45309945024871
30
0
41
1
10
32.7928135335291
20
-7.41656062366437
30
0
41
1
10
32.7911033398723
20
-7.41105846188282
30
0
41
1
10
32.7765578244499
20
-7.36867911819266
30
0
41
1
10
32.7563208175635
20
-7.33459999461061
30
0
41
1
10
32.7056247831178
20
-7.27569807805153
30
0
41
1
10
32.673851925294
20
-7.25041471414903
30
0
41
1
10
32.6004676930902
20
-7.2079441245458
30
0
41
1
10
32.5571805456305
20
-7.19158848908535
30
0
41
1
10
32.5124160421628
20
-7.18050450893267
30
0
0
SPLINE
5
1D9
100
AcDbEntity
8
1
62
256
6
ByLayer
370
13
48
1
60
0
100
AcDbSpline
70
4
71
3
72
8
73
4
40
0
40
0
40
0
40
0
40
1
40
1
40
1
40
1
41
1
10
32.5124160421628
20
-7.18050450893267
30
0
41
1
10
32.5093468504694
20
-7.17974455724823
30
0
41
1
10
32.5062783445422
20
-7.17898451291813
30
0
41
1
10
32.5032105368034
20
-7.17822437464383
30
0
0
SPLINE
5
1DA
100
AcDbEntity
8
1
62
256
6
ByLayer
370
13
48
1
60
0
100
AcDbSpline
70
4
71
3
72
8
73
4
40
0
40
0
40
0
40
0
40
1
40
1
40
1
40
1
41
1
10
32.5032105368034
20
-7.17822437464383
30
0
41
1
10
32.481511413746
20
-7.17284778805205
30
0
41
1
10
32.4599873122031
20
-7.16710575846847
30
0
41
1
10
32.4387159227924
20
-7.16096703675507
30
0
0
SPLINE
5
1DB
100
AcDbEntity
8
1
62
256
6
ByLayer
370
13
48
1
60
0
100
AcDbSpline
70
4
71
3
72
10
73
6
40
0
40
0
40
0
40
0
40
0.0748872813144652
40
0.0748872813144652
40
1
40
1
40
1
40
1
41
1
10
32.4387159227923
20
-7.16096703675683
30
0
41
1
10
32.4388959908553
20
-7.15638110810707
30
0
41
1
10
32.4391308505303
20
-7.15183683382042
30
0
41
1
10
32.4428644178648
20
-7.0927144956872
30
0
41
1
10
32.4537561749332
20
-7.04422461278796
30
0
41
1
10
32.4610166945643
20
-7.00591179685304
30
0
0
SPLINE
5
1DC
100
AcDbEntity
8
1
62
256
6
ByLayer
370
13
48
1
60
0
100
AcDbSpline
70
4
71
3
72
20
73
16
40
0
40
0
40
0
40
0
40
0.114266316237489
40
0.114266316237489
40
0.331231960429442
40
0.331231960429442
40
0.599155656755157
40
0.599155656755157
40
0.722874848940947
40
0.722874848940947
40
0.871512516236653
40
0.871512516236653
40
0.967654963824484
40
0.967654963824484
40
1
40
1
40
1
40
1
41
1
10
32.7052940680729
20
-6.95482687762143
30
0
41
1
10
32.7145383163395
20
-6.9495979679495
30
0
41
1
10
32.7236231348746
20
-6.94374091757888
30
0
41
1
10
32.7492280670811
20
-6.92496821515147
30
0
41
1
10
32.765276744252
20
-6.91031630553613
30
0
41
1
10
32.7980286906964
20
-6.87242711839505
30
0
41
1
10
32.8143711478299
20
-6.84753182776194
30
0
41
1
10
32.8331414661541
20
-6.80623036215439
30
0
41
1
10
32.8383907764822
20
-6.79228566333444
30
0
41
1
10
32.847858461063
20
-6.76034621501634
30
0
41
1
10
32.8517121178798
20
-6.74188231462597
30
0
41
1
10
32.8553663096761
20
-6.7108205811756
30
0
41
1
10
32.8561297476895
20
-6.69834535713156
30
0
41
1
10
32.856190626378
20
-6.6816675033306
30
0
41
1
10
32.8561249332387
20
-6.67745364198862
30
0
41
1
10
32.8559779585028
20
-6.67324432254875
30
0
0
SPLINE
5
1DD
100
AcDbEntity
8
1
62
256
6
ByLayer
370
13
48
1
60
0
100
AcDbSpline
70
4
71
3
72
16
73
12
40
0
40
0
40
0
40
0
40
0.249954056036558
40
0.249954056036558
40
0.699484194384015
40
0.699484194384015
40
0.851133931227642
40
0.851133931227642
40
0.935108677236773
40
0.935108677236773
40
1
40
1
40
1
40
1
41
1
10
32.6267110292774
20
-8.22689749650448
30
0
41
1
10
32.6427048966234
20
-8.23044900069516
30
0
41
1
10
32.6585947536485
20
-8.234631905269
30
0
41
1
10
32.7021970348682
20
-8.24856748659957
30
0
41
1
10
32.7302297071817
20
-8.25977140760449
30
0
41
1
10
32.7625570510524
20
-8.28321931948699
30
0
41
1
10
32.7704121947256
20
-8.29006506245122
30
0
41
1
10
32.7801629147231
20
-8.3028211492217
30
0
41
1
10
32.7831940821262
20
-8.30790775316095
30
0
41
1
10
32.7866841498694
20
-8.31762980670325
30
0
41
1
10
32.7875739298375
20
-8.32222004494145
30
0
41
1
10
32.7875739298375
20
-8.32675567745099
30
0
0
SPLINE
5
1DE
100
AcDbEntity
8
1
62
256
6
ByLayer
370
13
48
1
60
0
100
AcDbSpline
70
4
71
3
72
20
73
16
40
0
40
0
40
0
40
0
40
0.0199906994069362
40
0.0199906994069362
40
0.0825919577440876
40
0.0825919577440876
40
0.195169299288357
40
0.195169299288357
40
0.306011529795777
40
0.306011529795777
40
0.591177675589546
40
0.591177675589546
40
0.85412822131223
40
0.85412822131223
40
1
40
1
40
1
40
1
41
1
10
32.7875739298376
20
-6.67324432254875
30
0
41
1
10
32.7875739298376
20
-6.6746558473501
30
0
41
1
10
32.7874914943693
20
-6.6760698732453
30
0
41
1
10
32.7868329759386
20
-6.68180287022795
30
0
41
1
10
32.7855574593884
20
-6.68607184919017
30
0
41
1
10
32.7806296077618
20
-6.69703785888757
30
0
41
1
10
32.7758782533064
20
-6.70328635956253
30
0
41
1
10
32.7654630806491
20
-6.71414510416855
30
0
41
1
10
32.7596763814819
20
-6.71891740982323
30
0
41
1
10
32.7382455610535
20
-6.73428307382153
30
0
41
1
10
32.7211325656859
20
-6.74266128671269
30
0
41
1
10
32.6877211729543
20
-6.75624756481449
30
0
41
1
10
32.6712362948113
20
-6.76161935064692
30
0
41
1
10
32.6453568251732
20
-6.76873580470436
30
0
41
1
10
32.6360536989462
20
-6.77102792517289
30
0
41
1
10
32.6267110292773
20
-6.77310250349535
30
0
0
SPLINE
5
1DF
100
AcDbEntity
8
1
62
256
6
ByLayer
370
13
48
1
60
0
100
AcDbSpline
70
4
71
3
72
14
73
10
40
0
40
0
40
0
40
0
40
0.0177534078899156
40
0.0177534078899156
40
0.340744812432132
40
0.340744812432132
40
0.785966596962005
40
0.785966596962005
40
1
40
1
40
1
40
1
41
1
10
33.2510546870628
20
-6.93238048614609
30
0
41
1
10
33.2520935591131
20
-6.93211931814156
30
0
41
1
10
33.2531321595046
20
-6.93185165636899
30
0
41
1
10
33.2729966272013
20
-6.92660515575244
30
0
41
1
10
33.2917885884791
20
-6.91943994024481
30
0
41
1
10
33.3347600859257
20
-6.89782268969552
30
0
41
1
10
33.3587945413718
20
-6.88138510197987
30
0
41
1
10
33.3910000960522
20
-6.85267381370181
30
0
41
1
10
33.4010527060187
20
-6.84255827920998
30
0
41
1
10
33.4104895579289
20
-6.83185405410339
30
0
0
SPLINE
5
1E0
100
AcDbEntity
8
1
62
256
6
ByLayer
370
13
48
1
60
0
100
AcDbSpline
70
4
71
3
72
12
73
8
40
0
40
0
40
0
40
0
40
0.559301985460886
40
0.559301985460886
40
0.982067221682947
40
0.982067221682947
40
1
40
1
40
1
40
1
41
1
10
33.410489557929
20
-8.16814594589636
30
0
41
1
10
33.3860762799805
20
-8.14045395441059
30
0
41
1
10
33.3571861880885
20
-8.11654610827165
30
0
41
1
10
33.3034740589433
20
-8.08525128859327
30
0
41
1
10
33.2788250511787
20
-8.07493421748569
30
0
41
1
10
33.2531321595027
20
-8.06814834363195
30
0
41
1
10
33.2520935591125
20
-8.06788068185855
30
0
41
1
10
33.2510546870628
20
-8.06761951385369
30
0
0
SPLINE
5
1E1
100
AcDbEntity
8
1
62
256
6
ByLayer
370
13
48
1
60
0
100
AcDbSpline
70
4
71
3
72
8
73
4
40
0
40
0
40
0
40
0
40
1
40
1
40
1
40
1
41
1
10
32.0639115680548
20
-8.63391723752119
30
0
41
1
10
32.1472851478713
20
-8.49513446737836
30
0
41
1
10
32.216569163954
20
-8.3469659249435
30
0
41
1
10
32.2825621452742
20
-8.19796709438123
30
0
0
SPLINE
5
1E2
100
AcDbEntity
8
1
62
256
6
ByLayer
370
13
48
1
60
0
100
AcDbSpline
70
4
71
3
72
16
73
12
40
0
40
0
40
0
40
0
40
0.0745951303882249
40
0.0745951303882249
40
0.27553513169183
40
0.27553513169183
40
0.501427420118119
40
0.501427420118119
40
0.725494997757322
40
0.725494997757322
40
1
40
1
40
1
40
1
41
1
10
32.2825621452742
20
-8.19796709438123
30
0
41
1
10
32.2837736749442
20
-8.19523170494409
30
0
41
1
10
32.2851163296951
20
-8.1925572078749
30
0
41
1
10
32.2905147865575
20
-8.18307673582223
30
0
41
1
10
32.295461783055
20
-8.17671054247759
30
0
41
1
10
32.3076198241713
20
-8.16556313295479
30
0
41
1
10
32.3152342937161
20
-8.16092416719417
30
0
41
1
10
32.331205119136
20
-8.15503101892432
30
0
41
1
10
32.3397662566658
20
-8.15364009913773
30
0
41
1
10
32.3585207140202
20
-8.15356420092218
30
0
41
1
10
32.3689309570328
20
-8.15550454585846
30
0
41
1
10
32.3787842780358
20
-8.15878427086309
30
0
0
SPLINE
5
1E3
100
AcDbEntity
8
1
62
256
6
ByLayer
370
13
48
1
60
0
100
AcDbSpline
70
4
71
3
72
16
73
12
40
0
40
0
40
0
40
0
40
0.108772443208259
40
0.108772443208259
40
0.369799377627614
40
0.369799377627614
40
0.571154122074464
40
0.571154122074464
40
0.786314444449857
40
0.786314444449857
40
1
40
1
40
1
40
1
41
1
10
32.3787842780346
20
-6.84121572913745
30
0
41
1
10
32.374842530994
20
-6.84252775848538
30
0
41
1
10
32.3708295616293
20
-6.84362271353081
30
0
41
1
10
32.3571495011343
20
-6.84645614102638
30
0
41
1
10
32.3470910912765
20
-6.84701608492082
30
0
41
1
10
32.3298590002818
20
-6.84450659509108
30
0
41
1
10
32.3223925092281
20
-6.84218599469651
30
0
41
1
10
32.3083165495633
20
-6.83486499514873
30
0
41
1
10
32.301614556307
20
-6.82958017836893
30
0
41
1
10
32.2905405846473
20
-6.81710231391739
30
0
41
1
10
32.2859929686991
20
-6.80977901236523
30
0
41
1
10
32.2825621452759
20
-6.80203290561747
30
0
0
SPLINE
5
1E4
100
AcDbEntity
8
1
62
256
6
ByLayer
370
13
48
1
60
0
100
AcDbSpline
70
4
71
3
72
8
73
4
40
0
40
0
40
0
40
0
40
1
40
1
40
1
40
1
41
1
10
32.2825621452735
20
-6.80203290561997
30
0
41
1
10
32.2165691639541
20
-6.65303407505977
30
0
41
1
10
32.1472851478721
20
-6.50486553262724
30
0
41
1
10
32.0639115680571
20
-6.36608276248614
30
0
0
SPLINE
5
1E5
100
AcDbEntity
8
1
62
256
6
ByLayer
370
13
48
1
60
0
100
AcDbSpline
70
4
71
3
72
10
73
6
40
0
40
0
40
0
40
0
40
0.140418403423082
40
0.140418403423082
40
1
40
1
40
1
40
1
41
1
10
33.6950622867786
20
-8.54916944993403
30
0
41
1
10
33.6949786281127
20
-8.54916685972051
30
0
41
1
10
33.6948949964083
20
-8.54916665563485
30
0
41
1
10
33.6943060068435
20
-8.54918317198141
30
0
41
1
10
33.693796745917
20
-8.54929338473644
30
0
41
1
10
33.6933275812036
20
-8.54953045574462
30
0
0
SPLINE
5
1E6
100
AcDbEntity
8
1
62
256
6
ByLayer
370
13
48
1
60
0
100
AcDbSpline
70
4
71
3
72
8
73
4
40
0
40
0
40
0
40
0
40
1
40
1
40
1
40
1
41
1
10
33.7981203716814
20
-8.54784802843125
30
0
41
1
10
33.7638409048776
20
-8.54970441865103
30
0
41
1
10
33.7294607622627
20
-8.55023448479719
30
0
41
1
10
33.6950622867787
20
-8.54916944993403
30
0
0
SPLINE
5
1E7
100
AcDbEntity
8
1
62
256
6
ByLayer
370
13
48
1
60
0
100
AcDbSpline
70
4
71
3
72
8
73
4
40
0
40
0
40
0
40
0
40
1
40
1
40
1
40
1
41
1
10
33.7981203716814
20
-6.4521519715685
30
0
41
1
10
33.7638409048776
20
-6.45029558134871
30
0
41
1
10
33.7294607622627
20
-6.44976551520259
30
0
41
1
10
33.6950622867787
20
-6.45083055006572
30
0
0
SPLINE
5
1E8
100
AcDbEntity
8
1
62
256
6
ByLayer
370
13
48
1
60
0
100
AcDbSpline
70
4
71
3
72
10
73
6
40
0
40
0
40
0
40
0
40
0.140418403423082
40
0.140418403423082
40
1
40
1
40
1
40
1
41
1
10
33.6950622867786
20
-6.45083055006572
30
0
41
1
10
33.6949786281127
20
-6.45083314027923
30
0
41
1
10
33.6948949964083
20
-6.4508333443649
30
0
41
1
10
33.6943060068435
20
-6.45081682801833
30
0
41
1
10
33.693796745917
20
-6.4507066152633
30
0
41
1
10
33.6933275812036
20
-6.45046954425513
30
0
0
SPLINE
5
1E9
100
AcDbEntity
8
1
62
256
6
ByLayer
370
13
48
1
60
0
100
AcDbSpline
70
4
71
3
72
8
73
4
40
0
40
0
40
0
40
0
40
1
40
1
40
1
40
1
41
1
10
33.264378753796
20
-8.05631031273995
30
0
41
1
10
33.2599671112989
20
-8.06008591710179
30
0
41
1
10
33.2555251065502
20
-8.06385555773741
30
0
41
1
10
33.2510546870628
20
-8.06761951385369
30
0
0
SPLINE
5
1EA
100
AcDbEntity
8
1
62
256
6
ByLayer
370
13
48
1
60
0
100
AcDbSpline
70
4
71
3
72
8
73
4
40
0
40
0
40
0
40
0
40
1
40
1
40
1
40
1
41
1
10
33.2510546870628
20
-6.93238048614606
30
0
41
1
10
33.2555251065502
20
-6.93614444226233
30
0
41
1
10
33.2599671112989
20
-6.93991408289796
30
0
41
1
10
33.264378753796
20
-6.94368968725979
30
0
0
SPLINE
5
1EB
100
AcDbEntity
8
1
62
256
6
ByLayer
370
13
48
1
60
0
100
AcDbSpline
70
4
71
3
72
12
73
8
40
0
40
0
40
0
40
0
40
0.473871515909109
40
0.473871515909109
40
0.928528687587425
40
0.928528687587425
40
1
40
1
40
1
40
1
41
1
10
33.5896201413499
20
-7.21142777368044
30
0
41
1
10
33.5605769079864
20
-7.17297852056143
30
0
41
1
10
33.538076503972
20
-7.13207086376369
30
0
41
1
10
33.5054858788087
20
-7.05852838351319
30
0
41
1
10
33.4944900899473
20
-7.02481334861835
30
0
41
1
10
33.4859581625813
20
-6.99225944767963
30
0
41
1
10
33.484884631021
20
-6.98791672184836
30
0
41
1
10
33.4838678419132
20
-6.98372671565286
30
0
0
SPLINE
5
1EC
100
AcDbEntity
8
1
62
256
6
ByLayer
370
13
48
1
60
0
100
AcDbSpline
70
4
71
3
72
12
73
8
40
0
40
0
40
0
40
0
40
0.152393412067187
40
0.152393412067187
40
0.68049007519868
40
0.68049007519868
40
1
40
1
40
1
40
1
41
1
10
33.5896201413456
20
-7.21142777368541
30
0
41
1
10
33.6346105972805
20
-7.20247369544552
30
0
41
1
10
33.6812734171468
20
-7.19298342993633
30
0
41
1
10
33.8939294786754
20
-7.14891755517837
30
0
41
1
10
34.0774173301441
20
-7.10883190953632
30
0
41
1
10
34.378376870561
20
-7.03989933500455
30
0
41
1
10
34.4952214954585
20
-7.01239446652329
30
0
41
1
10
34.6112677608007
20
-6.98415892548911
30
0
0
SPLINE
5
1ED
100
AcDbEntity
8
1
62
256
6
ByLayer
370
13
48
1
60
0
100
AcDbSpline
70
4
71
3
72
12
73
8
40
0
40
0
40
0
40
0
40
0.453713856043948
40
0.453713856043948
40
0.935255270278036
40
0.935255270278036
40
1
40
1
40
1
40
1
41
1
10
33.4838678419132
20
-8.01627328434691
30
0
41
1
10
33.4902549278144
20
-7.98995324483138
30
0
41
1
10
33.4997841086873
20
-7.95768553855817
30
0
41
1
10
33.5293410835708
20
-7.88545999860526
30
0
41
1
10
33.5503116579037
20
-7.84418126823738
30
0
41
1
10
33.5817069341031
20
-7.79925808900057
30
0
41
1
10
33.5855997151617
20
-7.79389471855748
30
0
41
1
10
33.5896201413554
20
-7.78857222631203
30
0
0
SPLINE
5
1EE
100
AcDbEntity
8
1
62
256
6
ByLayer
370
13
48
1
60
0
100
AcDbSpline
70
4
71
3
72
12
73
8
40
0
40
0
40
0
40
0
40
0.152393412053729
40
0.152393412053729
40
0.680490075193607
40
0.680490075193607
40
1
40
1
40
1
40
1
41
1
10
33.5896201413597
20
-7.78857222631711
30
0
41
1
10
33.6346105972902
20
-7.79752630455621
30
0
41
1
10
33.6812734171517
20
-7.80701657006446
30
0
41
1
10
33.8939294786754
20
-7.85108244482137
30
0
41
1
10
34.0774173301441
20
-7.89116809046342
30
0
41
1
10
34.378376870561
20
-7.9601006649952
30
0
41
1
10
34.4952214954585
20
-7.98760553347645
30
0
41
1
10
34.6112677608007
20
-8.01584107451063
30
0
0
SPLINE
5
1EF
100
AcDbEntity
8
1
62
256
6
ByLayer
370
13
48
1
60
0
100
AcDbSpline
70
4
71
3
72
16
73
12
40
0
40
0
40
0
40
0
40
0.257384746008501
40
0.257384746008501
40
0.483485531381172
40
0.483485531381172
40
0.71945910330869
40
0.71945910330869
40
0.925748185145375
40
0.925748185145375
40
1
40
1
40
1
40
1
41
1
10
32.4610166945645
20
-7.99408820314815
30
0
41
1
10
32.4316687367362
20
-7.99158615324518
30
0
41
1
10
32.4016686457385
20
-7.99303167351462
30
0
41
1
10
32.3476222628196
20
-8.00302558116522
30
0
41
1
10
32.3228412392242
20
-8.01077693620041
30
0
41
1
10
32.2759336807441
20
-8.03217801485513
30
0
41
1
10
32.2535298246701
20
-8.04627689981885
30
0
41
1
10
32.2168300974004
20
-8.07731374199165
30
0
41
1
10
32.2015959942174
20
-8.09390520913061
30
0
41
1
10
32.1843415664157
20
-8.11841502722518
30
0
41
1
10
32.1800684610182
20
-8.12513847809672
30
0
41
1
10
32.1761342837701
20
-8.13202896532866
30
0
0
SPLINE
5
1F0
100
AcDbEntity
8
1
62
256
6
ByLayer
370
13
48
1
60
0
100
AcDbSpline
70
4
71
3
72
16
73
12
40
0
40
0
40
0
40
0
40
0.215940694014332
40
0.215940694014332
40
0.440749342864023
40
0.440749342864023
40
0.6480631149087
40
0.6480631149087
40
0.900502256755734
40
0.900502256755734
40
1
40
1
40
1
40
1
41
1
10
32.1761342837701
20
-6.86797103467251
30
0
41
1
10
32.1874887091377
20
-6.88785766358839
30
0
41
1
10
32.2017703058923
20
-6.90643615981361
30
0
41
1
10
32.2355311178213
20
-6.93991939289668
30
0
41
1
10
32.2554935542141
20
-6.95493576148874
30
0
41
1
10
32.2971485157203
20
-6.97847508705578
30
0
41
1
10
32.3188925805651
20
-6.98758964772097
30
0
41
1
10
32.3687388690062
20
-7.00214645152329
30
0
41
1
10
32.3977360562636
20
-7.00652212054345
30
0
41
1
10
32.4380565109323
20
-7.00727070339744
30
0
41
1
10
32.4495709364866
20
-7.00688760096367
30
0
41
1
10
32.4610166945642
20
-7.00591179685304
30
0
0
SPLINE
5
1F1
100
AcDbEntity
8
1
62
256
6
ByLayer
370
13
48
1
60
0
100
AcDbSpline
70
4
71
3
72
14
73
10
40
0
40
0
40
0
40
0
40
0.0140696667047013
40
0.0140696667047013
40
0.158297294424887
40
0.158297294424887
40
0.557403345933072
40
0.557403345933072
40
1
40
1
40
1
40
1
41
1
10
32.4387159227632
20
-7.16096703675879
30
0
41
1
10
32.4375460584102
20
-7.16113020680061
30
0
41
1
10
32.4363754680049
20
-7.16128933700341
30
0
41
1
10
32.4230171191251
20
-7.16306567628158
30
0
41
1
10
32.410745606981
20
-7.16429692709184
30
0
41
1
10
32.3650925286651
20
-7.16743902598884
30
0
41
1
10
32.3314247709742
20
-7.1668145658748
30
0
41
1
10
32.2656728605842
20
-7.15970355425077
30
0
41
1
10
32.2330791217041
20
-7.15247101094482
30
0
41
1
10
32.2056329534176
20
-7.14230644342638
30
0
0
SPLINE
5
1F2
100
AcDbEntity
8
1
62
256
6
ByLayer
370
13
48
1
60
0
100
AcDbSpline
70
4
71
3
72
8
73
4
40
0
40
0
40
0
40
0
40
1
40
1
40
1
40
1
41
1
10
32.2056329534174
20
-7.14230644340495
30
0
41
1
10
32.196339183532
20
-7.1388645366697
30
0
41
1
10
32.1875722949159
20
-7.13540482605075
30
0
41
1
10
32.1794417210372
20
-7.13200211971861
30
0
0
SPLINE
5
1F3
100
AcDbEntity
8
1
62
256
6
ByLayer
370
13
48
1
60
0
100
AcDbSpline
70
4
71
3
72
10
73
6
40
0
40
0
40
0
40
0
40
0.782589980152529
40
0.782589980152529
40
1
40
1
40
1
40
1
41
1
10
32.1761342837701
20
-6.86797103467251
30
0
41
1
10
32.1750264075113
20
-6.9278868040868
30
0
41
1
10
32.1733409185196
20
-6.9972283883655
30
0
41
1
10
32.1768419616687
20
-7.09029828505254
30
0
41
1
10
32.1779402791544
20
-7.11102490278037
30
0
41
1
10
32.1794417210385
20
-7.1320021197165
30
0
0
SPLINE
5
1F4
100
AcDbEntity
8
1
62
256
6
ByLayer
370
13
48
1
60
0
100
AcDbSpline
70
4
71
3
72
10
73
6
40
0
40
0
40
0
40
0
40
0.217410019846355
40
0.217410019846355
40
1
40
1
40
1
40
1
41
1
10
32.1794417210371
20
-7.86799788028196
30
0
41
1
10
32.177940279153
20
-7.88897509721812
30
0
41
1
10
32.1768419616687
20
-7.9097017149472
30
0
41
1
10
32.1733409185196
20
-8.00277161163484
30
0
41
1
10
32.1750264075113
20
-8.07211319591406
30
0
41
1
10
32.1761342837701
20
-8.13202896532869
30
0
0
SPLINE
5
1F5
100
AcDbEntity
8
1
62
256
6
ByLayer
370
13
48
1
60
0
100
AcDbSpline
70
4
71
3
72
8
73
4
40
0
40
0
40
0
40
0
40
1
40
1
40
1
40
1
41
1
10
32.1794417210371
20
-7.86799788028196
30
0
41
1
10
32.1875722949159
20
-7.86459517394982
30
0
41
1
10
32.196339183532
20
-7.86113546333013
30
0
41
1
10
32.2056329534174
20
-7.85769355659488
30
0
0
SPLINE
5
1F6
100
AcDbEntity
8
1
62
256
6
ByLayer
370
13
48
1
60
0
100
AcDbSpline
70
4
71
3
72
14
73
10
40
0
40
0
40
0
40
0
40
0.362290872375782
40
0.362290872375782
40
0.75921727113372
40
0.75921727113372
40
0.985981513552925
40
0.985981513552925
40
1
40
1
40
1
40
1
41
1
10
32.2056329534176
20
-7.85769355657337
30
0
41
1
10
32.2281812464505
20
-7.84934289557887
30
0
41
1
10
32.2541207849953
20
-7.8429736241296
30
0
41
1
10
32.3118571823038
20
-7.83448301339141
30
0
41
1
10
32.3447419197083
20
-7.83270660086555
30
0
41
1
10
32.3968158183066
20
-7.83443563829351
30
0
41
1
10
32.4161285437685
20
-7.83601830874349
30
0
41
1
10
32.4363754679909
20
-7.83871066300875
30
0
41
1
10
32.4375460583942
20
-7.83886979319971
30
0
41
1
10
32.4387159227443
20
-7.83903296323706
30
0
0
SPLINE
5
1F7
100
AcDbEntity
8
1
62
256
6
ByLayer
370
13
48
1
60
0
100
AcDbSpline
70
4
71
3
72
12
73
8
40
0
40
0
40
0
40
0
40
0.027753964396557
40
0.027753964396557
40
0.667826589987148
40
0.667826589987148
40
1
40
1
40
1
40
1
41
1
10
32.0639115680571
20
-6.36608276248609
30
0
41
1
10
32.0630224938299
20
-6.36659468711497
30
0
41
1
10
32.0621362973346
20
-6.36710653670852
30
0
41
1
10
32.041139438886
20
-6.37928009283286
30
0
41
1
10
32.0223677783528
20
-6.39114742471941
30
0
41
1
10
31.9985834198732
20
-6.40777830836825
30
0
41
1
10
31.9911418620728
20
-6.41332047332088
30
0
41
1
10
31.9846560826641
20
-6.41852006093532
30
0
0
SPLINE
5
1F8
100
AcDbEntity
8
1
62
256
6
ByLayer
370
13
48
1
60
0
100
AcDbSpline
70
4
71
3
72
10
73
6
40
0
40
0
40
0
40
0
40
0.820434354426583
40
0.820434354426583
40
1
40
1
40
1
40
1
41
1
10
31.9772670677278
20
-6.42401566865396
30
0
41
1
10
32.0373176229178
20
-6.54273241819044
30
0
41
1
10
32.0907218307757
20
-6.66481625051549
30
0
41
1
10
32.1537878651402
20
-6.81418770936719
30
0
41
1
10
32.165006782063
20
-6.84106172250165
30
0
41
1
10
32.1761342837705
20
-6.86797103467219
30
0
0
SPLINE
5
1F9
100
AcDbEntity
8
1
62
256
6
ByLayer
370
13
48
1
60
0
100
AcDbSpline
70
4
71
3
72
8
73
4
40
0
40
0
40
0
40
0
40
1
40
1
40
1
40
1
41
1
10
31.9846560826641
20
-6.41852006093532
30
0
41
1
10
31.9821308679729
20
-6.42054450151542
30
0
41
1
10
31.9796628452491
20
-6.42238019853386
30
0
41
1
10
31.9772670677278
20
-6.42401566865396
30
0
0
SPLINE
5
1FA
100
AcDbEntity
8
1
62
256
6
ByLayer
370
13
48
1
60
0
100
AcDbSpline
70
4
71
3
72
12
73
8
40
0
40
0
40
0
40
0
40
0.0278313206712517
40
0.0278313206712517
40
0.611473023609022
40
0.611473023609022
40
1
40
1
40
1
40
1
41
1
10
32.0639115680654
20
-8.6339172375034
30
0
41
1
10
32.0630224938381
20
-8.63340531287756
30
0
41
1
10
32.0621362973421
20
-8.63289346328787
30
0
41
1
10
32.0428803330612
20
-8.62172924262228
30
0
41
1
10
32.0256423082254
20
-8.61091875298527
30
0
41
1
10
32.0010972420243
20
-8.59408229024328
30
0
41
1
10
31.9922210960019
20
-8.58754473824666
30
0
41
1
10
31.984656082664
20
-8.58147993906431
30
0
0
SPLINE
5
1FB
100
AcDbEntity
8
1
62
256
6
ByLayer
370
13
48
1
60
0
100
AcDbSpline
70
4
71
3
72
8
73
4
40
0
40
0
40
0
40
0
40
1
40
1
40
1
40
1
41
1
10
31.984656082664
20
-8.58147993906431
30
0
41
1
10
31.9821308679728
20
-8.57945549848426
30
0
41
1
10
31.9796628452491
20
-8.57761980146586
30
0
41
1
10
31.9772670677278
20
-8.57598433134578
30
0
0
SPLINE
5
1FC
100
AcDbEntity
8
1
62
256
6
ByLayer
370
13
48
1
60
0
100
AcDbSpline
70
4
71
3
72
10
73
6
40
0
40
0
40
0
40
0
40
0.819881036339605
40
0.819881036339605
40
1
40
1
40
1
40
1
41
1
10
32.1761342837701
20
-8.13202896532869
30
0
41
1
10
32.1253430321445
20
-8.25485596472558
30
0
41
1
10
32.0729973133248
20
-8.37719353019725
30
0
41
1
10
32.0032770273131
20
-8.52364220966456
30
0
41
1
10
31.9904566776892
20
-8.54990917488294
30
0
41
1
10
31.9772670677279
20
-8.57598433134581
30
0
0
SPLINE
5
1FD
100
AcDbEntity
8
1
62
256
6
ByLayer
370
13
48
1
60
0
100
AcDbSpline
70
4
71
3
72
12
73
8
40
0
40
0
40
0
40
0
40
0.0277499781510944
40
0.0277499781510944
40
0.667808133384293
40
0.667808133384293
40
1
40
1
40
1
40
1
41
1
10
32.063911568057
20
-6.36608276248612
30
0
41
1
10
32.0629034320477
20
-6.36616117992989
30
0
41
1
10
32.0618982158727
20
-6.3662395951406
30
0
41
1
10
32.0380665525594
20
-6.3681043677515
30
0
41
1
10
32.01651808857
20
-6.36991934865935
30
0
41
1
10
31.9888224267558
20
-6.37245915286968
30
0
41
1
10
31.980073554872
20
-6.37330487126741
30
0
41
1
10
31.9723583203581
20
-6.37409777686813
30
0
0
SPLINE
5
1FE
100
AcDbEntity
8
1
62
256
6
ByLayer
370
13
48
1
60
0
100
AcDbSpline
70
4
71
3
72
12
73
8
40
0
40
0
40
0
40
0
40
0.0278272716373759
40
0.0278272716373759
40
0.611453167879501
40
0.611453167879501
40
1
40
1
40
1
40
1
41
1
10
32.0639115680571
20
-8.63391723751366
30
0
41
1
10
32.0629034319401
20
-8.63383882164919
30
0
41
1
10
32.0618982154425
20
-8.63376041117616
30
0
41
1
10
32.0400426145075
20
-8.63205022625317
30
0
41
1
10
32.0202762805606
20
-8.63039665951521
30
0
41
1
10
31.9917749645618
20
-8.62782478317104
30
0
41
1
10
31.9813573467758
20
-8.62682706584826
30
0
41
1
10
31.9723583203581
20
-8.62590222313159
30
0
0
SPLINE
5
1FF
100
AcDbEntity
8
1
62
256
6
ByLayer
370
13
48
1
60
0
100
AcDbSpline
70
4
71
3
72
26
73
22
40
0
40
0
40
0
40
0
40
0.102035501666901
40
0.102035501666901
40
0.129284389714829
40
0.129284389714829
40
0.254161410871578
40
0.254161410871578
40
0.386333886983898
40
0.386333886983898
40
0.523125606178389
40
0.523125606178389
40
0.658908540792033
40
0.658908540792033
40
0.795133361230144
40
0.795133361230144
40
0.895568684120736
40
0.895568684120736
40
0.931575554525879
40
0.931575554525879
40
1
40
1
40
1
40
1
41
1
10
32.3964890019635
20
-7.30266454963484
30
0
41
1
10
32.4131393767336
20
-7.30798412346945
30
0
41
1
10
32.4291034127914
20
-7.31565509327078
30
0
41
1
10
32.4463800184522
20
-7.32787203732388
30
0
41
1
10
32.44992822141
20
-7.33063104782528
30
0
41
1
10
32.4686371526018
20
-7.34657003765832
30
0
41
1
10
32.4810099307051
20
-7.36259829058702
30
0
41
1
10
32.5005417637306
20
-7.39887392098393
30
0
41
1
10
32.5077186636934
20
-7.4198861104083
30
0
41
1
10
32.516817379671
20
-7.46426495271953
30
0
41
1
10
32.5186673668159
20
-7.48832553433746
30
0
41
1
10
32.5168386014334
20
-7.53512920112251
30
0
41
1
10
32.5131780830524
20
-7.55852186077436
30
0
41
1
10
32.5002714091329
20
-7.60165924458965
30
0
41
1
10
32.4908281262292
20
-7.6220284975206
30
0
41
1
10
32.468731185536
20
-7.65250329662501
30
0
41
1
10
32.4572851116735
20
-7.6641967965665
30
0
41
1
10
32.4391386222023
20
-7.67731463733645
30
0
41
1
10
32.4340445533438
20
-7.68055662781077
30
0
41
1
10
32.4187059419968
20
-7.6891056025423
30
0
41
1
10
32.4077600338148
20
-7.69373450522383
30
0
41
1
10
32.3964890019635
20
-7.6973354503649
30
0
0
SPLINE
5
200
100
AcDbEntity
8
1
62
256
6
ByLayer
370
13
48
1
60
0
100
AcDbSpline
70
4
71
3
72
14
73
10
40
0
40
0
40
0
40
0
40
0.27475847941734
40
0.27475847941734
40
0.512436463803127
40
0.512436463803127
40
0.749993769781322
40
0.749993769781322
40
1
40
1
40
1
40
1
41
1
10
33.5896201413547
20
-7.78857222631143
30
0
41
1
10
33.6118015893238
20
-7.74043514272347
30
0
41
1
10
33.6306589366166
20
-7.6889104453592
30
0
41
1
10
33.653462576975
20
-7.58910401817812
30
0
41
1
10
33.6590594822313
20
-7.54055509005693
30
0
41
1
10
33.6578279543455
20
-7.44452522595407
30
0
41
1
10
33.6510126304754
20
-7.39624743598458
30
0
41
1
10
33.6272786525577
20
-7.30192459596174
30
0
41
1
10
33.6098376614737
20
-7.25530283798704
30
0
41
1
10
33.5896201413508
20
-7.21142777367984
30
0
0
SPLINE
5
201
100
AcDbEntity
8
1
62
256
6
ByLayer
370
13
48
1
60
0
100
AcDbSpline
70
4
71
3
72
8
73
4
40
0
40
0
40
0
40
0
40
1
40
1
40
1
40
1
41
1
10
31.9705951003268
20
-8.6254379281352
30
0
41
1
10
31.9711929686634
20
-8.6254379281352
30
0
41
1
10
31.9717967952489
20
-8.62558812698126
30
0
41
1
10
31.9723583203562
20
-8.62590222311698
30
0
0
SPLINE
5
202
100
AcDbEntity
8
1
62
256
6
ByLayer
370
13
48
1
60
0
100
AcDbSpline
70
4
71
3
72
8
73
4
40
0
40
0
40
0
40
0
40
1
40
1
40
1
40
1
41
1
10
31.9723583203562
20
-6.37409777686941
30
0
41
1
10
31.9717967952486
20
-6.37441187300584
30
0
41
1
10
31.9711929686638
20
-6.37456207186454
30
0
41
1
10
31.9705951003268
20
-6.37456207186454
30
0
0
SPLINE
5
203
100
AcDbEntity
8
1
62
256
6
ByLayer
370
13
48
1
60
0
100
AcDbSpline
70
4
71
3
72
10
73
6
40
0
40
0
40
0
40
0
40
0.84896187346875
40
0.84896187346875
40
1
40
1
40
1
40
1
41
1
10
36.3256851850747
20
-6.73523425288948
30
0
41
1
10
36.2912977154034
20
-6.68339144974624
30
0
41
1
10
36.243874742716
20
-6.6399358019811
30
0
41
1
10
36.1838155264512
20
-6.59793022786158
30
0
41
1
10
36.1744787017948
20
-6.59173629222207
30
0
41
1
10
36.1650107000385
20
-6.58575668076017
30
0
0
SPLINE
5
204
100
AcDbEntity
8
1
62
256
6
ByLayer
370
13
48
1
60
0
100
AcDbSpline
70
4
71
3
72
8
73
4
40
0
40
0
40
0
40
0
40
1
40
1
40
1
40
1
41
1
10
36.1650107000385
20
-6.58575668076017
30
0
41
1
10
36.1210937227593
20
-6.55802047332506
30
0
41
1
10
36.0769798114245
20
-6.53059082536626
30
0
41
1
10
36.032560747957
20
-6.50366733691746
30
0
0
SPLINE
5
205
100
AcDbEntity
8
1
62
256
6
ByLayer
370
13
48
1
60
0
100
AcDbSpline
70
4
71
3
72
10
73
6
40
0
40
0
40
0
40
0
40
0.657586553479613
40
0.657586553479613
40
1
40
1
40
1
40
1
41
1
10
36.032560747957
20
-6.50366733691746
30
0
41
1
10
36.0092305437702
20
-6.48952632551621
30
0
41
1
10
35.9864384919003
20
-6.47420290595647
30
0
41
1
10
35.9548281900598
20
-6.44729410541069
30
0
41
1
10
35.9444660370968
20
-6.43736466588919
30
0
41
1
10
35.935515563742
20
-6.42629438911919
30
0
0
SPLINE
5
206
100
AcDbEntity
8
1
62
256
6
ByLayer
370
13
48
1
60
0
100
AcDbSpline
70
4
71
3
72
10
73
6
40
0
40
0
40
0
40
0
40
0.657586553479614
40
0.657586553479614
40
1
40
1
40
1
40
1
41
1
10
36.032560747957
20
-8.49633266308228
30
0
41
1
10
36.0092305437702
20
-8.51047367448354
30
0
41
1
10
35.9864384919003
20
-8.52579709404327
30
0
41
1
10
35.9548281900598
20
-8.55270589458908
30
0
41
1
10
35.9444660370968
20
-8.56263533411055
30
0
41
1
10
35.935515563742
20
-8.57370561088055
30
0
0
SPLINE
5
207
100
AcDbEntity
8
1
62
256
6
ByLayer
370
13
48
1
60
0
100
AcDbSpline
70
4
71
3
72
8
73
4
40
0
40
0
40
0
40
0
40
1
40
1
40
1
40
1
41
1
10
36.1650107000385
20
-8.41424331923957
30
0
41
1
10
36.1210937227593
20
-8.44197952667469
30
0
41
1
10
36.0769798114245
20
-8.46940917463351
30
0
41
1
10
36.032560747957
20
-8.49633266308228
30
0
0
SPLINE
5
208
100
AcDbEntity
8
1
62
256
6
ByLayer
370
13
48
1
60
0
100
AcDbSpline
70
4
71
3
72
10
73
6
40
0
40
0
40
0
40
0
40
0.84896187346875
40
0.84896187346875
40
1
40
1
40
1
40
1
41
1
10
36.3256851850747
20
-8.26476574711026
30
0
41
1
10
36.2912977154034
20
-8.31660855025353
30
0
41
1
10
36.243874742716
20
-8.36006419801865
30
0
41
1
10
36.1838155264512
20
-8.40206977213816
30
0
41
1
10
36.1744787017948
20
-8.40826370777768
30
0
41
1
10
36.1650107000385
20
-8.41424331923957
30
0
0
SPLINE
5
209
100
AcDbEntity
8
1
62
256
6
ByLayer
370
13
48
1
60
0
100
AcDbSpline
70
4
71
3
72
14
73
10
40
0
40
0
40
0
40
0
40
0.0140322366304758
40
0.0140322366304758
40
0.158091565624719
40
0.158091565624719
40
0.557043656612004
40
0.557043656612004
40
1
40
1
40
1
40
1
41
1
10
32.4387159228241
20
-7.16096703674856
30
0
41
1
10
32.4379360645915
20
-7.16172776964086
30
0
41
1
10
32.4371559091054
20
-7.16248505377072
30
0
41
1
10
32.428231668599
20
-7.17108356511335
30
0
41
1
10
32.4199670064644
20
-7.17850384598776
30
0
41
1
10
32.3889415558847
20
-7.20436739796094
30
0
41
1
10
32.365536858211
20
-7.21980530701953
30
0
41
1
10
32.3187541033905
20
-7.24248914468183
30
0
41
1
10
32.2949133424734
20
-7.24900990703372
30
0
41
1
10
32.2743263124385
20
-7.2495141354523
30
0
0
SPLINE
5
20A
100
AcDbEntity
8
1
62
256
6
ByLayer
370
13
48
1
60
0
100
AcDbSpline
70
4
71
3
72
14
73
10
40
0
40
0
40
0
40
0
40
0.362636115875106
40
0.362636115875106
40
0.759502173372961
40
0.759502173372961
40
0.986017775516147
40
0.986017775516147
40
1
40
1
40
1
40
1
41
1
10
32.2743263124385
20
-7.75048586454744
30
0
41
1
10
32.2912406290798
20
-7.75090013892887
30
0
41
1
10
32.3102969105352
20
-7.75533332875858
30
0
41
1
10
32.3517568775429
20
-7.77241211056969
30
0
41
1
10
32.3748386743135
20
-7.78601259474473
30
0
41
1
10
32.4105592323137
20
-7.8132263585058
30
0
41
1
10
32.423626747303
20
-7.82447959032001
30
0
41
1
10
32.4371559091053
20
-7.83751494622908
30
0
41
1
10
32.4379360645914
20
-7.83827223035894
30
0
41
1
10
32.4387159228241
20
-7.83903296325119
30
0
0
SPLINE
5
20B
100
AcDbEntity
8
1
62
256
6
ByLayer
370
13
48
1
60
0
100
AcDbSpline
70
4
71
3
72
8
73
4
40
0
40
0
40
0
40
0
40
1
40
1
40
1
40
1
41
1
10
32.2743263124397
20
-7.24951413545475
30
0
41
1
10
32.3107270135584
20
-7.26752867936679
30
0
41
1
10
32.3486103280918
20
-7.28411988411102
30
0
41
1
10
32.3875073723823
20
-7.29924434820157
30
0
0
SPLINE
5
20C
100
AcDbEntity
8
1
62
256
6
ByLayer
370
13
48
1
60
0
100
AcDbSpline
70
4
71
3
72
8
73
4
40
0
40
0
40
0
40
0
40
1
40
1
40
1
40
1
41
1
10
32.3875073723823
20
-7.70075565179817
30
0
41
1
10
32.3486103280918
20
-7.71588011588872
30
0
41
1
10
32.3107270135584
20
-7.73247132063298
30
0
41
1
10
32.2743263124397
20
-7.750485864545
30
0
0
SPLINE
5
20D
100
AcDbEntity
8
1
62
256
6
ByLayer
370
13
48
1
60
0
100
AcDbSpline
70
4
71
3
72
10
73
6
40
0
40
0
40
0
40
0
40
0.638823417468865
40
0.638823417468865
40
1
40
1
40
1
40
1
41
1
10
35.9900286630425
20
-8.43502396633551
30
0
41
1
10
35.966841990865
20
-8.45471065792549
30
0
41
1
10
35.9449724664755
20
-8.47650228769862
30
0
41
1
10
35.9161775948407
20
-8.51501987298954
30
0
41
1
10
35.9068123576004
20
-8.52999829563484
30
0
41
1
10
35.8995116901682
20
-8.5459979598173
30
0
0
SPLINE
5
20E
100
AcDbEntity
8
1
62
256
6
ByLayer
370
13
48
1
60
0
100
AcDbSpline
70
4
71
3
72
16
73
12
40
0
40
0
40
0
40
0
40
0.0355702320992689
40
0.0355702320992689
40
0.09050817101665
40
0.09050817101665
40
0.198049233530909
40
0.198049233530909
40
0.436780146594192
40
0.436780146594192
40
1
40
1
40
1
40
1
41
1
10
35.8647600217562
20
-8.62632203558638
30
0
41
1
10
35.8651586810188
20
-8.62535525962375
30
0
41
1
10
35.8655584542086
20
-8.62438892113192
30
0
41
1
10
35.8665771815565
20
-8.62192685495418
30
0
41
1
10
35.8671970808021
20
-8.62043150894041
30
0
41
1
10
35.8690334070427
20
-8.61601120095438
30
0
41
1
10
35.8702528942054
20
-8.61308779625489
30
0
41
1
10
35.8741930527674
20
-8.60368983859277
30
0
41
1
10
35.8769343827304
20
-8.59722805973425
30
0
41
1
10
35.8861946238307
20
-8.57565943605573
30
0
41
1
10
35.8928248586495
20
-8.56065238145081
30
0
41
1
10
35.8995116901682
20
-8.54599795981733
30
0
0
SPLINE
5
20F
100
AcDbEntity
8
1
62
256
6
ByLayer
370
13
48
1
60
0
100
AcDbSpline
70
4
71
3
72
8
73
4
40
0
40
0
40
0
40
0
40
1
40
1
40
1
40
1
41
1
10
35.8647600217523
20
-8.62632203558829
30
0
41
1
10
35.7478492133727
20
-8.65707359087591
30
0
41
1
10
35.6265101800571
20
-8.67205728680267
30
0
41
1
10
35.5060768987951
20
-8.67486879813228
30
0
0
SPLINE
5
210
100
AcDbEntity
8
1
62
256
6
ByLayer
370
13
48
1
60
0
100
AcDbSpline
70
4
71
3
72
16
73
12
40
0
40
0
40
0
40
0
40
0.0355702320992689
40
0.0355702320992689
40
0.09050817101665
40
0.09050817101665
40
0.198049233530909
40
0.198049233530909
40
0.436780146594192
40
0.436780146594192
40
1
40
1
40
1
40
1
41
1
10
35.8647600217562
20
-6.37367796441336
30
0
41
1
10
35.8651586810188
20
-6.374644740376
30
0
41
1
10
35.8655584542086
20
-6.37561107886782
30
0
41
1
10
35.8665771815565
20
-6.37807314504556
30
0
41
1
10
35.8671970808021
20
-6.37956849105936
30
0
41
1
10
35.8690334070427
20
-6.38398879904537
30
0
41
1
10
35.8702528942054
20
-6.38691220374486
30
0
41
1
10
35.8741930527674
20
-6.39631016140697
30
0
41
1
10
35.8769343827304
20
-6.40277194026552
30
0
41
1
10
35.8861946238307
20
-6.42434056394401
30
0
41
1
10
35.8928248586495
20
-6.43934761854894
30
0
41
1
10
35.8995116901682
20
-6.45400204018242
30
0
0
SPLINE
5
211
100
AcDbEntity
8
1
62
256
6
ByLayer
370
13
48
1
60
0
100
AcDbSpline
70
4
71
3
72
10
73
6
40
0
40
0
40
0
40
0
40
0.638823417468865
40
0.638823417468865
40
1
40
1
40
1
40
1
41
1
10
35.9900286630425
20
-6.56497603366424
30
0
41
1
10
35.966841990865
20
-6.54528934207428
30
0
41
1
10
35.9449724664755
20
-6.52349771230112
30
0
41
1
10
35.9161775948407
20
-6.4849801270102
30
0
41
1
10
35.9068123576004
20
-6.4700017043649
30
0
41
1
10
35.8995116901682
20
-6.45400204018244
30
0
0
SPLINE
5
212
100
AcDbEntity
8
1
62
256
6
ByLayer
370
13
48
1
60
0
100
AcDbSpline
70
4
71
3
72
8
73
4
40
0
40
0
40
0
40
0
40
1
40
1
40
1
40
1
41
1
10
35.8647600217523
20
-6.37367796441146
30
0
41
1
10
35.7478492133727
20
-6.34292640912383
30
0
41
1
10
35.6265101800571
20
-6.32794271319707
30
0
41
1
10
35.5060768987951
20
-6.32513120186746
30
0
0
SPLINE
5
213
100
AcDbEntity
8
1
62
256
6
ByLayer
370
13
48
1
60
0
100
AcDbSpline
70
4
71
3
72
8
73
4
40
0
40
0
40
0
40
0
40
1
40
1
40
1
40
1
41
1
10
32.3875073723823
20
-7.29924434820157
30
0
41
1
10
32.390499776207
20
-7.30038443203546
30
0
41
1
10
32.3934936621595
20
-7.30152449963086
30
0
41
1
10
32.3964890019635
20
-7.30266454963484
30
0
0
SPLINE
5
214
100
AcDbEntity
8
1
62
256
6
ByLayer
370
13
48
1
60
0
100
AcDbSpline
70
4
71
3
72
8
73
4
40
0
40
0
40
0
40
0
40
1
40
1
40
1
40
1
41
1
10
32.3964890019635
20
-7.6973354503649
30
0
41
1
10
32.3934936621595
20
-7.69847550036889
30
0
41
1
10
32.390499776207
20
-7.69961556796429
30
0
41
1
10
32.3875073723823
20
-7.70075565179817
30
0
0
SPLINE
5
215
100
AcDbEntity
8
1
62
256
6
ByLayer
370
13
48
1
60
0
100
AcDbSpline
70
4
71
3
72
8
73
4
40
0
40
0
40
0
40
0
40
1
40
1
40
1
40
1
41
1
10
32.2661840397671
20
-7.24897564444709
30
0
41
1
10
32.2686096513477
20
-7.24897564444709
30
0
41
1
10
32.2713428169146
20
-7.24915164009798
30
0
41
1
10
32.2743263124381
20
-7.24951413545236
30
0
0
SPLINE
5
216
100
AcDbEntity
8
1
62
256
6
ByLayer
370
13
48
1
60
0
100
AcDbSpline
70
4
71
3
72
8
73
4
40
0
40
0
40
0
40
0
40
1
40
1
40
1
40
1
41
1
10
32.2743263124385
20
-7.75048586454744
30
0
41
1
10
32.271342816915
20
-7.75084835990182
30
0
41
1
10
32.2686096513474
20
-7.75102435555277
30
0
41
1
10
32.2661840397669
20
-7.75102435555277
30
0
0
SPLINE
5
217
100
AcDbEntity
8
1
62
256
6
ByLayer
370
13
48
1
60
0
100
AcDbSpline
70
4
71
3
72
16
73
12
40
0
40
0
40
0
40
0
40
0.0355303527441481
40
0.0355303527441481
40
0.0917680599187357
40
0.0917680599187357
40
0.200182520092063
40
0.200182520092063
40
0.439533504711995
40
0.439533504711995
40
1
40
1
40
1
40
1
41
1
10
35.8647600217524
20
-8.62632203558829
30
0
41
1
10
35.8655855998636
20
-8.62568830800635
30
0
41
1
10
35.8664120929671
20
-8.62505507398933
30
0
41
1
10
35.8685507889317
20
-8.62341715445581
30
0
41
1
10
35.8698640688781
20
-8.62241284068577
30
0
41
1
10
35.8737129338245
20
-8.61947397710028
30
0
41
1
10
35.8762525536656
20
-8.61754051840799
30
0
41
1
10
35.8844114693382
20
-8.61134926129034
30
0
41
1
10
35.8900517136001
20
-8.60710094051373
30
0
41
1
10
35.9089188273347
20
-8.59300447174385
30
0
41
1
10
35.9222466489562
20
-8.58323173893641
30
0
41
1
10
35.935515563742
20
-8.57370561088055
30
0
0
SPLINE
5
218
100
AcDbEntity
8
1
62
256
6
ByLayer
370
13
48
1
60
0
100
AcDbSpline
70
4
71
3
72
16
73
12
40
0
40
0
40
0
40
0
40
0.0355303527441481
40
0.0355303527441481
40
0.0917680599187357
40
0.0917680599187357
40
0.200182520092063
40
0.200182520092063
40
0.439533504711995
40
0.439533504711995
40
1
40
1
40
1
40
1
41
1
10
35.8647600217524
20
-6.37367796441146
30
0
41
1
10
35.8655855998636
20
-6.3743116919934
30
0
41
1
10
35.8664120929671
20
-6.37494492601041
30
0
41
1
10
35.8685507889317
20
-6.37658284554394
30
0
41
1
10
35.8698640688781
20
-6.37758715931397
30
0
41
1
10
35.8737129338245
20
-6.38052602289949
30
0
41
1
10
35.8762525536656
20
-6.38245948159175
30
0
41
1
10
35.8844114693382
20
-6.3886507387094
30
0
41
1
10
35.8900517136001
20
-6.39289905948601
30
0
41
1
10
35.9089188273347
20
-6.40699552825592
30
0
41
1
10
35.9222466489562
20
-6.41676826106334
30
0
41
1
10
35.935515563742
20
-6.42629438911919
30
0
0
SPLINE
5
219
100
AcDbEntity
8
1
62
256
6
ByLayer
370
13
48
1
60
0
100
AcDbSpline
70
4
71
3
72
8
73
4
40
0
40
0
40
0
40
0
40
1
40
1
40
1
40
1
41
1
10
35.5060768987951
20
-8.67486879813228
30
0
41
1
10
35.3916360304014
20
-8.67769217136313
30
0
41
1
10
35.2749005955276
20
-8.67393896327064
30
0
41
1
10
35.1587805434612
20
-8.67840922738222
30
0
0
SPLINE
5
21A
100
AcDbEntity
8
1
62
256
6
ByLayer
370
13
48
1
60
0
100
AcDbSpline
70
4
71
3
72
8
73
4
40
0
40
0
40
0
40
0
40
1
40
1
40
1
40
1
41
1
10
35.5060768987951
20
-6.32513120186746
30
0
41
1
10
35.3916360304014
20
-6.32230782863661
30
0
41
1
10
35.2749005955276
20
-6.3260610367291
30
0
41
1
10
35.1587805434612
20
-6.32159077261753
30
0
0
SPLINE
5
21B
100
AcDbEntity
8
1
62
256
6
ByLayer
370
13
48
1
60
0
100
AcDbSpline
70
4
71
3
72
10
73
6
40
0
40
0
40
0
40
0
40
0.155061591761428
40
0.155061591761428
40
1
40
1
40
1
40
1
41
1
10
36.1213895076228
20
-8.35369877703761
30
0
41
1
10
36.1304066184318
20
-8.34889293198191
30
0
41
1
10
36.1393274149502
20
-8.34390196967007
30
0
41
1
10
36.1954797246052
20
-8.31078077627248
30
0
41
1
10
36.2409287471059
20
-8.27651793930048
30
0
41
1
10
36.2749811562301
20
-8.23341291093945
30
0
0
SPLINE
5
21C
100
AcDbEntity
8
1
62
256
6
ByLayer
370
13
48
1
60
0
100
AcDbSpline
70
4
71
3
72
10
73
6
40
0
40
0
40
0
40
0
40
0.155061591761428
40
0.155061591761428
40
1
40
1
40
1
40
1
41
1
10
36.1213895076228
20
-6.64630122296214
30
0
41
1
10
36.1304066184318
20
-6.65110706801784
30
0
41
1
10
36.1393274149502
20
-6.65609803032967
30
0
41
1
10
36.1954797246052
20
-6.68921922372726
30
0
41
1
10
36.2409287471059
20
-6.7234820606993
30
0
41
1
10
36.2749811562301
20
-6.76658708906032
30
0
0
SPLINE
5
21D
100
AcDbEntity
8
1
62
256
6
ByLayer
370
13
48
1
60
0
100
AcDbSpline
70
4
71
3
72
12
73
8
40
0
40
0
40
0
40
0
40
0.0075770979405842
40
0.0075770979405842
40
0.524912447401083
40
0.524912447401083
40
1
40
1
40
1
40
1
41
1
10
35.8213727254144
20
-8.08907562242288
30
0
41
1
10
35.822693884863
20
-8.08912463590286
30
0
41
1
10
35.8240151186687
20
-8.08917130477369
30
0
41
1
10
35.9154638182289
20
-8.09223779302084
30
0
41
1
10
36.005673527038
20
-8.08747373960711
30
0
41
1
10
36.1786115881781
20
-8.08341741088938
30
0
41
1
10
36.2613940232687
20
-8.08109754987146
30
0
41
1
10
36.3441651422333
20
-8.07838961865548
30
0
0
SPLINE
5
21E
100
AcDbEntity
8
1
62
256
6
ByLayer
370
13
48
1
60
0
100
AcDbSpline
70
4
71
3
72
10
73
6
40
0
40
0
40
0
40
0
40
0.596085739020476
40
0.596085739020476
40
1
40
1
40
1
40
1
41
1
10
36.2964383490931
20
-8.20560679046167
30
0
41
1
10
36.3128939358856
20
-8.1838313221846
30
0
41
1
10
36.3267245821227
20
-8.15940290059069
30
0
41
1
10
36.34081187438
20
-8.1157305199558
30
0
41
1
10
36.344038381206
20
-8.09698098525914
30
0
41
1
10
36.3441651422481
20
-8.0783896186602
30
0
0
SPLINE
5
21F
100
AcDbEntity
8
1
62
256
6
ByLayer
370
13
48
1
60
0
100
AcDbSpline
70
4
71
3
72
8
73
4
40
0
40
0
40
0
40
0
40
1
40
1
40
1
40
1
41
1
10
36.2749811562301
20
-8.23341291093942
30
0
41
1
10
36.2822263780105
20
-8.22424159242317
30
0
41
1
10
36.2893737130963
20
-8.21495533323784
30
0
41
1
10
36.2964383490931
20
-8.20560679046167
30
0
0
SPLINE
5
220
100
AcDbEntity
8
1
62
256
6
ByLayer
370
13
48
1
60
0
100
AcDbSpline
70
4
71
3
72
8
73
4
40
0
40
0
40
0
40
0
40
1
40
1
40
1
40
1
41
1
10
36.2749811562301
20
-6.76658708906032
30
0
41
1
10
36.2822263780105
20
-6.77575840757657
30
0
41
1
10
36.2893737130963
20
-6.78504466676193
30
0
41
1
10
36.2964383490931
20
-6.79439320953807
30
0
0
SPLINE
5
221
100
AcDbEntity
8
1
62
256
6
ByLayer
370
13
48
1
60
0
100
AcDbSpline
70
4
71
3
72
10
73
6
40
0
40
0
40
0
40
0
40
0.596085739020476
40
0.596085739020476
40
1
40
1
40
1
40
1
41
1
10
36.2964383490931
20
-6.79439320953807
30
0
41
1
10
36.3128939358856
20
-6.81616867781514
30
0
41
1
10
36.3267245821227
20
-6.84059709940905
30
0
41
1
10
36.34081187438
20
-6.88426948004394
30
0
41
1
10
36.344038381206
20
-6.90301901474061
30
0
41
1
10
36.3441651422481
20
-6.92161038133955
30
0
0
SPLINE
5
222
100
AcDbEntity
8
1
62
256
6
ByLayer
370
13
48
1
60
0
100
AcDbSpline
70
4
71
3
72
12
73
8
40
0
40
0
40
0
40
0
40
0.0075770979405842
40
0.0075770979405842
40
0.524912447401083
40
0.524912447401083
40
1
40
1
40
1
40
1
41
1
10
35.8213727254144
20
-6.91092437757686
30
0
41
1
10
35.822693884863
20
-6.91087536409688
30
0
41
1
10
35.8240151186687
20
-6.91082869522606
30
0
41
1
10
35.9154638182289
20
-6.9077622069789
30
0
41
1
10
36.005673527038
20
-6.91252626039264
30
0
41
1
10
36.1786115881781
20
-6.91658258911039
30
0
41
1
10
36.2613940232687
20
-6.91890245012831
30
0
41
1
10
36.3441651422333
20
-6.92161038134427
30
0
0
SPLINE
5
223
100
AcDbEntity
8
1
62
256
6
ByLayer
370
13
48
1
60
0
100
AcDbSpline
70
4
71
3
72
8
73
4
40
0
40
0
40
0
40
0
40
1
40
1
40
1
40
1
41
1
10
35.1587805434612
20
-8.67840922738222
30
0
41
1
10
35.0587308196864
20
-8.68184905909067
30
0
41
1
10
34.9579761895169
20
-8.67788432750535
30
0
41
1
10
34.8587805434613
20
-8.66442418535101
30
0
0
SPLINE
5
224
100
AcDbEntity
8
1
62
256
6
ByLayer
370
13
48
1
60
0
100
AcDbSpline
70
4
71
3
72
8
73
4
40
0
40
0
40
0
40
0
40
1
40
1
40
1
40
1
41
1
10
35.1587805434612
20
-6.32159077261753
30
0
41
1
10
35.0587308196864
20
-6.31815094090908
30
0
41
1
10
34.9579761895169
20
-6.32211567249439
30
0
41
1
10
34.8587805434613
20
-6.33557581464873
30
0
0
SPLINE
5
225
100
AcDbEntity
8
1
62
256
6
ByLayer
370
13
48
1
60
0
100
AcDbSpline
70
4
71
3
72
16
73
12
40
0
40
0
40
0
40
0
40
0.113631665737173
40
0.113631665737173
40
0.758132216188134
40
0.758132216188134
40
0.942823120099093
40
0.942823120099093
40
0.947778003019258
40
0.947778003019258
40
1
40
1
40
1
40
1
41
1
10
34.6112677608007
20
-6.98415892548911
30
0
41
1
10
34.6332807942052
20
-6.97715485662818
30
0
41
1
10
34.6554088133188
20
-6.97050220885674
30
0
41
1
10
34.8026697940168
20
-6.92881443072025
30
0
41
1
10
34.9333481685156
20
-6.90607204125081
30
0
41
1
10
35.1009734748332
20
-6.90755657401613
30
0
41
1
10
35.1386296238165
20
-6.90936280945337
30
0
41
1
10
35.1773004835499
20
-6.91074096422079
30
0
41
1
10
35.1783108496887
20
-6.91077698155422
30
0
41
1
10
35.1899699703881
20
-6.91119262476096
30
0
41
1
10
35.20061882194
20
-6.91156953812697
30
0
41
1
10
35.2112677608007
20
-6.91194395852892
30
0
0
SPLINE
5
226
100
AcDbEntity
8
1
62
256
6
ByLayer
370
13
48
1
60
0
100
AcDbSpline
70
4
71
3
72
16
73
12
40
0
40
0
40
0
40
0
40
0.113631665737173
40
0.113631665737173
40
0.758132216188134
40
0.758132216188134
40
0.942823120099093
40
0.942823120099093
40
0.947778003019258
40
0.947778003019258
40
1
40
1
40
1
40
1
41
1
10
34.6112677608007
20
-8.01584107451063
30
0
41
1
10
34.6332807942052
20
-8.02284514337157
30
0
41
1
10
34.6554088133188
20
-8.029497791143
30
0
41
1
10
34.8026697940168
20
-8.07118556927949
30
0
41
1
10
34.9333481685156
20
-8.09392795874894
30
0
41
1
10
35.1009734748332
20
-8.09244342598362
30
0
41
1
10
35.1386296238165
20
-8.09063719054637
30
0
41
1
10
35.1773004835499
20
-8.08925903577895
30
0
41
1
10
35.1783108496887
20
-8.08922301844552
30
0
41
1
10
35.1899699703881
20
-8.08880737523879
30
0
41
1
10
35.20061882194
20
-8.08843046187278
30
0
41
1
10
35.2112677608007
20
-8.08805604147082
30
0
0
SPLINE
5
227
100
AcDbEntity
8
1
62
256
6
ByLayer
370
13
48
1
60
0
100
AcDbSpline
70
4
71
3
72
10
73
6
40
0
40
0
40
0
40
0
40
0.411878619131049
40
0.411878619131049
40
1
40
1
40
1
40
1
41
1
10
36.3970257408783
20
-8.07838961865562
30
0
41
1
10
36.3970257408783
20
-8.1014981245595
30
0
41
1
10
36.3938567437525
20
-8.12478014248859
30
0
41
1
10
36.3795589487909
20
-8.1788475536442
30
0
41
1
10
36.3654981180154
20
-8.20932626905565
30
0
41
1
10
36.3480487400853
20
-8.23707013848488
30
0
0
SPLINE
5
228
100
AcDbEntity
8
1
62
256
6
ByLayer
370
13
48
1
60
0
100
AcDbSpline
70
4
71
3
72
10
73
6
40
0
40
0
40
0
40
0
40
0.411878619131049
40
0.411878619131049
40
1
40
1
40
1
40
1
41
1
10
36.3970257408783
20
-6.92161038134412
30
0
41
1
10
36.3970257408783
20
-6.89850187544025
30
0
41
1
10
36.3938567437525
20
-6.87521985751115
30
0
41
1
10
36.3795589487909
20
-6.82115244635554
30
0
41
1
10
36.3654981180154
20
-6.79067373094409
30
0
41
1
10
36.3480487400853
20
-6.76292986151486
30
0
0
SPLINE
5
229
100
AcDbEntity
8
1
62
256
6
ByLayer
370
13
48
1
60
0
100
AcDbSpline
70
4
71
3
72
8
73
4
40
0
40
0
40
0
40
0
40
1
40
1
40
1
40
1
41
1
10
36.3480487400851
20
-8.23707013848482
30
0
41
1
10
36.3406964490064
20
-8.246422036507
30
0
41
1
10
36.3332455329699
20
-8.25567051448968
30
0
41
1
10
36.3256851850747
20
-8.26476574711029
30
0
0
SPLINE
5
22A
100
AcDbEntity
8
1
62
256
6
ByLayer
370
13
48
1
60
0
100
AcDbSpline
70
4
71
3
72
8
73
4
40
0
40
0
40
0
40
0
40
1
40
1
40
1
40
1
41
1
10
36.3480487400851
20
-6.76292986151492
30
0
41
1
10
36.3406964490064
20
-6.75357796349275
30
0
41
1
10
36.3332455329699
20
-6.74432948551006
30
0
41
1
10
36.3256851850747
20
-6.73523425288948
30
0
0
SPLINE
5
22B
100
AcDbEntity
8
1
62
256
6
ByLayer
370
13
48
1
60
0
100
AcDbSpline
70
4
71
3
72
12
73
8
40
0
40
0
40
0
40
0
40
0.390105015408732
40
0.390105015408732
40
0.395238792462735
40
0.395238792462735
40
1
40
1
40
1
40
1
41
1
10
35.2112677608007
20
-8.08805604147082
30
0
41
1
10
35.2930131894969
20
-8.08594829644338
30
0
41
1
10
35.375069491157
20
-8.08553754421817
30
0
41
1
10
35.4568134956408
20
-8.08525204242551
30
0
41
1
10
35.4578786372164
20
-8.08524843571641
30
0
41
1
10
35.5833815366521
20
-8.08483686383823
30
0
41
1
10
35.706145891386
20
-8.08594078257019
30
0
41
1
10
35.8213727254144
20
-8.08907562242288
30
0
0
SPLINE
5
22C
100
AcDbEntity
8
1
62
256
6
ByLayer
370
13
48
1
60
0
100
AcDbSpline
70
4
71
3
72
12
73
8
40
0
40
0
40
0
40
0
40
0.390105015408732
40
0.390105015408732
40
0.395238792462735
40
0.395238792462735
40
1
40
1
40
1
40
1
41
1
10
35.2112677608007
20
-6.91194395852892
30
0
41
1
10
35.2930131894969
20
-6.91405170355637
30
0
41
1
10
35.375069491157
20
-6.91446245578157
30
0
41
1
10
35.4568134956408
20
-6.91474795757424
30
0
41
1
10
35.4578786372164
20
-6.91475156428333
30
0
41
1
10
35.5833815366521
20
-6.91516313616151
30
0
41
1
10
35.706145891386
20
-6.91405921742955
30
0
41
1
10
35.8213727254144
20
-6.91092437757686
30
0
0
SPLINE
5
22D
100
AcDbEntity
8
1
62
256
6
ByLayer
370
18
48
1
60
0
100
AcDbSpline
70
4
71
3
72
18
73
14
40
0
40
0
40
0
40
0
40
0.21280159366004
40
0.21280159366004
40
0.425640627392104
40
0.425640627392104
40
0.639133084721929
40
0.639133084721929
40
0.854135837866921
40
0.854135837866921
40
0.993752363538305
40
0.993752363538305
40
1
40
1
40
1
40
1
41
1
10
12.8
20
-4.72499999999994
30
0
41
1
10
12.8
20
-4.90301769743149
30
0
41
1
10
12.8305651508406
20
-5.08348777489854
30
0
41
1
10
12.947634471834
20
-5.41947114251599
30
0
41
1
10
13.0357471202466
20
-5.57959635923237
30
0
41
1
10
13.2566285653702
20
-5.85832230213259
30
0
41
1
10
13.3925418385467
20
-5.98061714227896
30
0
41
1
10
13.6934950308232
20
-6.17166558531093
30
0
41
1
10
13.8628460302703
20
-6.24266646037171
30
0
41
1
10
14.1504112174488
20
-6.30972516747605
30
0
41
1
10
14.2677246271833
20
-6.32379043539214
30
0
41
1
10
14.3896375678534
20
-6.32497483272758
30
0
41
1
10
14.3948187937151
20
-6.32499999999996
30
0
41
1
10
14.4
20
-6.32499999999996
30
0
0
SPLINE
5
22E
100
AcDbEntity
8
1
62
256
6
ByLayer
370
18
48
1
60
0
100
AcDbSpline
70
4
71
3
72
16
73
12
40
0
40
0
40
0
40
0
40
0.185708699144983
40
0.185708699144983
40
0.393100091828937
40
0.393100091828937
40
0.602655949410042
40
0.602655949410042
40
0.783293804890726
40
0.783293804890726
40
1
40
1
40
1
40
1
41
1
10
-9.9110876427805
20
0.238734122634384
30
0
41
1
10
-9.90627040580569
20
0.244627008261148
30
0
41
1
10
-9.90186482999101
20
0.250549689134573
30
0
41
1
10
-9.89409403921354
20
0.262631875178528
30
0
41
1
10
-9.89084763043678
20
0.268868733580717
30
0
41
1
10
-9.88711904826175
20
0.279908032185062
30
0
41
1
10
-9.88664674995172
20
0.284835854309023
30
0
41
1
10
-9.88857015905955
20
0.291827705603396
30
0
41
1
10
-9.89058419799611
20
0.294288075326023
30
0
41
1
10
-9.89678246487756
20
0.297882559096536
30
0
41
1
10
-9.90136547465818
20
0.298734122634727
30
0
41
1
10
-9.90658610591117
20
0.298734122634727
30
0
0
SPLINE
5
22F
100
AcDbEntity
8
1
62
256
6
ByLayer
370
18
48
1
60
0
100
AcDbSpline
70
4
71
3
72
14
73
10
40
0
40
0
40
0
40
0
40
0.351776279080907
40
0.351776279080907
40
0.641182296649833
40
0.641182296649833
40
0.872972609578094
40
0.872972609578094
40
1
40
1
40
1
40
1
41
1
10
11.7622132319285
20
0.238734122634725
30
0
41
1
10
11.7506909480662
20
0.249635535342293
30
0
41
1
10
11.7394857119597
20
0.260032568828081
30
0
41
1
10
11.7210933024837
20
0.276576366452275
30
0
41
1
10
11.7133845691349
20
0.283290229902974
30
0
41
1
10
11.7021098937453
20
0.292515358182868
30
0
41
1
10
11.6979330569216
20
0.295665813218392
30
0
41
1
10
11.6936708094916
20
0.298250538923071
30
0
41
1
10
11.6925688433004
20
0.298734122634727
30
0
41
1
10
11.6919461338779
20
0.298734122634727
30
0
0
SPLINE
5
230
100
AcDbEntity
8
1
62
256
6
ByLayer
370
18
48
1
60
0
100
AcDbSpline
70
4
71
3
72
8
73
4
40
0
40
0
40
0
40
0
40
1
40
1
40
1
40
1
41
1
10
7.9782937261426
20
-0.346265877365283
30
0
41
1
10
7.51151367918541
20
-0.137911618698581
30
0
41
1
10
7.03697360173067
20
0.0580558935309909
30
0
41
1
10
6.55506132228487
20
0.238734122634725
30
0
0
SPLINE
5
231
100
AcDbEntity
8
1
62
256
6
ByLayer
370
18
48
1
60
0
100
AcDbSpline
70
4
71
3
72
8
73
4
40
0
40
0
40
0
40
0
40
1
40
1
40
1
40
1
41
1
10
2.99716371967762
20
0.238734122634725
30
0
41
1
10
3.31327604565706
20
0.0570661741743095
30
0
41
1
10
3.61781501956989
20
-0.140064325316246
30
0
41
1
10
3.91317788205862
20
-0.346265877375771
30
0
0
SPLINE
5
232
100
AcDbEntity
8
1
62
256
6
ByLayer
370
18
48
1
60
0
100
AcDbSpline
70
4
71
3
72
22
73
18
40
0
40
0
40
0
40
0
40
0.0589060025684219
40
0.0589060025684219
40
0.144150544924979
40
0.144150544924979
40
0.21732989570098
40
0.21732989570098
40
0.279490165347597
40
0.279490165347597
40
0.376451313972645
40
0.376451313972645
40
0.536864990974352
40
0.536864990974352
40
0.826727545526527
40
0.826727545526527
40
1
40
1
40
1
40
1
41
1
10
9.45878355645328
20
-0.346265877365255
30
0
41
1
10
9.46312228723878
20
-0.351547416319107
30
0
41
1
10
9.46709111675744
20
-0.356891778847086
30
0
41
1
10
9.47523202334591
20
-0.369661359792815
30
0
41
1
10
9.47881419708898
20
-0.377193410209941
30
0
41
1
10
9.48154797082748
20
-0.389376117585868
30
0
41
1
10
9.48125558762553
20
-0.394432546434388
30
0
41
1
10
9.4779473782915
20
-0.401742308493908
30
0
41
1
10
9.47533661505182
20
-0.404406044731758
30
0
41
1
10
9.46683733484107
20
-0.409391494310796
30
0
41
1
10
9.459843692287
20
-0.410831356478127
30
0
41
1
10
9.4393587226989
20
-0.411753262688649
30
0
41
1
10
9.42425403329867
20
-0.409487497572201
30
0
41
1
10
9.38054067129687
20
-0.39911755926704
30
0
41
1
10
9.34977149738373
20
-0.387630064917858
30
0
41
1
10
9.30061839624776
20
-0.365565347501331
30
0
41
1
10
9.28194294857067
20
-0.356308011260921
30
0
41
1
10
9.26334869455081
20
-0.346265877365283
30
0
0
SPLINE
5
233
100
AcDbEntity
8
1
62
256
6
ByLayer
370
18
48
1
60
0
100
AcDbSpline
70
4
71
3
72
8
73
4
40
0
40
0
40
0
40
0
40
1
40
1
40
1
40
1
41
1
10
12.2358865767048
20
-0.346265877365283
30
0
41
1
10
12.0187214662444
20
-0.150072185448693
30
0
41
1
10
11.8001802922987
20
0.0449879984791721
30
0
41
1
10
11.5801047960903
20
0.238734122634725
30
0
0
SPLINE
5
234
100
AcDbEntity
8
1
62
256
6
ByLayer
370
18
48
1
60
0
100
AcDbSpline
70
4
71
3
72
8
73
4
40
0
40
0
40
0
40
0
40
1
40
1
40
1
40
1
41
1
10
8.97805609738566
20
0.2387341226339
30
0
41
1
10
9.13833491595145
20
0.0437565186267648
30
0
41
1
10
9.29857556736329
20
-0.1512446195525
30
0
41
1
10
9.45878355645297
20
-0.346265877365283
30
0
0
SPLINE
5
235
100
AcDbEntity
8
1
62
256
6
ByLayer
370
18
48
1
60
0
100
AcDbSpline
70
4
71
3
72
8
73
4
40
0
40
0
40
0
40
0
40
1
40
1
40
1
40
1
41
1
10
6.19449049756125
20
-0.346265877365198
30
0
41
1
10
5.51100994086593
20
-0.118587772298127
30
0
41
1
10
4.81270579151396
20
0.0789782150840495
30
0
41
1
10
4.10402191928796
20
0.238734122634952
30
0
0
SPLINE
5
236
100
AcDbEntity
8
1
62
256
6
ByLayer
370
18
48
1
60
0
100
AcDbSpline
70
4
71
3
72
14
73
10
40
0
40
0
40
0
40
0
40
0.141941171301761
40
0.141941171301761
40
0.357353198186838
40
0.357353198186838
40
0.639273767415523
40
0.639273767415523
40
1
40
1
40
1
40
1
41
1
10
11.7510529333995
20
0.298734122634727
30
0
41
1
10
11.751012551942
20
0.298734122634727
30
0
41
1
10
11.7515396404207
20
0.298160484843919
30
0
41
1
10
11.7541921525061
20
0.295381063885884
30
0
41
1
10
11.7570491727296
20
0.29243699717054
30
0
41
1
10
11.7656239807669
20
0.283660249263591
30
0
41
1
10
11.7720584258725
20
0.277107717556504
30
0
41
1
10
11.788371367488
20
0.260552129361855
30
0
41
1
10
11.7989492939661
20
0.249852861503285
30
0
41
1
10
11.8099743072656
20
0.238734122634725
30
0
0
SPLINE
5
237
100
AcDbEntity
8
1
62
256
6
ByLayer
370
18
48
1
60
0
100
AcDbSpline
70
4
71
3
72
18
73
14
40
0
40
0
40
0
40
0
40
0.109823639684845
40
0.109823639684845
40
0.284255774195501
40
0.284255774195501
40
0.415461503320682
40
0.415461503320682
40
0.546150550065159
40
0.546150550065159
40
0.741211937818899
40
0.741211937818899
40
1
40
1
40
1
40
1
41
1
10
-7.73668690802054
20
0.238734122632223
30
0
41
1
10
-7.73350851586957
20
0.242427120966369
30
0
41
1
10
-7.73057331043034
20
0.246189577667025
30
0
41
1
10
-7.72402497158882
20
0.255875098404147
30
0
41
1
10
-7.72093477320678
20
0.261954888456955
30
0
41
1
10
-7.71841322787679
20
0.271712892203851
30
0
41
1
10
-7.71825994643405
20
0.275705754092002
30
0
41
1
10
-7.71987307509343
20
0.282584469338929
30
0
41
1
10
-7.72163558236477
20
0.285558420034505
30
0
41
1
10
-7.72766951677846
20
0.291571179645928
30
0
41
1
10
-7.73279601228754
20
0.294065160697983
30
0
41
1
10
-7.74619413270196
20
0.297909249508422
30
0
41
1
10
-7.75511222619218
20
0.29873412263774
30
0
41
1
10
-7.76445294698274
20
0.298734122637598
30
0
0
SPLINE
5
238
100
AcDbEntity
8
1
62
256
6
ByLayer
370
18
48
1
60
0
100
AcDbSpline
70
4
71
3
72
8
73
4
40
0
40
0
40
0
40
0
40
1
40
1
40
1
40
1
41
1
10
10.9885188059763
20
-0.346265877365283
30
0
41
1
10
10.7050401172763
20
-0.147969458942327
30
0
41
1
10
10.4186186138218
20
0.047225176198026
30
0
41
1
10
10.1289845499771
20
0.238734122634725
30
0
0
SPLINE
5
239
100
AcDbEntity
8
1
62
256
6
ByLayer
370
18
48
1
60
0
100
AcDbSpline
70
4
71
3
72
20
73
16
40
0
40
0
40
0
40
0
40
0.066188082051513
40
0.066188082051513
40
0.192961842727587
40
0.192961842727587
40
0.284485482862045
40
0.284485482862045
40
0.375991128592693
40
0.375991128592693
40
0.500956861853661
40
0.500956861853661
40
0.716000196280463
40
0.716000196280463
40
1
40
1
40
1
40
1
41
1
10
-5.99851292719509
20
0.238734122625061
30
0
41
1
10
-5.9961652063138
20
0.24110620036754
30
0
41
1
10
-5.99394376504466
20
0.243535310236894
30
0
41
1
10
-5.98806029847475
20
0.250701983598219
30
0
41
1
10
-5.98483364801515
20
0.255665740654422
30
0
41
1
10
-5.98158578030277
20
0.263990909575682
30
0
41
1
10
-5.98091916963867
20
0.267488202282578
30
0
41
1
10
-5.98126195193316
20
0.273873852424316
30
0
41
1
10
-5.98227059688472
20
0.276835411301278
30
0
41
1
10
-5.98615071097654
20
0.282872284468567
30
0
41
1
10
-5.98958411818171
20
0.285715561022272
30
0
41
1
10
-6.00038765911546
20
0.291876469489608
30
0
41
1
10
-6.00894604942988
20
0.294290121495806
30
0
41
1
10
-6.02975979897155
20
0.297997739276923
30
0
41
1
10
-6.04263268008424
20
0.298734122634727
30
0
41
1
10
-6.05577164463767
20
0.298734122634727
30
0
0
SPLINE
5
23A
100
AcDbEntity
8
1
62
256
6
ByLayer
370
18
48
1
60
0
100
AcDbSpline
70
4
71
3
72
12
73
8
40
0
40
0
40
0
40
0
40
0.236187020825015
40
0.236187020825015
40
0.694609692002249
40
0.694609692002249
40
1
40
1
40
1
40
1
41
1
10
-9.10485591140119
20
0.298734122634727
30
0
41
1
10
-9.11499972621417
20
0.298734122633675
30
0
41
1
10
-9.12662830731247
20
0.296838048610198
30
0
41
1
10
-9.16205986178315
20
0.288057496755442
30
0
41
1
10
-9.18771581826275
20
0.27807209447127
30
0
41
1
10
-9.23053268848037
20
0.257911729290044
30
0
41
1
10
-9.24795666596276
20
0.248742905500904
30
0
41
1
10
-9.2652843986979
20
0.238734122634725
30
0
0
SPLINE
5
23B
100
AcDbEntity
8
1
62
256
6
ByLayer
370
18
48
1
60
0
100
AcDbSpline
70
4
71
3
72
18
73
14
40
0
40
0
40
0
40
0
40
0.17609909436593
40
0.17609909436593
40
0.377543737218863
40
0.377543737218863
40
0.542738879668711
40
0.542738879668711
40
0.70834617270006
40
0.70834617270006
40
0.870109648157108
40
0.870109648157108
40
1
40
1
40
1
40
1
41
1
10
8.98755188690774
20
0.298734122636716
30
0
41
1
10
8.98235248200473
20
0.298734122636773
30
0
41
1
10
8.97747851534899
20
0.298258465947271
30
0
41
1
10
8.96833741941202
20
0.29587884753721
30
0
41
1
10
8.96418087537799
20
0.293732587018809
30
0
41
1
10
8.95913498963631
20
0.287911225925626
30
0
41
1
10
8.9577693443872
20
0.284502808549433
30
0
41
1
10
8.9573711462323
20
0.276470929818572
30
0
41
1
10
8.95834397781147
20
0.271744806344031
30
0
41
1
10
8.96222285916602
20
0.261879825825105
30
0
41
1
10
8.96510418982928
20
0.256652293503578
30
0
41
1
10
8.97137913707158
20
0.247213844946316
30
0
41
1
10
8.97458736193127
20
0.242953805146243
30
0
41
1
10
8.97805609738555
20
0.2387341226339
30
0
0
SPLINE
5
23C
100
AcDbEntity
8
1
62
256
6
ByLayer
370
18
48
1
60
0
100
AcDbSpline
70
4
71
3
72
8
73
4
40
0
40
0
40
0
40
0
40
1
40
1
40
1
40
1
41
1
10
12.3743031550959
20
-0.346265877365255
30
0
41
1
10
12.1713638521305
20
-0.150414141807858
30
0
41
1
10
11.9673753378163
20
0.0446270502038999
30
0
41
1
10
11.7622132319285
20
0.238734122634725
30
0
0
SPLINE
5
23D
100
AcDbEntity
8
1
62
256
6
ByLayer
370
18
48
1
60
0
100
AcDbSpline
70
4
71
3
72
8
73
4
40
0
40
0
40
0
40
0
40
1
40
1
40
1
40
1
41
1
10
-6.55506132228487
20
0.238734122634725
30
0
41
1
10
-7.03697360173067
20
0.0580558935309909
30
0
41
1
10
-7.51151367918541
20
-0.137911618698581
30
0
41
1
10
-7.9782937261426
20
-0.346265877365283
30
0
0
SPLINE
5
23E
100
AcDbEntity
8
1
62
256
6
ByLayer
370
18
48
1
60
0
100
AcDbSpline
70
4
71
3
72
24
73
20
40
0
40
0
40
0
40
0
40
0.0654000587668374
40
0.0654000587668374
40
0.105993500051517
40
0.105993500051517
40
0.147224539289097
40
0.147224539289097
40
0.176257160604597
40
0.176257160604597
40
0.205251784270003
40
0.205251784270003
40
0.247477281629948
40
0.247477281629948
40
0.327254091315842
40
0.327254091315842
40
0.604731792726029
40
0.604731792726029
40
1
40
1
40
1
40
1
41
1
10
-2.9971637196457
20
0.238734122653028
30
0
41
1
10
-2.99255304459751
20
0.241383851273525
30
0
41
1
10
-2.988088030211
20
0.244224845522524
30
0
41
1
10
-2.98155749373953
20
0.24929368094638
30
0
41
1
10
-2.97920225090741
20
0.251370057521456
30
0
41
1
10
-2.97519804261697
20
0.255803814944073
30
0
41
1
10
-2.97352262953979
20
0.258225013563759
30
0
41
1
10
-2.97193632328489
20
0.262416606868356
30
0
41
1
10
-2.97165147686033
20
0.264205864204541
30
0
41
1
10
-2.9719555302986
20
0.267589413387384
30
0
41
1
10
-2.97254253018355
20
0.269221494689759
30
0
41
1
10
-2.97475228101749
20
0.27283722001394
30
0
41
1
10
-2.976730821876
20
0.274714456651964
30
0
41
1
10
-2.98323125254225
20
0.279381355465148
30
0
41
1
10
-2.98852989528416
20
0.281671582919131
30
0
41
1
10
-3.01299763220183
20
0.290125729816253
30
0
41
1
10
-3.03498263308316
20
0.292884741319881
30
0
41
1
10
-3.08778200541428
20
0.297878535528696
30
0
41
1
10
-3.11968118421211
20
0.298734122634727
30
0
41
1
10
-3.15166794857151
20
0.298734122634727
30
0
0
SPLINE
5
23F
100
AcDbEntity
8
1
62
256
6
ByLayer
370
18
48
1
60
0
100
AcDbSpline
70
4
71
3
72
16
73
12
40
0
40
0
40
0
40
0
40
0.219509331905566
40
0.219509331905566
40
0.445847997285757
40
0.445847997285757
40
0.674654598227637
40
0.674654598227637
40
0.870934663025341
40
0.870934663025341
40
1
40
1
40
1
40
1
41
1
10
-10.6173831633767
20
0.238734122634582
30
0
41
1
10
-10.6116767733872
20
0.245600531372418
30
0
41
1
10
-10.6064291755454
20
0.25245091275471
30
0
41
1
10
-10.5975305189753
20
0.265638725929733
30
0
41
1
10
-10.5938625630856
20
0.272087180143728
30
0
41
1
10
-10.5893437962329
20
0.283238614287825
30
0
41
1
10
-10.5884933264942
20
0.288063732373956
30
0
41
1
10
-10.5898945323693
20
0.29449674044406
30
0
41
1
10
-10.591726163336
20
0.296552393071551
30
0
41
1
10
-10.596248812513
20
0.298392710877096
30
0
41
1
10
-10.5984452281917
20
0.298734122634812
30
0
41
1
10
-10.6009342808913
20
0.298734122634812
30
0
0
SPLINE
5
240
100
AcDbEntity
8
1
62
256
6
ByLayer
370
18
48
1
60
0
100
AcDbSpline
70
4
71
3
72
22
73
18
40
0
40
0
40
0
40
0
40
0.0935729056016129
40
0.0935729056016129
40
0.190308817303299
40
0.190308817303299
40
0.288129166925838
40
0.288129166925838
40
0.371697406740273
40
0.371697406740273
40
0.48075633924027
40
0.48075633924027
40
0.639322225464002
40
0.639322225464002
40
0.886404260985066
40
0.886404260985066
40
1
40
1
40
1
40
1
41
1
10
11.1031828704821
20
-0.346265877365283
30
0
41
1
10
11.1092842046958
20
-0.353618455113377
30
0
41
1
10
11.1148940726123
20
-0.360957273120391
30
0
41
1
10
11.1244175023774
20
-0.375125482991336
30
0
41
1
10
11.1283440867261
20
-0.382073143197943
30
0
41
1
10
11.1331481114232
20
-0.394125274285557
30
0
41
1
10
11.1340214110399
20
-0.39936252461041
30
0
41
1
10
11.1323981460811
20
-0.406381230669524
30
0
41
1
10
11.1303684201077
20
-0.408650884637922
30
0
41
1
10
11.1234762346982
20
-0.411575594308175
30
0
41
1
10
11.1178713392781
20
-0.411614882054749
30
0
41
1
10
11.102031522462
20
-0.408857138054145
30
0
41
1
10
11.0906130316266
20
-0.404797777310449
30
0
41
1
10
11.0598498333549
20
-0.391069481896153
30
0
41
1
10
11.0390036027225
20
-0.379316601020037
30
0
41
1
10
11.008264201005
20
-0.359774949696885
30
0
41
1
10
10.9984001187115
20
-0.353177962833428
30
0
41
1
10
10.9885188059763
20
-0.346265877365283
30
0
0
SPLINE
5
241
100
AcDbEntity
8
1
62
256
6
ByLayer
370
18
48
1
60
0
100
AcDbSpline
70
4
71
3
72
22
73
18
40
0
40
0
40
0
40
0
40
0.146229876888666
40
0.146229876888666
40
0.271494243412915
40
0.271494243412915
40
0.376221605357025
40
0.376221605357025
40
0.481452728604906
40
0.481452728604906
40
0.579730659917532
40
0.579730659917532
40
0.715548407166766
40
0.715548407166766
40
0.904896096387697
40
0.904896096387697
40
1
40
1
40
1
40
1
41
1
10
12.2703420933027
20
-0.346265877365283
30
0
41
1
10
12.2797872127024
20
-0.356451091721937
30
0
41
1
10
12.2887286155961
20
-0.366382523318208
30
0
41
1
10
12.3030206030132
20
-0.383034869186162
30
0
41
1
10
12.3088207880203
20
-0.39015975973777
30
0
41
1
10
12.3166102162004
20
-0.400756823755699
30
0
41
1
10
12.3191255707538
20
-0.404726480017757
30
0
41
1
10
12.3213099086821
20
-0.409987782938941
30
0
41
1
10
12.3209801270337
20
-0.411323628470598
30
0
41
1
10
12.3176939167375
20
-0.411207835743028
30
0
41
1
10
12.3148900909574
20
-0.409949511182703
30
0
41
1
10
12.3061986177623
20
-0.404725618211728
30
0
41
1
10
12.2994367861692
20
-0.399864280388869
30
0
41
1
10
12.2813254208228
20
-0.385791300691238
30
0
41
1
10
12.2689220914479
20
-0.375410454133714
30
0
41
1
10
12.2494634573198
20
-0.358434542155635
30
0
41
1
10
12.2427236500006
20
-0.352442701298713
30
0
41
1
10
12.2358865767048
20
-0.346265877365283
30
0
0
SPLINE
5
242
100
AcDbEntity
8
1
62
256
6
ByLayer
370
18
48
1
60
0
100
AcDbSpline
70
4
71
3
72
12
73
8
40
0
40
0
40
0
40
0
40
0.192682760500296
40
0.192682760500296
40
0.719828315470829
40
0.719828315470829
40
1
40
1
40
1
40
1
41
1
10
-7.92229515489979
20
0.298734122634727
30
0
41
1
10
-7.93352925777083
20
0.298734122633846
30
0
41
1
10
-7.94563544856882
20
0.297450050492017
30
0
41
1
10
-7.99168808936633
20
0.289743620687631
30
0
41
1
10
-8.02809346516347
20
0.278383318643421
30
0
41
1
10
-8.08344973951316
20
0.256614963396089
30
0
41
1
10
-8.10287029688675
20
0.248086318191184
30
0
41
1
10
-8.12217101296415
20
0.238734122634725
30
0
0
SPLINE
5
243
100
AcDbEntity
8
1
62
256
6
ByLayer
370
18
48
1
60
0
100
AcDbSpline
70
4
71
3
72
8
73
4
40
0
40
0
40
0
40
0
40
1
40
1
40
1
40
1
41
1
10
-4.10402191928796
20
0.238734122634952
30
0
41
1
10
-4.81270579151396
20
0.0789782150840495
30
0
41
1
10
-5.51100994086593
20
-0.118587772298127
30
0
41
1
10
-6.19449049756125
20
-0.346265877365198
30
0
0
SPLINE
5
244
100
AcDbEntity
8
1
62
256
6
ByLayer
370
18
48
1
60
0
100
AcDbSpline
70
4
71
3
72
8
73
4
40
0
40
0
40
0
40
0
40
1
40
1
40
1
40
1
41
1
10
-9.2652843986979
20
0.238734122634725
30
0
41
1
10
-9.59396483791303
20
0.0488829055856286
30
0
41
1
10
-9.91850922066067
20
-0.146421652246289
30
0
41
1
10
-10.2391936837363
20
-0.346265877365283
30
0
0
SPLINE
5
245
100
AcDbEntity
8
1
62
256
6
ByLayer
370
18
48
1
60
0
100
AcDbSpline
70
4
71
3
72
18
73
14
40
0
40
0
40
0
40
0
40
0.310693521665851
40
0.310693521665851
40
0.465994754393235
40
0.465994754393235
40
0.623575124955141
40
0.623575124955141
40
0.764477912598842
40
0.764477912598842
40
0.929108250170173
40
0.929108250170173
40
1
40
1
40
1
40
1
41
1
10
7.7644529469849
20
0.298734122634727
30
0
41
1
10
7.75331991762243
20
0.298734122634727
30
0
41
1
10
7.74271152324579
20
0.297572247860756
30
0
41
1
10
7.72998571979591
20
0.292607855692267
30
0
41
1
10
7.72622061427828
20
0.290339339180747
30
0
41
1
10
7.72069113752681
20
0.284353581951564
30
0
41
1
10
7.71892265384491
20
0.280506319721212
30
0
41
1
10
7.718316831165
20
0.272085203529827
30
0
41
1
10
7.71918846172821
20
0.267526154034755
30
0
41
1
10
7.72317564328739
20
0.257379385538599
30
0
41
1
10
7.72666014644415
20
0.251605108272401
30
0
41
1
10
7.73266140283752
20
0.243559835309071
30
0
41
1
10
7.73462149015111
20
0.241133947572166
30
0
41
1
10
7.73668690802089
20
0.238734122632309
30
0
0
SPLINE
5
246
100
AcDbEntity
8
1
62
256
6
ByLayer
370
18
48
1
60
0
100
AcDbSpline
70
4
71
3
72
22
73
18
40
0
40
0
40
0
40
0
40
0.0762826384023487
40
0.0762826384023487
40
0.16150167562495
40
0.16150167562495
40
0.247640570355595
40
0.247640570355595
40
0.321517680072546
40
0.321517680072546
40
0.423672897513698
40
0.423672897513698
40
0.579577704570513
40
0.579577704570513
40
0.838071424699281
40
0.838071424699281
40
1
40
1
40
1
40
1
41
1
10
10.3892794799061
20
-0.346265877365283
30
0
41
1
10
10.3944714321662
20
-0.352617826550159
30
0
41
1
10
10.3992207684339
20
-0.359002300847095
30
0
41
1
10
10.4076030194324
20
-0.372035697419221
30
0
41
1
10
10.4111081053852
20
-0.37876880065312
30
0
41
1
10
10.4151244220962
20
-0.39070419505137
30
0
41
1
10
10.4156221084087
20
-0.396042742313597
30
0
41
1
10
10.4134879241546
20
-0.40361453881772
30
0
41
1
10
10.4112846693865
20
-0.406284512576633
30
0
41
1
10
10.4039568672845
20
-0.410549085523257
30
0
41
1
10
10.3979658197978
20
-0.411456728485803
30
0
41
1
10
10.3807920722664
20
-0.410891022160882
30
0
41
1
10
10.3682694093941
20
-0.408004684962606
30
0
41
1
10
10.3334774677334
20
-0.396710746595176
30
0
41
1
10
10.3094453799366
20
-0.385759610834668
30
0
41
1
10
10.2700936118467
20
-0.364843538860782
30
0
41
1
10
10.2546269079232
20
-0.355883557932401
30
0
41
1
10
10.2391936837363
20
-0.346265877365283
30
0
0
SPLINE
5
247
100
AcDbEntity
8
1
62
256
6
ByLayer
370
18
48
1
60
0
100
AcDbSpline
70
4
71
3
72
16
73
12
40
0
40
0
40
0
40
0
40
0.132797278092895
40
0.132797278092895
40
0.351767415141471
40
0.351767415141471
40
0.556219824347346
40
0.556219824347346
40
0.818440212614934
40
0.818440212614934
40
1
40
1
40
1
40
1
41
1
10
11.112792942448
20
0.298734122634727
30
0
41
1
10
11.1108610110978
20
0.298734122634727
30
0
41
1
10
11.1092924058923
20
0.298334153912748
30
0
41
1
10
11.1063551961543
20
0.296127778692352
30
0
41
1
10
11.1057634705781
20
0.293506421306461
30
0
41
1
10
11.1072312769784
20
0.286389892200788
30
0
41
1
10
11.1091259776933
20
0.281952992930314
30
0
41
1
10
11.1155078573154
20
0.270571168169255
30
0
41
1
10
11.1206428537531
20
0.263115711358864
30
0
41
1
10
11.130725307773
20
0.249989639789305
30
0
41
1
10
11.1353060127286
20
0.244390049676923
30
0
41
1
10
11.1401522526864
20
0.238734122634639
30
0
0
SPLINE
5
248
100
AcDbEntity
8
1
62
256
6
ByLayer
370
18
48
1
60
0
100
AcDbSpline
70
4
71
3
72
14
73
10
40
0
40
0
40
0
40
0
40
0.477782103000937
40
0.477782103000937
40
0.761233081983568
40
0.761233081983568
40
0.994184326509541
40
0.994184326509541
40
1
40
1
40
1
40
1
41
1
10
10.7806382482019
20
0.238734122634725
30
0
41
1
10
10.760171716659
20
0.253849533553563
30
0
41
1
10
10.739622648013
20
0.267557075652263
30
0
41
1
10
10.7093674341211
20
0.284641421629658
30
0
41
1
10
10.698431824621
20
0.29005377659459
30
0
41
1
10
10.680783454829
20
0.296749544074118
30
0
41
1
10
10.6735120129774
20
0.298639884252481
30
0
41
1
10
10.6677409551793
20
0.298732968008494
30
0
41
1
10
10.6675994812827
20
0.298734122634897
30
0
41
1
10
10.6674590441522
20
0.298734122634727
30
0
0
SPLINE
5
249
100
AcDbEntity
8
1
62
256
6
ByLayer
370
18
48
1
60
0
100
AcDbSpline
70
4
71
3
72
8
73
4
40
0
40
0
40
0
40
0
40
1
40
1
40
1
40
1
41
1
10
-11.103182870482
20
-0.346265877365283
30
0
41
1
10
-10.9413273422562
20
-0.15121749719853
30
0
41
1
10
-10.7793976002252
20
0.0437847155872362
30
0
41
1
10
-10.6173831633767
20
0.238734122634582
30
0
0
SPLINE
5
24A
100
AcDbEntity
8
1
62
256
6
ByLayer
370
18
48
1
60
0
100
AcDbSpline
70
4
71
3
72
20
73
16
40
0
40
0
40
0
40
0
40
0.288858129828459
40
0.288858129828459
40
0.43993870488278
40
0.43993870488278
40
0.593066959267744
40
0.593066959267744
40
0.689426506970192
40
0.689426506970192
40
0.786510219043238
40
0.786510219043238
40
0.876391416242316
40
0.876391416242316
40
1
40
1
40
1
40
1
41
1
10
6.05577164463767
20
0.298734122634727
30
0
41
1
10
6.04240392433601
20
0.298734122634727
30
0
41
1
10
6.0293065759069
20
0.29797392160134
30
0
41
1
10
6.01098028748063
20
0.29462022859849
30
0
41
1
10
6.00492360312754
20
0.293048471470058
30
0
41
1
10
5.99406185585875
20
0.288627344150967
30
0
41
1
10
5.98915429583587
20
0.285704347827789
30
0
41
1
10
5.9836265137225
20
0.279401873565121
30
0
41
1
10
5.98207915253474
20
0.276523311022032
30
0
41
1
10
5.98077297290985
20
0.270121162376796
30
0
41
1
10
5.98102896866581
20
0.266508422963995
30
0
41
1
10
5.98316566932712
20
0.259432751715309
30
0
41
1
10
5.9849277376573
20
0.255904728693281
30
0
41
1
10
5.99020207755365
20
0.247767015357283
30
0
41
1
10
5.99415714510354
20
0.243135094578889
30
0
41
1
10
5.99851292718637
20
0.23873412263444
30
0
0
SPLINE
5
24B
100
AcDbEntity
8
1
62
256
6
ByLayer
370
18
48
1
60
0
100
AcDbSpline
70
4
71
3
72
8
73
4
40
0
40
0
40
0
40
0
40
1
40
1
40
1
40
1
41
1
10
11.5044408463912
20
0.238734122634696
30
0
41
1
10
11.6782370927612
20
0.0439917809753751
30
0
41
1
10
11.8516324579719
20
-0.151019266118197
30
0
41
1
10
12.0246726917162
20
-0.346265877365283
30
0
0
SPLINE
5
24C
100
AcDbEntity
8
1
62
256
6
ByLayer
370
18
48
1
60
0
100
AcDbSpline
70
4
71
3
72
8
73
4
40
0
40
0
40
0
40
0
40
1
40
1
40
1
40
1
41
1
10
-9.45878355645297
20
-0.346265877365283
30
0
41
1
10
-9.29857556736329
20
-0.1512446195525
30
0
41
1
10
-9.13833491595145
20
0.0437565186267648
30
0
41
1
10
-8.97805609738566
20
0.2387341226339
30
0
0
SPLINE
5
24D
100
AcDbEntity
8
1
62
256
6
ByLayer
370
18
48
1
60
0
100
AcDbSpline
70
4
71
3
72
22
73
18
40
0
40
0
40
0
40
0
40
0.323064584911866
40
0.323064584911866
40
0.483483836562938
40
0.483483836562938
40
0.616676741615142
40
0.616676741615142
40
0.704357797032776
40
0.704357797032776
40
0.793206198827012
40
0.793206198827012
40
0.868668916718216
40
0.868668916718216
40
0.963758915419814
40
0.963758915419814
40
1
40
1
40
1
40
1
41
1
10
-10.2391936837363
20
-0.346265877365283
30
0
41
1
10
-10.2696823936374
20
-0.3652658393423
30
0
41
1
10
-10.3006371063301
20
-0.38196240901911
30
0
41
1
10
-10.3437247539107
20
-0.400096796509217
30
0
41
1
10
-10.357763481207
20
-0.405062784143752
30
0
41
1
10
-10.3810237884101
20
-0.410641976314793
30
0
41
1
10
-10.3908712493569
20
-0.411889216119789
30
0
41
1
10
-10.403839177149
20
-0.410344385583187
30
0
41
1
10
-10.4081827293423
20
-0.408737563552961
30
0
41
1
10
-10.4139662844002
20
-0.403084676204287
30
0
41
1
10
-10.415404786403
20
-0.398882435364811
30
0
41
1
10
-10.4147240266544
20
-0.389182547780735
30
0
41
1
10
-10.4131097892645
20
-0.383864143971664
30
0
41
1
10
-10.4071738764087
20
-0.371075105278038
30
0
41
1
10
-10.4022087382792
20
-0.363223216717245
30
0
41
1
10
-10.3941460148276
20
-0.352350697412106
30
0
41
1
10
-10.3917661301886
20
-0.349308100298856
30
0
41
1
10
-10.389279479906
20
-0.346265877365283
30
0
0
SPLINE
5
24E
100
AcDbEntity
8
1
62
256
6
ByLayer
370
18
48
1
60
0
100
AcDbSpline
70
4
71
3
72
22
73
18
40
0
40
0
40
0
40
0
40
0.183233278543108
40
0.183233278543108
40
0.311400403628561
40
0.311400403628561
40
0.419543745869001
40
0.419543745869001
40
0.528315654217275
40
0.528315654217275
40
0.628198875001082
40
0.628198875001082
40
0.762359358389081
40
0.762359358389081
40
0.946926333289277
40
0.946926333289277
40
1
40
1
40
1
40
1
41
1
10
12.3856706249781
20
-0.346265877365283
30
0
41
1
10
12.3977411046137
20
-0.35862089982291
30
0
41
1
10
12.4092710539734
20
-0.370542934960156
30
0
41
1
10
12.4258733708586
20
-0.388036376109568
30
0
41
1
10
12.4319740466286
20
-0.394579726383256
30
0
41
1
10
12.4404311036233
20
-0.403979959431922
30
0
41
1
10
12.4432882314561
20
-0.407328987398472
30
0
41
1
10
12.4461078295026
20
-0.411197176967278
30
0
41
1
10
12.4460740528269
20
-0.41173538813996
30
0
41
1
10
12.4432395187553
20
-0.40998573836859
30
0
41
1
10
12.4406464241972
20
-0.407919374870062
30
0
41
1
10
12.4325022156908
20
-0.40093721919672
30
0
41
1
10
12.426145143269
20
-0.395210219281665
30
0
41
1
10
12.4090921418131
20
-0.379476081952674
30
0
41
1
10
12.3973915814626
20
-0.368424835958535
30
0
41
1
10
12.3815917877364
20
-0.353287751109491
30
0
41
1
10
12.3779701771227
20
-0.349804830233324
30
0
41
1
10
12.3743031550959
20
-0.346265877365255
30
0
0
SPLINE
5
24F
100
AcDbEntity
8
1
62
256
6
ByLayer
370
18
48
1
60
0
100
AcDbSpline
70
4
71
3
72
8
73
4
40
0
40
0
40
0
40
0
40
1
40
1
40
1
40
1
41
1
10
11.7250299003113
20
0.238734122634696
30
0
41
1
10
11.9073944014123
20
0.044150360364938
30
0
41
1
10
12.0891423098796
20
-0.150867750836397
30
0
41
1
10
12.2703420933027
20
-0.346265877365283
30
0
0
SPLINE
5
250
100
AcDbEntity
8
1
62
256
6
ByLayer
370
18
48
1
60
0
100
AcDbSpline
70
4
71
3
72
22
73
18
40
0
40
0
40
0
40
0
40
0.664358225706176
40
0.664358225706176
40
0.7652645234742
40
0.7652645234742
40
0.79941754798928
40
0.79941754798928
40
0.834173824471421
40
0.834173824471421
40
0.863820047955283
40
0.863820047955283
40
0.903941441409628
40
0.903941441409628
40
0.978130042902601
40
0.978130042902601
40
1
40
1
40
1
40
1
41
1
10
3.15166794857151
20
0.298734122634727
30
0
41
1
10
3.09856605585972
20
0.298734122634727
30
0
41
1
10
3.0427641879655
20
0.298997866183981
30
0
41
1
10
2.98979006725446
20
0.282275850875891
30
0
41
1
10
2.98278018590125
20
0.279460118726263
30
0
41
1
10
2.97592960733977
20
0.273926069804162
30
0
41
1
10
2.97440731289564
20
0.272323868654183
30
0
41
1
10
2.97228515719701
20
0.268744120227836
30
0
41
1
10
2.97169771403068
20
0.266700340398927
30
0
41
1
10
2.97182837142438
20
0.262820863370081
30
0
41
1
10
2.97236527397058
20
0.260955846201
30
0
41
1
10
2.97446142389993
20
0.256758125270323
30
0
41
1
10
2.97631771542254
20
0.254420997537011
30
0
41
1
10
2.98239025111604
20
0.248283323773734
30
0
41
1
10
2.98734105017996
20
0.244743892736665
30
0
41
1
10
2.99402648782981
20
0.240571066575484
30
0
41
1
10
2.99558452634824
20
0.23964167601963
30
0
41
1
10
2.99716371967588
20
0.238734122632877
30
0
0
SPLINE
5
251
100
AcDbEntity
8
1
62
256
6
ByLayer
370
18
48
1
60
0
100
AcDbSpline
70
4
71
3
72
16
73
12
40
0
40
0
40
0
40
0
40
0.13388896967723
40
0.13388896967723
40
0.349197059851107
40
0.349197059851107
40
0.557012361367057
40
0.557012361367057
40
0.850920746234074
40
0.850920746234074
40
1
40
1
40
1
40
1
41
1
10
11.4666266327838
20
0.298734122634727
30
0
41
1
10
11.4653024748912
20
0.298734122634727
30
0
41
1
10
11.4643983835722
20
0.298290874528817
30
0
41
1
10
11.4632943252042
20
0.295944394197335
30
0
41
1
10
11.4638689918842
20
0.293254794307131
30
0
41
1
10
11.4672824580222
20
0.286063898743521
30
0
41
1
10
11.470066429674
20
0.281558446797675
30
0
41
1
10
11.4786016124309
20
0.269411668379064
30
0
41
1
10
11.4852110016806
20
0.261068413024247
30
0
41
1
10
11.4963184084767
20
0.247942913811926
30
0
41
1
10
11.5003046210367
20
0.243368849954635
30
0
41
1
10
11.5044408463912
20
0.238734122634696
30
0
0
SPLINE
5
252
100
AcDbEntity
8
1
62
256
6
ByLayer
370
18
48
1
60
0
100
AcDbSpline
70
4
71
3
72
8
73
4
40
0
40
0
40
0
40
0
40
1
40
1
40
1
40
1
41
1
10
11.1401522526864
20
0.238734122634639
30
0
41
1
10
11.3071191933336
20
0.0438711272024364
30
0
41
1
10
11.4738639801768
20
-0.151134744792756
30
0
41
1
10
11.6404128620567
20
-0.346265877365283
30
0
0
SPLINE
5
253
100
AcDbEntity
8
1
62
256
6
ByLayer
370
18
48
1
60
0
100
AcDbSpline
70
4
71
3
72
22
73
18
40
0
40
0
40
0
40
0
40
0.0235957424005642
40
0.0235957424005642
40
0.0672577974646807
40
0.0672577974646807
40
0.0991964491439969
40
0.0991964491439969
40
0.131111527179787
40
0.131111527179787
40
0.175105053335129
40
0.175105053335129
40
0.250474983108787
40
0.250474983108787
40
0.45274719806246
40
0.45274719806246
40
1
40
1
40
1
40
1
41
1
10
6.56936091871216
20
-0.3462658773648
30
0
41
1
10
6.57201622964769
20
-0.349022937341374
30
0
41
1
10
6.57451820024579
20
-0.351845135348014
30
0
41
1
10
6.58094623162435
20
-0.359969817790443
30
0
41
1
10
6.58438554451445
20
-0.3655049241884
30
0
41
1
10
6.58776927561254
20
-0.374755812078661
30
0
41
1
10
6.58840817129592
20
-0.378644307985979
30
0
41
1
10
6.58782515253489
20
-0.385686902070574
30
0
41
1
10
6.5866040291877
20
-0.388922904076651
30
0
41
1
10
6.5820523069564
20
-0.395506380693377
30
0
41
1
10
6.57807571245442
20
-0.39856853996065
30
0
41
1
10
6.565660922749
20
-0.405086498932576
30
0
41
1
10
6.55590202969364
20
-0.40751545805125
30
0
41
1
10
6.51846735026194
20
-0.413080519464927
30
0
41
1
10
6.48702368895513
20
-0.411332406926732
30
0
41
1
10
6.37151452188098
20
-0.398447612189216
30
0
41
1
10
6.28185147029726
20
-0.375367189077196
30
0
41
1
10
6.19449049756122
20
-0.346265877365397
30
0
0
SPLINE
5
254
100
AcDbEntity
8
1
62
256
6
ByLayer
370
18
48
1
60
0
100
AcDbSpline
70
4
71
3
72
8
73
4
40
0
40
0
40
0
40
0
40
1
40
1
40
1
40
1
41
1
10
-8.12217101296415
20
0.238734122634725
30
0
41
1
10
-8.50793292346432
20
0.0518125177177637
30
0
41
1
10
-8.88826707429746
20
-0.143696855324919
30
0
41
1
10
-9.26334869455081
20
-0.346265877365283
30
0
0
SPLINE
5
255
100
AcDbEntity
8
1
62
256
6
ByLayer
370
18
48
1
60
0
100
AcDbSpline
70
4
71
3
72
8
73
4
40
0
40
0
40
0
40
0
40
1
40
1
40
1
40
1
41
1
10
9.9110876427583
20
0.238734122661612
30
0
41
1
10
10.0704907181003
20
0.0437376762622534
30
0
41
1
10
10.2298877306563
20
-0.151262487309935
30
0
41
1
10
10.389279479906
20
-0.346265877365283
30
0
0
SPLINE
5
256
100
AcDbEntity
8
1
62
256
6
ByLayer
370
18
48
1
60
0
100
AcDbSpline
70
4
71
3
72
24
73
20
40
0
40
0
40
0
40
0
40
0.0227242593853341
40
0.0227242593853341
40
0.0362132206569334
40
0.0362132206569334
40
0.0499241842430055
40
0.0499241842430055
40
0.0621444835670518
40
0.0621444835670518
40
0.0769910529506161
40
0.0769910529506161
40
0.102691924860016
40
0.102691924860016
40
0.180771605522938
40
0.180771605522938
40
0.498232714628486
40
0.498232714628486
40
1
40
1
40
1
40
1
41
1
10
3.91317788205862
20
-0.346265877375771
30
0
41
1
10
3.91837945059621
20
-0.349897246251459
30
0
41
1
10
3.9233214862586
20
-0.353821558846306
30
0
41
1
10
3.92988611779828
20
-0.360627232807019
30
0
41
1
10
3.93206624886329
20
-0.36333512144796
30
0
41
1
10
3.93529274395829
20
-0.36892529640312
30
0
41
1
10
3.93633472910216
20
-0.371888233391218
30
0
41
1
10
3.93666378039171
20
-0.377210234676142
30
0
41
1
10
3.93612845692724
20
-0.379661418895154
30
0
41
1
10
3.93370782301031
20
-0.384499516585237
30
0
41
1
10
3.93155629867724
20
-0.386847553339692
30
0
41
1
10
3.92462473865757
20
-0.392332947966139
30
0
41
1
10
3.91900384120402
20
-0.39497268817766
30
0
41
1
10
3.895244998587
20
-0.403605179966661
30
0
41
1
10
3.87417641019741
20
-0.406403059347298
30
0
41
1
10
3.76837624503756
20
-0.416057415179324
30
0
41
1
10
3.67700062946105
20
-0.409443792562683
30
0
41
1
10
3.44448556840595
20
-0.389505885795017
30
0
41
1
10
3.30037567044951
20
-0.369732027056926
30
0
41
1
10
3.156779097141
20
-0.346265877365283
30
0
0
SPLINE
5
257
100
AcDbEntity
8
1
62
256
6
ByLayer
370
18
48
1
60
0
100
AcDbSpline
70
4
71
3
72
8
73
4
40
0
40
0
40
0
40
0
40
1
40
1
40
1
40
1
41
1
10
11.5554750575442
20
-0.346265877365283
30
0
41
1
10
11.2995560381157
20
-0.148946090267316
30
0
41
1
10
11.0413555833617
20
0.046183193995887
30
0
41
1
10
10.7806382482019
20
0.238734122634725
30
0
0
SPLINE
5
258
100
AcDbEntity
8
1
62
256
6
ByLayer
370
18
48
1
60
0
100
AcDbSpline
70
4
71
3
72
22
73
18
40
0
40
0
40
0
40
0
40
0.128402250197902
40
0.128402250197902
40
0.24502575928212
40
0.24502575928212
40
0.343780081551848
40
0.343780081551848
40
0.442824619970936
40
0.442824619970936
40
0.538222963808323
40
0.538222963808323
40
0.677411224698629
40
0.677411224698629
40
0.876405599113655
40
0.876405599113655
40
1
40
1
40
1
40
1
41
1
10
12.0246726917162
20
-0.346265877365283
30
0
41
1
10
12.0328700673465
20
-0.355515228098881
30
0
41
1
10
12.04054575115
20
-0.364609576118596
30
0
41
1
10
12.0529969969855
20
-0.380558267849153
30
0
41
1
10
12.0580763520949
20
-0.38768907673213
30
0
41
1
10
12.0645820742311
20
-0.398600385638076
30
0
41
1
10
12.0664939157008
20
-0.402823950964461
30
0
41
1
10
12.0675540436028
20
-0.408780004242146
30
0
41
1
10
12.0667004990698
20
-0.410575295230018
30
0
41
1
10
12.0625857089281
20
-0.411599265439236
30
0
41
1
10
12.0593850421521
20
-0.410949995529194
30
0
41
1
10
12.0496015599184
20
-0.407116494598142
30
0
41
1
10
12.0420162930433
20
-0.40288799307163
30
0
41
1
10
12.0217232688178
20
-0.389907316719672
30
0
41
1
10
12.0078664306252
20
-0.37980424283208
30
0
41
1
10
11.9846043391289
20
-0.361617953636596
30
0
41
1
10
11.9753585863284
20
-0.35410521329095
30
0
41
1
10
11.9660127888013
20
-0.346265877365283
30
0
0
SPLINE
5
259
100
AcDbEntity
8
1
62
256
6
ByLayer
370
18
48
1
60
0
100
AcDbSpline
70
4
71
3
72
8
73
4
40
0
40
0
40
0
40
0
40
1
40
1
40
1
40
1
41
1
10
3.156779097141
20
-0.346265877365283
30
0
41
1
10
1.052259699047
20
-0.0023512136179988
30
0
41
1
10
-1.052259699047
20
-0.0023512136179988
30
0
41
1
10
-3.156779097141
20
-0.346265877365283
30
0
0
SPLINE
5
25A
100
AcDbEntity
8
1
62
256
6
ByLayer
370
18
48
1
60
0
100
AcDbSpline
70
4
71
3
72
22
73
18
40
0
40
0
40
0
40
0
40
0.0412497982897052
40
0.0412497982897052
40
0.106118418872174
40
0.106118418872174
40
0.154735228068923
40
0.154735228068923
40
0.203168908983538
40
0.203168908983538
40
0.27487029761422
40
0.27487029761422
40
0.39636076068626
40
0.39636076068626
40
0.639897173943644
40
0.639897173943644
40
1
40
1
40
1
40
1
41
1
10
8.23863123486333
20
-0.34626587736517
30
0
41
1
10
8.24213965806496
20
-0.35036663153528
30
0
41
1
10
8.24537577785748
20
-0.354542463855893
30
0
41
1
10
8.25253267234228
20
-0.365211811556293
30
0
41
1
10
8.25588718188331
20
-0.371868894744068
30
0
41
1
10
8.25858952673113
20
-0.382499294145447
30
0
41
1
10
8.25873560662666
20
-0.38682858344805
30
0
41
1
10
8.25693264757635
20
-0.394264981396873
30
0
41
1
10
8.25498611157374
20
-0.397467535341548
30
0
41
1
10
8.24836415416638
20
-0.403879808451308
30
0
41
1
10
8.24277371618444
20
-0.406507917848216
30
0
41
1
10
8.22585571256005
20
-0.411145209833364
30
0
41
1
10
8.21297555113131
20
-0.411689316987349
30
0
41
1
10
8.17283065300916
20
-0.40965248400812
30
0
41
1
10
8.14306972259214
20
-0.403510863374891
30
0
41
1
10
8.06913324879193
20
-0.383328716514057
30
0
41
1
10
8.02335871082073
20
-0.366381307610538
30
0
41
1
10
7.9782937261426
20
-0.346265877365283
30
0
0
SPLINE
5
25B
100
AcDbEntity
8
1
62
256
6
ByLayer
370
18
48
1
60
0
100
AcDbSpline
70
4
71
3
72
20
73
16
40
0
40
0
40
0
40
0
40
0.446440436959281
40
0.446440436959281
40
0.687384598948467
40
0.687384598948467
40
0.769436554389034
40
0.769436554389034
40
0.825981842616554
40
0.825981842616554
40
0.88329039789255
40
0.88329039789255
40
0.93183245507944
40
0.93183245507944
40
1
40
1
40
1
40
1
41
1
10
-7.9782937261426
20
-0.346265877365283
30
0
41
1
10
-8.03386386977363
20
-0.371070442504077
30
0
41
1
10
-8.09089224065912
20
-0.391415704528697
30
0
41
1
10
-8.17297641811399
20
-0.409228565218598
30
0
41
1
10
-8.20189720228319
20
-0.413249764026602
30
0
41
1
10
-8.23340997342166
20
-0.409372776210262
30
0
41
1
10
-8.24092079766223
20
-0.40745538053153
30
0
41
1
10
-8.25083583971548
20
-0.40182885649088
30
0
41
1
10
-8.25414931489013
20
-0.39878795476352
30
0
41
1
10
-8.25819077436918
20
-0.391138557942412
30
0
41
1
10
-8.25889487131786
20
-0.386371699404776
30
0
41
1
10
-8.2574065518908
20
-0.376719206848605
30
0
41
1
10
-8.25564240116586
20
-0.371858653446282
30
0
41
1
10
-8.24955637960528
20
-0.360130381627982
30
0
41
1
10
-8.24444500500061
20
-0.353061192744008
30
0
41
1
10
-8.23863123486271
20
-0.346265877365283
30
0
0
SPLINE
5
25C
100
AcDbEntity
8
1
62
256
6
ByLayer
370
18
48
1
60
0
100
AcDbSpline
70
4
71
3
72
18
73
14
40
0
40
0
40
0
40
0
40
0.14697121770798
40
0.14697121770798
40
0.351810878245595
40
0.351810878245595
40
0.558601686421439
40
0.558601686421439
40
0.738852806663617
40
0.738852806663617
40
0.993261558970334
40
0.993261558970334
40
1
40
1
40
1
40
1
41
1
10
9.90658610591083
20
0.298734122635125
30
0
41
1
10
9.90303412986725
20
0.298734122635125
30
0
41
1
10
9.89978739336482
20
0.298344576519185
30
0
41
1
10
9.8931618103656
20
0.296279293758431
30
0
41
1
10
9.8901737678683
20
0.294105502255945
30
0
41
1
10
9.88693567331558
20
0.287660443279833
30
0
41
1
10
9.88669727874967
20
0.283254347168167
30
0
41
1
10
9.8889659631397
20
0.273625820249464
30
0
41
1
10
9.89113312676815
20
0.268478233235612
30
0
41
1
10
9.89824032414515
20
0.255578464099585
30
0
41
1
10
9.90402608816746
20
0.247427837873318
30
0
41
1
10
9.91073571213749
20
0.239165345943661
30
0
41
1
10
9.91091137932924
20
0.238949744237516
30
0
41
1
10
9.91108764275816
20
0.238734122661782
30
0
0
SPLINE
5
25D
100
AcDbEntity
8
1
62
256
6
ByLayer
370
18
48
1
60
0
100
AcDbSpline
70
4
71
3
72
12
73
8
40
0
40
0
40
0
40
0
40
0.536939533014237
40
0.536939533014237
40
0.869554790316203
40
0.869554790316203
40
1
40
1
40
1
40
1
41
1
10
9.2652843986979
20
0.238734122634725
30
0
41
1
10
9.23504858476613
20
0.256198825088944
30
0
41
1
10
9.2042975417591
20
0.271282481049468
30
0
41
1
10
9.15698544455827
20
0.289116162477399
30
0
41
1
10
9.13909704254041
20
0.294497744689238
30
0
41
1
10
9.11661468129407
20
0.29813899578383
30
0
41
1
10
9.11050233451959
20
0.298734122637512
30
0
41
1
10
9.10485591139889
20
0.298734122638251
30
0
0
SPLINE
5
25E
100
AcDbEntity
8
1
62
256
6
ByLayer
370
18
48
1
60
0
100
AcDbSpline
70
4
71
3
72
18
73
14
40
0
40
0
40
0
40
0
40
0.149542183799009
40
0.149542183799009
40
0.366453302088097
40
0.366453302088097
40
0.552823277314403
40
0.552823277314403
40
0.712047258806107
40
0.712047258806107
40
0.961586119427284
40
0.961586119427284
40
1
40
1
40
1
40
1
41
1
10
-8.97805609738546
20
0.2387341226339
30
0
41
1
10
-8.9740695685625
20
0.243583695678893
30
0
41
1
10
-8.97042312387546
20
0.248492270722807
30
0
41
1
10
-8.96293268460443
20
0.260242154217877
30
0
41
1
10
-8.95963746633456
20
0.267183084974846
30
0
41
1
10
-8.95711313060812
20
0.278423037825945
30
0
41
1
10
-8.95737418041057
20
0.283093019607179
30
0
41
1
10
-8.96038619955394
20
0.289874965954738
30
0
41
1
10
-8.96277867177503
20
0.292355675694182
30
0
41
1
10
-8.97059143383402
20
0.297013832775832
30
0
41
1
10
-8.97704031634086
20
0.298356240748319
30
0
41
1
10
-8.98527883474395
20
0.298711027769286
30
0
41
1
10
-8.98640679169253
20
0.298734122634755
30
0
41
1
10
-8.98755188690933
20
0.298734122634755
30
0
0
SPLINE
5
25F
100
AcDbEntity
8
1
62
256
6
ByLayer
370
18
48
1
60
0
100
AcDbSpline
70
4
71
3
72
22
73
18
40
0
40
0
40
0
40
0
40
0.311008083777201
40
0.311008083777201
40
0.487642856958518
40
0.487642856958518
40
0.667460798960881
40
0.667460798960881
40
0.742166512904824
40
0.742166512904824
40
0.817949148651346
40
0.817949148651346
40
0.884485862872614
40
0.884485862872614
40
0.947356012461696
40
0.947356012461696
40
1
40
1
40
1
40
1
41
1
10
-9.26334869455081
20
-0.346265877365283
30
0
41
1
10
-9.29648588636064
20
-0.364162164934754
30
0
41
1
10
-9.33007892045978
20
-0.379730111167731
30
0
41
1
10
-9.38057462825546
20
-0.398233181875526
30
0
41
1
10
-9.39868545657498
20
-0.403794563784459
30
0
41
1
10
-9.43271697822198
20
-0.410929390727574
30
0
41
1
10
-9.44921653534769
20
-0.412607230414153
30
0
41
1
10
-9.46705317352024
20
-0.408974750381247
30
0
41
1
10
-9.47168633348235
20
-0.407089922483266
30
0
41
1
10
-9.47845958502808
20
-0.401278529056668
30
0
41
1
10
-9.48061150122834
20
-0.397203461320373
30
0
41
1
10
-9.48135371998771
20
-0.387804382910304
30
0
41
1
10
-9.48035081976076
20
-0.382574555385446
30
0
41
1
10
-9.47617789662414
20
-0.371795820629444
30
0
41
1
10
-9.47310907875661
20
-0.36616931163195
30
0
41
1
10
-9.46628023496029
20
-0.355805429822851
30
0
41
1
10
-9.46268266386059
20
-0.351012262581491
30
0
41
1
10
-9.4587835564532
20
-0.346265877365255
30
0
0
SPLINE
5
260
100
AcDbEntity
8
1
62
256
6
ByLayer
370
18
48
1
60
0
100
AcDbSpline
70
4
71
3
72
24
73
20
40
0
40
0
40
0
40
0
40
0.468703436061364
40
0.468703436061364
40
0.637092140406301
40
0.637092140406301
40
0.772732442864617
40
0.772732442864617
40
0.820011389755141
40
0.820011389755141
40
0.867949483425086
40
0.867949483425086
40
0.900851650882302
40
0.900851650882302
40
0.933865609606072
40
0.933865609606072
40
0.974374043628964
40
0.974374043628964
40
1
40
1
40
1
40
1
41
1
10
-6.19449049756122
20
-0.346265877365312
30
0
41
1
10
-6.2695979554519
20
-0.37128535088425
30
0
41
1
10
-6.34598246592148
20
-0.391368796651619
30
0
41
1
10
-6.4460840213716
20
-0.407119457999755
30
0
41
1
10
-6.47250682452361
20
-0.41016853410423
30
0
41
1
10
-6.51814132927905
20
-0.411728340753058
30
0
41
1
10
-6.53818788238843
20
-0.411129451461363
30
0
41
1
10
-6.56156377367964
20
-0.405848726716044
30
0
41
1
10
-6.56732865824495
20
-0.40402771204387
30
0
41
1
10
-6.57742035185944
20
-0.399059270688213
30
0
41
1
10
-6.58182974526019
20
-0.395821346256838
30
0
41
1
10
-6.58664062680899
20
-0.388874734285423
30
0
41
1
10
-6.58787524651547
20
-0.385553128613879
30
0
41
1
10
-6.58839393294079
20
-0.378313016423135
30
0
41
1
10
-6.58767160867535
20
-0.374305761324223
30
0
41
1
10
-6.58423402669945
20
-0.365345532163786
30
0
41
1
10
-6.58109426158939
20
-0.360254908867688
30
0
41
1
10
-6.5749098860467
20
-0.352288277894132
30
0
41
1
10
-6.57222403037179
20
-0.349238700794984
30
0
41
1
10
-6.56936091871262
20
-0.346265877364658
30
0
0
SPLINE
5
261
100
AcDbEntity
8
1
62
256
6
ByLayer
370
18
48
1
60
0
100
AcDbSpline
70
4
71
3
72
8
73
4
40
0
40
0
40
0
40
0
40
1
40
1
40
1
40
1
41
1
10
-6.56936091871083
20
-0.346265877365283
30
0
41
1
10
-6.38053635248079
20
-0.150205729686462
30
0
41
1
10
-6.19036544106424
20
0.0448911995957246
30
0
41
1
10
-5.99851292719629
20
0.238734122625516
30
0
0
SPLINE
5
262
100
AcDbEntity
8
1
62
256
6
ByLayer
370
18
48
1
60
0
100
AcDbSpline
70
4
71
3
72
10
73
6
40
0
40
0
40
0
40
0
40
0.761868662577583
40
0.761868662577583
40
1
40
1
40
1
40
1
41
1
10
6.55506132228484
20
0.238734122635094
30
0
41
1
10
6.48599932973579
20
0.264626798635135
30
0
41
1
10
6.41502362139437
20
0.28435519031342
30
0
41
1
10
6.32627334641376
20
0.296805435744659
30
0
41
1
10
6.30516089266547
20
0.298734122634272
30
0
41
1
10
6.28507119094155
20
0.298734122634727
30
0
0
SPLINE
5
263
100
AcDbEntity
8
1
62
256
6
ByLayer
370
18
48
1
60
0
100
AcDbSpline
70
4
71
3
72
26
73
22
40
0
40
0
40
0
40
0
40
0.250487272051366
40
0.250487272051366
40
0.648692601343916
40
0.648692601343916
40
0.817673606714328
40
0.817673606714328
40
0.902892990943958
40
0.902892990943958
40
0.920965280648535
40
0.920965280648535
40
0.93940457404555
40
0.93940457404555
40
0.950722879173504
40
0.950722879173504
40
0.962027388394545
40
0.962027388394545
40
0.978271854553824
40
0.978271854553824
40
1
40
1
40
1
40
1
41
1
10
-3.156779097141
20
-0.346265877365283
30
0
41
1
10
-3.22857583511225
20
-0.357998699129666
30
0
41
1
10
-3.3004196334891
20
-0.368649992582732
30
0
41
1
10
-3.48594286826633
20
-0.392933751241287
30
0
41
1
10
-3.60005588453237
20
-0.405369205667313
30
0
41
1
10
-3.75947948643668
20
-0.411762118905585
30
0
41
1
10
-3.80704447102676
20
-0.412453760023453
30
0
41
1
10
-3.87509849108736
20
-0.406355644025382
30
0
41
1
10
-3.89821350713498
20
-0.403402204443807
30
0
41
1
10
-3.92090058487096
20
-0.39397982420931
30
0
41
1
10
-3.92470775653422
20
-0.392027913944759
30
0
41
1
10
-3.93121163030597
20
-0.387291947353617
30
0
41
1
10
-3.93396455877945
20
-0.384401251036707
30
0
41
1
10
-3.93629372655965
20
-0.378983609737475
30
0
41
1
10
-3.93668258702743
20
-0.37669044141407
30
0
41
1
10
-3.93628353068115
20
-0.372015834336821
30
0
41
1
10
-3.9354978032288
20
-0.369583758355731
30
0
41
1
10
-3.93254789982751
20
-0.363876889763077
30
0
41
1
10
-3.92992219645325
20
-0.360599534640215
30
0
41
1
10
-3.92291782261688
20
-0.35350405138945
30
0
41
1
10
-3.91817041879966
20
-0.349751314939937
30
0
41
1
10
-3.91317788206425
20
-0.346265877351755
30
0
0
SPLINE
5
264
100
AcDbEntity
8
1
62
256
6
ByLayer
370
18
48
1
60
0
100
AcDbSpline
70
4
71
3
72
8
73
4
40
0
40
0
40
0
40
0
40
1
40
1
40
1
40
1
41
1
10
-10.1289845499771
20
0.238734122634725
30
0
41
1
10
-10.4186186138218
20
0.047225176198026
30
0
41
1
10
-10.7050401172763
20
-0.147969458942327
30
0
41
1
10
-10.9885188059763
20
-0.346265877365283
30
0
0
SPLINE
5
265
100
AcDbEntity
8
1
62
256
6
ByLayer
370
18
48
1
60
0
100
AcDbSpline
70
4
71
3
72
8
73
4
40
0
40
0
40
0
40
0
40
1
40
1
40
1
40
1
41
1
10
10.2391936837363
20
-0.346265877365283
30
0
41
1
10
9.91850922066067
20
-0.146421652246289
30
0
41
1
10
9.59396483791303
20
0.0488829055856286
30
0
41
1
10
9.2652843986979
20
0.238734122634725
30
0
0
SPLINE
5
266
100
AcDbEntity
8
1
62
256
6
ByLayer
370
18
48
1
60
0
100
AcDbSpline
70
4
71
3
72
10
73
6
40
0
40
0
40
0
40
0
40
0.42673160280914
40
0.42673160280914
40
1
40
1
40
1
40
1
41
1
10
4.10402191928787
20
0.238734122634895
30
0
41
1
10
4.03536485708489
20
0.25421122280872
30
0
41
1
10
3.96630369937074
20
0.266708666470635
30
0
41
1
10
3.80506437671804
20
0.289652745090223
30
0
41
1
10
3.71212076992302
20
0.298734122635096
30
0
41
1
10
3.62166801750604
20
0.298734122634727
30
0
0
SPLINE
5
267
100
AcDbEntity
8
1
62
256
6
ByLayer
370
18
48
1
60
0
100
AcDbSpline
70
4
71
3
72
8
73
4
40
0
40
0
40
0
40
0
40
1
40
1
40
1
40
1
41
1
10
-8.23863123486271
20
-0.346265877365283
30
0
41
1
10
-8.07162710680831
20
-0.151066257710596
30
0
41
1
10
-7.90433143841756
20
0.0439466508205726
30
0
41
1
10
-7.736686908021
20
0.238734122632337
30
0
0
SPLINE
5
268
100
AcDbEntity
8
1
62
256
6
ByLayer
370
18
48
1
60
0
100
AcDbSpline
70
4
71
3
72
12
73
8
40
0
40
0
40
0
40
0
40
0.191950454986297
40
0.191950454986297
40
0.564795176328816
40
0.564795176328816
40
1
40
1
40
1
40
1
41
1
10
-9.99545105601658
20
0.298734122643793
30
0
41
1
10
-10.0016445347339
20
0.298734122642742
30
0
41
1
10
-10.0089168284108
20
0.297482157451355
30
0
41
1
10
-10.0316579001748
20
0.291378943846866
30
0
41
1
10
-10.0487637480559
20
0.284214122088372
30
0
41
1
10
-10.0865092796528
20
0.265310954700084
30
0
41
1
10
-10.1078246804099
20
0.252725240508653
30
0
41
1
10
-10.1289845499771
20
0.238734122634725
30
0
0
SPLINE
5
269
100
AcDbEntity
8
1
62
256
6
ByLayer
370
18
48
1
60
0
100
AcDbSpline
70
4
71
3
72
22
73
18
40
0
40
0
40
0
40
0
40
0.110938946854781
40
0.110938946854781
40
0.218128935638993
40
0.218128935638993
40
0.326607457873121
40
0.326607457873121
40
0.418461187056361
40
0.418461187056361
40
0.511273960581491
40
0.511273960581491
40
0.659993199553304
40
0.659993199553304
40
0.880871232216255
40
0.880871232216255
40
1
40
1
40
1
40
1
41
1
10
11.6404128620568
20
-0.346265877365283
30
0
41
1
10
11.6475067357704
20
-0.354577164696963
30
0
41
1
10
11.6540829984522
20
-0.362812598784643
30
0
41
1
10
11.6649558032645
20
-0.377940936553443
30
0
41
1
10
11.6694102277918
20
-0.385015960619626
30
0
41
1
10
11.6752403244826
20
-0.397034180127122
30
0
41
1
10
11.6766239232188
20
-0.402104118696855
30
0
41
1
10
11.6757350782499
20
-0.408427930538579
30
0
41
1
10
11.6739879728949
20
-0.410233106476227
30
0
41
1
10
11.668338232921
20
-0.411621342586699
30
0
41
1
10
11.664370542737
20
-0.411217065246063
30
0
41
1
10
11.6522953715378
20
-0.407960734241499
30
0
41
1
10
11.642965441973
20
-0.403783272474385
30
0
41
1
10
11.6180579077388
20
-0.390399107618663
30
0
41
1
10
11.601177075147
20
-0.379534141963973
30
0
41
1
10
11.5746272640413
20
-0.360747169227721
30
0
41
1
10
11.5650774572282
20
-0.35366956102078
30
0
41
1
10
11.5554750575442
20
-0.346265877365283
30
0
0
SPLINE
5
26A
100
AcDbEntity
8
1
62
256
6
ByLayer
370
18
48
1
60
0
100
AcDbSpline
70
4
71
3
72
10
73
6
40
0
40
0
40
0
40
0
40
0.648056887626693
40
0.648056887626693
40
1
40
1
40
1
40
1
41
1
10
8.12217101296415
20
0.238734122634753
30
0
41
1
10
8.07781234613168
20
0.260228191827707
30
0
41
1
10
8.03232580177206
20
0.277815096340646
30
0
41
1
10
7.96597291405098
20
0.294633430987346
30
0
41
1
10
7.94275833242688
20
0.298734122633164
30
0
41
1
10
7.9222951548995
20
0.298734122634727
30
0
0
SPLINE
5
26B
100
AcDbEntity
8
1
62
256
6
ByLayer
370
18
48
1
60
0
100
AcDbSpline
70
4
71
3
72
16
73
12
40
0
40
0
40
0
40
0
40
0.135796737839002
40
0.135796737839002
40
0.36349779464517
40
0.36349779464517
40
0.567969021628819
40
0.567969021628819
40
0.764549437988387
40
0.764549437988387
40
1
40
1
40
1
40
1
41
1
10
10.6009342808913
20
0.298734122634812
30
0
41
1
10
10.5983189285043
20
0.298734122634812
30
0
41
1
10
10.5960262086246
20
0.29835676883971
30
0
41
1
10
10.5911043346085
20
0.296196920942179
30
0
41
1
10
10.5892456538555
20
0.293555081067296
30
0
41
1
10
10.5887764417547
20
0.286257746481738
30
0
41
1
10
10.589850878555
20
0.281741680783369
30
0
41
1
10
10.5941338184467
20
0.271708260923702
30
0
41
1
10
10.5972870376137
20
0.266134591913698
30
0
41
1
10
10.6056762513133
20
0.253437424178571
30
0
41
1
10
10.6112690685134
20
0.246091116192673
30
0
41
1
10
10.6173831633767
20
0.238734122634582
30
0
0
SPLINE
5
26C
100
AcDbEntity
8
1
62
256
6
ByLayer
370
18
48
1
60
0
100
AcDbSpline
70
4
71
3
72
8
73
4
40
0
40
0
40
0
40
0
40
1
40
1
40
1
40
1
41
1
10
11.9660127888013
20
-0.346265877365283
30
0
41
1
10
11.7315607410125
20
-0.149605468690055
30
0
41
1
10
11.4953320612069
20
0.0454823149860886
30
0
41
1
10
11.2571308095586
20
0.238734122634725
30
0
0
SPLINE
5
26D
100
AcDbEntity
8
1
62
256
6
ByLayer
370
18
48
1
60
0
100
AcDbSpline
70
4
71
3
72
10
73
6
40
0
40
0
40
0
40
0
40
0.306060111931097
40
0.306060111931097
40
1
40
1
40
1
40
1
41
1
10
-6.28507119094152
20
0.298734122634727
30
0
41
1
10
-6.31079588200427
20
0.29873412263413
30
0
41
1
10
-6.33815297960658
20
0.295636367343434
30
0
41
1
10
-6.42765318070411
20
0.280645318313219
30
0
41
1
10
-6.49206725646434
20
0.262351815609236
30
0
41
1
10
-6.55506132228487
20
0.238734122634924
30
0
0
SPLINE
5
26E
100
AcDbEntity
8
1
62
256
6
ByLayer
370
18
48
1
60
0
100
AcDbSpline
70
4
71
3
72
8
73
4
40
0
40
0
40
0
40
0
40
1
40
1
40
1
40
1
41
1
10
-3.91317788204361
20
-0.346265877365283
30
0
41
1
10
-3.61781501954965
20
-0.14006432530266
30
0
41
1
10
-3.31327604563123
20
0.057066174190652
30
0
41
1
10
-2.99716371964573
20
0.238734122653057
30
0
0
SPLINE
5
26F
100
AcDbEntity
8
1
62
256
6
ByLayer
370
18
48
1
60
0
100
AcDbSpline
70
4
71
3
72
14
73
10
40
0
40
0
40
0
40
0
40
0.334373997268345
40
0.334373997268345
40
0.647954186344973
40
0.647954186344973
40
0.887903789670827
40
0.887903789670827
40
1
40
1
40
1
40
1
41
1
10
11.5801047960903
20
0.238734122634725
30
0
41
1
10
11.5682466271093
20
0.249173605081552
30
0
41
1
10
11.5565879302729
20
0.259059161752816
30
0
41
1
10
11.5355776504709
20
0.275927139110792
30
0
41
1
10
11.5259270574754
20
0.283207595969174
30
0
41
1
10
11.5115299872483
20
0.292847461357866
30
0
41
1
10
11.5060460242719
20
0.296028252811226
30
0
41
1
10
11.5001776792504
20
0.298340501397746
30
0
41
1
10
11.4986126224916
20
0.298734122634727
30
0
41
1
10
11.4974329200673
20
0.298734122634727
30
0
0
SPLINE
5
270
100
AcDbEntity
8
1
62
256
6
ByLayer
370
18
48
1
60
0
100
AcDbSpline
70
4
71
3
72
8
73
4
40
0
40
0
40
0
40
0
40
1
40
1
40
1
40
1
41
1
10
9.26334869455081
20
-0.346265877365283
30
0
41
1
10
8.88826707429746
20
-0.143696855324919
30
0
41
1
10
8.50793292346432
20
0.0518125177177637
30
0
41
1
10
8.12217101296415
20
0.238734122634725
30
0
0
SPLINE
5
271
100
AcDbEntity
8
1
62
256
6
ByLayer
370
18
48
1
60
0
100
AcDbSpline
70
4
71
3
72
8
73
4
40
0
40
0
40
0
40
0
40
1
40
1
40
1
40
1
41
1
10
10.6173831633767
20
0.238734122634554
30
0
41
1
10
10.7793976002252
20
0.0437847155872362
30
0
41
1
10
10.9413273422562
20
-0.15121749719853
30
0
41
1
10
11.103182870482
20
-0.346265877365283
30
0
0
SPLINE
5
272
100
AcDbEntity
8
1
62
256
6
ByLayer
370
18
48
1
60
0
100
AcDbSpline
70
4
71
3
72
10
73
6
40
0
40
0
40
0
40
0
40
0.418401136490627
40
0.418401136490627
40
1
40
1
40
1
40
1
41
1
10
-3.62166801750607
20
0.298734122634727
30
0
41
1
10
-3.68776417094236
20
0.298734122635011
30
0
41
1
10
-3.75528067356515
20
0.293622546699339
30
0
41
1
10
-3.9163177862788
20
0.275513829571764
30
0
41
1
10
-4.01057152390098
20
0.259800289527419
30
0
41
1
10
-4.10402191928787
20
0.238734122635378
30
0
0
SPLINE
5
273
100
AcDbEntity
8
1
62
256
6
ByLayer
370
18
48
1
60
0
100
AcDbSpline
70
4
71
3
72
8
73
4
40
0
40
0
40
0
40
0
40
1
40
1
40
1
40
1
41
1
10
-10.389279479906
20
-0.346265877365283
30
0
41
1
10
-10.2298877306638
20
-0.151262487319002
30
0
41
1
10
-10.0704907181151
20
0.0437376762441204
30
0
41
1
10
-9.91108764278056
20
0.238734122634384
30
0
0
SPLINE
5
274
100
AcDbEntity
8
1
62
256
6
ByLayer
370
18
48
1
60
0
100
AcDbSpline
70
4
71
3
72
8
73
4
40
0
40
0
40
0
40
0
40
1
40
1
40
1
40
1
41
1
10
11.8099743072656
20
0.238734122634725
30
0
41
1
10
12.0027133028317
20
0.0443566191092657
30
0
41
1
10
12.1945805581057
20
-0.150671158769256
30
0
41
1
10
12.3856706249781
20
-0.346265877365283
30
0
0
SPLINE
5
275
100
AcDbEntity
8
1
62
256
6
ByLayer
370
18
48
1
60
0
100
AcDbSpline
70
4
71
3
72
8
73
4
40
0
40
0
40
0
40
0
40
1
40
1
40
1
40
1
41
1
10
7.736686908021
20
0.238734122632337
30
0
41
1
10
7.90433143841756
20
0.0439466508205442
30
0
41
1
10
8.07162710680831
20
-0.151066257710596
30
0
41
1
10
8.23863123486271
20
-0.346265877365283
30
0
0
SPLINE
5
276
100
AcDbEntity
8
1
62
256
6
ByLayer
370
18
48
1
60
0
100
AcDbSpline
70
4
71
3
72
14
73
10
40
0
40
0
40
0
40
0
40
0.439538114289685
40
0.439538114289685
40
0.736197302001765
40
0.736197302001765
40
0.960929214494377
40
0.960929214494377
40
1
40
1
40
1
40
1
41
1
10
11.2571308095586
20
0.238734122634725
30
0
41
1
10
11.2401548703459
20
0.252506640271378
30
0
41
1
10
11.2232796799337
20
0.26524214872174
30
0
41
1
10
11.197458166607
20
0.282568947200872
30
0
41
1
10
11.1875019642002
20
0.288589251266643
30
0
41
1
10
11.1725520319882
20
0.295902750484373
30
0
41
1
10
11.1668239913518
20
0.2980294829093
30
0
41
1
10
11.1618035355848
20
0.298683929269203
30
0
41
1
10
11.1610958431583
20
0.298734122634727
30
0
41
1
10
11.1604356144997
20
0.298734122634727
30
0
0
SPLINE
5
277
100
AcDbEntity
8
1
62
256
6
ByLayer
370
18
48
1
60
0
100
AcDbSpline
70
4
71
3
72
16
73
12
40
0
40
0
40
0
40
0
40
0.13730851644385
40
0.13730851644385
40
0.351915883107734
40
0.351915883107734
40
0.56669304158572
40
0.56669304158572
40
0.89548523518153
40
0.89548523518153
40
1
40
1
40
1
40
1
41
1
10
11.6768097393771
20
0.298734122634727
30
0
41
1
10
11.6760998027929
20
0.298734122634727
30
0
41
1
10
11.6758787772676
20
0.298232419499044
30
0
41
1
10
11.6766069596779
20
0.295689963546039
30
0
41
1
10
11.678315520417
20
0.292887219123855
30
0
41
1
10
11.6837460278192
20
0.285460669679367
30
0
41
1
10
11.6875144382217
20
0.280766663414312
30
0
41
1
10
11.6986613088916
20
0.267568792843889
30
0
41
1
10
11.7070542230228
20
0.258163484418276
30
0
41
1
10
11.7189965558954
20
0.24519781717737
30
0
41
1
10
11.721982428348
20
0.241985789249952
30
0
41
1
10
11.7250299003113
20
0.238734122634696
30
0
0
SPLINE
5
278
100
AcDbEntity
8
1
62
256
6
ByLayer
370
18
48
1
60
0
100
AcDbSpline
70
4
71
3
72
8
73
4
40
0
40
0
40
0
40
0
40
1
40
1
40
1
40
1
41
1
10
5.99851292718722
20
0.238734122634668
30
0
41
1
10
6.19036544105825
20
0.0448911996018637
30
0
41
1
10
6.3805363524778
20
-0.150205729683364
30
0
41
1
10
6.56936091871083
20
-0.346265877365283
30
0
0
SPLINE
5
279
100
AcDbEntity
8
1
62
256
6
ByLayer
370
18
48
1
60
0
100
AcDbSpline
70
4
71
3
72
12
73
8
40
0
40
0
40
0
40
0
40
0.325361488191266
40
0.325361488191266
40
0.921301767255006
40
0.921301767255006
40
1
40
1
40
1
40
1
41
1
10
-10.6674590441832
20
0.298734122637029
30
0
41
1
10
-10.67166705201
20
0.298734122636688
30
0
41
1
10
-10.6768338962667
20
0.297690062387346
30
0
41
1
10
-10.6928862578752
20
0.292635964293595
30
0
41
1
10
-10.7051911865063
20
0.286844506554957
30
0
41
1
10
-10.7197074510017
20
0.278806698559123
30
0
41
1
10
-10.7214266043494
20
0.27783664177997
30
0
41
1
10
-10.7231570338243
20
0.276842966175707
30
0
0
SPLINE
5
27A
100
AcDbEntity
8
1
62
256
6
ByLayer
370
18
48
1
60
0
100
AcDbSpline
70
4
71
3
72
22
73
18
40
0
40
0
40
0
40
0
40
0.284612430389559
40
0.284612430389559
40
0.448560105830066
40
0.448560105830066
40
0.576381261022414
40
0.576381261022414
40
0.670262023004171
40
0.670262023004171
40
0.765071608934011
40
0.765071608934011
40
0.848197586984697
40
0.848197586984697
40
0.958291322768631
40
0.958291322768631
40
1
40
1
40
1
40
1
41
1
10
-10.9885188059763
20
-0.346265877365283
30
0
41
1
10
-11.0129945807367
20
-0.363386947366536
30
0
41
1
10
-11.037655621797
20
-0.378801398125688
30
0
41
1
10
-11.0735553933692
20
-0.397449636456798
30
0
41
1
10
-11.0863174181746
20
-0.40318625004727
30
0
41
1
10
-11.1063675593126
20
-0.409784453677418
30
0
41
1
10
-11.1144083647449
20
-0.411477203690453
30
0
41
1
10
-11.1252169958523
20
-0.411073209653864
30
0
41
1
10
-11.1288870235264
20
-0.409826432313054
30
0
41
1
10
-11.1332816621319
20
-0.404786952753909
30
0
41
1
10
-11.1340049919565
20
-0.40086774739035
30
0
41
1
10
-11.1322936661963
20
-0.391532169816287
30
0
41
1
10
-11.1302317830829
20
-0.38625852710689
30
0
41
1
10
-11.1232667793592
20
-0.373059584332538
30
0
41
1
10
-11.1175901289658
20
-0.364638906968139
30
0
41
1
10
-11.1085631473671
20
-0.352865760820265
30
0
41
1
10
-11.1059259797269
20
-0.349571535322724
30
0
41
1
10
-11.103182870482
20
-0.346265877365283
30
0
0
SPLINE
5
27B
100
AcDbEntity
8
1
62
256
6
ByLayer
370
18
48
1
60
0
100
AcDbSpline
70
4
71
3
72
12
73
8
40
0
40
0
40
0
40
0
40
0.522643562283342
40
0.522643562283342
40
0.822367358579505
40
0.822367358579505
40
1
40
1
40
1
40
1
41
1
10
10.1289845499771
20
0.238734122634725
30
0
41
1
10
10.1036676417545
20
0.255473916139607
30
0
41
1
10
10.0780230250613
20
0.270282846061576
30
0
41
1
10
10.0403859485764
20
0.287619864515335
30
0
41
1
10
10.0269503322708
20
0.292793700170165
30
0
41
1
10
10.0078624054043
20
0.297657399350044
30
0
41
1
10
10.0011929058724
20
0.298734122640127
30
0
41
1
10
9.99545105601879
20
0.298734122640951
30
0
0
SPLINE
5
27C
100
AcDbEntity
8
1
62
256
6
ByLayer
370
18
48
1
60
0
100
AcDbSpline
70
4
71
3
72
10
73
6
40
0
40
0
40
0
40
0
40
0.748301437373219
40
0.748301437373219
40
1
40
1
40
1
40
1
41
1
10
0.158079094126919
20
-0.444999999999993
30
0
41
1
10
0.0792310143650639
20
-0.44400246234315
30
0
41
1
10
0.0003699592500936
20
-0.443751182602512
30
0
41
1
10
-0.105015613222832
20
-0.444413164314113
30
0
41
1
10
-0.131547955346321
20
-0.444664344266926
30
0
41
1
10
-0.158079094126919
20
-0.444999999999993
30
0
0
SPLINE
5
27D
100
AcDbEntity
8
1
62
256
6
ByLayer
370
18
48
1
60
0
100
AcDbSpline
70
4
71
3
72
8
73
4
40
0
40
0
40
0
40
0
40
1
40
1
40
1
40
1
41
1
10
-10.7231570338242
20
0.276842966175764
30
0
41
1
10
-10.9636866862768
20
0.0363133137231841
30
0
41
1
10
-11.2043047840369
20
-0.20430478403685
30
0
41
1
10
-11.445
20
-0.444999999999993
30
0
0
SPLINE
5
27E
100
AcDbEntity
8
1
62
256
6
ByLayer
370
18
48
1
60
0
100
AcDbSpline
70
4
71
3
72
16
73
12
40
0
40
0
40
0
40
0
40
0.186963980749767
40
0.186963980749767
40
0.373116025505087
40
0.373116025505087
40
0.571023154555534
40
0.571023154555534
40
0.793058712857959
40
0.793058712857959
40
1
40
1
40
1
40
1
41
1
10
12.5
20
-4.72499999999988
30
0
41
1
10
12.5
20
-4.88839111083968
30
0
41
1
10
12.5259316614972
20
-5.05403397318082
30
0
41
1
10
12.6230047815551
20
-5.36085530999043
30
0
41
1
10
12.6950008326709
20
-5.50623586959276
30
0
41
1
10
12.8780714295681
20
-5.7711526944141
30
0
41
1
10
12.9934690067819
20
-5.89196180523791
30
0
41
1
10
13.2650359985837
20
-6.10184923748807
30
0
41
1
10
13.4281005565075
20
-6.18822726983387
30
0
41
1
10
13.759040900748
20
-6.29727301660645
30
0
41
1
10
13.9295577265021
20
-6.32499999999987
30
0
41
1
10
14.1
20
-6.32499999999987
30
0
0
SPLINE
5
27F
100
AcDbEntity
8
1
62
256
6
ByLayer
370
18
48
1
60
0
100
AcDbSpline
70
4
71
3
72
8
73
4
40
0
40
0
40
0
40
0
40
1
40
1
40
1
40
1
41
1
10
9.8213558785576
20
-0.450000000000017
30
0
41
1
10
9.76993204390834
20
-0.446668850855246
30
0
41
1
10
9.71918763771427
20
-0.444999999999993
30
0
41
1
10
9.66912449235517
20
-0.444999999999993
30
0
0
SPLINE
5
280
100
AcDbEntity
8
1
62
256
6
ByLayer
370
18
48
1
60
0
100
AcDbSpline
70
4
71
3
72
16
73
12
40
0
40
0
40
0
40
0
40
0.210601603648632
40
0.210601603648632
40
0.421213120937357
40
0.421213120937357
40
0.631488126460197
40
0.631488126460197
40
0.839116239420829
40
0.839116239420829
40
1
40
1
40
1
40
1
41
1
10
36.4046912194301
20
-6.1944437461469
30
0
41
1
10
36.404885104101
20
-6.1715216376432
30
0
41
1
10
36.4011366843306
20
-6.14828471516009
30
0
41
1
10
36.3864049129777
20
-6.10502463529386
30
0
41
1
10
36.3752157349576
20
-6.08440026525292
30
0
41
1
10
36.3470242400575
20
-6.04865478777677
30
0
41
1
10
36.32963219728
20
-6.03302559382524
30
0
41
1
10
36.2913444393929
20
-6.00912365922031
30
0
41
1
10
36.269954321154
20
-6.00042996368606
30
0
41
1
10
36.2309045828753
20
-5.99205926946095
30
0
41
1
10
36.2131262908524
20
-5.99071814727995
30
0
41
1
10
36.1956316353027
20
-5.9917962023392
30
0
0
SPLINE
5
281
100
AcDbEntity
8
1
62
256
6
ByLayer
370
18
48
1
60
0
100
AcDbSpline
70
4
71
3
72
10
73
6
40
0
40
0
40
0
40
0
40
0.584711417492912
40
0.584711417492912
40
1
40
1
40
1
40
1
41
1
10
28.0351939284819
20
-8.74999999999989
30
0
41
1
10
28.0376165600086
20
-8.74999999999989
30
0
41
1
10
28.0400566535847
20
-8.74999999999989
30
0
41
1
10
28.0442589248979
20
-8.74999999999989
30
0
41
1
10
28.0460127381757
20
-8.74999999999989
30
0
41
1
10
28.0477750315741
20
-8.74999999999989
30
0
0
SPLINE
5
282
100
AcDbEntity
8
1
62
256
6
ByLayer
370
18
48
1
60
0
100
AcDbSpline
70
4
71
3
72
16
73
12
40
0
40
0
40
0
40
0
40
0.202092460849674
40
0.202092460849674
40
0.404032245588857
40
0.404032245588857
40
0.608298678109005
40
0.608298678109005
40
0.816163444624768
40
0.816163444624768
40
1
40
1
40
1
40
1
41
1
10
36.1956316353027
20
-9.00820379766054
30
0
41
1
10
36.2174897444444
20
-9.00955073730614
30
0
41
1
10
36.2398491383955
20
-9.00708591533743
30
0
41
1
10
36.2818390291393
20
-8.99503574736434
30
0
41
1
10
36.3020457535964
20
-8.98529603383017
30
0
41
1
10
36.3378824730738
20
-8.95992758209138
30
0
41
1
10
36.3539463831898
20
-8.94389225267079
30
0
41
1
10
36.3798894042432
20
-8.90759648746655
30
0
41
1
10
36.3900129368112
20
-8.88677139643883
30
0
41
1
10
36.4020260177163
20
-8.84591570340245
30
0
41
1
10
36.4048610089749
20
-8.82562970448063
30
0
41
1
10
36.4046912194301
20
-8.80555625385284
30
0
0
SPLINE
5
283
100
AcDbEntity
8
1
62
256
6
ByLayer
370
18
48
1
60
0
100
AcDbSpline
70
4
71
3
72
10
73
6
40
0
40
0
40
0
40
0
40
0.629562107774395
40
0.629562107774395
40
1
40
1
40
1
40
1
41
1
10
26.6
20
-8.74999999999989
30
0
41
1
10
26.5782969300918
20
-8.74999999999986
30
0
41
1
10
26.556172793229
20
-8.74635893680653
30
0
41
1
10
26.5231987911384
20
-8.73512178689489
30
0
41
1
10
26.5112516429095
20
-8.7297012198197
30
0
41
1
10
26.4999999999999
20
-8.723205080757
30
0
0
SPLINE
5
284
100
AcDbEntity
8
1
62
256
6
ByLayer
370
18
48
1
60
0
100
AcDbSpline
70
4
71
3
72
10
73
6
40
0
40
0
40
0
40
0
40
0.62956174027551
40
0.62956174027551
40
1
40
1
40
1
40
1
41
1
10
26.5
20
-6.27679491924297
30
0
41
1
10
26.518944038489
20
-6.26585757352183
30
0
41
1
10
26.5400004695306
20
-6.25796915888722
30
0
41
1
10
26.5741148019193
20
-6.25125947135553
30
0
41
1
10
26.5871096425299
20
-6.2499999999998
30
0
41
1
10
26.6
20
-6.2499999999998
30
0
0
SPLINE
5
285
100
AcDbEntity
8
1
62
256
6
ByLayer
370
18
48
1
60
0
100
AcDbSpline
70
4
71
3
72
10
73
6
40
0
40
0
40
0
40
0
40
0.76746257010027
40
0.76746257010027
40
1
40
1
40
1
40
1
41
1
10
28.0477750315741
20
-6.24999999999989
30
0
41
1
10
28.0445183560327
20
-6.24999999999989
30
0
41
1
10
28.0412905642182
20
-6.24999999999989
30
0
41
1
10
28.037123695827
20
-6.24999999999989
30
0
41
1
10
28.0361574346187
20
-6.24999999999989
30
0
41
1
10
28.0351939284819
20
-6.24999999999989
30
0
0
SPLINE
5
286
100
AcDbEntity
8
1
62
256
6
ByLayer
370
18
48
1
60
0
100
AcDbSpline
70
4
71
3
72
14
73
10
40
0
40
0
40
0
40
0
40
0.209562190252725
40
0.209562190252725
40
0.419048660097219
40
0.419048660097219
40
0.628042586344193
40
0.628042586344193
40
1
40
1
40
1
40
1
41
1
10
34.8587805434613
20
-6.0902146883914
30
0
41
1
10
34.7766126081606
20
-6.09598873278043
30
0
41
1
10
34.694096633241
20
-6.10130832428607
30
0
41
1
10
34.5317767669575
20
-6.11081490520473
30
0
41
1
10
34.4514176992139
20
-6.11503472301774
30
0
41
1
10
34.29577107806
20
-6.12222349082313
30
0
41
1
10
34.2199400027966
20
-6.12521990686068
30
0
41
1
10
34.019734627046
20
-6.13169387031189
30
0
41
1
10
33.9007351939601
20
-6.13381787171582
30
0
41
1
10
33.7981203716825
20
-6.1338002634991
30
0
0
SPLINE
5
287
100
AcDbEntity
8
1
62
256
6
ByLayer
370
18
48
1
60
0
100
AcDbSpline
70
4
71
3
72
8
73
4
40
0
40
0
40
0
40
0
40
1
40
1
40
1
40
1
41
1
10
35.5060768987951
20
-6.04258798703592
30
0
41
1
10
35.3917418362529
20
-6.05204260908019
30
0
41
1
10
35.2750917668497
20
-6.06095997394962
30
0
41
1
10
35.1587805434612
20
-6.06913331023134
30
0
0
SPLINE
5
288
100
AcDbEntity
8
1
62
256
6
ByLayer
370
18
48
1
60
0
100
AcDbSpline
70
4
71
3
72
14
73
10
40
0
40
0
40
0
40
0
40
0.208995027535852
40
0.208995027535852
40
0.417850725206471
40
0.417850725206471
40
0.626704295977397
40
0.626704295977397
40
1
40
1
40
1
40
1
41
1
10
33.7981203716814
20
-8.86619973650164
30
0
41
1
10
33.8562077150717
20
-8.86618976898907
30
0
41
1
10
33.9193237323134
20
-8.86685595359708
30
0
41
1
10
34.0529850333382
20
-8.86951445266916
30
0
41
1
10
34.1239830856551
20
-8.87151499620714
30
0
41
1
10
34.2714347232615
20
-8.87677698764688
30
0
41
1
10
34.3483929364638
20
-8.88005642122687
30
0
41
1
10
34.5664550970089
20
-8.89076278802213
30
0
41
1
10
34.7134966889726
20
-8.89957603201773
30
0
41
1
10
34.8587805434602
20
-8.90978531160775
30
0
0
SPLINE
5
289
100
AcDbEntity
8
1
62
256
6
ByLayer
370
18
48
1
60
0
100
AcDbSpline
70
4
71
3
72
8
73
4
40
0
40
0
40
0
40
0
40
1
40
1
40
1
40
1
41
1
10
35.1587805434612
20
-8.93086668976844
30
0
41
1
10
35.2750917668497
20
-8.93904002605015
30
0
41
1
10
35.3917418362529
20
-8.94795739091956
30
0
41
1
10
35.5060768987951
20
-8.95741201296383
30
0
0
LINE
5
70
100
AcDbEntity
8
81
62
256
6
ByLayer
370
18
48
1
60
0
100
AcDbLine
10
36.4
20
-9
30
0
11
41.4
21
-9
31
0
39
0
210
0
220
0
230
1
0
LINE
5
71
100
AcDbEntity
8
80
62
256
6
ByLayer
370
18
48
1
60
0
100
AcDbLine
10
0
20
0
30
0
11
-5
21
0
31
0
39
0
210
0
220
0
230
1
0
LINE
5
72
100
AcDbEntity
8
1
62
256
6
ByLayer
370
18
48
1
60
0
100
AcDbLine
10
12.5
20
-0.75
30
0
11
12.5
21
-0.45
31
0
39
0
210
0
220
0
230
1
0
LINE
5
74
100
AcDbEntity
8
1
62
256
6
ByLayer
370
18
48
1
60
0
100
AcDbLine
10
12.5
20
-0.45
30
0
11
11.751266
21
0.298734
31
0
39
0
210
0
220
0
230
1
0
LINE
5
75
100
AcDbEntity
8
1
62
256
6
ByLayer
370
18
48
1
60
0
100
AcDbLine
10
12.5
20
-0.45
30
0
11
9.821356
21
-0.45
31
0
39
0
210
0
220
0
230
1
0
LINE
5
76
100
AcDbEntity
8
1
62
256
6
ByLayer
370
18
48
1
60
0
100
AcDbLine
10
11.751266
20
0.298734
30
0
11
11.751053
21
0.298734
31
0
39
0
210
0
220
0
230
1
0
LINE
5
77
100
AcDbEntity
8
1
62
256
6
ByLayer
370
13
48
1
60
0
100
AcDbLine
10
27.989581
20
-6.25
30
0
11
27.945758
21
-6.325002
31
0
39
0
210
0
220
0
230
1
0
LINE
5
78
100
AcDbEntity
8
1
62
256
6
ByLayer
370
13
48
1
60
0
100
AcDbLine
10
2.997164
20
0.238734
30
0
11
-2.997164
21
0.238734
31
0
39
0
210
0
220
0
230
1
0
LINE
5
79
100
AcDbEntity
8
1
62
256
6
ByLayer
370
13
48
1
60
0
100
AcDbLine
10
27.065685
20
-6.325003
30
0
11
27.065685
21
-6.25
31
0
39
0
210
0
220
0
230
1
0
LINE
5
7A
100
AcDbEntity
8
1
62
256
6
ByLayer
370
13
48
1
60
0
100
AcDbLine
10
6.569361
20
-0.346266
30
0
11
6.194291
21
-0.346266
31
0
39
0
210
0
220
0
230
1
0
LINE
5
7B
100
AcDbEntity
8
1
62
256
6
ByLayer
370
13
48
1
60
0
100
AcDbLine
10
-6.194291
20
-0.346266
30
0
11
-6.569361
21
-0.346266
31
0
39
0
210
0
220
0
230
1
0
LINE
5
7C
100
AcDbEntity
8
1
62
256
6
ByLayer
370
18
48
1
60
0
100
AcDbLine
10
6.055772
20
0.298734
30
0
11
3.621541
21
0.298734
31
0
39
0
210
0
220
0
230
1
0
LINE
5
7D
100
AcDbEntity
8
1
62
256
6
ByLayer
370
18
48
1
60
0
100
AcDbLine
10
-3.621541
20
0.298734
30
0
11
-6.055772
21
0.298734
31
0
39
0
210
0
220
0
230
1
0
LINE
5
7E
100
AcDbEntity
8
1
62
256
6
ByLayer
370
13
48
1
60
0
100
AcDbLine
10
27.065685
20
-8.674997
30
0
11
27.065685
21
-8.75
31
0
39
0
210
0
220
0
230
1
0
LINE
5
7F
100
AcDbEntity
8
1
62
256
6
ByLayer
370
13
48
1
60
0
100
AcDbLine
10
5.998513
20
0.238734
30
0
11
4.10392
21
0.238734
31
0
39
0
210
0
220
0
230
1
0
LINE
5
80
100
AcDbEntity
8
1
62
256
6
ByLayer
370
13
48
1
60
0
100
AcDbLine
10
-4.10392
20
0.238734
30
0
11
-5.998513
21
0.238734
31
0
39
0
210
0
220
0
230
1
0
LINE
5
81
100
AcDbEntity
8
1
62
256
6
ByLayer
370
13
48
1
60
0
100
AcDbLine
10
9.669124
20
-0.445
30
0
11
9.669124
21
-8.675
31
0
39
0
210
0
220
0
230
1
0
LINE
5
82
100
AcDbEntity
8
1
62
256
6
ByLayer
370
13
48
1
60
0
100
AcDbLine
10
8.238631
20
-0.346266
30
0
11
7.978085
21
-0.346266
31
0
39
0
210
0
220
0
230
1
0
LINE
5
83
100
AcDbEntity
8
1
62
256
6
ByLayer
370
13
48
1
60
0
100
AcDbLine
10
-7.978085
20
-0.346266
30
0
11
-8.238631
21
-0.346266
31
0
39
0
210
0
220
0
230
1
0
LINE
5
84
100
AcDbEntity
8
1
62
256
6
ByLayer
370
18
48
1
60
0
100
AcDbLine
10
7.764453
20
0.298734
30
0
11
6.284839
21
0.298734
31
0
39
0
210
0
220
0
230
1
0
LINE
5
85
100
AcDbEntity
8
1
62
256
6
ByLayer
370
18
48
1
60
0
100
AcDbLine
10
-6.284839
20
0.298734
30
0
11
-7.764453
21
0.298734
31
0
39
0
210
0
220
0
230
1
0
LINE
5
86
100
AcDbEntity
8
1
62
256
6
ByLayer
370
18
48
1
60
0
100
AcDbLine
10
-8.093899
20
0.298734
30
0
11
-8.04249
21
0.298734
31
0
39
0
210
0
220
0
230
1
0
LINE
5
87
100
AcDbEntity
8
1
62
256
6
ByLayer
370
18
48
1
60
0
100
AcDbLine
10
8.093899
20
0.298734
30
0
11
8.04249
21
0.298734
31
0
39
0
210
0
220
0
230
1
0
LINE
5
88
100
AcDbEntity
8
1
62
256
6
ByLayer
370
13
48
1
60
0
100
AcDbLine
10
3.913178
20
-0.346266
30
0
11
3.156712
21
-0.346266
31
0
39
0
210
0
220
0
230
1
0
LINE
5
89
100
AcDbEntity
8
1
62
256
6
ByLayer
370
13
48
1
60
0
100
AcDbLine
10
-3.156712
20
-0.346266
30
0
11
-3.913178
21
-0.346266
31
0
39
0
210
0
220
0
230
1
0
LINE
5
8A
100
AcDbEntity
8
1
62
256
6
ByLayer
370
13
48
1
60
0
100
AcDbLine
10
7.736687
20
0.238734
30
0
11
6.554908
21
0.238734
31
0
39
0
210
0
220
0
230
1
0
LINE
5
8B
100
AcDbEntity
8
1
62
256
6
ByLayer
370
13
48
1
60
0
100
AcDbLine
10
-6.554908
20
0.238734
30
0
11
-7.736687
21
0.238734
31
0
39
0
210
0
220
0
230
1
0
LINE
5
8C
100
AcDbEntity
8
1
62
256
6
ByLayer
370
13
48
1
60
0
100
AcDbLine
10
-9.263329
20
-0.346266
30
0
11
-9.458784
21
-0.346266
31
0
39
0
210
0
220
0
230
1
0
LINE
5
8D
100
AcDbEntity
8
1
62
256
6
ByLayer
370
13
48
1
60
0
100
AcDbLine
10
9.458784
20
-0.346266
30
0
11
9.263329
21
-0.346266
31
0
39
0
210
0
220
0
230
1
0
LINE
5
8E
100
AcDbEntity
8
1
62
256
6
ByLayer
370
13
48
1
60
0
100
AcDbLine
10
8.978056
20
0.238734
30
0
11
8.122184
21
0.238734
31
0
39
0
210
0
220
0
230
1
0
LINE
5
8F
100
AcDbEntity
8
1
62
256
6
ByLayer
370
18
48
1
60
0
100
AcDbLine
10
9.906586
20
0.298734
30
0
11
9.104865
21
0.298734
31
0
39
0
210
0
220
0
230
1
0
LINE
5
90
100
AcDbEntity
8
1
62
256
6
ByLayer
370
18
48
1
60
0
100
AcDbLine
10
-9.104865
20
0.298734
30
0
11
-9.906586
21
0.298734
31
0
39
0
210
0
220
0
230
1
0
LINE
5
91
100
AcDbEntity
8
1
62
256
6
ByLayer
370
13
48
1
60
0
100
AcDbLine
10
-8.122184
20
0.238734
30
0
11
-8.978056
21
0.238734
31
0
39
0
210
0
220
0
230
1
0
LINE
5
92
100
AcDbEntity
8
1
62
256
6
ByLayer
370
13
48
1
60
0
100
AcDbLine
10
17.562287
20
-8.675
30
0
11
17.562287
21
-6.325
31
0
39
0
210
0
220
0
230
1
0
LINE
5
93
100
AcDbEntity
8
1
62
256
6
ByLayer
370
13
48
1
60
0
100
AcDbLine
10
-10.23919
20
-0.346266
30
0
11
-10.389279
21
-0.346266
31
0
39
0
210
0
220
0
230
1
0
LINE
5
94
100
AcDbEntity
8
1
62
256
6
ByLayer
370
13
48
1
60
0
100
AcDbLine
10
10.389279
20
-0.346266
30
0
11
10.23919
21
-0.346266
31
0
39
0
210
0
220
0
230
1
0
LINE
5
95
100
AcDbEntity
8
1
62
256
6
ByLayer
370
18
48
1
60
0
100
AcDbLine
10
10.600934
20
0.298734
30
0
11
9.995436
21
0.298734
31
0
39
0
210
0
220
0
230
1
0
LINE
5
96
100
AcDbEntity
8
1
62
256
6
ByLayer
370
18
48
1
60
0
100
AcDbLine
10
-9.995436
20
0.298734
30
0
11
-10.600934
21
0.298734
31
0
39
0
210
0
220
0
230
1
0
LINE
5
97
100
AcDbEntity
8
1
62
256
6
ByLayer
370
13
48
1
60
0
100
AcDbLine
10
9.911088
20
0.238734
30
0
11
9.265268
21
0.238734
31
0
39
0
210
0
220
0
230
1
0
LINE
5
98
100
AcDbEntity
8
1
62
256
6
ByLayer
370
13
48
1
60
0
100
AcDbLine
10
-9.265268
20
0.238734
30
0
11
-9.911088
21
0.238734
31
0
39
0
210
0
220
0
230
1
0
LINE
5
99
100
AcDbEntity
8
1
62
256
6
ByLayer
370
13
48
1
60
0
100
AcDbLine
10
-10.988507
20
-0.346266
30
0
11
-11.103183
21
-0.346266
31
0
39
0
210
0
220
0
230
1
0
LINE
5
9A
100
AcDbEntity
8
1
62
256
6
ByLayer
370
13
48
1
60
0
100
AcDbLine
10
11.103183
20
-0.346266
30
0
11
10.988507
21
-0.346266
31
0
39
0
210
0
220
0
230
1
0
LINE
5
9B
100
AcDbEntity
8
1
62
256
6
ByLayer
370
18
48
1
60
0
100
AcDbLine
10
11.112793
20
0.298734
30
0
11
10.66744
21
0.298734
31
0
39
0
210
0
220
0
230
1
0
LINE
5
9C
100
AcDbEntity
8
1
62
256
6
ByLayer
370
13
48
1
60
0
100
AcDbLine
10
-10.128963
20
0.238734
30
0
11
-10.617383
21
0.238734
31
0
39
0
210
0
220
0
230
1
0
LINE
5
9D
100
AcDbEntity
8
1
62
256
6
ByLayer
370
13
48
1
60
0
100
AcDbLine
10
10.617383
20
0.238734
30
0
11
10.128963
21
0.238734
31
0
39
0
210
0
220
0
230
1
0
LINE
5
9E
100
AcDbEntity
8
1
62
256
6
ByLayer
370
18
48
1
60
0
100
AcDbLine
10
11.466627
20
0.298734
30
0
11
11.160383
21
0.298734
31
0
39
0
210
0
220
0
230
1
0
LINE
5
9F
100
AcDbEntity
8
1
62
256
6
ByLayer
370
13
48
1
60
0
100
AcDbLine
10
11.640413
20
-0.346266
30
0
11
11.555423
21
-0.346266
31
0
39
0
210
0
220
0
230
1
0
LINE
5
A0
100
AcDbEntity
8
1
62
256
6
ByLayer
370
13
48
1
60
0
100
AcDbLine
10
11.140152
20
0.238734
30
0
11
10.780592
21
0.238734
31
0
39
0
210
0
220
0
230
1
0
LINE
5
A1
100
AcDbEntity
8
1
62
256
6
ByLayer
370
18
48
1
60
0
100
AcDbLine
10
11.67681
20
0.298734
30
0
11
11.497409
21
0.298734
31
0
39
0
210
0
220
0
230
1
0
LINE
5
A2
100
AcDbEntity
8
1
62
256
6
ByLayer
370
13
48
1
60
0
100
AcDbLine
10
27.690738
20
-8.675
30
0
11
27.690738
21
-6.325
31
0
39
0
210
0
220
0
230
1
0
LINE
5
A3
100
AcDbEntity
8
1
62
256
6
ByLayer
370
13
48
1
60
0
100
AcDbLine
10
22.690738
20
-6.325
30
0
11
22.690738
21
-8.675
31
0
39
0
210
0
220
0
230
1
0
LINE
5
A4
100
AcDbEntity
8
1
62
256
6
ByLayer
370
18
48
1
60
0
100
AcDbLine
10
11.751053
20
0.298734
30
0
11
11.691908
21
0.298734
31
0
39
0
210
0
220
0
230
1
0
LINE
5
A5
100
AcDbEntity
8
1
62
256
6
ByLayer
370
13
48
1
60
0
100
AcDbLine
10
12.024673
20
-0.346266
30
0
11
11.965916
21
-0.346266
31
0
39
0
210
0
220
0
230
1
0
LINE
5
A6
100
AcDbEntity
8
1
62
256
6
ByLayer
370
13
48
1
60
0
100
AcDbLine
10
11.504441
20
0.238734
30
0
11
11.257111
21
0.238734
31
0
39
0
210
0
220
0
230
1
0
LINE
5
A7
100
AcDbEntity
8
1
62
256
6
ByLayer
370
13
48
1
60
0
100
AcDbLine
10
12.270342
20
-0.346266
30
0
11
12.23575
21
-0.346266
31
0
39
0
210
0
220
0
230
1
0
LINE
5
A8
100
AcDbEntity
8
1
62
256
6
ByLayer
370
13
48
1
60
0
100
AcDbLine
10
11.72503
20
0.238734
30
0
11
11.580041
21
0.238734
31
0
39
0
210
0
220
0
230
1
0
LINE
5
A9
100
AcDbEntity
8
1
62
256
6
ByLayer
370
13
48
1
60
0
100
AcDbLine
10
12.385671
20
-0.346266
30
0
11
12.374166
21
-0.346266
31
0
39
0
210
0
220
0
230
1
0
LINE
5
AA
100
AcDbEntity
8
1
62
256
6
ByLayer
370
13
48
1
60
0
100
AcDbLine
10
11.809974
20
0.238734
30
0
11
11.762158
21
0.238734
31
0
39
0
210
0
220
0
230
1
0
LINE
5
AB
100
AcDbEntity
8
1
62
256
6
ByLayer
370
13
48
1
60
0
100
AcDbLine
10
12.5
20
-4.725
30
0
11
12.8
21
-4.725
31
0
39
0
210
0
220
0
230
1
0
LINE
5
AC
100
AcDbEntity
8
1
62
256
6
ByLayer
370
13
48
1
60
0
100
AcDbLine
10
32.855978
20
-8.75
30
0
11
32.855978
21
-8.326756
31
0
39
0
210
0
220
0
230
1
0
LINE
5
AD
100
AcDbEntity
8
1
62
256
6
ByLayer
370
13
48
1
60
0
100
AcDbLine
10
33.007676
20
-8.334465
30
0
11
33.280446
21
-8.347896
31
0
39
0
210
0
220
0
230
1
0
LINE
5
AE
100
AcDbEntity
8
1
62
256
6
ByLayer
370
13
48
1
60
0
100
AcDbLine
10
33.537538
20
-8.858919
30
0
11
33.516974
21
-8.564845
31
0
39
0
210
0
220
0
230
1
0
LINE
5
AF
100
AcDbEntity
8
1
62
256
6
ByLayer
370
13
48
1
60
0
100
AcDbLine
10
33.537538
20
-6.141081
30
0
11
33.516974
21
-6.435155
31
0
39
0
210
0
220
0
230
1
0
LINE
5
B0
100
AcDbEntity
8
1
62
256
6
ByLayer
370
13
48
1
60
0
100
AcDbLine
10
33.280446
20
-6.652104
30
0
11
33.007676
21
-6.665535
31
0
39
0
210
0
220
0
230
1
0
LINE
5
B1
100
AcDbEntity
8
1
62
256
6
ByLayer
370
13
48
1
60
0
100
AcDbLine
10
32.855978
20
-6.673244
30
0
11
32.855978
21
-6.25
31
0
39
0
210
0
220
0
230
1
0
LINE
5
B2
100
AcDbEntity
8
1
62
256
6
ByLayer
370
13
48
1
60
0
100
AcDbLine
10
33.79812
20
-8.547848
30
0
11
33.79812
21
-8.8662
31
0
39
0
210
0
220
0
230
1
0
LINE
5
B3
100
AcDbEntity
8
1
62
256
6
ByLayer
370
13
48
1
60
0
100
AcDbLine
10
34.858781
20
-8.664424
30
0
11
34.858781
21
-8.909785
31
0
39
0
210
0
220
0
230
1
0
LINE
5
B4
100
AcDbEntity
8
1
62
256
6
ByLayer
370
13
48
1
60
0
100
AcDbLine
10
34.858781
20
-6.335576
30
0
11
34.858781
21
-6.090215
31
0
39
0
210
0
220
0
230
1
0
LINE
5
B5
100
AcDbEntity
8
1
62
256
6
ByLayer
370
13
48
1
60
0
100
AcDbLine
10
33.79812
20
-6.452152
30
0
11
33.79812
21
-6.1338
31
0
39
0
210
0
220
0
230
1
0
LINE
5
B6
100
AcDbEntity
8
1
62
256
6
ByLayer
370
13
48
1
60
0
100
AcDbLine
10
33.280446
20
-8.347896
30
0
11
33.430516
21
-8.193729
31
0
39
0
210
0
220
0
230
1
0
LINE
5
B7
100
AcDbEntity
8
1
62
256
6
ByLayer
370
13
48
1
60
0
100
AcDbLine
10
33.430516
20
-6.806271
30
0
11
33.280446
21
-6.652104
31
0
39
0
210
0
220
0
230
1
0
LINE
5
B8
100
AcDbEntity
8
1
62
256
6
ByLayer
370
13
48
1
60
0
100
AcDbLine
10
33.007676
20
-8.334465
30
0
11
33.021372
21
-8.05631
31
0
39
0
210
0
220
0
230
1
0
LINE
5
B9
100
AcDbEntity
8
1
62
256
6
ByLayer
370
13
48
1
60
0
100
AcDbLine
10
33.251055
20
-8.06762
30
0
11
33.021372
21
-8.05631
31
0
39
0
210
0
220
0
230
1
0
LINE
5
BA
100
AcDbEntity
8
1
62
256
6
ByLayer
370
13
48
1
60
0
100
AcDbLine
10
33.021372
20
-6.94369
30
0
11
33.251055
21
-6.93238
31
0
39
0
210
0
220
0
230
1
0
LINE
5
BB
100
AcDbEntity
8
1
62
256
6
ByLayer
370
13
48
1
60
0
100
AcDbLine
10
33.021372
20
-6.94369
30
0
11
33.007676
21
-6.665535
31
0
39
0
210
0
220
0
230
1
0
LINE
5
BC
100
AcDbEntity
8
1
62
256
6
ByLayer
370
13
48
1
60
0
100
AcDbLine
10
33.693328
20
-8.54953
30
0
11
33.715472
21
-8.866214
31
0
39
0
210
0
220
0
230
1
0
LINE
5
BD
100
AcDbEntity
8
1
62
256
6
ByLayer
370
13
48
1
60
0
100
AcDbLine
10
33.693328
20
-6.45047
30
0
11
33.715472
21
-6.133786
31
0
39
0
210
0
220
0
230
1
0
LINE
5
BE
100
AcDbEntity
8
1
62
256
6
ByLayer
370
13
48
1
60
0
100
AcDbLine
10
33.264379
20
-6.94369
30
0
11
33.021372
21
-6.94369
31
0
39
0
210
0
220
0
230
1
0
LINE
5
BF
100
AcDbEntity
8
1
62
256
6
ByLayer
370
13
48
1
60
0
100
AcDbLine
10
33.264379
20
-8.05631
30
0
11
33.021372
21
-8.05631
31
0
39
0
210
0
220
0
230
1
0
LINE
5
C0
100
AcDbEntity
8
1
62
256
6
ByLayer
370
13
48
1
60
0
100
AcDbLine
10
32.787574
20
-8.326756
30
0
11
32.855978
21
-8.326756
31
0
39
0
210
0
220
0
230
1
0
LINE
5
C1
100
AcDbEntity
8
1
62
256
6
ByLayer
370
13
48
1
60
0
100
AcDbLine
10
32.787574
20
-6.673244
30
0
11
32.855978
21
-6.673244
31
0
39
0
210
0
220
0
230
1
0
LINE
5
C2
100
AcDbEntity
8
1
62
256
6
ByLayer
370
13
48
1
60
0
100
AcDbLine
10
32.787574
20
-6.25
30
0
11
32.787574
21
-6.673244
31
0
39
0
210
0
220
0
230
1
0
LINE
5
C3
100
AcDbEntity
8
1
62
256
6
ByLayer
370
13
48
1
60
0
100
AcDbLine
10
32.787574
20
-8.326756
30
0
11
32.787574
21
-8.75
31
0
39
0
210
0
220
0
230
1
0
LINE
5
C4
100
AcDbEntity
8
1
62
256
6
ByLayer
370
13
48
1
60
0
100
AcDbLine
10
32.063912
20
-8.75
30
0
11
32.063912
21
-8.633917
31
0
39
0
210
0
220
0
230
1
0
LINE
5
C5
100
AcDbEntity
8
1
62
256
6
ByLayer
370
13
48
1
60
0
100
AcDbLine
10
32.063912
20
-6.366083
30
0
11
32.063912
21
-6.25
31
0
39
0
210
0
220
0
230
1
0
LINE
5
C6
100
AcDbEntity
8
1
62
256
6
ByLayer
370
13
48
1
60
0
100
AcDbLine
10
34.514687
20
-6.680616
30
0
11
34.611268
21
-6.984159
31
0
39
0
210
0
220
0
230
1
0
LINE
5
C7
100
AcDbEntity
8
1
62
256
6
ByLayer
370
13
48
1
60
0
100
AcDbLine
10
34.514687
20
-8.319384
30
0
11
34.611268
21
-8.015841
31
0
39
0
210
0
220
0
230
1
0
LINE
5
C8
100
AcDbEntity
8
1
62
256
6
ByLayer
370
13
48
1
60
0
100
AcDbLine
10
31.86942
20
-7.132002
30
0
11
32.179442
21
-7.132002
31
0
39
0
210
0
220
0
230
1
0
LINE
5
C9
100
AcDbEntity
8
1
62
256
6
ByLayer
370
13
48
1
60
0
100
AcDbLine
10
31.815611
20
-6.68149
30
0
11
31.86942
21
-7.132002
31
0
39
0
210
0
220
0
230
1
0
LINE
5
CA
100
AcDbEntity
8
1
62
256
6
ByLayer
370
13
48
1
60
0
100
AcDbLine
10
31.977267
20
-6.424016
30
0
11
31.784859
21
-6.424016
31
0
39
0
210
0
220
0
230
1
0
LINE
5
CB
100
AcDbEntity
8
1
62
256
6
ByLayer
370
13
48
1
60
0
100
AcDbLine
10
31.977267
20
-8.575984
30
0
11
31.784859
21
-8.575984
31
0
39
0
210
0
220
0
230
1
0
LINE
5
CC
100
AcDbEntity
8
1
62
256
6
ByLayer
370
13
48
1
60
0
100
AcDbLine
10
31.815611
20
-8.31851
30
0
11
31.86942
21
-7.867998
31
0
39
0
210
0
220
0
230
1
0
LINE
5
CD
100
AcDbEntity
8
1
62
256
6
ByLayer
370
13
48
1
60
0
100
AcDbLine
10
31.86942
20
-7.867998
30
0
11
32.179442
21
-7.867998
31
0
39
0
210
0
220
0
230
1
0
LINE
5
CE
100
AcDbEntity
8
1
62
256
6
ByLayer
370
13
48
1
60
0
100
AcDbLine
10
31.972358
20
-6.25
30
0
11
31.972358
21
-6.374098
31
0
39
0
210
0
220
0
230
1
0
LINE
5
CF
100
AcDbEntity
8
1
62
256
6
ByLayer
370
13
48
1
60
0
100
AcDbLine
10
31.972358
20
-8.625902
30
0
11
31.972358
21
-8.75
31
0
39
0
210
0
220
0
230
1
0
LINE
5
D0
100
AcDbEntity
8
1
62
256
6
ByLayer
370
13
48
1
60
0
100
AcDbLine
10
34.611268
20
-6.984159
30
0
11
34.611268
21
-8.015841
31
0
39
0
210
0
220
0
230
1
0
LINE
5
D1
100
AcDbEntity
8
1
62
256
6
ByLayer
370
13
48
1
60
0
100
AcDbLine
10
31.78199
20
-8.75
30
0
11
31.78199
21
-8.625438
31
0
39
0
210
0
220
0
230
1
0
LINE
5
D2
100
AcDbEntity
8
1
62
256
6
ByLayer
370
13
48
1
60
0
100
AcDbLine
10
31.78199
20
-8.625438
30
0
11
31.970595
21
-8.625438
31
0
39
0
210
0
220
0
230
1
0
LINE
5
D3
100
AcDbEntity
8
1
62
256
6
ByLayer
370
13
48
1
60
0
100
AcDbLine
10
31.78199
20
-6.374562
30
0
11
31.970595
21
-6.374562
31
0
39
0
210
0
220
0
230
1
0
LINE
5
D4
100
AcDbEntity
8
1
62
256
6
ByLayer
370
13
48
1
60
0
100
AcDbLine
10
31.78199
20
-6.25
30
0
11
31.78199
21
-6.374562
31
0
39
0
210
0
220
0
230
1
0
LINE
5
D5
100
AcDbEntity
8
1
62
256
6
ByLayer
370
13
48
1
60
0
100
AcDbLine
10
36.400117
20
-6.735234
30
0
11
36.325685
21
-6.735234
31
0
39
0
210
0
220
0
230
1
0
LINE
5
D6
100
AcDbEntity
8
1
62
256
6
ByLayer
370
13
48
1
60
0
100
AcDbLine
10
35.935516
20
-6.426294
30
0
11
35.935516
21
-6.007825
31
0
39
0
210
0
220
0
230
1
0
LINE
5
D7
100
AcDbEntity
8
1
62
256
6
ByLayer
370
13
48
1
60
0
100
AcDbLine
10
35.935516
20
-8.573706
30
0
11
35.935516
21
-8.992175
31
0
39
0
210
0
220
0
230
1
0
LINE
5
D8
100
AcDbEntity
8
1
62
256
6
ByLayer
370
13
48
1
60
0
100
AcDbLine
10
36.400117
20
-8.264766
30
0
11
36.325685
21
-8.264766
31
0
39
0
210
0
220
0
230
1
0
LINE
5
D9
100
AcDbEntity
8
1
62
256
6
ByLayer
370
13
48
1
60
0
100
AcDbLine
10
35.506077
20
-8.674869
30
0
11
35.506077
21
-8.957412
31
0
39
0
210
0
220
0
230
1
0
LINE
5
DA
100
AcDbEntity
8
1
62
256
6
ByLayer
370
13
48
1
60
0
100
AcDbLine
10
35.86476
20
-8.987072
30
0
11
35.86476
21
-8.626322
31
0
39
0
210
0
220
0
230
1
0
LINE
5
DB
100
AcDbEntity
8
1
62
256
6
ByLayer
370
13
48
1
60
0
100
AcDbLine
10
35.86476
20
-6.012928
30
0
11
35.86476
21
-6.373678
31
0
39
0
210
0
220
0
230
1
0
LINE
5
DC
100
AcDbEntity
8
1
62
256
6
ByLayer
370
13
48
1
60
0
100
AcDbLine
10
35.506077
20
-6.325131
30
0
11
35.506077
21
-6.042588
31
0
39
0
210
0
220
0
230
1
0
LINE
5
DD
100
AcDbEntity
8
1
62
256
6
ByLayer
370
13
48
1
60
0
100
AcDbLine
10
31.906333
20
-7.751024
30
0
11
32.266184
21
-7.751024
31
0
39
0
210
0
220
0
230
1
0
LINE
5
DE
100
AcDbEntity
8
1
62
256
6
ByLayer
370
13
48
1
60
0
100
AcDbLine
10
31.906333
20
-7.248976
30
0
11
32.266184
21
-7.248976
31
0
39
0
210
0
220
0
230
1
0
LINE
5
DF
100
AcDbEntity
8
1
62
256
6
ByLayer
370
13
48
1
60
0
100
AcDbLine
10
35.158781
20
-8.678409
30
0
11
35.158781
21
-8.930867
31
0
39
0
210
0
220
0
230
1
0
LINE
5
E0
100
AcDbEntity
8
1
62
256
6
ByLayer
370
13
48
1
60
0
100
AcDbLine
10
35.158781
20
-6.321591
30
0
11
35.158781
21
-6.069133
31
0
39
0
210
0
220
0
230
1
0
LINE
5
E1
100
AcDbEntity
8
1
62
256
6
ByLayer
370
13
48
1
60
0
100
AcDbLine
10
31.774468
20
-6.374562
30
0
11
31.78199
21
-6.374562
31
0
39
0
210
0
220
0
230
1
0
LINE
5
E2
100
AcDbEntity
8
1
62
256
6
ByLayer
370
13
48
1
60
0
100
AcDbLine
10
28.366112
20
-6.324999
30
0
11
28.366112
21
-6.25
31
0
39
0
210
0
220
0
230
1
0
LINE
5
E3
100
AcDbEntity
8
1
62
256
6
ByLayer
370
13
48
1
60
0
100
AcDbLine
10
28.366112
20
-8.675001
30
0
11
28.366112
21
-8.75
31
0
39
0
210
0
220
0
230
1
0
LINE
5
E4
100
AcDbEntity
8
1
62
256
6
ByLayer
370
13
48
1
60
0
100
AcDbLine
10
31.774468
20
-8.625438
30
0
11
31.78199
21
-8.625438
31
0
39
0
210
0
220
0
230
1
0
LINE
5
E5
100
AcDbEntity
8
1
62
256
6
ByLayer
370
13
48
1
60
0
100
AcDbLine
10
31.800093
20
-7.132002
30
0
11
31.86942
21
-7.132002
31
0
39
0
210
0
220
0
230
1
0
LINE
5
E6
100
AcDbEntity
8
1
62
256
6
ByLayer
370
13
48
1
60
0
100
AcDbLine
10
31.800093
20
-7.867998
30
0
11
31.86942
21
-7.867998
31
0
39
0
210
0
220
0
230
1
0
LINE
5
E7
100
AcDbEntity
8
1
62
256
6
ByLayer
370
13
48
1
60
0
100
AcDbLine
10
31.94904
20
-7.299244
30
0
11
32.387507
21
-7.299244
31
0
39
0
210
0
220
0
230
1
0
LINE
5
E8
100
AcDbEntity
8
1
62
256
6
ByLayer
370
13
48
1
60
0
100
AcDbLine
10
31.94904
20
-7.700756
30
0
11
32.387507
21
-7.700756
31
0
39
0
210
0
220
0
230
1
0
LINE
5
E9
100
AcDbEntity
8
1
62
256
6
ByLayer
370
13
48
1
60
0
100
AcDbLine
10
35.22193
20
-6.608704
30
0
11
35.211268
21
-6.911944
31
0
39
0
210
0
220
0
230
1
0
LINE
5
EA
100
AcDbEntity
8
1
62
256
6
ByLayer
370
13
48
1
60
0
100
AcDbLine
10
35.22193
20
-8.391296
30
0
11
35.211268
21
-8.088056
31
0
39
0
210
0
220
0
230
1
0
LINE
5
EB
100
AcDbEntity
8
1
62
256
6
ByLayer
370
13
48
1
60
0
100
AcDbLine
10
36.344165
20
-8.07839
30
0
11
36.397026
21
-8.07839
31
0
39
0
210
0
220
0
230
1
0
LINE
5
EC
100
AcDbEntity
8
1
62
256
6
ByLayer
370
13
48
1
60
0
100
AcDbLine
10
36.344165
20
-6.92161
30
0
11
36.397026
21
-6.92161
31
0
39
0
210
0
220
0
230
1
0
LINE
5
ED
100
AcDbEntity
8
1
62
256
6
ByLayer
370
13
48
1
60
0
100
AcDbLine
10
36.348049
20
-8.23707
30
0
11
36.4
21
-8.23707
31
0
39
0
210
0
220
0
230
1
0
LINE
5
EE
100
AcDbEntity
8
1
62
256
6
ByLayer
370
13
48
1
60
0
100
AcDbLine
10
36.397026
20
-8.07839
30
0
11
36.397026
21
-6.92161
31
0
39
0
210
0
220
0
230
1
0
LINE
5
EF
100
AcDbEntity
8
1
62
256
6
ByLayer
370
13
48
1
60
0
100
AcDbLine
10
36.348049
20
-6.76293
30
0
11
36.4
21
-6.76293
31
0
39
0
210
0
220
0
230
1
0
LINE
5
F0
100
AcDbEntity
8
1
62
256
6
ByLayer
370
13
48
1
60
0
100
AcDbLine
10
31.952254
20
-7.697335
30
0
11
32.396489
21
-7.697335
31
0
39
0
210
0
220
0
230
1
0
LINE
5
F1
100
AcDbEntity
8
1
62
256
6
ByLayer
370
13
48
1
60
0
100
AcDbLine
10
31.952254
20
-7.302665
30
0
11
32.396489
21
-7.302665
31
0
39
0
210
0
220
0
230
1
0
LINE
5
F2
100
AcDbEntity
8
1
62
256
6
ByLayer
370
13
48
1
60
0
100
AcDbLine
10
36.344165
20
-6.92161
30
0
11
36.344165
21
-8.07839
31
0
39
0
210
0
220
0
230
1
0
LINE
5
F3
100
AcDbEntity
8
1
62
256
6
ByLayer
370
13
48
1
60
0
100
AcDbLine
10
35.821373
20
-6.910924
30
0
11
35.821373
21
-8.089076
31
0
39
0
210
0
220
0
230
1
0
LINE
5
F4
100
AcDbEntity
8
1
62
256
6
ByLayer
370
13
48
1
60
0
100
AcDbLine
10
31.94904
20
-7.700756
30
0
11
31.952254
21
-7.697335
31
0
39
0
210
0
220
0
230
1
0
LINE
5
F5
100
AcDbEntity
8
1
62
256
6
ByLayer
370
13
48
1
60
0
100
AcDbLine
10
31.94904
20
-7.299244
30
0
11
31.952254
21
-7.302665
31
0
39
0
210
0
220
0
230
1
0
LINE
5
F6
100
AcDbEntity
8
1
62
256
6
ByLayer
370
13
48
1
60
0
100
AcDbLine
10
35.211268
20
-6.911944
30
0
11
35.211268
21
-8.088056
31
0
39
0
210
0
220
0
230
1
0
LINE
5
F7
100
AcDbEntity
8
1
62
256
6
ByLayer
370
13
48
1
60
0
100
AcDbLine
10
31.793871
20
-7.751024
30
0
11
31.906333
21
-7.751024
31
0
39
0
210
0
220
0
230
1
0
LINE
5
F8
100
AcDbEntity
8
1
62
256
6
ByLayer
370
13
48
1
60
0
100
AcDbLine
10
31.793871
20
-7.248976
30
0
11
31.906333
21
-7.248976
31
0
39
0
210
0
220
0
230
1
0
LINE
5
F9
100
AcDbEntity
8
1
62
256
6
ByLayer
370
13
48
1
60
0
100
AcDbLine
10
31.792089
20
-7.299244
30
0
11
31.94904
21
-7.299244
31
0
39
0
210
0
220
0
230
1
0
LINE
5
FA
100
AcDbEntity
8
1
62
256
6
ByLayer
370
13
48
1
60
0
100
AcDbLine
10
31.792089
20
-7.700756
30
0
11
31.94904
21
-7.700756
31
0
39
0
210
0
220
0
230
1
0
LINE
5
FB
100
AcDbEntity
8
1
62
256
6
ByLayer
370
13
48
1
60
0
100
AcDbLine
10
31.791978
20
-7.697335
30
0
11
31.952254
21
-7.697335
31
0
39
0
210
0
220
0
230
1
0
LINE
5
FC
100
AcDbEntity
8
1
62
256
6
ByLayer
370
13
48
1
60
0
100
AcDbLine
10
31.791978
20
-7.302665
30
0
11
31.952254
21
-7.302665
31
0
39
0
210
0
220
0
230
1
0
LINE
5
FD
100
AcDbEntity
8
1
62
256
6
ByLayer
370
13
48
1
60
0
100
AcDbLine
10
27.989581
20
-8.75
30
0
11
27.945758
21
-8.674998
31
0
39
0
210
0
220
0
230
1
0
LINE
5
FE
100
AcDbEntity
8
1
62
256
6
ByLayer
370
13
48
1
60
0
100
AcDbLine
10
26.5
20
-6.276795
30
0
11
26.5
21
-6.325035
31
0
39
0
210
0
220
0
230
1
0
LINE
5
FF
100
AcDbEntity
8
1
62
256
6
ByLayer
370
13
48
1
60
0
100
AcDbLine
10
26.5
20
-8.674965
30
0
11
26.5
21
-8.723205
31
0
39
0
210
0
220
0
230
1
0
LINE
5
100
100
AcDbEntity
8
1
62
256
6
ByLayer
370
18
48
1
60
0
100
AcDbLine
10
12.8
20
-0.75
30
0
11
12.8
21
-4.725
31
0
39
0
210
0
220
0
230
1
0
LINE
5
101
100
AcDbEntity
8
1
62
256
6
ByLayer
370
18
48
1
60
0
100
AcDbLine
10
27.690738
20
-8.675
30
0
11
22.690738
21
-8.675
31
0
39
0
210
0
220
0
230
1
0
LINE
5
102
100
AcDbEntity
8
1
62
256
6
ByLayer
370
18
48
1
60
0
100
AcDbLine
10
31.75928
20
-6.325
30
0
11
27.690738
21
-6.325
31
0
39
0
210
0
220
0
230
1
0
LINE
5
103
100
AcDbEntity
8
1
62
256
6
ByLayer
370
18
48
1
60
0
100
AcDbLine
10
27.690738
20
-6.325
30
0
11
22.690738
21
-6.325
31
0
39
0
210
0
220
0
230
1
0
LINE
5
104
100
AcDbEntity
8
1
62
256
6
ByLayer
370
18
48
1
60
0
100
AcDbLine
10
22.690738
20
-6.325
30
0
11
17.562287
21
-6.325
31
0
39
0
210
0
220
0
230
1
0
LINE
5
105
100
AcDbEntity
8
1
62
256
6
ByLayer
370
18
48
1
60
0
100
AcDbLine
10
31.75928
20
-8.675
30
0
11
27.690738
21
-8.675
31
0
39
0
210
0
220
0
230
1
0
LINE
5
106
100
AcDbEntity
8
1
62
256
6
ByLayer
370
18
48
1
60
0
100
AcDbLine
10
22.690738
20
-8.675
30
0
11
17.562287
21
-8.675
31
0
39
0
210
0
220
0
230
1
0
LINE
5
107
100
AcDbEntity
8
1
62
256
6
ByLayer
370
18
48
1
60
0
100
AcDbLine
10
31.815611
20
-6.978186
30
0
11
31.815611
21
-6.508431
31
0
39
0
210
0
220
0
230
1
0
LINE
5
108
100
AcDbEntity
8
1
62
256
6
ByLayer
370
18
48
1
60
0
100
AcDbLine
10
31.815611
20
-8.491569
30
0
11
31.75928
21
-8.675
31
0
39
0
210
0
220
0
230
1
0
LINE
5
109
100
AcDbEntity
8
1
62
256
6
ByLayer
370
18
48
1
60
0
100
AcDbLine
10
31.75928
20
-6.325
30
0
11
31.815611
21
-6.508431
31
0
39
0
210
0
220
0
230
1
0
LINE
5
10A
100
AcDbEntity
8
1
62
256
6
ByLayer
370
18
48
1
60
0
100
AcDbLine
10
-8.093898
20
0.298734
30
0
11
-8.987552
21
0.298734
31
0
39
0
210
0
220
0
230
1
0
LINE
5
10B
100
AcDbEntity
8
1
62
256
6
ByLayer
370
18
48
1
60
0
100
AcDbLine
10
3.151668
20
0.298734
30
0
11
-3.151668
21
0.298734
31
0
39
0
210
0
220
0
230
1
0
LINE
5
10C
100
AcDbEntity
8
1
62
256
6
ByLayer
370
18
48
1
60
0
100
AcDbLine
10
10.667459
20
0.298734
30
0
11
10.600934
21
0.298734
31
0
39
0
210
0
220
0
230
1
0
LINE
5
10D
100
AcDbEntity
8
1
62
256
6
ByLayer
370
18
48
1
60
0
100
AcDbLine
10
11.497433
20
0.298734
30
0
11
11.466627
21
0.298734
31
0
39
0
210
0
220
0
230
1
0
LINE
5
10E
100
AcDbEntity
8
1
62
256
6
ByLayer
370
18
48
1
60
0
100
AcDbLine
10
9.995451
20
0.298734
30
0
11
9.906586
21
0.298734
31
0
39
0
210
0
220
0
230
1
0
LINE
5
10F
100
AcDbEntity
8
1
62
256
6
ByLayer
370
18
48
1
60
0
100
AcDbLine
10
9.104856
20
0.298734
30
0
11
8.987552
21
0.298734
31
0
39
0
210
0
220
0
230
1
0
LINE
5
110
100
AcDbEntity
8
1
62
256
6
ByLayer
370
18
48
1
60
0
100
AcDbLine
10
6.285071
20
0.298734
30
0
11
6.055772
21
0.298734
31
0
39
0
210
0
220
0
230
1
0
LINE
5
111
100
AcDbEntity
8
1
62
256
6
ByLayer
370
18
48
1
60
0
100
AcDbLine
10
8.987552
20
0.298734
30
0
11
8.093898
21
0.298734
31
0
39
0
210
0
220
0
230
1
0
LINE
5
112
100
AcDbEntity
8
1
62
256
6
ByLayer
370
18
48
1
60
0
100
AcDbLine
10
-3.151668
20
0.298734
30
0
11
-3.621668
21
0.298734
31
0
39
0
210
0
220
0
230
1
0
LINE
5
113
100
AcDbEntity
8
1
62
256
6
ByLayer
370
18
48
1
60
0
100
AcDbLine
10
-8.987552
20
0.298734
30
0
11
-9.104856
21
0.298734
31
0
39
0
210
0
220
0
230
1
0
LINE
5
114
100
AcDbEntity
8
1
62
256
6
ByLayer
370
18
48
1
60
0
100
AcDbLine
10
-6.055772
20
0.298734
30
0
11
-6.285071
21
0.298734
31
0
39
0
210
0
220
0
230
1
0
LINE
5
115
100
AcDbEntity
8
1
62
256
6
ByLayer
370
18
48
1
60
0
100
AcDbLine
10
-7.764453
20
0.298734
30
0
11
-7.922295
21
0.298734
31
0
39
0
210
0
220
0
230
1
0
LINE
5
116
100
AcDbEntity
8
1
62
256
6
ByLayer
370
18
48
1
60
0
100
AcDbLine
10
3.621668
20
0.298734
30
0
11
3.151668
21
0.298734
31
0
39
0
210
0
220
0
230
1
0
LINE
5
117
100
AcDbEntity
8
1
62
256
6
ByLayer
370
18
48
1
60
0
100
AcDbLine
10
11.160436
20
0.298734
30
0
11
11.112793
21
0.298734
31
0
39
0
210
0
220
0
230
1
0
LINE
5
118
100
AcDbEntity
8
1
62
256
6
ByLayer
370
18
48
1
60
0
100
AcDbLine
10
7.922295
20
0.298734
30
0
11
7.764453
21
0.298734
31
0
39
0
210
0
220
0
230
1
0
LINE
5
119
100
AcDbEntity
8
1
62
256
6
ByLayer
370
18
48
1
60
0
100
AcDbLine
10
11.691946
20
0.298734
30
0
11
11.67681
21
0.298734
31
0
39
0
210
0
220
0
230
1
0
LINE
5
11A
100
AcDbEntity
8
1
62
256
6
ByLayer
370
18
48
1
60
0
100
AcDbLine
10
-9.906586
20
0.298734
30
0
11
-9.995451
21
0.298734
31
0
39
0
210
0
220
0
230
1
0
LINE
5
11B
100
AcDbEntity
8
1
62
256
6
ByLayer
370
18
48
1
60
0
100
AcDbLine
10
-10.600934
20
0.298734
30
0
11
-10.667459
21
0.298734
31
0
39
0
210
0
220
0
230
1
0
LINE
5
11C
100
AcDbEntity
8
1
62
256
6
ByLayer
370
18
48
1
60
0
100
AcDbLine
10
12.8
20
-0.75
30
0
11
12.5
21
-0.75
31
0
39
0
210
0
220
0
230
1
0
LINE
5
11D
100
AcDbEntity
8
1
62
256
6
ByLayer
370
18
48
1
60
0
100
AcDbLine
10
-11.5
20
-8.675
30
0
11
-11.5
21
-0.5
31
0
39
0
210
0
220
0
230
1
0
LINE
5
11E
100
AcDbEntity
8
1
62
256
6
ByLayer
370
18
48
1
60
0
100
AcDbLine
10
-0.158079
20
-8.675
30
0
11
-0.158079
21
-0.445
31
0
39
0
210
0
220
0
230
1
0
LINE
5
11F
100
AcDbEntity
8
1
62
256
6
ByLayer
370
18
48
1
60
0
100
AcDbLine
10
0.158079
20
-8.675
30
0
11
0.158079
21
-0.445
31
0
39
0
210
0
220
0
230
1
0
LINE
5
120
100
AcDbEntity
8
1
62
256
6
ByLayer
370
18
48
1
60
0
100
AcDbLine
10
-11.5
20
-0.5
30
0
11
-11.445
21
-0.445
31
0
39
0
210
0
220
0
230
1
0
LINE
5
121
100
AcDbEntity
8
1
62
256
6
ByLayer
370
18
48
1
60
0
100
AcDbLine
10
9.669124
20
-0.445
30
0
11
0.158079
21
-0.445
31
0
39
0
210
0
220
0
230
1
0
LINE
5
122
100
AcDbEntity
8
1
62
256
6
ByLayer
370
18
48
1
60
0
100
AcDbLine
10
9.821356
20
-0.75
30
0
11
12.5
21
-0.75
31
0
39
0
210
0
220
0
230
1
0
LINE
5
123
100
AcDbEntity
8
1
62
256
6
ByLayer
370
18
48
1
60
0
100
AcDbLine
10
-0.158079
20
-0.445
30
0
11
-11.445
21
-0.445
31
0
39
0
210
0
220
0
230
1
0
LINE
5
124
100
AcDbEntity
8
1
62
256
6
ByLayer
370
18
48
1
60
0
100
AcDbLine
10
12.5
20
-0.75
30
0
11
12.5
21
-4.725
31
0
39
0
210
0
220
0
230
1
0
LINE
5
125
100
AcDbEntity
8
1
62
256
6
ByLayer
370
18
48
1
60
0
100
AcDbLine
10
9.821356
20
-0.45
30
0
11
9.821356
21
-0.75
31
0
39
0
210
0
220
0
230
1
0
LINE
5
126
100
AcDbEntity
8
1
62
256
6
ByLayer
370
18
48
1
60
0
100
AcDbLine
10
-11.5
20
-8.675
30
0
11
-0.158079
21
-8.675
31
0
39
0
210
0
220
0
230
1
0
LINE
5
127
100
AcDbEntity
8
1
62
256
6
ByLayer
370
18
48
1
60
0
100
AcDbLine
10
0.158079
20
-8.675
30
0
11
9.669124
21
-8.675
31
0
39
0
210
0
220
0
230
1
0
LINE
5
128
100
AcDbEntity
8
1
62
256
6
ByLayer
370
18
48
1
60
0
100
AcDbLine
10
9.669124
20
-8.675
30
0
11
17.562287
21
-8.675
31
0
39
0
210
0
220
0
230
1
0
LINE
5
129
100
AcDbEntity
8
1
62
256
6
ByLayer
370
18
48
1
60
0
100
AcDbLine
10
-0.158079
20
-8.675
30
0
11
0.158079
21
-8.675
31
0
39
0
210
0
220
0
230
1
0
LINE
5
12A
100
AcDbEntity
8
1
62
256
6
ByLayer
370
18
48
1
60
0
100
AcDbLine
10
14.1
20
-6.325
30
0
11
17.562287
21
-6.325
31
0
39
0
210
0
220
0
230
1
0
LINE
5
12B
100
AcDbEntity
8
1
62
256
6
ByLayer
370
18
48
1
60
0
100
AcDbLine
10
31.815611
20
-8.491569
30
0
11
31.815611
21
-8.021814
31
0
39
0
210
0
220
0
230
1
0
LINE
5
12C
100
AcDbEntity
8
1
62
256
6
ByLayer
370
18
48
1
60
0
100
AcDbLine
10
36.400117
20
-6.735234
30
0
11
36.404691
21
-6.194444
31
0
39
0
210
0
220
0
230
1
0
LINE
5
12D
100
AcDbEntity
8
1
62
256
6
ByLayer
370
18
48
1
60
0
100
AcDbLine
10
36.4
20
-8.23707
30
0
11
36.4
21
-6.76293
31
0
39
0
210
0
220
0
230
1
0
LINE
5
12E
100
AcDbEntity
8
1
62
256
6
ByLayer
370
18
48
1
60
0
100
AcDbLine
10
33.09752
20
-6.192091
30
0
11
33.04436
21
-6.222783
31
0
39
0
210
0
220
0
230
1
0
LINE
5
12F
100
AcDbEntity
8
1
62
256
6
ByLayer
370
18
48
1
60
0
100
AcDbLine
10
26.6
20
-8.75
30
0
11
27.065685
21
-8.75
31
0
39
0
210
0
220
0
230
1
0
LINE
5
130
100
AcDbEntity
8
1
62
256
6
ByLayer
370
18
48
1
60
0
100
AcDbLine
10
27.989581
20
-6.25
30
0
11
27.065685
21
-6.25
31
0
39
0
210
0
220
0
230
1
0
LINE
5
131
100
AcDbEntity
8
1
62
256
6
ByLayer
370
18
48
1
60
0
100
AcDbLine
10
32.063912
20
-8.75
30
0
11
32.787574
21
-8.75
31
0
39
0
210
0
220
0
230
1
0
LINE
5
132
100
AcDbEntity
8
1
62
256
6
ByLayer
370
18
48
1
60
0
100
AcDbLine
10
27.065685
20
-8.75
30
0
11
27.989581
21
-8.75
31
0
39
0
210
0
220
0
230
1
0
LINE
5
133
100
AcDbEntity
8
1
62
256
6
ByLayer
370
18
48
1
60
0
100
AcDbLine
10
33.79812
20
-6.1338
30
0
11
33.715472
21
-6.133786
31
0
39
0
210
0
220
0
230
1
0
LINE
5
134
100
AcDbEntity
8
1
62
256
6
ByLayer
370
18
48
1
60
0
100
AcDbLine
10
33.195343
20
-8.834991
30
0
11
33.537538
21
-8.858919
31
0
39
0
210
0
220
0
230
1
0
LINE
5
135
100
AcDbEntity
8
1
62
256
6
ByLayer
370
18
48
1
60
0
100
AcDbLine
10
28.366112
20
-6.25
30
0
11
28.047775
21
-6.25
31
0
39
0
210
0
220
0
230
1
0
LINE
5
136
100
AcDbEntity
8
1
62
256
6
ByLayer
370
18
48
1
60
0
100
AcDbLine
10
35.935516
20
-8.992175
30
0
11
36.195632
21
-9.008204
31
0
39
0
210
0
220
0
230
1
0
LINE
5
137
100
AcDbEntity
8
1
62
256
6
ByLayer
370
18
48
1
60
0
100
AcDbLine
10
28.366112
20
-8.75
30
0
11
31.78199
21
-8.75
31
0
39
0
210
0
220
0
230
1
0
LINE
5
138
100
AcDbEntity
8
1
62
256
6
ByLayer
370
18
48
1
60
0
100
AcDbLine
10
32.787574
20
-6.25
30
0
11
32.063912
21
-6.25
31
0
39
0
210
0
220
0
230
1
0
LINE
5
139
100
AcDbEntity
8
1
62
256
6
ByLayer
370
18
48
1
60
0
100
AcDbLine
10
35.86476
20
-6.012928
30
0
11
35.506077
21
-6.042588
31
0
39
0
210
0
220
0
230
1
0
LINE
5
13A
100
AcDbEntity
8
1
62
256
6
ByLayer
370
18
48
1
60
0
100
AcDbLine
10
31.78199
20
-6.25
30
0
11
28.366112
21
-6.25
31
0
39
0
210
0
220
0
230
1
0
LINE
5
13B
100
AcDbEntity
8
1
62
256
6
ByLayer
370
18
48
1
60
0
100
AcDbLine
10
32.953398
20
-8.75
30
0
11
32.855978
21
-8.75
31
0
39
0
210
0
220
0
230
1
0
LINE
5
13C
100
AcDbEntity
8
1
62
256
6
ByLayer
370
18
48
1
60
0
100
AcDbLine
10
28.047775
20
-8.75
30
0
11
28.366112
21
-8.75
31
0
39
0
210
0
220
0
230
1
0
LINE
5
13D
100
AcDbEntity
8
1
62
256
6
ByLayer
370
18
48
1
60
0
100
AcDbLine
10
32.855978
20
-6.25
30
0
11
32.787574
21
-6.25
31
0
39
0
210
0
220
0
230
1
0
LINE
5
13E
100
AcDbEntity
8
1
62
256
6
ByLayer
370
18
48
1
60
0
100
AcDbLine
10
36.195632
20
-5.991796
30
0
11
35.935516
21
-6.007825
31
0
39
0
210
0
220
0
230
1
0
LINE
5
13F
100
AcDbEntity
8
1
62
256
6
ByLayer
370
18
48
1
60
0
100
AcDbLine
10
34.858781
20
-8.909785
30
0
11
35.158781
21
-8.930867
31
0
39
0
210
0
220
0
230
1
0
LINE
5
140
100
AcDbEntity
8
1
62
256
6
ByLayer
370
18
48
1
60
0
100
AcDbLine
10
33.054705
20
-8.777118
30
0
11
33.109449
21
-8.808724
31
0
39
0
210
0
220
0
230
1
0
LINE
5
141
100
AcDbEntity
8
1
62
256
6
ByLayer
370
18
48
1
60
0
100
AcDbLine
10
32.787574
20
-8.75
30
0
11
32.855978
21
-8.75
31
0
39
0
210
0
220
0
230
1
0
LINE
5
142
100
AcDbEntity
8
1
62
256
6
ByLayer
370
18
48
1
60
0
100
AcDbLine
10
35.506077
20
-8.957412
30
0
11
35.86476
21
-8.987072
31
0
39
0
210
0
220
0
230
1
0
LINE
5
143
100
AcDbEntity
8
1
62
256
6
ByLayer
370
18
48
1
60
0
100
AcDbLine
10
33.715472
20
-8.866214
30
0
11
33.79812
21
-8.8662
31
0
39
0
210
0
220
0
230
1
0
LINE
5
144
100
AcDbEntity
8
1
62
256
6
ByLayer
370
18
48
1
60
0
100
AcDbLine
10
31.972358
20
-6.25
30
0
11
31.78199
21
-6.25
31
0
39
0
210
0
220
0
230
1
0
LINE
5
145
100
AcDbEntity
8
1
62
256
6
ByLayer
370
18
48
1
60
0
100
AcDbLine
10
27.989581
20
-8.75
30
0
11
28.035194
21
-8.75
31
0
39
0
210
0
220
0
230
1
0
LINE
5
146
100
AcDbEntity
8
1
62
256
6
ByLayer
370
18
48
1
60
0
100
AcDbLine
10
35.158781
20
-6.069133
30
0
11
34.858781
21
-6.090215
31
0
39
0
210
0
220
0
230
1
0
LINE
5
147
100
AcDbEntity
8
1
62
256
6
ByLayer
370
18
48
1
60
0
100
AcDbLine
10
33.537538
20
-6.141081
30
0
11
33.18336
21
-6.165847
31
0
39
0
210
0
220
0
230
1
0
LINE
5
148
100
AcDbEntity
8
1
62
256
6
ByLayer
370
18
48
1
60
0
100
AcDbLine
10
32.063912
20
-6.25
30
0
11
31.972358
21
-6.25
31
0
39
0
210
0
220
0
230
1
0
LINE
5
149
100
AcDbEntity
8
1
62
256
6
ByLayer
370
18
48
1
60
0
100
AcDbLine
10
31.972358
20
-8.75
30
0
11
32.063912
21
-8.75
31
0
39
0
210
0
220
0
230
1
0
LINE
5
14A
100
AcDbEntity
8
1
62
256
6
ByLayer
370
18
48
1
60
0
100
AcDbLine
10
28.035194
20
-6.25
30
0
11
27.989581
21
-6.25
31
0
39
0
210
0
220
0
230
1
0
LINE
5
14B
100
AcDbEntity
8
1
62
256
6
ByLayer
370
18
48
1
60
0
100
AcDbLine
10
36.404691
20
-8.805556
30
0
11
36.400117
21
-8.264766
31
0
39
0
210
0
220
0
230
1
0
LINE
5
14C
100
AcDbEntity
8
1
62
256
6
ByLayer
370
18
48
1
60
0
100
AcDbLine
10
32.855978
20
-6.25
30
0
11
32.942652
21
-6.25
31
0
39
0
210
0
220
0
230
1
0
LINE
5
14D
100
AcDbEntity
8
1
62
256
6
ByLayer
370
18
48
1
60
0
100
AcDbLine
10
31.78199
20
-8.75
30
0
11
31.972358
21
-8.75
31
0
39
0
210
0
220
0
230
1
0
LINE
5
14E
100
AcDbEntity
8
1
62
256
6
ByLayer
370
18
48
1
60
0
100
AcDbLine
10
27.065685
20
-6.25
30
0
11
26.6
21
-6.25
31
0
39
0
210
0
220
0
230
1
0
MTEXT
5
28A
100
AcDbEntity
8
SK6
62
256
6
ByLayer
370
18
48
1
60
0
100
AcDbMText
10
-19.175
20
-54.837523
30
0
210
0
220
0
230
1
1
\W0.7806;SL-QD-RGG22C25
40
3.5
41
0
44
1.084337
50
0
71
7
72
5
7
iso_b_vert
0
DIMENSION
5
29C
100
AcDbEntity
8
SK2
62
256
6
ByLayer
370
13
48
1
60
0
100
AcDbDimension
2
DimnDraft3D1
10
36.4
20
23.683524
30
0
11
13.907895
21
23.683524
31
0
70
32
71
5
72
1
41
1
210
0
220
0
230
1
3
Standard
100
AcDbAlignedDimension
13
0
23
2
33
0
14
36.4
24
-7
34
0
50
0
100
AcDbRotatedDimension
1001
ACAD
1000
DSTYLE
1002
{
1070
   279
1070
     0
1070
   172
1070
     1
1070
   173
1070
     1
1070
   340
1005
28B
1070
   271
1070
     1
1070
    77
1070
     1
1070
    73
1070
     0
1070
   171
1070
     3
1070
   274
1070
     4
1070
   177
1070
     2
1070
   176
1070
     2
1070
   178
1070
     7
1070
    78
1070
     8
1070
    41
1041
3.175
1070
   147
1041
1.75
1070
    42
1041
2.0
1070
    44
1041
2.0
1070
   140
1041
3.5
1070
   343
1005
29D
1070
   344
1005
29D
1002
}
0
DIMENSION
5
2B2
100
AcDbEntity
8
2
62
256
6
ByLayer
370
13
48
1
60
0
100
AcDbDimension
2
DimnDraft3D2
10
14.4
20
-22.108569
30
0
11
23.309211
21
-22.108569
31
0
70
32
71
5
72
1
41
1
210
0
220
0
230
1
3
Standard
100
AcDbAlignedDimension
13
36.4
23
-11
33
0
14
14.4
24
-2
34
0
50
0
100
AcDbRotatedDimension
1001
ACAD
1000
DSTYLE
1002
{
1070
   279
1070
     0
1070
   172
1070
     1
1070
   173
1070
     1
1070
   340
1005
28B
1070
   271
1070
     1
1070
    77
1070
     1
1070
    73
1070
     0
1070
   171
1070
     3
1070
   274
1070
     4
1070
   177
1070
     2
1070
   176
1070
     2
1070
   178
1070
     7
1070
    78
1070
     8
1070
    41
1041
3.175
1070
   147
1041
1.75
1070
    42
1041
2.0
1070
    44
1041
2.0
1070
   140
1041
3.5
1070
   343
1005
29D
1070
   344
1005
29D
1002
}
0
DIMENSION
5
2C0
100
AcDbEntity
8
2
62
256
6
ByLayer
370
13
48
1
60
0
100
AcDbDimension
2
DimnDraft3D3
10
61.5
20
-9
30
0
11
61.5
21
-5.282895
31
0
70
32
71
5
72
1
41
1
210
0
220
0
230
1
3
Standard
100
AcDbAlignedDimension
13
29.4
23
0
33
0
14
38.4
24
-9
34
0
50
90
100
AcDbRotatedDimension
1001
ACAD
1000
DSTYLE
1002
{
1070
    74
1070
     0
1070
   279
1070
     0
1070
   172
1070
     1
1070
   173
1070
     1
1070
   340
1005
28B
1070
   271
1070
     1
1070
    77
1070
     1
1070
    73
1070
     0
1070
   171
1070
     3
1070
   274
1070
     4
1070
   177
1070
     2
1070
   176
1070
     2
1070
   178
1070
     7
1070
    78
1070
     8
1070
    41
1041
3.175
1070
   147
1041
1.75
1070
    42
1041
2.0
1070
    44
1041
2.0
1070
   140
1041
3.5
1070
   343
1005
29D
1070
   344
1005
29D
1002
}
0
DIMENSION
5
2CE
100
AcDbEntity
8
2
62
256
6
ByLayer
370
13
48
1
60
0
100
AcDbDimension
2
DimnDraft3D4
10
54.5
20
-6
30
0
11
54.5
21
-20.820789
31
0
70
32
71
5
72
1
41
1
210
0
220
0
230
1
3
Standard
100
AcDbAlignedDimension
13
38.4
23
-9
33
0
14
38.4
24
-6
34
0
50
90
100
AcDbRotatedDimension
1001
ACAD
1000
DSTYLE
1002
{
1070
    74
1070
     0
1070
   279
1070
     0
1070
   172
1070
     1
1070
   173
1070
     1
1070
   340
1005
28B
1070
   271
1070
     1
1070
    77
1070
     1
1070
    73
1070
     0
1070
   171
1070
     3
1070
   274
1070
     4
1070
   177
1070
     2
1070
   176
1070
     2
1070
   178
1070
     7
1070
    78
1070
     8
1070
    41
1041
3.175
1070
   147
1041
1.75
1070
    42
1041
2.0
1070
    44
1041
2.0
1070
   140
1041
3.5
1070
   343
1005
29D
1070
   344
1005
29D
1002
}
0
ENDSEC
0
SECTION
2
OBJECTS
0
DICTIONARY
5
337
330
0
100
AcDbDictionary
280
0
281
1
3
ACAD_GROUP
350
338
3
ACAD_MLINESTYLE
350
339
0
DICTIONARY
5
338
330
0
100
AcDbDictionary
280
0
281
1
0
DICTIONARY
5
339
330
0
100
AcDbDictionary
280
0
281
1
3
Standard
350
18
0
MLINESTYLE
5
18
330
339
100
AcDbMlineStyle
2
Standard
70
0
3

62
256
51
90
52
90
71
2
49
-0.5
62
256
6
ByLayer
49
0.5
62
256
6
ByLayer
0
RASTERVARIABLES
5
327
330

100
AcDbRasterVariables
90
0
70
1
71
1
72
1
0
ENDSEC
0
EOF
