0
SECTION
2
HEADER
9
$ACADVER
1
AC1015
9
$DWGCODEPAGE
3
ANSI_1252
9
$HANDSEED
5
382
9
$ANGBASE
50
0
9
$ANGDIR
70
0
9
$ATTMODE
70
1
9
$AUNITS
70
0
9
$AUPREC
70
0
9
$CECOLOR
62
256
9
$CELTSCALE
40
1
9
$CELTYPE
6
ByLayer
9
$CELWEIGHT
370
18
9
$CLAYER
8
0
9
$CMLJUST
70
0
9
$CMLSCALE
40
1
9
$CMLSTYLE
2
Standard
9
$DIMSTYLE
2
Standard
9
$TEXTSIZE
40
0.2
9
$TEXTSTYLE
7
Standard
9
$LUNITS
70
2
9
$LUPREC
70
4
9
$EXTNAMES
290
1
9
$INSUNITS
70
4
9
$LTSCALE
40
1
9
$LWDISPLAY
290
1
9
$PDMODE
70
0
9
$PDSIZE
40
0
9
$PLINEGEN
70
0
0
ENDSEC
0
SECTION
2
CLASSES
0
CLASS
1
RASTERVARIABLES
2
AcDbRasterVariables
3
ISM
90
0
280
0
281
0
0
ENDSEC
0
SECTION
2
TABLES
0
TABLE
2
VPORT
5
378
100
AcDbSymbolTable
0
VPORT
5
1
100
AcDbSymbolTableRecord
100
AcDbViewportTableRecord
2
*Active
70
0
10
0
20
0
11
1
21
1
12
-1
22
1
13
0
23
0
14
0.5
24
0.5
15
10
25
10
16
0
26
0
36
1
17
0
27
0
37
0
0
ENDTAB
0
TABLE
2
LTYPE
5
379
100
AcDbSymbolTable
0
LTYPE
5
14
100
AcDbSymbolTableRecord
100
AcDbLinetypeTableRecord
70
0
2
ByBlock
3

72
65
73
0
40
0
0
LTYPE
5
15
100
AcDbSymbolTableRecord
100
AcDbLinetypeTableRecord
70
0
2
ByLayer
3

72
65
73
0
40
0
0
LTYPE
5
16
100
AcDbSymbolTableRecord
100
AcDbLinetypeTableRecord
70
0
2
CONTINUOUS
3
Solid line
72
65
73
0
40
0
0
LTYPE
5
6A
100
AcDbSymbolTableRecord
100
AcDbLinetypeTableRecord
70
0
2
CENTER
3
____ _ ____ _ ____ _ ____
72
65
73
4
40
47.5
49
22
74
0
49
-8.5
74
0
49
8.5
74
0
49
-8.5
74
0
0
LTYPE
5
6B
100
AcDbSymbolTableRecord
100
AcDbLinetypeTableRecord
70
0
2
DASHED
3
__ __ __ __ __ __ __ __ __
72
65
73
2
40
25.72
49
12.86
74
0
49
-12.86
74
0
0
ENDTAB
0
TABLE
2
LAYER
5
37a
100
AcDbSymbolTable
0
LAYER
5
10
100
AcDbSymbolTableRecord
100
AcDbLayerTableRecord
2
0
70
0
62
7
6
CONTINUOUS
290
1
370
-3
390
0
0
LAYER
5
6D
100
AcDbSymbolTableRecord
100
AcDbLayerTableRecord
2
81
70
0
62
-3
6
CONTINUOUS
290
1
370
-3
390
0
0
LAYER
5
6F
100
AcDbSymbolTableRecord
100
AcDbLayerTableRecord
2
80
70
0
62
-6
6
CONTINUOUS
290
1
370
-3
390
0
0
LAYER
5
73
100
AcDbSymbolTableRecord
100
AcDbLayerTableRecord
2
1
70
0
62
4
6
CONTINUOUS
290
1
370
-3
390
0
0
LAYER
5
2CE
100
AcDbSymbolTableRecord
100
AcDbLayerTableRecord
2
2
70
0
62
7
6
CONTINUOUS
290
1
370
-3
390
0
0
LAYER
5
366
100
AcDbSymbolTableRecord
100
AcDbLayerTableRecord
2
SK6
70
0
62
5
6
CONTINUOUS
290
1
370
-3
390
0
0
LAYER
5
367
100
AcDbSymbolTableRecord
100
AcDbLayerTableRecord
2
SK2
70
0
62
7
6
CONTINUOUS
290
1
370
-3
390
0
0
ENDTAB
0
TABLE
2
STYLE
5
37b
100
AcDbSymbolTable
0
STYLE
5
11
100
AcDbSymbolTableRecord
100
AcDbTextStyleTableRecord
2
Standard
3
txt
70
0
71
0
40
0
41
1
42
0
50
0
0
STYLE
5
2C9
100
AcDbSymbolTableRecord
100
AcDbTextStyleTableRecord
2
iso_b_vert
3
simplex.shx
70
0
71
0
40
0
41
1
42
0
50
0
0
STYLE
5
2CA
100
AcDbSymbolTableRecord
100
AcDbTextStyleTableRecord
2
DWGDirectTextStyle
3
simplex
70
0
71
0
40
0
41
1
42
0
50
0
0
ENDTAB
0
TABLE
2
DIMSTYLE
5
37c
100
AcDbSymbolTable
100
AcDbDimStyleTable
0
DIMSTYLE
105
27
100
AcDbSymbolTableRecord
100
AcDbDimStyleTableRecord
2
Standard
70
0
3
<>
41
0.18
42
0.0625
44
0.18
140
0.18
147
0.09
73
0
74
0
77
1
271
2
275
0
278
52
280
0
340
11
0
ENDTAB
0
TABLE
2
VIEW
5
37d
100
AcDbSymbolTable
0
ENDTAB
0
TABLE
2
UCS
5
37e
100
AcDbSymbolTable
0
ENDTAB
0
TABLE
2
APPID
5
37f
100
AcDbSymbolTable
0
APPID
5
12
100
AcDbSymbolTableRecord
100
AcDbRegAppTableRecord
2
ACAD
70
0
0
ENDTAB
0
TABLE
2
BLOCK_RECORD
5
380
100
AcDbSymbolTable
0
BLOCK_RECORD
5
1F
100
AcDbSymbolTableRecord
100
AcDbBlockTableRecord
2
*Model_Space
340
0
70
0
0
BLOCK_RECORD
5
1B
100
AcDbSymbolTableRecord
100
AcDbBlockTableRecord
2
*Paper_Space
340
0
70
0
0
BLOCK_RECORD
5
23
100
AcDbSymbolTableRecord
100
AcDbBlockTableRecord
2
*Paper_Space0
340
0
70
0
0
BLOCK_RECORD
5
2CC
100
AcDbSymbolTableRecord
100
AcDbBlockTableRecord
2
DimnDraft3D1
340
0
70
0
0
BLOCK_RECORD
5
2DB
100
AcDbSymbolTableRecord
100
AcDbBlockTableRecord
2
_CLOSED
340
0
70
0
0
BLOCK_RECORD
5
2E2
100
AcDbSymbolTableRecord
100
AcDbBlockTableRecord
2
DimnDraft3D2
340
0
70
0
0
BLOCK_RECORD
5
2F1
100
AcDbSymbolTableRecord
100
AcDbBlockTableRecord
2
DimnDraft3D3
340
0
70
0
0
BLOCK_RECORD
5
2FF
100
AcDbSymbolTableRecord
100
AcDbBlockTableRecord
2
DimnDraft3D4
340
0
70
0
0
ENDTAB
0
ENDSEC
0
SECTION
2
BLOCKS
0
BLOCK
5
20
100
AcDbEntity
8
0
100
AcDbBlockBegin
2
*Model_Space
70
0
10
0
20
0
30
0
3
*Model_Space
0
ENDBLK
5
21
100
AcDbEntity
8
0
100
AcDbBlockEnd
0
BLOCK
5
1C
100
AcDbEntity
8
0
100
AcDbBlockBegin
2
*Paper_Space
70
0
10
0
20
0
30
0
3
*Paper_Space
0
ENDBLK
5
1D
100
AcDbEntity
8
0
100
AcDbBlockEnd
0
BLOCK
5
24
100
AcDbEntity
8
0
100
AcDbBlockBegin
2
*Paper_Space0
70
0
10
0
20
0
30
0
3
*Paper_Space0
0
ENDBLK
5
25
100
AcDbEntity
8
0
100
AcDbBlockEnd
0
BLOCK
5
2D8
100
AcDbEntity
8
0
100
AcDbBlockBegin
2
DimnDraft3D1
70
0
10
0
20
0
30
0
3
DimnDraft3D1
0
MTEXT
5
2CD
100
AcDbEntity
8
2
62
256
6
ByLayer
370
18
48
1
60
0
100
AcDbMText
10
85.825
20
5.221711
30
0
210
0
220
0
230
1
1
\W0.5321;12
40
3.5
41
0
44
1.084337
50
90
71
7
72
5
7
iso_b_vert
0
LINE
5
2CF
100
AcDbEntity
8
2
62
256
6
ByLayer
370
13
48
1
60
0
100
AcDbLine
10
23.6
20
0
30
0
11
88.7
21
0
31
0
39
0
210
0
220
0
230
1
0
LINE
5
2D0
100
AcDbEntity
8
2
62
256
6
ByLayer
370
13
48
1
60
0
100
AcDbLine
10
63.6
20
12
30
0
11
88.7
21
12
31
0
39
0
210
0
220
0
230
1
0
LINE
5
2D1
100
AcDbEntity
8
2
62
256
6
ByLayer
370
13
48
1
60
0
100
AcDbLine
10
86.7
20
-8.75
30
0
11
86.7
21
20.75
31
0
39
0
210
0
220
0
230
1
0
LINE
5
2D2
100
AcDbEntity
8
2
62
256
6
ByLayer
370
13
48
1
60
0
100
AcDbLine
10
86.7
20
0
30
0
11
87.117997
21
-3.174998
31
0
39
0
210
0
220
0
230
1
0
LINE
5
2D3
100
AcDbEntity
8
2
62
256
6
ByLayer
370
13
48
1
60
0
100
AcDbLine
10
86.7
20
0
30
0
11
86.282003
21
-3.175002
31
0
39
0
210
0
220
0
230
1
0
LINE
5
2D4
100
AcDbEntity
8
2
62
256
6
ByLayer
370
13
48
1
60
0
100
AcDbLine
10
87.117997
20
-3.174998
30
0
11
86.282003
21
-3.175002
31
0
39
0
210
0
220
0
230
1
0
LINE
5
2D5
100
AcDbEntity
8
2
62
256
6
ByLayer
370
13
48
1
60
0
100
AcDbLine
10
86.7
20
12
30
0
11
86.282003
21
15.174998
31
0
39
0
210
0
220
0
230
1
0
LINE
5
2D6
100
AcDbEntity
8
2
62
256
6
ByLayer
370
13
48
1
60
0
100
AcDbLine
10
86.7
20
12
30
0
11
87.117997
21
15.175002
31
0
39
0
210
0
220
0
230
1
0
LINE
5
2D7
100
AcDbEntity
8
2
62
256
6
ByLayer
370
13
48
1
60
0
100
AcDbLine
10
86.282003
20
15.174998
30
0
11
87.117997
21
15.175002
31
0
39
0
210
0
220
0
230
1
0
ENDBLK
5
2D9
100
AcDbEntity
8
0
100
AcDbBlockEnd
0
BLOCK
5
2DC
100
AcDbEntity
8
0
100
AcDbBlockBegin
2
_CLOSED
70
0
10
0
20
0
30
0
3
_CLOSED
0
LINE
5
2DE
100
AcDbEntity
8
0
62
256
6
ByLayer
370
-2
48
1
60
0
100
AcDbLine
10
-1
20
0.166667
30
0
11
0
21
0
31
0
39
0
210
0
220
0
230
1
0
LINE
5
2DF
100
AcDbEntity
8
0
62
256
6
ByLayer
370
-2
48
1
60
0
100
AcDbLine
10
0
20
0
30
0
11
-1
21
-0.166667
31
0
39
0
210
0
220
0
230
1
0
LINE
5
2E0
100
AcDbEntity
8
0
62
256
6
ByLayer
370
-2
48
1
60
0
100
AcDbLine
10
-1
20
0.166667
30
0
11
-1
21
-0.166667
31
0
39
0
210
0
220
0
230
1
0
LINE
5
2E1
100
AcDbEntity
8
0
62
256
6
ByLayer
370
-2
48
1
60
0
100
AcDbLine
10
0
20
0
30
0
11
-1
21
0
31
0
39
0
210
0
220
0
230
1
0
ENDBLK
5
2DD
100
AcDbEntity
8
0
100
AcDbBlockEnd
0
BLOCK
5
2EE
100
AcDbEntity
8
0
100
AcDbBlockBegin
2
DimnDraft3D2
70
0
10
0
20
0
30
0
3
DimnDraft3D2
0
MTEXT
5
2E3
100
AcDbEntity
8
SK2
62
256
6
ByLayer
370
18
48
1
60
0
100
AcDbMText
10
28.004605
20
35.487462
30
0
210
0
220
0
230
1
1
\W0.6563;61.6
40
3.5
41
0
44
1.084337
50
0
71
7
72
5
7
iso_b_vert
0
LINE
5
2E5
100
AcDbEntity
8
SK2
62
256
6
ByLayer
370
13
48
1
60
0
100
AcDbLine
10
0
20
2
30
0
11
0
21
36.612462
31
0
39
0
210
0
220
0
230
1
0
LINE
5
2E6
100
AcDbEntity
8
SK2
62
256
6
ByLayer
370
13
48
1
60
0
100
AcDbLine
10
61.6
20
14
30
0
11
61.6
21
36.612462
31
0
39
0
210
0
220
0
230
1
0
LINE
5
2E7
100
AcDbEntity
8
SK2
62
256
6
ByLayer
370
13
48
1
60
0
100
AcDbLine
10
0
20
34.612462
30
0
11
61.6
21
34.612462
31
0
39
0
210
0
220
0
230
1
0
LINE
5
2E8
100
AcDbEntity
8
SK2
62
256
6
ByLayer
370
13
48
1
60
0
100
AcDbLine
10
0
20
34.612462
30
0
11
3.174998
21
35.030459
31
0
39
0
210
0
220
0
230
1
0
LINE
5
2E9
100
AcDbEntity
8
SK2
62
256
6
ByLayer
370
13
48
1
60
0
100
AcDbLine
10
0
20
34.612462
30
0
11
3.175002
21
34.194465
31
0
39
0
210
0
220
0
230
1
0
LINE
5
2EA
100
AcDbEntity
8
SK2
62
256
6
ByLayer
370
13
48
1
60
0
100
AcDbLine
10
3.174998
20
35.030459
30
0
11
3.175002
21
34.194465
31
0
39
0
210
0
220
0
230
1
0
LINE
5
2EB
100
AcDbEntity
8
SK2
62
256
6
ByLayer
370
13
48
1
60
0
100
AcDbLine
10
61.6
20
34.612462
30
0
11
58.425002
21
34.194465
31
0
39
0
210
0
220
0
230
1
0
LINE
5
2EC
100
AcDbEntity
8
SK2
62
256
6
ByLayer
370
13
48
1
60
0
100
AcDbLine
10
61.6
20
34.612462
30
0
11
58.424998
21
35.030459
31
0
39
0
210
0
220
0
230
1
0
LINE
5
2ED
100
AcDbEntity
8
SK2
62
256
6
ByLayer
370
13
48
1
60
0
100
AcDbLine
10
58.425002
20
34.194465
30
0
11
58.424998
21
35.030459
31
0
39
0
210
0
220
0
230
1
0
ENDBLK
5
2EF
100
AcDbEntity
8
0
100
AcDbBlockEnd
0
BLOCK
5
2FC
100
AcDbEntity
8
0
100
AcDbBlockBegin
2
DimnDraft3D3
70
0
10
0
20
0
30
0
3
DimnDraft3D3
0
MTEXT
5
2F2
100
AcDbEntity
8
2
62
256
6
ByLayer
370
18
48
1
60
0
100
AcDbMText
10
40.2
20
-13.709469
30
0
210
0
220
0
230
1
1
\W0.7361;40
40
3.5
41
0
44
1.084337
50
0
71
7
72
5
7
iso_b_vert
0
LINE
5
2F3
100
AcDbEntity
8
2
62
256
6
ByLayer
370
13
48
1
60
0
100
AcDbLine
10
61.6
20
10
30
0
11
61.6
21
-16.584469
31
0
39
0
210
0
220
0
230
1
0
LINE
5
2F4
100
AcDbEntity
8
2
62
256
6
ByLayer
370
13
48
1
60
0
100
AcDbLine
10
21.6
20
-2
30
0
11
21.6
21
-16.584469
31
0
39
0
210
0
220
0
230
1
0
LINE
5
2F5
100
AcDbEntity
8
2
62
256
6
ByLayer
370
13
48
1
60
0
100
AcDbLine
10
61.6
20
-14.584469
30
0
11
21.6
21
-14.584469
31
0
39
0
210
0
220
0
230
1
0
LINE
5
2F6
100
AcDbEntity
8
2
62
256
6
ByLayer
370
13
48
1
60
0
100
AcDbLine
10
61.6
20
-14.584469
30
0
11
58.425002
21
-15.002466
31
0
39
0
210
0
220
0
230
1
0
LINE
5
2F7
100
AcDbEntity
8
2
62
256
6
ByLayer
370
13
48
1
60
0
100
AcDbLine
10
61.6
20
-14.584469
30
0
11
58.424998
21
-14.166473
31
0
39
0
210
0
220
0
230
1
0
LINE
5
2F8
100
AcDbEntity
8
2
62
256
6
ByLayer
370
13
48
1
60
0
100
AcDbLine
10
58.425002
20
-15.002466
30
0
11
58.424998
21
-14.166473
31
0
39
0
210
0
220
0
230
1
0
LINE
5
2F9
100
AcDbEntity
8
2
62
256
6
ByLayer
370
13
48
1
60
0
100
AcDbLine
10
21.6
20
-14.584469
30
0
11
24.774998
21
-14.166473
31
0
39
0
210
0
220
0
230
1
0
LINE
5
2FA
100
AcDbEntity
8
2
62
256
6
ByLayer
370
13
48
1
60
0
100
AcDbLine
10
21.6
20
-14.584469
30
0
11
24.775002
21
-15.002466
31
0
39
0
210
0
220
0
230
1
0
LINE
5
2FB
100
AcDbEntity
8
2
62
256
6
ByLayer
370
13
48
1
60
0
100
AcDbLine
10
24.774998
20
-14.166473
30
0
11
24.775002
21
-15.002466
31
0
39
0
210
0
220
0
230
1
0
ENDBLK
5
2FD
100
AcDbEntity
8
0
100
AcDbBlockEnd
0
BLOCK
5
30A
100
AcDbEntity
8
0
100
AcDbBlockBegin
2
DimnDraft3D4
70
0
10
0
20
0
30
0
3
DimnDraft3D4
0
MTEXT
5
300
100
AcDbEntity
8
2
62
256
6
ByLayer
370
18
48
1
60
0
100
AcDbMText
10
78.825
20
9.092105
30
0
210
0
220
0
230
1
1
\W0.5404;6
40
3.5
41
0
44
1.084337
50
90
71
7
72
5
7
iso_b_vert
0
LINE
5
301
100
AcDbEntity
8
2
62
256
6
ByLayer
370
13
48
1
60
0
100
AcDbLine
10
63.6
20
12
30
0
11
81.7
21
12
31
0
39
0
210
0
220
0
230
1
0
LINE
5
302
100
AcDbEntity
8
2
62
256
6
ByLayer
370
13
48
1
60
0
100
AcDbLine
10
63.6
20
6
30
0
11
81.7
21
6
31
0
39
0
210
0
220
0
230
1
0
LINE
5
303
100
AcDbEntity
8
2
62
256
6
ByLayer
370
13
48
1
60
0
100
AcDbLine
10
79.7
20
20.75
30
0
11
79.7
21
-2.75
31
0
39
0
210
0
220
0
230
1
0
LINE
5
304
100
AcDbEntity
8
2
62
256
6
ByLayer
370
13
48
1
60
0
100
AcDbLine
10
79.7
20
12
30
0
11
79.282003
21
15.174998
31
0
39
0
210
0
220
0
230
1
0
LINE
5
305
100
AcDbEntity
8
2
62
256
6
ByLayer
370
13
48
1
60
0
100
AcDbLine
10
79.7
20
12
30
0
11
80.117997
21
15.175002
31
0
39
0
210
0
220
0
230
1
0
LINE
5
306
100
AcDbEntity
8
2
62
256
6
ByLayer
370
13
48
1
60
0
100
AcDbLine
10
79.282003
20
15.174998
30
0
11
80.117997
21
15.175002
31
0
39
0
210
0
220
0
230
1
0
LINE
5
307
100
AcDbEntity
8
2
62
256
6
ByLayer
370
13
48
1
60
0
100
AcDbLine
10
79.7
20
6
30
0
11
80.117997
21
2.825002
31
0
39
0
210
0
220
0
230
1
0
LINE
5
308
100
AcDbEntity
8
2
62
256
6
ByLayer
370
13
48
1
60
0
100
AcDbLine
10
79.7
20
6
30
0
11
79.282003
21
2.824998
31
0
39
0
210
0
220
0
230
1
0
LINE
5
309
100
AcDbEntity
8
2
62
256
6
ByLayer
370
13
48
1
60
0
100
AcDbLine
10
80.117997
20
2.825002
30
0
11
79.282003
21
2.824998
31
0
39
0
210
0
220
0
230
1
0
ENDBLK
5
30B
100
AcDbEntity
8
0
100
AcDbBlockEnd
0
ENDSEC
0
SECTION
2
ENTITIES
0
ELLIPSE
5
13C
100
AcDbEntity
8
1
62
256
6
ByLayer
370
13
48
1
60
0
100
AcDbEllipse
10
59.536428
20
11.280276
30
0
11
0.0344757044900425
21
-0.298012459135378
31
0
210
0
220
0
230
1
40
0.004013
41
-1.53612109567728
42
-0.69639496050823
0
ELLIPSE
5
13D
100
AcDbEntity
8
1
62
256
6
ByLayer
370
13
48
1
60
0
100
AcDbEllipse
10
57.389628
20
11.233555
30
0
11
-0.0230464571345715
21
-0.299113458094992
31
0
210
0
220
0
230
1
40
0.565336
41
0.788535504423588
42
1.58546383862666
0
ELLIPSE
5
13E
100
AcDbEntity
8
1
62
256
6
ByLayer
370
13
48
1
60
0
100
AcDbEllipse
10
59.536428
20
6.719724
30
0
11
0.0344757044900429
21
0.298012459135378
31
0
210
0
220
0
230
1
40
0.004013
41
0.696394960503456
42
1.53612109567714
0
ELLIPSE
5
13F
100
AcDbEntity
8
1
62
256
6
ByLayer
370
13
48
1
60
0
100
AcDbEllipse
10
57.389628
20
6.766445
30
0
11
-0.0230464571345713
21
0.299113458094992
31
0
210
0
220
0
230
1
40
0.565336
41
-1.58546383862666
42
-0.788535504423616
0
ELLIPSE
5
140
100
AcDbEntity
8
1
62
256
6
ByLayer
370
13
48
1
60
0
100
AcDbEllipse
10
56.233727
20
7.673004
30
0
11
0.145654533590935
21
-0.137057494667045
31
0
210
0
220
0
230
1
40
0.824654
41
1.55829671735586
42
2.27615066197099
0
ELLIPSE
5
141
100
AcDbEntity
8
1
62
256
6
ByLayer
370
13
48
1
60
0
100
AcDbEllipse
10
56.233721
20
10.32699
30
0
11
-0.145655094548329
21
-0.137056898520714
31
0
210
0
220
0
230
1
40
0.824655
41
0.865445253601583
42
1.58330062290273
0
ELLIPSE
5
142
100
AcDbEntity
8
1
62
256
6
ByLayer
370
13
48
1
60
0
100
AcDbEllipse
10
55.546601
20
7.625278
30
0
11
0.0356112644714499
21
0.196804059517949
31
0
210
0
220
0
230
1
40
0.337181
41
0.552952312025131
42
1.63173288093478
0
ELLIPSE
5
143
100
AcDbEntity
8
1
62
256
6
ByLayer
370
13
48
1
60
0
100
AcDbEllipse
10
55.546601
20
10.374718
30
0
11
-0.0356101531982815
21
0.19680426059716
31
0
210
0
220
0
230
1
40
0.337181
41
1.50986167657773
42
2.58863944786999
0
ELLIPSE
5
144
100
AcDbEntity
8
1
62
256
6
ByLayer
370
13
48
1
60
0
100
AcDbEllipse
10
55.394567
20
7.656387
30
0
11
-0.0446222323637904
21
-0.194958601705264
31
0
210
0
220
0
230
1
40
0.334374
41
-2.52315165181324
42
-1.49441356325141
0
ELLIPSE
5
145
100
AcDbEntity
8
1
62
256
6
ByLayer
370
13
48
1
60
0
100
AcDbEllipse
10
55.394568
20
10.343611
30
0
11
0.0446208929096927
21
-0.194958908275415
31
0
210
0
220
0
230
1
40
0.334374
41
-1.64717679303883
42
-0.618441579562972
0
ELLIPSE
5
146
100
AcDbEntity
8
1
62
256
6
ByLayer
370
13
48
1
60
0
100
AcDbEllipse
10
55.394568
20
10.343611
30
0
11
-0.189843150463845
21
0.0629251795544686
31
0
210
0
220
0
230
1
40
0.824862
41
0.783492188047234
42
1.83037412070835
0
ELLIPSE
5
147
100
AcDbEntity
8
1
62
256
6
ByLayer
370
13
48
1
60
0
100
AcDbEllipse
10
55.394568
20
10.343611
30
0
11
0.181415923983448
21
0.0841918198237332
31
0
210
0
220
0
230
1
40
0.151449
41
1.88624128123215
42
2.72609499686328
0
ELLIPSE
5
148
100
AcDbEntity
8
1
62
256
6
ByLayer
370
13
48
1
60
0
100
AcDbEllipse
10
55.394567
20
7.656387
30
0
11
-0.181415923982124
21
0.0841918198265856
31
0
210
0
220
0
230
1
40
0.151449
41
0.415497656646189
42
1.25535137230857
0
ELLIPSE
5
149
100
AcDbEntity
8
1
62
256
6
ByLayer
370
13
48
1
60
0
100
AcDbEllipse
10
55.394567
20
7.656387
30
0
11
0.189843211592928
21
0.0629249951297794
31
0
210
0
220
0
230
1
40
0.824861
41
1.31121310851467
42
2.35810126686091
0
ELLIPSE
5
14A
100
AcDbEntity
8
1
62
256
6
ByLayer
370
13
48
1
60
0
100
AcDbEllipse
10
54.818964
20
11.583917
30
0
11
0.195374876975755
21
0.0540538505195381
31
0
210
0
220
0
230
-1
40
0.095151
41
-2.68744170643028
42
-1.90204354301925
0
ELLIPSE
5
14B
100
AcDbEntity
8
1
62
256
6
ByLayer
370
13
48
1
60
0
100
AcDbEllipse
10
54.818964
20
6.416083
30
0
11
0.195374876975255
21
-0.0540538505194467
31
0
210
0
220
0
230
-1
40
0.095151
41
1.90204354301771
42
2.68744170643029
0
ELLIPSE
5
14C
100
AcDbEntity
8
1
62
256
6
ByLayer
370
13
48
1
60
0
100
AcDbEllipse
10
55.395109
20
9.583986
30
0
11
0.196520244347652
21
0.0371455725698103
31
0
210
0
220
0
230
1
40
0.382233
41
-2.69513202135753
42
-1.53760525501864
0
ELLIPSE
5
14D
100
AcDbEntity
8
1
62
256
6
ByLayer
370
13
48
1
60
0
100
AcDbEllipse
10
55.395108
20
8.416014
30
0
11
-0.196520211828147
21
0.0371457446152342
31
0
210
0
220
0
230
1
40
0.382232
41
-1.60399008004379
42
-0.44646029760316
0
ELLIPSE
5
14E
100
AcDbEntity
8
1
62
256
6
ByLayer
370
13
48
1
60
0
100
AcDbEllipse
10
56.317675
20
10.143097
30
0
11
-0.199367740021547
21
-0.0158903819557831
31
0
210
0
220
0
230
1
40
0.789046
41
1.51750942137633
42
2.14132768530239
0
ELLIPSE
5
14F
100
AcDbEntity
8
1
62
256
6
ByLayer
370
13
48
1
60
0
100
AcDbEllipse
10
56.317682
20
7.8569
30
0
11
0.199367879080839
21
-0.0158886371601793
31
0
210
0
220
0
230
1
40
0.789045
41
1.00025908098122
42
1.62407577006624
0
ELLIPSE
5
150
100
AcDbEntity
8
1
62
256
6
ByLayer
370
13
48
1
60
0
100
AcDbEllipse
10
54.818964
20
6.416083
30
0
11
0.199990731987863
21
-0.0330226536470449
31
0
210
0
220
0
230
-1
40
0.058305
41
1.91023508129237
42
2.69563324465088
0
ELLIPSE
5
151
100
AcDbEntity
8
1
62
256
6
ByLayer
370
13
48
1
60
0
100
AcDbEllipse
10
54.818964
20
11.583917
30
0
11
0.199990731969914
21
0.033022653644854
31
0
210
0
220
0
230
-1
40
0.058305
41
-2.69563324464375
42
-1.91023508123524
0
ELLIPSE
5
152
100
AcDbEntity
8
1
62
256
6
ByLayer
370
13
48
1
60
0
100
AcDbEllipse
10
54.683018
20
6.440846
30
0
11
-0.0181929836887898
21
-0.0465726888261718
31
0
210
0
220
0
230
1
40
0.894204
41
-1.55767207624744
42
-1.23473760232676
0
ELLIPSE
5
153
100
AcDbEntity
8
1
62
256
6
ByLayer
370
13
48
1
60
0
100
AcDbEllipse
10
54.683018
20
11.559154
30
0
11
-0.0181929836887866
21
0.0465726888261731
31
0
210
0
220
0
230
1
40
0.894204
41
1.23473760232691
42
1.55767207624758
0
ELLIPSE
5
154
100
AcDbEntity
8
1
62
256
6
ByLayer
370
13
48
1
60
0
100
AcDbEllipse
10
60.539269
20
11.248035
30
0
11
-0.0770752947303412
21
-0.184551886856328
31
0
210
0
220
0
230
1
40
0.173493
41
0.733007810211109
42
1.60596878949836
0
ELLIPSE
5
155
100
AcDbEntity
8
1
62
256
6
ByLayer
370
13
48
1
60
0
100
AcDbEllipse
10
60.539269
20
6.751965
30
0
11
-0.0770752947303411
21
0.184551886856328
31
0
210
0
220
0
230
1
40
0.173493
41
-1.60596878949833
42
-0.733007810211109
0
ELLIPSE
5
156
100
AcDbEntity
8
1
62
256
6
ByLayer
370
13
48
1
60
0
100
AcDbEllipse
10
57.025098
20
9.96828
30
0
11
0.0825713280238043
21
-0.288412856489418
31
0
210
0
220
0
230
1
40
0.558425
41
-2.51294443030665
42
-1.72932944862263
0
ELLIPSE
5
157
100
AcDbEntity
8
1
62
256
6
ByLayer
370
13
48
1
60
0
100
AcDbEllipse
10
57.025098
20
8.03172
30
0
11
0.0825713280238046
21
0.288412856489417
31
0
210
0
220
0
230
1
40
0.558425
41
1.72932944862263
42
2.51294443030666
0
ELLIPSE
5
158
100
AcDbEntity
8
1
62
256
6
ByLayer
370
13
48
1
60
0
100
AcDbEllipse
10
60.478728
20
11.323172
30
0
11
-0.00449393620032683
21
-0.299966339007275
31
0
210
0
220
0
230
1
40
0.224443
41
-1.42518632678388
42
-0.739818792193819
0
ELLIPSE
5
159
100
AcDbEntity
8
1
62
256
6
ByLayer
370
13
48
1
60
0
100
AcDbEllipse
10
56.491168
20
9.891601
30
0
11
-0.122268173255619
21
-0.158273477906862
31
0
210
0
220
0
230
1
40
0.484684
41
1.0844734482001
42
1.92906217311917
0
ELLIPSE
5
15A
100
AcDbEntity
8
1
62
256
6
ByLayer
370
13
48
1
60
0
100
AcDbEllipse
10
56.491173
20
8.108397
30
0
11
0.122268826309626
21
-0.158272973412603
31
0
210
0
220
0
230
1
40
0.484683
41
1.2125284806092
42
2.0571153197321
0
ELLIPSE
5
15B
100
AcDbEntity
8
1
62
256
6
ByLayer
370
13
48
1
60
0
100
AcDbEllipse
10
59.736428
20
11.301456
30
0
11
0.0261610012051277
21
-0.29885715988737
31
0
210
0
220
0
230
1
40
0.003045
41
-1.53602277096674
42
-0.693560700125405
0
ELLIPSE
5
15C
100
AcDbEntity
8
1
62
256
6
ByLayer
370
13
48
1
60
0
100
AcDbEllipse
10
59.736428
20
6.698544
30
0
11
0.0261610012051277
21
0.29885715988737
31
0
210
0
220
0
230
1
40
0.003045
41
0.693560700120159
42
1.53602277096682
0
ELLIPSE
5
15D
100
AcDbEntity
8
1
62
256
6
ByLayer
370
13
48
1
60
0
100
AcDbEllipse
10
60.478728
20
6.676828
30
0
11
-0.00449393620032675
21
0.299966339007275
31
0
210
0
220
0
230
1
40
0.224443
41
0.739818792193668
42
1.42518632678388
0
ELLIPSE
5
15E
100
AcDbEntity
8
1
62
256
6
ByLayer
370
13
48
1
60
0
100
AcDbEllipse
10
57.898594
20
7.829575
30
0
11
0.0475300676839183
21
0.296210892213575
31
0
210
0
220
0
230
1
40
0.247095
41
1.61042446202156
42
2.50923124540553
0
ELLIPSE
5
15F
100
AcDbEntity
8
1
62
256
6
ByLayer
370
13
48
1
60
0
100
AcDbEllipse
10
54.679474
20
11.558479
30
0
11
1.41637461308075E-17
21
0.05
31
0
210
0
220
0
230
1
40
0.906308
41
1.5707963267949
42
1.90677220780387
0
ELLIPSE
5
160
100
AcDbEntity
8
1
62
256
6
ByLayer
370
13
48
1
60
0
100
AcDbEllipse
10
54.679474
20
6.441521
30
0
11
1.41637461308075E-17
21
0.05
31
0
210
0
220
0
230
1
40
0.906308
41
1.23482044578593
42
1.5707963267949
0
ELLIPSE
5
161
100
AcDbEntity
8
1
62
256
6
ByLayer
370
13
48
1
60
0
100
AcDbEllipse
10
57.898594
20
10.170425
30
0
11
0.0475300676839182
21
-0.296210892213575
31
0
210
0
220
0
230
1
40
0.247095
41
-2.50923124540554
42
-1.61042446202158
0
ELLIPSE
5
162
100
AcDbEntity
8
1
62
256
6
ByLayer
370
13
48
1
60
0
100
AcDbEllipse
10
56.738309
20
9.667501
30
0
11
-0.147116653644523
21
-0.13548686364529
31
0
210
0
220
0
230
1
40
0.428574
41
1.29393973964905
42
2.00635086389109
0
ELLIPSE
5
163
100
AcDbEntity
8
1
62
256
6
ByLayer
370
13
48
1
60
0
100
AcDbEllipse
10
56.738309
20
8.332494
30
0
11
0.147116931807192
21
-0.135486561605342
31
0
210
0
220
0
230
1
40
0.428573
41
1.13524090981102
42
1.84765347921685
0
ELLIPSE
5
164
100
AcDbEntity
8
1
62
256
6
ByLayer
370
13
48
1
60
0
100
AcDbEllipse
10
55.560376
20
8.48284
30
0
11
-0.0689676156404999
21
0.187732437242114
31
0
210
0
220
0
230
1
40
0.223087
41
-1.29134485432415
42
-0.148829673704503
0
ELLIPSE
5
165
100
AcDbEntity
8
1
62
256
6
ByLayer
370
13
48
1
60
0
100
AcDbEllipse
10
55.805153
20
8.868114
30
0
11
-0.199848046799084
21
-0.00779475404301651
31
0
210
0
220
0
230
1
40
0.083289
41
-1.6935409724141
42
-0.437958800565596
0
ELLIPSE
5
166
100
AcDbEntity
8
1
62
256
6
ByLayer
370
13
48
1
60
0
100
AcDbEllipse
10
55.560377
20
9.51716
30
0
11
0.0689675934147269
21
0.187732445407236
31
0
210
0
220
0
230
1
40
0.223086
41
-2.9927630062968
42
-1.85025134770706
0
ELLIPSE
5
167
100
AcDbEntity
8
1
62
256
6
ByLayer
370
13
48
1
60
0
100
AcDbEllipse
10
55.805153
20
9.131886
30
0
11
0.199848033790471
21
-0.00779508756094016
31
0
210
0
220
0
230
1
40
0.083293
41
-2.70363371402347
42
-1.44805176546428
0
ELLIPSE
5
168
100
AcDbEntity
8
1
62
256
6
ByLayer
370
13
48
1
60
0
100
AcDbEllipse
10
55.395109
20
9.583986
30
0
11
0.0817083505375211
21
0.182547926453405
31
0
210
0
220
0
230
1
40
0.256764
41
-2.96631956466361
42
-1.86992384235511
0
ELLIPSE
5
169
100
AcDbEntity
8
1
62
256
6
ByLayer
370
13
48
1
60
0
100
AcDbEllipse
10
55.551068
20
9.52058
30
0
11
0.0689885705881151
21
0.187724737656519
31
0
210
0
220
0
230
1
40
0.223794
41
-2.99273803865034
42
-1.85208974570169
0
ELLIPSE
5
16A
100
AcDbEntity
8
1
62
256
6
ByLayer
370
13
48
1
60
0
100
AcDbEllipse
10
55.395108
20
8.416014
30
0
11
-0.0817084005627237
21
0.182547904062143
31
0
210
0
220
0
230
1
40
0.256765
41
-1.27167207778623
42
-0.175273159289782
0
ELLIPSE
5
16B
100
AcDbEntity
8
1
62
256
6
ByLayer
370
13
48
1
60
0
100
AcDbEllipse
10
55.551068
20
8.47942
30
0
11
-0.0689885942162015
21
0.187724728973229
31
0
210
0
220
0
230
1
40
0.223795
41
-1.28950643621435
42
-0.148854643107347
0
ELLIPSE
5
16C
100
AcDbEntity
8
1
62
256
6
ByLayer
370
13
48
1
60
0
100
AcDbEllipse
10
61.430531
20
7.496874
30
0
11
0.160247744810277
21
0.253615181492001
31
0
210
0
220
0
230
1
40
0.323223
41
-1.88751235157067
42
-1.36933681309575
0
ELLIPSE
5
16D
100
AcDbEntity
8
1
62
256
6
ByLayer
370
13
48
1
60
0
100
AcDbEllipse
10
61.21054
20
7.546278
30
0
11
-0.00934290352952681
21
0.29985448163007
31
0
210
0
220
0
230
1
40
0.37445
41
-2.32799563318295
42
-1.58246296899163
0
ELLIPSE
5
16E
100
AcDbEntity
8
1
62
256
6
ByLayer
370
13
48
1
60
0
100
AcDbEllipse
10
61.21054
20
10.453722
30
0
11
-0.00934290352952708
21
-0.29985448163007
31
0
210
0
220
0
230
1
40
0.37445
41
1.58246296899163
42
2.32799563318289
0
ELLIPSE
5
16F
100
AcDbEntity
8
1
62
256
6
ByLayer
370
13
48
1
60
0
100
AcDbEllipse
10
61.430531
20
10.503126
30
0
11
0.160247744810277
21
-0.253615181492001
31
0
210
0
220
0
230
1
40
0.323223
41
1.36933681309578
42
1.88751235157061
0
ELLIPSE
5
170
100
AcDbEntity
8
1
62
256
6
ByLayer
370
13
48
1
60
0
100
AcDbEllipse
10
61.547855
20
7.425013
30
0
11
0.149040840011555
21
0.26035903673322
31
0
210
0
220
0
230
1
40
0.070614
41
-1.79230411601783
42
-1.53039607364755
0
ELLIPSE
5
171
100
AcDbEntity
8
1
62
256
6
ByLayer
370
13
48
1
60
0
100
AcDbEllipse
10
61.547855
20
10.574987
30
0
11
0.149040840011555
21
-0.26035903673322
31
0
210
0
220
0
230
1
40
0.070614
41
1.53039607364757
42
1.79230411601785
0
ELLIPSE
5
172
100
AcDbEntity
8
1
62
256
6
ByLayer
370
13
48
1
60
0
100
AcDbEllipse
10
61.562359
20
10.583575
30
0
11
0.15877234148459
21
-0.254541437843626
31
0
210
0
220
0
230
1
40
0.050686
41
1.56451084021991
42
1.77698417590506
0
ELLIPSE
5
173
100
AcDbEntity
8
1
62
256
6
ByLayer
370
13
48
1
60
0
100
AcDbEllipse
10
61.562359
20
7.416425
30
0
11
0.158772341484591
21
0.254541437843626
31
0
210
0
220
0
230
1
40
0.050686
41
-1.77698417590519
42
-1.56451084021991
0
ELLIPSE
5
174
100
AcDbEntity
8
1
62
256
6
ByLayer
370
13
48
1
60
0
100
AcDbEllipse
10
62.45521
20
7.425013
30
0
11
0.857470910984174
21
8.98016064949983E-09
31
0
210
0
220
0
230
-1
40
0.466488
41
3.1072159762958
42
-3.14159264870557
0
ELLIPSE
5
175
100
AcDbEntity
8
1
62
256
6
ByLayer
370
13
48
1
60
0
100
AcDbEllipse
10
61.580891
20
7.407828
30
0
11
0.0998194591515971
21
0.00600629458840055
31
0
210
0
220
0
230
1
40
0.02426
41
1.39458928037302
42
1.61576796719746
0
ELLIPSE
5
176
100
AcDbEntity
8
1
62
256
6
ByLayer
370
13
48
1
60
0
100
AcDbEllipse
10
61.580891
20
10.592172
30
0
11
0.0998194591515971
21
-0.00600629458840042
31
0
210
0
220
0
230
1
40
0.02426
41
-1.61576796719762
42
-1.39458928037274
0
ELLIPSE
5
177
100
AcDbEntity
8
1
62
256
6
ByLayer
370
13
48
1
60
0
100
AcDbEllipse
10
62.45521
20
10.574987
30
0
11
0.857470938978506
21
-9.25682098565049E-09
31
0
210
0
220
0
230
-1
40
0.466488
41
3.14159264855509
42
-3.10721597700752
0
ELLIPSE
5
178
100
AcDbEntity
8
1
62
256
6
ByLayer
370
13
48
1
60
0
100
AcDbEllipse
10
60.622653
20
10.469281
30
0
11
-0.00304278008350742
21
-0.299984568752067
31
0
210
0
220
0
230
1
40
0.37459
41
1.5745958208753
42
2.3520545023261
0
ELLIPSE
5
179
100
AcDbEntity
8
1
62
256
6
ByLayer
370
13
48
1
60
0
100
AcDbEllipse
10
60.622653
20
7.530719
30
0
11
-0.00304278008350722
21
0.299984568752067
31
0
210
0
220
0
230
1
40
0.37459
41
-2.35205450232603
42
-1.5745958208753
0
ELLIPSE
5
17A
100
AcDbEntity
8
1
62
256
6
ByLayer
370
13
48
1
60
0
100
AcDbEllipse
10
60.066686
20
7.522572
30
0
11
-0.000603333593996458
21
0.299999393313677
31
0
210
0
220
0
230
1
40
0.176047
41
-2.42323398494306
42
-1.57115037716842
0
ELLIPSE
5
17B
100
AcDbEntity
8
1
62
256
6
ByLayer
370
13
48
1
60
0
100
AcDbEllipse
10
60.066686
20
10.477428
30
0
11
-0.000603333593996598
21
-0.299999393313677
31
0
210
0
220
0
230
1
40
0.176047
41
1.57115037716842
42
2.42323398494306
0
ELLIPSE
5
17C
100
AcDbEntity
8
1
62
256
6
ByLayer
370
13
48
1
60
0
100
AcDbEllipse
10
59.7994
20
10.453055
30
0
11
0.0450980026263403
21
-0.296590913817525
31
0
210
0
220
0
230
1
40
0.079678
41
1.55868151923577
42
2.44833311311462
0
ELLIPSE
5
17D
100
AcDbEntity
8
1
62
256
6
ByLayer
370
13
48
1
60
0
100
AcDbEllipse
10
59.7994
20
7.546945
30
0
11
0.0450980026263406
21
0.296590913817525
31
0
210
0
220
0
230
1
40
0.079678
41
-2.44833311311462
42
-1.55868151923577
0
ELLIPSE
5
17E
100
AcDbEntity
8
1
62
256
6
ByLayer
370
18
48
1
60
0
100
AcDbEllipse
10
56.356455
20
9
30
0
11
2.67247405785796
21
0.988910003686882
31
0
210
0
220
0
230
-1
40
0.055572
41
-2.1129328878603
42
-2.03810829882288
0
ELLIPSE
5
17F
100
AcDbEntity
8
1
62
256
6
ByLayer
370
18
48
1
60
0
100
AcDbEllipse
10
55.451278
20
9
30
0
11
0.44360353203599
21
-0.985188736425789
31
0
210
0
220
0
230
-1
40
0.386547
41
2.20181390687704
42
2.7127998802947
0
ELLIPSE
5
180
100
AcDbEntity
8
1
62
256
6
ByLayer
370
18
48
1
60
0
100
AcDbEllipse
10
56.356455
20
9
30
0
11
2.6724741281356
21
-0.988910026655869
31
0
210
0
220
0
230
-1
40
0.055572
41
2.03810830889955
42
2.11293289637829
0
ELLIPSE
5
181
100
AcDbEntity
8
1
62
256
6
ByLayer
370
18
48
1
60
0
100
AcDbEllipse
10
55.451278
20
9
30
0
11
0.443603532075121
21
0.985188736473066
31
0
210
0
220
0
230
-1
40
0.386547
41
-2.71279988030956
42
-2.20181390690902
0
ELLIPSE
5
182
100
AcDbEntity
8
1
62
256
6
ByLayer
370
18
48
1
60
0
100
AcDbEllipse
10
55.63192
20
9
30
0
11
-6.1230317691275E-17
21
1.00000000000255
31
0
210
0
220
0
230
-1
40
0.451247
41
-1.74550750766446
42
-1.39608514592519
0
ELLIPSE
5
183
100
AcDbEntity
8
1
62
256
6
ByLayer
370
18
48
1
60
0
100
AcDbEllipse
10
53.752588
20
9
30
0
11
2.01022273814868
21
2.03160960858766E-15
31
0
210
0
220
0
230
-1
40
0.497457
41
0.969678448663185
42
-0.969678448663138
0
ELLIPSE
5
184
100
AcDbEntity
8
1
62
256
6
ByLayer
370
18
48
1
60
0
100
AcDbEllipse
10
60.467963
20
11.944226
30
0
11
0.299993003501551
21
0.0212470571942227
31
0
210
0
220
0
230
-1
40
0.09643
41
-1.78738101634703
42
-1.38953797936441
0
ELLIPSE
5
185
100
AcDbEntity
8
1
62
256
6
ByLayer
370
18
48
1
60
0
100
AcDbEllipse
10
61.648816
20
10.574987
30
0
11
1.48657828535933E-08
21
-0.400003552493046
31
0
210
0
220
0
230
-1
40
0.122038
41
1.57079663134896
42
1.60517302259677
0
ELLIPSE
5
186
100
AcDbEntity
8
1
62
256
6
ByLayer
370
18
48
1
60
0
100
AcDbEllipse
10
61.588393
20
7.284097
30
0
11
0.00673528155738217
21
-1.76163822631737
31
0
210
0
220
0
230
-1
40
0.006898
41
-1.62489862391668
42
-1.60936832172247
0
ELLIPSE
5
187
100
AcDbEntity
8
1
62
256
6
ByLayer
370
18
48
1
60
0
100
AcDbEllipse
10
61.588352
20
10.716184
30
0
11
0.00674495173617593
21
1.76467474355359
31
0
210
0
220
0
230
-1
40
0.00691
41
1.60946125131398
42
1.62496488696274
0
ELLIPSE
5
188
100
AcDbEntity
8
1
62
256
6
ByLayer
370
18
48
1
60
0
100
AcDbEllipse
10
57.305211
20
11.9
30
0
11
0.203674870635643
21
2.49421540694359E-17
31
0
210
0
220
0
230
-1
40
0.981957
41
1.03927776944692
42
1.5707963267949
0
ELLIPSE
5
189
100
AcDbEntity
8
1
62
256
6
ByLayer
370
18
48
1
60
0
100
AcDbEllipse
10
60.467963
20
6.055774
30
0
11
0.299993003512679
21
-0.0212470571949315
31
0
210
0
220
0
230
-1
40
0.09643
41
1.38953797937387
42
1.78738101634159
0
ELLIPSE
5
18A
100
AcDbEntity
8
1
62
256
6
ByLayer
370
18
48
1
60
0
100
AcDbEllipse
10
57.305211
20
6.1
30
0
11
-0.203674870635643
21
0
31
-3.19189119579732E-16
210
1.56715022615988E-15
220
0
230
-1
40
0.981957
41
1.5707963267949
42
2.10231488414288
0
ELLIPSE
5
18B
100
AcDbEntity
8
1
62
256
6
ByLayer
370
18
48
1
60
0
100
AcDbEllipse
10
61.648816
20
7.425013
30
0
11
1.48389686128035E-08
21
0.400003545962063
31
0
210
0
220
0
230
-1
40
0.122038
41
-1.60517302260863
42
-1.57079663079965
0
POINT
5
6C
100
AcDbEntity
8
81
62
256
6
ByLayer
370
18
48
1
60
0
100
AcDbPoint
10
61.6
20
12
30
0
39
0
210
0
220
0
230
1
50
360
0
POINT
5
6E
100
AcDbEntity
8
80
62
256
6
ByLayer
370
18
48
1
60
0
100
AcDbPoint
10
0
20
0
30
0
39
0
210
0
220
0
230
1
50
360
0
SPLINE
5
18C
100
AcDbEntity
8
1
62
256
6
ByLayer
370
13
48
1
60
0
100
AcDbSpline
70
4
71
3
72
8
73
4
40
0
40
0
40
0
40
0
40
1
40
1
40
1
40
1
41
1
10
56.4359016088517
20
10.0192841080919
30
0
41
1
10
56.4282987682253
20
10.0938259968271
30
0
41
1
10
56.3954578468316
20
10.1569372121204
30
0
41
1
10
56.3485584035406
20
10.2085978495645
30
0
0
SPLINE
5
18D
100
AcDbEntity
8
1
62
256
6
ByLayer
370
13
48
1
60
0
100
AcDbSpline
70
4
71
3
72
12
73
8
40
0
40
0
40
0
40
0
40
0.160969670350478
40
0.160969670350478
40
0.981933655007004
40
0.981933655007004
40
1
40
1
40
1
40
1
41
1
10
56.3485584035403
20
10.2085978495643
30
0
41
1
10
56.4024700593704
20
10.2619159441098
30
0
41
1
10
56.45758824643
20
10.3140489755672
30
0
41
1
10
56.7988536829987
20
10.6209142787543
30
0
41
1
10
57.1237749365966
20
10.8389076528688
30
0
41
1
10
57.4778861535159
20
11.0062554840136
30
0
41
1
10
57.4856025044902
20
11.0098749196085
30
0
41
1
10
57.4933288758356
20
11.0134727379301
30
0
0
SPLINE
5
18E
100
AcDbEntity
8
1
62
256
6
ByLayer
370
13
48
1
60
0
100
AcDbSpline
70
4
71
3
72
10
73
6
40
0
40
0
40
0
40
0
40
0.51838227864566
40
0.51838227864566
40
1
40
1
40
1
40
1
41
1
10
57.4933288758355
20
11.01347273793
30
0
41
1
10
57.7963426277498
20
10.9775168645501
30
0
41
1
10
58.1489274122891
20
10.9961317075904
30
0
41
1
10
58.8521911215131
20
11.0090600892499
30
0
41
1
10
59.210767528871
20
11.0122271834532
30
0
41
1
10
59.5621095645939
20
11.0515638185442
30
0
0
SPLINE
5
18F
100
AcDbEntity
8
1
62
256
6
ByLayer
370
13
48
1
60
0
100
AcDbSpline
70
4
71
3
72
8
73
4
40
0
40
0
40
0
40
0
40
1
40
1
40
1
40
1
41
1
10
59.5621095645939
20
11.0515638185442
30
0
41
1
10
59.6266681717127
20
11.0587918701635
30
0
41
1
10
59.6912502214357
20
11.0659183500111
30
0
41
1
10
59.755963685526
20
11.0715914032153
30
0
0
SPLINE
5
190
100
AcDbEntity
8
1
62
256
6
ByLayer
370
13
48
1
60
0
100
AcDbSpline
70
4
71
3
72
8
73
4
40
0
40
0
40
0
40
0
40
1
40
1
40
1
40
1
41
1
10
59.755963685526
20
11.0715914032152
30
0
41
1
10
59.9820343342518
20
11.0914097027942
30
0
41
1
10
60.2101060020603
20
11.100821952412
30
0
41
1
10
60.4300209264768
20
11.1022992954735
30
0
0
SPLINE
5
191
100
AcDbEntity
8
1
62
256
6
ByLayer
370
13
48
1
60
0
100
AcDbSpline
70
4
71
3
72
8
73
4
40
0
40
0
40
0
40
0
40
1
40
1
40
1
40
1
41
1
10
60.4300209264767
20
11.1022992954735
30
0
41
1
10
60.4544812091951
20
11.102463614603
30
0
41
1
10
60.4789484763173
20
11.1023464078042
30
0
41
1
10
60.5034132847063
20
11.1019349695431
30
0
0
SPLINE
5
192
100
AcDbEntity
8
1
62
256
6
ByLayer
370
13
48
1
60
0
100
AcDbSpline
70
4
71
3
72
10
73
6
40
0
40
0
40
0
40
0
40
0.570501669014028
40
0.570501669014028
40
1
40
1
40
1
40
1
41
1
10
60.5034132847052
20
11.1019349695476
30
0
41
1
10
60.6626475529976
20
11.0346089631924
30
0
41
1
10
60.8142113386963
20
10.94940987463
30
0
41
1
10
61.0764810300831
20
10.7955841696804
30
0
41
1
10
61.187817795101
20
10.7268219486632
30
0
41
1
10
61.2985587777237
20
10.6571462585063
30
0
0
SPLINE
5
193
100
AcDbEntity
8
1
62
256
6
ByLayer
370
13
48
1
60
0
100
AcDbSpline
70
4
71
3
72
8
73
4
40
0
40
0
40
0
40
0
40
1
40
1
40
1
40
1
41
1
10
61.298558777725
20
10.6571462585151
30
0
41
1
10
61.1010010686877
20
10.6643677183341
30
0
41
1
10
60.9039447417109
20
10.671501595395
30
0
41
1
10
60.7045819300008
20
10.6797124775773
30
0
0
SPLINE
5
194
100
AcDbEntity
8
1
62
256
6
ByLayer
370
13
48
1
60
0
100
AcDbSpline
70
4
71
3
72
10
73
6
40
0
40
0
40
0
40
0
40
0.0684120488039617
40
0.0684120488039617
40
1
40
1
40
1
40
1
41
1
10
60.7045819300008
20
10.6797124775773
30
0
41
1
10
60.6912082692696
20
10.6802632801652
30
0
41
1
10
60.677798766632
20
10.6808160840654
30
0
41
1
10
60.4821298896841
20
10.6887603082082
30
0
41
1
10
60.2934664393741
20
10.6963187464796
30
0
41
1
10
60.1018995872127
20
10.703223645729
30
0
0
SPLINE
5
195
100
AcDbEntity
8
1
62
256
6
ByLayer
370
13
48
1
60
0
100
AcDbSpline
70
4
71
3
72
10
73
6
40
0
40
0
40
0
40
0
40
0.468044400024023
40
0.468044400024023
40
1
40
1
40
1
40
1
41
1
10
60.1018995872126
20
10.703223645729
30
0
41
1
10
60.0517560104036
20
10.705031037467
30
0
41
1
10
60.0013033339733
20
10.7046965348585
30
0
41
1
10
59.8937177499152
20
10.698930176741
30
0
41
1
10
59.836597536762
20
10.6918663903991
30
0
41
1
10
59.779814138327
20
10.683478986657
30
0
0
SPLINE
5
196
100
AcDbEntity
8
1
62
256
6
ByLayer
370
13
48
1
60
0
100
AcDbSpline
70
4
71
3
72
12
73
8
40
0
40
0
40
0
40
0
40
0.0470115153722379
40
0.0470115153722379
40
0.465115903096302
40
0.465115903096302
40
1
40
1
40
1
40
1
41
1
10
59.779814138327
20
10.683478986657
30
0
41
1
10
59.7761082124741
20
10.682931589051
30
0
41
1
10
59.7724015800766
20
10.6823852278446
30
0
41
1
10
59.7357276585558
20
10.6769892599278
30
0
41
1
10
59.7027049262585
20
10.6722101266301
30
0
41
1
10
59.6274164309494
20
10.661223415389
30
0
41
1
10
59.5851810589734
20
10.6546879018027
30
0
41
1
10
59.5428619713803
20
10.6487418797784
30
0
0
SPLINE
5
197
100
AcDbEntity
8
1
62
256
6
ByLayer
370
13
48
1
60
0
100
AcDbSpline
70
4
71
3
72
12
73
8
40
0
40
0
40
0
40
0
40
0.590022741903274
40
0.590022741903274
40
0.970641250406561
40
0.970641250406561
40
1
40
1
40
1
40
1
41
1
10
59.5428619713803
20
10.6487418797784
30
0
41
1
10
59.3448099475356
20
10.6209146802165
30
0
41
1
10
59.1467439547592
20
10.5931283705205
30
0
41
1
10
58.8208968260383
20
10.5475409721336
30
0
41
1
10
58.693087344226
20
10.5297285174004
30
0
41
1
10
58.555454743904
20
10.5107448503999
30
0
41
1
10
58.5456021400096
20
10.5093538773743
30
0
41
1
10
58.5357561156092
20
10.5079168405859
30
0
0
SPLINE
5
198
100
AcDbEntity
8
1
62
256
6
ByLayer
370
13
48
1
60
0
100
AcDbSpline
70
4
71
3
72
10
73
6
40
0
40
0
40
0
40
0
40
0.0961233254681772
40
0.0961233254681772
40
1
40
1
40
1
40
1
41
1
10
58.5357561156092
20
10.5079168405859
30
0
41
1
10
58.5123664859308
20
10.504503101502
30
0
41
1
10
58.4889831583807
20
10.501077346658
30
0
41
1
10
58.2470954639657
20
10.4656301870603
30
0
41
1
10
58.0281259949603
20
10.4341877605831
30
0
41
1
10
57.8169946393813
20
10.4024168292501
30
0
0
SPLINE
5
199
100
AcDbEntity
8
1
62
256
6
ByLayer
370
13
48
1
60
0
100
AcDbSpline
70
4
71
3
72
12
73
8
40
0
40
0
40
0
40
0
40
0.33359647415066
40
0.33359647415066
40
0.666225407146582
40
0.666225407146582
40
1
40
1
40
1
40
1
41
1
10
57.8169946393812
20
10.4024168292501
30
0
41
1
10
57.7029555215888
20
10.3852562849495
30
0
41
1
10
57.590857756795
20
10.3647153827384
30
0
41
1
10
57.3727874682058
20
10.318396978673
30
0
41
1
10
57.2664519302231
20
10.2925255533262
30
0
41
1
10
57.0601968156913
20
10.2364617836522
30
0
41
1
10
56.9602732084933
20
10.2054083731606
30
0
41
1
10
56.8636021854569
20
10.1744395563315
30
0
0
SPLINE
5
19A
100
AcDbEntity
8
1
62
256
6
ByLayer
370
13
48
1
60
0
100
AcDbSpline
70
4
71
3
72
8
73
4
40
0
40
0
40
0
40
0
40
1
40
1
40
1
40
1
41
1
10
56.863602185457
20
10.1744395563315
30
0
41
1
10
56.7195966594487
20
10.1283070068119
30
0
41
1
10
56.5767816280717
20
10.0765121951001
30
0
41
1
10
56.4359016088488
20
10.0192841080841
30
0
0
SPLINE
5
19B
100
AcDbEntity
8
1
62
256
6
ByLayer
370
13
48
1
60
0
100
AcDbSpline
70
4
71
3
72
10
73
6
40
0
40
0
40
0
40
0
40
0.87060552001054
40
0.87060552001054
40
1
40
1
40
1
40
1
41
1
10
56.3485642137408
20
7.79139640421411
30
0
41
1
10
56.3894126106609
20
7.83639135272654
30
0
41
1
10
56.419665025519
20
7.88977584510161
30
0
41
1
10
56.4334978291681
20
7.96134571562729
30
0
41
1
10
56.4349105065332
20
7.97092952517059
30
0
41
1
10
56.4359082989303
20
7.98071317428057
30
0
0
SPLINE
5
19C
100
AcDbEntity
8
1
62
256
6
ByLayer
370
13
48
1
60
0
100
AcDbSpline
70
4
71
3
72
8
73
4
40
0
40
0
40
0
40
0
40
1
40
1
40
1
40
1
41
1
10
56.863602185457
20
7.82556044366856
30
0
41
1
10
56.7195989377398
20
7.87169226333165
30
0
41
1
10
56.5767861477317
20
7.92348616494473
30
0
41
1
10
56.4359082989291
20
7.98071317428543
30
0
0
SPLINE
5
19D
100
AcDbEntity
8
1
62
256
6
ByLayer
370
13
48
1
60
0
100
AcDbSpline
70
4
71
3
72
12
73
8
40
0
40
0
40
0
40
0
40
0.33359647415066
40
0.33359647415066
40
0.666225407146582
40
0.666225407146582
40
1
40
1
40
1
40
1
41
1
10
57.8169946393812
20
7.59758317074994
30
0
41
1
10
57.7029555215888
20
7.61474371505054
30
0
41
1
10
57.590857756795
20
7.63528461726162
30
0
41
1
10
57.3727874682058
20
7.68160302132711
30
0
41
1
10
57.2664519302231
20
7.70747444667378
30
0
41
1
10
57.0601968156913
20
7.76353821634782
30
0
41
1
10
56.9602732084933
20
7.79459162683941
30
0
41
1
10
56.8636021854569
20
7.82556044366856
30
0
0
SPLINE
5
19E
100
AcDbEntity
8
1
62
256
6
ByLayer
370
13
48
1
60
0
100
AcDbSpline
70
4
71
3
72
10
73
6
40
0
40
0
40
0
40
0
40
0.0961233254681772
40
0.0961233254681772
40
1
40
1
40
1
40
1
41
1
10
58.5357561156092
20
7.49208315941416
30
0
41
1
10
58.5123664859308
20
7.495496898498
30
0
41
1
10
58.4889831583807
20
7.49892265334205
30
0
41
1
10
58.2470954639657
20
7.53436981293979
30
0
41
1
10
58.0281259949603
20
7.56581223941694
30
0
41
1
10
57.8169946393813
20
7.59758317074997
30
0
0
SPLINE
5
19F
100
AcDbEntity
8
1
62
256
6
ByLayer
370
13
48
1
60
0
100
AcDbSpline
70
4
71
3
72
12
73
8
40
0
40
0
40
0
40
0
40
0.590022741903274
40
0.590022741903274
40
0.970641250406561
40
0.970641250406561
40
1
40
1
40
1
40
1
41
1
10
59.5428619713803
20
7.35125812022162
30
0
41
1
10
59.3448099475356
20
7.37908531978354
30
0
41
1
10
59.1467439547592
20
7.40687162947955
30
0
41
1
10
58.8208968260383
20
7.45245902786638
30
0
41
1
10
58.693087344226
20
7.47027148259966
30
0
41
1
10
58.555454743904
20
7.48925514960013
30
0
41
1
10
58.5456021400096
20
7.49064612262572
30
0
41
1
10
58.5357561156092
20
7.49208315941416
30
0
0
SPLINE
5
1A0
100
AcDbEntity
8
1
62
256
6
ByLayer
370
13
48
1
60
0
100
AcDbSpline
70
4
71
3
72
12
73
8
40
0
40
0
40
0
40
0
40
0.0470115153722379
40
0.0470115153722379
40
0.465115903096302
40
0.465115903096302
40
1
40
1
40
1
40
1
41
1
10
59.779814138327
20
7.31652101334302
30
0
41
1
10
59.7761082124741
20
7.31706841094908
30
0
41
1
10
59.7724015800766
20
7.31761477215548
30
0
41
1
10
59.7357276585558
20
7.32301074007225
30
0
41
1
10
59.7027049262585
20
7.32778987336999
30
0
41
1
10
59.6274164309494
20
7.33877658461103
30
0
41
1
10
59.5851810589734
20
7.34531209819735
30
0
41
1
10
59.5428619713803
20
7.35125812022162
30
0
0
SPLINE
5
1A1
100
AcDbEntity
8
1
62
256
6
ByLayer
370
13
48
1
60
0
100
AcDbSpline
70
4
71
3
72
10
73
6
40
0
40
0
40
0
40
0
40
0.468044400024023
40
0.468044400024023
40
1
40
1
40
1
40
1
41
1
10
60.1018995872126
20
7.29677635427109
30
0
41
1
10
60.0517560104036
20
7.29496896253306
30
0
41
1
10
60.0013033339733
20
7.29530346514159
30
0
41
1
10
59.8937177499152
20
7.30106982325907
30
0
41
1
10
59.836597536762
20
7.30813360960093
30
0
41
1
10
59.779814138327
20
7.31652101334302
30
0
0
SPLINE
5
1A2
100
AcDbEntity
8
1
62
256
6
ByLayer
370
13
48
1
60
0
100
AcDbSpline
70
4
71
3
72
10
73
6
40
0
40
0
40
0
40
0
40
0.0684120488039617
40
0.0684120488039617
40
1
40
1
40
1
40
1
41
1
10
60.7045819300008
20
7.32028752242272
30
0
41
1
10
60.6912082692696
20
7.31973671983485
30
0
41
1
10
60.677798766632
20
7.31918391593467
30
0
41
1
10
60.4821298896841
20
7.31123969179183
30
0
41
1
10
60.2934664393741
20
7.30368125352049
30
0
41
1
10
60.1018995872127
20
7.29677635427109
30
0
0
SPLINE
5
1A3
100
AcDbEntity
8
1
62
256
6
ByLayer
370
13
48
1
60
0
100
AcDbSpline
70
4
71
3
72
8
73
4
40
0
40
0
40
0
40
0
40
1
40
1
40
1
40
1
41
1
10
61.298558777725
20
7.34285374148496
30
0
41
1
10
61.1010010686877
20
7.33563228166599
30
0
41
1
10
60.9039447417109
20
7.32849840460503
30
0
41
1
10
60.7045819300008
20
7.32028752242272
30
0
0
SPLINE
5
1A4
100
AcDbEntity
8
1
62
256
6
ByLayer
370
13
48
1
60
0
100
AcDbSpline
70
4
71
3
72
10
73
6
40
0
40
0
40
0
40
0
40
0.570501669014028
40
0.570501669014028
40
1
40
1
40
1
40
1
41
1
10
60.5034132847052
20
6.8980650304525
30
0
41
1
10
60.6626475529976
20
6.96539103680763
30
0
41
1
10
60.8142113386963
20
7.05059012537004
30
0
41
1
10
61.0764810300831
20
7.20441583031962
30
0
41
1
10
61.187817795101
20
7.27317805133688
30
0
41
1
10
61.2985587777237
20
7.34285374149374
30
0
0
SPLINE
5
1A5
100
AcDbEntity
8
1
62
256
6
ByLayer
370
13
48
1
60
0
100
AcDbSpline
70
4
71
3
72
8
73
4
40
0
40
0
40
0
40
0
40
1
40
1
40
1
40
1
41
1
10
60.4300209264767
20
6.89770070452659
30
0
41
1
10
60.4544812091951
20
6.89753638539702
30
0
41
1
10
60.4789484763173
20
6.89765359219589
30
0
41
1
10
60.5034132847063
20
6.89806503045696
30
0
0
SPLINE
5
1A6
100
AcDbEntity
8
1
62
256
6
ByLayer
370
13
48
1
60
0
100
AcDbSpline
70
4
71
3
72
8
73
4
40
0
40
0
40
0
40
0
40
1
40
1
40
1
40
1
41
1
10
59.755963685526
20
6.92840859678478
30
0
41
1
10
59.9820343342518
20
6.90859029720585
30
0
41
1
10
60.2101060020603
20
6.89917804758809
30
0
41
1
10
60.4300209264768
20
6.89770070452659
30
0
0
SPLINE
5
1A7
100
AcDbEntity
8
1
62
256
6
ByLayer
370
13
48
1
60
0
100
AcDbSpline
70
4
71
3
72
8
73
4
40
0
40
0
40
0
40
0
40
1
40
1
40
1
40
1
41
1
10
59.5621095645939
20
6.94843618145583
30
0
41
1
10
59.6266681717127
20
6.94120812983655
30
0
41
1
10
59.6912502214357
20
6.934081649989
30
0
41
1
10
59.755963685526
20
6.92840859678478
30
0
0
SPLINE
5
1A8
100
AcDbEntity
8
1
62
256
6
ByLayer
370
13
48
1
60
0
100
AcDbSpline
70
4
71
3
72
10
73
6
40
0
40
0
40
0
40
0
40
0.51838227864566
40
0.51838227864566
40
1
40
1
40
1
40
1
41
1
10
57.4933288758355
20
6.98652726207007
30
0
41
1
10
57.7963426277498
20
7.02248313544996
30
0
41
1
10
58.1489274122891
20
7.00386829240966
30
0
41
1
10
58.8521911215131
20
6.99093991075017
30
0
41
1
10
59.210767528871
20
6.98777281654691
30
0
41
1
10
59.5621095645939
20
6.94843618145583
30
0
0
SPLINE
5
1A9
100
AcDbEntity
8
1
62
256
6
ByLayer
370
13
48
1
60
0
100
AcDbSpline
70
4
71
3
72
12
73
8
40
0
40
0
40
0
40
0
40
0.160964815992481
40
0.160964815992481
40
0.981933550480977
40
0.981933550480977
40
1
40
1
40
1
40
1
41
1
10
56.3485642137406
20
7.79139640421431
30
0
41
1
10
56.4024740187669
20
7.73808031085699
30
0
41
1
10
56.4575902714035
20
7.68594920358012
30
0
41
1
10
56.7988536829987
20
7.37908572124573
30
0
41
1
10
57.1237749365966
20
7.16109234713122
30
0
41
1
10
57.4778861535159
20
6.99374451598649
30
0
41
1
10
57.4856025044902
20
6.99012508039158
30
0
41
1
10
57.4933288758356
20
6.98652726206996
30
0
0
SPLINE
5
1AA
100
AcDbEntity
8
1
62
256
6
ByLayer
370
13
48
1
60
0
100
AcDbSpline
70
4
71
3
72
14
73
10
40
0
40
0
40
0
40
0
40
0.46187092196456
40
0.46187092196456
40
0.784900183824898
40
0.784900183824898
40
0.964711008576954
40
0.964711008576954
40
1
40
1
40
1
40
1
41
1
10
56.7539525182228
20
9.56981832827552
30
0
41
1
10
56.8284643702332
20
9.50119344460489
30
0
41
1
10
56.9025028669998
20
9.42768460081859
30
0
41
1
10
57.0134603247843
20
9.28660914062988
30
0
41
1
10
57.0559337259584
20
9.2226318332572
30
0
41
1
10
57.0988972131726
20
9.11177062901783
30
0
41
1
10
57.1095547742977
20
9.06890261578192
30
0
41
1
10
57.1130464995453
20
9.01718161958658
30
0
41
1
10
57.1133357765146
20
9.00856272048472
30
0
41
1
10
57.1133346813239
20
8.9999498076335
30
0
0
SPLINE
5
1AB
100
AcDbEntity
8
1
62
256
6
ByLayer
370
13
48
1
60
0
100
AcDbSpline
70
4
71
3
72
12
73
8
40
0
40
0
40
0
40
0
40
0.17060963201422
40
0.17060963201422
40
0.423062344273913
40
0.423062344273913
40
1
40
1
40
1
40
1
41
1
10
57.113334681324
20
8.9999498076335
30
0
41
1
10
57.1133294570519
20
8.95886453990917
30
0
41
1
10
57.1062569401512
20
8.91735474001038
30
0
41
1
10
57.0760172652894
20
8.82120022177142
30
0
41
1
10
57.0470853575982
20
8.76786343458215
30
0
41
1
10
56.9402394690949
20
8.60861843356903
30
0
41
1
10
56.8467586441423
20
8.51565105612642
30
0
41
1
10
56.7539521270621
20
8.43017648493068
30
0
0
SPLINE
5
1AC
100
AcDbEntity
8
1
62
256
6
ByLayer
370
13
48
1
60
0
100
AcDbSpline
70
4
71
3
72
8
73
4
40
0
40
0
40
0
40
0
40
1
40
1
40
1
40
1
41
1
10
56.7539521270621
20
8.43017648493068
30
0
41
1
10
56.6746745585376
20
8.35716204167528
30
0
41
1
10
56.5894091098929
20
8.29300464150035
30
0
41
1
10
56.5018459660846
20
8.23476051650403
30
0
0
SPLINE
5
1AD
100
AcDbEntity
8
1
62
256
6
ByLayer
370
13
48
1
60
0
100
AcDbSpline
70
4
71
3
72
12
73
8
40
0
40
0
40
0
40
0
40
0.0772090170260868
40
0.0772090170260868
40
0.585567424894413
40
0.585567424894413
40
1
40
1
40
1
40
1
41
1
10
56.5018459660846
20
8.23476051650403
30
0
41
1
10
56.4945755693701
20
8.22992448759285
30
0
41
1
10
56.4874255779208
20
8.22500205872487
30
0
41
1
10
56.4347459273611
20
8.18740157036433
30
0
41
1
10
56.3940407199348
20
8.15051657567224
30
0
41
1
10
56.3409378784398
20
8.08025800056402
30
0
41
1
10
56.3242339685166
20
8.04651692210172
30
0
41
1
10
56.3195835665847
20
8.01483350476551
30
0
0
SPLINE
5
1AE
100
AcDbEntity
8
1
62
256
6
ByLayer
370
13
48
1
60
0
100
AcDbSpline
70
4
71
3
72
10
73
6
40
0
40
0
40
0
40
0
40
0.126368939291459
40
0.126368939291459
40
1
40
1
40
1
40
1
41
1
10
56.3195835665847
20
8.01483350476551
30
0
41
1
10
56.3183540355183
20
8.00645664907316
30
0
41
1
10
56.3167001220842
20
7.99826723636068
30
0
41
1
10
56.300701157323
20
7.93606156214346
30
0
41
1
10
56.2675240870033
20
7.89070508067471
30
0
41
1
10
56.2253542688251
20
7.85331224838384
30
0
0
SPLINE
5
1AF
100
AcDbEntity
8
1
62
256
6
ByLayer
370
13
48
1
60
0
100
AcDbSpline
70
4
71
3
72
14
73
10
40
0
40
0
40
0
40
0
40
0.0736066511965389
40
0.0736066511965389
40
0.279115482337526
40
0.279115482337526
40
0.530737523610818
40
0.530737523610818
40
1
40
1
40
1
40
1
41
1
10
56.225354268825
20
7.85331224838384
30
0
41
1
10
56.2241314602749
20
7.8522279592639
30
0
41
1
10
56.2227331244949
20
7.85117700023068
30
0
41
1
10
56.2169331770583
20
7.84739175088407
30
0
41
1
10
56.2115012509993
20
7.84491071910219
30
0
41
1
10
56.1982727839649
20
7.84017770768776
30
0
41
1
10
56.190061258031
20
7.83802575414899
30
0
41
1
10
56.1658772529572
20
7.83301253638317
30
0
41
1
10
56.1488164279866
20
7.83097682344984
30
0
41
1
10
56.1319424296532
20
7.8298928948553
30
0
0
SPLINE
5
1B0
100
AcDbEntity
8
1
62
256
6
ByLayer
370
13
48
1
60
0
100
AcDbSpline
70
4
71
3
72
10
73
6
40
0
40
0
40
0
40
0
40
0.676946846913182
40
0.676946846913182
40
1
40
1
40
1
40
1
41
1
10
56.1319424296532
20
7.8298928948553
30
0
41
1
10
55.9989356554877
20
7.82134898943738
30
0
41
1
10
55.8658374813154
20
7.81397184976552
30
0
41
1
10
55.6691629176147
20
7.80448165686988
30
0
41
1
10
55.6056133979923
20
7.80164883197583
30
0
41
1
10
55.5420536790831
20
7.79906003763008
30
0
0
SPLINE
5
1B1
100
AcDbEntity
8
1
62
256
6
ByLayer
370
13
48
1
60
0
100
AcDbSpline
70
4
71
3
72
10
73
6
40
0
40
0
40
0
40
0
40
0.626416619436475
40
0.626416619436475
40
1
40
1
40
1
40
1
41
1
10
55.5420536790831
20
7.79906003763008
30
0
41
1
10
55.5108545968729
20
7.80358538973582
30
0
41
1
10
55.4797114053825
20
7.80851589583682
30
0
41
1
10
55.4301117971857
20
7.81705526370911
30
0
41
1
10
55.411606640427
20
7.82039497437805
30
0
41
1
10
55.3931300887782
20
7.8238862944194
30
0
0
SPLINE
5
1B2
100
AcDbEntity
8
1
62
256
6
ByLayer
370
13
48
1
60
0
100
AcDbSpline
70
4
71
3
72
12
73
8
40
0
40
0
40
0
40
0
40
0.0703164649150449
40
0.0703164649150449
40
0.581360051712833
40
0.581360051712833
40
1
40
1
40
1
40
1
41
1
10
55.3931300887782
20
7.8238862944194
30
0
41
1
10
55.3896064746125
20
7.83510663852655
30
0
41
1
10
55.3863722461776
20
7.84675235051594
30
0
41
1
10
55.3624315604254
20
7.94484933758588
30
0
41
1
10
55.3566474511082
20
8.05349002369675
30
0
41
1
10
55.3728792592852
20
8.27133264049422
30
0
41
1
10
55.3901985409608
20
8.37919768612952
30
0
41
1
10
55.415820588827
20
8.48985566775499
30
0
0
SPLINE
5
1B3
100
AcDbEntity
8
1
62
256
6
ByLayer
370
13
48
1
60
0
100
AcDbSpline
70
4
71
3
72
12
73
8
40
0
40
0
40
0
40
0
40
0.435431113819515
40
0.435431113819515
40
0.717532805798725
40
0.717532805798725
40
1
40
1
40
1
40
1
41
1
10
55.415820588827
20
8.48985566775499
30
0
41
1
10
55.4381724659014
20
8.49873875373092
30
0
41
1
10
55.4606950871876
20
8.50732434797746
30
0
41
1
10
55.4980537535314
20
8.52098244528113
30
0
41
1
10
55.5128059409222
20
8.52622822688505
30
0
41
1
10
55.5424455510013
20
8.5364784267617
30
0
41
1
10
55.5573344578466
20
8.54148298551513
30
0
41
1
10
55.5722773697902
20
8.54636399271311
30
0
0
SPLINE
5
1B4
100
AcDbEntity
8
1
62
256
6
ByLayer
370
13
48
1
60
0
100
AcDbSpline
70
4
71
3
72
8
73
4
40
0
40
0
40
0
40
0
40
1
40
1
40
1
40
1
41
1
10
55.5722773697902
20
8.54636399271311
30
0
41
1
10
55.5753874653814
20
8.54737988566785
30
0
41
1
10
55.5784978788126
20
8.54839558314151
30
0
41
1
10
55.5816086093232
20
8.54941108397477
30
0
0
SPLINE
5
1B5
100
AcDbEntity
8
1
62
256
6
ByLayer
370
13
48
1
60
0
100
AcDbSpline
70
4
71
3
72
14
73
10
40
0
40
0
40
0
40
0
40
0.187918734288723
40
0.187918734288723
40
0.467635128165853
40
0.467635128165853
40
0.738040419848296
40
0.738040419848296
40
1
40
1
40
1
40
1
41
1
10
55.5816086093234
20
8.54941108397409
30
0
41
1
10
55.6085357651895
20
8.5582014787467
30
0
41
1
10
55.6345832940145
20
8.56968739058956
30
0
41
1
10
55.6946317773617
20
8.60451029491455
30
0
41
1
10
55.7272539304645
20
8.63147749436453
30
0
41
1
10
55.7791059845184
20
8.69376360977728
30
0
41
1
10
55.7994773814668
20
8.72972570556777
30
0
41
1
10
55.8248145615187
20
8.80519145213947
30
0
41
1
10
55.8306163965803
20
8.84575618274542
30
0
41
1
10
55.8289770049336
20
8.88558850836202
30
0
0
SPLINE
5
1B6
100
AcDbEntity
8
1
62
256
6
ByLayer
370
13
48
1
60
0
100
AcDbSpline
70
4
71
3
72
8
73
4
40
0
40
0
40
0
40
0
40
1
40
1
40
1
40
1
41
1
10
55.8289770049336
20
8.88558850836202
30
0
41
1
10
55.8258512531475
20
8.96153495056447
30
0
41
1
10
55.8258513005742
20
9.03846433500257
30
0
41
1
10
55.8289771490554
20
9.1144107504154
30
0
0
SPLINE
5
1B7
100
AcDbEntity
8
1
62
256
6
ByLayer
370
13
48
1
60
0
100
AcDbSpline
70
4
71
3
72
14
73
10
40
0
40
0
40
0
40
0
40
0.201099563909462
40
0.201099563909462
40
0.458157239793543
40
0.458157239793543
40
0.723216631469491
40
0.723216631469491
40
1
40
1
40
1
40
1
41
1
10
55.8289771490565
20
9.11441075041557
30
0
41
1
10
55.8302439992733
20
9.14519046779688
30
0
41
1
10
55.8271309592396
20
9.176329647264
30
0
41
1
10
55.8107139234838
20
9.24340226772563
30
0
41
1
10
55.7945509040753
20
9.27936919909044
30
0
41
1
10
55.7512433327387
20
9.34321838900559
30
0
41
1
10
55.7231783841498
20
9.37180479787418
30
0
41
1
10
55.6586223460755
20
9.41898156767618
30
0
41
1
10
55.6209820083778
20
9.43773494214213
30
0
41
1
10
55.581608910529
20
9.45058834302276
30
0
0
SPLINE
5
1B8
100
AcDbEntity
8
1
62
256
6
ByLayer
370
13
48
1
60
0
100
AcDbSpline
70
4
71
3
72
8
73
4
40
0
40
0
40
0
40
0
40
1
40
1
40
1
40
1
41
1
10
55.581608910529
20
9.45058834302276
30
0
41
1
10
55.5784981766569
20
9.4516038462896
30
0
41
1
10
55.5753877598481
20
9.45261954619968
30
0
41
1
10
55.5722776608638
20
9.45363544159659
30
0
0
SPLINE
5
1B9
100
AcDbEntity
8
1
62
256
6
ByLayer
370
13
48
1
60
0
100
AcDbSpline
70
4
71
3
72
12
73
8
40
0
40
0
40
0
40
0
40
0.436615517044599
40
0.436615517044599
40
0.718508457790393
40
0.718508457790393
40
1
40
1
40
1
40
1
41
1
10
55.5722776608641
20
9.4536354415973
30
0
41
1
10
55.5491815355812
20
9.46117965400961
30
0
41
1
10
55.5262134736132
20
9.46901935822322
30
0
41
1
10
55.4886602659707
20
9.4824089196425
30
0
41
1
10
55.4739867464327
20
9.48778646120437
30
0
41
1
10
55.444793106068
20
9.4987823583283
30
0
41
1
10
55.4302713793994
20
9.50440089483271
30
0
41
1
10
55.4158206723641
20
9.51014390115262
30
0
0
SPLINE
5
1BA
100
AcDbEntity
8
1
62
256
6
ByLayer
370
13
48
1
60
0
100
AcDbSpline
70
4
71
3
72
12
73
8
40
0
40
0
40
0
40
0
40
0.418641045368793
40
0.418641045368793
40
0.929686279124088
40
0.929686279124088
40
1
40
1
40
1
40
1
41
1
10
55.4158206723641
20
9.51014390115262
30
0
41
1
10
55.3901986248805
20
9.62080184564053
30
0
41
1
10
55.3728793261308
20
9.72866684096098
30
0
41
1
10
55.3566475126931
20
9.94650936926678
30
0
41
1
10
55.3624316672437
20
10.0551500006543
30
0
41
1
10
55.3863724067102
20
10.1532462330716
30
0
41
1
10
55.3896065104013
20
10.1648914383278
30
0
41
1
10
55.3931299777107
20
10.1761113091786
30
0
0
SPLINE
5
1BB
100
AcDbEntity
8
1
62
256
6
ByLayer
370
13
48
1
60
0
100
AcDbSpline
70
4
71
3
72
10
73
6
40
0
40
0
40
0
40
0
40
0.37358636951691
40
0.37358636951691
40
1
40
1
40
1
40
1
41
1
10
55.3931299777107
20
10.1761113091786
30
0
41
1
10
55.4116065612642
20
10.1796024963314
30
0
41
1
10
55.4301117484371
20
10.1829420768758
30
0
41
1
10
55.4797110376985
20
10.1914810360321
30
0
41
1
10
55.510853875297
20
10.1964112795077
30
0
41
1
10
55.5420525990654
20
10.2009363880621
30
0
0
SPLINE
5
1BC
100
AcDbEntity
8
1
62
256
6
ByLayer
370
13
48
1
60
0
100
AcDbSpline
70
4
71
3
72
10
73
6
40
0
40
0
40
0
40
0
40
0.676948473610577
40
0.676948473610577
40
1
40
1
40
1
40
1
41
1
10
55.5420525990654
20
10.2009363880621
30
0
41
1
10
55.675235998862
20
10.1955109713982
30
0
41
1
10
55.8083774130497
20
10.1890243109293
30
0
41
1
10
56.0049646362058
20
10.1779661590781
30
0
41
1
10
56.0684621823958
20
10.1741789349459
30
0
41
1
10
56.1319363732115
20
10.1701014781682
30
0
0
SPLINE
5
1BD
100
AcDbEntity
8
1
62
256
6
ByLayer
370
13
48
1
60
0
100
AcDbSpline
70
4
71
3
72
14
73
10
40
0
40
0
40
0
40
0
40
0.205642447172662
40
0.205642447172662
40
0.552024857255131
40
0.552024857255131
40
0.779314767021146
40
0.779314767021146
40
1
40
1
40
1
40
1
41
1
10
56.1319363732119
20
10.1701014781711
30
0
41
1
10
56.1394040291651
20
10.1696217706871
30
0
41
1
10
56.1468649213433
20
10.1689547199291
30
0
41
1
10
56.1665362510632
20
10.1666303620122
30
0
41
1
10
56.178758452361
20
10.1645933060546
30
0
41
1
10
56.1973818324614
20
10.1599992794961
30
0
41
1
10
56.204452184691
20
10.157822548376
30
0
41
1
10
56.2165409219454
20
10.1527917254176
30
0
41
1
10
56.221743211803
20
10.1498785216455
30
0
41
1
10
56.2253481221194
20
10.1466819551306
30
0
0
SPLINE
5
1BE
100
AcDbEntity
8
1
62
256
6
ByLayer
370
13
48
1
60
0
100
AcDbSpline
70
4
71
3
72
10
73
6
40
0
40
0
40
0
40
0
40
0.800695265608032
40
0.800695265608032
40
1
40
1
40
1
40
1
41
1
10
56.2253481221194
20
10.1466819551306
30
0
41
1
10
56.2640260045436
20
10.1123852839327
30
0
41
1
10
56.2951335289496
20
10.0715428989224
30
0
41
1
10
56.3146627565243
20
10.0110247785749
30
0
41
1
10
56.3176449242414
20
9.99832312380838
30
0
41
1
10
56.3195766360304
20
9.98516323832865
30
0
0
SPLINE
5
1BF
100
AcDbEntity
8
1
62
256
6
ByLayer
370
13
48
1
60
0
100
AcDbSpline
70
4
71
3
72
12
73
8
40
0
40
0
40
0
40
0
40
0.366233000367022
40
0.366233000367022
40
0.431397556128611
40
0.431397556128611
40
1
40
1
40
1
40
1
41
1
10
56.3195766360302
20
9.98516323832862
30
0
41
1
10
56.3237001095776
20
9.95707186362506
30
0
41
1
10
56.3372602127444
20
9.92736734033679
30
0
41
1
10
56.3603497416968
20
9.89407870355726
30
0
41
1
10
56.3640823290741
20
9.88901738880958
30
0
41
1
10
56.4015757775001
20
9.84093406413487
30
0
41
1
10
56.4490186945114
20
9.80037228427219
30
0
41
1
10
56.5018406925719
20
9.76523715447263
30
0
0
SPLINE
5
1C0
100
AcDbEntity
8
1
62
256
6
ByLayer
370
13
48
1
60
0
100
AcDbSpline
70
4
71
3
72
8
73
4
40
0
40
0
40
0
40
0
40
1
40
1
40
1
40
1
41
1
10
56.5018406925719
20
9.76523715447263
30
0
41
1
10
56.5894057943154
20
9.70699226922326
30
0
41
1
10
56.6746732080689
20
9.64283400685571
30
0
41
1
10
56.7539525182228
20
9.56981832827552
30
0
0
SPLINE
5
1C1
100
AcDbEntity
8
1
62
256
6
ByLayer
370
13
48
1
60
0
100
AcDbSpline
70
4
71
3
72
8
73
4
40
0
40
0
40
0
40
0
40
1
40
1
40
1
40
1
41
1
10
55.5466009007631
20
7.62527785385012
30
0
41
1
10
55.7448711151021
20
7.63046583455986
30
0
41
1
10
55.9430909311785
20
7.63813419977205
30
0
41
1
10
56.1411735286767
20
7.64819787734217
30
0
0
SPLINE
5
1C2
100
AcDbEntity
8
1
62
256
6
ByLayer
370
13
48
1
60
0
100
AcDbSpline
70
4
71
3
72
12
73
8
40
0
40
0
40
0
40
0
40
0.0174209929473798
40
0.0174209929473798
40
0.813177174176632
40
0.813177174176632
40
1
40
1
40
1
40
1
41
1
10
57.3896279194018
20
6.76644496172284
30
0
41
1
10
57.3815141353121
20
6.77026810955923
30
0
41
1
10
57.3734107189214
20
6.77411334224306
30
0
41
1
10
56.9992960703199
20
6.95291730108042
30
0
41
1
10
56.6556304233214
20
7.18284711968849
30
0
41
1
10
56.2796159575702
20
7.5149969823014
30
0
41
1
10
56.2094990867718
20
7.58072015581655
30
0
41
1
10
56.1411735286767
20
7.64819787734328
30
0
0
SPLINE
5
1C3
100
AcDbEntity
8
1
62
256
6
ByLayer
370
13
48
1
60
0
100
AcDbSpline
70
4
71
3
72
8
73
4
40
0
40
0
40
0
40
0
40
1
40
1
40
1
40
1
41
1
10
57.4152478209054
20
6.26847847146286
30
0
41
1
10
57.4066327245048
20
6.43446341917868
30
0
41
1
10
57.3980936487729
20
6.60045232882587
30
0
41
1
10
57.3896279194009
20
6.76644496173594
30
0
0
SPLINE
5
1C4
100
AcDbEntity
8
1
62
256
6
ByLayer
370
13
48
1
60
0
100
AcDbSpline
70
4
71
3
72
8
73
4
40
0
40
0
40
0
40
0
40
1
40
1
40
1
40
1
41
1
10
57.4152478209045
20
11.7315215285202
30
0
41
1
10
57.4066327245042
20
11.56553658081
30
0
41
1
10
57.3980936487727
20
11.3995476711685
30
0
41
1
10
57.3896279194009
20
11.2335550382641
30
0
0
SPLINE
5
1C5
100
AcDbEntity
8
1
62
256
6
ByLayer
370
13
48
1
60
0
100
AcDbSpline
70
4
71
3
72
12
73
8
40
0
40
0
40
0
40
0
40
0.0174209007758012
40
0.0174209007758012
40
0.813172871791341
40
0.813172871791341
40
1
40
1
40
1
40
1
41
1
10
57.3896279194018
20
11.2335550382772
30
0
41
1
10
57.3815141353121
20
11.2297318904408
30
0
41
1
10
57.3734107189214
20
11.225886657757
30
0
41
1
10
56.9992960703199
20
11.0470826989196
30
0
41
1
10
56.6556304233214
20
10.8171528803115
30
0
41
1
10
56.2796139209143
20
10.4850012186323
30
0
41
1
10
56.2094951180445
20
10.4192761238873
30
0
41
1
10
56.1411677260424
20
10.3517963920177
30
0
0
SPLINE
5
1C6
100
AcDbEntity
8
1
62
256
6
ByLayer
370
13
48
1
60
0
100
AcDbSpline
70
4
71
3
72
8
73
4
40
0
40
0
40
0
40
0
40
1
40
1
40
1
40
1
41
1
10
56.1411677260424
20
10.3517963920177
30
0
41
1
10
55.9430870468135
20
10.3618602545673
30
0
41
1
10
55.7448691770379
20
10.3695293033576
30
0
41
1
10
55.5466009007631
20
10.3747184686308
30
0
0
SPLINE
5
1C7
100
AcDbEntity
8
1
62
256
6
ByLayer
370
13
48
1
60
0
100
AcDbSpline
70
4
71
3
72
14
73
10
40
0
40
0
40
0
40
0
40
0.25556417273693
40
0.25556417273693
40
0.49418353017144
40
0.49418353017144
40
0.820252528573789
40
0.820252528573789
40
1
40
1
40
1
40
1
41
1
10
56.3485584035404
20
10.2085978495644
30
0
41
1
10
56.3387064271179
20
10.2188548563403
30
0
41
1
10
56.3260113454074
20
10.2302355600716
30
0
41
1
10
56.2973555070671
20
10.2532773412434
30
0
41
1
10
56.2814538668373
20
10.2650431883814
30
0
41
1
10
56.2408961225525
20
10.2930426418809
30
0
41
1
10
56.2146113396221
20
10.3097231511645
30
0
41
1
10
56.1723358178908
20
10.3345813906115
30
0
41
1
10
56.1567988692586
20
10.3433442465117
30
0
41
1
10
56.1411677260426
20
10.351796392018
30
0
0
SPLINE
5
1C8
100
AcDbEntity
8
1
62
256
6
ByLayer
370
13
48
1
60
0
100
AcDbSpline
70
4
71
3
72
16
73
12
40
0
40
0
40
0
40
0
40
0.350242859033379
40
0.350242859033379
40
0.423372547456697
40
0.423372547456697
40
0.679771193971581
40
0.679771193971581
40
0.911749531478506
40
0.911749531478506
40
1
40
1
40
1
40
1
41
1
10
56.1411735286767
20
7.64819787734328
30
0
41
1
10
56.1713229274517
20
7.66450039674393
30
0
41
1
10
56.2013275156642
20
7.68209384392537
30
0
41
1
10
56.2345261613993
20
7.7032361513636
30
0
41
1
10
56.2402297633722
20
7.70693485493487
30
0
41
1
10
56.2652448409325
20
7.72346163786401
30
0
41
1
10
56.2834263988366
20
7.73632721502293
30
0
41
1
10
56.3138395780513
20
7.75965980963596
30
0
41
1
10
56.3266833134205
20
7.77040189632098
30
0
41
1
10
56.3413736271357
20
7.78412911427472
30
0
41
1
10
56.3451349886705
20
7.78782620005347
30
0
41
1
10
56.348564213741
20
7.79139640421394
30
0
0
SPLINE
5
1C9
100
AcDbEntity
8
1
62
256
6
ByLayer
370
13
48
1
60
0
100
AcDbSpline
70
4
71
3
72
10
73
6
40
0
40
0
40
0
40
0
40
0.480374533063216
40
0.480374533063216
40
1
40
1
40
1
40
1
41
1
10
59.5364283337291
20
11.2698058478479
30
0
41
1
10
59.2034888340515
20
11.2279902109196
30
0
41
1
10
58.862711540784
20
11.2283746773454
30
0
41
1
10
58.1934202711034
20
11.2198219198142
30
0
41
1
10
57.8570174116718
20
11.1993784482854
30
0
41
1
10
57.5590474001662
20
11.2249145374949
30
0
0
SPLINE
5
1CA
100
AcDbEntity
8
1
62
256
6
ByLayer
370
13
48
1
60
0
100
AcDbSpline
70
4
71
3
72
8
73
4
40
0
40
0
40
0
40
0
40
1
40
1
40
1
40
1
41
1
10
57.5590474001655
20
11.2249145374819
30
0
41
1
10
57.5682355999365
20
11.420496030884
30
0
41
1
10
57.5775176399607
20
11.6160731403653
30
0
41
1
10
57.5868975798565
20
11.8116455319232
30
0
0
SPLINE
5
1CB
100
AcDbEntity
8
1
62
256
6
ByLayer
370
13
48
1
60
0
100
AcDbSpline
70
4
71
3
72
8
73
4
40
0
40
0
40
0
40
0
40
1
40
1
40
1
40
1
41
1
10
57.5590474001655
20
6.77508546251815
30
0
41
1
10
57.5682355999365
20
6.57950396911608
30
0
41
1
10
57.5775176399607
20
6.38392685963473
30
0
41
1
10
57.5868975798565
20
6.18835446807682
30
0
0
SPLINE
5
1CC
100
AcDbEntity
8
1
62
256
6
ByLayer
370
13
48
1
60
0
100
AcDbSpline
70
4
71
3
72
10
73
6
40
0
40
0
40
0
40
0
40
0.480374533063216
40
0.480374533063216
40
1
40
1
40
1
40
1
41
1
10
59.5364283337291
20
6.73019415215214
30
0
41
1
10
59.2034888340515
20
6.77200978908041
30
0
41
1
10
58.862711540784
20
6.77162532265467
30
0
41
1
10
58.1934202711034
20
6.78017808018581
30
0
41
1
10
57.8570174116718
20
6.80062155171467
30
0
41
1
10
57.5590474001662
20
6.77508546250516
30
0
0
SPLINE
5
1CD
100
AcDbEntity
8
1
62
256
6
ByLayer
370
18
48
1
60
0
100
AcDbSpline
70
4
71
3
72
13
73
9
40
0
40
0
40
0
40
0
40
0.0067464045759553
40
0.0260436645320381
40
0.0356922945100795
40
0.334799823829364
40
0.643555983126689
40
1
40
1
40
1
40
1
41
1
10
54.3580228892033
20
6.30000000000001
30
0
41
1
10
54.3586539642244
20
6.30000000000001
30
0
41
1
10
54.3610775729649
20
6.30000000000001
30
0
41
1
10
54.3643664118636
20
6.30000000000001
30
0
41
1
10
54.3949584990023
20
6.30000000000001
30
0
41
1
10
54.4525325928788
20
6.30000000000001
30
0
41
1
10
54.5424403417796
20
6.30000000000001
30
0
41
1
10
54.6044606389969
20
6.30000000000001
30
0
41
1
10
54.6376938891777
20
6.30000000000001
30
0
0
SPLINE
5
1CE
100
AcDbEntity
8
1
62
256
6
ByLayer
370
18
48
1
60
0
100
AcDbSpline
70
4
71
2
72
9
73
6
40
0
40
0
40
0
40
0.0492648277051518
40
0.135695297913774
40
0.135695297913774
40
1
40
1
40
1
41
1
10
54.3590529396165
20
11.7
30
0
41
1
10
54.3659208475339
20
11.7
30
0
41
1
10
54.3843349647746
20
11.7
30
0
41
1
10
54.3968714379784
20
11.7
30
0
41
1
10
54.4152816599138
20
11.7
30
0
41
1
10
54.6377029396166
20
11.7
30
0
0
SPLINE
5
1CF
100
AcDbEntity
8
1
62
256
6
ByLayer
370
13
48
1
60
0
100
AcDbSpline
70
4
71
3
72
8
73
4
40
0
40
0
40
0
40
0
40
1
40
1
40
1
40
1
41
1
10
54.6341585894645
20
6.44152069062159
30
0
41
1
10
54.6353438534347
20
6.44152069062159
30
0
41
1
10
54.6365335048264
20
6.44130309244892
30
0
41
1
10
54.6377029396165
20
6.4408462687482
30
0
0
SPLINE
5
1D0
100
AcDbEntity
8
1
62
256
6
ByLayer
370
13
48
1
60
0
100
AcDbSpline
70
4
71
3
72
10
73
6
40
0
40
0
40
0
40
0
40
0.299090051335176
40
0.299090051335176
40
1
40
1
40
1
40
1
41
1
10
54.3631507503689
20
6.44189196592214
30
0
41
1
10
54.3904739699091
20
6.44291513912836
30
0
41
1
10
54.4171001671808
20
6.44152055099067
30
0
41
1
10
54.5074727640397
20
6.44152097830306
30
0
41
1
10
54.5708156312272
20
6.44152069062159
30
0
41
1
10
54.6341585894645
20
6.44152069062159
30
0
0
SPLINE
5
1D1
100
AcDbEntity
8
1
62
256
6
ByLayer
370
13
48
1
60
0
100
AcDbSpline
70
4
71
3
72
8
73
4
40
0
40
0
40
0
40
0
40
1
40
1
40
1
40
1
41
1
10
54.6377029396166
20
11.5591537312521
30
0
41
1
10
54.6365335048265
20
11.5586969075514
30
0
41
1
10
54.6353438534347
20
11.5584793093785
30
0
41
1
10
54.6341585894645
20
11.5584793093785
30
0
0
SPLINE
5
1D2
100
AcDbEntity
8
1
62
256
6
ByLayer
370
13
48
1
60
0
100
AcDbSpline
70
4
71
3
72
14
73
10
40
0
40
0
40
0
40
0
40
0.0136716899694167
40
0.0136716899694167
40
0.637192393526425
40
0.637192393526425
40
0.700909948664084
40
0.700909948664084
40
1
40
1
40
1
40
1
41
1
10
54.6341585894645
20
11.5584793093785
30
0
41
1
10
54.6329230451718
20
11.5584793093785
30
0
41
1
10
54.6316875008791
20
11.5584793093785
30
0
41
1
10
54.574102855021
20
11.5584793093785
30
0
41
1
10
54.5177537534556
20
11.5584793093785
30
0
41
1
10
54.455646339511
20
11.5584793093785
30
0
41
1
10
54.4498880320062
20
11.5584792939772
30
0
41
1
10
54.4171001671808
20
11.5584794490094
30
0
41
1
10
54.390473969909
20
11.5570848608717
30
0
41
1
10
54.3631507503687
20
11.5581080340778
30
0
0
SPLINE
5
1D3
100
AcDbEntity
8
1
62
256
6
ByLayer
370
13
48
1
60
0
100
AcDbSpline
70
4
71
3
72
10
73
6
40
0
40
0
40
0
40
0
40
0.373709297613223
40
0.373709297613223
40
1
40
1
40
1
40
1
41
1
10
55.3261629787253
20
7.65638688566546
30
0
41
1
10
55.3450188253559
20
7.65207114908137
30
0
41
1
10
55.3639090232256
20
7.64792212808968
30
0
41
1
10
55.4145363046549
20
7.63726009301308
30
0
41
1
10
55.4463321288578
20
7.63104370950177
30
0
41
1
10
55.478196872098
20
7.62527785385012
30
0
0
SPLINE
5
1D4
100
AcDbEntity
8
1
62
256
6
ByLayer
370
13
48
1
60
0
100
AcDbSpline
70
4
71
3
72
10
73
6
40
0
40
0
40
0
40
0
40
0.626287703218406
40
0.626287703218406
40
1
40
1
40
1
40
1
41
1
10
55.478196872098
20
10.3747184686308
30
0
41
1
10
55.4463325274093
20
10.3689528709119
30
0
41
1
10
55.4145370964037
20
10.3627367658115
30
0
41
1
10
55.3639101896304
20
10.3520751564119
30
0
41
1
10
55.3450199784627
20
10.3479262655268
30
0
41
1
10
55.3261641168767
20
10.3436106618542
30
0
0
SPLINE
5
1D5
100
AcDbEntity
8
1
62
256
6
ByLayer
370
13
48
1
60
0
100
AcDbSpline
70
4
71
3
72
8
73
4
40
0
40
0
40
0
40
0
40
1
40
1
40
1
40
1
41
1
10
54.6366922172744
20
11.5419947771153
30
0
41
1
10
54.6381641510865
20
11.5422596387516
30
0
41
1
10
54.6396521400637
20
11.5427576397563
30
0
41
1
10
54.6411376656
20
11.543498106476
30
0
0
SPLINE
5
1D6
100
AcDbEntity
8
1
62
256
6
ByLayer
370
13
48
1
60
0
100
AcDbSpline
70
4
71
3
72
8
73
4
40
0
40
0
40
0
40
0
40
1
40
1
40
1
40
1
41
1
10
54.6411376656
20
6.45650189352406
30
0
41
1
10
54.6396521400637
20
6.45724236024378
30
0
41
1
10
54.6381641510865
20
6.45774036124846
30
0
41
1
10
54.6366922172745
20
6.45800522288474
30
0
0
SPLINE
5
1D7
100
AcDbEntity
8
1
62
256
6
ByLayer
370
13
48
1
60
0
100
AcDbSpline
70
4
71
3
72
12
73
8
40
0
40
0
40
0
40
0
40
0.0707113849956165
40
0.0707113849956165
40
0.582686810203343
40
0.582686810203343
40
1
40
1
40
1
40
1
41
1
10
55.2234410993735
20
10.2776725327994
30
0
41
1
10
55.2191976307912
20
10.2648701307994
30
0
41
1
10
55.2152532954154
20
10.2515831897353
30
0
41
1
10
55.1856730948324
20
10.1398635253899
30
0
41
1
10
55.1753574112632
20
10.0162395578016
30
0
41
1
10
55.1851574406287
20
9.76771341284456
30
0
41
1
10
55.200040019712
20
9.64471253571332
30
0
41
1
10
55.2239816481906
20
9.51804832371803
30
0
0
SPLINE
5
1D8
100
AcDbEntity
8
1
62
256
6
ByLayer
370
13
48
1
60
0
100
AcDbSpline
70
4
71
3
72
12
73
8
40
0
40
0
40
0
40
0
40
0.41731214513514
40
0.41731214513514
40
0.92928586889468
40
0.92928586889468
40
1
40
1
40
1
40
1
41
1
10
55.2239810325739
20
8.48195167628202
30
0
41
1
10
55.2000392759947
20
8.35528739418996
30
0
41
1
10
55.1851565790994
20
8.23228642432252
30
0
41
1
10
55.1753562827877
20
7.98376011454263
30
0
41
1
10
55.1856717794348
20
7.86013604075987
30
0
41
1
10
55.2152518487447
20
7.74841548176579
30
0
41
1
10
55.2191963265135
20
7.73512795956378
30
0
41
1
10
55.2234399612219
20
7.72232501472092
30
0
0
SPLINE
5
1D9
100
AcDbEntity
8
1
62
256
6
ByLayer
370
13
48
1
60
0
100
AcDbSpline
70
4
71
2
72
6
73
3
40
0
40
0
40
0
40
1
40
1
40
1
41
1
10
54.9991138396653
20
9.51804832371803
30
0
41
1
10
54.7966684399711
20
10.1576926077657
30
0
41
1
10
54.5942230402768
20
10.7973368918134
30
0
0
SPLINE
5
1DA
100
AcDbEntity
8
1
62
256
6
ByLayer
370
13
48
1
60
0
100
AcDbSpline
70
4
71
3
72
10
73
6
40
0
40
0
40
0
40
0
40
0.292742959368649
40
0.292742959368649
40
1
40
1
40
1
40
1
41
1
10
54.3681426122259
20
11.5415631311923
30
0
41
1
10
54.394605000179
20
11.5407799355979
30
0
41
1
10
54.4204448032252
20
11.5419949129109
30
0
41
1
10
54.5100063820191
20
11.541994489435
30
0
41
1
10
54.5733492541219
20
11.5419947771153
30
0
41
1
10
54.6366922172745
20
11.5419947771153
30
0
0
SPLINE
5
1DB
100
AcDbEntity
8
1
62
256
6
ByLayer
370
13
48
1
60
0
100
AcDbSpline
70
4
71
3
72
14
73
10
40
0
40
0
40
0
40
0
40
0.00939832537386
40
0.00939832537386
40
0.638565273553582
40
0.638565273553582
40
0.707257040630541
40
0.707257040630541
40
1
40
1
40
1
40
1
41
1
10
54.6366922172745
20
6.45800522288474
30
0
41
1
10
54.6358504896653
20
6.45800522288474
30
0
41
1
10
54.6350087620562
20
6.45800522288474
30
0
41
1
10
54.5778179328816
20
6.45800522288474
30
0
41
1
10
54.5214688313162
20
6.45800522288474
30
0
41
1
10
54.4589675957728
20
6.45800522288474
30
0
41
1
10
54.4528154672585
20
6.458005240148
30
0
41
1
10
54.4204448032251
20
6.45800508708908
30
0
41
1
10
54.3946050001788
20
6.45922006440222
30
0
41
1
10
54.3681426122256
20
6.45843686880778
30
0
0
SPLINE
5
1DC
100
AcDbEntity
8
1
62
256
6
ByLayer
370
13
48
1
60
0
100
AcDbSpline
70
4
71
2
72
6
73
3
40
0
40
0
40
0
40
1
40
1
40
1
41
1
10
54.9991138396653
20
8.48195167628202
30
0
41
1
10
54.7966684399711
20
7.84230739223435
30
0
41
1
10
54.5942230402768
20
7.20266310818667
30
0
0
SPLINE
5
1DD
100
AcDbEntity
8
1
62
256
6
ByLayer
370
13
48
1
60
0
100
AcDbSpline
70
4
71
3
72
10
73
6
40
0
40
0
40
0
40
0
40
0.543339987341644
40
0.543339987341644
40
1
40
1
40
1
40
1
41
1
10
61.6003004601926
20
10.65345426704
30
0
41
1
10
61.4193074892229
20
10.7688748973926
30
0
41
1
10
61.2382449878386
20
10.8843590172079
30
0
41
1
10
60.898078114664
20
11.084268894205
30
0
41
1
10
60.7398730567058
20
11.1718774163188
30
0
41
1
10
60.5739782123928
20
11.2411608803674
30
0
0
SPLINE
5
1DE
100
AcDbEntity
8
1
62
256
6
ByLayer
370
13
48
1
60
0
100
AcDbSpline
70
4
71
3
72
10
73
6
40
0
40
0
40
0
40
0
40
0.234782437765391
40
0.234782437765391
40
1
40
1
40
1
40
1
41
1
10
60.5739782123928
20
11.2411608803674
30
0
41
1
10
60.5693978590631
20
11.2430737954228
30
0
41
1
10
60.5648613765137
20
11.2450991224391
30
0
41
1
10
60.5459272202289
20
11.2542358449334
30
0
41
1
10
60.5317484564292
20
11.2626044072978
30
0
41
1
10
60.5200263771115
20
11.2736602924257
30
0
0
SPLINE
5
1DF
100
AcDbEntity
8
1
62
256
6
ByLayer
370
13
48
1
60
0
100
AcDbSpline
70
4
71
3
72
10
73
6
40
0
40
0
40
0
40
0
40
0.234782437765391
40
0.234782437765391
40
1
40
1
40
1
40
1
41
1
10
60.5739782123928
20
6.75883911963263
30
0
41
1
10
60.5693978590631
20
6.75692620457721
30
0
41
1
10
60.5648613765137
20
6.75490087756091
30
0
41
1
10
60.5459272202289
20
6.74576415506664
30
0
41
1
10
60.5317484564292
20
6.73739559270226
30
0
41
1
10
60.5200263771115
20
6.72633970757437
30
0
0
SPLINE
5
1E0
100
AcDbEntity
8
1
62
256
6
ByLayer
370
13
48
1
60
0
100
AcDbSpline
70
4
71
3
72
10
73
6
40
0
40
0
40
0
40
0
40
0.543339987341528
40
0.543339987341528
40
1
40
1
40
1
40
1
41
1
10
61.6003004601923
20
7.34654573295987
30
0
41
1
10
61.4193074892226
20
7.23112510260736
30
0
41
1
10
61.2382449878385
20
7.11564098279206
30
0
41
1
10
60.898078114664
20
6.91573110579506
30
0
41
1
10
60.7398730567058
20
6.82812258368122
30
0
41
1
10
60.5739782123928
20
6.75883911963263
30
0
0
SPLINE
5
1E1
100
AcDbEntity
8
1
62
256
6
ByLayer
370
13
48
1
60
0
100
AcDbSpline
70
4
71
3
72
12
73
8
40
0
40
0
40
0
40
0
40
0.0484239545861539
40
0.0484239545861539
40
0.787342760202595
40
0.787342760202595
40
1
40
1
40
1
40
1
41
1
10
61.6002941805369
20
10.652059538394
30
0
41
1
10
61.5993679960653
20
10.6519214672467
30
0
41
1
10
61.5984413193327
20
10.6517835350423
30
0
41
1
10
61.5833809106246
20
10.6495432949509
30
0
41
1
10
61.5691247049825
20
10.6474557434336
30
0
41
1
10
61.5507227023096
20
10.6447677248302
30
0
41
1
10
61.546602931618
20
10.6441663527164
30
0
41
1
10
61.5424814286892
20
10.6435644297989
30
0
0
SPLINE
5
1E2
100
AcDbEntity
8
1
62
256
6
ByLayer
370
13
48
1
60
0
100
AcDbSpline
70
4
71
3
72
8
73
4
40
0
40
0
40
0
40
0
40
1
40
1
40
1
40
1
41
1
10
61.5424814286893
20
10.6435644297981
30
0
41
1
10
61.5393483176739
20
10.6431068560908
30
0
41
1
10
61.5361974646701
20
10.6427724021713
30
0
41
1
10
61.5330460166647
20
10.6424549834734
30
0
0
SPLINE
5
1E3
100
AcDbEntity
8
1
62
256
6
ByLayer
370
13
48
1
60
0
100
AcDbSpline
70
4
71
3
72
8
73
4
40
0
40
0
40
0
40
0
40
1
40
1
40
1
40
1
41
1
10
61.5330460166647
20
10.6424549834734
30
0
41
1
10
61.507994776049
20
10.6399317839272
30
0
41
1
10
61.4828469726042
20
10.6358785459313
30
0
41
1
10
61.4585199070219
20
10.6313333333765
30
0
0
SPLINE
5
1E4
100
AcDbEntity
8
1
62
256
6
ByLayer
370
13
48
1
60
0
100
AcDbSpline
70
4
71
3
72
10
73
6
40
0
40
0
40
0
40
0
40
0.365019426424878
40
0.365019426424878
40
1
40
1
40
1
40
1
41
1
10
61.4585199070219
20
10.6313333333765
30
0
41
1
10
61.4392240542629
20
10.6277281409655
30
0
41
1
10
61.4189374811642
20
10.6291620234107
30
0
41
1
10
61.3651335246498
20
10.6367334993485
30
0
41
1
10
61.3314968249904
20
10.6462732825015
30
0
41
1
10
61.2985587777267
20
10.6571462585088
30
0
0
SPLINE
5
1E5
100
AcDbEntity
8
1
62
256
6
ByLayer
370
13
48
1
60
0
100
AcDbSpline
70
4
71
3
72
10
73
6
40
0
40
0
40
0
40
0
40
0.365019426424878
40
0.365019426424878
40
1
40
1
40
1
40
1
41
1
10
61.4585199070219
20
7.36866666662354
30
0
41
1
10
61.4392240542629
20
7.37227185903458
30
0
41
1
10
61.4189374811642
20
7.37083797658937
30
0
41
1
10
61.3651335246498
20
7.36326650065158
30
0
41
1
10
61.3314968249904
20
7.35372671749855
30
0
41
1
10
61.2985587777267
20
7.34285374149127
30
0
0
SPLINE
5
1E6
100
AcDbEntity
8
1
62
256
6
ByLayer
370
13
48
1
60
0
100
AcDbSpline
70
4
71
3
72
8
73
4
40
0
40
0
40
0
40
0
40
1
40
1
40
1
40
1
41
1
10
61.5330460166647
20
7.35754501652664
30
0
41
1
10
61.507994776049
20
7.36006821607282
30
0
41
1
10
61.4828469726042
20
7.36412145406874
30
0
41
1
10
61.4585199070219
20
7.36866666662354
30
0
0
SPLINE
5
1E7
100
AcDbEntity
8
1
62
256
6
ByLayer
370
13
48
1
60
0
100
AcDbSpline
70
4
71
3
72
8
73
4
40
0
40
0
40
0
40
0
40
1
40
1
40
1
40
1
41
1
10
61.5424814286893
20
7.35643557020197
30
0
41
1
10
61.5393483176739
20
7.35689314390919
30
0
41
1
10
61.5361974646701
20
7.35722759782874
30
0
41
1
10
61.5330460166647
20
7.35754501652664
30
0
0
SPLINE
5
1E8
100
AcDbEntity
8
1
62
256
6
ByLayer
370
13
48
1
60
0
100
AcDbSpline
70
4
71
3
72
12
73
8
40
0
40
0
40
0
40
0
40
0.048423954882324
40
0.048423954882324
40
0.787342760268783
40
0.787342760268783
40
1
40
1
40
1
40
1
41
1
10
61.6002941804905
20
7.34794046159004
30
0
41
1
10
61.5993679959647
20
7.34807853272821
30
0
41
1
10
61.5984413193384
20
7.34821646495686
30
0
41
1
10
61.5833809106246
20
7.35045670504911
30
0
41
1
10
61.5691247049825
20
7.3525442565664
30
0
41
1
10
61.5507227023096
20
7.35523227516987
30
0
41
1
10
61.546602931618
20
7.3558336472837
30
0
41
1
10
61.5424814286892
20
7.35643557020117
30
0
0
SPLINE
5
1E9
100
AcDbEntity
8
1
62
256
6
ByLayer
370
13
48
1
60
0
100
AcDbSpline
70
4
71
3
72
12
73
8
40
0
40
0
40
0
40
0
40
0.585953603913908
40
0.585953603913908
40
0.932562389653932
40
0.932562389653932
40
1
40
1
40
1
40
1
41
1
10
56.605883093471
20
9.8916012511838
30
0
41
1
10
56.5602112724379
20
9.90974796079345
30
0
41
1
10
56.5175125134992
20
9.93187405967743
30
0
41
1
10
56.4656905223003
20
9.97347213904848
30
0
41
1
10
56.4497083450445
20
9.99070544416182
30
0
41
1
10
56.4387123558149
20
10.0121382518168
30
0
41
1
10
56.4371603851937
20
10.0157038847932
30
0
41
1
10
56.4359016088411
20
10.0192841080836
30
0
0
SPLINE
5
1EA
100
AcDbEntity
8
1
62
256
6
ByLayer
370
13
48
1
60
0
100
AcDbSpline
70
4
71
3
72
8
73
4
40
0
40
0
40
0
40
0
40
1
40
1
40
1
40
1
41
1
10
56.6058830934711
20
9.89160125118394
30
0
41
1
10
56.6878526142753
20
9.91905961258547
30
0
41
1
10
56.7702705240861
20
9.94458741246541
30
0
41
1
10
56.8530247822474
20
9.96827959137579
30
0
0
SPLINE
5
1EB
100
AcDbEntity
8
1
62
256
6
ByLayer
370
13
48
1
60
0
100
AcDbSpline
70
4
71
3
72
12
73
8
40
0
40
0
40
0
40
0
40
0.397348218557931
40
0.397348218557931
40
0.918192388004562
40
0.918192388004562
40
1
40
1
40
1
40
1
41
1
10
56.4359082989187
20
7.98071317428921
30
0
41
1
10
56.443188843999
20
8.00142148684861
30
0
41
1
10
56.4603756193544
20
8.02168613818947
30
0
41
1
10
56.5103520488149
20
8.06303288826723
30
0
41
1
10
56.5471530158873
20
8.0833987106972
30
0
41
1
10
56.5930740548547
20
8.1032022412511
30
0
41
1
10
56.5994424535555
20
8.10583571323767
30
0
41
1
10
56.6058884944385
20
8.10839693958926
30
0
0
SPLINE
5
1EC
100
AcDbEntity
8
1
62
256
6
ByLayer
370
13
48
1
60
0
100
AcDbSpline
70
4
71
3
72
8
73
4
40
0
40
0
40
0
40
0
40
1
40
1
40
1
40
1
41
1
10
56.6058884944385
20
8.10839693958911
30
0
41
1
10
56.6878562343346
20
8.08093926609226
30
0
41
1
10
56.7702723413182
20
8.05541206726912
30
0
41
1
10
56.8530247822474
20
8.03172040862427
30
0
0
SPLINE
5
1ED
100
AcDbEntity
8
1
62
256
6
ByLayer
370
13
48
1
60
0
100
AcDbSpline
70
4
71
3
72
10
73
6
40
0
40
0
40
0
40
0
40
0.89617120816834
40
0.89617120816834
40
1
40
1
40
1
40
1
41
1
10
60.4114628213833
20
11.2806457223905
30
0
41
1
10
60.4083770286769
20
11.2902917526526
30
0
41
1
10
60.4053823050076
20
11.3000109957387
30
0
41
1
10
60.4021596379686
20
11.3108684417056
30
0
41
1
10
60.4018264345891
20
11.3119960618773
30
0
41
1
10
60.4014946003018
20
11.3131238726673
30
0
0
SPLINE
5
1EE
100
AcDbEntity
8
1
62
256
6
ByLayer
370
13
48
1
60
0
100
AcDbSpline
70
4
71
3
72
10
73
6
40
0
40
0
40
0
40
0
40
0.89617120816834
40
0.89617120816834
40
1
40
1
40
1
40
1
41
1
10
60.4114628213833
20
6.71935427760957
30
0
41
1
10
60.4083770286769
20
6.70970824734741
30
0
41
1
10
60.4053823050141
20
6.69998900425941
30
0
41
1
10
60.4021596379679
20
6.68913155829472
30
0
41
1
10
60.4018264345891
20
6.68800393812279
30
0
41
1
10
60.4014946003018
20
6.68687612733277
30
0
0
SPLINE
5
1EF
100
AcDbEntity
8
1
62
256
6
ByLayer
370
13
48
1
60
0
100
AcDbSpline
70
4
71
3
72
8
73
4
40
0
40
0
40
0
40
0
40
1
40
1
40
1
40
1
41
1
10
60.4014946002937
20
6.68687612735954
30
0
41
1
10
60.1838173775252
20
6.68343710271887
30
0
41
1
10
59.9586311492449
20
6.68761911634391
30
0
41
1
10
59.7364283337294
20
6.70901394865831
30
0
0
SPLINE
5
1F0
100
AcDbEntity
8
1
62
256
6
ByLayer
370
13
48
1
60
0
100
AcDbSpline
70
4
71
3
72
8
73
4
40
0
40
0
40
0
40
0
40
1
40
1
40
1
40
1
41
1
10
60.4014946002937
20
11.3131238726405
30
0
41
1
10
60.1838173775252
20
11.3165628972812
30
0
41
1
10
59.9586311492449
20
11.3123808836562
30
0
41
1
10
59.7364283337294
20
11.2909860513418
30
0
0
SPLINE
5
1F1
100
AcDbEntity
8
1
62
256
6
ByLayer
370
13
48
1
60
0
100
AcDbSpline
70
4
71
3
72
16
73
12
40
0
40
0
40
0
40
0
40
5.49005868016E-05
40
5.49005868016E-05
40
0.336585103415494
40
0.336585103415494
40
0.668681511902148
40
0.668681511902148
40
0.999945099413196
40
0.999945099413196
40
1
40
1
40
1
40
1
41
1
10
56.8530247822474
20
8.03172040862427
30
0
41
1
10
56.8530408119084
20
8.03171627706496
30
0
41
1
10
56.8530568416983
20
8.03171214561911
30
0
41
1
10
56.951332883376
20
8.0063816422971
30
0
41
1
10
57.0536280850694
20
7.97951743802832
30
0
41
1
10
57.2640882219197
20
7.9307222277495
30
0
41
1
10
57.3723571382593
20
7.9077042043381
30
0
41
1
10
57.594020887832
20
7.86558636543069
30
0
41
1
10
57.7078139156937
20
7.84631005474515
30
0
41
1
10
57.823538228656
20
7.82958094388633
30
0
41
1
10
57.8235574062947
20
7.82957817170086
30
0
41
1
10
57.8235765839736
20
7.82957539945278
30
0
0
SPLINE
5
1F2
100
AcDbEntity
8
1
62
256
6
ByLayer
370
13
48
1
60
0
100
AcDbSpline
70
4
71
3
72
16
73
12
40
0
40
0
40
0
40
0
40
5.49005868016E-05
40
5.49005868016E-05
40
0.336585103415494
40
0.336585103415494
40
0.668681511902148
40
0.668681511902148
40
0.999945099413196
40
0.999945099413196
40
1
40
1
40
1
40
1
41
1
10
56.8530247822474
20
9.96827959137579
30
0
41
1
10
56.8530408119894
20
9.96828372297253
30
0
41
1
10
56.8530568416983
20
9.96828785438095
30
0
41
1
10
56.951332883376
20
9.99361835770293
30
0
41
1
10
57.0536280850694
20
10.0204825619717
30
0
41
1
10
57.2640882219197
20
10.0692777722506
30
0
41
1
10
57.3723571382593
20
10.092295795662
30
0
41
1
10
57.594020887832
20
10.1344136345693
30
0
41
1
10
57.7078139156937
20
10.1536899452549
30
0
41
1
10
57.823538228656
20
10.1704190561137
30
0
41
1
10
57.8235574062989
20
10.1704218284313
30
0
41
1
10
57.8235765839736
20
10.1704246005473
30
0
0
SPLINE
5
1F3
100
AcDbEntity
8
1
62
256
6
ByLayer
370
13
48
1
60
0
100
AcDbSpline
70
4
71
3
72
14
73
10
40
0
40
0
40
0
40
0
40
7.60921707146E-05
40
7.60921707146E-05
40
0.558418932331044
40
0.558418932331044
40
0.8175350131134
40
0.8175350131134
40
1
40
1
40
1
40
1
41
1
10
56.8530247822474
20
8.332494106707
30
0
41
1
10
56.8530366680549
20
8.33250787121713
30
0
41
1
10
56.8530485539514
20
8.33252163578447
30
0
41
1
10
56.9402747516225
20
8.43353746559364
30
0
41
1
10
57.0266797916594
20
8.54374768346193
30
0
41
1
10
57.12373030621
20
8.72772243213316
30
0
41
1
10
57.1500662281197
20
8.79070178373587
30
0
41
1
10
57.1777718223726
20
8.90311336443651
30
0
41
1
10
57.1841279769684
20
8.95177163142247
30
0
41
1
10
57.1841229339402
20
9.00005887349496
30
0
0
SPLINE
5
1F4
100
AcDbEntity
8
1
62
256
6
ByLayer
370
13
48
1
60
0
100
AcDbSpline
70
4
71
3
72
9
73
5
40
0
40
0
40
0
40
0
40
0.218499821058687
40
1
40
1
40
1
40
1
41
1
10
57.1841229630374
20
8.9999411265097
30
0
41
1
10
57.2287172982937
20
8.999962894981
30
0
41
1
10
57.4328105329712
20
9.0000625219335
30
0
41
1
10
57.6521571575865
20
9.00002742682983
30
0
41
1
10
57.8235765839736
20
9.00000000000003
30
0
0
SPLINE
5
1F5
100
AcDbEntity
8
1
62
256
6
ByLayer
370
13
48
1
60
0
100
AcDbSpline
70
4
71
3
72
14
73
10
40
0
40
0
40
0
40
0
40
0.229848554188354
40
0.229848554188354
40
0.556132982262946
40
0.556132982262946
40
0.999924050949996
40
0.999924050949996
40
1
40
1
40
1
40
1
41
1
10
57.1841229342492
20
8.99994112650515
30
0
41
1
10
57.1841289378505
20
9.06046816480344
30
0
41
1
10
57.1739446757335
20
9.12160249426066
30
0
41
1
10
57.1318793094983
20
9.26000201197482
30
0
41
1
10
57.0931246863408
20
9.33583263933997
30
0
41
1
10
56.9909514875064
20
9.50053515056183
30
0
41
1
10
56.9226503723761
20
9.5868683149402
30
0
41
1
10
56.8530485539982
20
9.66747319180814
30
0
41
1
10
56.8530366680781
20
9.66748695634556
30
0
41
1
10
56.8530247822474
20
9.66750072082587
30
0
0
SPLINE
5
1F6
100
AcDbEntity
8
1
62
256
6
ByLayer
370
13
48
1
60
0
100
AcDbSpline
70
4
71
3
72
10
73
6
40
0
40
0
40
0
40
0
40
0.895874350650011
40
0.895874350650011
40
1
40
1
40
1
40
1
41
1
10
60.4329929794783
20
6.69793595668267
30
0
41
1
10
60.4235084653762
20
6.69466364075859
30
0
41
1
10
60.4140728812381
20
6.69135632833124
30
0
41
1
10
60.4036592855553
20
6.6876488952804
30
0
41
1
10
60.4025762547404
20
6.68726261097819
30
0
41
1
10
60.4014946002936
20
6.68687612735954
30
0
0
SPLINE
5
1F7
100
AcDbEntity
8
1
62
256
6
ByLayer
370
13
48
1
60
0
100
AcDbSpline
70
4
71
3
72
8
73
4
40
0
40
0
40
0
40
0
40
1
40
1
40
1
40
1
41
1
10
60.5200263771116
20
6.72633970757411
30
0
41
1
10
60.4913140489628
20
6.71743058198493
30
0
41
1
10
60.4617201129099
20
6.70784729797208
30
0
41
1
10
60.4329929794714
20
6.69793595668784
30
0
0
SPLINE
5
1F8
100
AcDbEntity
8
1
62
256
6
ByLayer
370
13
48
1
60
0
100
AcDbSpline
70
4
71
3
72
8
73
4
40
0
40
0
40
0
40
0
40
1
40
1
40
1
40
1
41
1
10
60.5200263771116
20
11.2736602924259
30
0
41
1
10
60.4913140489628
20
11.2825694180151
30
0
41
1
10
60.4617201129099
20
11.292152702028
30
0
41
1
10
60.4329929794714
20
11.3020640433122
30
0
0
SPLINE
5
1F9
100
AcDbEntity
8
1
62
256
6
ByLayer
370
13
48
1
60
0
100
AcDbSpline
70
4
71
3
72
10
73
6
40
0
40
0
40
0
40
0
40
0.895874350650011
40
0.895874350650011
40
1
40
1
40
1
40
1
41
1
10
60.4329929794783
20
11.3020640433174
30
0
41
1
10
60.4235084653765
20
11.3053363592423
30
0
41
1
10
60.4140728812381
20
11.3086436716688
30
0
41
1
10
60.4036592855553
20
11.3123511047196
30
0
41
1
10
60.4025762547404
20
11.3127373890218
30
0
41
1
10
60.4014946002936
20
11.3131238726405
30
0
0
SPLINE
5
1FA
100
AcDbEntity
8
1
62
256
6
ByLayer
370
13
48
1
60
0
100
AcDbSpline
70
4
71
3
72
8
73
4
40
0
40
0
40
0
40
0
40
1
40
1
40
1
40
1
41
1
10
60.5200263771116
20
6.72633970757411
30
0
41
1
10
60.4947547498995
20
6.75390919927136
30
0
41
1
10
60.4676414158413
20
6.78106005606148
30
0
41
1
10
60.4427945046473
20
6.80367846290423
30
0
0
SPLINE
5
1FB
100
AcDbEntity
8
1
62
256
6
ByLayer
370
13
48
1
60
0
100
AcDbSpline
70
4
71
3
72
8
73
4
40
0
40
0
40
0
40
0
40
1
40
1
40
1
40
1
41
1
10
60.4114628213756
20
6.71935427758706
30
0
41
1
10
60.4184891520225
20
6.71229951585843
30
0
41
1
10
60.4256944839945
20
6.70513161156757
30
0
41
1
10
60.432992979458
20
6.69793595666832
30
0
0
SPLINE
5
1FC
100
AcDbEntity
8
1
62
256
6
ByLayer
370
13
48
1
60
0
100
AcDbSpline
70
4
71
3
72
8
73
4
40
0
40
0
40
0
40
0
40
1
40
1
40
1
40
1
41
1
10
60.4427945046473
20
6.80367846290432
30
0
41
1
10
60.4319379533939
20
6.7769311735415
30
0
41
1
10
60.4212332338794
20
6.74828547989426
30
0
41
1
10
60.4114628213696
20
6.71935427756924
30
0
0
SPLINE
5
1FD
100
AcDbEntity
8
1
62
256
6
ByLayer
370
13
48
1
60
0
100
AcDbSpline
70
4
71
3
72
8
73
4
40
0
40
0
40
0
40
0
40
1
40
1
40
1
40
1
41
1
10
60.4114628213756
20
11.280645722413
30
0
41
1
10
60.4184891520225
20
11.2877004841416
30
0
41
1
10
60.4256944839945
20
11.2948683884325
30
0
41
1
10
60.432992979458
20
11.3020640433317
30
0
0
SPLINE
5
1FE
100
AcDbEntity
8
1
62
256
6
ByLayer
370
13
48
1
60
0
100
AcDbSpline
70
4
71
3
72
8
73
4
40
0
40
0
40
0
40
0
40
1
40
1
40
1
40
1
41
1
10
60.5200263771116
20
11.2736602924259
30
0
41
1
10
60.4947547498995
20
11.2460908007287
30
0
41
1
10
60.4676414158413
20
11.2189399439385
30
0
41
1
10
60.4427945046473
20
11.1963215370958
30
0
0
SPLINE
5
1FF
100
AcDbEntity
8
1
62
256
6
ByLayer
370
13
48
1
60
0
100
AcDbSpline
70
4
71
3
72
8
73
4
40
0
40
0
40
0
40
0
40
1
40
1
40
1
40
1
41
1
10
60.4427945046473
20
11.1963215370957
30
0
41
1
10
60.4319379533939
20
11.2230688264586
30
0
41
1
10
60.4212332338794
20
11.2517145201058
30
0
41
1
10
60.4114628213696
20
11.2806457224308
30
0
0
SPLINE
5
200
100
AcDbEntity
8
1
62
256
6
ByLayer
370
13
48
1
60
0
100
AcDbSpline
70
4
71
3
72
8
73
4
40
0
40
0
40
0
40
0
40
1
40
1
40
1
40
1
41
1
10
56.8530247822474
20
9.66750072082587
30
0
41
1
10
56.7763475749176
20
9.75075967191285
30
0
41
1
10
56.6925991652655
20
9.82461203839563
30
0
41
1
10
56.605883093471
20
9.89160125118374
30
0
0
SPLINE
5
201
100
AcDbEntity
8
1
62
256
6
ByLayer
370
13
48
1
60
0
100
AcDbSpline
70
4
71
3
72
8
73
4
40
0
40
0
40
0
40
0
40
1
40
1
40
1
40
1
41
1
10
56.6058884944385
20
8.10839693958931
30
0
41
1
10
56.6926026707733
20
8.17538525942854
30
0
41
1
10
56.776349203494
20
8.24923658096355
30
0
41
1
10
56.8530247822474
20
8.332494106707
30
0
0
SPLINE
5
202
100
AcDbEntity
8
1
62
256
6
ByLayer
370
13
48
1
60
0
100
AcDbSpline
70
4
71
3
72
10
73
6
40
0
40
0
40
0
40
0
40
0.212029667990108
40
0.212029667990108
40
1
40
1
40
1
40
1
41
1
10
60.5034132847034
20
11.101934969556
30
0
41
1
10
60.4981853000149
20
11.1074607869205
30
0
41
1
10
60.4931085566658
20
11.1132500010077
30
0
41
1
10
60.4702328082275
20
11.1414947814589
30
0
41
1
10
60.4544535780448
20
11.1675970736251
30
0
41
1
10
60.4427945046447
20
11.1963215371024
30
0
0
SPLINE
5
203
100
AcDbEntity
8
1
62
256
6
ByLayer
370
13
48
1
60
0
100
AcDbSpline
70
4
71
3
72
10
73
6
40
0
40
0
40
0
40
0
40
0.212029667990108
40
0.212029667990108
40
1
40
1
40
1
40
1
41
1
10
60.5034132847034
20
6.89806503044409
30
0
41
1
10
60.4981853000149
20
6.8925392130796
30
0
41
1
10
60.4931085566658
20
6.88674999899237
30
0
41
1
10
60.4702328082275
20
6.85850521854113
30
0
41
1
10
60.4544535780448
20
6.83240292637498
30
0
41
1
10
60.4427945046447
20
6.80367846289769
30
0
0
SPLINE
5
204
100
AcDbEntity
8
1
62
256
6
ByLayer
370
13
48
1
60
0
100
AcDbSpline
70
4
71
3
72
8
73
4
40
0
40
0
40
0
40
0
40
1
40
1
40
1
40
1
41
1
10
59.7364283337291
20
6.70901394865851
30
0
41
1
10
59.669644117832
20
6.71486002560454
30
0
41
1
10
59.6030235608226
20
6.72249005355042
30
0
41
1
10
59.5364283337291
20
6.73019415215214
30
0
0
SPLINE
5
205
100
AcDbEntity
8
1
62
256
6
ByLayer
370
13
48
1
60
0
100
AcDbSpline
70
4
71
3
72
8
73
4
40
0
40
0
40
0
40
0
40
1
40
1
40
1
40
1
41
1
10
59.7364283337291
20
11.2909860513415
30
0
41
1
10
59.669644117832
20
11.2851399743955
30
0
41
1
10
59.6030235608226
20
11.2775099464496
30
0
41
1
10
59.5364283337291
20
11.2698058478479
30
0
0
SPLINE
5
206
100
AcDbEntity
8
1
62
256
6
ByLayer
370
13
48
1
60
0
100
AcDbSpline
70
4
71
3
72
8
73
4
40
0
40
0
40
0
40
0
40
1
40
1
40
1
40
1
41
1
10
57.1841229342546
20
8.9999411265039
30
0
41
1
10
57.1621364911967
20
8.9999440880942
30
0
41
1
10
57.1379945562381
20
8.99994704874419
30
0
41
1
10
57.1133346813305
20
8.99994980763242
30
0
0
SPLINE
5
207
100
AcDbEntity
8
1
62
256
6
ByLayer
370
13
48
1
60
0
100
AcDbSpline
70
4
71
3
72
18
73
14
40
0
40
0
40
0
40
0
40
0.0002320476331928
40
0.0002320476331928
40
0.275512896583265
40
0.275512896583265
40
0.549548193740028
40
0.549548193740028
40
0.82034827856401
40
0.82034827856401
40
0.999767952367583
40
0.999767952367583
40
1
40
1
40
1
40
1
41
1
10
55.6238910536757
20
8.8681142101814
30
0
41
1
10
55.6238925498611
20
8.86809452700459
30
0
41
1
10
55.6238940487922
20
8.86807484408556
30
0
41
1
10
55.6256675055207
20
8.84470486788959
30
0
41
1
10
55.6237464564308
20
8.82098730282064
30
0
41
1
10
55.6124048683295
20
8.7767262953013
30
0
41
1
10
55.6028240237109
20
8.7555123739676
30
0
41
1
10
55.5766946646276
20
8.71890543578567
30
0
41
1
10
55.559714314488
20
8.70287548292501
30
0
41
1
10
55.5274022012003
20
8.68247822042548
30
0
41
1
10
55.5131618975272
20
8.67580586486761
30
0
41
1
10
55.4984185892745
20
8.6707916075562
30
0
41
1
10
55.4983996878341
20
8.67078518520887
30
0
41
1
10
55.4983807874304
20
8.67077875981639
30
0
0
SPLINE
5
208
100
AcDbEntity
8
1
62
256
6
ByLayer
370
13
48
1
60
0
100
AcDbSpline
70
4
71
3
72
18
73
14
40
0
40
0
40
0
40
0
40
0.0002327629213411
40
0.0002327629213411
40
0.265137580931158
40
0.265137580931158
40
0.524413902056763
40
0.524413902056763
40
0.787810378106243
40
0.787810378106243
40
0.999767237013987
40
0.999767237013987
40
1
40
1
40
1
40
1
41
1
10
55.4983814923707
20
9.32922124018364
30
0
41
1
10
55.4984003927771
20
9.3292148147944
30
0
41
1
10
55.4984192942203
20
9.32920839245051
30
0
41
1
10
55.5199474313848
20
9.32188659288448
30
0
41
1
10
55.5405076835733
20
9.31086987952233
30
0
41
1
10
55.574619497618
20
9.28317573158935
30
0
41
1
10
55.588861041942
20
9.26621633196257
30
0
41
1
10
55.6101948543781
20
9.22870734985429
30
0
41
1
10
55.6175625642358
20
9.20755037949525
30
0
41
1
10
55.6244402017238
20
9.16828601810352
30
0
41
1
10
55.6252680311182
20
9.15002735697018
30
0
41
1
10
55.6238942663069
20
9.13192515587184
30
0
41
1
10
55.623892767313
20
9.13190547297421
30
0
41
1
10
55.623891271065
20
9.13188578981863
30
0
0
SPLINE
5
209
100
AcDbEntity
8
1
62
256
6
ByLayer
370
13
48
1
60
0
100
AcDbSpline
70
4
71
3
72
16
73
12
40
0
40
0
40
0
40
0
40
0.0003234024746366
40
0.0003234024746366
40
0.282080396684608
40
0.282080396684608
40
0.564087672846331
40
0.564087672846331
40
0.999676597525353
40
0.999676597525353
40
1
40
1
40
1
40
1
41
1
10
55.3228255532625
20
9.40057696339886
30
0
41
1
10
55.3228431394738
20
9.40056905669337
30
0
41
1
10
55.3228607255774
20
9.40056114976892
30
0
41
1
10
55.3382000012656
20
9.39366485755991
30
0
41
1
10
55.3536112434707
20
9.38691879433725
30
0
41
1
10
55.3846122205563
20
9.37370794526709
30
0
41
1
10
55.4002038103746
20
9.36724268540061
30
0
41
1
10
55.4400732534561
20
9.35115866766094
30
0
41
1
10
55.4644631576176
20
9.34173767788553
30
0
41
1
10
55.4890367141859
20
9.33265491893209
30
0
41
1
10
55.4890549466884
20
9.33264818037915
30
0
41
1
10
55.4890731791048
20
9.33264144161697
30
0
0
SPLINE
5
20A
100
AcDbEntity
8
1
62
256
6
ByLayer
370
13
48
1
60
0
100
AcDbSpline
70
4
71
3
72
16
73
12
40
0
40
0
40
0
40
0
40
0.0003234009625968
40
0.0003234009625968
40
0.281891295778052
40
0.281891295778052
40
0.563857518034444
40
0.563857518034444
40
0.999676599037414
40
0.999676599037414
40
1
40
1
40
1
40
1
41
1
10
55.4890724776759
20
8.66735855838311
30
0
41
1
10
55.4890542452637
20
8.66735181962
30
0
41
1
10
55.4890360127653
20
8.66734508106615
30
0
41
1
10
55.4731438796106
20
8.66147110564123
30
0
41
1
10
55.4573395823256
20
8.65545989812981
30
0
41
1
10
55.4258607502035
20
8.64314240429675
30
0
41
1
10
55.4101848014627
20
8.63683507424761
30
0
41
1
10
55.3704882686511
20
8.62041489126864
30
0
41
1
10
55.3465753514895
20
8.61010084963331
30
0
41
1
10
55.3228601099431
20
8.59943885023412
30
0
41
1
10
55.3228425238483
20
8.59943094330816
30
0
41
1
10
55.3228249376458
20
8.59942303660119
30
0
0
SPLINE
5
20B
100
AcDbEntity
8
1
62
256
6
ByLayer
370
13
48
1
60
0
100
AcDbSpline
70
4
71
3
72
10
73
6
40
0
40
0
40
0
40
0
40
0.584811321004001
40
0.584811321004001
40
1
40
1
40
1
40
1
41
1
10
61.3229218619212
20
7.54627785188075
30
0
41
1
10
61.3671269207748
20
7.54765519864503
30
0
41
1
10
61.4120128950401
20
7.54448051517716
30
0
41
1
10
61.4856471034018
20
7.52587655252441
30
0
41
1
10
61.5158168934823
20
7.51399523035849
30
0
41
1
10
61.5429134307967
20
7.4968741772287
30
0
0
SPLINE
5
20C
100
AcDbEntity
8
1
62
256
6
ByLayer
370
13
48
1
60
0
100
AcDbSpline
70
4
71
3
72
10
73
6
40
0
40
0
40
0
40
0
40
0.584811321004001
40
0.584811321004001
40
1
40
1
40
1
40
1
41
1
10
61.3229218619212
20
10.4537221481193
30
0
41
1
10
61.3671269207748
20
10.452344801355
30
0
41
1
10
61.4120128950401
20
10.4555194848229
30
0
41
1
10
61.4856471034018
20
10.4741234474756
30
0
41
1
10
61.5158168934823
20
10.4860047696416
30
0
41
1
10
61.5429134307967
20
10.5031258227714
30
0
0
SPLINE
5
20D
100
AcDbEntity
8
1
62
256
6
ByLayer
370
13
48
1
60
0
100
AcDbSpline
70
4
71
2
72
6
73
3
40
0
40
0
40
0
40
1
40
1
40
1
41
1
10
55.2239816481906
20
9.51804832371803
30
0
41
0.916194302198624
10
55.2501201860674
20
9.4354612835997
30
0
41
1
10
55.3228255532625
20
9.40057696339886
30
0
0
SPLINE
5
20E
100
AcDbEntity
8
1
62
256
6
ByLayer
370
13
48
1
60
0
100
AcDbSpline
70
4
71
2
72
6
73
3
40
0
40
0
40
0
40
1
40
1
40
1
41
1
10
55.3228249376458
20
8.59942303660119
30
0
41
0.916194302198624
10
55.2501195704508
20
8.56453871640032
30
0
41
1
10
55.2239810325739
20
8.48195167628202
30
0
0
SPLINE
5
20F
100
AcDbEntity
8
1
62
256
6
ByLayer
370
13
48
1
60
0
100
AcDbSpline
70
4
71
3
72
8
73
4
40
0
40
0
40
0
40
0
40
1
40
1
40
1
40
1
41
1
10
61.5429134307958
20
7.49687417722831
30
0
41
1
10
61.5523662605101
20
7.47298294745448
30
0
41
1
10
61.5618537680905
20
7.44880513133452
30
0
41
1
10
61.5722442519059
20
7.42501327136253
30
0
0
SPLINE
5
210
100
AcDbEntity
8
1
62
256
6
ByLayer
370
13
48
1
60
0
100
AcDbSpline
70
4
71
3
72
8
73
4
40
0
40
0
40
0
40
0
40
1
40
1
40
1
40
1
41
1
10
55.4890731791048
20
9.33264144161694
30
0
41
1
10
55.4921756280065
20
9.33150129611599
30
0
41
1
10
55.4952783994478
20
9.33036122880179
30
0
41
1
10
55.4983814923706
20
9.32922124018361
30
0
0
SPLINE
5
211
100
AcDbEntity
8
1
62
256
6
ByLayer
370
13
48
1
60
0
100
AcDbSpline
70
4
71
3
72
8
73
4
40
0
40
0
40
0
40
0
40
1
40
1
40
1
40
1
41
1
10
55.4983807874304
20
8.67077875981639
30
0
41
1
10
55.4952776956559
20
8.6696387712031
30
0
41
1
10
55.4921749253846
20
8.66849870388896
30
0
41
1
10
55.4890724776757
20
8.66735855838317
30
0
0
SPLINE
5
212
100
AcDbEntity
8
1
62
256
6
ByLayer
370
13
48
1
60
0
100
AcDbSpline
70
4
71
3
72
8
73
4
40
0
40
0
40
0
40
0
40
1
40
1
40
1
40
1
41
1
10
61.5429134307958
20
10.5031258227718
30
0
41
1
10
61.5523662605101
20
10.5270170525456
30
0
41
1
10
61.5618537680905
20
10.5511948686655
30
0
41
1
10
61.5722442519059
20
10.5749867286375
30
0
0
SPLINE
5
213
100
AcDbEntity
8
1
62
256
6
ByLayer
370
13
48
1
60
0
100
AcDbSpline
70
4
71
2
72
6
73
3
40
0
40
0
40
0
40
1
40
1
40
1
41
1
10
55.0979577447373
20
9.40057696339886
30
0
41
1
10
55.2103916489999
20
9.40057696339886
30
0
41
1
10
55.3228255532625
20
9.40057696339886
30
0
0
SPLINE
5
214
100
AcDbEntity
8
1
62
256
6
ByLayer
370
13
48
1
60
0
100
AcDbSpline
70
4
71
2
72
6
73
3
40
0
40
0
40
0
40
1
40
1
40
1
41
1
10
55.0979577447373
20
9.40057696339886
30
0
41
0.916194302198624
10
55.0252523775422
20
9.43546128359974
30
0
41
1
10
54.9991138396653
20
9.51804832371803
30
0
0
SPLINE
5
215
100
AcDbEntity
8
1
62
256
6
ByLayer
370
13
48
1
60
0
100
AcDbSpline
70
4
71
2
72
6
73
3
40
0
40
0
40
0
40
1
40
1
40
1
41
1
10
55.0979577447373
20
8.59942303660119
30
0
41
0.916194302198624
10
55.0252523775422
20
8.5645387164003
30
0
41
1
10
54.9991138396653
20
8.48195167628202
30
0
0
SPLINE
5
216
100
AcDbEntity
8
1
62
256
6
ByLayer
370
13
48
1
60
0
100
AcDbSpline
70
4
71
2
72
6
73
3
40
0
40
0
40
0
40
1
40
1
40
1
41
1
10
55.0979577447373
20
8.59942303660119
30
0
41
1
10
55.2103913411916
20
8.59942303660119
30
0
41
1
10
55.3228249376458
20
8.59942303660119
30
0
0
SPLINE
5
217
100
AcDbEntity
8
1
62
256
6
ByLayer
370
13
48
1
60
0
100
AcDbSpline
70
4
71
3
72
12
73
8
40
0
40
0
40
0
40
0
40
0.222210269969675
40
0.222210269969675
40
0.98789629981278
40
0.98789629981278
40
1
40
1
40
1
40
1
41
1
10
61.5762578641567
20
10.5900225555476
30
0
41
1
10
61.5780568600709
20
10.5943010647159
30
0
41
1
10
61.5798523269257
20
10.5985826698891
30
0
41
1
10
61.5878141103188
20
10.617624085586
30
0
41
1
10
61.5939377359823
20
10.6324167832533
30
0
41
1
10
61.6000844674869
20
10.6474550211962
30
0
41
1
10
61.6001801280619
20
10.647689118509
30
0
41
1
10
61.6002757733597
20
10.6479232188578
30
0
0
SPLINE
5
218
100
AcDbEntity
8
1
62
256
6
ByLayer
370
13
48
1
60
0
100
AcDbSpline
70
4
71
3
72
12
73
8
40
0
40
0
40
0
40
0
40
0.222210270055733
40
0.222210270055733
40
0.987896300195374
40
0.987896300195374
40
1
40
1
40
1
40
1
41
1
10
61.5762578641567
20
7.40997744445247
30
0
41
1
10
61.5780568600709
20
7.40569893528416
30
0
41
1
10
61.5798523269257
20
7.40141733011097
30
0
41
1
10
61.5878141103188
20
7.38237591441398
30
0
41
1
10
61.5939377359823
20
7.36758321674677
30
0
41
1
10
61.6000844674839
20
7.3525449788111
30
0
41
1
10
61.6001801280885
20
7.35231088151315
30
0
41
1
10
61.600275773394
20
7.35207678117405
30
0
0
SPLINE
5
219
100
AcDbEntity
8
1
62
256
6
ByLayer
370
13
48
1
60
0
100
AcDbSpline
70
4
71
3
72
8
73
4
40
0
40
0
40
0
40
0
40
1
40
1
40
1
40
1
41
1
10
61.5722442519073
20
7.42501327136316
30
0
41
1
10
61.573599882656
20
7.4200054654859
30
0
41
1
10
61.5749312509392
20
7.41499137194464
30
0
41
1
10
61.5762578641506
20
7.40997744445087
30
0
0
SPLINE
5
21A
100
AcDbEntity
8
1
62
256
6
ByLayer
370
13
48
1
60
0
100
AcDbSpline
70
4
71
3
72
8
73
4
40
0
40
0
40
0
40
0
40
1
40
1
40
1
40
1
41
1
10
61.5722442519073
20
10.5749867286369
30
0
41
1
10
61.573599882656
20
10.5799945345142
30
0
41
1
10
61.5749312509392
20
10.5850086280554
30
0
41
1
10
61.5762578641506
20
10.5900225555492
30
0
0
SPLINE
5
21B
100
AcDbEntity
8
1
62
256
6
ByLayer
370
13
48
1
60
0
100
AcDbSpline
70
4
71
3
72
8
73
4
40
0
40
0
40
0
40
0
40
1
40
1
40
1
40
1
41
1
10
60.7350345308899
20
7.53071936448632
30
0
41
1
10
60.9310472934744
20
7.53270754585375
30
0
41
1
10
61.1269821791393
20
7.54017273868189
30
0
41
1
10
61.3229218619212
20
7.54627785188075
30
0
0
SPLINE
5
21C
100
AcDbEntity
8
1
62
256
6
ByLayer
370
13
48
1
60
0
100
AcDbSpline
70
4
71
3
72
8
73
4
40
0
40
0
40
0
40
0
40
1
40
1
40
1
40
1
41
1
10
60.7350345308899
20
10.4692806355137
30
0
41
1
10
60.9310472934744
20
10.4672924541463
30
0
41
1
10
61.1269821791393
20
10.4598272613181
30
0
41
1
10
61.3229218619212
20
10.4537221481193
30
0
0
SPLINE
5
21D
100
AcDbEntity
8
1
62
256
6
ByLayer
370
13
48
1
60
0
100
AcDbSpline
70
4
71
2
72
6
73
3
40
0
40
0
40
0
40
1
40
1
40
1
41
1
10
55.2522783035128
20
9.33264144161694
30
0
41
1
10
55.3706757413088
20
9.33264144161694
30
0
41
1
10
55.4890731791048
20
9.33264144161694
30
0
0
SPLINE
5
21E
100
AcDbEntity
8
1
62
256
6
ByLayer
370
13
48
1
60
0
100
AcDbSpline
70
4
71
2
72
6
73
3
40
0
40
0
40
0
40
1
40
1
40
1
41
1
10
55.2522783035128
20
9.33264144161694
30
0
41
0.999533107184472
10
55.1741769618959
20
9.36400668421044
30
0
41
1
10
55.0979577447373
20
9.40057696339886
30
0
0
SPLINE
5
21F
100
AcDbEntity
8
1
62
256
6
ByLayer
370
13
48
1
60
0
100
AcDbSpline
70
4
71
2
72
6
73
3
40
0
40
0
40
0
40
1
40
1
40
1
41
1
10
55.2522783035128
20
8.66735855838311
30
0
41
0.999533107184472
10
55.1741769618959
20
8.63599331578958
30
0
41
1
10
55.0979577447373
20
8.59942303660119
30
0
0
SPLINE
5
220
100
AcDbEntity
8
1
62
256
6
ByLayer
370
13
48
1
60
0
100
AcDbSpline
70
4
71
3
72
8
73
4
40
0
40
0
40
0
40
0
40
1
40
1
40
1
40
1
41
1
10
55.6238912710649
20
9.13188578981863
30
0
41
1
10
55.6204763080656
20
9.0443340291076
30
0
41
1
10
55.6204762357743
20
8.95566600257911
30
0
41
1
10
55.6238910536757
20
8.8681142101814
30
0
0
SPLINE
5
221
100
AcDbEntity
8
1
62
256
6
ByLayer
370
13
48
1
60
0
100
AcDbSpline
70
4
71
2
72
6
73
3
40
0
40
0
40
0
40
1
40
1
40
1
41
1
10
55.2522783035128
20
8.66735855838311
30
0
41
1
10
55.3706753905943
20
8.66735855838311
30
0
41
1
10
55.4890724776759
20
8.66735855838311
30
0
0
SPLINE
5
222
100
AcDbEntity
8
1
62
256
6
ByLayer
370
13
48
1
60
0
100
AcDbSpline
70
4
71
2
72
6
73
3
40
0
40
0
40
0
40
1
40
1
40
1
41
0.987111961358669
10
54.9639978396661
20
9.51804832371798
30
0
41
0.99289230459226
10
54.9827927263456
20
9.51804832371802
30
0
41
1
10
54.9991138396653
20
9.51804832371803
30
0
0
SPLINE
5
223
100
AcDbEntity
8
1
62
256
6
ByLayer
370
13
48
1
60
0
100
AcDbSpline
70
4
71
2
72
6
73
3
40
0
40
0
40
0
40
1
40
1
40
1
41
0.987111961358669
10
54.9639978396661
20
8.481951676282
30
0
41
0.99289230459226
10
54.9827927263456
20
8.48195167628202
30
0
41
1
10
54.9991138396653
20
8.48195167628202
30
0
0
SPLINE
5
224
100
AcDbEntity
8
1
62
256
6
ByLayer
370
13
48
1
60
0
100
AcDbSpline
70
4
71
2
72
6
73
3
40
0
40
0
40
0
40
1
40
1
40
1
41
1
10
55.3860245871508
20
8.8681142101814
30
0
41
0.819152044288999
10
55.3860245871508
20
8.72107062715738
30
0
41
1
10
55.2607948109092
20
8.67077875981639
30
0
0
SPLINE
5
225
100
AcDbEntity
8
1
62
256
6
ByLayer
370
13
48
1
60
0
100
AcDbSpline
70
4
71
2
72
6
73
3
40
0
40
0
40
0
40
1
40
1
40
1
41
1
10
55.3860245871508
20
8.8681142101814
30
0
41
1
10
55.5049578204132
20
8.8681142101814
30
0
41
1
10
55.6238910536757
20
8.8681142101814
30
0
0
SPLINE
5
226
100
AcDbEntity
8
1
62
256
6
ByLayer
370
13
48
1
60
0
100
AcDbSpline
70
4
71
2
72
6
73
3
40
0
40
0
40
0
40
1
40
1
40
1
41
1
10
55.3860245871508
20
9.13188578981863
30
0
41
1
10
55.5049579291079
20
9.13188578981863
30
0
41
1
10
55.623891271065
20
9.13188578981863
30
0
0
SPLINE
5
227
100
AcDbEntity
8
1
62
256
6
ByLayer
370
13
48
1
60
0
100
AcDbSpline
70
4
71
2
72
6
73
3
40
0
40
0
40
0
40
1
40
1
40
1
41
1
10
55.3860245871508
20
9.13188578981863
30
0
41
0.819152044288999
10
55.3860245871508
20
9.27892937284263
30
0
41
1
10
55.2607948109092
20
9.32922124018364
30
0
0
SPLINE
5
228
100
AcDbEntity
8
1
62
256
6
ByLayer
370
13
48
1
60
0
100
AcDbSpline
70
4
71
3
72
10
73
6
40
0
40
0
40
0
40
0
40
0.0277062621811719
40
0.0277062621811719
40
1
40
1
40
1
40
1
41
1
10
58.5737540913005
20
7.72187242208346
30
0
41
1
10
58.582957552434
20
7.7203505368206
30
0
41
1
10
58.5921671033024
20
7.71886501113795
30
0
41
1
10
58.9247369993411
20
7.66659969693379
30
0
41
1
10
59.2493640632668
20
7.62417836461813
30
0
41
1
10
59.5737540913005
20
7.58045587935021
30
0
0
SPLINE
5
229
100
AcDbEntity
8
1
62
256
6
ByLayer
370
13
48
1
60
0
100
AcDbSpline
70
4
71
3
72
10
73
6
40
0
40
0
40
0
40
0
40
0.0277062621811719
40
0.0277062621811719
40
1
40
1
40
1
40
1
41
1
10
58.5737540913005
20
10.2781275779166
30
0
41
1
10
58.582957552434
20
10.2796494631794
30
0
41
1
10
58.5921671033024
20
10.2811349888621
30
0
41
1
10
58.9247369993411
20
10.3334003030663
30
0
41
1
10
59.2493640632668
20
10.3758216353819
30
0
41
1
10
59.5737540913005
20
10.4195441206498
30
0
0
SPLINE
5
22A
100
AcDbEntity
8
1
62
256
6
ByLayer
370
13
48
1
60
0
100
AcDbSpline
70
4
71
2
72
6
73
3
40
0
40
0
40
0
40
1
40
1
40
1
41
1
10
55.2607948109092
20
9.32922124018364
30
0
41
1
10
55.256536557211
20
9.33093134090029
30
0
41
1
10
55.2522783035128
20
9.33264144161694
30
0
0
SPLINE
5
22B
100
AcDbEntity
8
1
62
256
6
ByLayer
370
13
48
1
60
0
100
AcDbSpline
70
4
71
2
72
6
73
3
40
0
40
0
40
0
40
1
40
1
40
1
41
1
10
55.2607948109092
20
8.67077875981639
30
0
41
1
10
55.256536557211
20
8.66906865909976
30
0
41
1
10
55.2522783035128
20
8.66735855838311
30
0
0
SPLINE
5
22C
100
AcDbEntity
8
1
62
256
6
ByLayer
370
13
48
1
60
0
100
AcDbSpline
70
4
71
2
72
6
73
3
40
0
40
0
40
0
40
1
40
1
40
1
41
1
10
55.3860245871508
20
9.00000000000003
30
0
41
1
10
55.3860245871508
20
9.06594289490934
30
0
41
1
10
55.3860245871508
20
9.13188578981863
30
0
0
SPLINE
5
22D
100
AcDbEntity
8
1
62
256
6
ByLayer
370
13
48
1
60
0
100
AcDbSpline
70
4
71
2
72
6
73
3
40
0
40
0
40
0
40
1
40
1
40
1
41
1
10
55.3860245871508
20
9.00000000000003
30
0
41
1
10
55.3860245871508
20
8.93405710509072
30
0
41
1
10
55.3860245871508
20
8.8681142101814
30
0
0
SPLINE
5
22E
100
AcDbEntity
8
1
62
256
6
ByLayer
370
13
48
1
60
0
100
AcDbSpline
70
4
71
3
72
10
73
6
40
0
40
0
40
0
40
0
40
0.931419946954144
40
0.931419946954144
40
1
40
1
40
1
40
1
41
1
10
60.1195
20
7.52257208760238
30
0
41
1
10
60.3152925310123
20
7.52292774315166
30
0
41
1
10
60.5085438810411
20
7.52854779625994
30
0
41
1
10
60.7077128398513
20
7.53046609547926
30
0
41
1
10
60.7213934636665
20
7.5305943914457
30
0
41
1
10
60.7350345308899
20
7.53071936448632
30
0
0
SPLINE
5
22F
100
AcDbEntity
8
1
62
256
6
ByLayer
370
13
48
1
60
0
100
AcDbSpline
70
4
71
3
72
10
73
6
40
0
40
0
40
0
40
0
40
0.903960670209891
40
0.903960670209891
40
1
40
1
40
1
40
1
41
1
10
57.8235765839736
20
7.82957539945278
30
0
41
1
10
58.0442936078568
20
7.79770072561757
30
0
41
1
10
58.2730936844326
20
7.7663720409449
30
0
41
1
10
58.5250664073007
20
7.72910818820046
30
0
41
1
10
58.5494118712316
20
7.72549513085644
30
0
41
1
10
58.5737540913005
20
7.72187242208346
30
0
0
SPLINE
5
230
100
AcDbEntity
8
1
62
256
6
ByLayer
370
13
48
1
60
0
100
AcDbSpline
70
4
71
3
72
10
73
6
40
0
40
0
40
0
40
0
40
0.903960670209891
40
0.903960670209891
40
1
40
1
40
1
40
1
41
1
10
57.8235765839736
20
10.1704246005473
30
0
41
1
10
58.0442936078568
20
10.2022992743825
30
0
41
1
10
58.2730936844326
20
10.2336279590551
30
0
41
1
10
58.5250664073007
20
10.2708918117996
30
0
41
1
10
58.5494118712316
20
10.2745048691436
30
0
41
1
10
58.5737540913005
20
10.2781275779166
30
0
0
SPLINE
5
231
100
AcDbEntity
8
1
62
256
6
ByLayer
370
13
48
1
60
0
100
AcDbSpline
70
4
71
3
72
10
73
6
40
0
40
0
40
0
40
0
40
0.931419946954144
40
0.931419946954144
40
1
40
1
40
1
40
1
41
1
10
60.1195
20
10.4774279123977
30
0
41
1
10
60.3152925310123
20
10.4770722568484
30
0
41
1
10
60.5085438810411
20
10.4714522037401
30
0
41
1
10
60.7077128398513
20
10.4695339045208
30
0
41
1
10
60.7213934636665
20
10.4694056085544
30
0
41
1
10
60.7350345308899
20
10.4692806355137
30
0
0
SPLINE
5
232
100
AcDbEntity
8
1
62
256
6
ByLayer
370
13
48
1
60
0
100
AcDbSpline
70
4
71
3
72
14
73
10
40
0
40
0
40
0
40
0
40
0.0002001723396691
40
0.0002001723396691
40
0.544817124375757
40
0.544817124375757
40
0.999799827660401
40
0.999799827660401
40
1
40
1
40
1
40
1
41
1
10
59.8235765839736
20
10.453054711349
30
0
41
1
10
59.8235963346731
20
10.4530574241898
30
0
41
1
10
59.8236160854019
20
10.4530601368505
30
0
41
1
10
59.8773642128689
20
10.4604425073667
30
0
41
1
10
59.931027796825
20
10.4681096266396
30
0
41
1
10
60.0297159139309
20
10.4758155388835
30
0
41
1
10
60.074691741791
20
10.4775077314129
30
0
41
1
10
60.1194606247576
20
10.4774279834847
30
0
41
1
10
60.1194803124042
20
10.4774279480596
30
0
41
1
10
60.1195
20
10.4774279123977
30
0
0
SPLINE
5
233
100
AcDbEntity
8
1
62
256
6
ByLayer
370
13
48
1
60
0
100
AcDbSpline
70
4
71
3
72
14
73
10
40
0
40
0
40
0
40
0
40
0.0002001723396691
40
0.0002001723396691
40
0.544817124375757
40
0.544817124375757
40
0.999799827660401
40
0.999799827660401
40
1
40
1
40
1
40
1
41
1
10
59.8235765839736
20
7.54694528865102
30
0
41
1
10
59.823596334694
20
7.54694257589023
30
0
41
1
10
59.8236160854019
20
7.5469398631495
30
0
41
1
10
59.8773642128689
20
7.53955749263332
30
0
41
1
10
59.931027796825
20
7.53189037336045
30
0
41
1
10
60.0297159139309
20
7.52418446111656
30
0
41
1
10
60.074691741791
20
7.52249226858712
30
0
41
1
10
60.1194606247576
20
7.52257201651531
30
0
41
1
10
60.1194803123958
20
7.52257205221664
30
0
41
1
10
60.1195
20
7.52257208760238
30
0
0
SPLINE
5
234
100
AcDbEntity
8
1
62
256
6
ByLayer
370
13
48
1
60
0
100
AcDbSpline
70
4
71
3
72
12
73
8
40
0
40
0
40
0
40
0
40
0.540730446954289
40
0.540730446954289
40
0.953322112631191
40
0.953322112631191
40
1
40
1
40
1
40
1
41
1
10
59.5737540913005
20
10.4195441206498
30
0
41
1
10
59.6188962912315
20
10.4250397369405
30
0
41
1
10
59.6639474368249
20
10.4313437231657
30
0
41
1
10
59.7433231581352
20
10.4421143023015
30
0
41
1
10
59.7776596889686
20
10.4467654265191
30
0
41
1
10
59.8158206583502
20
10.4519903946806
30
0
41
1
10
59.8196989730812
20
10.4525221617897
30
0
41
1
10
59.8235765839736
20
10.453054711349
30
0
0
SPLINE
5
235
100
AcDbEntity
8
1
62
256
6
ByLayer
370
13
48
1
60
0
100
AcDbSpline
70
4
71
3
72
8
73
4
40
0
40
0
40
0
40
0
40
1
40
1
40
1
40
1
41
1
10
59.8235765839736
20
9.00000000000003
30
0
41
1
10
59.9222177226491
20
9.00000000000003
30
0
41
1
10
60.0208588613245
20
9.00000000000003
30
0
41
1
10
60.1195
20
9.00000000000003
30
0
0
SPLINE
5
236
100
AcDbEntity
8
1
62
256
6
ByLayer
370
13
48
1
60
0
100
AcDbSpline
70
4
71
3
72
12
73
8
40
0
40
0
40
0
40
0
40
0.540730446954289
40
0.540730446954289
40
0.953322112631191
40
0.953322112631191
40
1
40
1
40
1
40
1
41
1
10
59.5737540913005
20
7.58045587935021
30
0
41
1
10
59.6188962912315
20
7.57496026305955
30
0
41
1
10
59.6639474368249
20
7.5686562768343
30
0
41
1
10
59.7433231581352
20
7.55788569769857
30
0
41
1
10
59.7776596889686
20
7.55323457348095
30
0
41
1
10
59.8158206583502
20
7.54800960531938
30
0
41
1
10
59.8196989730812
20
7.54747783821034
30
0
41
1
10
59.8235765839736
20
7.54694528865102
30
0
0
SPLINE
5
237
100
AcDbEntity
8
1
62
256
6
ByLayer
370
13
48
1
60
0
100
AcDbSpline
70
4
71
2
72
6
73
3
40
0
40
0
40
0
40
1
40
1
40
1
41
0.980539451562259
10
55.032706744751
20
8.59942303660117
30
0
41
0.988546313764504
10
55.0688567005648
20
8.59942303660122
30
0
41
1
10
55.0979577447373
20
8.59942303660119
30
0
0
SPLINE
5
238
100
AcDbEntity
8
1
62
256
6
ByLayer
370
13
48
1
60
0
100
AcDbSpline
70
4
71
2
72
6
73
3
40
0
40
0
40
0
40
1
40
1
40
1
41
0.979740007748665
10
55.0290087447464
20
9.40057696339886
30
0
41
0.987968238203309
10
55.067370063635
20
9.40057696339888
30
0
41
1
10
55.0979577447373
20
9.40057696339886
30
0
0
SPLINE
5
239
100
AcDbEntity
8
1
62
256
6
ByLayer
370
13
48
1
60
0
100
AcDbSpline
70
4
71
2
72
6
73
3
40
0
40
0
40
0
40
1
40
1
40
1
41
0.981129398986952
10
55.1806653035164
20
9.3326414416169
30
0
41
0.988964974991599
10
55.2202161407848
20
9.33264144161692
30
0
41
1
10
55.2522783035128
20
9.33264144161694
30
0
0
SPLINE
5
23A
100
AcDbEntity
8
1
62
256
6
ByLayer
370
13
48
1
60
0
100
AcDbSpline
70
4
71
2
72
6
73
3
40
0
40
0
40
0
40
1
40
1
40
1
41
0.981129398986952
10
55.1806653035164
20
8.66735855838311
30
0
41
0.988964974991599
10
55.2202161407848
20
8.6673585583831
30
0
41
1
10
55.2522783035128
20
8.66735855838311
30
0
0
SPLINE
5
23B
100
AcDbEntity
8
1
62
256
6
ByLayer
370
13
48
1
60
0
100
AcDbSpline
70
4
71
2
72
6
73
3
40
0
40
0
40
0
40
1
40
1
40
1
41
0.981171512286132
10
55.1888998109079
20
9.3292212401836
30
0
41
0.988994613311809
10
55.2285975512007
20
9.32922124018363
30
0
41
1
10
55.2607948109092
20
9.32922124018364
30
0
0
SPLINE
5
23C
100
AcDbEntity
8
1
62
256
6
ByLayer
370
13
48
1
60
0
100
AcDbSpline
70
4
71
2
72
6
73
3
40
0
40
0
40
0
40
1
40
1
40
1
41
0.98045632343229
10
55.3027485871473
20
9.13188578981865
30
0
41
0.988486790463338
10
55.3489049885768
20
9.13188578981862
30
0
41
1
10
55.3860245871508
20
9.13188578981863
30
0
0
SPLINE
5
23D
100
AcDbEntity
8
1
62
256
6
ByLayer
370
13
48
1
60
0
100
AcDbSpline
70
4
71
2
72
6
73
3
40
0
40
0
40
0
40
1
40
1
40
1
41
0.98178335686916
10
55.3102415871541
20
8.8681142101814
30
0
41
0.989421609299329
10
55.3519511500814
20
8.86811421018142
30
0
41
1
10
55.3860245871508
20
8.8681142101814
30
0
0
SPLINE
5
23E
100
AcDbEntity
8
1
62
256
6
ByLayer
370
18
48
1
60
0
100
AcDbSpline
70
4
71
3
72
10
73
6
40
0
40
0
40
0
40
0
40
0.491597105971547
40
0.491597105971547
40
1
40
1
40
1
40
1
41
1
10
47.8724913678668
20
6.32090297269758
30
0
41
1
10
47.8936291819646
20
6.31380127124521
30
0
41
1
10
47.9149576710834
20
6.30857275644414
30
0
41
1
10
47.9576215142475
20
6.30163943989652
30
0
41
1
10
47.979173972623
20
6.29999999999996
30
0
41
1
10
48
20
6.29999999999996
30
0
0
SPLINE
5
23F
100
AcDbEntity
8
1
62
256
6
ByLayer
370
18
48
1
60
0
100
AcDbSpline
70
4
71
3
72
10
73
6
40
0
40
0
40
0
40
0
40
0.897705894104812
40
0.897705894104812
40
1
40
1
40
1
40
1
41
1
10
48
20
11.7
30
0
41
1
10
47.9617865361499
20
11.7
30
0
41
1
10
47.9207420749075
20
11.6943343105252
30
0
41
1
10
47.8758860617243
20
11.6802877174301
30
0
41
1
10
47.8713037776589
20
11.6787579034074
30
0
41
1
10
47.8667246984264
20
11.6771335467321
30
0
0
SPLINE
5
240
100
AcDbEntity
8
1
62
256
6
ByLayer
370
13
48
1
60
0
100
AcDbSpline
70
4
71
2
72
6
73
3
40
0
40
0
40
0
40
1
40
1
40
1
41
0.981171512286132
10
55.1888998109079
20
8.67077875981637
30
0
41
0.988994613311809
10
55.2285975512007
20
8.67077875981638
30
0
41
1
10
55.2607948109092
20
8.67077875981639
30
0
0
SPLINE
5
241
100
AcDbEntity
8
1
62
256
6
ByLayer
370
13
48
1
60
0
100
AcDbSpline
70
4
71
2
72
6
73
3
40
0
40
0
40
0
40
1
40
1
40
1
41
0.981783356869051
10
55.3102415871535
20
9.00000000000003
30
0
41
0.989421609299253
10
55.3519511500811
20
9.00000000000003
30
0
41
1
10
55.3860245871508
20
9.00000000000003
30
0
0
SPLINE
5
242
100
AcDbEntity
8
1
62
256
6
ByLayer
370
18
48
1
60
0
100
AcDbSpline
70
4
71
3
72
8
73
4
40
0
40
0
40
0
40
0
40
1
40
1
40
1
40
1
41
1
10
11.888836875848
20
-0.317851501380346
30
0
41
1
10
11.9229095417645
20
-0.322189872669895
30
0
41
1
10
11.9563743682073
20
-0.324980947161834
30
0
41
1
10
11.9882514452452
20
-0.324980947161663
30
0
0
SPLINE
5
243
100
AcDbEntity
8
1
62
256
6
ByLayer
370
18
48
1
60
0
100
AcDbSpline
70
4
71
3
72
8
73
4
40
0
40
0
40
0
40
0
40
1
40
1
40
1
40
1
41
1
10
-11.8888368758486
20
-0.31785150138046
30
0
41
1
10
-11.9229095417652
20
-0.322189872669981
30
0
41
1
10
-11.9563743682079
20
-0.324980947161919
30
0
41
1
10
-11.9882514452459
20
-0.324980947161663
30
0
0
SPLINE
5
244
100
AcDbEntity
8
1
62
256
6
ByLayer
370
18
48
1
60
0
100
AcDbSpline
70
4
71
3
72
10
73
6
40
0
40
0
40
0
40
0
40
0.714320902179692
40
0.714320902179692
40
1
40
1
40
1
40
1
41
1
10
-12.0715924641049
20
-0.249980947161816
30
0
41
1
10
-12.0034758815139
20
-0.279771282393796
30
0
41
1
10
-11.9334098764061
20
-0.303449618178149
30
0
41
1
10
-11.8408730355727
20
-0.321515027831708
30
0
41
1
10
-11.8145602682299
20
-0.324980947160384
30
0
41
1
10
-11.7904053433558
20
-0.324980947161691
30
0
0
SPLINE
5
245
100
AcDbEntity
8
1
62
256
6
ByLayer
370
18
48
1
60
0
100
AcDbSpline
70
4
71
3
72
24
73
20
40
0
40
0
40
0
40
0
40
0.441085364093833
40
0.441085364093833
40
0.632349726738106
40
0.632349726738106
40
0.769815089434512
40
0.769815089434512
40
0.818093573861652
40
0.818093573861652
40
0.866988874481507
40
0.866988874481507
40
0.89772921920223
40
0.89772921920223
40
0.928744819832719
40
0.928744819832719
40
0.957005194047864
40
0.957005194047864
40
1
40
1
40
1
40
1
41
1
10
9.28418104530812
20
0.394519052838376
30
0
41
1
10
9.38250428331912
20
0.425188873199517
30
0
41
1
10
9.48211334891894
20
0.449882675710285
30
0
41
1
10
9.62130810046412
20
0.472231488335666
30
0
41
1
10
9.66336231315205
20
0.477297611577683
30
0
41
1
10
9.73290379120709
20
0.480174337999642
30
0
41
1
10
9.76164276994709
20
0.479771064349365
30
0
41
1
10
9.79635945319598
20
0.473663831624634
30
0
41
1
10
9.80507510835685
20
0.471512273660323
30
0
41
1
10
9.82082659342112
20
0.465476192632252
30
0
41
1
10
9.82800901879025
20
0.46149986833197
30
0
41
1
10
9.83636377353508
20
0.452876879253864
30
0
41
1
10
9.8387996014273
20
0.448932681092117
30
0
41
1
10
9.84116944658126
20
0.440086233306062
30
0
41
1
10
9.84108063858938
20
0.435053746645622
30
0
41
1
10
9.83851127653023
20
0.425216115211157
30
0
41
1
10
9.83624231582124
20
0.420327216262308
30
0
41
1
10
9.82883165461971
20
0.408342177572194
30
0
41
1
10
9.8227578504291
20
0.401224377748974
30
0
41
1
10
9.81603258289471
20
0.394519052838319
30
0
0
SPLINE
5
246
100
AcDbEntity
8
1
62
256
6
ByLayer
370
18
48
1
60
0
100
AcDbSpline
70
4
71
3
72
12
73
8
40
0
40
0
40
0
40
0
40
0.238284110315799
40
0.238284110315799
40
0.693499188837071
40
0.693499188837071
40
1
40
1
40
1
40
1
41
1
10
14.8124623350354
20
-0.324980947161691
30
0
41
1
10
14.8250665622847
20
-0.324980947160412
30
0
41
1
10
14.8395827836259
20
-0.322563957303316
30
0
41
1
10
14.8834060296336
20
-0.311510242767753
30
0
41
1
10
14.9150040044866
20
-0.299099798672415
30
0
41
1
10
14.9679953734617
20
-0.273999713189198
30
0
41
1
10
14.989708598613
20
-0.262512944022546
30
0
41
1
10
15.011305873316
20
-0.249980947161674
30
0
0
SPLINE
5
247
100
AcDbEntity
8
1
62
256
6
ByLayer
370
18
48
1
60
0
100
AcDbSpline
70
4
71
3
72
22
73
18
40
0
40
0
40
0
40
0
40
0.177047077222608
40
0.177047077222608
40
0.339785040524724
40
0.339785040524724
40
0.464788989047046
40
0.464788989047046
40
0.567727919244636
40
0.567727919244636
40
0.671115022733353
40
0.671115022733353
40
0.768485722371064
40
0.768485722371064
40
0.904659703727702
40
0.904659703727702
40
1
40
1
40
1
40
1
41
1
10
19.3305735632813
20
0.394519052838319
30
0
41
1
10
19.3474079527141
20
0.409331277986496
30
0
41
1
10
19.3639518224561
20
0.423368445185702
30
0
41
1
10
19.3934031678982
20
0.447107157831027
30
0
41
1
10
19.4067710602394
20
0.457281753137437
30
0
41
1
10
19.426675279175
20
0.470882718266608
30
0
41
1
10
19.4342379979462
20
0.47542184304146
30
0
41
1
10
19.4441839844956
20
0.479653035455499
30
0
41
1
10
19.4473170429572
20
0.480069149940647
30
0
41
1
10
19.4498921369933
20
0.477360526903539
30
0
41
1
10
19.4493361027783
20
0.474169203566333
30
0
41
1
10
19.4448670138593
20
0.465050569748286
30
0
41
1
10
19.4411209722358
20
0.459205803319236
30
0
41
1
10
19.4295379618711
20
0.44322350167937
30
0
41
1
10
19.4205240032207
20
0.432077623030921
30
0
41
1
10
19.4033666625409
20
0.412055391539724
30
0
41
1
10
19.3956608366666
20
0.403367268603091
30
0
41
1
10
19.3876104526855
20
0.394519052838319
30
0
0
SPLINE
5
248
100
AcDbEntity
8
1
62
256
6
ByLayer
370
18
48
1
60
0
100
AcDbSpline
70
4
71
3
72
10
73
6
40
0
40
0
40
0
40
0
40
0.710344148694971
40
0.710344148694971
40
1
40
1
40
1
40
1
41
1
10
-9.95818080364208
20
-0.249980947161987
30
0
41
1
10
-9.87162346008668
20
-0.280258805463575
30
0
41
1
10
-9.78322412421903
20
-0.303478624157634
30
0
41
1
10
-9.66295508608408
20
-0.32148053892422
30
0
41
1
10
-9.6281517249445
20
-0.32498094716118
30
0
41
1
10
-9.59510119943195
20
-0.324980947161663
30
0
0
SPLINE
5
249
100
AcDbEntity
8
1
62
256
6
ByLayer
370
18
48
1
60
0
100
AcDbSpline
70
4
71
3
72
26
73
22
40
0
40
0
40
0
40
0
40
0.275225058240895
40
0.275225058240895
40
0.6432464082369
40
0.6432464082369
40
0.804612005697611
40
0.804612005697611
40
0.885674716972355
40
0.885674716972355
40
0.913780944205259
40
0.913780944205259
40
0.929803296399283
40
0.929803296399283
40
0.943095909253756
40
0.943095909253756
40
0.956435608367649
40
0.956435608367649
40
0.973160928201273
40
0.973160928201273
40
1
40
1
40
1
40
1
41
1
10
5.63509935370516
20
0.394519052838319
30
0
41
1
10
5.73061940806102
20
0.412092277390372
30
0
41
1
10
5.82628570940065
20
0.427617902573814
30
0
41
1
10
6.04910688744886
20
0.458513504531481
30
0
41
1
10
6.17683343665649
20
0.472809692991689
30
0
41
1
10
6.35680390662995
20
0.480134077700484
30
0
41
1
10
6.41165645130394
20
0.480790536034334
30
0
41
1
10
6.49012613969916
20
0.473849128623982
30
0
41
1
10
6.51632461626107
20
0.470353004856548
30
0
41
1
10
6.54662375530265
20
0.459821159413593
30
0
41
1
10
6.55407780574063
20
0.456478322884664
30
0
41
1
10
6.5634870564902
20
0.449582893147834
30
0
41
1
10
6.56645926830771
20
0.446676568877166
30
0
41
1
10
6.57018311286544
20
0.440628082066894
30
0
41
1
10
6.57123577624947
20
0.437543463185875
30
0
41
1
10
6.57161578155294
20
0.431081319642743
30
0
41
1
10
6.57093615795915
20
0.427626813186123
30
0
41
1
10
6.567805082836
20
0.420043702596018
30
0
41
1
10
6.56494525107922
20
0.415849799432152
30
0
41
1
10
6.55610434693239
20
0.405651931464803
30
0
41
1
10
6.54919503965658
20
0.399849900181039
30
0
41
1
10
6.54187806553904
20
0.394519052838291
30
0
0
SPLINE
5
24A
100
AcDbEntity
8
1
62
256
6
ByLayer
370
18
48
1
60
0
100
AcDbSpline
70
4
71
3
72
16
73
12
40
0
40
0
40
0
40
0
40
0.179734295377422
40
0.179734295377422
40
0.383266403842996
40
0.383266403842996
40
0.588925184528273
40
0.588925184528273
40
0.766117101794551
40
0.766117101794551
40
1
40
1
40
1
40
1
41
1
10
15.7705104401659
20
-0.249980947161219
30
0
41
1
10
15.764668757659
20
-0.257133799152257
30
0
41
1
10
15.7593292671481
20
-0.264332053878434
30
0
41
1
10
15.7498391375718
20
-0.279167049677596
30
0
41
1
10
15.7458626334012
20
-0.286897820481499
30
0
41
1
10
15.7413488729786
20
-0.300639900226571
30
0
41
1
10
15.7408261943328
20
-0.306808277672815
30
0
41
1
10
15.7433213860411
20
-0.315640504608439
30
0
41
1
10
15.7458657822589
20
-0.318791008349706
30
0
41
1
10
15.7540555129293
20
-0.323771710814128
30
0
41
1
10
15.7605037080438
20
-0.324980947161663
30
0
41
1
10
15.7678282405416
20
-0.324980947161663
30
0
0
SPLINE
5
24B
100
AcDbEntity
8
1
62
256
6
ByLayer
370
18
48
1
60
0
100
AcDbSpline
70
4
71
3
72
16
73
12
40
0
40
0
40
0
40
0
40
0.27635182381383
40
0.27635182381383
40
0.528716772105736
40
0.528716772105736
40
0.743136095900288
40
0.743136095900288
40
0.958147221840883
40
0.958147221840883
40
1
40
1
40
1
40
1
41
1
10
18.4790984828195
20
-0.249980947161618
30
0
41
1
10
18.4696648193085
20
-0.260647131689012
30
0
41
1
10
18.4608380910637
20
-0.271137086120035
30
0
41
1
10
18.4464866100013
20
-0.289577112777067
30
0
41
1
10
18.4406231881072
20
-0.297839929178792
30
0
41
1
10
18.4330991910473
20
-0.310480736674833
30
0
41
1
10
18.4308858315127
20
-0.315369217788998
30
0
41
1
10
18.4296419897003
20
-0.322226378270784
30
0
41
1
10
18.4306115705361
20
-0.324268066293257
30
0
41
1
10
18.4334745735416
20
-0.324927422014895
30
0
41
1
10
18.4340003777338
20
-0.324980947161663
30
0
41
1
10
18.4345773721769
20
-0.324980947161663
30
0
0
SPLINE
5
24C
100
AcDbEntity
8
1
62
256
6
ByLayer
370
18
48
1
60
0
100
AcDbSpline
70
4
71
3
72
10
73
6
40
0
40
0
40
0
40
0
40
0.458235869640188
40
0.458235869640188
40
1
40
1
40
1
40
1
41
1
10
-6.93594876110097
20
-0.249980947161845
30
0
41
1
10
-6.84981863770355
20
-0.270346092702994
30
0
41
1
10
-6.76313934416442
20
-0.28677376098571
30
0
41
1
10
-6.57494561621041
20
-0.314383725675612
30
0
41
1
10
-6.47244978824423
20
-0.324980947162146
30
0
41
1
10
-6.37324688789292
20
-0.324980947161691
30
0
0
SPLINE
5
24D
100
AcDbEntity
8
1
62
256
6
ByLayer
370
18
48
1
60
0
100
AcDbSpline
70
4
71
3
72
14
73
10
40
0
40
0
40
0
40
0
40
0.467592821481812
40
0.467592821481812
40
0.7653131874846
40
0.7653131874846
40
0.993330689014293
40
0.993330689014293
40
1
40
1
40
1
40
1
41
1
10
-17.6355675589552
20
-0.249980947161674
30
0
41
1
10
-17.6112459850686
20
-0.268411910255111
30
0
41
1
10
-17.5868892355834
20
-0.285223515491907
30
0
41
1
10
-17.5501847687632
20
-0.306978426105758
30
0
41
1
10
-17.536392122987
20
-0.314163599411501
30
0
41
1
10
-17.5152199018868
20
-0.322575271080723
30
0
41
1
10
-17.5069217872542
20
-0.324848799825389
30
0
41
1
10
-17.5004293085476
20
-0.324979061598469
30
0
41
1
10
-17.5002439900365
20
-0.324980947161663
30
0
41
1
10
-17.5000603949211
20
-0.324980947161663
30
0
0
SPLINE
5
24E
100
AcDbEntity
8
1
62
256
6
ByLayer
370
18
48
1
60
0
100
AcDbSpline
70
4
71
3
72
8
73
4
40
0
40
0
40
0
40
0
40
1
40
1
40
1
40
1
41
1
10
12.0587239255453
20
0.394519052838319
30
0
41
1
10
11.8676221276023
20
0.179376718804036
30
0
41
1
10
11.6760784149013
20
-0.0354719232411469
30
0
41
1
10
11.484029721648
20
-0.249980947156956
30
0
0
SPLINE
5
24F
100
AcDbEntity
8
1
62
256
6
ByLayer
370
18
48
1
60
0
100
AcDbSpline
70
4
71
3
72
8
73
4
40
0
40
0
40
0
40
0
40
1
40
1
40
1
40
1
41
1
10
16.2968648471026
20
0.394519052838319
30
0
41
1
10
16.1214142561083
20
0.179685181728644
30
0
41
1
10
15.945962816426
20
-0.0351481695533096
30
0
41
1
10
15.770510440166
20
-0.249980947161219
30
0
0
SPLINE
5
250
100
AcDbEntity
8
1
62
256
6
ByLayer
370
18
48
1
60
0
100
AcDbSpline
70
4
71
3
72
18
73
14
40
0
40
0
40
0
40
0
40
0.172693384504574
40
0.172693384504574
40
0.374662771893741
40
0.374662771893741
40
0.540937515704555
40
0.540937515704555
40
0.707551575156851
40
0.707551575156851
40
0.908749454848535
40
0.908749454848535
40
1
40
1
40
1
40
1
41
1
10
-14.6482797132045
20
-0.324980947163851
30
0
41
1
10
-14.6419894989028
20
-0.324980947163908
30
0
41
1
10
-14.6361022616813
20
-0.324401449629562
30
0
41
1
10
-14.6249402069886
20
-0.321481528253599
30
0
41
1
10
-14.6198418750797
20
-0.318800509149071
30
0
41
1
10
-14.6137148518036
20
-0.31150813356652
30
0
41
1
10
-14.6120981946817
20
-0.307224062394568
30
0
41
1
10
-14.6117749820166
20
-0.297138770455916
30
0
41
1
10
-14.6130740659361
20
-0.291210931737538
30
0
41
1
10
-14.6186211310805
20
-0.277427723684014
30
0
41
1
10
-14.6234603308767
20
-0.269237461406505
30
0
41
1
10
-14.6319359920037
20
-0.257416084496612
30
0
41
1
10
-14.6348176476572
20
-0.253689271776324
30
0
41
1
10
-14.6378611567675
20
-0.249980947160765
30
0
0
SPLINE
5
251
100
AcDbEntity
8
1
62
256
6
ByLayer
370
18
48
1
60
0
100
AcDbSpline
70
4
71
3
72
12
73
8
40
0
40
0
40
0
40
0
40
0.498327034704621
40
0.498327034704621
40
0.787830461837909
40
0.787830461837909
40
1
40
1
40
1
40
1
41
1
10
-16.939753936379
20
-0.249980947161674
30
0
41
1
10
-16.911511971339
20
-0.269800820179142
30
0
41
1
10
-16.8830332398094
20
-0.287583008921359
30
0
41
1
10
-16.8412601743114
20
-0.309094068569436
30
0
41
1
10
-16.8262966636271
20
-0.315715255916928
30
0
41
1
10
-16.8032870810781
20
-0.323089794283732
30
0
41
1
10
-16.7943104762386
20
-0.324980947172378
30
0
41
1
10
-16.7870313841534
20
-0.324980947173543
30
0
0
SPLINE
5
252
100
AcDbEntity
8
1
62
256
6
ByLayer
370
18
48
1
60
0
100
AcDbSpline
70
4
71
3
72
8
73
4
40
0
40
0
40
0
40
0
40
1
40
1
40
1
40
1
41
1
10
-11.6678057336411
20
0.394519052838319
30
0
41
1
10
-11.1044931479051
20
0.167075266492191
30
0
41
1
10
-10.5344723697693
20
-0.0483934946950342
30
0
41
1
10
-9.95818080364211
20
-0.249980947161674
30
0
0
SPLINE
5
253
100
AcDbEntity
8
1
62
256
6
ByLayer
370
18
48
1
60
0
100
AcDbSpline
70
4
71
3
72
22
73
18
40
0
40
0
40
0
40
0
40
0.112744574252786
40
0.112744574252786
40
0.220935835062868
40
0.220935835062868
40
0.33043247793701
40
0.33043247793701
40
0.423105578090541
40
0.423105578090541
40
0.516499243841729
40
0.516499243841729
40
0.665297628488534
40
0.665297628488534
40
0.885227644616206
40
0.885227644616206
40
1
40
1
40
1
40
1
41
1
10
-18.5812482082594
20
0.394519052838348
30
0
41
1
10
-18.5906614843193
20
0.405514587422914
30
0
41
1
10
-18.5993943551555
20
0.416402452201055
30
0
41
1
10
-18.6137918562315
20
0.436302784384424
30
0
41
1
10
-18.6196832248233
20
0.445564647329064
30
0
41
1
10
-18.6274379539824
20
0.461262790967254
30
0
41
1
10
-18.6293136503589
20
0.467863799058961
30
0
41
1
10
-18.6282532709774
20
0.476033300873581
30
0
41
1
10
-18.6260096094435
20
0.478329528776044
30
0
41
1
10
-18.6186915120958
20
0.479981776712378
30
0
41
1
10
-18.6135397770739
20
0.479360105263339
30
0
41
1
10
-18.5978845359754
20
0.474860078033686
30
0
41
1
10
-18.5858012962845
20
0.469265973227067
30
0
41
1
10
-18.5536051836108
20
0.451507721099603
30
0
41
1
10
-18.531813020687
20
0.43721214638768
30
0
41
1
10
-18.4979089444933
20
0.412834536197835
30
0
41
1
10
-18.4859768226333
20
0.403874244675819
30
0
41
1
10
-18.4739743524118
20
0.394519052838319
30
0
0
SPLINE
5
254
100
AcDbEntity
8
1
62
256
6
ByLayer
370
18
48
1
60
0
100
AcDbSpline
70
4
71
3
72
20
73
16
40
0
40
0
40
0
40
0
40
0.266295787722634
40
0.266295787722634
40
0.440821695973857
40
0.440821695973857
40
0.618793684174397
40
0.618793684174397
40
0.706558629008351
40
0.706558629008351
40
0.794978384569866
40
0.794978384569866
40
0.877229368138293
40
0.877229368138293
40
1
40
1
40
1
40
1
41
1
10
-9.24203289085602
20
-0.324980947161663
30
0
41
1
10
-9.22582961878859
20
-0.324980947161663
30
0
41
1
10
-9.20990564353878
20
-0.324207952504963
30
0
41
1
10
-9.18509450746689
20
-0.320642407864199
30
0
41
1
10
-9.17558667411393
20
-0.318620244774081
30
0
41
1
10
-9.15842040039084
20
-0.3125225263868
30
0
41
1
10
-9.15051548325278
20
-0.308305334340844
30
0
41
1
10
-9.14292077708893
20
-0.299412364375399
30
0
41
1
10
-9.14109295365401
20
-0.295950283178371
30
0
41
1
10
-9.13954818908798
20
-0.288307504983095
30
0
41
1
10
-9.13984876503184
20
-0.284022232046084
30
0
41
1
10
-9.14237253428334
20
-0.275648798264399
30
0
41
1
10
-9.14446358019703
20
-0.271480286515725
30
0
41
1
10
-9.15103150324327
20
-0.261420768871858
30
0
41
1
10
-9.15622156038282
20
-0.255533332946328
30
0
41
1
10
-9.16192765464785
20
-0.249980947161589
30
0
0
SPLINE
5
255
100
AcDbEntity
8
1
62
256
6
ByLayer
370
18
48
1
60
0
100
AcDbSpline
70
4
71
3
72
8
73
4
40
0
40
0
40
0
40
0
40
1
40
1
40
1
40
1
41
1
10
9.81603258289468
20
0.394519052838319
30
0
41
1
10
9.59945455956131
20
0.178583254368562
30
0
41
1
10
9.38149895433838
20
-0.0363243711368568
30
0
41
1
10
9.16192765466209
20
-0.249980947148117
30
0
0
SPLINE
5
256
100
AcDbEntity
8
1
62
256
6
ByLayer
370
18
48
1
60
0
100
AcDbSpline
70
4
71
3
72
8
73
4
40
0
40
0
40
0
40
0
40
1
40
1
40
1
40
1
41
1
10
18.5911054681881
20
-0.249980947161674
30
0
41
1
10
18.8388034703858
20
-0.0361927547921823
30
0
41
1
10
19.0852634005435
20
0.178675800779445
30
0
41
1
10
19.3305735632813
20
0.394519052838319
30
0
0
SPLINE
5
257
100
AcDbEntity
8
1
62
256
6
ByLayer
370
18
48
1
60
0
100
AcDbSpline
70
4
71
3
72
12
73
8
40
0
40
0
40
0
40
0
40
0.53500541311733
40
0.53500541311733
40
0.837949059931861
40
0.837949059931861
40
1
40
1
40
1
40
1
41
1
10
-16.0747405491864
20
-0.249980947161674
30
0
41
1
10
-16.0413667809981
20
-0.271436485838422
30
0
41
1
10
-16.0075035038982
20
-0.290304587522939
30
0
41
1
10
-15.9579823894175
20
-0.311991203969399
30
0
41
1
10
-15.9404195022313
20
-0.31834786032141
30
0
41
1
10
-15.9163565802759
20
-0.323850221825438
30
0
41
1
10
-15.9084323242163
20
-0.32498094716675
30
0
41
1
10
-15.9014694779983
20
-0.324980947167688
30
0
0
SPLINE
5
258
100
AcDbEntity
8
1
62
256
6
ByLayer
370
18
48
1
60
0
100
AcDbSpline
70
4
71
3
72
8
73
4
40
0
40
0
40
0
40
0
40
1
40
1
40
1
40
1
41
1
10
13.7830022040407
20
0.394519052838319
30
0
41
1
10
13.6024787589423
20
0.179601945162574
30
0
41
1
10
13.4218276833375
20
-0.0352348131660847
30
0
41
1
10
13.2410331525238
20
-0.24998094715977
30
0
0
SPLINE
5
259
100
AcDbEntity
8
1
62
256
6
ByLayer
370
18
48
1
60
0
100
AcDbSpline
70
4
71
3
72
22
73
18
40
0
40
0
40
0
40
0
40
0.0996058959597462
40
0.0996058959597462
40
0.200053048632083
40
0.200053048632083
40
0.301645781814157
40
0.301645781814157
40
0.388258859234578
40
0.388258859234578
40
0.499069449606661
40
0.499069449606661
40
0.657716488414207
40
0.657716488414207
40
0.900399061610539
40
0.900399061610539
40
1
40
1
40
1
40
1
41
1
10
-17.9778880275986
20
0.394519052838348
30
0
41
1
10
-17.9863011376089
20
0.404574643246065
30
0
41
1
10
-17.9940548718637
20
0.414587426887323
30
0
41
1
10
-18.0070735891332
20
0.433572505425246
30
0
41
1
10
-18.0124220375215
20
0.442724613280063
30
0
41
1
10
-18.0191155281399
20
0.458484729048393
30
0
41
1
10
-18.0204602901618
20
0.465263962606372
30
0
41
1
10
-18.0186306360141
20
0.474147438762969
30
0
41
1
10
-18.0160872377471
20
0.476914865968894
30
0
41
1
10
-18.0073366577445
20
0.480118978036785
30
0
41
1
10
-18.000219343869
20
0.479790919031018
30
0
41
1
10
-17.9801687429301
20
0.475277139513196
30
0
41
1
10
-17.9657553997812
20
0.469507950899299
30
0
41
1
10
-17.9272440214238
20
0.450672548658815
30
0
41
1
10
-17.9012826679856
20
0.435056494855388
30
0
41
1
10
-17.8642416153248
20
0.410195410625647
30
0
41
1
10
-17.8532635274126
20
0.402514156738278
30
0
41
1
10
-17.8422547739247
20
0.394519052838319
30
0
0
SPLINE
5
25A
100
AcDbEntity
8
1
62
256
6
ByLayer
370
18
48
1
60
0
100
AcDbSpline
70
4
71
3
72
18
73
14
40
0
40
0
40
0
40
0
40
0.150435413459139
40
0.150435413459139
40
0.355090176427465
40
0.355090176427465
40
0.561953107090226
40
0.561953107090226
40
0.739387968277316
40
0.739387968277316
40
0.986215876208498
40
0.986215876208498
40
1
40
1
40
1
40
1
41
1
10
-15.767828240541
20
-0.324980947162317
30
0
41
1
10
-15.763101472641
20
-0.324980947162317
30
0
41
1
10
-15.7587571668661
20
-0.324484365155087
30
0
41
1
10
-15.7499564226083
20
-0.32186780661084
30
0
41
1
10
-15.7459428960202
20
-0.319163331965342
30
0
41
1
10
-15.7413647335261
20
-0.311112490389434
30
0
41
1
10
-15.7408167126847
20
-0.305586944128237
30
0
41
1
10
-15.7433107612256
20
-0.293565917025177
30
0
41
1
10
-15.7458606684657
20
-0.287190897498419
30
0
41
1
10
-15.7543401173141
20
-0.271359399745677
30
0
41
1
10
-15.7612832042177
20
-0.261431596246382
30
0
41
1
10
-15.7696101793364
20
-0.251087196815177
30
0
41
1
10
-15.77005869255
20
-0.250534089826942
30
0
41
1
10
-15.7705104401656
20
-0.249980947161674
30
0
0
SPLINE
5
25B
100
AcDbEntity
8
1
62
256
6
ByLayer
370
18
48
1
60
0
100
AcDbSpline
70
4
71
3
72
12
73
8
40
0
40
0
40
0
40
0
40
0.207070190992279
40
0.207070190992279
40
0.708233155161997
40
0.708233155161997
40
1
40
1
40
1
40
1
41
1
10
13.4707590466832
20
-0.324980947161663
30
0
41
1
10
13.4844495675558
20
-0.324980947160469
30
0
41
1
10
13.4994708163577
20
-0.323129365633236
30
0
41
1
10
13.5520592894348
20
-0.313046098828693
30
0
41
1
10
13.5924397503834
20
-0.299521508835284
30
0
41
1
10
13.656055544321
20
-0.273081794683691
30
0
41
1
10
13.6797666536627
20
-0.262059461628979
30
0
41
1
10
13.7033325990739
20
-0.249980947161674
30
0
0
SPLINE
5
25C
100
AcDbEntity
8
1
62
256
6
ByLayer
370
18
48
1
60
0
100
AcDbSpline
70
4
71
3
72
18
73
14
40
0
40
0
40
0
40
0
40
0.216359851968076
40
0.216359851968076
40
0.40317851855882
40
0.40317851855882
40
0.557121079507289
40
0.557121079507289
40
0.712142571002692
40
0.712142571002692
40
0.853283178041385
40
0.853283178041385
40
1
40
1
40
1
40
1
41
1
10
-13.2672449924339
20
-0.324980947170701
30
0
41
1
10
-13.2581224284342
20
-0.324980947171042
30
0
41
1
10
-13.249462399411
20
-0.324198214848991
30
0
41
1
10
-13.2353395273908
20
-0.320563452409544
30
0
41
1
10
-13.2295101004108
20
-0.317953792557944
30
0
41
1
10
-13.2216818248394
20
-0.311037343988431
30
0
41
1
10
-13.2191501561731
20
-0.307017153148138
30
0
41
1
10
-13.2170478231028
20
-0.297434239926218
30
0
41
1
10
-13.2174954056764
20
-0.291724026717901
30
0
41
1
10
-13.2210378447893
20
-0.280165420428744
30
0
41
1
10
-13.2239035805403
20
-0.274254856529836
30
0
41
1
10
-13.2312967930468
20
-0.262247191573863
30
0
41
1
10
-13.2359247363788
20
-0.25604867837265
30
0
41
1
10
-13.241033152523
20
-0.249980947159656
30
0
0
SPLINE
5
25D
100
AcDbEntity
8
1
62
256
6
ByLayer
370
18
48
1
60
0
100
AcDbSpline
70
4
71
3
72
10
73
6
40
0
40
0
40
0
40
0
40
0.413072377760476
40
0.413072377760476
40
1
40
1
40
1
40
1
41
1
10
9.59510119943192
20
-0.324980947161663
30
0
41
1
10
9.64203355967939
20
-0.324980947160981
30
0
41
1
10
9.69231251695285
20
-0.318204568465319
30
0
41
1
10
9.81372420210246
20
-0.295048746910595
30
0
41
1
10
9.88648670976283
20
-0.275059623636508
30
0
41
1
10
9.95818080364211
20
-0.249980947161788
30
0
0
SPLINE
5
25E
100
AcDbEntity
8
1
62
256
6
ByLayer
370
18
48
1
60
0
100
AcDbSpline
70
4
71
3
72
8
73
4
40
0
40
0
40
0
40
0
40
1
40
1
40
1
40
1
41
1
10
6.54187806553898
20
0.394519052838319
30
0
41
1
10
6.23815671379637
20
0.173240128673825
30
0
41
1
10
5.92869063653163
20
-0.0423423290800997
30
0
41
1
10
5.61238790983072
20
-0.249980947161703
30
0
0
SPLINE
5
25F
100
AcDbEntity
8
1
62
256
6
ByLayer
370
18
48
1
60
0
100
AcDbSpline
70
4
71
3
72
8
73
4
40
0
40
0
40
0
40
0
40
1
40
1
40
1
40
1
41
1
10
-16.0923183384427
20
0.394519052838319
30
0
41
1
10
-15.7350293608484
20
0.175900366251454
30
0
41
1
10
-15.3747395684788
20
-0.0390955465932166
30
0
41
1
10
-15.011305873316
20
-0.249980947161674
30
0
0
SPLINE
5
260
100
AcDbEntity
8
1
62
256
6
ByLayer
370
18
48
1
60
0
100
AcDbSpline
70
4
71
3
72
8
73
4
40
0
40
0
40
0
40
0
40
1
40
1
40
1
40
1
41
1
10
17.6355675589552
20
-0.249980947161674
30
0
41
1
10
17.9167894401584
20
-0.0368701453001563
30
0
41
1
10
18.1962188143275
20
0.178025589846356
30
0
41
1
10
18.4739743524118
20
0.394519052838319
30
0
0
SPLINE
5
261
100
AcDbEntity
8
1
62
256
6
ByLayer
370
18
48
1
60
0
100
AcDbSpline
70
4
71
3
72
8
73
4
40
0
40
0
40
0
40
0
40
1
40
1
40
1
40
1
41
1
10
-15.7705104401656
20
-0.249980947161674
30
0
41
1
10
-15.9459628164257
20
-0.0351481695535938
30
0
41
1
10
-16.1214142561081
20
0.179685181728502
30
0
41
1
10
-16.2968648471026
20
0.394519052838348
30
0
0
SPLINE
5
262
100
AcDbEntity
8
1
62
256
6
ByLayer
370
18
48
1
60
0
100
AcDbSpline
70
4
71
3
72
8
73
4
40
0
40
0
40
0
40
0
40
1
40
1
40
1
40
1
41
1
10
18.5812482082593
20
0.394519052838319
30
0
41
1
10
18.3972391510824
20
0.179580285593943
30
0
41
1
10
18.2130707755636
20
-0.0352562688701994
30
0
41
1
10
18.02872875272
20
-0.249980947161589
30
0
0
SPLINE
5
263
100
AcDbEntity
8
1
62
256
6
ByLayer
370
18
48
1
60
0
100
AcDbSpline
70
4
71
3
72
8
73
4
40
0
40
0
40
0
40
0
40
1
40
1
40
1
40
1
41
1
10
-18.2023611205439
20
-0.0476388794560592
30
0
41
1
10
-18.3287348332497
20
0.0996969342461114
30
0
41
1
10
-18.4550290156094
20
0.247083931508115
30
0
41
1
10
-18.5812482082593
20
0.394519052838319
30
0
0
SPLINE
5
264
100
AcDbEntity
8
1
62
256
6
ByLayer
370
18
48
1
60
0
100
AcDbSpline
70
4
71
3
72
8
73
4
40
0
40
0
40
0
40
0
40
1
40
1
40
1
40
1
41
1
10
17.2234180953956
20
0.394519052838319
30
0
41
1
10
17.0465893021274
20
0.179667539911009
30
0
41
1
10
16.8697319891465
20
-0.0351663712000914
30
0
41
1
10
16.6928433719955
20
-0.249980947161418
30
0
0
SPLINE
5
265
100
AcDbEntity
8
1
62
256
6
ByLayer
370
18
48
1
60
0
100
AcDbSpline
70
4
71
3
72
20
73
16
40
0
40
0
40
0
40
0
40
0.0928116455680289
40
0.0928116455680289
40
0.248393409487375
40
0.248393409487375
40
0.364923900413207
40
0.364923900413207
40
0.481099622226483
40
0.481099622226483
40
0.651226534916489
40
0.651226534916489
40
0.944713939994472
40
0.944713939994472
40
1
40
1
40
1
40
1
41
1
10
11.4840297216472
20
-0.2499809471567
30
0
41
1
10
11.4804619182948
20
-0.25396600949486
30
0
41
1
10
11.4771421000847
20
-0.258035856448686
30
0
41
1
10
11.4693477502519
20
-0.268948085438382
30
0
41
1
10
11.4654915057364
20
-0.276018382009085
30
0
41
1
10
11.4620830475688
20
-0.287599381147743
30
0
41
1
10
11.4616884824179
20
-0.29241469879662
30
0
41
1
10
11.4631954574238
20
-0.30088938936376
30
0
41
1
10
11.4650920419126
20
-0.304653008195657
30
0
41
1
10
11.4717480606215
20
-0.312376862099882
30
0
41
1
10
11.4774722089603
20
-0.315792857243622
30
0
41
1
10
11.4951060717701
20
-0.322555386335125
30
0
41
1
10
11.5087533439068
20
-0.324352679274142
30
0
41
1
10
11.5256666156451
20
-0.324936716878227
30
0
41
1
10
11.5283967548234
20
-0.324980947161748
30
0
41
1
10
11.5311526233309
20
-0.324980947161748
30
0
0
SPLINE
5
266
100
AcDbEntity
8
1
62
256
6
ByLayer
370
18
48
1
60
0
100
AcDbSpline
70
4
71
3
72
16
73
12
40
0
40
0
40
0
40
0
40
0.139294418755715
40
0.139294418755715
40
0.373165666609263
40
0.373165666609263
40
0.578220057613424
40
0.578220057613424
40
0.767384494360294
40
0.767384494360294
40
1
40
1
40
1
40
1
41
1
10
-16.678630528017
20
-0.32498094716189
30
0
41
1
10
-16.6749006414288
20
-0.32498094716189
30
0
41
1
10
-16.6715608890287
20
-0.324509925620276
30
0
41
1
10
-16.6641644827684
20
-0.321776149719597
30
0
41
1
10
-16.6610655199581
20
-0.318404104339976
30
0
41
1
10
-16.6594100484281
20
-0.309034415686114
30
0
41
1
10
-16.6603335449382
20
-0.303280494303237
30
0
41
1
10
-16.6650372093721
20
-0.290736621045141
30
0
41
1
10
-16.6686182084702
20
-0.2839327559266
30
0
41
1
10
-16.6785042140017
20
-0.268265264489543
30
0
41
1
10
-16.6853265492685
20
-0.259109420845249
30
0
41
1
10
-16.6928433719954
20
-0.249980947161418
30
0
0
SPLINE
5
267
100
AcDbEntity
8
1
62
256
6
ByLayer
370
18
48
1
60
0
100
AcDbSpline
70
4
71
3
72
10
73
6
40
0
40
0
40
0
40
0
40
0.453711921574248
40
0.453711921574248
40
1
40
1
40
1
40
1
41
1
10
6.37324688789292
20
-0.324980947161691
30
0
41
1
10
6.45638947852447
20
-0.324980947162089
30
0
41
1
10
6.54193845517369
20
-0.317301823059751
30
0
41
1
10
6.72994439185723
20
-0.293012640935643
30
0
41
1
10
6.83335647808005
20
-0.274238508775852
30
0
41
1
10
6.93594876110097
20
-0.249980947162044
30
0
0
SPLINE
5
268
100
AcDbEntity
8
1
62
256
6
ByLayer
370
18
48
1
60
0
100
AcDbSpline
70
4
71
3
72
22
73
18
40
0
40
0
40
0
40
0
40
0.179950371584695
40
0.179950371584695
40
0.330582840102327
40
0.330582840102327
40
0.450068996766956
40
0.450068996766956
40
0.570958630834341
40
0.570958630834341
40
0.673108526285204
40
0.673108526285204
40
0.774784733516888
40
0.774784733516888
40
0.928575686255428
40
0.928575686255428
40
1
40
1
40
1
40
1
41
1
10
19.5732661362727
20
0.394519052838319
30
0
41
1
10
19.5897542188033
20
0.409811528179063
30
0
41
1
10
19.6058371726624
20
0.424374574627194
30
0
41
1
10
19.6326356334644
20
0.447800441616408
30
0
41
1
10
19.6440343108134
20
0.457404667806912
30
0
41
1
10
19.6607747415594
20
0.47057350034612
30
0
41
1
10
19.6670161325704
20
0.47507256308802
30
0
41
1
10
19.6754367573932
20
0.479894856114413
30
0
41
1
10
19.677644640058
20
0.480188554744359
30
0
41
1
10
19.6771134940703
20
0.476315299614953
30
0
41
1
10
19.6750887404331
20
0.472790710641732
30
0
41
1
10
19.668134458301
20
0.463133821277125
30
0
41
1
10
19.6631634576382
20
0.456925623916646
30
0
41
1
10
19.6483415240208
20
0.439394170264905
30
0
41
1
10
19.6370893239844
20
0.426817933884166
30
0
41
1
10
19.6191858263395
20
0.407406617666112
30
0
41
1
10
19.6132179436929
20
0.401017516193661
30
0
41
1
10
19.6070845897382
20
0.394519052838319
30
0
0
SPLINE
5
269
100
AcDbEntity
8
1
62
256
6
ByLayer
370
18
48
1
60
0
100
AcDbSpline
70
4
71
3
72
8
73
4
40
0
40
0
40
0
40
0
40
1
40
1
40
1
40
1
41
1
10
-11.4840297216438
20
-0.249980947161674
30
0
41
1
10
-11.6760784148985
20
-0.0354719232442733
30
0
41
1
10
-11.8676221276009
20
0.179376718802445
30
0
41
1
10
-12.0587239255453
20
0.394519052838319
30
0
0
SPLINE
5
26A
100
AcDbEntity
8
1
62
256
6
ByLayer
370
18
48
1
60
0
100
AcDbSpline
70
4
71
3
72
8
73
4
40
0
40
0
40
0
40
0
40
1
40
1
40
1
40
1
41
1
10
17.9778880275985
20
0.394519052838319
30
0
41
1
10
17.7981000086727
20
0.17963125554229
30
0
41
1
10
17.6182278416682
20
-0.0352037617522569
30
0
41
1
10
17.438263679064
20
-0.249980947161532
30
0
0
SPLINE
5
26B
100
AcDbEntity
8
1
62
256
6
ByLayer
370
18
48
1
60
0
100
AcDbSpline
70
4
71
3
72
16
73
12
40
0
40
0
40
0
40
0
40
0.29875193538347
40
0.29875193538347
40
0.559563354267165
40
0.559563354267165
40
0.778831630672495
40
0.778831630672495
40
0.999028509329296
40
0.999028509329296
40
1
40
1
40
1
40
1
41
1
10
18.7994441682815
20
-0.249980947161646
30
0
41
1
10
18.7889037684679
20
-0.261494955800998
30
0
41
1
10
18.7789567898548
20
-0.27274511689015
30
0
41
1
10
18.7629627881616
20
-0.291842372129139
30
0
41
1
10
18.7564474029675
20
-0.300112173260857
30
0
41
1
10
18.7477630003535
20
-0.312476341900009
30
0
41
1
10
18.7450024743643
20
-0.31713284204173
30
0
41
1
10
18.7427387467689
20
-0.323350193953189
30
0
41
1
10
18.7432328414874
20
-0.32496715634818
30
0
41
1
10
18.7452727544558
20
-0.324980913778177
30
0
41
1
10
18.7452827553925
20
-0.32498094719233
30
0
41
1
10
18.745292756394
20
-0.324980947161691
30
0
0
SPLINE
5
26C
100
AcDbEntity
8
1
62
256
6
ByLayer
370
18
48
1
60
0
100
AcDbSpline
70
4
71
3
72
22
73
18
40
0
40
0
40
0
40
0
40
0.408684324364649
40
0.408684324364649
40
0.616236304630556
40
0.616236304630556
40
0.702098076173428
40
0.702098076173428
40
0.78938753808687
40
0.78938753808687
40
0.844478143268011
40
0.844478143268011
40
0.899761286274407
40
0.899761286274407
40
0.953309161336046
40
0.953309161336046
40
1
40
1
40
1
40
1
41
1
10
13.4751387226224
20
0.394519052838319
30
0
41
1
10
13.537810820098
20
0.42464613711013
30
0
41
1
10
13.6019684752477
20
0.449719995926529
30
0
41
1
10
13.6928941937859
20
0.473334413977796
30
0
41
1
10
13.7233281344957
20
0.479020166223251
30
0
41
1
10
13.7612545395208
20
0.479685312974482
30
0
41
1
10
13.7718681323131
20
0.478936632261423
30
0
41
1
10
13.7904363713798
20
0.474504984859635
30
0
41
1
10
13.7985758785161
20
0.470674894339055
30
0
41
1
10
13.8069973096748
20
0.460937156483766
30
0
41
1
10
13.809094012914
20
0.456191273611552
30
0
41
1
10
13.8101551818682
20
0.445237655013415
30
0
41
1
10
13.8091114815384
20
0.438887830944566
30
0
41
1
10
13.80437770701
20
0.425834787815063
30
0
41
1
10
13.8007508484983
20
0.419014903663992
30
0
41
1
10
13.7924452721932
20
0.406330653686638
30
0
41
1
10
13.7879228458484
20
0.400377184476099
30
0
41
1
10
13.7830022040413
20
0.394519052838263
30
0
0
SPLINE
5
26D
100
AcDbEntity
8
1
62
256
6
ByLayer
370
18
48
1
60
0
100
AcDbSpline
70
4
71
3
72
8
73
4
40
0
40
0
40
0
40
0
40
1
40
1
40
1
40
1
41
1
10
13.7033325990739
20
-0.249980947161674
30
0
41
1
10
14.1117592050607
20
-0.0406455446070595
30
0
41
1
10
14.516324377639
20
0.174425330040947
30
0
41
1
10
14.9171390202628
20
0.394519052838319
30
0
0
SPLINE
5
26E
100
AcDbEntity
8
1
62
256
6
ByLayer
370
18
48
1
60
0
100
AcDbSpline
70
4
71
3
72
8
73
4
40
0
40
0
40
0
40
0
40
1
40
1
40
1
40
1
41
1
10
16.0747405491864
20
-0.249980947161674
30
0
41
1
10
16.4043439217116
20
-0.0380834512813806
30
0
41
1
10
16.7313555006636
20
0.176865425835672
30
0
41
1
10
17.0559192792915
20
0.394519052838319
30
0
0
SPLINE
5
26F
100
AcDbEntity
8
1
62
256
6
ByLayer
370
18
48
1
60
0
100
AcDbSpline
70
4
71
3
72
12
73
8
40
0
40
0
40
0
40
0
40
0.264193092465758
40
0.264193092465758
40
0.911057272405742
40
0.911057272405742
40
1
40
1
40
1
40
1
41
1
10
11.7904053433559
20
-0.324980947161691
30
0
41
1
10
11.8126853032388
20
-0.324980947160498
30
0
41
1
10
11.8368161077743
20
-0.322013991291442
30
0
41
1
10
11.9207983977665
20
-0.306512406767837
30
0
41
1
10
11.9839538680773
20
-0.286254819875012
30
0
41
1
10
12.0544237103284
20
-0.257370294636416
30
0
41
1
10
12.0630148227294
20
-0.253732321678058
30
0
41
1
10
12.0715924641049
20
-0.249980947161674
30
0
0
SPLINE
5
270
100
AcDbEntity
8
1
62
256
6
ByLayer
370
18
48
1
60
0
100
AcDbSpline
70
4
71
3
72
8
73
4
40
0
40
0
40
0
40
0
40
1
40
1
40
1
40
1
41
1
10
15.011305873316
20
-0.249980947161674
30
0
41
1
10
15.3747395684788
20
-0.0390955465932166
30
0
41
1
10
15.7350293608484
20
0.175900366251454
30
0
41
1
10
16.0923183384427
20
0.394519052838319
30
0
0
SPLINE
5
271
100
AcDbEntity
8
1
62
256
6
ByLayer
370
18
48
1
60
0
100
AcDbSpline
70
4
71
3
72
16
73
12
40
0
40
0
40
0
40
0
40
0.134334358042189
40
0.134334358042189
40
0.358398012407548
40
0.358398012407548
40
0.562335087439424
40
0.562335087439424
40
0.763799604549357
40
0.763799604549357
40
1
40
1
40
1
40
1
41
1
10
-17.4134725186275
20
-0.32498094716172
30
0
41
1
10
-17.410474826505
20
-0.32498094716172
30
0
41
1
10
-17.4078942988141
20
-0.32450411397852
30
0
41
1
10
-17.4025246765792
20
-0.321805321390002
30
0
41
1
10
-17.4006997517748
20
-0.31853369483693
30
0
41
1
10
-17.4008411993784
20
-0.309542189271809
30
0
41
1
10
-17.4024812235317
20
-0.303959691525705
30
0
41
1
10
-17.4083255800805
20
-0.291405739683597
30
0
41
1
10
-17.4125402693704
20
-0.284325701687465
30
0
41
1
10
-17.4234578890948
20
-0.26834632408287
30
0
41
1
10
-17.4305524055219
20
-0.259183921816629
30
0
41
1
10
-17.4382636790639
20
-0.249980947161532
30
0
0
SPLINE
5
272
100
AcDbEntity
8
1
62
256
6
ByLayer
370
18
48
1
60
0
100
AcDbSpline
70
4
71
3
72
8
73
4
40
0
40
0
40
0
40
0
40
1
40
1
40
1
40
1
41
1
10
-16.6928433719955
20
-0.249980947161418
30
0
41
1
10
-16.8697319891465
20
-0.0351663712000629
30
0
41
1
10
-17.0465893021274
20
0.179667539911037
30
0
41
1
10
-17.2234180953956
20
0.394519052838319
30
0
0
SPLINE
5
273
100
AcDbEntity
8
1
62
256
6
ByLayer
370
18
48
1
60
0
100
AcDbSpline
70
4
71
3
72
8
73
4
40
0
40
0
40
0
40
0
40
1
40
1
40
1
40
1
41
1
10
-5.61238790983106
20
-0.249980947161475
30
0
41
1
10
-5.92869063653893
20
-0.0423423290752964
30
0
41
1
10
-6.23815671381035
20
0.173240128683545
30
0
41
1
10
-6.54187806555939
20
0.394519052853212
30
0
0
SPLINE
5
274
100
AcDbEntity
8
1
62
256
6
ByLayer
370
18
48
1
60
0
100
AcDbSpline
70
4
71
3
72
22
73
18
40
0
40
0
40
0
40
0
40
0.314547624694484
40
0.314547624694484
40
0.489188195690748
40
0.489188195690748
40
0.667037022369915
40
0.667037022369915
40
0.742177798145192
40
0.742177798145192
40
0.81837245440832
40
0.81837245440832
40
0.885209745218434
40
0.885209745218434
40
0.964339528007143
40
0.964339528007143
40
1
40
1
40
1
40
1
41
1
10
14.9171390202628
20
0.394519052838319
30
0
41
1
10
14.9603963824774
20
0.41827236141475
30
0
41
1
10
15.0042762027091
20
0.438918046351972
30
0
41
1
10
15.0695055028691
20
0.463039580774989
30
0
41
1
10
15.0925501744984
20
0.470164967175435
30
0
41
1
10
15.1357287826681
20
0.479208225768389
30
0
41
1
10
15.1565997747607
20
0.481247111523743
30
0
41
1
10
15.1790562776074
20
0.476358308188395
30
0
41
1
10
15.1849082348473
20
0.473814074127688
30
0
41
1
10
15.1933015194689
20
0.466047174658286
30
0
41
1
10
15.1958528695878
20
0.460630160135679
30
0
41
1
10
15.1963915399305
20
0.448237679219602
30
0
41
1
10
15.1949059312805
20
0.441382973977852
30
0
41
1
10
15.1885282570572
20
0.425599323042917
30
0
41
1
10
15.1830215404524
20
0.416302421604286
30
0
41
1
10
15.1734074191566
20
0.402907924232011
30
0
41
1
10
15.17015564785
20
0.398703383680527
30
0
41
1
10
15.1667226783067
20
0.394519052838319
30
0
0
SPLINE
5
275
100
AcDbEntity
8
1
62
256
6
ByLayer
370
18
48
1
60
0
100
AcDbSpline
70
4
71
3
72
22
73
18
40
0
40
0
40
0
40
0
40
0.0735086950302081
40
0.0735086950302081
40
0.156709919125007
40
0.156709919125007
40
0.240804149356583
40
0.240804149356583
40
0.312964701291424
40
0.312964701291424
40
0.413770064538514
40
0.413770064538514
40
0.568942049261462
40
0.568942049261462
40
0.829011297684144
40
0.829011297684144
40
1
40
1
40
1
40
1
41
1
10
-16.2968648471028
20
0.394519052838348
30
0
41
1
10
-16.303468934732
20
0.402605555724818
30
0
41
1
10
-16.309506365058
20
0.410743385060727
30
0
41
1
10
-16.3202371938526
20
0.427514619923556
30
0
41
1
10
-16.3247358671331
20
0.436255233375562
30
0
41
1
10
-16.3298354226417
20
0.451806797757911
30
0
41
1
10
-16.3304169692215
20
0.458796216414981
30
0
41
1
10
-16.3275424378988
20
0.468794986962962
30
0
41
1
10
-16.3246388662848
20
0.472363983680822
30
0
41
1
10
-16.3149947254796
20
0.478225096261951
30
0
41
1
10
-16.3070952746492
20
0.479605597672389
30
0
41
1
10
-16.2843831431511
20
0.479375412191047
30
0
41
1
10
-16.2677842140924
20
0.475882935738099
30
0
41
1
10
-16.221409495349
20
0.461736002340245
30
0
41
1
10
-16.1892697067983
20
0.447641810888115
30
0
41
1
10
-16.1356652228069
20
0.420037007475884
30
0
41
1
10
-16.1139596645167
20
0.407760990258737
30
0
41
1
10
-16.0923183384427
20
0.394519052838319
30
0
0
SPLINE
5
276
100
AcDbEntity
8
1
62
256
6
ByLayer
370
18
48
1
60
0
100
AcDbSpline
70
4
71
3
72
8
73
4
40
0
40
0
40
0
40
0
40
1
40
1
40
1
40
1
41
1
10
19.3876104526855
20
0.394519052838319
30
0
41
1
10
19.1919208736785
20
0.179435695072158
30
0
41
1
10
18.9958755564109
20
-0.0354053390300066
30
0
41
1
10
18.7994441682815
20
-0.249980947161646
30
0
0
SPLINE
5
277
100
AcDbEntity
8
1
62
256
6
ByLayer
370
18
48
1
60
0
100
AcDbSpline
70
4
71
3
72
22
73
18
40
0
40
0
40
0
40
0
40
0.0471262959421828
40
0.0471262959421828
40
0.118694824008332
40
0.118694824008332
40
0.182349200535345
40
0.182349200535345
40
0.235540081599156
40
0.235540081599156
40
0.320073148402498
40
0.320073148402498
40
0.465406984164722
40
0.465406984164722
40
0.748729451042552
40
0.748729451042552
40
1
40
1
40
1
40
1
41
1
10
-13.7830022040413
20
0.394519052838263
30
0
41
1
10
-13.7879482596185
20
0.400407440124894
30
0
41
1
10
-13.7924921524683
20
0.406392393543172
30
0
41
1
10
-13.8022248830213
20
0.421281087343544
30
0
41
1
10
-13.8066613599842
20
0.430373128901039
30
0
41
1
10
-13.8103295555129
20
0.445779837153935
30
0
41
1
10
-13.8100792275569
20
0.452482540149731
30
0
41
1
10
-13.8060851787374
20
0.462433556843877
30
0
41
1
10
-13.8029125601754
20
0.466205691132899
30
0
41
1
10
-13.7924347121206
20
0.473826613574488
30
0
41
1
10
-13.7836945326192
20
0.476619192818191
30
0
41
1
10
-13.757495486281
20
0.48064238353237
30
0
41
1
10
-13.7378308605805
20
0.479580583515599
30
0
41
1
10
-13.6781158445143
20
0.471189325371597
30
0
41
1
10
-13.6348383150857
20
0.458832898641703
30
0
41
1
10
-13.5531632086497
20
0.429712010281719
30
0
41
1
10
-13.5139821935808
20
0.41319148554939
30
0
41
1
10
-13.4751387226224
20
0.394519052838319
30
0
0
SPLINE
5
278
100
AcDbEntity
8
1
62
256
6
ByLayer
370
18
48
1
60
0
100
AcDbSpline
70
4
71
3
72
8
73
4
40
0
40
0
40
0
40
0
40
1
40
1
40
1
40
1
41
1
10
-9.28418104530812
20
0.394519052838319
30
0
41
1
10
-8.51165171787554
20
0.153545136850994
30
0
41
1
10
-7.72806880567609
20
-0.0626871252384831
30
0
41
1
10
-6.935948761101
20
-0.249980947161703
30
0
0
SPLINE
5
279
100
AcDbEntity
8
1
62
256
6
ByLayer
370
18
48
1
60
0
100
AcDbSpline
70
4
71
3
72
14
73
10
40
0
40
0
40
0
40
0
40
0.158420228294802
40
0.158420228294802
40
0.383502935565563
40
0.383502935565563
40
0.741809944580246
40
0.741809944580246
40
1
40
1
40
1
40
1
41
1
10
18.4837089376593
20
-0.324980947161777
30
0
41
1
10
18.4860553308189
20
-0.324980947161777
30
0
41
1
10
18.4893700128427
20
-0.323992548254864
30
0
41
1
10
18.4990526114348
20
-0.319670166986071
30
0
41
1
10
18.5062205486188
20
-0.315479701706124
30
0
41
1
10
18.5266661591476
20
-0.301990526231805
30
0
41
1
10
18.5413857722147
20
-0.290950658335362
30
0
41
1
10
18.5677927070637
20
-0.269784604658497
30
0
41
1
10
18.5793710266251
20
-0.26010894588569
30
0
41
1
10
18.5911054681881
20
-0.249980947161674
30
0
0
SPLINE
5
27A
100
AcDbEntity
8
1
62
256
6
ByLayer
370
18
48
1
60
0
100
AcDbSpline
70
4
71
3
72
22
73
18
40
0
40
0
40
0
40
0
40
0.182095798251063
40
0.182095798251063
40
0.321827949355736
40
0.321827949355736
40
0.435999820261691
40
0.435999820261691
40
0.551186941087953
40
0.551186941087953
40
0.652312135595734
40
0.652312135595734
40
0.757225905967082
40
0.757225905967082
40
0.920384549310637
40
0.920384549310637
40
1
40
1
40
1
40
1
41
1
10
19.6990969386236
20
0.394519052838319
30
0
41
1
10
19.7152543179305
20
0.410246552866369
30
0
41
1
10
19.7308752188008
20
0.425308683615754
30
0
41
1
10
19.7552276840419
20
0.448465713246719
30
0
41
1
10
19.7649189897359
20
0.457555752082527
30
0
41
1
10
19.7788539584737
20
0.470304206294372
30
0
41
1
10
19.7838800082448
20
0.47474949855166
30
0
41
1
10
19.7899945114866
20
0.479692190723824
30
0
41
1
10
19.7910978442709
20
0.480187441895225
30
0
41
1
10
19.7890616725117
20
0.477089684223898
30
0
41
1
10
19.7864130836086
20
0.473964393527495
30
0
41
1
10
19.7783452551176
20
0.465027356868461
30
0
41
1
10
19.7727587078626
20
0.459041380578185
30
0
41
1
10
19.7562591613048
20
0.441658364353969
30
0
41
1
10
19.743869578646
20
0.42884146234158
30
0
41
1
10
19.7240749469017
20
0.408552992926957
30
0
41
1
10
19.717272471001
20
0.401609156757644
30
0
41
1
10
19.710304237967
20
0.394519052838319
30
0
0
SPLINE
5
27B
100
AcDbEntity
8
1
62
256
6
ByLayer
370
18
48
1
60
0
100
AcDbSpline
70
4
71
3
72
8
73
4
40
0
40
0
40
0
40
0
40
1
40
1
40
1
40
1
41
1
10
-14.6378611567675
20
-0.249980947160765
30
0
41
1
10
-14.8141693177327
20
-0.035160531136512
30
0
41
1
10
-14.9904557633514
20
0.179673252606676
30
0
41
1
10
-15.1667226783066
20
0.394519052838319
30
0
0
SPLINE
5
27C
100
AcDbEntity
8
1
62
256
6
ByLayer
370
18
48
1
60
0
100
AcDbSpline
70
4
71
3
72
8
73
4
40
0
40
0
40
0
40
0
40
1
40
1
40
1
40
1
41
1
10
-17.438263679064
20
-0.249980947161504
30
0
41
1
10
-17.6182278416682
20
-0.0352037617522569
30
0
41
1
10
-17.7981000086726
20
0.17963125554229
30
0
41
1
10
-17.9778880275985
20
0.394519052838319
30
0
0
SPLINE
5
27D
100
AcDbEntity
8
1
62
256
6
ByLayer
370
18
48
1
60
0
100
AcDbSpline
70
4
71
3
72
14
73
10
40
0
40
0
40
0
40
0
40
0.37693488222444
40
0.37693488222444
40
0.630520147758911
40
0.630520147758911
40
0.887324837677525
40
0.887324837677525
40
1
40
1
40
1
40
1
41
1
10
18.996344946724
20
-0.249980947161646
30
0
41
1
10
18.9825739880183
20
-0.26445320704218
30
0
41
1
10
18.9695223198434
20
-0.278478660367142
30
0
41
1
10
18.9514738133814
20
-0.298621574323988
30
0
41
1
10
18.9451018737954
20
-0.305986966146861
30
0
41
1
10
18.9357832641577
20
-0.317503050570963
30
0
41
1
10
18.9327841693733
20
-0.321745200387397
30
0
41
1
10
18.9317854442314
20
-0.324546635773032
30
0
41
1
10
18.9319121472382
20
-0.324980947161663
30
0
41
1
10
18.9324657830023
20
-0.324980947161663
30
0
0
SPLINE
5
27E
100
AcDbEntity
8
1
62
256
6
ByLayer
370
18
48
1
60
0
100
AcDbSpline
70
4
71
3
72
14
73
10
40
0
40
0
40
0
40
0
40
0.152236665744558
40
0.152236665744558
40
0.373117394901558
40
0.373117394901558
40
0.702734274373011
40
0.702734274373011
40
1
40
1
40
1
40
1
41
1
10
18.7775181327357
20
-0.32498094716172
30
0
41
1
10
18.7789582062073
20
-0.32498094716172
30
0
41
1
10
18.7812765650133
20
-0.324094494362413
30
0
41
1
10
18.7886343239383
20
-0.320085170366042
30
0
41
1
10
18.7945143648086
20
-0.316086301444812
30
0
41
1
10
18.8112400727183
20
-0.303571400409197
30
0
41
1
10
18.8233577437334
20
-0.293634938361919
30
0
41
1
10
18.8478075590943
20
-0.27262569282604
30
0
41
1
10
18.8602342470406
20
-0.261563366904625
30
0
41
1
10
18.8729219314524
20
-0.249980947161674
30
0
0
SPLINE
5
27F
100
AcDbEntity
8
1
62
256
6
ByLayer
370
18
48
1
60
0
100
AcDbSpline
70
4
71
3
72
16
73
12
40
0
40
0
40
0
40
0
40
0.205245687107947
40
0.205245687107947
40
0.423587188088277
40
0.423587188088277
40
0.644255859554173
40
0.644255859554173
40
0.834055587437506
40
0.834055587437506
40
1
40
1
40
1
40
1
41
1
10
16.6928433719954
20
-0.249980947161418
30
0
41
1
10
16.6861964617715
20
-0.258052993990617
30
0
41
1
10
16.680102122491
20
-0.266132415192544
30
0
41
1
10
16.6696246650582
20
-0.282049955933388
30
0
41
1
10
16.6652914215173
20
-0.29000507100929
30
0
41
1
10
16.660121893933
20
-0.303900135764508
30
0
41
1
10
16.6592919077344
20
-0.309994853634834
30
0
41
1
10
16.6613767500816
20
-0.318359036730555
30
0
41
1
10
16.6637899404546
20
-0.321158558554828
30
0
41
1
10
16.6703136930314
20
-0.324313016982615
30
0
41
1
10
16.6741989633861
20
-0.324980947162032
30
0
41
1
10
16.6786305280169
20
-0.324980947162004
30
0
0
SPLINE
5
280
100
AcDbEntity
8
1
62
256
6
ByLayer
370
18
48
1
60
0
100
AcDbSpline
70
4
71
3
72
8
73
4
40
0
40
0
40
0
40
0
40
1
40
1
40
1
40
1
41
1
10
9.95818080364211
20
-0.249980947161674
30
0
41
1
10
10.5344723697693
20
-0.0483934946950342
30
0
41
1
10
11.1044931479051
20
0.167075266492162
30
0
41
1
10
11.6678057336411
20
0.394519052838319
30
0
0
SPLINE
5
281
100
AcDbEntity
8
1
62
256
6
ByLayer
370
18
48
1
60
0
100
AcDbSpline
70
4
71
3
72
22
73
18
40
0
40
0
40
0
40
0
40
0.0788682030147977
40
0.0788682030147977
40
0.125385205688548
40
0.125385205688548
40
0.172693500923944
40
0.172693500923944
40
0.215469593624303
40
0.215469593624303
40
0.26274142556998
40
0.26274142556998
40
0.342722003608368
40
0.342722003608368
40
0.582518901502253
40
0.582518901502253
40
1
40
1
40
1
40
1
41
1
10
5.61238790983066
20
-0.249980947161674
30
0
41
1
10
5.6064070382885
20
-0.253907122300603
30
0
41
1
10
5.60068246041999
20
-0.258139974864093
30
0
41
1
10
5.59289366789912
20
-0.26551297758013
30
0
41
1
10
5.59026223940609
20
-0.268438452013442
30
0
41
1
10
5.58616244683444
20
-0.274553504985761
30
0
41
1
10
5.58468883424388
20
-0.277834605532462
30
0
41
1
10
5.58376815391787
20
-0.283877115295297
30
0
41
1
10
5.58414644153728
20
-0.286731240365867
30
0
41
1
10
5.5864325010628
20
-0.292103201615078
30
0
41
1
10
5.58849155053773
20
-0.294646726753285
30
0
41
1
10
5.59517929313074
20
-0.300565438673317
30
0
41
1
10
5.60065604671902
20
-0.303481449873203
30
0
41
1
10
5.6237378746203
20
-0.313083254394627
30
0
41
1
10
5.64438526068878
20
-0.316636779769311
30
0
41
1
10
5.70085095486729
20
-0.323791643110951
30
0
41
1
10
5.7384069925331
20
-0.324980947161691
30
0
41
1
10
5.77605947760023
20
-0.324980947161691
30
0
0
SPLINE
5
282
100
AcDbEntity
8
1
62
256
6
ByLayer
370
18
48
1
60
0
100
AcDbSpline
70
4
71
3
72
22
73
18
40
0
40
0
40
0
40
0
40
0.329595021198353
40
0.329595021198353
40
0.489071034067
40
0.489071034067
40
0.623695791841088
40
0.623695791841088
40
0.710117683509721
40
0.710117683509721
40
0.797737703516737
40
0.797737703516737
40
0.871898588381349
40
0.871898588381349
40
0.964345464757193
40
0.964345464757193
40
1
40
1
40
1
40
1
41
1
10
16.0923183384427
20
0.394519052838319
30
0
41
1
10
16.1336369849735
20
0.419801188035848
30
0
41
1
10
16.1756351594972
20
0.441913681432311
30
0
41
1
10
16.233672835813
20
0.465468257674246
30
0
41
1
10
16.2522836809832
20
0.471783394713697
30
0
41
1
10
16.2834843725116
20
0.478867898182983
30
0
41
1
10
16.296854225777
20
0.480401196412089
30
0
41
1
10
16.3143381712665
20
0.478099010783041
30
0
41
1
10
16.3201498016436
20
0.475922004905527
30
0
41
1
10
16.3280074439739
20
0.468414125842031
30
0
41
1
10
16.3300521396582
20
0.462873638298646
30
0
41
1
10
16.3294051471908
20
0.450136688280111
30
0
41
1
10
16.3273958701229
20
0.443177491108116
30
0
41
1
10
16.3198605292104
20
0.426574512986747
30
0
41
1
10
16.313530506219
20
0.416457509060422
30
0
41
1
10
16.3031803090136
20
0.402429365030258
30
0
41
1
10
16.3000936303098
20
0.398472598913258
30
0
41
1
10
16.2968648471027
20
0.394519052838319
30
0
0
SPLINE
5
283
100
AcDbEntity
8
1
62
256
6
ByLayer
370
18
48
1
60
0
100
AcDbSpline
70
4
71
3
72
8
73
4
40
0
40
0
40
0
40
0
40
1
40
1
40
1
40
1
41
1
10
12.0715924641049
20
-0.249980947161674
30
0
41
1
10
12.5442846312381
20
-0.0432521656405527
30
0
41
1
10
13.0121368755999
20
0.171949580535255
30
0
41
1
10
13.4751387226224
20
0.394519052838319
30
0
0
SPLINE
5
284
100
AcDbEntity
8
1
62
256
6
ByLayer
370
18
48
1
60
0
100
AcDbSpline
70
4
71
3
72
8
73
4
40
0
40
0
40
0
40
0
40
1
40
1
40
1
40
1
41
1
10
6.935948761101
20
-0.249980947161703
30
0
41
1
10
7.72806880567609
20
-0.0626871252384831
30
0
41
1
10
8.51165171787554
20
0.153545136850994
30
0
41
1
10
9.28418104530812
20
0.394519052838319
30
0
0
SPLINE
5
285
100
AcDbEntity
8
1
62
256
6
ByLayer
370
18
48
1
60
0
100
AcDbSpline
70
4
71
3
72
12
73
8
40
0
40
0
40
0
40
0
40
0.615301702098691
40
0.615301702098691
40
0.961706798328254
40
0.961706798328254
40
1
40
1
40
1
40
1
41
1
10
-13.7033325990739
20
-0.249980947161674
30
0
41
1
10
-13.6540352131323
20
-0.275247881244127
30
0
41
1
10
-13.6036020518143
20
-0.29632149397753
30
0
41
1
10
-13.5289763418102
20
-0.317976480917281
30
0
41
1
10
-13.5022660870475
20
-0.3236604882417
30
0
41
1
10
-13.4759353293386
20
-0.324914533088474
30
0
41
1
10
-13.4733236754212
20
-0.32498094716172
30
0
41
1
10
-13.4707590466701
20
-0.32498094716172
30
0
0
SPLINE
5
286
100
AcDbEntity
8
1
62
256
6
ByLayer
370
18
48
1
60
0
100
AcDbSpline
70
4
71
3
72
18
73
14
40
0
40
0
40
0
40
0
40
0.123937831480571
40
0.123937831480571
40
0.313098093381609
40
0.313098093381609
40
0.481528407194613
40
0.481528407194613
40
0.622658669203581
40
0.622658669203581
40
0.848310778203442
40
0.848310778203442
40
1
40
1
40
1
40
1
41
1
10
13.2410331525233
20
-0.249980947159685
30
0
41
1
10
13.2367094641673
20
-0.255116585692804
30
0
41
1
10
13.2327355743826
20
-0.260337990090903
30
0
41
1
10
13.2241890042849
20
-0.273376364216034
30
0
41
1
10
13.2202833455423
20
-0.281363091099848
30
0
41
1
10
13.2170367117722
20
-0.294926621248862
30
0
41
1
10
13.2172441345201
20
-0.300839956904923
30
0
41
1
10
13.2207187916851
20
-0.309651675120648
30
0
41
1
10
13.223492074514
20
-0.313004447296862
30
0
41
1
10
13.2326869110105
20
-0.319822507478307
30
0
41
1
10
13.2403866350276
20
-0.322339239659669
30
0
41
1
10
13.2546312854228
20
-0.324589889544484
30
0
41
1
10
13.2608142700645
20
-0.324980947164164
30
0
41
1
10
13.267244992439
20
-0.324980947164107
30
0
0
SPLINE
5
287
100
AcDbEntity
8
1
62
256
6
ByLayer
370
18
48
1
60
0
100
AcDbSpline
70
4
71
3
72
20
73
16
40
0
40
0
40
0
40
0
40
0.286607810733615
40
0.286607810733615
40
0.438925525717901
40
0.438925525717901
40
0.593508619885438
40
0.593508619885438
40
0.71006488496758
40
0.71006488496758
40
0.826332653470721
40
0.826332653470721
40
0.993613255596612
40
0.993613255596612
40
1
40
1
40
1
40
1
41
1
10
-11.531152623331
20
-0.324980947161691
30
0
41
1
10
-11.5170039624523
20
-0.324980947161691
30
0
41
1
10
-11.5033410300966
20
-0.3238633943661
30
0
41
1
10
-11.4851777100478
20
-0.319015300149232
30
0
41
1
10
-11.4793120003969
20
-0.316698776429661
30
0
41
1
10
-11.4696128561097
20
-0.31035458295878
30
0
41
1
10
-11.4657232178889
20
-0.306192211150687
30
0
41
1
10
-11.4621654537654
20
-0.297228048412649
30
0
41
1
10
-11.46168920021
20
-0.292732418606562
30
0
41
1
10
-11.463052694229
20
-0.283178299023206
30
0
41
1
10
-11.4648890390718
20
-0.2780183803726
30
0
41
1
10
-11.471377328742
20
-0.265506204224351
30
0
41
1
10
-11.4769530343168
20
-0.257981340052709
30
0
41
1
10
-11.4835366918245
20
-0.250533373803762
30
0
41
1
10
-11.4837825806603
20
-0.250256991586866
30
0
41
1
10
-11.4840297216438
20
-0.249980947161646
30
0
0
SPLINE
5
288
100
AcDbEntity
8
1
62
256
6
ByLayer
370
18
48
1
60
0
100
AcDbSpline
70
4
71
3
72
14
73
10
40
0
40
0
40
0
40
0
40
0.165262095025777
40
0.165262095025777
40
0.453368826742856
40
0.453368826742856
40
0.86848490001509
40
0.86848490001509
40
1
40
1
40
1
40
1
41
1
10
18.0610023243171
20
-0.324980947162231
30
0
41
1
10
18.0644149088857
20
-0.324980947162146
30
0
41
1
10
18.068890758976
20
-0.323874328702345
30
0
41
1
10
18.0829900256093
20
-0.31852319374488
30
0
41
1
10
18.094163119481
20
-0.312505598098454
30
0
41
1
10
18.1233510279863
20
-0.294385884529191
30
0
41
1
10
18.1427611361318
20
-0.280476233510711
30
0
41
1
10
18.1688092455181
20
-0.260265405512286
30
0
41
1
10
18.1751958974765
20
-0.255192023833018
30
0
41
1
10
18.1816177175708
20
-0.249980947161703
30
0
0
SPLINE
5
289
100
AcDbEntity
8
1
62
256
6
ByLayer
370
18
48
1
60
0
100
AcDbSpline
70
4
71
3
72
22
73
18
40
0
40
0
40
0
40
0
40
0.298588809861193
40
0.298588809861193
40
0.462731430266158
40
0.462731430266158
40
0.592200105857645
40
0.592200105857645
40
0.684071516115241
40
0.684071516115241
40
0.776983001615567
40
0.776983001615567
40
0.857201100265112
40
0.857201100265112
40
0.961507891186741
40
0.961507891186741
40
1
40
1
40
1
40
1
41
1
10
17.0559192792915
20
0.394519052838319
30
0
41
1
10
17.0906639763996
20
0.417818970582204
30
0
41
1
10
17.1257850172184
20
0.438602827032781
30
0
41
1
10
17.1762266313491
20
0.462832964494112
30
0
41
1
10
17.1937000427357
20
0.470002320026282
30
0
41
1
10
17.2215574006706
20
0.478087556028214
30
0
41
1
10
17.2328948453491
20
0.480049244674717
30
0
41
1
10
17.2480957763304
20
0.478926880891862
30
0
41
1
10
17.2532675786086
20
0.477087707393224
30
0
41
1
10
17.2597551858967
20
0.470114453109261
30
0
41
1
10
17.261068231578
20
0.464797218159873
30
0
41
1
10
17.2593444428697
20
0.452320905579114
30
0
41
1
10
17.2568742677526
20
0.44537439240554
30
0
41
1
10
17.2482913046945
20
0.428262599959282
30
0
41
1
10
17.2412280359862
20
0.417512005770021
30
0
41
1
10
17.2299950066617
20
0.402663159305263
30
0
41
1
10
17.2267728518461
20
0.398595167850885
30
0
41
1
10
17.2234180953956
20
0.394519052838319
30
0
0
SPLINE
5
28A
100
AcDbEntity
8
1
62
256
6
ByLayer
370
18
48
1
60
0
100
AcDbSpline
70
4
71
3
72
24
73
20
40
0
40
0
40
0
40
0
40
0.0250514837969013
40
0.0250514837969013
40
0.0399316364005519
40
0.0399316364005519
40
0.0550482702899594
40
0.0550482702899594
40
0.0684429815661031
40
0.0684429815661031
40
0.0857693518639489
40
0.0857693518639489
40
0.116437020859353
40
0.116437020859353
40
0.211608388214002
40
0.211608388214002
40
0.598389121297827
40
0.598389121297827
40
1
40
1
40
1
40
1
41
1
10
-6.54187806555939
20
0.394519052853212
30
0
41
1
10
-6.54872343436298
20
0.399506307901646
30
0
41
1
10
-6.5551949712474
20
0.404897278369219
30
0
41
1
10
-6.56362652995725
20
0.41419682284905
30
0
41
1
10
-6.56638243117391
20
0.417892164740209
30
0
41
1
10
-6.5702998873852
20
0.425453130793358
30
0
41
1
10
-6.57144872098837
20
0.429424481048699
30
0
41
1
10
-6.57146670306835
20
0.436457418640145
30
0
41
1
10
-6.57058216196066
20
0.439651362043577
30
0
41
1
10
-6.56697426039005
20
0.44616354164242
30
0
41
1
10
-6.56378163323333
20
0.449367219420566
30
0
41
1
10
-6.55349972481346
20
0.456901603491133
30
0
41
1
10
-6.54518969171301
20
0.460461741921705
30
0
41
1
10
-6.50967912725747
20
0.472135837180929
30
0
41
1
10
-6.47827709215903
20
0.475426693338761
30
0
41
1
10
-6.32092127490398
20
0.485646700794575
30
0
41
1
10
-6.18570768161396
20
0.472635526638328
30
0
41
1
10
-5.9139037930388
20
0.44161365268883
30
0
41
1
10
-5.77428858852861
20
0.420126279459737
30
0
41
1
10
-5.63509935370516
20
0.394519052838348
30
0
0
SPLINE
5
28B
100
AcDbEntity
8
1
62
256
6
ByLayer
370
18
48
1
60
0
100
AcDbSpline
70
4
71
3
72
8
73
4
40
0
40
0
40
0
40
0
40
1
40
1
40
1
40
1
41
1
10
19.0327392125282
20
-0.249980947161674
30
0
41
1
10
19.2556670974128
20
-0.0357767269013607
30
0
41
1
10
19.4777657699182
20
0.179076567029881
30
0
41
1
10
19.6990969386236
20
0.394519052838319
30
0
0
SPLINE
5
28C
100
AcDbEntity
8
1
62
256
6
ByLayer
370
18
48
1
60
0
100
AcDbSpline
70
4
71
3
72
8
73
4
40
0
40
0
40
0
40
0
40
1
40
1
40
1
40
1
41
1
10
-18.4739743524118
20
0.394519052838319
30
0
41
1
10
-18.1962188143275
20
0.178025589846356
30
0
41
1
10
-17.9167894401584
20
-0.0368701453001563
30
0
41
1
10
-17.6355675589552
20
-0.249980947161674
30
0
0
SPLINE
5
28D
100
AcDbEntity
8
1
62
256
6
ByLayer
370
18
48
1
60
0
100
AcDbSpline
70
4
71
3
72
8
73
4
40
0
40
0
40
0
40
0
40
1
40
1
40
1
40
1
41
1
10
19.6070845897382
20
0.394519052838319
30
0
41
1
10
19.4039939367894
20
0.179338716638313
30
0
41
1
10
19.2004273056163
20
-0.0355054703228177
30
0
41
1
10
18.996344946724
20
-0.249980947161646
30
0
0
SPLINE
5
28E
100
AcDbEntity
8
1
62
256
6
ByLayer
370
18
48
1
60
0
100
AcDbSpline
70
4
71
3
72
8
73
4
40
0
40
0
40
0
40
0
40
1
40
1
40
1
40
1
41
1
10
-17.8422547739247
20
0.394519052838319
30
0
41
1
10
-17.5434843169751
20
0.177537098598009
30
0
41
1
10
-17.2426951415731
20
-0.0373804354690037
30
0
41
1
10
-16.939753936379
20
-0.249980947161674
30
0
0
SPLINE
5
28F
100
AcDbEntity
8
1
62
256
6
ByLayer
370
18
48
1
60
0
100
AcDbSpline
70
4
71
3
72
12
73
8
40
0
40
0
40
0
40
0
40
0.183025184598867
40
0.183025184598867
40
0.526735094944509
40
0.526735094944509
40
1
40
1
40
1
40
1
41
1
10
16.7870313841585
20
-0.324980947167234
30
0
41
1
10
16.7933294659271
20
-0.324980947166523
30
0
41
1
10
16.8008983003295
20
-0.323564867151902
30
0
41
1
10
16.8244275612491
20
-0.316700819517479
30
0
41
1
10
16.8422833192478
20
-0.308761278058853
30
0
41
1
10
16.885881903662
20
-0.285793966152596
30
0
41
1
10
16.9129079609012
20
-0.268821131413972
30
0
41
1
10
16.939753936379
20
-0.249980947161703
30
0
0
SPLINE
5
290
100
AcDbEntity
8
1
62
256
6
ByLayer
370
18
48
1
60
0
100
AcDbSpline
70
4
71
3
72
8
73
4
40
0
40
0
40
0
40
0
40
1
40
1
40
1
40
1
41
1
10
16.939753936379
20
-0.249980947161674
30
0
41
1
10
17.2426951415731
20
-0.0373804354690037
30
0
41
1
10
17.5434843169751
20
0.177537098598009
30
0
41
1
10
17.8422547739247
20
0.394519052838319
30
0
0
SPLINE
5
291
100
AcDbEntity
8
1
62
256
6
ByLayer
370
18
48
1
60
0
100
AcDbSpline
70
4
71
3
72
22
73
18
40
0
40
0
40
0
40
0
40
0.250828641170309
40
0.250828641170309
40
0.411502452975968
40
0.411502452975968
40
0.536118538597329
40
0.536118538597329
40
0.634151373335915
40
0.634151373335915
40
0.732817837877497
40
0.732817837877497
40
0.82308880465773
40
0.82308880465773
40
0.947597295962973
40
0.947597295962973
40
1
40
1
40
1
40
1
41
1
10
18.4739743524118
20
0.394519052838319
30
0
41
1
10
18.499914758328
20
0.414738013536436
30
0
41
1
10
18.5257981377012
20
0.433331336721494
30
0
41
1
10
18.5646342653364
20
0.457806838810228
30
0
41
1
10
18.5792014142595
20
0.466024409520742
30
0
41
1
10
18.6014561077749
20
0.476024660894098
30
0
41
1
10
18.6101348784836
20
0.478895027362512
30
0
41
1
10
18.6216837936205
20
0.479847343810348
30
0
41
1
10
18.6254762527657
20
0.478790786431119
30
0
41
1
10
18.6292892926581
20
0.47329303858595
30
0
41
1
10
18.6293104081995
20
0.468731522980391
30
0
41
1
10
18.6257293577357
20
0.457358651402529
30
0
41
1
10
18.6224154468732
20
0.450654695434935
30
0
41
1
10
18.6118395848942
20
0.433216805629115
30
0
41
1
10
18.6034373760455
20
0.421664916028163
30
0
41
1
10
18.589919542682
20
0.40479827299589
30
0
41
1
10
18.5856649893696
20
0.399678241747836
30
0
41
1
10
18.5812482082593
20
0.394519052838319
30
0
0
SPLINE
5
292
100
AcDbEntity
8
1
62
256
6
ByLayer
370
18
48
1
60
0
100
AcDbSpline
70
4
71
3
72
8
73
4
40
0
40
0
40
0
40
0
40
1
40
1
40
1
40
1
41
1
10
19.0478637127896
20
0.394519052838319
30
0
41
1
10
18.8585328632802
20
0.179515431750104
30
0
41
1
10
18.6689517405164
20
-0.0353231021630336
30
0
41
1
10
18.4790984828195
20
-0.249980947161618
30
0
0
SPLINE
5
293
100
AcDbEntity
8
1
62
256
6
ByLayer
370
18
48
1
60
0
100
AcDbSpline
70
4
71
3
72
8
73
4
40
0
40
0
40
0
40
0
40
1
40
1
40
1
40
1
41
1
10
-14.9171390202628
20
0.394519052838348
30
0
41
1
10
-14.516324377639
20
0.174425330040947
30
0
41
1
10
-14.1117592050607
20
-0.0406455446070595
30
0
41
1
10
-13.7033325990739
20
-0.249980947161674
30
0
0
SPLINE
5
294
100
AcDbEntity
8
1
62
256
6
ByLayer
370
18
48
1
60
0
100
AcDbSpline
70
4
71
3
72
8
73
4
40
0
40
0
40
0
40
0
40
1
40
1
40
1
40
1
41
1
10
19.710304237967
20
0.394519052838319
30
0
41
1
10
19.4987067068065
20
0.179220787457297
30
0
41
1
10
19.2864967669467
20
-0.0356273962293869
30
0
41
1
10
19.0736242396016
20
-0.249980947161674
30
0
0
SPLINE
5
295
100
AcDbEntity
8
1
62
256
6
ByLayer
370
18
48
1
60
0
100
AcDbSpline
70
4
71
3
72
8
73
4
40
0
40
0
40
0
40
0
40
1
40
1
40
1
40
1
41
1
10
-13.4751387226224
20
0.394519052838319
30
0
41
1
10
-13.0121368755999
20
0.171949580535255
30
0
41
1
10
-12.5442846312381
20
-0.0432521656405527
30
0
41
1
10
-12.0715924641049
20
-0.249980947161674
30
0
0
SPLINE
5
296
100
AcDbEntity
8
1
62
256
6
ByLayer
370
18
48
1
60
0
100
AcDbSpline
70
4
71
3
72
22
73
18
40
0
40
0
40
0
40
0
40
0.0337191778455991
40
0.0337191778455991
40
0.0895646790802641
40
0.0895646790802641
40
0.131392810356526
40
0.131392810356526
40
0.173095412158176
40
0.173095412158176
40
0.233901905207881
40
0.233901905207881
40
0.338259240523207
40
0.338259240523207
40
0.556878508932783
40
0.556878508932783
40
1
40
1
40
1
40
1
41
1
10
-12.0587239255465
20
0.394519052838063
30
0
41
1
10
-12.0628458260448
20
0.399159486907337
30
0
41
1
10
-12.0666751985533
20
0.403897061978853
30
0
41
1
10
-12.0755695029156
20
0.416488812941964
30
0
41
1
10
-12.0799308589228
20
0.424593252610578
30
0
41
1
10
-12.0837380616332
20
0.437820583441891
30
0
41
1
10
-12.0841484785969
20
0.443304657509117
30
0
41
1
10
-12.0823456616943
20
0.452926515549393
30
0
41
1
10
-12.0801365022145
20
0.457183199664257
30
0
41
1
10
-12.07244086151
20
0.465860773716429
30
0
41
1
10
-12.0658628688763
20
0.469661657482646
30
0
41
1
10
-12.0456723621449
20
0.477095090395949
30
0
41
1
10
-12.0300954666452
20
0.478986900720912
30
0
41
1
10
-11.980012341644
20
0.480331468618118
30
0
41
1
10
-11.942130930484
20
0.475156462670156
30
0
41
1
10
-11.8274416641465
20
0.452287582667822
30
0
41
1
10
-11.7467648775054
20
0.426399694425072
30
0
41
1
10
-11.6678057336411
20
0.394519052838348
30
0
0
SPLINE
5
297
100
AcDbEntity
8
1
62
256
6
ByLayer
370
18
48
1
60
0
100
AcDbSpline
70
4
71
3
72
12
73
8
40
0
40
0
40
0
40
0
40
0.19546484294172
40
0.19546484294172
40
0.580247756261768
40
0.580247756261768
40
1
40
1
40
1
40
1
41
1
10
15.9014694779916
20
-0.3249809471763
30
0
41
1
10
15.909837292279
20
-0.324980947174708
30
0
41
1
10
15.9195916432662
20
-0.323351048349764
30
0
41
1
10
15.9502027056823
20
-0.315393057316697
30
0
41
1
10
15.9731746147681
20
-0.306002655926278
30
0
41
1
10
16.021929547067
20
-0.28211454650426
30
0
41
1
10
16.0484322921153
20
-0.266894165469012
30
0
41
1
10
16.0747405491864
20
-0.249980947161674
30
0
0
SPLINE
5
298
100
AcDbEntity
8
1
62
256
6
ByLayer
370
18
48
1
60
0
100
AcDbSpline
70
4
71
3
72
14
73
10
40
0
40
0
40
0
40
0
40
0.17340656962543
40
0.17340656962543
40
0.486237054863839
40
0.486237054863839
40
0.947014098831319
40
0.947014098831319
40
1
40
1
40
1
40
1
41
1
10
17.5000603949206
20
-0.324980947163539
30
0
41
1
10
17.5047589732248
20
-0.324980947163254
30
0
41
1
10
17.5106212635558
20
-0.323734576929695
30
0
41
1
10
17.5288576775035
20
-0.317711363292403
30
0
41
1
10
17.5429413036
20
-0.310854210033739
30
0
41
1
10
17.5793909261422
20
-0.290089958966007
30
0
41
1
10
17.6032703638716
20
-0.27401088966684
30
0
41
1
10
17.629983835738
20
-0.254190442382821
30
0
41
1
10
17.6327735927218
20
-0.252098223320388
30
0
41
1
10
17.6355675589552
20
-0.249980947161674
30
0
0
SPLINE
5
299
100
AcDbEntity
8
1
62
256
6
ByLayer
370
18
48
1
60
0
100
AcDbSpline
70
4
71
3
72
24
73
20
40
0
40
0
40
0
40
0
40
0.4239839469916
40
0.4239839469916
40
0.622637146756964
40
0.622637146756964
40
0.722302904446572
40
0.722302904446572
40
0.767750298903099
40
0.767750298903099
40
0.814003400478644
40
0.814003400478644
40
0.853837190983433
40
0.853837190983433
40
0.904883484540147
40
0.904883484540147
40
0.9963908138319
40
0.9963908138319
40
1
40
1
40
1
40
1
41
1
10
-5.77605947760023
20
-0.324980947161691
30
0
41
1
10
-5.73779746968944
20
-0.324980947161691
30
0
41
1
10
-5.69961871744928
20
-0.323767147163522
30
0
41
1
10
-5.6461401790269
20
-0.316792567857306
30
0
41
1
10
-5.62921997135012
20
-0.313804798756706
30
0
41
1
10
-5.60643808254881
20
-0.306174520164774
30
0
41
1
10
-5.5991279038974
20
-0.303038768809785
30
0
41
1
10
-5.59074538499482
20
-0.296837044095781
30
0
41
1
10
-5.58842518512361
20
-0.294610517188971
30
0
41
1
10
-5.58507950132048
20
-0.289565619543339
30
0
41
1
10
-5.58406621814496
20
-0.286651277435652
30
0
41
1
10
-5.58398439028542
20
-0.28100229353177
30
0
41
1
10
-5.58466438248411
20
-0.278234692635237
30
0
41
1
10
-5.58748100946826
20
-0.272152310668247
30
0
41
1
10
-5.58997588063102
20
-0.268803269241857
30
0
41
1
10
-5.59807588150429
20
-0.260131694329687
30
0
41
1
10
-5.60466493900844
20
-0.255108305126157
30
0
41
1
10
-5.61183742178798
20
-0.250343382971266
30
0
41
1
10
-5.61211231012786
20
-0.250161866061859
30
0
41
1
10
-5.61238790983103
20
-0.249980947161447
30
0
0
SPLINE
5
29A
100
AcDbEntity
8
1
62
256
6
ByLayer
370
18
48
1
60
0
100
AcDbSpline
70
4
71
3
72
8
73
4
40
0
40
0
40
0
40
0
40
1
40
1
40
1
40
1
41
1
10
-13.2410331525238
20
-0.249980947159742
30
0
41
1
10
-13.4218276833375
20
-0.0352348131660847
30
0
41
1
10
-13.6024787589423
20
0.179601945162602
30
0
41
1
10
-13.7830022040407
20
0.394519052838348
30
0
0
SPLINE
5
29B
100
AcDbEntity
8
1
62
256
6
ByLayer
370
18
48
1
60
0
100
AcDbSpline
70
4
71
3
72
8
73
4
40
0
40
0
40
0
40
0
40
1
40
1
40
1
40
1
41
1
10
18.8729219314525
20
-0.249980947161674
30
0
41
1
10
19.107364519588
20
-0.0359614008632434
30
0
41
1
10
19.3407877832485
20
0.178898499370177
30
0
41
1
10
19.5732661362727
20
0.394519052838319
30
0
0
SPLINE
5
29C
100
AcDbEntity
8
1
62
256
6
ByLayer
370
18
48
1
60
0
100
AcDbSpline
70
4
71
3
72
16
73
12
40
0
40
0
40
0
40
0
40
0.253275512761247
40
0.253275512761247
40
0.495734960994378
40
0.495734960994378
40
0.741076288408469
40
0.741076288408469
40
0.949184595302396
40
0.949184595302396
40
1
40
1
40
1
40
1
41
1
10
18.02872875272
20
-0.249980947161589
30
0
41
1
10
18.0203010401962
20
-0.259797687981006
30
0
41
1
10
18.0124779452731
20
-0.269511663051731
30
0
41
1
10
17.999581232446
20
-0.287211654583302
30
0
41
1
10
17.9942991812083
20
-0.295423697794945
30
0
41
1
10
17.9872907726214
20
-0.309291111767834
30
0
41
1
10
17.9855489176432
20
-0.31509106766535
30
0
41
1
10
17.9863187804695
20
-0.322194130304297
30
0
41
1
10
17.9882255184319
20
-0.32414188765793
30
0
41
1
10
17.9921506207279
20
-0.324906942168155
30
0
41
1
10
17.9930033696459
20
-0.324980947161691
30
0
41
1
10
17.9939249199247
20
-0.324980947161691
30
0
0
SPLINE
5
29D
100
AcDbEntity
8
1
62
256
6
ByLayer
370
18
48
1
60
0
100
AcDbSpline
70
4
71
3
72
14
73
10
40
0
40
0
40
0
40
0
40
0.36706899633179
40
0.36706899633179
40
0.635184373079629
40
0.635184373079629
40
0.858759635080846
40
0.858759635080846
40
1
40
1
40
1
40
1
41
1
10
19.0736242396016
20
-0.249980947161674
30
0
41
1
10
19.0595861588407
20
-0.264116695428015
30
0
41
1
10
19.046116847108
20
-0.277713110049319
30
0
41
1
10
19.0260137389467
20
-0.298064705436502
30
0
41
1
10
19.0183533892787
20
-0.30584114618128
30
0
41
1
10
19.0075381064276
20
-0.316865710439174
30
0
41
1
10
19.0037606806076
20
-0.320738864304872
30
0
41
1
10
19.0003681497553
20
-0.324270124434833
30
0
41
1
10
18.9997075483724
20
-0.324980947161691
30
0
41
1
10
18.9997518271013
20
-0.324980947161691
30
0
0
SPLINE
5
29E
100
AcDbEntity
8
1
62
256
6
ByLayer
370
18
48
1
60
0
100
AcDbSpline
70
4
71
3
72
8
73
4
40
0
40
0
40
0
40
0
40
1
40
1
40
1
40
1
41
1
10
-17.0559192792915
20
0.394519052838319
30
0
41
1
10
-16.7313555006636
20
0.176865425835672
30
0
41
1
10
-16.4043439217116
20
-0.0380834512813806
30
0
41
1
10
-16.0747405491864
20
-0.249980947161674
30
0
0
SPLINE
5
29F
100
AcDbEntity
8
1
62
256
6
ByLayer
370
18
48
1
60
0
100
AcDbSpline
70
4
71
3
72
22
73
18
40
0
40
0
40
0
40
0
40
0.231260126787036
40
0.231260126787036
40
0.387570852906686
40
0.387570852906686
40
0.510012572490319
40
0.510012572490319
40
0.609779905082876
40
0.609779905082876
40
0.709990143440007
40
0.709990143440007
40
0.804340392490653
40
0.804340392490653
40
0.937758789793738
40
0.937758789793738
40
1
40
1
40
1
40
1
41
1
10
18.9665337194095
20
0.394519052838319
30
0
41
1
10
18.9893456648831
20
0.413465933239877
30
0
41
1
10
19.0119418081171
20
0.431101708324377
30
0
41
1
10
19.0463016403559
20
0.455401046253286
30
0
41
1
10
19.0594843603781
20
0.463946549333485
30
0
41
1
10
19.0793494160292
20
0.474773250038254
30
0
41
1
10
19.0869824154913
20
0.478078074440106
30
0
41
1
10
19.0969460698151
20
0.480008141173357
30
0
41
1
10
19.1000659104202
20
0.479371180450954
30
0
41
1
10
19.1026167949237
20
0.47470272290883
30
0
41
1
10
19.1020486388594
20
0.470579582894913
30
0
41
1
10
19.0975657756679
20
0.459912467712911
30
0
41
1
10
19.093819438838
20
0.453418354473371
30
0
41
1
10
19.0821858184231
20
0.436077878689758
30
0
41
1
10
19.0730851976249
20
0.424289354222509
30
0
41
1
10
19.0581528057297
20
0.406349975501371
30
0
41
1
10
19.0531016869878
20
0.400467282736884
30
0
41
1
10
19.0478637127897
20
0.394519052838319
30
0
0
SPLINE
5
2A0
100
AcDbEntity
8
1
62
256
6
ByLayer
370
18
48
1
60
0
100
AcDbSpline
70
4
71
3
72
16
73
12
40
0
40
0
40
0
40
0
40
0.229765673440753
40
0.229765673440753
40
0.461080070135119
40
0.461080070135119
40
0.694979532553228
40
0.694979532553228
40
0.894994565670021
40
0.894994565670021
40
1
40
1
40
1
40
1
41
1
10
17.4382636790639
20
-0.249980947161532
30
0
41
1
10
17.4307596152509
20
-0.258936628568165
30
0
41
1
10
17.4238421122452
20
-0.267850422109802
30
0
41
1
10
17.4122320588242
20
-0.28471524965255
30
0
41
1
10
17.407461082519
20
-0.292827308714209
30
0
41
1
10
17.4014538069154
20
-0.30675866138003
30
0
41
1
10
17.4002140532379
20
-0.312728591230297
30
0
41
1
10
17.4017164035059
20
-0.320509550441642
30
0
41
1
10
17.4039115445794
20
-0.322904003239103
30
0
41
1
10
17.409025579498
20
-0.324688648690483
30
0
41
1
10
17.411119962308
20
-0.32498094716172
30
0
41
1
10
17.4134725186275
20
-0.32498094716172
30
0
0
SPLINE
5
2A1
100
AcDbEntity
8
1
62
256
6
ByLayer
370
18
48
1
60
0
100
AcDbSpline
70
4
71
3
72
24
73
20
40
0
40
0
40
0
40
0
40
0.0206848588900807
40
0.0206848588900807
40
0.0606467994951938
40
0.0606467994951938
40
0.0893337181876647
40
0.0893337181876647
40
0.118032445257551
40
0.118032445257551
40
0.156500968169874
40
0.156500968169874
40
0.222054907436286
40
0.222054907436286
40
0.401081749780896
40
0.401081749780896
40
0.918813055072741
40
0.918813055072741
40
1
40
1
40
1
40
1
41
1
10
-9.81603258289664
20
0.394519052837552
30
0
41
1
10
-9.81931253702788
20
0.397789280829073
30
0
41
1
10
-9.82242019899934
20
0.401139924328277
30
0
41
1
10
-9.83072034130188
20
0.41109147296217
30
0
41
1
10
-9.83530976380467
20
0.418016583813056
30
0
41
1
10
-9.8399859851371
20
0.429650020447411
30
0
41
1
10
-9.84098333890589
20
0.434535828185574
30
0
41
1
10
-9.84063096940727
20
0.443493024226655
30
0
41
1
10
-9.8392799776588
20
0.44766659148678
30
0
41
1
10
-9.83401130677208
20
0.456104953267953
30
0
41
1
10
-9.82935528217581
20
0.460084318761062
30
0
41
1
10
-9.81472982228311
20
0.468717974947282
30
0
41
1
10
-9.80315016099803
20
0.472189805788503
30
0
41
1
10
-9.75803216908736
20
0.481028383485466
30
0
41
1
10
-9.71968745344623
20
0.480409679049018
30
0
41
1
10
-9.57144039272151
20
0.469937489977724
30
0
41
1
10
-9.45386467300773
20
0.443766878178764
30
0
41
1
10
-9.32057564412327
20
0.405632347866259
30
0
41
1
10
-9.30236739053854
20
0.40019189226598
30
0
41
1
10
-9.28418104530812
20
0.394519052838319
30
0
0
SPLINE
5
2A2
100
AcDbEntity
8
1
62
256
6
ByLayer
370
18
48
1
60
0
100
AcDbSpline
70
4
71
3
72
18
73
14
40
0
40
0
40
0
40
0
40
0.152772634398939
40
0.152772634398939
40
0.372656114344156
40
0.372656114344156
40
0.560907413904603
40
0.560907413904603
40
0.721874681190821
40
0.721874681190821
40
0.973308510758075
40
0.973308510758075
40
1
40
1
40
1
40
1
41
1
10
14.6378611567673
20
-0.249980947160765
30
0
41
1
10
14.6327878286321
20
-0.256162478716959
30
0
41
1
10
14.6281492818557
20
-0.262415921837857
30
0
41
1
10
14.6186816036047
20
-0.277294099717778
30
0
41
1
10
14.6145346924841
20
-0.28603824767751
30
0
41
1
10
14.6113803442181
20
-0.300123292160237
30
0
41
1
10
14.6117158340747
20
-0.305943852928095
30
0
41
1
10
14.6155103653912
20
-0.314360382541878
30
0
41
1
10
14.6185224173724
20
-0.317419998019574
30
0
41
1
10
14.6283387801472
20
-0.323098291485138
30
0
41
1
10
14.6364254441561
20
-0.324668751520278
30
0
41
1
10
14.6463275807696
20
-0.324966835007814
30
0
41
1
10
14.6472983237552
20
-0.324980947161691
30
0
41
1
10
14.6482797132063
20
-0.324980947161691
30
0
0
SPLINE
5
2A3
100
AcDbEntity
8
1
62
256
6
ByLayer
370
18
48
1
60
0
100
AcDbSpline
70
4
71
3
72
14
73
10
40
0
40
0
40
0
40
0
40
0.146815366779467
40
0.146815366779467
40
0.364430219153091
40
0.364430219153091
40
0.668854808993107
40
0.668854808993107
40
1
40
1
40
1
40
1
41
1
10
18.948426804311
20
-0.324980947161663
30
0
41
1
10
18.9490797269465
20
-0.324980947161691
30
0
41
1
10
18.9505258281276
20
-0.324183520280769
30
0
41
1
10
18.9557916746307
20
-0.320453260649515
30
0
41
1
10
18.9604902016497
20
-0.316623400770908
30
0
41
1
10
18.974032798766
20
-0.3049389320297
30
0
41
1
10
18.9839687335512
20
-0.295938913574304
30
0
41
1
10
19.0064378800685
20
-0.275085496381905
30
0
41
1
10
19.0193915746697
20
-0.262806262223847
30
0
41
1
10
19.0327392125282
20
-0.249980947161674
30
0
0
SPLINE
5
2A4
100
AcDbEntity
8
1
62
256
6
ByLayer
370
18
48
1
60
0
100
AcDbSpline
70
4
71
3
72
20
73
16
40
0
40
0
40
0
40
0
40
0.124635113588002
40
0.124635113588002
40
0.213935861791133
40
0.213935861791133
40
0.304108110701346
40
0.304108110701346
40
0.386409478541086
40
0.386409478541086
40
0.519623907091059
40
0.519623907091059
40
0.771425149745863
40
0.771425149745863
40
1
40
1
40
1
40
1
41
1
10
9.16192765463444
20
-0.249980947138766
30
0
41
1
10
9.15617583610779
20
-0.255577825480003
30
0
41
1
10
9.1509471929221
20
-0.261516395555873
30
0
41
1
10
9.14416541443691
20
-0.271961898158537
30
0
41
1
10
9.14197062882337
20
-0.276492861412862
30
0
41
1
10
9.13967639886783
20
-0.285235689816489
30
0
41
1
10
9.13959758727182
20
-0.28954787928609
30
0
41
1
10
9.14153567276313
20
-0.296865034394557
30
0
41
1
10
9.14336975121401
20
-0.300039188227629
30
0
41
1
10
9.14972756786011
20
-0.307198765132625
30
0
41
1
10
9.15525486005407
20
-0.3106449222295
30
0
41
1
10
9.17293690699947
20
-0.318438680009194
30
0
41
1
10
9.18689946127446
20
-0.321209534757372
30
0
41
1
10
9.214382862202
20
-0.324399434787921
30
0
41
1
10
9.2280940750714
20
-0.32498094718531
30
0
41
1
10
9.24203289084423
20
-0.324980947184315
30
0
0
SPLINE
5
2A5
100
AcDbEntity
8
1
62
256
6
ByLayer
370
18
48
1
60
0
100
AcDbSpline
70
4
71
3
72
8
73
4
40
0
40
0
40
0
40
0
40
1
40
1
40
1
40
1
41
1
10
-9.16192765464814
20
-0.249980947161674
30
0
41
1
10
-9.38149895432917
20
-0.0363243711459234
30
0
41
1
10
-9.5994545595567
20
0.178583254364014
30
0
41
1
10
-9.81603258289468
20
0.394519052838319
30
0
0
SPLINE
5
2A6
100
AcDbEntity
8
1
62
256
6
ByLayer
370
18
48
1
60
0
100
AcDbSpline
70
4
71
3
72
22
73
18
40
0
40
0
40
0
40
0
40
0.0604025462158361
40
0.0604025462158361
40
0.147184383286031
40
0.147184383286031
40
0.221452263388171
40
0.221452263388171
40
0.284657112146514
40
0.284657112146514
40
0.383061855667264
40
0.383061855667264
40
0.545111187455068
40
0.545111187455068
40
0.834973778387985
40
0.834973778387985
40
1
40
1
40
1
40
1
41
1
10
-15.166722678307
20
0.394519052838319
30
0
41
1
10
-15.1724877232411
20
0.401545871754166
30
0
41
1
10
-15.1777590578898
20
0.408653238363001
30
0
41
1
10
-15.1885069696644
20
0.425540849239866
30
0
41
1
10
-15.1932159619238
20
0.435455897941495
30
0
41
1
10
-15.1967878114455
20
0.451418654021182
30
0
41
1
10
-15.1963973904129
20
0.458012524801461
30
0
41
1
10
-15.1920505872095
20
0.467515728943567
30
0
41
1
10
-15.1886184560727
20
0.470961777603236
30
0
41
1
10
-15.1774581090455
20
0.477348176262637
30
0
41
1
10
-15.1682851060533
20
0.479124696152013
30
0
41
1
10
-15.1414893474387
20
0.48000791264846
30
0
41
1
10
-15.1217726497934
20
0.476831674567649
30
0
41
1
10
-15.065074688198
20
0.462725220823472
30
0
41
1
10
-15.0253267629504
20
0.447445713169003
30
0
41
1
10
-14.9629721962769
20
0.418700289927216
30
0
41
1
10
-14.9400096461246
20
0.407077678829808
30
0
41
1
10
-14.9171390202628
20
0.394519052838348
30
0
0
SPLINE
5
2A7
100
AcDbEntity
8
1
62
256
6
ByLayer
370
18
48
1
60
0
100
AcDbSpline
70
4
71
3
72
22
73
18
40
0
40
0
40
0
40
0
40
0.272915726206784
40
0.272915726206784
40
0.436610056927919
40
0.436610056927919
40
0.563360973334035
40
0.563360973334035
40
0.6588574133013
40
0.6588574133013
40
0.755190338856479
40
0.755190338856479
40
0.840768024903136
40
0.840768024903136
40
0.955645516929311
40
0.955645516929311
40
1
40
1
40
1
40
1
41
1
10
17.8422547739247
20
0.394519052838319
30
0
41
1
10
17.872062491358
20
0.416166898633264
30
0
41
1
10
17.902007127528
20
0.435797416086786
30
0
41
1
10
17.9461328495388
20
0.460279573202712
30
0
41
1
10
17.9621642454125
20
0.46805531162326
30
0
41
1
10
17.9870683640632
20
0.477135407653805
30
0
41
1
10
17.9969443103709
20
0.47955312723613
30
0
41
1
10
18.0102162856553
20
0.479492688712298
30
0
41
1
10
18.0146963943843
20
0.478032212565267
30
0
41
1
10
18.0198206699188
20
0.471754989419225
30
0
41
1
10
18.0204638772606
20
0.46678701114422
30
0
41
1
10
18.01779090349
20
0.45479845221746
30
0
41
1
10
18.014897702119
20
0.447941029922419
30
0
41
1
10
18.0053266043315
20
0.430569122266689
30
0
41
1
10
17.997592826459
20
0.419355141826031
30
0
41
1
10
17.9853037513096
20
0.403531993006226
30
0
41
1
10
17.9816671833407
20
0.399036008183401
30
0
41
1
10
17.9778880275985
20
0.394519052838319
30
0
0
SPLINE
5
2A8
100
AcDbEntity
8
1
62
256
6
ByLayer
370
18
48
1
60
0
100
AcDbSpline
70
4
71
3
72
8
73
4
40
0
40
0
40
0
40
0
40
1
40
1
40
1
40
1
41
1
10
-5.63509935370516
20
0.394519052838319
30
0
41
1
10
-1.90486641532195
20
-0.291747527511433
30
0
41
1
10
1.90270132202366
20
-0.29214584879557
30
0
41
1
10
5.63509935370516
20
0.394519052838291
30
0
0
SPLINE
5
2A9
100
AcDbEntity
8
1
62
256
6
ByLayer
370
18
48
1
60
0
100
AcDbSpline
70
4
71
3
72
12
73
8
40
0
40
0
40
0
40
0
40
0.54051835355592
40
0.54051835355592
40
0.869369978679544
40
0.869369978679544
40
1
40
1
40
1
40
1
41
1
10
-15.011305873316
20
-0.249980947161674
30
0
41
1
10
-14.973513323455
20
-0.271910386071767
30
0
41
1
10
-14.9350764040869
20
-0.290869165118408
30
0
41
1
10
-14.8764659336491
20
-0.313065159020596
30
0
41
1
10
-14.8545668106014
20
-0.319699525179431
30
0
41
1
10
-14.8269866907195
20
-0.32423303565048
30
0
41
1
10
-14.8194287506433
20
-0.324980947165045
30
0
41
1
10
-14.8124623350326
20
-0.324980947165955
30
0
0
SPLINE
5
2AA
100
AcDbEntity
8
1
62
256
6
ByLayer
370
18
48
1
60
0
100
AcDbSpline
70
4
71
3
72
22
73
18
40
0
40
0
40
0
40
0
40
0.501204601746437
40
0.501204601746437
40
0.668371074740831
40
0.668371074740831
40
0.751638215942049
40
0.751638215942049
40
0.816879578657103
40
0.816879578657103
40
0.862349608975757
40
0.862349608975757
40
0.908208578384297
40
0.908208578384297
40
0.949654235780407
40
0.949654235780407
40
1
40
1
40
1
40
1
41
1
10
11.6678057336411
20
0.394519052838405
30
0
41
1
10
11.7568783680756
20
0.430483129886539
30
0
41
1
10
11.8486538266279
20
0.459335522461714
30
0
41
1
10
11.9625698658215
20
0.477511563270298
30
0
41
1
10
11.9910078737772
20
0.48032821113037
30
0
41
1
10
12.0297560866315
20
0.478823564742811
30
0
41
1
10
12.0421441243299
20
0.477335309886371
30
0
41
1
10
12.0614113266723
20
0.471734054092423
30
0
41
1
10
12.0690435467857
20
0.468187595030315
30
0
41
1
10
12.0784732242377
20
0.459626867429449
30
0
41
1
10
12.0813734192935
20
0.455278961679198
30
0
41
1
10
12.0841510432408
20
0.445168200056514
30
0
41
1
10
12.0840053804978
20
0.439248001676845
30
0
41
1
10
12.0808667522932
20
0.427458052513941
30
0
41
1
10
12.0781439299216
20
0.421514755084559
30
0
41
1
10
12.070343651735
20
0.408544697677399
30
0
41
1
10
12.0648424056649
20
0.401407235506724
30
0
41
1
10
12.0587239255499
20
0.394519052837495
30
0
0
SPLINE
5
2AB
100
AcDbEntity
8
1
62
256
6
ByLayer
370
18
48
1
60
0
100
AcDbSpline
70
4
71
3
72
8
73
4
40
0
40
0
40
0
40
0
40
1
40
1
40
1
40
1
41
1
10
18.1816177175708
20
-0.249980947161674
30
0
41
1
10
18.4447144991339
20
-0.0364873455682471
30
0
41
1
10
18.7063187568174
20
0.178392735131837
30
0
41
1
10
18.9665337194095
20
0.394519052838319
30
0
0
SPLINE
5
2AC
100
AcDbEntity
8
1
62
256
6
ByLayer
370
18
48
1
60
0
100
AcDbSpline
70
4
71
3
72
8
73
4
40
0
40
0
40
0
40
0
40
1
40
1
40
1
40
1
41
1
10
15.1667226783066
20
0.394519052838319
30
0
41
1
10
14.9904557633514
20
0.179673252606676
30
0
41
1
10
14.8141693177327
20
-0.035160531136512
30
0
41
1
10
14.6378611567675
20
-0.249980947160765
30
0
0
SPLINE
5
2AD
100
AcDbEntity
8
1
62
256
6
ByLayer
370
18
48
1
60
0
100
AcDbSpline
70
4
71
3
72
22
73
18
40
0
40
0
40
0
40
0
40
0.0865760041248244
40
0.0865760041248244
40
0.17874754488803
40
0.17874754488803
40
0.271926108476864
40
0.271926108476864
40
0.351775388849756
40
0.351775388849756
40
0.458632779957697
40
0.458632779957697
40
0.616926546418369
40
0.616926546418369
40
0.868957974205355
40
0.868957974205355
40
1
40
1
40
1
40
1
41
1
10
-17.2234180953957
20
0.394519052838348
30
0
41
1
10
-17.2308997470834
20
0.403609451266107
30
0
41
1
10
-17.2377597598622
20
0.412709940945547
30
0
41
1
10
-17.2495589658621
20
0.430660026879565
30
0
41
1
10
-17.2544403670075
20
0.439641974252623
30
0
41
1
10
-17.2602420820977
20
0.455358894415212
30
0
41
1
10
-17.2611518291119
20
0.462269640735769
30
0
41
1
10
-17.2587097950697
20
0.471769914679072
30
0
41
1
10
-17.2559408108655
20
0.474965858302028
30
0
41
1
10
-17.2466475385485
20
0.479527376407958
30
0
41
1
10
-17.2390790098101
20
0.480038448355401
30
0
41
1
10
-17.2175958445497
20
0.477550698966269
30
0
41
1
10
-17.2020532232456
20
0.472816231978697
30
0
41
1
10
-17.1597644317135
20
0.456000818241051
30
0
41
1
10
-17.1309368327234
20
0.440970408785972
30
0
41
1
10
-17.0867436085574
20
0.414636719070813
30
0
41
1
10
-17.0713338019867
20
0.404856086709799
30
0
41
1
10
-17.0559192792915
20
0.394519052838319
30
0
0
SPLINE
5
2AE
100
AcDbEntity
8
1
62
256
6
ByLayer
370
18
48
1
60
0
100
AcDbSpline
70
4
71
3
72
10
73
6
40
0
40
0
40
0
40
0
40
0.499999999999998
40
0.499999999999998
40
1
40
1
40
1
40
1
41
1
10
-0.199972498109588
20
0.669999999999987
30
0
41
1
10
-0.133317498713666
20
0.669333375006715
30
0
41
1
10
-0.066658332812608
20
0.668999999999983
30
0
41
1
10
0.0666583328125796
20
0.668999999999983
30
0
41
1
10
0.133317498713666
20
0.669333375006715
30
0
41
1
10
0.199972498109588
20
0.669999999999987
30
0
0
SPLINE
5
2AF
100
AcDbEntity
8
1
62
256
6
ByLayer
370
18
48
1
60
0
100
AcDbSpline
70
4
71
3
72
8
73
4
40
0
40
0
40
0
40
0
40
1
40
1
40
1
40
1
41
1
10
17.4284333214963
20
0.669999999999987
30
0
41
1
10
17.4709173966446
20
0.669999999999987
30
0
41
1
10
17.5143412566345
20
0.671668349091561
30
0
41
1
10
17.5587027736478
20
0.675000000000011
30
0
0
SPLINE
5
2B0
100
AcDbEntity
8
1
62
256
6
ByLayer
370
18
48
1
60
0
100
AcDbSpline
70
4
71
3
72
8
73
4
40
0
40
0
40
0
40
0
40
1
40
1
40
1
40
1
41
1
10
-18.2023611205439
20
-0.0476388794560592
30
0
41
1
10
-18.4415424541196
20
0.191542454119627
30
0
41
1
10
-18.680756280849
20
0.430756280849067
30
0
41
1
10
-18.92
20
0.669999999999987
30
0
0
SPLINE
5
2B1
100
AcDbEntity
8
1
62
256
6
ByLayer
370
18
48
1
60
0
100
AcDbSpline
70
4
71
3
72
16
73
12
40
0
40
0
40
0
40
0
40
0.300217627337207
40
0.300217627337207
40
0.555746078235864
40
0.555746078235864
40
0.75394014224694
40
0.75394014224694
40
0.919624004418597
40
0.919624004418597
40
1
40
1
40
1
40
1
41
1
10
21.6
20
6.32500000000013
30
0
41
1
10
21.3588064122806
20
6.32500000000013
30
0
41
1
10
21.1187657049657
20
6.26920261605187
30
0
41
1
10
20.7227955470334
20
6.07835221169134
30
0
41
1
10
20.5533652871268
20
5.95328011078746
30
0
41
1
10
20.3030070784974
20
5.67607215942127
30
0
41
1
10
20.2080620654335
20
5.53273280190345
30
0
41
1
10
20.0790352030597
20
5.24233039800927
30
0
41
1
10
20.036402382871
20
5.09629894727971
30
0
41
1
10
20.0052333815646
20
4.87392320116959
30
0
41
1
10
20
20
4.7993214581681
30
0
41
1
10
20
20
4.72500000000014
30
0
0
SPLINE
5
2B2
100
AcDbEntity
8
1
62
256
6
ByLayer
370
18
48
1
60
0
100
AcDbSpline
70
4
71
3
72
14
73
10
40
0
40
0
40
0
40
0
40
0.277964822127841
40
0.277964822127841
40
0.556501573953053
40
0.556501573953053
40
0.827022564378657
40
0.827022564378657
40
1
40
1
40
1
40
1
41
1
10
55.1875419938806
20
9.17382372247366
30
0
41
1
10
55.1888350105246
20
9.19005745222617
30
0
41
1
10
55.1874656911384
20
9.2066186943118
30
0
41
1
10
55.1793911623359
20
9.23772744291193
30
0
41
1
10
55.1725501182787
20
9.25270672303864
30
0
41
1
10
55.154476984812
20
9.27847034761581
30
0
41
1
10
55.1431148900935
20
9.28971678629182
30
0
41
1
10
55.1219500249482
20
9.30428282952198
30
0
41
1
10
55.1129131106973
20
9.30910441745726
30
0
41
1
10
55.1034740012564
20
9.31290130065989
30
0
0
SPLINE
5
2B3
100
AcDbEntity
8
1
62
256
6
ByLayer
370
18
48
1
60
0
100
AcDbSpline
70
4
71
3
72
14
73
10
40
0
40
0
40
0
40
0
40
0.265115496676632
40
0.265115496676632
40
0.530351997484445
40
0.530351997484445
40
0.79474300663377
40
0.79474300663377
40
1
40
1
40
1
40
1
41
1
10
55.1034740012556
20
8.68709869934136
30
0
41
1
10
55.1178169193665
20
8.69286814032444
30
0
41
1
10
55.1312798336784
20
8.70107615959947
30
0
41
1
10
55.1541755035232
20
8.72123979547766
30
0
41
1
10
55.1639170011515
20
8.73346737762338
30
0
41
1
10
55.1784767387751
20
8.76016268298272
30
0
41
1
10
55.1835136438583
20
8.77497258714831
30
0
41
1
10
55.18800892212
20
8.80190858852802
30
0
41
1
10
55.1885025937914
20
8.8141160156506
30
0
41
1
10
55.1875419938816
20
8.82617627752617
30
0
0
SPLINE
5
2B4
100
AcDbEntity
8
1
62
256
6
ByLayer
370
18
48
1
60
0
100
AcDbSpline
70
4
71
3
72
12
73
8
40
0
40
0
40
0
40
0
40
0.332414864303764
40
0.332414864303764
40
0.665450769115895
40
0.665450769115895
40
1
40
1
40
1
40
1
41
1
10
54.9304703189271
20
8.61697320392841
30
0
41
1
10
54.9218610250491
20
8.61345571294166
30
0
41
1
10
54.9137959778895
20
8.60856724613106
30
0
41
1
10
54.9001780410715
20
8.59670948329128
30
0
41
1
10
54.8944556422079
20
8.58957694020847
30
0
41
1
10
54.886091038275
20
8.5741802284596
30
0
41
1
10
54.8833463988577
20
8.56572085924742
30
0
41
1
10
54.8820812253616
20
8.5572238829979
30
0
0
SPLINE
5
2B5
100
AcDbEntity
8
1
62
256
6
ByLayer
370
18
48
1
60
0
100
AcDbSpline
70
4
71
3
72
12
73
8
40
0
40
0
40
0
40
0
40
0.341621324294176
40
0.341621324294176
40
0.684704153809058
40
0.684704153809058
40
1
40
1
40
1
40
1
41
1
10
54.8820812253625
20
9.44277611700204
30
0
41
1
10
54.8833724269376
20
9.43410433471291
30
0
41
1
10
54.8862073194718
20
9.42546901850062
30
0
41
1
10
54.8949039737673
20
9.40974355552544
30
0
41
1
10
54.9009057799655
20
9.40245675159323
30
0
41
1
10
54.9146091122721
20
9.39093983628794
30
0
41
1
10
54.9222922726722
20
9.38636809262843
30
0
41
1
10
54.9304703189271
20
9.38302679607162
30
0
0
SPLINE
5
2B6
100
AcDbEntity
8
1
62
256
6
ByLayer
370
18
48
1
60
0
100
AcDbSpline
70
4
71
3
72
8
73
4
40
0
40
0
40
0
40
0
40
1
40
1
40
1
40
1
41
1
10
60.4014946002937
20
11.967912277221
30
0
41
1
10
60.1842191907708
20
11.9478834204718
30
0
41
1
10
59.9597522052211
20
11.9296885041684
30
0
41
1
10
59.7364283337292
20
11.9140193618494
30
0
0
SPLINE
5
2B7
100
AcDbEntity
8
1
62
256
6
ByLayer
370
18
48
1
60
0
100
AcDbSpline
70
4
71
3
72
16
73
12
40
0
40
0
40
0
40
0
40
0.210113811526245
40
0.210113811526245
40
0.420118783208566
40
0.420118783208566
40
0.631580723999394
40
0.631580723999394
40
0.841940850168462
40
0.841940850168462
40
1
40
1
40
1
40
1
41
1
10
61.6042883949487
20
11.6036710939696
30
0
41
1
10
61.6044811057617
20
11.6495888604171
30
0
41
1
10
61.5967828860954
20
11.6961185955738
30
0
41
1
10
61.5671175295508
20
11.7826794987035
30
0
41
1
10
61.5447524466944
20
11.8239131656701
30
0
41
1
10
61.4884452222279
20
11.8958084250028
30
0
41
1
10
61.4536337555001
20
11.9273981047965
30
0
41
1
10
61.3767933730099
20
11.9760520573875
30
0
41
1
10
61.3337115713391
20
11.9938682406811
30
0
41
1
10
61.2560754222231
20
12.010876863127
30
0
41
1
10
61.2213698383446
20
12.0137417321623
30
0
41
1
10
61.1871670660913
20
12.0119260461184
30
0
0
SPLINE
5
2B8
100
AcDbEntity
8
1
62
256
6
ByLayer
370
18
48
1
60
0
100
AcDbSpline
70
4
71
3
72
16
73
12
40
0
40
0
40
0
40
0
40
0.203997306331301
40
0.203997306331301
40
0.407770646706819
40
0.407770646706819
40
0.614879615558065
40
0.614879615558065
40
0.825469896972415
40
0.825469896972415
40
1
40
1
40
1
40
1
41
1
10
61.1871670660913
20
5.98807395388161
30
0
41
1
10
61.2310543430126
20
5.985744156881
30
0
41
1
10
61.2758963449
20
5.99119877040934
30
0
41
1
10
61.3599887275445
20
6.01643941846365
30
0
41
1
10
61.400396894831
20
6.03654154056278
30
0
41
1
10
61.4721906259509
20
6.08865366052064
30
0
41
1
10
61.5044027145378
20
6.12155617039144
30
0
41
1
10
61.5562418734156
20
6.19585549753856
30
0
41
1
10
61.5763687602263
20
6.23841407802817
30
0
41
1
10
61.5991626476429
20
6.31936293435615
30
0
41
1
10
61.6044491523363
20
6.35802477528142
30
0
41
1
10
61.6042883949487
20
6.39632890603042
30
0
0
SPLINE
5
2B9
100
AcDbEntity
8
1
62
256
6
ByLayer
370
18
48
1
60
0
100
AcDbSpline
70
4
71
3
72
8
73
4
40
0
40
0
40
0
40
0
40
1
40
1
40
1
40
1
41
1
10
61.6002757795249
20
10.6479232162763
30
0
41
1
10
61.6002814186846
20
10.6493021499694
30
0
41
1
10
61.6002875522354
20
10.6506809535238
30
0
41
1
10
61.6002941807427
20
10.6520595908734
30
0
0
SPLINE
5
2BA
100
AcDbEntity
8
1
62
256
6
ByLayer
370
18
48
1
60
0
100
AcDbSpline
70
4
71
3
72
8
73
4
40
0
40
0
40
0
40
0
40
1
40
1
40
1
40
1
41
1
10
57.671637821701
20
11.8212669740682
30
0
41
1
10
57.6430480905263
20
11.8210043534101
30
0
41
1
10
57.6145834853096
20
11.8177887659085
30
0
41
1
10
57.5868975798565
20
11.8116455319235
30
0
0
SPLINE
5
2BB
100
AcDbEntity
8
1
62
256
6
ByLayer
370
18
48
1
60
0
100
AcDbSpline
70
4
71
3
72
8
73
4
40
0
40
0
40
0
40
0
40
1
40
1
40
1
40
1
41
1
10
61.6002941807467
20
7.34794040912612
30
0
41
1
10
61.6002875522404
20
7.3493190464755
30
0
41
1
10
61.6002814186851
20
7.35069785002898
30
0
41
1
10
61.6002757795255
20
7.35207678372146
30
0
0
SPLINE
5
2BC
100
AcDbEntity
8
1
62
256
6
ByLayer
370
18
48
1
60
0
100
AcDbSpline
70
4
71
3
72
10
73
6
40
0
40
0
40
0
40
0
40
0.858584777727605
40
0.858584777727605
40
1
40
1
40
1
40
1
41
1
10
57.5868975798573
20
6.18835446806148
30
0
41
1
10
57.5625920283412
20
6.19374763428257
30
0
41
1
10
57.5359654859782
20
6.20280319195749
30
0
41
1
10
57.5061021283406
20
6.21759326236551
30
0
41
1
10
57.5018325632761
20
6.21981761950238
30
0
41
1
10
57.4975914368446
20
6.2221399413373
30
0
0
SPLINE
5
2BD
100
AcDbEntity
8
1
62
256
6
ByLayer
370
18
48
1
60
0
100
AcDbSpline
70
4
71
3
72
8
73
4
40
0
40
0
40
0
40
0
40
1
40
1
40
1
40
1
41
1
10
59.7364283337291
20
6.08598063815055
30
0
41
1
10
59.959752205221
20
6.07031149583159
30
0
41
1
10
60.1842191907708
20
6.05211657952833
30
0
41
1
10
60.4014946002936
20
6.0320877227791
30
0
0
SPLINE
5
2BE
100
AcDbEntity
8
1
62
256
6
ByLayer
370
18
48
1
60
0
100
AcDbSpline
70
4
71
3
72
14
73
10
40
0
40
0
40
0
40
0
40
0.293378665300578
40
0.293378665300578
40
0.586642161239459
40
0.586642161239459
40
0.825678920142814
40
0.825678920142814
40
1
40
1
40
1
40
1
41
1
10
59.5364283337291
20
11.899986699587
30
0
41
1
10
59.3447161209203
20
11.8865355359174
30
0
41
1
10
59.152201562555
20
11.8745642602152
30
0
41
1
10
58.77353071936
20
11.8540882734258
30
0
41
1
10
58.5860785946322
20
11.8455123765386
30
0
41
1
10
58.2560337849082
20
11.8332819351381
30
0
41
1
10
58.1107699212903
20
11.8289815140382
30
0
41
1
10
57.8682871535137
20
11.8237163119726
30
0
41
1
10
57.7684041313843
20
11.8221558537772
30
0
41
1
10
57.6716378217011
20
11.8212669740682
30
0
0
SPLINE
5
2BF
100
AcDbEntity
8
1
62
256
6
ByLayer
370
18
48
1
60
0
100
AcDbSpline
70
4
71
3
72
8
73
4
40
0
40
0
40
0
40
0
40
1
40
1
40
1
40
1
41
1
10
57.5868975798565
20
6.1883544680766
30
0
41
1
10
57.6145834853096
20
6.18221123409154
30
0
41
1
10
57.6430480905264
20
6.17899564658987
30
0
41
1
10
57.6716378217011
20
6.17873302593185
30
0
0
SPLINE
5
2C0
100
AcDbEntity
8
1
62
256
6
ByLayer
370
18
48
1
60
0
100
AcDbSpline
70
4
71
3
72
8
73
4
40
0
40
0
40
0
40
0
40
1
40
1
40
1
40
1
41
1
10
57.4152478209054
20
11.7315215285372
30
0
41
1
10
57.4427018986566
20
11.7473721477172
30
0
41
1
10
57.4705227095991
20
11.7630379831268
30
0
41
1
10
57.4975914368446
20
11.7778600586627
30
0
0
SPLINE
5
2C1
100
AcDbEntity
8
1
62
256
6
ByLayer
370
18
48
1
60
0
100
AcDbSpline
70
4
71
2
72
6
73
3
40
0
40
0
40
0
40
1
40
1
40
1
41
1
10
54.6376938966108
20
11.7
30
0
41
1
10
54.6729846280613
20
11.7
30
0
41
1
10
54.7503724427435
20
11.7
30
0
0
SPLINE
5
2C2
100
AcDbEntity
8
1
62
256
6
ByLayer
370
18
48
1
60
0
100
AcDbSpline
70
4
71
3
72
10
73
6
40
0
40
0
40
0
40
0
40
0.557511536136653
40
0.557511536136653
40
1
40
1
40
1
40
1
41
1
10
57.4975914368446
20
6.22213994133725
30
0
41
1
10
57.4825230005822
20
6.23039099423917
30
0
41
1
10
57.467243242515
20
6.23889095301473
30
0
41
1
10
57.4397304309046
20
6.25442140693738
30
0
41
1
10
57.4274642960357
20
6.2614252862578
30
0
41
1
10
57.4152478209054
20
6.26847847146286
30
0
0
SPLINE
5
2C3
100
AcDbEntity
8
1
62
256
6
ByLayer
370
18
48
1
60
0
100
AcDbSpline
70
4
71
3
72
8
73
4
40
0
40
0
40
0
40
0
40
1
40
1
40
1
40
1
41
1
10
61.6003004601807
20
10.6534542670475
30
0
41
1
10
61.6002985088422
20
10.6529893159498
30
0
41
1
10
61.6002964155792
20
10.6525244034979
30
0
41
1
10
61.6002941804908
20
10.6520595384189
30
0
0
SPLINE
5
2C4
100
AcDbEntity
8
1
62
256
6
ByLayer
370
18
48
1
60
0
100
AcDbSpline
70
4
71
3
72
10
73
6
40
0
40
0
40
0
40
0
40
0.858760852437928
40
0.858760852437928
40
1
40
1
40
1
40
1
41
1
10
57.4975914368446
20
11.7778600586627
30
0
41
1
10
57.5229199764033
20
11.7917292562482
30
0
41
1
10
57.549684435411
20
11.8021072763606
30
0
41
1
10
57.578710044546
20
11.8097461943843
30
0
41
1
10
57.5828306919772
20
11.8107431289345
30
0
41
1
10
57.5868975798598
20
11.8116455319242
30
0
0
SPLINE
5
2C5
100
AcDbEntity
8
1
62
256
6
ByLayer
370
18
48
1
60
0
100
AcDbSpline
70
4
71
3
72
12
73
8
40
0
40
0
40
0
40
0
40
0.223236979427623
40
0.223236979427623
40
0.515421340440797
40
0.515421340440797
40
1
40
1
40
1
40
1
41
1
10
57.6716378217011
20
6.17873302593185
30
0
41
1
10
57.795705883471
20
6.17759335673293
30
0
41
1
10
57.9249600298712
20
6.17534741110345
30
0
41
1
10
58.2317292652913
20
6.16767126793314
30
0
41
1
10
58.4129003102596
20
6.1614405327141
30
0
41
1
10
58.9021442687769
20
6.14030682733926
30
0
41
1
10
59.2209419682615
20
6.12214886848869
30
0
41
1
10
59.5364283337283
20
6.10001330041365
30
0
0
SPLINE
5
2C6
100
AcDbEntity
8
1
62
256
6
ByLayer
370
18
48
1
60
0
100
AcDbSpline
70
4
71
3
72
8
73
4
40
0
40
0
40
0
40
0
40
1
40
1
40
1
40
1
41
1
10
61.6002941804908
20
7.34794046159021
30
0
41
1
10
61.6002964155792
20
7.34747559650828
30
0
41
1
10
61.6002985088421
20
7.34701068405334
30
0
41
1
10
61.6003004601806
20
7.34654573295265
30
0
0
SPLINE
5
2C7
100
AcDbEntity
8
1
62
256
6
ByLayer
370
18
48
1
60
0
100
AcDbSpline
70
4
71
2
72
6
73
3
40
0
40
0
40
0
40
1
40
1
40
1
41
1
10
54.7503724427435
20
6.30000000000004
30
0
41
1
10
54.6729846280613
20
6.30000000000004
30
0
41
1
10
54.6376938966108
20
6.30000000000004
30
0
0
LINE
5
70
100
AcDbEntity
8
81
62
256
6
ByLayer
370
18
48
1
60
0
100
AcDbLine
10
61.6
20
12
30
0
11
66.6
21
12
31
0
39
0
210
0
220
0
230
1
0
LINE
5
71
100
AcDbEntity
8
80
62
256
6
ByLayer
370
18
48
1
60
0
100
AcDbLine
10
0
20
0
30
0
11
-5
21
0
31
0
39
0
210
0
220
0
230
1
0
LINE
5
72
100
AcDbEntity
8
1
62
256
6
ByLayer
370
18
48
1
60
0
100
AcDbLine
10
20
20
0.675
30
0
11
20
21
0.75
31
0
39
0
210
0
220
0
230
1
0
LINE
5
74
100
AcDbEntity
8
1
62
256
6
ByLayer
370
18
48
1
60
0
100
AcDbLine
10
19.000019
20
-0.324981
30
0
11
20
21
0.675
31
0
39
0
210
0
220
0
230
1
0
LINE
5
75
100
AcDbEntity
8
1
62
256
6
ByLayer
370
18
48
1
60
0
100
AcDbLine
10
18.94836
20
-0.324981
30
0
11
18.999752
21
-0.324981
31
0
39
0
210
0
220
0
230
1
0
LINE
5
76
100
AcDbEntity
8
1
62
256
6
ByLayer
370
13
48
1
60
0
100
AcDbLine
10
19.330508
20
0.394519
30
0
11
19.38761
21
0.394519
31
0
39
0
210
0
220
0
230
1
0
LINE
5
77
100
AcDbEntity
8
1
62
256
6
ByLayer
370
13
48
1
60
0
100
AcDbLine
10
18.591032
20
-0.249981
30
0
11
18.799444
21
-0.249981
31
0
39
0
210
0
220
0
230
1
0
LINE
5
78
100
AcDbEntity
8
1
62
256
6
ByLayer
370
13
48
1
60
0
100
AcDbLine
10
19.573114
20
0.394519
30
0
11
19.607085
21
0.394519
31
0
39
0
210
0
220
0
230
1
0
LINE
5
79
100
AcDbEntity
8
1
62
256
6
ByLayer
370
13
48
1
60
0
100
AcDbLine
10
19.699024
20
0.394519
30
0
11
19.710304
21
0.394519
31
0
39
0
210
0
220
0
230
1
0
LINE
5
7A
100
AcDbEntity
8
1
62
256
6
ByLayer
370
13
48
1
60
0
100
AcDbLine
10
19.03268
20
-0.249981
30
0
11
19.073624
21
-0.249981
31
0
39
0
210
0
220
0
230
1
0
LINE
5
7B
100
AcDbEntity
8
1
62
256
6
ByLayer
370
13
48
1
60
0
100
AcDbLine
10
55.546601
20
6.3
30
0
11
55.546601
21
7.625278
31
0
39
0
210
0
220
0
230
1
0
LINE
5
7C
100
AcDbEntity
8
1
62
256
6
ByLayer
370
13
48
1
60
0
100
AcDbLine
10
55.546601
20
10.374718
30
0
11
55.546601
21
11.7
31
0
39
0
210
0
220
0
230
1
0
LINE
5
7D
100
AcDbEntity
8
1
62
256
6
ByLayer
370
13
48
1
60
0
100
AcDbLine
10
57.389628
20
11.233555
30
0
11
57.493329
21
11.013473
31
0
39
0
210
0
220
0
230
1
0
LINE
5
7E
100
AcDbEntity
8
1
62
256
6
ByLayer
370
13
48
1
60
0
100
AcDbLine
10
57.389628
20
6.766445
30
0
11
57.493329
21
6.986527
31
0
39
0
210
0
220
0
230
1
0
LINE
5
7F
100
AcDbEntity
8
1
62
256
6
ByLayer
370
13
48
1
60
0
100
AcDbLine
10
59.536428
20
11.269806
30
0
11
59.536428
21
11.899987
31
0
39
0
210
0
220
0
230
1
0
LINE
5
80
100
AcDbEntity
8
1
62
256
6
ByLayer
370
13
48
1
60
0
100
AcDbLine
10
59.536428
20
6.730194
30
0
11
59.536428
21
6.100013
31
0
39
0
210
0
220
0
230
1
0
LINE
5
81
100
AcDbEntity
8
1
62
256
6
ByLayer
370
13
48
1
60
0
100
AcDbLine
10
55.546601
20
7.625278
30
0
11
55.542054
21
7.79906
31
0
39
0
210
0
220
0
230
1
0
LINE
5
82
100
AcDbEntity
8
1
62
256
6
ByLayer
370
13
48
1
60
0
100
AcDbLine
10
49.989175
20
6.325
30
0
11
49.989175
21
11.675
31
0
39
0
210
0
220
0
230
1
0
LINE
5
83
100
AcDbEntity
8
1
62
256
6
ByLayer
370
13
48
1
60
0
100
AcDbLine
10
56.141174
20
7.648198
30
0
11
56.131942
21
7.829893
31
0
39
0
210
0
220
0
230
1
0
LINE
5
84
100
AcDbEntity
8
1
62
256
6
ByLayer
370
13
48
1
60
0
100
AcDbLine
10
55.542053
20
10.200936
30
0
11
55.546601
21
10.374718
31
0
39
0
210
0
220
0
230
1
0
LINE
5
85
100
AcDbEntity
8
1
62
256
6
ByLayer
370
13
48
1
60
0
100
AcDbLine
10
56.131936
20
10.170101
30
0
11
56.141168
21
10.351796
31
0
39
0
210
0
220
0
230
1
0
LINE
5
86
100
AcDbEntity
8
1
62
256
6
ByLayer
370
13
48
1
60
0
100
AcDbLine
10
54.637703
20
6.440846
30
0
11
54.637703
21
6.3
31
0
39
0
210
0
220
0
230
1
0
LINE
5
87
100
AcDbEntity
8
1
62
256
6
ByLayer
370
13
48
1
60
0
100
AcDbLine
10
54.637703
20
11.7
30
0
11
54.637703
21
11.559154
31
0
39
0
210
0
220
0
230
1
0
LINE
5
88
100
AcDbEntity
8
1
62
256
6
ByLayer
370
13
48
1
60
0
100
AcDbLine
10
57.389628
20
6.766445
30
0
11
57.559047
21
6.775085
31
0
39
0
210
0
220
0
230
1
0
LINE
5
89
100
AcDbEntity
8
1
62
256
6
ByLayer
370
13
48
1
60
0
100
AcDbLine
10
57.389628
20
11.233555
30
0
11
57.559047
21
11.224915
31
0
39
0
210
0
220
0
230
1
0
LINE
5
8A
100
AcDbEntity
8
1
62
256
6
ByLayer
370
13
48
1
60
0
100
AcDbLine
10
55.546601
20
7.625278
30
0
11
55.478197
21
7.625278
31
0
39
0
210
0
220
0
230
1
0
LINE
5
8B
100
AcDbEntity
8
1
62
256
6
ByLayer
370
13
48
1
60
0
100
AcDbLine
10
55.478197
20
7.625278
30
0
11
55.478197
21
6.3
31
0
39
0
210
0
220
0
230
1
0
LINE
5
8C
100
AcDbEntity
8
1
62
256
6
ByLayer
370
13
48
1
60
0
100
AcDbLine
10
55.478197
20
10.374718
30
0
11
55.546601
21
10.374718
31
0
39
0
210
0
220
0
230
1
0
LINE
5
8D
100
AcDbEntity
8
1
62
256
6
ByLayer
370
13
48
1
60
0
100
AcDbLine
10
55.478197
20
11.7
30
0
11
55.478197
21
10.374718
31
0
39
0
210
0
220
0
230
1
0
LINE
5
8E
100
AcDbEntity
8
1
62
256
6
ByLayer
370
13
48
1
60
0
100
AcDbLine
10
54.75056
20
6.3
30
0
11
54.75056
21
6.416083
31
0
39
0
210
0
220
0
230
1
0
LINE
5
8F
100
AcDbEntity
8
1
62
256
6
ByLayer
370
13
48
1
60
0
100
AcDbLine
10
54.75056
20
6.416083
30
0
11
55.326163
21
7.656387
31
0
39
0
210
0
220
0
230
1
0
LINE
5
90
100
AcDbEntity
8
1
62
256
6
ByLayer
370
13
48
1
60
0
100
AcDbLine
10
55.326164
20
10.343611
30
0
11
54.75056
21
11.583917
31
0
39
0
210
0
220
0
230
1
0
LINE
5
91
100
AcDbEntity
8
1
62
256
6
ByLayer
370
13
48
1
60
0
100
AcDbLine
10
54.75056
20
11.583917
30
0
11
54.75056
21
11.7
31
0
39
0
210
0
220
0
230
1
0
LINE
5
92
100
AcDbEntity
8
1
62
256
6
ByLayer
370
13
48
1
60
0
100
AcDbLine
10
54.636692
20
11.541995
30
0
11
55.223441
21
10.277673
31
0
39
0
210
0
220
0
230
1
0
LINE
5
93
100
AcDbEntity
8
1
62
256
6
ByLayer
370
13
48
1
60
0
100
AcDbLine
10
55.22344
20
7.722325
30
0
11
54.636692
21
6.458005
31
0
39
0
210
0
220
0
230
1
0
LINE
5
94
100
AcDbEntity
8
1
62
256
6
ByLayer
370
13
48
1
60
0
100
AcDbLine
10
54.999114
20
9.518048
30
0
11
55.223982
21
9.518048
31
0
39
0
210
0
220
0
230
1
0
LINE
5
95
100
AcDbEntity
8
1
62
256
6
ByLayer
370
13
48
1
60
0
100
AcDbLine
10
54.999114
20
8.481952
30
0
11
55.223981
21
8.481952
31
0
39
0
210
0
220
0
230
1
0
LINE
5
96
100
AcDbEntity
8
1
62
256
6
ByLayer
370
13
48
1
60
0
100
AcDbLine
10
60.520026
20
11.27366
30
0
11
60.520026
21
11.97651
31
0
39
0
210
0
220
0
230
1
0
LINE
5
97
100
AcDbEntity
8
1
62
256
6
ByLayer
370
13
48
1
60
0
100
AcDbLine
10
60.520026
20
6.72634
30
0
11
60.520026
21
6.02349
31
0
39
0
210
0
220
0
230
1
0
LINE
5
98
100
AcDbEntity
8
1
62
256
6
ByLayer
370
13
48
1
60
0
100
AcDbLine
10
60.401495
20
11.967912
30
0
11
60.401495
21
11.313124
31
0
39
0
210
0
220
0
230
1
0
LINE
5
99
100
AcDbEntity
8
1
62
256
6
ByLayer
370
13
48
1
60
0
100
AcDbLine
10
59.736428
20
11.290986
30
0
11
59.736428
21
11.914019
31
0
39
0
210
0
220
0
230
1
0
LINE
5
9A
100
AcDbEntity
8
1
62
256
6
ByLayer
370
13
48
1
60
0
100
AcDbLine
10
60.401495
20
6.032088
30
0
11
60.401495
21
6.686876
31
0
39
0
210
0
220
0
230
1
0
LINE
5
9B
100
AcDbEntity
8
1
62
256
6
ByLayer
370
13
48
1
60
0
100
AcDbLine
10
59.736428
20
6.709014
30
0
11
59.736428
21
6.085981
31
0
39
0
210
0
220
0
230
1
0
LINE
5
9C
100
AcDbEntity
8
1
62
256
6
ByLayer
370
13
48
1
60
0
100
AcDbLine
10
57.823577
20
7.829575
30
0
11
57.823577
21
9
31
0
39
0
210
0
220
0
230
1
0
LINE
5
9D
100
AcDbEntity
8
1
62
256
6
ByLayer
370
13
48
1
60
0
100
AcDbLine
10
56.853025
20
8.03172
30
0
11
56.853025
21
8.332494
31
0
39
0
210
0
220
0
230
1
0
LINE
5
9E
100
AcDbEntity
8
1
62
256
6
ByLayer
370
13
48
1
60
0
100
AcDbLine
10
56.853025
20
9.96828
30
0
11
56.853025
21
9.667501
31
0
39
0
210
0
220
0
230
1
0
LINE
5
9F
100
AcDbEntity
8
1
62
256
6
ByLayer
370
13
48
1
60
0
100
AcDbLine
10
57.823577
20
10.170425
30
0
11
57.823577
21
9
31
0
39
0
210
0
220
0
230
1
0
LINE
5
A0
100
AcDbEntity
8
1
62
256
6
ByLayer
370
13
48
1
60
0
100
AcDbLine
10
61.542913
20
10.503126
30
0
11
61.542913
21
7.496874
31
0
39
0
210
0
220
0
230
1
0
LINE
5
A1
100
AcDbEntity
8
1
62
256
6
ByLayer
370
13
48
1
60
0
100
AcDbLine
10
60.735035
20
10.469281
30
0
11
60.735035
21
7.530719
31
0
39
0
210
0
220
0
230
1
0
LINE
5
A2
100
AcDbEntity
8
1
62
256
6
ByLayer
370
13
48
1
60
0
100
AcDbLine
10
61.597739
20
10.574987
30
0
11
61.572244
21
10.574987
31
0
39
0
210
0
220
0
230
1
0
LINE
5
A3
100
AcDbEntity
8
1
62
256
6
ByLayer
370
13
48
1
60
0
100
AcDbLine
10
61.597739
20
7.425013
30
0
11
61.597739
21
10.574987
31
0
39
0
210
0
220
0
230
1
0
LINE
5
A4
100
AcDbEntity
8
1
62
256
6
ByLayer
370
13
48
1
60
0
100
AcDbLine
10
61.597739
20
7.425013
30
0
11
61.572244
21
7.425013
31
0
39
0
210
0
220
0
230
1
0
LINE
5
A5
100
AcDbEntity
8
1
62
256
6
ByLayer
370
13
48
1
60
0
100
AcDbLine
10
61.598246
20
10.588735
30
0
11
61.600163
21
10.620594
31
0
39
0
210
0
220
0
230
1
0
LINE
5
A6
100
AcDbEntity
8
1
62
256
6
ByLayer
370
13
48
1
60
0
100
AcDbLine
10
61.598246
20
7.411265
30
0
11
61.600163
21
7.379406
31
0
39
0
210
0
220
0
230
1
0
LINE
5
A7
100
AcDbEntity
8
1
62
256
6
ByLayer
370
13
48
1
60
0
100
AcDbLine
10
61.600029
20
10.588735
30
0
11
61.598246
21
10.588735
31
0
39
0
210
0
220
0
230
1
0
LINE
5
A8
100
AcDbEntity
8
1
62
256
6
ByLayer
370
13
48
1
60
0
100
AcDbLine
10
61.600029
20
7.411265
30
0
11
61.598246
21
7.411265
31
0
39
0
210
0
220
0
230
1
0
LINE
5
A9
100
AcDbEntity
8
1
62
256
6
ByLayer
370
13
48
1
60
0
100
AcDbLine
10
61.597739
20
10.574987
30
0
11
61.6
21
10.574987
31
0
39
0
210
0
220
0
230
1
0
LINE
5
AA
100
AcDbEntity
8
1
62
256
6
ByLayer
370
13
48
1
60
0
100
AcDbLine
10
61.597739
20
7.425013
30
0
11
61.6
21
7.425013
31
0
39
0
210
0
220
0
230
1
0
LINE
5
AB
100
AcDbEntity
8
1
62
256
6
ByLayer
370
13
48
1
60
0
100
AcDbLine
10
55.260795
20
8.670779
30
0
11
55.498381
21
8.670779
31
0
39
0
210
0
220
0
230
1
0
LINE
5
AC
100
AcDbEntity
8
1
62
256
6
ByLayer
370
13
48
1
60
0
100
AcDbLine
10
55.260795
20
9.329221
30
0
11
55.498381
21
9.329221
31
0
39
0
210
0
220
0
230
1
0
LINE
5
AD
100
AcDbEntity
8
1
62
256
6
ByLayer
370
13
48
1
60
0
100
AcDbLine
10
59.542862
20
7.351258
30
0
11
59.573754
21
7.580456
31
0
39
0
210
0
220
0
230
1
0
LINE
5
AE
100
AcDbEntity
8
1
62
256
6
ByLayer
370
13
48
1
60
0
100
AcDbLine
10
58.535756
20
7.492083
30
0
11
58.573754
21
7.721872
31
0
39
0
210
0
220
0
230
1
0
LINE
5
AF
100
AcDbEntity
8
1
62
256
6
ByLayer
370
13
48
1
60
0
100
AcDbLine
10
58.535756
20
10.507917
30
0
11
58.573754
21
10.278128
31
0
39
0
210
0
220
0
230
1
0
LINE
5
B0
100
AcDbEntity
8
1
62
256
6
ByLayer
370
13
48
1
60
0
100
AcDbLine
10
59.542862
20
10.648742
30
0
11
59.573754
21
10.419544
31
0
39
0
210
0
220
0
230
1
0
LINE
5
B1
100
AcDbEntity
8
1
62
256
6
ByLayer
370
13
48
1
60
0
100
AcDbLine
10
58.573754
20
10.278128
30
0
11
58.573754
21
7.721872
31
0
39
0
210
0
220
0
230
1
0
LINE
5
B2
100
AcDbEntity
8
1
62
256
6
ByLayer
370
13
48
1
60
0
100
AcDbLine
10
59.573754
20
10.419544
30
0
11
59.573754
21
7.580456
31
0
39
0
210
0
220
0
230
1
0
LINE
5
B3
100
AcDbEntity
8
1
62
256
6
ByLayer
370
13
48
1
60
0
100
AcDbLine
10
60.1195
20
7.522572
30
0
11
60.1195
21
9
31
0
39
0
210
0
220
0
230
1
0
LINE
5
B4
100
AcDbEntity
8
1
62
256
6
ByLayer
370
13
48
1
60
0
100
AcDbLine
10
60.1195
20
10.477428
30
0
11
60.1195
21
9
31
0
39
0
210
0
220
0
230
1
0
LINE
5
B5
100
AcDbEntity
8
1
62
256
6
ByLayer
370
13
48
1
60
0
100
AcDbLine
10
59.823577
20
7.546945
30
0
11
59.823577
21
9
31
0
39
0
210
0
220
0
230
1
0
LINE
5
B6
100
AcDbEntity
8
1
62
256
6
ByLayer
370
13
48
1
60
0
100
AcDbLine
10
59.823577
20
10.453055
30
0
11
59.823577
21
9
31
0
39
0
210
0
220
0
230
1
0
LINE
5
B7
100
AcDbEntity
8
1
62
256
6
ByLayer
370
18
48
1
60
0
100
AcDbLine
10
18.999752
20
-0.324981
30
0
11
19.000019
21
-0.324981
31
0
39
0
210
0
220
0
230
1
0
LINE
5
B8
100
AcDbEntity
8
1
62
256
6
ByLayer
370
18
48
1
60
0
100
AcDbLine
10
20
20
0.675
30
0
11
17.558703
21
0.675
31
0
39
0
210
0
220
0
230
1
0
LINE
5
B9
100
AcDbEntity
8
1
62
256
6
ByLayer
370
13
48
1
60
0
100
AcDbLine
10
18.181589
20
-0.249981
30
0
11
18.479098
21
-0.249981
31
0
39
0
210
0
220
0
230
1
0
LINE
5
BA
100
AcDbEntity
8
1
62
256
6
ByLayer
370
13
48
1
60
0
100
AcDbLine
10
50.161716
20
6.3
30
0
11
50.161716
21
6.325
31
0
39
0
210
0
220
0
230
1
0
LINE
5
BB
100
AcDbEntity
8
1
62
256
6
ByLayer
370
13
48
1
60
0
100
AcDbLine
10
50.161716
20
11.675
30
0
11
50.161716
21
11.7
31
0
39
0
210
0
220
0
230
1
0
LINE
5
BC
100
AcDbEntity
8
1
62
256
6
ByLayer
370
13
48
1
60
0
100
AcDbLine
10
-9.161928
20
-0.249981
30
0
11
-6.935866
21
-0.249981
31
0
39
0
210
0
220
0
230
1
0
LINE
5
BD
100
AcDbEntity
8
1
62
256
6
ByLayer
370
13
48
1
60
0
100
AcDbLine
10
6.935866
20
-0.249981
30
0
11
9.161928
21
-0.249981
31
0
39
0
210
0
220
0
230
1
0
LINE
5
BE
100
AcDbEntity
8
1
62
256
6
ByLayer
370
13
48
1
60
0
100
AcDbLine
10
18.872848
20
-0.249981
30
0
11
18.996345
21
-0.249981
31
0
39
0
210
0
220
0
230
1
0
LINE
5
BF
100
AcDbEntity
8
1
62
256
6
ByLayer
370
13
48
1
60
0
100
AcDbLine
10
-5.612388
20
-0.249981
30
0
11
5.612388
21
-0.249981
31
0
39
0
210
0
220
0
230
1
0
LINE
5
C0
100
AcDbEntity
8
1
62
256
6
ByLayer
370
18
48
1
60
0
100
AcDbLine
10
-9.242033
20
-0.324981
30
0
11
-6.372959
21
-0.324981
31
0
39
0
210
0
220
0
230
1
0
LINE
5
C1
100
AcDbEntity
8
1
62
256
6
ByLayer
370
18
48
1
60
0
100
AcDbLine
10
6.372959
20
-0.324981
30
0
11
9.242033
21
-0.324981
31
0
39
0
210
0
220
0
230
1
0
LINE
5
C2
100
AcDbEntity
8
1
62
256
6
ByLayer
370
13
48
1
60
0
100
AcDbLine
10
50.088698
20
6.325001
30
0
11
50.088698
21
6.3
31
0
39
0
210
0
220
0
230
1
0
LINE
5
C3
100
AcDbEntity
8
1
62
256
6
ByLayer
370
13
48
1
60
0
100
AcDbLine
10
17.428433
20
11.675
30
0
11
17.428433
21
0.67
31
0
39
0
210
0
220
0
230
1
0
LINE
5
C4
100
AcDbEntity
8
1
62
256
6
ByLayer
370
13
48
1
60
0
100
AcDbLine
10
-13.783002
20
0.394519
30
0
11
-13.475038
21
0.394519
31
0
39
0
210
0
220
0
230
1
0
LINE
5
C5
100
AcDbEntity
8
1
62
256
6
ByLayer
370
13
48
1
60
0
100
AcDbLine
10
13.475038
20
0.394519
30
0
11
13.783002
21
0.394519
31
0
39
0
210
0
220
0
230
1
0
LINE
5
C6
100
AcDbEntity
8
1
62
256
6
ByLayer
370
18
48
1
60
0
100
AcDbLine
10
-11.531153
20
-0.324981
30
0
11
-9.595
21
-0.324981
31
0
39
0
210
0
220
0
230
1
0
LINE
5
C7
100
AcDbEntity
8
1
62
256
6
ByLayer
370
18
48
1
60
0
100
AcDbLine
10
9.595
20
-0.324981
30
0
11
11.531153
21
-0.324981
31
0
39
0
210
0
220
0
230
1
0
LINE
5
C8
100
AcDbEntity
8
1
62
256
6
ByLayer
370
13
48
1
60
0
100
AcDbLine
10
-6.541878
20
0.394519
30
0
11
-5.63501
21
0.394519
31
0
39
0
210
0
220
0
230
1
0
LINE
5
C9
100
AcDbEntity
8
1
62
256
6
ByLayer
370
13
48
1
60
0
100
AcDbLine
10
5.63501
20
0.394519
30
0
11
6.541878
21
0.394519
31
0
39
0
210
0
220
0
230
1
0
LINE
5
CA
100
AcDbEntity
8
1
62
256
6
ByLayer
370
13
48
1
60
0
100
AcDbLine
10
-11.48403
20
-0.249981
30
0
11
-9.958089
21
-0.249981
31
0
39
0
210
0
220
0
230
1
0
LINE
5
CB
100
AcDbEntity
8
1
62
256
6
ByLayer
370
13
48
1
60
0
100
AcDbLine
10
9.958089
20
-0.249981
30
0
11
11.48403
21
-0.249981
31
0
39
0
210
0
220
0
230
1
0
LINE
5
CC
100
AcDbEntity
8
1
62
256
6
ByLayer
370
13
48
1
60
0
100
AcDbLine
10
-9.816033
20
0.394519
30
0
11
-9.284126
21
0.394519
31
0
39
0
210
0
220
0
230
1
0
LINE
5
CD
100
AcDbEntity
8
1
62
256
6
ByLayer
370
13
48
1
60
0
100
AcDbLine
10
9.284126
20
0.394519
30
0
11
9.816033
21
0.394519
31
0
39
0
210
0
220
0
230
1
0
LINE
5
CE
100
AcDbEntity
8
1
62
256
6
ByLayer
370
13
48
1
60
0
100
AcDbLine
10
-12.058724
20
0.394519
30
0
11
-11.667569
21
0.394519
31
0
39
0
210
0
220
0
230
1
0
LINE
5
CF
100
AcDbEntity
8
1
62
256
6
ByLayer
370
13
48
1
60
0
100
AcDbLine
10
11.667569
20
0.394519
30
0
11
12.058724
21
0.394519
31
0
39
0
210
0
220
0
230
1
0
LINE
5
D0
100
AcDbEntity
8
1
62
256
6
ByLayer
370
13
48
1
60
0
100
AcDbLine
10
-13.241033
20
-0.249981
30
0
11
-12.071618
21
-0.249981
31
0
39
0
210
0
220
0
230
1
0
LINE
5
D1
100
AcDbEntity
8
1
62
256
6
ByLayer
370
13
48
1
60
0
100
AcDbLine
10
12.071618
20
-0.249981
30
0
11
13.241033
21
-0.249981
31
0
39
0
210
0
220
0
230
1
0
LINE
5
D2
100
AcDbEntity
8
1
62
256
6
ByLayer
370
13
48
1
60
0
100
AcDbLine
10
14.91713
20
0.394519
30
0
11
15.166723
21
0.394519
31
0
39
0
210
0
220
0
230
1
0
LINE
5
D3
100
AcDbEntity
8
1
62
256
6
ByLayer
370
13
48
1
60
0
100
AcDbLine
10
-15.166723
20
0.394519
30
0
11
-14.91713
21
0.394519
31
0
39
0
210
0
220
0
230
1
0
LINE
5
D4
100
AcDbEntity
8
1
62
256
6
ByLayer
370
18
48
1
60
0
100
AcDbLine
10
-15.767828
20
-0.324981
30
0
11
-14.812475
21
-0.324981
31
0
39
0
210
0
220
0
230
1
0
LINE
5
D5
100
AcDbEntity
8
1
62
256
6
ByLayer
370
18
48
1
60
0
100
AcDbLine
10
14.812475
20
-0.324981
30
0
11
15.767828
21
-0.324981
31
0
39
0
210
0
220
0
230
1
0
LINE
5
D6
100
AcDbEntity
8
1
62
256
6
ByLayer
370
13
48
1
60
0
100
AcDbLine
10
13.70335
20
-0.249981
30
0
11
14.637861
21
-0.249981
31
0
39
0
210
0
220
0
230
1
0
LINE
5
D7
100
AcDbEntity
8
1
62
256
6
ByLayer
370
13
48
1
60
0
100
AcDbLine
10
-14.637861
20
-0.249981
30
0
11
-13.70335
21
-0.249981
31
0
39
0
210
0
220
0
230
1
0
LINE
5
D8
100
AcDbEntity
8
1
62
256
6
ByLayer
370
13
48
1
60
0
100
AcDbLine
10
16.092304
20
0.394519
30
0
11
16.296865
21
0.394519
31
0
39
0
210
0
220
0
230
1
0
LINE
5
D9
100
AcDbEntity
8
1
62
256
6
ByLayer
370
13
48
1
60
0
100
AcDbLine
10
-16.296865
20
0.394519
30
0
11
-16.092304
21
0.394519
31
0
39
0
210
0
220
0
230
1
0
LINE
5
DA
100
AcDbEntity
8
1
62
256
6
ByLayer
370
13
48
1
60
0
100
AcDbLine
10
-15.77051
20
-0.249981
30
0
11
-15.011285
21
-0.249981
31
0
39
0
210
0
220
0
230
1
0
LINE
5
DB
100
AcDbEntity
8
1
62
256
6
ByLayer
370
18
48
1
60
0
100
AcDbLine
10
15.901439
20
-0.324981
30
0
11
16.678631
21
-0.324981
31
0
39
0
210
0
220
0
230
1
0
LINE
5
DC
100
AcDbEntity
8
1
62
256
6
ByLayer
370
18
48
1
60
0
100
AcDbLine
10
-16.678631
20
-0.324981
30
0
11
-15.901439
21
-0.324981
31
0
39
0
210
0
220
0
230
1
0
LINE
5
DD
100
AcDbEntity
8
1
62
256
6
ByLayer
370
13
48
1
60
0
100
AcDbLine
10
15.011285
20
-0.249981
30
0
11
15.77051
21
-0.249981
31
0
39
0
210
0
220
0
230
1
0
LINE
5
DE
100
AcDbEntity
8
1
62
256
6
ByLayer
370
13
48
1
60
0
100
AcDbLine
10
17.055898
20
0.394519
30
0
11
17.223418
21
0.394519
31
0
39
0
210
0
220
0
230
1
0
LINE
5
DF
100
AcDbEntity
8
1
62
256
6
ByLayer
370
13
48
1
60
0
100
AcDbLine
10
26.319157
20
6.325
30
0
11
26.319157
21
11.675
31
0
39
0
210
0
220
0
230
1
0
LINE
5
E0
100
AcDbEntity
8
1
62
256
6
ByLayer
370
13
48
1
60
0
100
AcDbLine
10
-17.223418
20
0.394519
30
0
11
-17.055898
21
0.394519
31
0
39
0
210
0
220
0
230
1
0
LINE
5
E1
100
AcDbEntity
8
1
62
256
6
ByLayer
370
18
48
1
60
0
100
AcDbLine
10
16.786998
20
-0.324981
30
0
11
17.413473
21
-0.324981
31
0
39
0
210
0
220
0
230
1
0
LINE
5
E2
100
AcDbEntity
8
1
62
256
6
ByLayer
370
18
48
1
60
0
100
AcDbLine
10
-17.413473
20
-0.324981
30
0
11
-16.786998
21
-0.324981
31
0
39
0
210
0
220
0
230
1
0
LINE
5
E3
100
AcDbEntity
8
1
62
256
6
ByLayer
370
13
48
1
60
0
100
AcDbLine
10
16.07471
20
-0.249981
30
0
11
16.692843
21
-0.249981
31
0
39
0
210
0
220
0
230
1
0
LINE
5
E4
100
AcDbEntity
8
1
62
256
6
ByLayer
370
13
48
1
60
0
100
AcDbLine
10
-16.692843
20
-0.249981
30
0
11
-16.07471
21
-0.249981
31
0
39
0
210
0
220
0
230
1
0
LINE
5
E5
100
AcDbEntity
8
1
62
256
6
ByLayer
370
13
48
1
60
0
100
AcDbLine
10
-17.977888
20
0.394519
30
0
11
-17.842221
21
0.394519
31
0
39
0
210
0
220
0
230
1
0
LINE
5
E6
100
AcDbEntity
8
1
62
256
6
ByLayer
370
13
48
1
60
0
100
AcDbLine
10
17.842221
20
0.394519
30
0
11
17.977888
21
0.394519
31
0
39
0
210
0
220
0
230
1
0
LINE
5
E7
100
AcDbEntity
8
1
62
256
6
ByLayer
370
13
48
1
60
0
100
AcDbLine
10
17.635501
20
-0.249981
30
0
11
18.028729
21
-0.249981
31
0
39
0
210
0
220
0
230
1
0
LINE
5
E8
100
AcDbEntity
8
1
62
256
6
ByLayer
370
18
48
1
60
0
100
AcDbLine
10
17.499994
20
-0.324981
30
0
11
17.993925
21
-0.324981
31
0
39
0
210
0
220
0
230
1
0
LINE
5
E9
100
AcDbEntity
8
1
62
256
6
ByLayer
370
13
48
1
60
0
100
AcDbLine
10
16.939739
20
-0.249981
30
0
11
17.438264
21
-0.249981
31
0
39
0
210
0
220
0
230
1
0
LINE
5
EA
100
AcDbEntity
8
1
62
256
6
ByLayer
370
13
48
1
60
0
100
AcDbLine
10
-17.438264
20
-0.249981
30
0
11
-16.939739
21
-0.249981
31
0
39
0
210
0
220
0
230
1
0
LINE
5
EB
100
AcDbEntity
8
1
62
256
6
ByLayer
370
18
48
1
60
0
100
AcDbLine
10
18.060977
20
-0.324981
30
0
11
18.434577
21
-0.324981
31
0
39
0
210
0
220
0
230
1
0
LINE
5
EC
100
AcDbEntity
8
1
62
256
6
ByLayer
370
13
48
1
60
0
100
AcDbLine
10
-18.581248
20
0.394519
30
0
11
-18.473913
21
0.394519
31
0
39
0
210
0
220
0
230
1
0
LINE
5
ED
100
AcDbEntity
8
1
62
256
6
ByLayer
370
13
48
1
60
0
100
AcDbLine
10
18.473913
20
0.394519
30
0
11
18.581248
21
0.394519
31
0
39
0
210
0
220
0
230
1
0
LINE
5
EE
100
AcDbEntity
8
1
62
256
6
ByLayer
370
18
48
1
60
0
100
AcDbLine
10
-17.925019
20
-0.324981
30
0
11
-17.499984
21
-0.324981
31
0
39
0
210
0
220
0
230
1
0
LINE
5
EF
100
AcDbEntity
8
1
62
256
6
ByLayer
370
18
48
1
60
0
100
AcDbLine
10
-11.9883
20
-0.324981
30
0
11
-11.805282
21
-0.324981
31
0
39
0
210
0
220
0
230
1
0
LINE
5
F0
100
AcDbEntity
8
1
62
256
6
ByLayer
370
13
48
1
60
0
100
AcDbLine
10
-18.000019
20
-0.249981
30
0
11
-17.635544
21
-0.249981
31
0
39
0
210
0
220
0
230
1
0
LINE
5
F1
100
AcDbEntity
8
1
62
256
6
ByLayer
370
18
48
1
60
0
100
AcDbLine
10
18.483688
20
-0.324981
30
0
11
18.745291
21
-0.324981
31
0
39
0
210
0
220
0
230
1
0
LINE
5
F2
100
AcDbEntity
8
1
62
256
6
ByLayer
370
13
48
1
60
0
100
AcDbLine
10
18.966461
20
0.394519
30
0
11
19.047864
21
0.394519
31
0
39
0
210
0
220
0
230
1
0
LINE
5
F3
100
AcDbEntity
8
1
62
256
6
ByLayer
370
18
48
1
60
0
100
AcDbLine
10
18.777454
20
-0.324981
30
0
11
18.932466
21
-0.324981
31
0
39
0
210
0
220
0
230
1
0
LINE
5
F4
100
AcDbEntity
8
1
62
256
6
ByLayer
370
13
48
1
60
0
100
AcDbLine
10
44.989175
20
11.675
30
0
11
44.989175
21
6.325
31
0
39
0
210
0
220
0
230
1
0
LINE
5
F5
100
AcDbEntity
8
1
62
256
6
ByLayer
370
13
48
1
60
0
100
AcDbLine
10
50.088698
20
11.7
30
0
11
50.088698
21
11.674999
31
0
39
0
210
0
220
0
230
1
0
LINE
5
F6
100
AcDbEntity
8
1
62
256
6
ByLayer
370
18
48
1
60
0
100
AcDbLine
10
54.327778
20
11.675
30
0
11
49.989175
21
11.675
31
0
39
0
210
0
220
0
230
1
0
LINE
5
F7
100
AcDbEntity
8
1
62
256
6
ByLayer
370
18
48
1
60
0
100
AcDbLine
10
44.989175
20
11.675
30
0
11
26.319157
21
11.675
31
0
39
0
210
0
220
0
230
1
0
LINE
5
F8
100
AcDbEntity
8
1
62
256
6
ByLayer
370
18
48
1
60
0
100
AcDbLine
10
49.989175
20
11.675
30
0
11
44.989175
21
11.675
31
0
39
0
210
0
220
0
230
1
0
LINE
5
F9
100
AcDbEntity
8
1
62
256
6
ByLayer
370
18
48
1
60
0
100
AcDbLine
10
44.989175
20
6.325
30
0
11
26.319157
21
6.325
31
0
39
0
210
0
220
0
230
1
0
LINE
5
FA
100
AcDbEntity
8
1
62
256
6
ByLayer
370
18
48
1
60
0
100
AcDbLine
10
49.989175
20
6.325
30
0
11
44.989175
21
6.325
31
0
39
0
210
0
220
0
230
1
0
LINE
5
FB
100
AcDbEntity
8
1
62
256
6
ByLayer
370
18
48
1
60
0
100
AcDbLine
10
54.327778
20
6.325
30
0
11
49.989175
21
6.325
31
0
39
0
210
0
220
0
230
1
0
LINE
5
FC
100
AcDbEntity
8
1
62
256
6
ByLayer
370
18
48
1
60
0
100
AcDbLine
10
54.327778
20
11.675
30
0
11
54.8895
21
9.824704
31
0
39
0
210
0
220
0
230
1
0
LINE
5
FD
100
AcDbEntity
8
1
62
256
6
ByLayer
370
18
48
1
60
0
100
AcDbLine
10
54.8895
20
8.175296
30
0
11
54.327778
21
6.325
31
0
39
0
210
0
220
0
230
1
0
LINE
5
FE
100
AcDbEntity
8
1
62
256
6
ByLayer
370
18
48
1
60
0
100
AcDbLine
10
13.534977
20
-0.324981
30
0
11
14.64828
21
-0.324981
31
0
39
0
210
0
220
0
230
1
0
LINE
5
FF
100
AcDbEntity
8
1
62
256
6
ByLayer
370
18
48
1
60
0
100
AcDbLine
10
-5.776059
20
-0.324981
30
0
11
5.776059
21
-0.324981
31
0
39
0
210
0
220
0
230
1
0
LINE
5
100
100
AcDbEntity
8
1
62
256
6
ByLayer
370
18
48
1
60
0
100
AcDbLine
10
11.988251
20
-0.324981
30
0
11
13.267245
21
-0.324981
31
0
39
0
210
0
220
0
230
1
0
LINE
5
101
100
AcDbEntity
8
1
62
256
6
ByLayer
370
18
48
1
60
0
100
AcDbLine
10
-16.787031
20
-0.324981
30
0
11
-16.678631
21
-0.324981
31
0
39
0
210
0
220
0
230
1
0
LINE
5
102
100
AcDbEntity
8
1
62
256
6
ByLayer
370
18
48
1
60
0
100
AcDbLine
10
18.745291
20
-0.324981
30
0
11
18.777518
21
-0.324981
31
0
39
0
210
0
220
0
230
1
0
LINE
5
103
100
AcDbEntity
8
1
62
256
6
ByLayer
370
18
48
1
60
0
100
AcDbLine
10
-11.790405
20
-0.324981
30
0
11
-11.531153
21
-0.324981
31
0
39
0
210
0
220
0
230
1
0
LINE
5
104
100
AcDbEntity
8
1
62
256
6
ByLayer
370
18
48
1
60
0
100
AcDbLine
10
11.531153
20
-0.324981
30
0
11
11.790405
21
-0.324981
31
0
39
0
210
0
220
0
230
1
0
LINE
5
105
100
AcDbEntity
8
1
62
256
6
ByLayer
370
18
48
1
60
0
100
AcDbLine
10
-14.812462
20
-0.324981
30
0
11
-14.64828
21
-0.324981
31
0
39
0
210
0
220
0
230
1
0
LINE
5
106
100
AcDbEntity
8
1
62
256
6
ByLayer
370
18
48
1
60
0
100
AcDbLine
10
18.932466
20
-0.324981
30
0
11
18.948427
21
-0.324981
31
0
39
0
210
0
220
0
230
1
0
LINE
5
107
100
AcDbEntity
8
1
62
256
6
ByLayer
370
18
48
1
60
0
100
AcDbLine
10
-15.901469
20
-0.324981
30
0
11
-15.767828
21
-0.324981
31
0
39
0
210
0
220
0
230
1
0
LINE
5
108
100
AcDbEntity
8
1
62
256
6
ByLayer
370
18
48
1
60
0
100
AcDbLine
10
-17.50006
20
-0.324981
30
0
11
-17.413473
21
-0.324981
31
0
39
0
210
0
220
0
230
1
0
LINE
5
109
100
AcDbEntity
8
1
62
256
6
ByLayer
370
18
48
1
60
0
100
AcDbLine
10
-13.470759
20
-0.324981
30
0
11
-13.267245
21
-0.324981
31
0
39
0
210
0
220
0
230
1
0
LINE
5
10A
100
AcDbEntity
8
1
62
256
6
ByLayer
370
18
48
1
60
0
100
AcDbLine
10
14.64828
20
-0.324981
30
0
11
14.812462
21
-0.324981
31
0
39
0
210
0
220
0
230
1
0
LINE
5
10B
100
AcDbEntity
8
1
62
256
6
ByLayer
370
18
48
1
60
0
100
AcDbLine
10
-14.64828
20
-0.324981
30
0
11
-13.534977
21
-0.324981
31
0
39
0
210
0
220
0
230
1
0
LINE
5
10C
100
AcDbEntity
8
1
62
256
6
ByLayer
370
18
48
1
60
0
100
AcDbLine
10
-9.595101
20
-0.324981
30
0
11
-9.242033
21
-0.324981
31
0
39
0
210
0
220
0
230
1
0
LINE
5
10D
100
AcDbEntity
8
1
62
256
6
ByLayer
370
18
48
1
60
0
100
AcDbLine
10
13.267245
20
-0.324981
30
0
11
13.470759
21
-0.324981
31
0
39
0
210
0
220
0
230
1
0
LINE
5
10E
100
AcDbEntity
8
1
62
256
6
ByLayer
370
18
48
1
60
0
100
AcDbLine
10
17.993925
20
-0.324981
30
0
11
18.061002
21
-0.324981
31
0
39
0
210
0
220
0
230
1
0
LINE
5
10F
100
AcDbEntity
8
1
62
256
6
ByLayer
370
18
48
1
60
0
100
AcDbLine
10
17.413473
20
-0.324981
30
0
11
17.50006
21
-0.324981
31
0
39
0
210
0
220
0
230
1
0
LINE
5
110
100
AcDbEntity
8
1
62
256
6
ByLayer
370
18
48
1
60
0
100
AcDbLine
10
5.776059
20
-0.324981
30
0
11
6.373247
21
-0.324981
31
0
39
0
210
0
220
0
230
1
0
LINE
5
111
100
AcDbEntity
8
1
62
256
6
ByLayer
370
18
48
1
60
0
100
AcDbLine
10
16.678631
20
-0.324981
30
0
11
16.787031
21
-0.324981
31
0
39
0
210
0
220
0
230
1
0
LINE
5
112
100
AcDbEntity
8
1
62
256
6
ByLayer
370
18
48
1
60
0
100
AcDbLine
10
18.434577
20
-0.324981
30
0
11
18.483709
21
-0.324981
31
0
39
0
210
0
220
0
230
1
0
LINE
5
113
100
AcDbEntity
8
1
62
256
6
ByLayer
370
18
48
1
60
0
100
AcDbLine
10
9.242033
20
-0.324981
30
0
11
9.595101
21
-0.324981
31
0
39
0
210
0
220
0
230
1
0
LINE
5
114
100
AcDbEntity
8
1
62
256
6
ByLayer
370
18
48
1
60
0
100
AcDbLine
10
15.767828
20
-0.324981
30
0
11
15.901469
21
-0.324981
31
0
39
0
210
0
220
0
230
1
0
LINE
5
115
100
AcDbEntity
8
1
62
256
6
ByLayer
370
18
48
1
60
0
100
AcDbLine
10
-13.267245
20
-0.324981
30
0
11
-11.988251
21
-0.324981
31
0
39
0
210
0
220
0
230
1
0
LINE
5
116
100
AcDbEntity
8
1
62
256
6
ByLayer
370
18
48
1
60
0
100
AcDbLine
10
-6.373247
20
-0.324981
30
0
11
-5.776059
21
-0.324981
31
0
39
0
210
0
220
0
230
1
0
LINE
5
117
100
AcDbEntity
8
1
62
256
6
ByLayer
370
18
48
1
60
0
100
AcDbLine
10
-19
20
11.675
30
0
11
-19
21
0.75
31
0
39
0
210
0
220
0
230
1
0
LINE
5
118
100
AcDbEntity
8
1
62
256
6
ByLayer
370
18
48
1
60
0
100
AcDbLine
10
0.199972
20
11.675
30
0
11
0.199972
21
0.67
31
0
39
0
210
0
220
0
230
1
0
LINE
5
119
100
AcDbEntity
8
1
62
256
6
ByLayer
370
18
48
1
60
0
100
AcDbLine
10
-0.199972
20
11.675
30
0
11
-0.199972
21
0.67
31
0
39
0
210
0
220
0
230
1
0
LINE
5
11A
100
AcDbEntity
8
1
62
256
6
ByLayer
370
18
48
1
60
0
100
AcDbLine
10
-19
20
0.75
30
0
11
-18.92
21
0.67
31
0
39
0
210
0
220
0
230
1
0
LINE
5
11B
100
AcDbEntity
8
1
62
256
6
ByLayer
370
18
48
1
60
0
100
AcDbLine
10
20
20
0.75
30
0
11
17.558703
21
0.75
31
0
39
0
210
0
220
0
230
1
0
LINE
5
11C
100
AcDbEntity
8
1
62
256
6
ByLayer
370
18
48
1
60
0
100
AcDbLine
10
21.6
20
6.325
30
0
11
26.319157
21
6.325
31
0
39
0
210
0
220
0
230
1
0
LINE
5
11D
100
AcDbEntity
8
1
62
256
6
ByLayer
370
18
48
1
60
0
100
AcDbLine
10
-18.92
20
0.67
30
0
11
-0.199972
21
0.67
31
0
39
0
210
0
220
0
230
1
0
LINE
5
11E
100
AcDbEntity
8
1
62
256
6
ByLayer
370
18
48
1
60
0
100
AcDbLine
10
17.558703
20
0.75
30
0
11
17.558703
21
0.675
31
0
39
0
210
0
220
0
230
1
0
LINE
5
11F
100
AcDbEntity
8
1
62
256
6
ByLayer
370
18
48
1
60
0
100
AcDbLine
10
-17.925019
20
-0.324981
30
0
11
-18.000019
21
-0.249981
31
0
39
0
210
0
220
0
230
1
0
LINE
5
120
100
AcDbEntity
8
1
62
256
6
ByLayer
370
18
48
1
60
0
100
AcDbLine
10
-18.000019
20
-0.249981
30
0
11
-18.202361
21
-0.047639
31
0
39
0
210
0
220
0
230
1
0
LINE
5
121
100
AcDbEntity
8
1
62
256
6
ByLayer
370
18
48
1
60
0
100
AcDbLine
10
0.199972
20
11.675
30
0
11
17.428433
21
11.675
31
0
39
0
210
0
220
0
230
1
0
LINE
5
122
100
AcDbEntity
8
1
62
256
6
ByLayer
370
18
48
1
60
0
100
AcDbLine
10
17.428433
20
11.675
30
0
11
26.319157
21
11.675
31
0
39
0
210
0
220
0
230
1
0
LINE
5
123
100
AcDbEntity
8
1
62
256
6
ByLayer
370
18
48
1
60
0
100
AcDbLine
10
-0.199972
20
11.675
30
0
11
0.199972
21
11.675
31
0
39
0
210
0
220
0
230
1
0
LINE
5
124
100
AcDbEntity
8
1
62
256
6
ByLayer
370
18
48
1
60
0
100
AcDbLine
10
-19
20
11.675
30
0
11
-0.199972
21
11.675
31
0
39
0
210
0
220
0
230
1
0
LINE
5
125
100
AcDbEntity
8
1
62
256
6
ByLayer
370
18
48
1
60
0
100
AcDbLine
10
20
20
0.75
30
0
11
20
21
4.725
31
0
39
0
210
0
220
0
230
1
0
LINE
5
126
100
AcDbEntity
8
1
62
256
6
ByLayer
370
18
48
1
60
0
100
AcDbLine
10
0.199972
20
0.67
30
0
11
17.428433
21
0.67
31
0
39
0
210
0
220
0
230
1
0
LINE
5
127
100
AcDbEntity
8
1
62
256
6
ByLayer
370
18
48
1
60
0
100
AcDbLine
10
61.6
20
7.425013
30
0
11
61.6
21
10.574987
31
0
39
0
210
0
220
0
230
1
0
LINE
5
128
100
AcDbEntity
8
1
62
256
6
ByLayer
370
18
48
1
60
0
100
AcDbLine
10
52.901097
20
6.3
30
0
11
50.161716
21
6.3
31
0
39
0
210
0
220
0
230
1
0
LINE
5
129
100
AcDbEntity
8
1
62
256
6
ByLayer
370
18
48
1
60
0
100
AcDbLine
10
57.415248
20
6.268478
30
0
11
57.408442
21
6.272408
31
0
39
0
210
0
220
0
230
1
0
LINE
5
12A
100
AcDbEntity
8
1
62
256
6
ByLayer
370
18
48
1
60
0
100
AcDbLine
10
55.478197
20
6.3
30
0
11
54.75056
21
6.3
31
0
39
0
210
0
220
0
230
1
0
LINE
5
12B
100
AcDbEntity
8
1
62
256
6
ByLayer
370
18
48
1
60
0
100
AcDbLine
10
60.520026
20
6.02349
30
0
11
61.187167
21
5.988074
31
0
39
0
210
0
220
0
230
1
0
LINE
5
12C
100
AcDbEntity
8
1
62
256
6
ByLayer
370
18
48
1
60
0
100
AcDbLine
10
61.187167
20
12.011926
30
0
11
60.520026
21
11.97651
31
0
39
0
210
0
220
0
230
1
0
LINE
5
12D
100
AcDbEntity
8
1
62
256
6
ByLayer
370
18
48
1
60
0
100
AcDbLine
10
61.600029
20
10.588735
30
0
11
61.600163
21
10.620594
31
0
39
0
210
0
220
0
230
1
0
LINE
5
12E
100
AcDbEntity
8
1
62
256
6
ByLayer
370
18
48
1
60
0
100
AcDbLine
10
54.750184
20
11.7
30
0
11
55.478197
21
11.7
31
0
39
0
210
0
220
0
230
1
0
LINE
5
12F
100
AcDbEntity
8
1
62
256
6
ByLayer
370
18
48
1
60
0
100
AcDbLine
10
61.600163
20
7.379406
30
0
11
61.600029
21
7.411265
31
0
39
0
210
0
220
0
230
1
0
LINE
5
130
100
AcDbEntity
8
1
62
256
6
ByLayer
370
18
48
1
60
0
100
AcDbLine
10
55.546601
20
6.3
30
0
11
57.305211
21
6.3
31
0
39
0
210
0
220
0
230
1
0
LINE
5
131
100
AcDbEntity
8
1
62
256
6
ByLayer
370
18
48
1
60
0
100
AcDbLine
10
59.736428
20
11.914019
30
0
11
59.536428
21
11.899987
31
0
39
0
210
0
220
0
230
1
0
LINE
5
132
100
AcDbEntity
8
1
62
256
6
ByLayer
370
18
48
1
60
0
100
AcDbLine
10
59.536428
20
6.100013
30
0
11
59.736428
21
6.085981
31
0
39
0
210
0
220
0
230
1
0
LINE
5
133
100
AcDbEntity
8
1
62
256
6
ByLayer
370
18
48
1
60
0
100
AcDbLine
10
50.161716
20
11.7
30
0
11
50.088698
21
11.7
31
0
39
0
210
0
220
0
230
1
0
LINE
5
134
100
AcDbEntity
8
1
62
256
6
ByLayer
370
18
48
1
60
0
100
AcDbLine
10
55.546601
20
11.7
30
0
11
55.478197
21
11.7
31
0
39
0
210
0
220
0
230
1
0
LINE
5
135
100
AcDbEntity
8
1
62
256
6
ByLayer
370
18
48
1
60
0
100
AcDbLine
10
61.6003
20
10.653454
30
0
11
61.604288
21
11.603671
31
0
39
0
210
0
220
0
230
1
0
LINE
5
136
100
AcDbEntity
8
1
62
256
6
ByLayer
370
18
48
1
60
0
100
AcDbLine
10
50.161716
20
11.7
30
0
11
52.901097
21
11.7
31
0
39
0
210
0
220
0
230
1
0
LINE
5
137
100
AcDbEntity
8
1
62
256
6
ByLayer
370
18
48
1
60
0
100
AcDbLine
10
57.305211
20
11.7
30
0
11
55.546601
21
11.7
31
0
39
0
210
0
220
0
230
1
0
LINE
5
138
100
AcDbEntity
8
1
62
256
6
ByLayer
370
18
48
1
60
0
100
AcDbLine
10
55.478197
20
6.3
30
0
11
55.546601
21
6.3
31
0
39
0
210
0
220
0
230
1
0
LINE
5
139
100
AcDbEntity
8
1
62
256
6
ByLayer
370
18
48
1
60
0
100
AcDbLine
10
50.088698
20
6.3
30
0
11
50.161716
21
6.3
31
0
39
0
210
0
220
0
230
1
0
LINE
5
13A
100
AcDbEntity
8
1
62
256
6
ByLayer
370
18
48
1
60
0
100
AcDbLine
10
57.408442
20
11.727592
30
0
11
57.415248
21
11.731522
31
0
39
0
210
0
220
0
230
1
0
LINE
5
13B
100
AcDbEntity
8
1
62
256
6
ByLayer
370
18
48
1
60
0
100
AcDbLine
10
61.604288
20
6.396329
30
0
11
61.6003
21
7.346546
31
0
39
0
210
0
220
0
230
1
0
MTEXT
5
2C8
100
AcDbEntity
8
SK6
62
256
6
ByLayer
370
18
48
1
60
0
100
AcDbMText
10
-10.325
20
-45.611004
30
0
210
0
220
0
230
1
1
\W0.7993;SL-QD-LGK40C40
40
3.5
41
0
44
1.084337
50
0
71
7
72
5
7
iso_b_vert
0
DIMENSION
5
2DA
100
AcDbEntity
8
2
62
256
6
ByLayer
370
13
48
1
60
0
100
AcDbDimension
2
DimnDraft3D1
10
86.7
20
12
30
0
11
86.7
21
4.346711
31
0
70
32
71
5
72
1
41
1
210
0
220
0
230
1
3
Standard
100
AcDbAlignedDimension
13
23.6
23
0
33
0
14
63.6
24
12
34
0
50
90
100
AcDbRotatedDimension
1001
ACAD
1000
DSTYLE
1002
{
1070
    74
1070
     0
1070
   279
1070
     0
1070
   172
1070
     1
1070
   173
1070
     1
1070
   340
1005
2C9
1070
   271
1070
     1
1070
    77
1070
     1
1070
    73
1070
     0
1070
   171
1070
     3
1070
   274
1070
     4
1070
   177
1070
     2
1070
   176
1070
     2
1070
   178
1070
     7
1070
    78
1070
     8
1070
    41
1041
3.175
1070
   147
1041
1.75
1070
    42
1041
2.0
1070
    44
1041
2.0
1070
   140
1041
3.5
1070
   343
1005
2DB
1070
   344
1005
2DB
1002
}
0
DIMENSION
5
2F0
100
AcDbEntity
8
SK2
62
256
6
ByLayer
370
13
48
1
60
0
100
AcDbDimension
2
DimnDraft3D2
10
61.6
20
34.612462
30
0
11
27.129605
21
34.612462
31
0
70
32
71
5
72
1
41
1
210
0
220
0
230
1
3
Standard
100
AcDbAlignedDimension
13
0
23
2
33
0
14
61.6
24
14
34
0
50
0
100
AcDbRotatedDimension
1001
ACAD
1000
DSTYLE
1002
{
1070
   279
1070
     0
1070
   172
1070
     1
1070
   173
1070
     1
1070
   340
1005
2C9
1070
   271
1070
     1
1070
    77
1070
     1
1070
    73
1070
     0
1070
   171
1070
     3
1070
   274
1070
     4
1070
   177
1070
     2
1070
   176
1070
     2
1070
   178
1070
     7
1070
    78
1070
     8
1070
    41
1041
3.175
1070
   147
1041
1.75
1070
    42
1041
2.0
1070
    44
1041
2.0
1070
   140
1041
3.5
1070
   343
1005
2DB
1070
   344
1005
2DB
1002
}
0
DIMENSION
5
2FE
100
AcDbEntity
8
2
62
256
6
ByLayer
370
13
48
1
60
0
100
AcDbDimension
2
DimnDraft3D3
10
21.6
20
-14.584469
30
0
11
39.325
21
-14.584469
31
0
70
32
71
5
72
1
41
1
210
0
220
0
230
1
3
Standard
100
AcDbAlignedDimension
13
61.6
23
10
33
0
14
21.6
24
-2
34
0
50
0
100
AcDbRotatedDimension
1001
ACAD
1000
DSTYLE
1002
{
1070
   279
1070
     0
1070
   172
1070
     1
1070
   173
1070
     1
1070
   340
1005
2C9
1070
   271
1070
     1
1070
    77
1070
     1
1070
    73
1070
     0
1070
   171
1070
     3
1070
   274
1070
     4
1070
   177
1070
     2
1070
   176
1070
     2
1070
   178
1070
     7
1070
    78
1070
     8
1070
    41
1041
3.175
1070
   147
1041
1.75
1070
    42
1041
2.0
1070
    44
1041
2.0
1070
   140
1041
3.5
1070
   343
1005
2DB
1070
   344
1005
2DB
1002
}
0
DIMENSION
5
30C
100
AcDbEntity
8
2
62
256
6
ByLayer
370
13
48
1
60
0
100
AcDbDimension
2
DimnDraft3D4
10
79.7
20
6
30
0
11
79.7
21
8.217105
31
0
70
32
71
5
72
1
41
1
210
0
220
0
230
1
3
Standard
100
AcDbAlignedDimension
13
63.6
23
12
33
0
14
63.6
24
6
34
0
50
90
100
AcDbRotatedDimension
1001
ACAD
1000
DSTYLE
1002
{
1070
    74
1070
     0
1070
   279
1070
     0
1070
   172
1070
     1
1070
   173
1070
     1
1070
   340
1005
2C9
1070
   271
1070
     1
1070
    77
1070
     1
1070
    73
1070
     0
1070
   171
1070
     3
1070
   274
1070
     4
1070
   177
1070
     2
1070
   176
1070
     2
1070
   178
1070
     7
1070
    78
1070
     8
1070
    41
1041
3.175
1070
   147
1041
1.75
1070
    42
1041
2.0
1070
    44
1041
2.0
1070
   140
1041
3.5
1070
   343
1005
2DB
1070
   344
1005
2DB
1002
}
0
ENDSEC
0
SECTION
2
OBJECTS
0
DICTIONARY
5
375
330
0
100
AcDbDictionary
280
0
281
1
3
ACAD_GROUP
350
376
3
ACAD_MLINESTYLE
350
377
0
DICTIONARY
5
376
330
0
100
AcDbDictionary
280
0
281
1
0
DICTIONARY
5
377
330
0
100
AcDbDictionary
280
0
281
1
3
Standard
350
18
0
MLINESTYLE
5
18
330
377
100
AcDbMlineStyle
2
Standard
70
0
3

62
256
51
90
52
90
71
2
49
-0.5
62
256
6
ByLayer
49
0.5
62
256
6
ByLayer
0
RASTERVARIABLES
5
365
330

100
AcDbRasterVariables
90
0
70
1
71
1
72
1
0
ENDSEC
0
EOF
