0
SECTION
2
HEADER
9
$ACADVER
1
AC1015
9
$DWGCODEPAGE
3
ANSI_1252
9
$HANDSEED
5
25c
9
$ANGBASE
50
0
9
$ANGDIR
70
0
9
$ATTMODE
70
1
9
$AUNITS
70
0
9
$AUPREC
70
0
9
$CECOLOR
62
256
9
$CELTSCALE
40
1
9
$CELTYPE
6
ByLayer
9
$CELWEIGHT
370
18
9
$CLAYER
8
0
9
$CMLJUST
70
0
9
$CMLSCALE
40
1
9
$CMLSTYLE
2
Standard
9
$DIMSTYLE
2
Standard
9
$TEXTSIZE
40
0.2
9
$TEXTSTYLE
7
Standard
9
$LUNITS
70
2
9
$LUPREC
70
4
9
$EXTNAMES
290
1
9
$INSUNITS
70
4
9
$LTSCALE
40
1
9
$LWDISPLAY
290
1
9
$PDMODE
70
0
9
$PDSIZE
40
0
9
$PLINEGEN
70
0
0
ENDSEC
0
SECTION
2
CLASSES
0
CLASS
1
RASTERVARIABLES
2
AcDbRasterVariables
3
ISM
90
0
280
0
281
0
0
ENDSEC
0
SECTION
2
TABLES
0
TABLE
2
VPORT
5
252
100
AcDbSymbolTable
0
VPORT
5
1
100
AcDbSymbolTableRecord
100
AcDbViewportTableRecord
2
*Active
70
0
10
0
20
0
11
1
21
1
12
-1
22
1
13
0
23
0
14
0.5
24
0.5
15
10
25
10
16
0
26
0
36
1
17
0
27
0
37
0
0
ENDTAB
0
TABLE
2
LTYPE
5
253
100
AcDbSymbolTable
0
LTYPE
5
14
100
AcDbSymbolTableRecord
100
AcDbLinetypeTableRecord
70
0
2
ByBlock
3

72
65
73
0
40
0
0
LTYPE
5
15
100
AcDbSymbolTableRecord
100
AcDbLinetypeTableRecord
70
0
2
ByLayer
3

72
65
73
0
40
0
0
LTYPE
5
16
100
AcDbSymbolTableRecord
100
AcDbLinetypeTableRecord
70
0
2
CONTINUOUS
3
Solid line
72
65
73
0
40
0
0
LTYPE
5
6A
100
AcDbSymbolTableRecord
100
AcDbLinetypeTableRecord
70
0
2
CENTER
3
____ _ ____ _ ____ _ ____
72
65
73
4
40
47.5
49
22
74
0
49
-8.5
74
0
49
8.5
74
0
49
-8.5
74
0
0
LTYPE
5
6B
100
AcDbSymbolTableRecord
100
AcDbLinetypeTableRecord
70
0
2
DASHED
3
__ __ __ __ __ __ __ __ __
72
65
73
2
40
25.72
49
12.86
74
0
49
-12.86
74
0
0
ENDTAB
0
TABLE
2
LAYER
5
254
100
AcDbSymbolTable
0
LAYER
5
10
100
AcDbSymbolTableRecord
100
AcDbLayerTableRecord
2
0
70
0
62
7
6
CONTINUOUS
290
1
370
-3
390
0
0
LAYER
5
6D
100
AcDbSymbolTableRecord
100
AcDbLayerTableRecord
2
81
70
0
62
-3
6
CONTINUOUS
290
1
370
-3
390
0
0
LAYER
5
6F
100
AcDbSymbolTableRecord
100
AcDbLayerTableRecord
2
80
70
0
62
-6
6
CONTINUOUS
290
1
370
-3
390
0
0
LAYER
5
71
100
AcDbSymbolTableRecord
100
AcDbLayerTableRecord
2
1
70
0
62
4
6
CONTINUOUS
290
1
370
-3
390
0
0
LAYER
5
FB
100
AcDbSymbolTableRecord
100
AcDbLayerTableRecord
2
4
70
0
62
-2
6
CENTER
290
1
370
-3
390
0
0
LAYER
5
1BC
100
AcDbSymbolTableRecord
100
AcDbLayerTableRecord
2
2
70
0
62
7
6
CONTINUOUS
290
1
370
-3
390
0
0
LAYER
5
23e
100
AcDbSymbolTableRecord
100
AcDbLayerTableRecord
2
SK1
70
0
62
4
6
CONTINUOUS
290
1
370
-3
390
0
0
LAYER
5
23f
100
AcDbSymbolTableRecord
100
AcDbLayerTableRecord
2
SK4
70
0
62
2
6
CENTER
290
1
370
-3
390
0
0
LAYER
5
240
100
AcDbSymbolTableRecord
100
AcDbLayerTableRecord
2
SK6
70
0
62
5
6
CONTINUOUS
290
1
370
-3
390
0
0
LAYER
5
241
100
AcDbSymbolTableRecord
100
AcDbLayerTableRecord
2
SK2
70
0
62
7
6
CONTINUOUS
290
1
370
-3
390
0
0
ENDTAB
0
TABLE
2
STYLE
5
255
100
AcDbSymbolTable
0
STYLE
5
11
100
AcDbSymbolTableRecord
100
AcDbTextStyleTableRecord
2
Standard
3
txt
70
0
71
0
40
0
41
1
42
0
50
0
0
STYLE
5
1B7
100
AcDbSymbolTableRecord
100
AcDbTextStyleTableRecord
2
blockfont
3
simplex.shx
70
0
71
0
40
0
41
1
42
0
50
0
0
STYLE
5
1B8
100
AcDbSymbolTableRecord
100
AcDbTextStyleTableRecord
2
DWGDirectTextStyle
3
simplex
70
0
71
0
40
0
41
1
42
0
50
0
0
ENDTAB
0
TABLE
2
DIMSTYLE
5
256
100
AcDbSymbolTable
100
AcDbDimStyleTable
0
DIMSTYLE
105
27
100
AcDbSymbolTableRecord
100
AcDbDimStyleTableRecord
2
Standard
70
0
3
<>
41
0.18
42
0.0625
44
0.18
140
0.18
147
0.09
73
0
74
0
77
1
271
2
275
0
278
52
280
0
340
11
0
ENDTAB
0
TABLE
2
VIEW
5
257
100
AcDbSymbolTable
0
ENDTAB
0
TABLE
2
UCS
5
258
100
AcDbSymbolTable
0
ENDTAB
0
TABLE
2
APPID
5
259
100
AcDbSymbolTable
0
APPID
5
12
100
AcDbSymbolTableRecord
100
AcDbRegAppTableRecord
2
ACAD
70
0
0
ENDTAB
0
TABLE
2
BLOCK_RECORD
5
25a
100
AcDbSymbolTable
0
BLOCK_RECORD
5
1F
100
AcDbSymbolTableRecord
100
AcDbBlockTableRecord
2
*Model_Space
340
0
70
0
0
BLOCK_RECORD
5
1B
100
AcDbSymbolTableRecord
100
AcDbBlockTableRecord
2
*Paper_Space
340
0
70
0
0
BLOCK_RECORD
5
23
100
AcDbSymbolTableRecord
100
AcDbBlockTableRecord
2
*Paper_Space0
340
0
70
0
0
BLOCK_RECORD
5
1BA
100
AcDbSymbolTableRecord
100
AcDbBlockTableRecord
2
DimnDraft3D1
340
0
70
0
0
BLOCK_RECORD
5
1C5
100
AcDbSymbolTableRecord
100
AcDbBlockTableRecord
2
DimnDraft3D2
340
0
70
0
0
BLOCK_RECORD
5
1CF
100
AcDbSymbolTableRecord
100
AcDbBlockTableRecord
2
DimnDraft3D3
340
0
70
0
0
BLOCK_RECORD
5
1DA
100
AcDbSymbolTableRecord
100
AcDbBlockTableRecord
2
DimnDraft3D4
340
0
70
0
0
ENDTAB
0
ENDSEC
0
SECTION
2
BLOCKS
0
BLOCK
5
20
100
AcDbEntity
8
0
100
AcDbBlockBegin
2
*Model_Space
70
0
10
0
20
0
30
0
3
*Model_Space
0
ENDBLK
5
21
100
AcDbEntity
8
0
100
AcDbBlockEnd
0
BLOCK
5
1C
100
AcDbEntity
8
0
100
AcDbBlockBegin
2
*Paper_Space
70
0
10
0
20
0
30
0
3
*Paper_Space
0
ENDBLK
5
1D
100
AcDbEntity
8
0
100
AcDbBlockEnd
0
BLOCK
5
24
100
AcDbEntity
8
0
100
AcDbBlockBegin
2
*Paper_Space0
70
0
10
0
20
0
30
0
3
*Paper_Space0
0
ENDBLK
5
25
100
AcDbEntity
8
0
100
AcDbBlockEnd
0
BLOCK
5
1C2
100
AcDbEntity
8
0
100
AcDbBlockBegin
2
DimnDraft3D1
70
0
10
0
20
0
30
0
3
DimnDraft3D1
0
MTEXT
5
1BB
100
AcDbEntity
8
2
62
256
6
ByLayer
370
13
48
1
60
0
100
AcDbMText
10
60.778363
20
10.930573
30
0
210
0
220
0
230
1
1
\W1.1795;27
40
3.175
41
0
44
0.903614
50
90
71
7
72
5
7
blockfont
0
LINE
5
1BD
100
AcDbEntity
8
2
62
256
6
ByLayer
370
13
48
1
60
0
100
AcDbLine
10
40.0875
20
26.875
30
0
11
64.515603
21
26.875
31
0
39
0
210
0
220
0
230
1
0
LINE
5
1BE
100
AcDbEntity
8
2
62
256
6
ByLayer
370
13
48
1
60
0
100
AcDbLine
10
36.5875
20
0
30
0
11
64.515603
21
0
31
0
39
0
210
0
220
0
230
1
0
LINE
5
1BF
100
AcDbEntity
8
2
62
256
6
ByLayer
370
13
48
1
60
0
100
AcDbLine
10
61.340603
20
26.875
30
0
11
61.340603
21
0
31
0
39
0
210
0
220
0
230
1
0
SOLID
5
1C0
100
AcDbEntity
8
2
62
256
6
ByLayer
370
13
48
1
60
0
100
AcDbTrace
10
61.340603
20
26.875
30
0
11
61.7586
21
23.700002
31
0
12
60.922606
22
23.699998
32
0
13
61.340603
23
26.875
33
0
39
0
210
0
220
0
230
1
0
SOLID
5
1C1
100
AcDbEntity
8
2
62
256
6
ByLayer
370
13
48
1
60
0
100
AcDbTrace
10
61.340603
20
0
30
0
11
60.922606
21
3.174998
31
0
12
61.7586
22
3.175002
32
0
13
61.340603
23
0
33
0
39
0
210
0
220
0
230
1
0
ENDBLK
5
1C3
100
AcDbEntity
8
0
100
AcDbBlockEnd
0
BLOCK
5
1CC
100
AcDbEntity
8
0
100
AcDbBlockBegin
2
DimnDraft3D2
70
0
10
0
20
0
30
0
3
DimnDraft3D2
0
MTEXT
5
1C6
100
AcDbEntity
8
2
62
256
6
ByLayer
370
13
48
1
60
0
100
AcDbMText
10
14.993073
20
37.865811
30
0
210
0
220
0
230
1
1
\W1.1795;35
40
3.175
41
0
44
0.903614
50
0
71
7
72
5
7
blockfont
0
LINE
5
1C7
100
AcDbEntity
8
2
62
256
6
ByLayer
370
13
48
1
60
0
100
AcDbLine
10
35
20
28.4625
30
0
11
35
21
40.478571
31
0
39
0
210
0
220
0
230
1
0
LINE
5
1C8
100
AcDbEntity
8
2
62
256
6
ByLayer
370
13
48
1
60
0
100
AcDbLine
10
0
20
1.5875
30
0
11
0
21
40.478571
31
0
39
0
210
0
220
0
230
1
0
LINE
5
1C9
100
AcDbEntity
8
2
62
256
6
ByLayer
370
13
48
1
60
0
100
AcDbLine
10
35
20
37.303571
30
0
11
0
21
37.303571
31
0
39
0
210
0
220
0
230
1
0
SOLID
5
1CA
100
AcDbEntity
8
2
62
256
6
ByLayer
370
13
48
1
60
0
100
AcDbTrace
10
35
20
37.303571
30
0
11
31.825002
21
36.885574
31
0
12
31.824998
22
37.721568
32
0
13
35
23
37.303571
33
0
39
0
210
0
220
0
230
1
0
SOLID
5
1CB
100
AcDbEntity
8
2
62
256
6
ByLayer
370
13
48
1
60
0
100
AcDbTrace
10
0
20
37.303571
30
0
11
3.174998
21
37.721568
31
0
12
3.175002
22
36.885574
32
0
13
0
23
37.303571
33
0
39
0
210
0
220
0
230
1
0
ENDBLK
5
1CD
100
AcDbEntity
8
0
100
AcDbBlockEnd
0
BLOCK
5
1D7
100
AcDbEntity
8
0
100
AcDbBlockBegin
2
DimnDraft3D3
70
0
10
0
20
0
30
0
3
DimnDraft3D3
0
MTEXT
5
1D0
100
AcDbEntity
8
SK2
62
256
6
ByLayer
370
13
48
1
60
0
100
AcDbMText
10
44.329929
20
11.350576
30
0
210
0
220
0
230
1
1
\W1.4729;91%%d
40
3.175
41
0
44
0.903614
50
44.5000000000001
71
7
72
5
7
blockfont
0
LINE
5
1D2
100
AcDbEntity
8
SK2
62
256
6
ByLayer
370
13
48
1
60
0
100
AcDbLine
10
34.735898
20
10.941073
30
0
11
34.641598
21
5.538605
31
0
39
0
210
0
220
0
230
1
0
LINE
5
1D3
100
AcDbEntity
8
SK2
62
256
6
ByLayer
370
13
48
1
60
0
100
AcDbLine
10
40.0875
20
26.875
30
0
11
56.353671
21
26.875
31
0
39
0
210
0
220
0
230
1
0
ARC
5
1D4
100
AcDbEntity
8
SK2
62
256
6
ByLayer
370
13
48
1
60
0
100
AcDbCircle
39
0
10
35.014026
20
26.875
30
0
40
18.1646448367531
210
0
220
0
230
1
100
AcDbArc
50
269
51
0
0
SOLID
5
1D5
100
AcDbEntity
8
SK2
62
256
6
ByLayer
370
13
48
1
60
0
100
AcDbTrace
10
34.697009
20
8.713122
30
0
11
37.860001
21
9.21394
31
0
12
37.881849
22
8.378232
32
0
13
34.697009
23
8.713122
33
0
39
0
210
0
220
0
230
1
0
SOLID
5
1D6
100
AcDbEntity
8
SK2
62
256
6
ByLayer
370
13
48
1
60
0
100
AcDbTrace
10
53.178671
20
26.875
30
0
11
53.457926
21
23.684804
31
0
12
52.622727
22
23.721227
32
0
13
53.178671
23
26.875
33
0
39
0
210
0
220
0
230
1
0
ENDBLK
5
1D8
100
AcDbEntity
8
0
100
AcDbBlockEnd
0
BLOCK
5
1E2
100
AcDbEntity
8
0
100
AcDbBlockBegin
2
DimnDraft3D4
70
0
10
0
20
0
30
0
3
DimnDraft3D4
0
MTEXT
5
1DB
100
AcDbEntity
8
SK2
62
256
6
ByLayer
370
13
48
1
60
0
100
AcDbMText
10
-10.109587
20
0.524975
30
0
210
0
220
0
230
1
1
\W1.1795;40
40
3.175
41
0
44
0.903614
50
90
71
7
72
5
7
blockfont
0
MTEXT
5
1DC
100
AcDbEntity
8
SK2
62
256
6
ByLayer
370
13
48
1
60
0
100
AcDbMText
10
-10.109587
20
-6.59397
30
0
210
0
220
0
230
1
1
%%c
40
3.175
41
0
44
0.903614
50
90
71
7
72
5
7
blockfont
0
LINE
5
1DD
100
AcDbEntity
8
SK2
62
256
6
ByLayer
370
13
48
1
60
0
100
AcDbLine
10
-0.9125
20
-20
30
0
11
-11.928598
21
-20
31
0
39
0
210
0
220
0
230
1
0
LINE
5
1DE
100
AcDbEntity
8
SK2
62
256
6
ByLayer
370
13
48
1
60
0
100
AcDbLine
10
-0.9125
20
20
30
0
11
-11.928598
21
20
31
0
39
0
210
0
220
0
230
1
0
LINE
5
1DF
100
AcDbEntity
8
SK2
62
256
6
ByLayer
370
13
48
1
60
0
100
AcDbLine
10
-8.753598
20
-20
30
0
11
-8.753598
21
20
31
0
39
0
210
0
220
0
230
1
0
SOLID
5
1E0
100
AcDbEntity
8
SK2
62
256
6
ByLayer
370
13
48
1
60
0
100
AcDbTrace
10
-8.753598
20
-20
30
0
11
-9.171594
21
-16.825002
31
0
12
-8.335601
22
-16.824998
32
0
13
-8.753598
23
-20
33
0
39
0
210
0
220
0
230
1
0
SOLID
5
1E1
100
AcDbEntity
8
SK2
62
256
6
ByLayer
370
13
48
1
60
0
100
AcDbTrace
10
-8.753598
20
20
30
0
11
-8.335601
21
16.825002
31
0
12
-9.171594
22
16.824998
32
0
13
-8.753598
23
20
33
0
39
0
210
0
220
0
230
1
0
ENDBLK
5
1E3
100
AcDbEntity
8
0
100
AcDbBlockEnd
0
ENDSEC
0
SECTION
2
ENTITIES
0
ARC
5
100
100
AcDbEntity
8
1
62
256
6
ByLayer
370
18
48
1
60
0
100
AcDbCircle
39
0
10
16.374816
20
-16.152991
30
0
40
10.9999999998491
210
0
220
0
230
1
100
AcDbArc
50
90
51
98.03557
0
ARC
5
101
100
AcDbEntity
8
1
62
256
6
ByLayer
370
18
48
1
60
0
100
AcDbCircle
39
0
10
23.374816
20
5.847009
30
0
40
11.0000000000004
210
0
220
0
230
1
100
AcDbArc
50
270
51
340.281459
0
ELLIPSE
5
102
100
AcDbEntity
8
1
62
256
6
ByLayer
370
18
48
1
60
0
100
AcDbEllipse
10
19.675776
20
-14.169396
30
0
11
-6.99290270569104
21
-11.2792132434737
31
0
210
0
220
0
230
1
40
0.979574
41
-1.82412074210292
42
-1.5707963267949
0
ELLIPSE
5
103
100
AcDbEntity
8
1
62
256
6
ByLayer
370
18
48
1
60
0
100
AcDbEllipse
10
5.942856
20
-9.899495
30
0
11
-5.45217275577166
21
-5.24653307701122
31
0
210
0
220
0
230
1
40
0.034989
41
-3.10524876879736
42
-2.49436668374747
0
ELLIPSE
5
104
100
AcDbEntity
8
1
62
256
6
ByLayer
370
18
48
1
60
0
100
AcDbEllipse
10
17.560618
20
0.386581
30
0
11
-0.477655333131332
21
0.234792625676739
31
0
210
0
220
0
230
1
40
0.188025
41
0.0699071307179732
42
1.55229081896091
0
ELLIPSE
5
105
100
AcDbEntity
8
1
62
256
6
ByLayer
370
18
48
1
60
0
100
AcDbEllipse
10
-0.415088
20
-9.899495
30
0
11
-49.2697649870398
21
0.91236395149828
31
0
210
0
220
0
230
1
40
0.104935
41
-1.8835889940037
42
-1.8190315660532
0
ELLIPSE
5
106
100
AcDbEntity
8
1
62
256
6
ByLayer
370
18
48
1
60
0
100
AcDbEllipse
10
17.560618
20
0.386581
30
0
11
-0.477655339087323
21
0.234792628579317
31
0
210
0
220
0
230
1
40
0.188025
41
-0.0185055077265534
42
0.0699071302746097
0
ELLIPSE
5
107
100
AcDbEntity
8
1
62
256
6
ByLayer
370
18
48
1
60
0
100
AcDbEllipse
10
19.675776
20
-14.169396
30
0
11
-6.99290270569104
21
-11.2792132434737
31
0
210
0
220
0
230
1
40
0.979574
41
-1.5707963267949
42
-1.45088382993581
0
ELLIPSE
5
108
100
AcDbEntity
8
1
62
256
6
ByLayer
370
18
48
1
60
0
100
AcDbEllipse
10
5.942856
20
-9.899495
30
0
11
-5.45217275572857
21
-5.24653307696945
31
0
210
0
220
0
230
1
40
0.034989
41
2.86402974726854
42
-3.10524876879725
0
ELLIPSE
5
109
100
AcDbEntity
8
1
62
256
6
ByLayer
370
18
48
1
60
0
100
AcDbEllipse
10
22.832323
20
13.269226
30
0
11
-2.54972928488965
21
1.58078479679434
31
0
210
0
220
0
230
1
40
0.979574
41
0
42
3.14159265358979
0
ELLIPSE
5
10A
100
AcDbEntity
8
1
62
256
6
ByLayer
370
18
48
1
60
0
100
AcDbEllipse
10
21.186849
20
19.406647
30
0
11
-1.69981952400848
21
1.05385653035976
31
0
210
0
220
0
230
1
40
0.979574
41
-1.79024503171668
42
-1.5658976274372
0
ELLIPSE
5
10B
100
AcDbEntity
8
1
62
256
6
ByLayer
370
18
48
1
60
0
100
AcDbEllipse
10
30.146759
20
19.464326
30
0
11
-1.61907809590498
21
1.00379834596432
31
0
210
0
220
0
230
1
40
0.979574
41
0
42
2.09929380231563
0
ELLIPSE
5
10C
100
AcDbEntity
8
1
62
256
6
ByLayer
370
18
48
1
60
0
100
AcDbEllipse
10
30.146759
20
19.464326
30
0
11
-1.61907809590128
21
1.00379834597126
31
0
210
0
220
0
230
1
40
0.979574
41
2.09929380231982
42
3.14159265358979
0
ELLIPSE
5
10D
100
AcDbEntity
8
1
62
256
6
ByLayer
370
18
48
1
60
0
100
AcDbEllipse
10
22.919818
20
13.41035
30
0
11
-1.22673907416035
21
0.760555439965469
31
0
210
0
220
0
230
1
40
0.979574
41
2.30873331255401
42
-2.92725444342892
0
ELLIPSE
5
10E
100
AcDbEntity
8
1
62
256
6
ByLayer
370
18
48
1
60
0
100
AcDbEllipse
10
22.548971
20
12.812192
30
0
11
-1.06238720204106
21
0.658660331992439
31
0
210
0
220
0
230
1
40
0.979574
41
-2.40365566783463
42
-1.35645811663837
0
ELLIPSE
5
10F
100
AcDbEntity
8
1
62
256
6
ByLayer
370
18
48
1
60
0
100
AcDbEllipse
10
30.264099
20
19.111262
30
0
11
-1.35985561860758
21
0.843085224957472
31
0
210
0
220
0
230
1
40
0.979574
41
-1.36321082813931
42
0.744689697267006
0
ELLIPSE
5
110
100
AcDbEntity
8
1
62
256
6
ByLayer
370
18
48
1
60
0
100
AcDbEllipse
10
22.045094
20
20.790955
30
0
11
-1.69981952325912
21
1.05385653119738
31
0
210
0
220
0
230
1
40
0.979574
41
-1.61367482408818
42
0
0
ELLIPSE
5
111
100
AcDbEntity
8
1
62
256
6
ByLayer
370
18
48
1
60
0
100
AcDbEllipse
10
22.045094
20
20.790955
30
0
11
-1.69981952326042
21
1.05385653119525
31
0
210
0
220
0
230
1
40
0.979574
41
0
42
2.15601786719994
0
ELLIPSE
5
112
100
AcDbEntity
8
1
62
256
6
ByLayer
370
18
48
1
60
0
100
AcDbEllipse
10
22.919818
20
13.41035
30
0
11
-1.84642895714089
21
1.14475165701195
31
0
210
0
220
0
230
1
40
0.979574
41
0
42
6.28318530717959
0
ELLIPSE
5
113
100
AcDbEntity
8
1
62
256
6
ByLayer
370
18
48
1
60
0
100
AcDbEllipse
10
22.852539
20
13.301833
30
0
11
-2.54972928488979
21
1.5807847967941
31
0
210
0
220
0
230
1
40
0.979574
41
-1.88005689223148
42
0
0
ELLIPSE
5
114
100
AcDbEntity
8
1
62
256
6
ByLayer
370
18
48
1
60
0
100
AcDbEllipse
10
22.548971
20
12.812192
30
0
11
-1.06238720066826
21
0.658660335308207
31
0
210
0
220
0
230
1
40
0.979574
41
-0.309260562594414
42
-0.147469077822883
0
ELLIPSE
5
115
100
AcDbEntity
8
1
62
256
6
ByLayer
370
18
48
1
60
0
100
AcDbEllipse
10
21.186849
20
19.406647
30
0
11
-1.69981952326125
21
1.0538565311935
31
0
210
0
220
0
230
1
40
0.979574
41
-1.565897626874
42
-0.428693903278942
0
ELLIPSE
5
116
100
AcDbEntity
8
1
62
256
6
ByLayer
370
18
48
1
60
0
100
AcDbEllipse
10
31.022414
20
15.388069
30
0
11
-1.6148285470913
21
1.0011637046472
31
0
210
0
220
0
230
1
40
0.979574
41
1.57569502672388
42
1.97571650031819
0
ELLIPSE
5
117
100
AcDbEntity
8
1
62
256
6
ByLayer
370
18
48
1
60
0
100
AcDbEllipse
10
33.974191
20
12.556308
30
0
11
-0.674828350762452
21
0.41838104284955
31
0
210
0
220
0
230
1
40
0.979574
41
3.14159265358979
42
-2.61309517812634
0
ELLIPSE
5
118
100
AcDbEntity
8
1
62
256
6
ByLayer
370
18
48
1
60
0
100
AcDbEllipse
10
22.919818
20
13.41035
30
0
11
-1.22673907416115
21
0.760555439963309
31
0
210
0
220
0
230
1
40
0.979574
41
-0.832859341037454
42
0.214338210159377
0
ELLIPSE
5
119
100
AcDbEntity
8
1
62
256
6
ByLayer
370
18
48
1
60
0
100
AcDbEllipse
10
22.548971
20
12.812192
30
0
11
-1.06238720213688
21
0.658660331866472
31
0
210
0
220
0
230
1
40
0.979574
41
-2.88899626632407
42
-2.40365566796287
0
ELLIPSE
5
11A
100
AcDbEntity
8
1
62
256
6
ByLayer
370
18
48
1
60
0
100
AcDbEllipse
10
29.840817
20
19.513184
30
0
11
-1.61482854708041
21
1.00116370465783
31
0
210
0
220
0
230
1
40
0.979574
41
3.14159265358979
42
-2.38288771464767
0
ELLIPSE
5
11B
100
AcDbEntity
8
1
62
256
6
ByLayer
370
18
48
1
60
0
100
AcDbEllipse
10
27.366403
20
17.630512
30
0
11
-1.6148285471339
21
1.00116370459013
31
0
210
0
220
0
230
1
40
0.979574
41
1.17567355309267
42
1.57569502668538
0
ELLIPSE
5
11C
100
AcDbEntity
8
1
62
256
6
ByLayer
370
18
48
1
60
0
100
AcDbEllipse
10
30.146759
20
19.464326
30
0
11
-1.61907809590498
21
1.00379834596433
31
0
210
0
220
0
230
1
40
0.979574
41
3.14159265358979
42
0
0
ELLIPSE
5
11D
100
AcDbEntity
8
1
62
256
6
ByLayer
370
18
48
1
60
0
100
AcDbEllipse
10
22.919818
20
13.41035
30
0
11
-1.22673907415295
21
0.760555439976411
31
0
210
0
220
0
230
1
40
0.979574
41
-2.92725444341998
42
-1.88005689222305
0
ELLIPSE
5
11E
100
AcDbEntity
8
1
62
256
6
ByLayer
370
18
48
1
60
0
100
AcDbEllipse
10
29.872604
20
19.564455
30
0
11
-1.35985561860773
21
0.843085224957198
31
0
210
0
220
0
230
1
40
0.979574
41
1.77838182545028
42
-2.39690295632298
0
ELLIPSE
5
11F
100
AcDbEntity
8
1
62
256
6
ByLayer
370
18
48
1
60
0
100
AcDbEllipse
10
30.068352
20
19.337858
30
0
11
-1.25361689835937
21
0.777219191818495
31
0
210
0
220
0
230
1
40
0.979574
41
-2.21914484693175
42
-1.5409689374285
0
ELLIPSE
5
120
100
AcDbEntity
8
1
62
256
6
ByLayer
370
18
48
1
60
0
100
AcDbEllipse
10
30.036565
20
19.286588
30
0
11
-1.50858982692905
21
0.935297671386471
31
0
210
0
220
0
230
1
40
0.979574
41
-2.23424713565264
42
-1.52586664887975
0
ELLIPSE
5
121
100
AcDbEntity
8
1
62
256
6
ByLayer
370
18
48
1
60
0
100
AcDbEllipse
10
21.292805
20
19.57755
30
0
11
-1.69981952350314
21
1.05385653088922
31
0
210
0
220
0
230
1
40
0.979574
41
-1.84308838284222
42
-1.61367482428667
0
ELLIPSE
5
122
100
AcDbEntity
8
1
62
256
6
ByLayer
370
18
48
1
60
0
100
AcDbEllipse
10
29.642408
20
18.650832
30
0
11
-1.61907809533805
21
1.00379834670039
31
0
210
0
220
0
230
1
40
0.979574
41
-2.88223483224275
42
-2.57444492811638
0
ELLIPSE
5
123
100
AcDbEntity
8
1
62
256
6
ByLayer
370
18
48
1
60
0
100
AcDbEllipse
10
22.919818
20
13.41035
30
0
11
-1.22673907415904
21
0.760555439968325
31
0
210
0
220
0
230
1
40
0.979574
41
1.26153576135968
42
2.3087333125561
0
ELLIPSE
5
124
100
AcDbEntity
8
1
62
256
6
ByLayer
370
18
48
1
60
0
100
AcDbEllipse
10
22.852539
20
13.301833
30
0
11
-2.54972928488966
21
1.58078479679431
31
0
210
0
220
0
230
1
40
0.979574
41
0
42
3.14159265358979
0
ELLIPSE
5
125
100
AcDbEntity
8
1
62
256
6
ByLayer
370
18
48
1
60
0
100
AcDbEllipse
10
22.548971
20
12.812192
30
0
11
-1.06238720203277
21
0.658660332005995
31
0
210
0
220
0
230
1
40
0.979574
41
-1.35645811662534
42
-0.309260565429058
0
ELLIPSE
5
126
100
AcDbEntity
8
1
62
256
6
ByLayer
370
18
48
1
60
0
100
AcDbEllipse
10
30.068352
20
19.337858
30
0
11
-1.25361689834086
21
0.777219191844131
31
0
210
0
220
0
230
1
40
0.979574
41
0.922447806678945
42
1.60062371618316
0
ELLIPSE
5
127
100
AcDbEntity
8
1
62
256
6
ByLayer
370
18
48
1
60
0
100
AcDbEllipse
10
30.232313
20
19.059992
30
0
11
-1.61482854709746
21
1.00116370463511
31
0
210
0
220
0
230
1
40
0.979574
41
-1.37722606980153
42
0
0
ELLIPSE
5
128
100
AcDbEntity
8
1
62
256
6
ByLayer
370
18
48
1
60
0
100
AcDbEllipse
10
16.939017
20
24.358989
30
0
11
-0.510998753575437
21
-0.0528842057726459
31
0
210
0
220
0
230
1
40
0.155957
41
1.30629472419869
42
1.4508087901089
0
ELLIPSE
5
129
100
AcDbEntity
8
1
62
256
6
ByLayer
370
18
48
1
60
0
100
AcDbEllipse
10
34.21047
20
26.092681
30
0
11
-0.67482835073393
21
0.418381042885246
31
0
210
0
220
0
230
1
40
0.979574
41
-2.61309517806845
42
-0.518700075675336
0
ELLIPSE
5
12A
100
AcDbEntity
8
1
62
256
6
ByLayer
370
18
48
1
60
0
100
AcDbEllipse
10
33.46984
20
11.742814
30
0
11
-0.67482835074065
21
0.418381042886009
31
0
210
0
220
0
230
1
40
0.979574
41
2.71153173633482
42
3.14159265358979
0
ELLIPSE
5
12B
100
AcDbEntity
8
1
62
256
6
ByLayer
370
18
48
1
60
0
100
AcDbEllipse
10
22.852539
20
13.301833
30
0
11
-2.54972928488381
21
1.58078479680251
31
0
210
0
220
0
230
1
40
0.979574
41
3.14159265358979
42
-1.88005689222796
0
ELLIPSE
5
12C
100
AcDbEntity
8
1
62
256
6
ByLayer
370
18
48
1
60
0
100
AcDbEllipse
10
22.919818
20
13.41035
30
0
11
-1.22673907416094
21
0.760555439965081
31
0
210
0
220
0
230
1
40
0.979574
41
0.214338210160435
42
1.26153576135697
0
ELLIPSE
5
12D
100
AcDbEntity
8
1
62
256
6
ByLayer
370
18
48
1
60
0
100
AcDbEllipse
10
22.45361
20
12.65838
30
0
11
-1.06238720205052
21
0.658660331978888
31
0
210
0
220
0
230
1
40
0.979574
41
-2.80648912185134
42
-1.88005689225006
0
ELLIPSE
5
12E
100
AcDbEntity
8
1
62
256
6
ByLayer
370
18
48
1
60
0
100
AcDbEllipse
10
29.840817
20
19.513184
30
0
11
-1.61482854710198
21
1.0011637046267
31
0
210
0
220
0
230
1
40
0.979574
41
2.04055148759198
42
3.14159265358979
0
ELLIPSE
5
12F
100
AcDbEntity
8
1
62
256
6
ByLayer
370
18
48
1
60
0
100
AcDbEllipse
10
22.255617
20
19.743989
30
0
11
-0.67482835073475
21
0.418381042889152
31
0
210
0
220
0
230
1
40
0.979574
41
-0.518700075670834
42
0
0
ELLIPSE
5
130
100
AcDbEntity
8
1
62
256
6
ByLayer
370
18
48
1
60
0
100
AcDbEllipse
10
21.751266
20
18.930494
30
0
11
-0.674828350383488
21
0.418381043204043
31
0
210
0
220
0
230
1
40
0.979574
41
5.6244549685344E-10
42
0.290627667391394
0
ELLIPSE
5
131
100
AcDbEntity
8
1
62
256
6
ByLayer
370
18
48
1
60
0
100
AcDbEllipse
10
29.642408
20
18.650832
30
0
11
-1.61907809541041
21
1.00379834698033
31
0
210
0
220
0
230
1
40
0.979574
41
-0.601815630464982
42
-0.259357820280793
0
ELLIPSE
5
132
100
AcDbEntity
8
1
62
256
6
ByLayer
370
18
48
1
60
0
100
AcDbEllipse
10
22.919818
20
13.41035
30
0
11
-1.2267390741595
21
0.760555439967392
31
0
210
0
220
0
230
1
40
0.979574
41
-1.88005689223087
42
-0.832859341034363
0
ELLIPSE
5
133
100
AcDbEntity
8
1
62
256
6
ByLayer
370
18
48
1
60
0
100
AcDbEllipse
10
22.45361
20
12.65838
30
0
11
-1.06238720203745
21
0.658660331997472
31
0
210
0
220
0
230
1
40
0.979574
41
-1.88005689223155
42
-0.271425944658283
0
ELLIPSE
5
134
100
AcDbEntity
8
1
62
256
6
ByLayer
370
18
48
1
60
0
100
AcDbEllipse
10
30.232313
20
19.059992
30
0
11
-1.61482854705478
21
1.00116370469048
31
0
210
0
220
0
230
1
40
0.979574
41
0
42
0.6550702202355
0
ELLIPSE
5
135
100
AcDbEntity
8
1
62
256
6
ByLayer
370
18
48
1
60
0
100
AcDbEllipse
10
24.239476
20
-0.610319
30
0
11
-8.51090166373641
21
25.2570189253658
31
0
210
0
220
0
230
1
40
0.148964
41
-0.607497921080555
42
-0.177757961349118
0
ELLIPSE
5
136
100
AcDbEntity
8
1
62
256
6
ByLayer
370
18
48
1
60
0
100
AcDbEllipse
10
-101.12093
20
11.294882
30
0
11
-155.840591874793
21
-15.8770250678057
31
0
210
0
220
0
230
1
40
0.011559
41
-2.4275220109797
42
-2.33760104298977
0
POINT
5
6C
100
AcDbEntity
8
81
62
256
6
ByLayer
370
18
48
1
60
0
100
AcDbPoint
10
35
20
26.875
30
0
39
0
210
0
220
0
230
1
50
360
0
POINT
5
6E
100
AcDbEntity
8
80
62
256
6
ByLayer
370
18
48
1
60
0
100
AcDbPoint
10
0
20
0
30
0
39
0
210
0
220
0
230
1
50
360
0
SPLINE
5
137
100
AcDbEntity
8
1
62
256
6
ByLayer
370
18
48
1
60
0
100
AcDbSpline
70
4
71
1
72
4
73
2
40
0
40
0
40
1
40
1
41
1
10
-0.325
20
-18.4126951788705
30
0
41
1
10
0.34327857925749
20
-19.0026970897866
30
0
0
SPLINE
5
138
100
AcDbEntity
8
1
62
256
6
ByLayer
370
18
48
1
60
0
100
AcDbSpline
70
4
71
3
72
12
73
8
40
0
40
0
40
0
40
0
40
0.203270758909807
40
0.41925292688306
40
0.636673320998212
40
0.824123027314475
40
1
40
1
40
1
40
1
41
1
10
0.343278579257167
20
-17.1811675775405
30
0
41
1
10
0.354505630456393
20
-17.1905634675508
30
0
41
1
10
0.37649895991165
20
-17.206892479093
30
0
41
1
10
0.408207329374479
20
-17.2243244689357
30
0
41
1
10
0.431637050371851
20
-17.2274087455663
30
0
41
1
10
0.443280547572829
20
-17.2169363102184
30
0
41
1
10
0.445466876418011
20
-17.2054051693497
30
0
41
1
10
0.445277225885606
20
-17.1984554799941
30
0
0
SPLINE
5
139
100
AcDbEntity
8
1
62
256
6
ByLayer
370
18
48
1
60
0
100
AcDbSpline
70
4
71
1
72
4
73
2
40
0
40
0
40
1
40
1
41
1
10
-0.325
20
-14.576173837808
30
0
41
1
10
0.34327857925749
20
-15.1245672474212
30
0
0
SPLINE
5
13A
100
AcDbEntity
8
1
62
256
6
ByLayer
370
18
48
1
60
0
100
AcDbSpline
70
4
71
2
72
6
73
3
40
0
40
0
40
0
40
1
40
1
40
1
41
1
10
-0.325
20
-6.61172018086065
30
0
41
1
10
-0.037212006998601
20
-7.88172906724867
30
0
41
1
10
0.343278579257494
20
-9.11879287402913
30
0
0
SPLINE
5
13B
100
AcDbEntity
8
1
62
256
6
ByLayer
370
18
48
1
60
0
100
AcDbSpline
70
4
71
1
72
4
73
2
40
0
40
0
40
1
40
1
41
1
10
7.86976089641892
20
-8.71779788708134
30
0
41
1
10
7.39519133172813
20
-9.79953928279842
30
0
0
SPLINE
5
13C
100
AcDbEntity
8
1
62
256
6
ByLayer
370
18
48
1
60
0
100
AcDbSpline
70
4
71
3
72
11
73
7
40
0
40
0
40
0
40
0
40
0.106198987855133
40
0.389067987887735
40
0.820910985054736
40
1
40
1
40
1
40
1
41
1
10
0.445277405909412
20
-17.9663561103936
30
0
41
1
10
0.445123306617706
20
-17.9618896801901
30
0
41
1
10
0.442940411932281
20
-17.9442877136092
30
0
41
1
10
0.422782322103133
20
-17.8940836374508
30
0
41
1
10
0.384184187616983
20
-17.8298654793235
30
0
41
1
10
0.353005850161067
20
-17.7850553634904
30
0
41
1
10
0.343278579257492
20
-17.7716749003053
30
0
0
SPLINE
5
13D
100
AcDbEntity
8
1
62
256
6
ByLayer
370
18
48
1
60
0
100
AcDbSpline
70
4
71
1
72
4
73
2
40
0
40
0
40
1
40
1
41
1
10
-0.325
20
-18.5041169405622
30
0
41
1
10
0.343278579257491
20
-19.2723234562802
30
0
0
SPLINE
5
13E
100
AcDbEntity
8
1
62
256
6
ByLayer
370
18
48
1
60
0
100
AcDbSpline
70
4
71
3
72
12
73
8
40
0
40
0
40
0
40
0
40
0.249911022237563
40
0.489614640952231
40
0.731048898773427
40
0.936573073655152
40
1
40
1
40
1
40
1
41
1
10
0.34327857925738
20
-18.5373273217392
30
0
41
1
10
0.356942052465505
20
-18.5491687676408
30
0
41
1
10
0.381802671138944
20
-18.568884063502
30
0
41
1
10
0.415680000592182
20
-18.590622099859
30
0
41
1
10
0.437936738137034
20
-18.5969346372919
30
0
41
1
10
0.444665341769792
20
-18.5901966797518
30
0
41
1
10
0.445296386196716
20
-18.5838485956857
30
0
41
1
10
0.44527834872284
20
-18.5821760187423
30
0
0
SPLINE
5
13F
100
AcDbEntity
8
1
62
256
6
ByLayer
370
18
48
1
60
0
100
AcDbSpline
70
4
71
1
72
4
73
2
40
0
40
0
40
1
40
1
41
1
10
-0.325
20
-14.8816949219503
30
0
41
1
10
0.343278579257491
20
-16.008510663641
30
0
0
SPLINE
5
140
100
AcDbEntity
8
1
62
256
6
ByLayer
370
18
48
1
60
0
100
AcDbSpline
70
4
71
3
72
13
73
9
40
0
40
0
40
0
40
0
40
0.124381710383833
40
0.31154808237654
40
0.452310637303406
40
0.592791007258024
40
0.800773201982965
40
1
40
1
40
1
40
1
41
1
10
0.343278579255028
20
-13.7398159364983
30
0
41
1
10
0.350473078317274
20
-13.7460060781993
30
0
41
1
10
0.368162409076172
20
-13.7591996526113
30
0
41
1
10
0.39439313431874
20
-13.7722142789085
30
0
41
1
10
0.417062404234512
20
-13.772420394954
30
0
41
1
10
0.43406851196546
20
-13.761076935972
30
0
41
1
10
0.44357155392419
20
-13.7365702700504
30
0
41
1
10
0.44568994759456
20
-13.7145628294118
30
0
41
1
10
0.445272100753338
20
-13.7023655376355
30
0
0
SPLINE
5
141
100
AcDbEntity
8
1
62
256
6
ByLayer
370
18
48
1
60
0
100
AcDbSpline
70
4
71
1
72
4
73
2
40
0
40
0
40
1
40
1
41
1
10
-0.325
20
-9.08445616148815
30
0
41
1
10
0.34327857925749
20
-9.76435133857411
30
0
0
SPLINE
5
142
100
AcDbEntity
8
1
62
256
6
ByLayer
370
18
48
1
60
0
100
AcDbSpline
70
4
71
3
72
13
73
9
40
0
40
0
40
0
40
0
40
0.0568256757895481
40
0.127058506424861
40
0.239445856015412
40
0.462176278515707
40
0.730715672973135
40
1
40
1
40
1
40
1
41
1
10
6.4
20
-8.71779788708134
30
0
41
1
10
6.37800818796202
20
-8.71714473485521
30
0
41
1
10
6.33146397197819
20
-8.70999991347303
30
0
41
1
10
6.25310391942656
20
-8.66685305263448
30
0
41
1
10
6.15496461500184
20
-8.56075310013784
30
0
41
1
10
6.06710431598982
20
-8.36971959477674
30
0
41
1
10
6.01105047251048
20
-8.11502484266071
30
0
41
1
10
5.99833393878527
20
-7.93164011992937
30
0
41
1
10
6
20
-7.83836717690615
30
0
0
SPLINE
5
143
100
AcDbEntity
8
1
62
256
6
ByLayer
370
18
48
1
60
0
100
AcDbSpline
70
4
71
2
72
6
73
3
40
0
40
0
40
0
40
1
40
1
40
1
41
1
10
0.44527669607777
20
-11.9487961174388
30
0
41
1
10
0.435256087330966
20
-11.7572184002966
30
0
41
1
10
0.343278579257501
20
-11.54046753934
30
0
0
SPLINE
5
144
100
AcDbEntity
8
1
62
256
6
ByLayer
370
18
48
1
60
0
100
AcDbSpline
70
4
71
3
72
10
73
6
40
0
40
0
40
0
40
0
40
0.432827970052517
40
0.740995514031977
40
1
40
1
40
1
40
1
41
1
10
0.343278579257478
20
-19.6599204994536
30
0
41
1
10
0.363674819027274
20
-19.6800229202904
30
0
41
1
10
0.393973745994599
20
-19.7095475386709
30
0
41
1
10
0.428052902907377
20
-19.7419955553642
30
0
41
1
10
0.438717579381201
20
-19.7514205938281
30
0
41
1
10
0.442199947656433
20
-19.7542756911138
30
0
0
SPLINE
5
145
100
AcDbEntity
8
1
62
256
6
ByLayer
370
18
48
1
60
0
100
AcDbSpline
70
4
71
1
72
4
73
2
40
0
40
0
40
1
40
1
41
1
10
-0.325
20
-18.7307192534083
30
0
41
1
10
0.34327857925749
20
-19.340953677083
30
0
0
SPLINE
5
146
100
AcDbEntity
8
1
62
256
6
ByLayer
370
18
48
1
60
0
100
AcDbSpline
70
4
71
1
72
4
73
2
40
0
40
0
40
1
40
1
41
1
10
0.443840788339624
20
-17.9761761866832
30
0
41
1
10
0.445277405909412
20
-17.9663561103936
30
0
0
SPLINE
5
147
100
AcDbEntity
8
1
62
256
6
ByLayer
370
18
48
1
60
0
100
AcDbSpline
70
4
71
1
72
4
73
2
40
0
40
0
40
1
40
1
41
1
10
-0.325
20
-15.709148409446
30
0
41
1
10
0.34327857925749
20
-16.2549231580666
30
0
0
SPLINE
5
148
100
AcDbEntity
8
1
62
256
6
ByLayer
370
18
48
1
60
0
100
AcDbSpline
70
4
71
1
72
4
73
2
40
0
40
0
40
1
40
1
41
1
10
-0.325
20
-9.74178339679137
30
0
41
1
10
0.343278579257493
20
-11.54046753934
30
0
0
SPLINE
5
149
100
AcDbEntity
8
1
62
256
6
ByLayer
370
18
48
1
60
0
100
AcDbSpline
70
4
71
3
72
15
73
11
40
0
40
0
40
0
40
0
40
0.0856011818570619
40
0.13679310685174
40
0.188458482577198
40
0.234430364548992
40
0.293389902841375
40
0.397106801703195
40
0.715174581256756
40
1
40
1
40
1
40
1
41
1
10
0.343278579257488
20
-6.47090137540591
30
0
41
1
10
0.349212575622304
20
-6.479723449335
30
0
41
1
10
0.359500312310946
20
-6.49139548765135
30
0
41
1
10
0.375569672796217
20
-6.50376564919148
30
0
41
1
10
0.389116145198392
20
-6.50777601075665
30
0
41
1
10
0.402040526512326
20
-6.50425874471181
30
0
41
1
10
0.415407148990424
20
-6.49096630455032
30
0
41
1
10
0.434793971546975
20
-6.44576157210662
30
0
41
1
10
0.443247497466643
20
-6.36400233288704
30
0
41
1
10
0.446302482797609
20
-6.29406876068541
30
0
41
1
10
0.445254189009822
20
-6.25956455740034
30
0
0
SPLINE
5
14A
100
AcDbEntity
8
1
62
256
6
ByLayer
370
18
48
1
60
0
100
AcDbSpline
70
4
71
3
72
11
73
7
40
0
40
0
40
0
40
0
40
0.172631841068128
40
0.433288647058148
40
0.798977060677809
40
1
40
1
40
1
40
1
41
1
10
0.445278576731542
20
-19.4113671396395
30
0
41
1
10
0.445008376110248
20
-19.4082162591868
30
0
41
1
10
0.441472922893596
20
-19.3977468991209
30
0
41
1
10
0.419088150177288
20
-19.363625065103
30
0
41
1
10
0.382685056579655
20
-19.3179230670645
30
0
41
1
10
0.354101261463678
20
-19.2846106626576
30
0
41
1
10
0.343278579257144
20
-19.2723234562772
30
0
0
SPLINE
5
14B
100
AcDbEntity
8
1
62
256
6
ByLayer
370
18
48
1
60
0
100
AcDbSpline
70
4
71
3
72
12
73
8
40
0
40
0
40
0
40
0
40
0.0879679718621963
40
0.283055728612369
40
0.567672363101616
40
0.965694066279016
40
1
40
1
40
1
40
1
41
1
10
0.445278476027663
20
-19.6418045876656
30
0
41
1
10
0.445238962358769
20
-19.6409223299726
30
0
41
1
10
0.444027087766861
20
-19.6370365604352
30
0
41
1
10
0.433684521778391
20
-19.6214298034136
30
0
41
1
10
0.402818572871546
20
-19.5836177147108
30
0
41
1
10
0.367715215504637
20
-19.5444411610658
30
0
41
1
10
0.345090099933315
20
-19.5199585642933
30
0
41
1
10
0.343278579257492
20
-19.5180034570805
30
0
0
SPLINE
5
14C
100
AcDbEntity
8
1
62
256
6
ByLayer
370
18
48
1
60
0
100
AcDbSpline
70
4
71
3
72
12
73
8
40
0
40
0
40
0
40
0
40
0.0717048724516604
40
0.270487942903303
40
0.534181099728687
40
0.89517045161152
40
1
40
1
40
1
40
1
41
1
10
0.445278539535509
20
-19.7560426846343
30
0
41
1
10
0.445261270165032
20
-19.7558022216784
30
0
41
1
10
0.444342779956787
20
-19.7540443795163
30
0
41
1
10
0.435455451976628
20
-19.7434589349704
30
0
41
1
10
0.407568226532947
20
-19.7132191731861
30
0
41
1
10
0.372806344085128
20
-19.6768709992717
30
0
41
1
10
0.348830765414627
20
-19.6521448533471
30
0
41
1
10
0.34327857925736
20
-19.6464364834368
30
0
0
SPLINE
5
14D
100
AcDbEntity
8
1
62
256
6
ByLayer
370
18
48
1
60
0
100
AcDbSpline
70
4
71
3
72
10
73
6
40
0
40
0
40
0
40
0
40
0.429904318723631
40
0.713919140088958
40
1
40
1
40
1
40
1
41
1
10
0.343278579257466
20
-19.5586932485775
30
0
41
1
10
0.364260206963797
20
-19.5786182731757
30
0
41
1
10
0.394360335798513
20
-19.6061194135101
30
0
41
1
10
0.429494337833448
20
-19.6356073283975
30
0
41
1
10
0.439918785953862
20
-19.6419664623409
30
0
41
1
10
0.443267540242372
20
-19.6430564575243
30
0
0
SPLINE
5
14E
100
AcDbEntity
8
1
62
256
6
ByLayer
370
18
48
1
60
0
100
AcDbSpline
70
4
71
3
72
14
73
10
40
0
40
0
40
0
40
0
40
0.145815277802329
40
0.287785679618714
40
0.429775073915743
40
0.576580341342866
40
0.72340947825674
40
0.861696842731906
40
1
40
1
40
1
40
1
41
1
10
7.39519133172813
20
-9.79953928279842
30
0
41
1
10
7.20729348385879
20
-10.0668136294592
30
0
41
1
10
6.86491524949108
20
-10.5976111638317
30
0
41
1
10
6.43888483092751
20
-11.4060269911933
30
0
41
1
10
6.09207164787196
20
-12.2138559207009
30
0
41
1
10
5.82016647846876
20
-13.0178477600156
30
0
41
1
10
5.62192613710901
20
-13.7917220098099
30
0
41
1
10
5.48944819192879
20
-14.5205314544014
30
0
41
1
10
5.43517027879262
20
-14.9733248523193
30
0
41
1
10
5.41667423181104
20
-15.194277333648
30
0
0
SPLINE
5
14F
100
AcDbEntity
8
1
62
256
6
ByLayer
370
18
48
1
60
0
100
AcDbSpline
70
4
71
1
72
4
73
2
40
0
40
0
40
1
40
1
41
1
10
-0.325
20
-18.7906850260974
30
0
41
1
10
0.343278579257491
20
-19.5180034570805
30
0
0
SPLINE
5
150
100
AcDbEntity
8
1
62
256
6
ByLayer
370
18
48
1
60
0
100
AcDbSpline
70
4
71
3
72
12
73
8
40
0
40
0
40
0
40
0
40
0.271961273739253
40
0.521123041612946
40
0.732677904114321
40
0.94463807973492
40
1
40
1
40
1
40
1
41
1
10
0.343278579257425
20
-19.0026970897866
30
0
41
1
10
0.358134580847595
20
-19.0159093491319
30
0
41
1
10
0.384274922351619
20
-19.0375752584701
30
0
41
1
10
0.417167558444368
20
-19.0606857942675
30
0
41
1
10
0.438192886420746
20
-19.0697013257015
30
0
41
1
10
0.444711556004376
20
-19.0663953413087
30
0
41
1
10
0.44528866227537
20
-19.0615488120661
30
0
41
1
10
0.445278467199843
20
-19.0604083246195
30
0
0
SPLINE
5
151
100
AcDbEntity
8
1
62
256
6
ByLayer
370
18
48
1
60
0
100
AcDbSpline
70
4
71
1
72
4
73
2
40
0
40
0
40
1
40
1
41
1
10
-0.325
20
-17.3753372269432
30
0
41
1
10
0.34327857925749
20
-17.93495223803
30
0
0
SPLINE
5
152
100
AcDbEntity
8
1
62
256
6
ByLayer
370
18
48
1
60
0
100
AcDbSpline
70
4
71
1
72
4
73
2
40
0
40
0
40
1
40
1
41
1
10
-0.325
20
-15.9578301704837
30
0
41
1
10
0.343278579257491
20
-16.9794705811172
30
0
0
SPLINE
5
153
100
AcDbEntity
8
1
62
256
6
ByLayer
370
18
48
1
60
0
100
AcDbSpline
70
4
71
3
72
13
73
9
40
0
40
0
40
0
40
0
40
0.153120007309568
40
0.371061266991212
40
0.558070078771864
40
0.718402876742625
40
0.966760479932333
40
1
40
1
40
1
40
1
41
1
10
0.34327857925634
20
-15.1245672474207
30
0
41
1
10
0.351911344989993
20
-15.1318115299512
30
0
41
1
10
0.372158726005773
20
-15.1465643542531
30
0
41
1
10
0.40249454097026
20
-15.1612418176068
30
0
41
1
10
0.426115765692785
20
-15.1597293885332
30
0
41
1
10
0.441314685066628
20
-15.1444854055131
30
0
41
1
10
0.445053568677735
20
-15.1249309807666
30
0
41
1
10
0.445287961447449
20
-15.11096384431
30
0
41
1
10
0.445278119583138
20
-15.1092803777227
30
0
0
SPLINE
5
154
100
AcDbEntity
8
1
62
256
6
ByLayer
370
18
48
1
60
0
100
AcDbSpline
70
4
71
1
72
4
73
2
40
0
40
0
40
1
40
1
41
1
10
-0.325
20
-11.416647658135
30
0
41
1
10
0.34327857925749
20
-12.0130158376653
30
0
0
SPLINE
5
155
100
AcDbEntity
8
1
62
256
6
ByLayer
370
18
48
1
60
0
100
AcDbSpline
70
4
71
3
72
10
73
6
40
0
40
0
40
0
40
0
40
0.09152223331766
40
0.503585151909448
40
1
40
1
40
1
40
1
41
1
10
0.445272100753338
20
-13.7023655376355
30
0
41
1
10
0.445064628163655
20
-13.6934816835138
30
0
41
1
10
0.44235772849438
20
-13.6438456537832
30
0
41
1
10
0.412840402106324
20
-13.5304557976483
30
0
41
1
10
0.372092470306816
20
-13.4271263072337
30
0
41
1
10
0.343278579257489
20
-13.3683356695468
30
0
0
SPLINE
5
156
100
AcDbEntity
8
1
62
256
6
ByLayer
370
18
48
1
60
0
100
AcDbSpline
70
4
71
3
72
10
73
6
40
0
40
0
40
0
40
0
40
0.246284594069606
40
0.72445531135345
40
1
40
1
40
1
40
1
41
1
10
0.445278119583138
20
-15.1092803777227
30
0
41
1
10
0.444127074641214
20
-15.0891805624018
30
0
41
1
10
0.435659770605641
20
-15.0277798493013
30
0
41
1
10
0.396094936570754
20
-14.9267678139017
30
0
41
1
10
0.358702007898452
20
-14.8517197144237
30
0
41
1
10
0.343278579257491
20
-14.8237109429722
30
0
0
SPLINE
5
157
100
AcDbEntity
8
1
62
256
6
ByLayer
370
18
48
1
60
0
100
AcDbSpline
70
4
71
3
72
11
73
7
40
0
40
0
40
0
40
0
40
0.0558574186571472
40
0.331669256416654
40
0.769926106518286
40
1
40
1
40
1
40
1
41
1
10
0.445277225885607
20
-17.1984554799941
30
0
41
1
10
0.445226417107378
20
-17.1955864416562
30
0
41
1
10
0.444154887660013
20
-17.1779799549074
30
0
41
1
10
0.428319243696318
20
-17.1260459000451
30
0
41
1
10
0.389574627313918
20
-17.05173580805
30
0
41
1
10
0.355913629967239
20
-16.9982689250171
30
0
41
1
10
0.343278579260325
20
-16.9794705811172
30
0
0
SPLINE
5
158
100
AcDbEntity
8
1
62
256
6
ByLayer
370
18
48
1
60
0
100
AcDbSpline
70
4
71
1
72
4
73
2
40
0
40
0
40
1
40
1
41
1
10
-0.325
20
-18.9249133089164
30
0
41
1
10
0.34327857925749
20
-19.5586932485776
30
0
0
SPLINE
5
159
100
AcDbEntity
8
1
62
256
6
ByLayer
370
18
48
1
60
0
100
AcDbSpline
70
4
71
1
72
4
73
2
40
0
40
0
40
1
40
1
41
1
10
-0.325
20
-17.536457559895
30
0
41
1
10
0.343278579257491
20
-18.408216543415
30
0
0
SPLINE
5
15A
100
AcDbEntity
8
1
62
256
6
ByLayer
370
18
48
1
60
0
100
AcDbSpline
70
4
71
1
72
4
73
2
40
0
40
0
40
1
40
1
41
1
10
-0.325
20
-16.6309904620861
30
0
41
1
10
0.34327857925749
20
-17.1811675775406
30
0
0
SPLINE
5
15B
100
AcDbEntity
8
1
62
256
6
ByLayer
370
18
48
1
60
0
100
AcDbSpline
70
4
71
1
72
4
73
2
40
0
40
0
40
1
40
1
41
1
10
-0.325
20
-11.8991530686011
30
0
41
1
10
0.343278579257491
20
-13.3683356695468
30
0
0
SPLINE
5
15C
100
AcDbEntity
8
1
62
256
6
ByLayer
370
18
48
1
60
0
100
AcDbSpline
70
4
71
3
72
14
73
10
40
0
40
0
40
0
40
0
40
0.0623103518216283
40
0.181656212535344
40
0.267605111190401
40
0.353625913065681
40
0.468506553391089
40
0.663555228059009
40
1
40
1
40
1
40
1
41
1
10
0.343278579240748
20
-9.76435133856305
30
0
41
1
10
0.347214695927326
20
-9.76839913165588
30
0
41
1
10
0.358845891290917
20
-9.77903269873497
30
0
41
1
10
0.377322319569326
20
-9.79145668898985
30
0
41
1
10
0.397002275760513
20
-9.79549683499391
30
0
41
1
10
0.413544611736595
20
-9.79012741167566
30
0
41
1
10
0.429836972413401
20
-9.77106934944367
30
0
41
1
10
0.443054992244434
20
-9.72507283744323
30
0
41
1
10
0.446902707930007
20
-9.68317315780632
30
0
41
1
10
0.445250819439456
20
-9.65319653452224
30
0
0
SPLINE
5
15D
100
AcDbEntity
8
1
62
256
6
ByLayer
370
18
48
1
60
0
100
AcDbSpline
70
4
71
3
72
12
73
8
40
0
40
0
40
0
40
0
40
0.218995280925032
40
0.439673309243023
40
0.665733571085285
40
0.893733023019197
40
1
40
1
40
1
40
1
41
1
10
10.1816919418788
20
-5.59899743523421
30
0
41
1
10
10.061092895243
20
-5.70432966355427
30
0
41
1
10
9.81861807353451
20
-5.92983592532795
30
0
41
1
10
9.44771316572461
20
-6.31468234956534
30
0
41
1
10
9.07622799835401
20
-6.74715098006546
30
0
41
1
10
8.77489636143584
20
-7.14108351647831
30
0
41
1
10
8.60044722260137
20
-7.39022487269538
30
0
41
1
10
8.54543602394057
20
-7.47090540428418
30
0
0
SPLINE
5
15E
100
AcDbEntity
8
1
62
256
6
ByLayer
370
18
48
1
60
0
100
AcDbSpline
70
4
71
3
72
10
73
6
40
0
40
0
40
0
40
0
40
0.0973687239807814
40
0.869350211749092
40
1
40
1
40
1
40
1
41
1
10
0.445250819439456
20
-9.65319653452224
30
0
41
1
10
0.444879249571744
20
-9.63674055698611
30
0
41
1
10
0.439277210114551
20
-9.48925615197943
30
0
41
1
10
0.39774604157695
20
-9.30463469041959
30
0
41
1
10
0.350538851777689
20
-9.14236623599245
30
0
41
1
10
0.343278579257555
20
-9.11879287402922
30
0
0
SPLINE
5
15F
100
AcDbEntity
8
1
62
256
6
ByLayer
370
18
48
1
60
0
100
AcDbSpline
70
4
71
3
72
12
73
8
40
0
40
0
40
0
40
0
40
0.282366226216491
40
0.498295959607046
40
0.670775837137999
40
0.844407616469854
40
1
40
1
40
1
40
1
41
1
10
11.7829861893593
20
-5.11201855647315
30
0
41
1
10
11.6956765558276
20
-5.108485270457
30
0
41
1
10
11.5535554120409
20
-5.09333435652625
30
0
41
1
10
11.3784884241218
20
-5.05164516922109
30
0
41
1
10
11.2686663597243
20
-5.0030533099141
30
0
41
1
10
11.2184605960833
20
-4.95182129022205
30
0
41
1
10
11.2253004564662
20
-4.92073692033911
30
0
41
1
10
11.236653218504
20
-4.90603878633184
30
0
0
SPLINE
5
160
100
AcDbEntity
8
1
62
256
6
ByLayer
370
18
48
1
60
0
100
AcDbSpline
70
4
71
3
72
11
73
7
40
0
40
0
40
0
40
0
40
0.119043251223616
40
0.389913838451935
40
0.789509952301265
40
1
40
1
40
1
40
1
41
1
10
0.44527834872284
20
-18.5821760187423
30
0
41
1
10
0.445121977203638
20
-18.578225165663
30
0
41
1
10
0.442778322425682
20
-18.5637923962997
30
0
41
1
10
0.42315980767439
20
-18.5215044891386
30
0
41
1
10
0.385493562221759
20
-18.4640799323163
30
0
41
1
10
0.354706973961004
20
-18.4228504719757
30
0
41
1
10
0.343278579257571
20
-18.4082165434148
30
0
0
SPLINE
5
161
100
AcDbEntity
8
1
62
256
6
ByLayer
370
18
48
1
60
0
100
AcDbSpline
70
4
71
1
72
4
73
2
40
0
40
0
40
1
40
1
41
1
10
-0.325
20
-18.9546127301509
30
0
41
1
10
0.343278579257491
20
-19.6464364834369
30
0
0
SPLINE
5
162
100
AcDbEntity
8
1
62
256
6
ByLayer
370
18
48
1
60
0
100
AcDbSpline
70
4
71
3
72
12
73
8
40
0
40
0
40
0
40
0
40
0.293885513933776
40
0.551583630341991
40
0.768298095454828
40
0.985598031296865
40
1
40
1
40
1
40
1
41
1
10
0.343278579257452
20
-19.340953677083
30
0
41
1
10
0.359327636723328
20
-19.3556655023031
30
0
41
1
10
0.386672782147687
20
-19.3794794312371
30
0
41
1
10
0.420081069610367
20
-19.4053624667613
30
0
41
1
10
0.440263916400309
20
-19.4165970325708
30
0
41
1
10
0.445141600358903
20
-19.4148321413422
30
0
41
1
10
0.445279018769174
20
-19.4115786999383
30
0
41
1
10
0.445278576731542
20
-19.4113671396395
30
0
0
SPLINE
5
163
100
AcDbEntity
8
1
62
256
6
ByLayer
370
18
48
1
60
0
100
AcDbSpline
70
4
71
1
72
4
73
2
40
0
40
0
40
1
40
1
41
1
10
-0.325
20
-17.9642657448057
30
0
41
1
10
0.34327857925749
20
-18.5373273217393
30
0
0
SPLINE
5
164
100
AcDbEntity
8
1
62
256
6
ByLayer
370
18
48
1
60
0
100
AcDbSpline
70
4
71
1
72
4
73
2
40
0
40
0
40
1
40
1
41
1
10
-0.325
20
-16.8327016176845
30
0
41
1
10
0.343278579257491
20
-17.7716749003053
30
0
0
SPLINE
5
165
100
AcDbEntity
8
1
62
256
6
ByLayer
370
18
48
1
60
0
100
AcDbSpline
70
4
71
3
72
12
73
8
40
0
40
0
40
0
40
0
40
0.179365425844851
40
0.38181569706361
40
0.585600282111735
40
0.761575933387334
40
1
40
1
40
1
40
1
41
1
10
0.343278579256898
20
-16.2549231580664
30
0
41
1
10
0.353231057005816
20
-16.2632052906845
30
0
41
1
10
0.373586207190959
20
-16.278058524467
30
0
41
1
10
0.403838683001082
20
-16.2938265615468
30
0
41
1
10
0.427565016982744
20
-16.2958160296083
30
0
41
1
10
0.442289253486506
20
-16.2832966139005
30
0
41
1
10
0.445629561941433
20
-16.2684065496649
30
0
41
1
10
0.445278549848733
20
-16.2572737352011
30
0
0
SPLINE
5
166
100
AcDbEntity
8
1
62
256
6
ByLayer
370
18
48
1
60
0
100
AcDbSpline
70
4
71
1
72
4
73
2
40
0
40
0
40
1
40
1
41
1
10
-0.325
20
-13.177721493111
30
0
41
1
10
0.34327857925749
20
-13.7398159364994
30
0
0
SPLINE
5
167
100
AcDbEntity
8
1
62
256
6
ByLayer
370
18
48
1
60
0
100
AcDbSpline
70
4
71
3
72
11
73
7
40
0
40
0
40
0
40
0
40
0.129986378109051
40
0.389616123972214
40
0.761365350322102
40
1
40
1
40
1
40
1
41
1
10
0.445278467199843
20
-19.0604083246194
30
0
41
1
10
0.445116242918297
20
-19.0571365934628
30
0
41
1
10
0.442621235730302
20
-19.045598795222
30
0
41
1
10
0.423556894287485
20
-19.0100938973368
30
0
41
1
10
0.386717274614254
20
-18.9585759137435
30
0
41
1
10
0.356229650754088
20
-18.9203822968807
30
0
41
1
10
0.343278579257765
20
-18.9048259409158
30
0
0
SPLINE
5
168
100
AcDbEntity
8
1
62
256
6
ByLayer
370
18
48
1
60
0
100
AcDbSpline
70
4
71
3
72
10
73
6
40
0
40
0
40
0
40
0
40
0.144664166532398
40
0.404927225093417
40
1
40
1
40
1
40
1
41
1
10
0.445254189009822
20
-6.25956455740034
30
0
41
1
10
0.445175073921616
20
-6.2167333037242
30
0
41
1
10
0.442535017866241
20
-6.09628248965111
30
0
41
1
10
0.41183938500945
20
-5.79256913480842
30
0
41
1
10
0.376339534954008
20
-5.53240657584607
30
0
41
1
10
0.343278579257492
20
-5.34998840487793
30
0
0
SPLINE
5
169
100
AcDbEntity
8
1
62
256
6
ByLayer
370
18
48
1
60
0
100
AcDbSpline
70
4
71
1
72
4
73
2
40
0
40
0
40
1
40
1
41
1
10
-0.325
20
-18.9990748130008
30
0
41
1
10
0.34327857925749
20
-19.6599204994536
30
0
0
SPLINE
5
16A
100
AcDbEntity
8
1
62
256
6
ByLayer
370
18
48
1
60
0
100
AcDbSpline
70
4
71
1
72
4
73
2
40
0
40
0
40
1
40
1
41
1
10
-0.325
20
-18.0890807878676
30
0
41
1
10
0.343278579257491
20
-18.9048259409171
30
0
0
SPLINE
5
16B
100
AcDbEntity
8
1
62
256
6
ByLayer
370
18
48
1
60
0
100
AcDbSpline
70
4
71
3
72
11
73
7
40
0
40
0
40
0
40
0
40
0.256994113055866
40
0.515846421436761
40
0.776481946548268
40
1
40
1
40
1
40
1
41
1
10
0.343278579257303
20
-17.9349522380299
30
0
41
1
10
0.355737109710144
20
-17.9455282908492
30
0
41
1
10
0.379223791752903
20
-17.9634617130083
30
0
41
1
10
0.412121386131651
20
-17.9829375822621
30
0
41
1
10
0.435068051489852
20
-17.9872990607334
30
0
41
1
10
0.442086401560303
20
-17.9809983414058
30
0
41
1
10
0.443840788339656
20
-17.9761761866833
30
0
0
SPLINE
5
16C
100
AcDbEntity
8
1
62
256
6
ByLayer
370
18
48
1
60
0
100
AcDbSpline
70
4
71
1
72
4
73
2
40
0
40
0
40
1
40
1
41
1
10
-0.325
20
-13.5564502636199
30
0
41
1
10
0.343278579257491
20
-14.8237109429722
30
0
0
SPLINE
5
16D
100
AcDbEntity
8
1
62
256
6
ByLayer
370
18
48
1
60
0
100
AcDbSpline
70
4
71
3
72
14
73
10
40
0
40
0
40
0
40
0
40
0.0951138196714201
40
0.251234824831265
40
0.368749334776943
40
0.4861140724125
40
0.656465668092954
40
0.947867871263834
40
1
40
1
40
1
40
1
41
1
10
0.343278579251497
20
-12.0130158376624
30
0
41
1
10
0.348910212672858
20
-12.018144316371
30
0
41
1
10
0.36373882928791
20
-12.0299280809997
30
0
41
1
10
0.386556132654234
20
-12.0424010202522
30
0
41
1
10
0.408246643388886
20
-12.0439969399759
30
0
41
1
10
0.425734644034435
20
-12.0348859932232
30
0
41
1
10
0.441054078202893
20
-12.0082505162581
30
0
41
1
10
0.444963169803966
20
-11.9754397641241
30
0
41
1
10
0.445304168214724
20
-11.9523608855338
30
0
41
1
10
0.44527669607777
20
-11.9487961174388
30
0
0
SPLINE
5
16E
100
AcDbEntity
8
1
62
256
6
ByLayer
370
18
48
1
60
0
100
AcDbSpline
70
4
71
1
72
4
73
2
40
0
40
0
40
1
40
1
41
1
10
-0.325
20
-5.49680304813625
30
0
41
1
10
0.34327857925749
20
-6.47090137540591
30
0
0
SPLINE
5
16F
100
AcDbEntity
8
1
62
256
6
ByLayer
370
18
48
1
60
0
100
AcDbSpline
70
4
71
3
72
19
73
15
40
0
40
0
40
0
40
0
40
0.0615957585908262
40
0.160239031192631
40
0.259634294066262
40
0.361046118064281
40
0.462452026245184
40
0.54737198823292
40
0.632279855850263
40
0.719251925662526
40
0.806200124092395
40
0.924334494253783
40
0.98487575942982
40
1
40
1
40
1
40
1
41
1
10
14.8371496713894
20
-5.26099424349307
30
0
41
1
10
14.6530119005396
20
-5.28718118839523
30
0
41
1
10
14.1797601275857
20
-5.36605796585359
30
0
41
1
10
13.4387669453927
20
-5.54042820706223
30
0
41
1
10
12.6154410133104
20
-5.80326336854418
30
0
41
1
10
11.811630180861
20
-6.13134356592751
30
0
41
1
10
11.070997540737
20
-6.50477298714569
30
0
41
1
10
10.3942966285418
20
-6.9107932194572
30
0
41
1
10
9.77373779406709
20
-7.34271911810185
30
0
41
1
10
9.17136343443627
20
-7.82748504367384
30
0
41
1
10
8.52236049519055
20
-8.43053913104995
30
0
41
1
10
7.97043562419362
20
-9.03903893511326
30
0
41
1
10
7.59984776934637
20
-9.51636653816949
30
0
41
1
10
7.46099521233619
20
-9.70740198426832
30
0
41
1
10
7.43346474542629
20
-9.74578835807504
30
0
0
SPLINE
5
170
100
AcDbEntity
8
1
62
256
6
ByLayer
370
18
48
1
60
0
100
AcDbSpline
70
4
71
3
72
11
73
7
40
0
40
0
40
0
40
0
40
0.0046144971206016
40
0.267804678343687
40
0.708008732143747
40
1
40
1
40
1
40
1
41
1
10
0.445278549848733
20
-16.2572737352011
30
0
41
1
10
0.445278113165042
20
-16.256985905268
30
0
41
1
10
0.445197089814697
20
-16.2402412678275
30
0
41
1
10
0.434050163267916
20
-16.1869489268442
30
0
41
1
10
0.395811157439258
20
-16.099886710878
30
0
41
1
10
0.359569176577504
20
-16.035017127777
30
0
41
1
10
0.343278579257492
20
-16.008510663641
30
0
0
SPLINE
5
171
100
AcDbEntity
8
1
62
256
6
ByLayer
370
18
48
1
60
0
100
AcDbSpline
70
4
71
2
72
6
73
3
40
0
40
0
40
0
40
1
40
1
40
1
41
1
10
0.343278579257491
20
9.11879287402913
30
0
41
1
10
-0.0372097028531944
20
7.88173052791113
30
0
41
1
10
-0.325
20
6.61172018086065
30
0
0
SPLINE
5
172
100
AcDbEntity
8
1
62
256
6
ByLayer
370
18
48
1
60
0
100
AcDbSpline
70
4
71
1
72
4
73
2
40
0
40
0
40
1
40
1
41
1
10
0.34327857925749
20
15.1245672474212
30
0
41
1
10
-0.325
20
14.576173837808
30
0
0
SPLINE
5
173
100
AcDbEntity
8
1
62
256
6
ByLayer
370
18
48
1
60
0
100
AcDbSpline
70
4
71
3
72
10
73
6
40
0
40
0
40
0
40
0
40
0.518472063503933
40
0.804388165633801
40
1
40
1
40
1
40
1
41
1
10
0.343278579257492
20
16.9794705811172
30
0
41
1
10
0.373154006176409
20
17.0233146114617
30
0
41
1
10
0.409283392479334
20
17.0861615294962
30
0
41
1
10
0.440133018209671
20
17.1601050191044
30
0
41
1
10
0.444724835053299
20
17.1881338076274
30
0
41
1
10
0.445278221262945
20
17.1986612353246
30
0
0
SPLINE
5
174
100
AcDbEntity
8
1
62
256
6
ByLayer
370
18
48
1
60
0
100
AcDbSpline
70
4
71
1
72
4
73
2
40
0
40
0
40
1
40
1
41
1
10
0.343278579257491
20
18.408216543415
30
0
41
1
10
-0.325
20
17.536457559895
30
0
0
SPLINE
5
175
100
AcDbEntity
8
1
62
256
6
ByLayer
370
18
48
1
60
0
100
AcDbSpline
70
4
71
1
72
4
73
2
40
0
40
0
40
1
40
1
41
1
10
0.34327857925749
20
19.5586932485776
30
0
41
1
10
-0.325
20
18.9249133089164
30
0
0
SPLINE
5
176
100
AcDbEntity
8
1
62
256
6
ByLayer
370
18
48
1
60
0
100
AcDbSpline
70
4
71
3
72
14
73
10
40
0
40
0
40
0
40
0
40
0.29955499368265
40
0.447283097936985
40
0.596044430847635
40
0.688952772893027
40
0.782416656876083
40
0.867545661811715
40
1
40
1
40
1
40
1
41
1
10
0.445270074839047
20
9.65592105805465
30
0
41
1
10
0.446192164981629
20
9.6817559410662
30
0
41
1
10
0.443491801190856
20
9.71727095479037
30
0
41
1
10
0.433535456889535
20
9.7604281394419
30
0
41
1
10
0.421216896446765
20
9.7834680950826
30
0
41
1
10
0.404473571750941
20
9.79444121536337
30
0
41
1
10
0.387118592193599
20
9.79454649011401
30
0
41
1
10
0.365809949670603
20
9.78467054375278
30
0
41
1
10
0.351744098655155
20
9.77332644485801
30
0
41
1
10
0.343278579257475
20
9.76435133857412
30
0
0
SPLINE
5
177
100
AcDbEntity
8
1
62
256
6
ByLayer
370
18
48
1
60
0
100
AcDbSpline
70
4
71
3
72
10
73
6
40
0
40
0
40
0
40
0
40
0.257610712860368
40
0.593713309956713
40
1
40
1
40
1
40
1
41
1
10
0.4042402470061
20
12.0428796777817
30
0
41
1
10
0.399510236992355
20
12.0431878708049
30
0
41
1
10
0.388275180658063
20
12.0421471858102
30
0
41
1
10
0.367009386405871
20
12.03220375203
30
0
41
1
10
0.351734972464634
20
12.0207974910253
30
0
41
1
10
0.343278579257489
20
12.0130158376653
30
0
0
SPLINE
5
178
100
AcDbEntity
8
1
62
256
6
ByLayer
370
18
48
1
60
0
100
AcDbSpline
70
4
71
3
72
13
73
9
40
0
40
0
40
0
40
0
40
0.0873567378933909
40
0.296858699425267
40
0.508074974959321
40
0.688110787978967
40
0.912198191365254
40
1
40
1
40
1
40
1
41
1
10
0.445276670197079
20
16.2567364954148
30
0
41
1
10
0.445339899564483
20
16.2606390439808
30
0
41
1
10
0.444580912207131
20
16.2729312134249
30
0
41
1
10
0.438424514079117
20
16.2898822237654
30
0
41
1
10
0.419738195308063
20
16.2967894116174
30
0
41
1
10
0.391459944511394
20
16.2886249735707
30
0
41
1
10
0.364940634042524
20
16.2719559799631
30
0
41
1
10
0.348088072645902
20
16.2588832613755
30
0
41
1
10
0.34327857924978
20
16.2549231580643
30
0
0
SPLINE
5
179
100
AcDbEntity
8
1
62
256
6
ByLayer
370
18
48
1
60
0
100
AcDbSpline
70
4
71
3
72
11
73
7
40
0
40
0
40
0
40
0
40
0.36564231631133
40
0.615102400289595
40
0.871291210391264
40
1
40
1
40
1
40
1
41
1
10
23.1939128546071
20
12.0096024089598
30
0
41
1
10
23.3180990154065
20
12.1099121199598
30
0
41
1
10
23.5324741636509
20
12.2860170060747
30
0
41
1
10
23.8529964736062
20
12.5558883250869
30
0
41
1
10
24.0884773697869
20
12.7586113115765
30
0
41
1
10
24.2297678511505
20
12.8815585994959
30
0
41
1
10
24.2769521661823
20
12.9227969147491
30
0
0
SPLINE
5
17A
100
AcDbEntity
8
1
62
256
6
ByLayer
370
18
48
1
60
0
100
AcDbSpline
70
4
71
3
72
11
73
7
40
0
40
0
40
0
40
0
40
0.264554630503613
40
0.534843262846663
40
0.765289203618367
40
1
40
1
40
1
40
1
41
1
10
24.0028569346093
20
14.3235445928533
30
0
41
1
10
23.8816937778446
20
14.3591212204887
30
0
41
1
10
23.6367168262876
20
14.4353426759343
30
0
41
1
10
23.2812009225461
20
14.5571899093177
30
0
41
1
10
22.9482367953747
20
14.6848389657951
30
0
41
1
10
22.7459489219335
20
14.7681194721516
30
0
41
1
10
22.6457223914612
20
14.8110977651683
30
0
0
SPLINE
5
17B
100
AcDbEntity
8
1
62
256
6
ByLayer
370
18
48
1
60
0
100
AcDbSpline
70
4
71
3
72
11
73
7
40
0
40
0
40
0
40
0
40
0.348035506515007
40
0.6400764642168
40
0.871815324061543
40
1
40
1
40
1
40
1
41
1
10
0.343278579257489
20
19.5180034570805
30
0
41
1
10
0.362416222255315
20
19.5385967369063
30
0
41
1
10
0.393343170400359
20
19.5729181572726
30
0
41
1
10
0.427810772268246
20
19.6138083693232
30
0
41
1
10
0.442967164178412
20
19.6348645808949
30
0
41
1
10
0.445169801744638
20
19.6404569289245
30
0
41
1
10
0.445278468411715
20
19.6418037281452
30
0
0
SPLINE
5
17C
100
AcDbEntity
8
1
62
256
6
ByLayer
370
18
48
1
60
0
100
AcDbSpline
70
4
71
3
72
15
73
11
40
0
40
0
40
0
40
0
40
0.323714811211511
40
0.610562841426996
40
0.702362206137266
40
0.758778713691708
40
0.804108471027044
40
0.849574306335182
40
0.905778779679079
40
1
40
1
40
1
40
1
41
1
10
0.4452547737749
20
6.25968037350797
30
0
41
1
10
0.446667218177822
20
6.29907080580901
30
0
41
1
10
0.443037668976162
20
6.36955049877399
30
0
41
1
10
0.433262501928636
20
6.45005417221286
30
0
41
1
10
0.415375424285033
20
6.49044068862495
30
0
41
1
10
0.403344579663186
20
6.50326430263807
30
0
41
1
10
0.391539766456007
20
6.50754502100806
30
0
41
1
10
0.378301546330507
20
6.50516162456158
30
0
41
1
10
0.361198151048713
20
6.49336664084895
30
0
41
1
10
0.349829838979072
20
6.48081043754057
30
0
41
1
10
0.343278579257354
20
6.47090137540585
30
0
0
SPLINE
5
17D
100
AcDbEntity
8
1
62
256
6
ByLayer
370
18
48
1
60
0
100
AcDbSpline
70
4
71
1
72
4
73
2
40
0
40
0
40
1
40
1
41
1
10
0.34327857925749
20
6.47090137540591
30
0
41
1
10
-0.325
20
5.49680304813625
30
0
0
SPLINE
5
17E
100
AcDbEntity
8
1
62
256
6
ByLayer
370
18
48
1
60
0
100
AcDbSpline
70
4
71
2
72
6
73
3
40
0
40
0
40
0
40
1
40
1
40
1
41
1
10
0.34327857925749
20
11.54046753934
30
0
41
1
10
0.437514128700349
20
11.7594541353348
30
0
41
1
10
0.44527689673248
20
11.9488597401227
30
0
0
SPLINE
5
17F
100
AcDbEntity
8
1
62
256
6
ByLayer
370
18
48
1
60
0
100
AcDbSpline
70
4
71
1
72
4
73
2
40
0
40
0
40
1
40
1
41
1
10
0.343278579257491
20
14.8237109429722
30
0
41
1
10
-0.325
20
13.5564502636199
30
0
0
SPLINE
5
180
100
AcDbEntity
8
1
62
256
6
ByLayer
370
18
48
1
60
0
100
AcDbSpline
70
4
71
1
72
4
73
2
40
0
40
0
40
1
40
1
41
1
10
0.34327857925749
20
17.93495223803
30
0
41
1
10
-0.325
20
17.3753372269432
30
0
0
SPLINE
5
181
100
AcDbEntity
8
1
62
256
6
ByLayer
370
18
48
1
60
0
100
AcDbSpline
70
4
71
3
72
11
73
7
40
0
40
0
40
0
40
0
40
0.428889305017764
40
0.71991619630175
40
0.948052780218003
40
1
40
1
40
1
40
1
41
1
10
0.343278579257493
20
18.9048259409171
30
0
41
1
10
0.367334862436482
20
18.9335752321486
30
0
41
1
10
0.401092964365653
20
18.9773880302465
30
0
41
1
10
0.434633759248648
20
19.0289537733588
30
0
41
1
10
0.444479936763295
20
19.0517797976306
30
0
41
1
10
0.445253882006703
20
19.0591109236254
30
0
41
1
10
0.445278234941448
20
19.0603637387078
30
0
0
SPLINE
5
182
100
AcDbEntity
8
1
62
256
6
ByLayer
370
18
48
1
60
0
100
AcDbSpline
70
4
71
3
72
13
73
9
40
0
40
0
40
0
40
0
40
0.0024029464344365
40
0.220422091102895
40
0.439620029841699
40
0.635378278972708
40
0.897417111562256
40
1
40
1
40
1
40
1
41
1
10
0.445278578418583
20
17.9666666294272
30
0
41
1
10
0.445278612290263
20
17.9667425564784
30
0
41
1
10
0.445260830136242
20
17.9736863103225
30
0
41
1
10
0.441798294547955
20
17.9845261716879
30
0
41
1
10
0.424758854576671
20
17.9867261735205
30
0
41
1
10
0.396546020232476
20
17.9748097612443
30
0
41
1
10
0.367884158535974
20
17.9549767034546
30
0
41
1
10
0.348768969724564
20
17.9395722557813
30
0
41
1
10
0.343278579251767
20
17.934952238028
30
0
0
SPLINE
5
183
100
AcDbEntity
8
1
62
256
6
ByLayer
370
18
48
1
60
0
100
AcDbSpline
70
4
71
3
72
12
73
8
40
0
40
0
40
0
40
0
40
0.0869922293587008
40
0.304723355848455
40
0.51049264101132
40
0.797151079008093
40
1
40
1
40
1
40
1
41
1
10
0.445278434846709
20
19.4113263027233
30
0
41
1
10
0.445289858870735
20
19.412627364029
30
0
41
1
10
0.44420124310925
20
19.4159873014852
30
0
41
1
10
0.435311474222774
20
19.4144768570078
30
0
41
1
10
0.411338334381414
20
19.3990917995989
30
0
41
1
10
0.37897806446434
20
19.3728484657292
30
0
41
1
10
0.354171820152453
20
19.3509139748601
30
0
41
1
10
0.34327857925749
20
19.340953677083
30
0
0
SPLINE
5
184
100
AcDbEntity
8
1
62
256
6
ByLayer
370
18
48
1
60
0
100
AcDbSpline
70
4
71
3
72
11
73
7
40
0
40
0
40
0
40
0
40
0.237639789405863
40
0.474810965323607
40
0.831854538681255
40
1
40
1
40
1
40
1
41
1
10
0.443577194443367
20
19.6431099144333
30
0
41
1
10
0.441116206772006
20
19.6425441575942
30
0
41
1
10
0.433194667655389
20
19.6381116559691
30
0
41
1
10
0.407086056006891
20
19.6171692747433
30
0
41
1
10
0.375030631595487
20
19.5884338474197
30
0
41
1
10
0.351214610342897
20
19.566201069071
30
0
41
1
10
0.343278579250221
20
19.5586932485726
30
0
0
SPLINE
5
185
100
AcDbEntity
8
1
62
256
6
ByLayer
370
18
48
1
60
0
100
AcDbSpline
70
4
71
3
72
11
73
7
40
0
40
0
40
0
40
0
40
0.225054688250432
40
0.458989385134078
40
0.8209763427946
40
1
40
1
40
1
40
1
41
1
10
0.444112102127747
20
19.7556952651756
30
0
41
1
10
0.442054461564025
20
19.7542448911453
30
0
41
1
10
0.434920996668378
20
19.7482423717984
30
0
41
1
10
0.409718864391168
20
19.7246804776829
30
0
41
1
10
0.376956840120321
20
19.692962624649
30
0
41
1
10
0.351945112403602
20
19.6684507021674
30
0
41
1
10
0.343278579251096
20
19.659920499448
30
0
0
SPLINE
5
186
100
AcDbEntity
8
1
62
256
6
ByLayer
370
18
48
1
60
0
100
AcDbSpline
70
4
71
3
72
11
73
7
40
0
40
0
40
0
40
0
40
0.264554630503611
40
0.534843262846661
40
0.765289203618366
40
1
40
1
40
1
40
1
41
1
10
21.836778311459
20
12.4971555812748
30
0
41
1
10
21.9498779315343
20
12.4485728596546
30
0
41
1
10
22.1829017740158
20
12.3530716184235
30
0
41
1
10
22.5324623764472
20
12.2216187725738
30
0
41
1
10
22.8735707535433
20
12.1071059966189
30
0
41
1
10
23.0866163427664
20
12.0411771645846
30
0
41
1
10
23.1939128546071
20
12.0096024089598
30
0
0
SPLINE
5
187
100
AcDbEntity
8
1
62
256
6
ByLayer
370
18
48
1
60
0
100
AcDbSpline
70
4
71
1
72
4
73
2
40
0
40
0
40
1
40
1
41
1
10
28.4474590271014
20
18.7234858361619
30
0
41
1
10
28.7044754931594
20
18.8283729286243
30
0
0
SPLINE
5
188
100
AcDbEntity
8
1
62
256
6
ByLayer
370
18
48
1
60
0
100
AcDbSpline
70
4
71
1
72
4
73
2
40
0
40
0
40
1
40
1
41
1
10
0.343278579257491
20
19.5180034570805
30
0
41
1
10
-0.325
20
18.7906850260974
30
0
0
SPLINE
5
189
100
AcDbEntity
8
1
62
256
6
ByLayer
370
18
48
1
60
0
100
AcDbSpline
70
4
71
3
72
13
73
9
40
0
40
0
40
0
40
0
40
0.495007406069556
40
0.646058807279768
40
0.846661626289996
40
0.915204513999168
40
0.984433183737017
40
1
40
1
40
1
40
1
41
1
10
6
20
7.83836717690616
30
0
41
1
10
5.99258105417693
20
8.01331528528418
30
0
41
1
10
6.02398926806962
20
8.23136401296492
30
0
41
1
10
6.12489631953047
20
8.50268143974258
30
0
41
1
10
6.20613531503568
20
8.62893847716367
30
0
41
1
10
6.3066495507236
20
8.69947646212533
30
0
41
1
10
6.36265986983249
20
8.71644162241377
30
0
41
1
10
6.3941545744595
20
8.71777896612732
30
0
41
1
10
6.4
20
8.71779788708134
30
0
0
SPLINE
5
18A
100
AcDbEntity
8
1
62
256
6
ByLayer
370
18
48
1
60
0
100
AcDbSpline
70
4
71
1
72
4
73
2
40
0
40
0
40
1
40
1
41
1
10
0.34327857925749
20
13.7398159364994
30
0
41
1
10
-0.325
20
13.177721493111
30
0
0
SPLINE
5
18B
100
AcDbEntity
8
1
62
256
6
ByLayer
370
18
48
1
60
0
100
AcDbSpline
70
4
71
3
72
10
73
6
40
0
40
0
40
0
40
0
40
0.559758535487875
40
0.830946843984538
40
1
40
1
40
1
40
1
41
1
10
0.34327857925749
20
16.008510663641
30
0
41
1
10
0.375835000962203
20
16.060685868099
30
0
41
1
10
0.412443345063806
20
16.1327878433733
30
0
41
1
10
0.441035997145792
20
16.2154682416438
30
0
41
1
10
0.444826546848865
20
16.2457297423429
30
0
41
1
10
0.445276670197079
20
16.2567364954148
30
0
0
SPLINE
5
18C
100
AcDbEntity
8
1
62
256
6
ByLayer
370
18
48
1
60
0
100
AcDbSpline
70
4
71
1
72
4
73
2
40
0
40
0
40
1
40
1
41
1
10
0.343278579257491
20
17.7716749003053
30
0
41
1
10
-0.325
20
16.8327016176845
30
0
0
SPLINE
5
18D
100
AcDbEntity
8
1
62
256
6
ByLayer
370
18
48
1
60
0
100
AcDbSpline
70
4
71
3
72
11
73
7
40
0
40
0
40
0
40
0
40
0.358759991097721
40
0.635283454213895
40
0.861255451520042
40
1
40
1
40
1
40
1
41
1
10
0.343278579257484
20
19.6464364834369
30
0
41
1
10
0.363063141795488
20
19.6667641633906
30
0
41
1
10
0.39371578918449
20
19.6986286683902
30
0
41
1
10
0.427776069172767
20
19.7349699059508
30
0
41
1
10
0.442851656513411
20
19.7520465092696
30
0
41
1
10
0.44518407609693
20
19.7555139734217
30
0
41
1
10
0.44527857854944
20
19.7560469117246
30
0
0
SPLINE
5
18E
100
AcDbEntity
8
1
62
256
6
ByLayer
370
18
48
1
60
0
100
AcDbSpline
70
4
71
3
72
10
73
6
40
0
40
0
40
0
40
0
40
0.215402768615149
40
0.632155040626746
40
1
40
1
40
1
40
1
41
1
10
0.400327262826621
20
13.771366314836
30
0
41
1
10
0.396563726062901
20
13.7707352845276
30
0
41
1
10
0.385302557483648
20
13.7678423389504
30
0
41
1
10
0.365655785286186
20
13.7573125319588
30
0
41
1
10
0.350489469226698
20
13.7459997836923
30
0
41
1
10
0.34327857925749
20
13.7398159364994
30
0
0
SPLINE
5
18F
100
AcDbEntity
8
1
62
256
6
ByLayer
370
18
48
1
60
0
100
AcDbSpline
70
4
71
3
72
13
73
9
40
0
40
0
40
0
40
0
40
0.159607261867459
40
0.349187474989693
40
0.540335686645982
40
0.708570849644272
40
0.906245943310002
40
1
40
1
40
1
40
1
41
1
10
0.445268008465127
20
15.107879944568
30
0
41
1
10
0.445533112871725
20
15.1163304117451
30
0
41
1
10
0.444034984519167
20
15.1327570849862
30
0
41
1
10
0.435734230516093
20
15.1531534626684
30
0
41
1
10
0.417359714532144
20
15.1621557382585
30
0
41
1
10
0.3903888261866
20
15.1565162597864
30
0
41
1
10
0.364703298214654
20
15.1413052454818
30
0
41
1
10
0.348542417143026
20
15.1289371124836
30
0
41
1
10
0.343278579223907
20
15.1245672474115
30
0
0
SPLINE
5
190
100
AcDbEntity
8
1
62
256
6
ByLayer
370
18
48
1
60
0
100
AcDbSpline
70
4
71
1
72
4
73
2
40
0
40
0
40
1
40
1
41
1
10
30.884076280384
20
20.8048806954128
30
0
41
1
10
30.7919705528522
20
20.5885020384359
30
0
0
SPLINE
5
191
100
AcDbEntity
8
1
62
256
6
ByLayer
370
18
48
1
60
0
100
AcDbSpline
70
4
71
2
72
6
73
3
40
0
40
0
40
0
40
1
40
1
40
1
41
1
10
28.4666398550493
20
19.8380825913215
30
0
41
1
10
28.3909241088983
20
19.7867462474989
30
0
41
1
10
28.3213002584427
20
19.7281173888704
30
0
0
SPLINE
5
192
100
AcDbEntity
8
1
62
256
6
ByLayer
370
18
48
1
60
0
100
AcDbSpline
70
4
71
1
72
4
73
2
40
0
40
0
40
1
40
1
41
1
10
0.34327857925749
20
19.340953677083
30
0
41
1
10
-0.325
20
18.7307192534083
30
0
0
SPLINE
5
193
100
AcDbEntity
8
1
62
256
6
ByLayer
370
18
48
1
60
0
100
AcDbSpline
70
4
71
3
72
10
73
6
40
0
40
0
40
0
40
0
40
0.651018237634394
40
0.941688302691964
40
1
40
1
40
1
40
1
41
1
10
0.343278579257492
20
9.11879287402913
30
0
41
1
10
0.382101841517206
20
9.23907725816406
30
0
41
1
10
0.421163780593169
20
9.40863650215755
30
0
41
1
10
0.443767068358767
20
9.5868353037237
30
0
41
1
10
0.445166123407124
20
9.64607128163213
30
0
41
1
10
0.445270074839047
20
9.65592105805466
30
0
0
SPLINE
5
194
100
AcDbEntity
8
1
62
256
6
ByLayer
370
18
48
1
60
0
100
AcDbSpline
70
4
71
1
72
4
73
2
40
0
40
0
40
1
40
1
41
1
10
0.343278579257491
20
13.3683356695468
30
0
41
1
10
-0.325
20
11.8991530686011
30
0
0
SPLINE
5
195
100
AcDbEntity
8
1
62
256
6
ByLayer
370
18
48
1
60
0
100
AcDbSpline
70
4
71
1
72
4
73
2
40
0
40
0
40
1
40
1
41
1
10
0.34327857925749
20
17.1811675775406
30
0
41
1
10
-0.325
20
16.6309904620861
30
0
0
SPLINE
5
196
100
AcDbEntity
8
1
62
256
6
ByLayer
370
18
48
1
60
0
100
AcDbSpline
70
4
71
3
72
11
73
7
40
0
40
0
40
0
40
0
40
0.455277467965036
40
0.748092018745085
40
0.975425944721854
40
1
40
1
40
1
40
1
41
1
10
0.343278579257492
20
18.408216543415
30
0
41
1
10
0.369026073613003
20
18.4409191423207
30
0
41
1
10
0.403746503369582
20
18.4900822569192
30
0
41
1
10
0.436759025524846
20
18.5483177102067
30
0
41
1
10
0.444919717714683
20
18.5731380551661
30
0
41
1
10
0.445271557367966
20
18.5814001836208
30
0
41
1
10
0.445278373861641
20
18.582182295171
30
0
0
SPLINE
5
197
100
AcDbEntity
8
1
62
256
6
ByLayer
370
18
48
1
60
0
100
AcDbSpline
70
4
71
1
72
4
73
2
40
0
40
0
40
1
40
1
41
1
10
0.343278579257491
20
19.2723234562802
30
0
41
1
10
-0.325
20
18.5041169405622
30
0
0
SPLINE
5
198
100
AcDbEntity
8
1
62
256
6
ByLayer
370
18
48
1
60
0
100
AcDbSpline
70
4
71
3
72
11
73
7
40
0
40
0
40
0
40
0
40
0.128709280716948
40
0.378483359330418
40
0.634356346932
40
1
40
1
40
1
40
1
41
1
10
22.6457223914612
20
14.8110977651683
30
0
41
1
10
22.598539324521
20
14.769861020702
30
0
41
1
10
22.4595975354672
20
14.6489573023648
30
0
41
1
10
22.2241967342849
20
14.4462621749518
30
0
41
1
10
21.9034664196288
20
14.1761401330111
30
0
41
1
10
21.6868812035605
20
13.9982212477285
30
0
41
1
10
21.562683079886
20
13.897903259379
30
0
0
SPLINE
5
199
100
AcDbEntity
8
1
62
256
6
ByLayer
370
18
48
1
60
0
100
AcDbSpline
70
4
71
3
72
11
73
7
40
0
40
0
40
0
40
0
40
0.335803928316639
40
0.644688862436801
40
0.882105351003149
40
1
40
1
40
1
40
1
41
1
10
0.343278579257489
20
19.2723234562802
30
0
41
1
10
0.361724512446024
20
19.2932157893378
30
0
41
1
10
0.392979421002151
20
19.3302981334022
30
0
41
1
10
0.427886283965296
20
19.3761074374814
30
0
41
1
10
0.443118682626497
20
19.4014992680017
30
0
41
1
10
0.445169825212165
20
19.4092708404394
30
0
41
1
10
0.445278434846709
20
19.4113263027233
30
0
0
SPLINE
5
19A
100
AcDbEntity
8
1
62
256
6
ByLayer
370
18
48
1
60
0
100
AcDbSpline
70
4
71
2
72
6
73
3
40
0
40
0
40
0
40
1
40
1
40
1
41
1
10
19.3989829034886
20
20.8513740490133
30
0
41
1
10
13.1194901165714
20
19.972218637126
30
0
41
1
10
6.875
20
18.9226017796866
30
0
0
SPLINE
5
19B
100
AcDbEntity
8
1
62
256
6
ByLayer
370
18
48
1
60
0
100
AcDbSpline
70
4
71
1
72
4
73
2
40
0
40
0
40
1
40
1
41
1
10
0.34327857925749
20
12.0130158376653
30
0
41
1
10
-0.325
20
11.416647658135
30
0
0
SPLINE
5
19C
100
AcDbEntity
8
1
62
256
6
ByLayer
370
18
48
1
60
0
100
AcDbSpline
70
4
71
3
72
10
73
6
40
0
40
0
40
0
40
0
40
0.519972815659763
40
0.811096427693672
40
1
40
1
40
1
40
1
41
1
10
0.34327857925749
20
14.8237109429722
30
0
41
1
10
0.373158401212094
20
14.8772801513825
30
0
41
1
10
0.409492882502975
20
14.9569864428823
30
0
41
1
10
0.439827846720285
20
15.0528272249789
30
0
41
1
10
0.444582505623643
20
15.0927809032537
30
0
41
1
10
0.445268008465127
20
15.107879944568
30
0
0
SPLINE
5
19D
100
AcDbEntity
8
1
62
256
6
ByLayer
370
18
48
1
60
0
100
AcDbSpline
70
4
71
1
72
4
73
2
40
0
40
0
40
1
40
1
41
1
10
0.343278579257491
20
16.9794705811172
30
0
41
1
10
-0.325
20
15.9578301704837
30
0
0
SPLINE
5
19E
100
AcDbEntity
8
1
62
256
6
ByLayer
370
18
48
1
60
0
100
AcDbSpline
70
4
71
1
72
4
73
2
40
0
40
0
40
1
40
1
41
1
10
0.34327857925749
20
19.0026970897866
30
0
41
1
10
-0.325
20
18.4126951788705
30
0
0
SPLINE
5
19F
100
AcDbEntity
8
1
62
256
6
ByLayer
370
18
48
1
60
0
100
AcDbSpline
70
4
71
3
72
12
73
8
40
0
40
0
40
0
40
0
40
0.0927293581284036
40
0.47084785662948
40
0.741786882656663
40
0.93848153444938
40
1
40
1
40
1
40
1
41
1
10
0.44527689673248
20
11.9488597401227
30
0
41
1
10
0.445308180126559
20
11.9530012942195
30
0
41
1
10
0.444950323103559
20
11.9736361379217
30
0
41
1
10
0.441396397271773
20
12.0044517905255
30
0
41
1
10
0.428610603639775
20
12.0317624045306
30
0
41
1
10
0.414619468800864
20
12.04124622792
30
0
41
1
10
0.406307895816312
20
12.0426888756106
30
0
41
1
10
0.4042402470061
20
12.0428796777817
30
0
0
SPLINE
5
1A0
100
AcDbEntity
8
1
62
256
6
ByLayer
370
18
48
1
60
0
100
AcDbSpline
70
4
71
3
72
13
73
9
40
0
40
0
40
0
40
0
40
0.0414554286393899
40
0.25728812141901
40
0.474594288463928
40
0.663371611005828
40
0.908281117885489
40
1
40
1
40
1
40
1
41
1
10
0.445278221262945
20
17.1986612353246
30
0
41
1
10
0.445290471540199
20
17.2002303990524
30
0
41
1
10
0.44495668297683
20
17.2095582320094
30
0
41
1
10
0.440223987855061
20
17.2232262883632
30
0
41
1
10
0.422160539089438
20
17.2276881015109
30
0
41
1
10
0.393668585324255
20
17.2175459167364
30
0
41
1
10
0.366115692588833
20
17.1993747953103
30
0
41
1
10
0.348231995837728
20
17.1852712862034
30
0
41
1
10
0.343278579252597
20
17.1811675775391
30
0
0
SPLINE
5
1A1
100
AcDbEntity
8
1
62
256
6
ByLayer
370
18
48
1
60
0
100
AcDbSpline
70
4
71
3
72
12
73
8
40
0
40
0
40
0
40
0
40
0.155910042952658
40
0.372034981492145
40
0.576306221690004
40
0.864098914271452
40
1
40
1
40
1
40
1
41
1
10
0.445278234941448
20
19.0603637387078
30
0
41
1
10
0.445314636505355
20
19.0636520292092
30
0
41
1
10
0.443008492725858
20
19.0688639700201
30
0
41
1
10
0.429942636236085
20
19.067136464836
30
0
41
1
10
0.403152930296954
20
19.0516401102048
30
0
41
1
10
0.372384899069929
20
19.0278297392994
30
0
41
1
10
0.350526580265169
20
19.009108260593
30
0
41
1
10
0.343278579244022
20
19.0026970897806
30
0
0
SPLINE
5
1A2
100
AcDbEntity
8
1
62
256
6
ByLayer
370
18
48
1
60
0
100
AcDbSpline
70
4
71
3
72
11
73
7
40
0
40
0
40
0
40
0
40
0.264554630503614
40
0.534843262846663
40
0.765289203618366
40
1
40
1
40
1
40
1
41
1
10
21.562683079886
20
13.897903259379
30
0
41
1
10
21.5823078864885
20
13.7705046672906
30
0
41
1
10
21.6246013207281
20
13.5141838149596
30
0
41
1
10
21.6928244619223
20
13.1455135189871
30
0
41
1
10
21.7649664993656
20
12.8042143457261
30
0
41
1
10
21.8122870063745
20
12.5985498338027
30
0
41
1
10
21.836778311459
20
12.4971555812748
30
0
0
SPLINE
5
1A3
100
AcDbEntity
8
1
62
256
6
ByLayer
370
18
48
1
60
0
100
AcDbSpline
70
4
71
3
72
10
73
6
40
0
40
0
40
0
40
0
40
0.373562299847986
40
0.90007276759992
40
1
40
1
40
1
40
1
41
1
10
0.343278579257492
20
5.34998840487793
30
0
41
1
10
0.363838197270983
20
5.46424197604529
30
0
41
1
10
0.405239346638612
20
5.73819331918356
30
0
41
1
10
0.4404944130617
20
6.04371842445938
30
0
41
1
10
0.444858120752446
20
6.23002569633092
30
0
41
1
10
0.4452547737749
20
6.25968037350797
30
0
0
SPLINE
5
1A4
100
AcDbEntity
8
1
62
256
6
ByLayer
370
18
48
1
60
0
100
AcDbSpline
70
4
71
1
72
4
73
2
40
0
40
0
40
1
40
1
41
1
10
0.343278579257491
20
11.54046753934
30
0
41
1
10
-0.325
20
9.74178339679137
30
0
0
SPLINE
5
1A5
100
AcDbEntity
8
1
62
256
6
ByLayer
370
18
48
1
60
0
100
AcDbSpline
70
4
71
1
72
4
73
2
40
0
40
0
40
1
40
1
41
1
10
0.34327857925749
20
16.2549231580666
30
0
41
1
10
-0.325
20
15.709148409446
30
0
0
SPLINE
5
1A6
100
AcDbEntity
8
1
62
256
6
ByLayer
370
18
48
1
60
0
100
AcDbSpline
70
4
71
3
72
10
73
6
40
0
40
0
40
0
40
0
40
0.484210272283977
40
0.775759891235527
40
1
40
1
40
1
40
1
41
1
10
0.343278579257491
20
17.7716749003053
30
0
41
1
10
0.370934683219426
20
17.8092687365537
30
0
41
1
10
0.406316377930558
20
17.8644963146343
30
0
41
1
10
0.439142429592592
20
17.9312355204878
30
0
41
1
10
0.444593960116143
20
17.9567526878108
30
0
41
1
10
0.445278578418583
20
17.9666666294272
30
0
0
SPLINE
5
1A7
100
AcDbEntity
8
1
62
256
6
ByLayer
370
18
48
1
60
0
100
AcDbSpline
70
4
71
1
72
4
73
2
40
0
40
0
40
1
40
1
41
1
10
0.343278579257491
20
18.9048259409171
30
0
41
1
10
-0.325
20
18.0890807878676
30
0
0
SPLINE
5
1A8
100
AcDbEntity
8
1
62
256
6
ByLayer
370
18
48
1
60
0
100
AcDbSpline
70
4
71
1
72
4
73
2
40
0
40
0
40
1
40
1
41
1
10
0.34327857925749
20
19.6599204994536
30
0
41
1
10
-0.325
20
18.9990748130008
30
0
0
SPLINE
5
1A9
100
AcDbEntity
8
1
62
256
6
ByLayer
370
18
48
1
60
0
100
AcDbSpline
70
4
71
3
72
12
73
8
40
0
40
0
40
0
40
0
40
0.187849722396691
40
0.406096222995463
40
0.606677343088098
40
0.882425202251427
40
1
40
1
40
1
40
1
41
1
10
0.445278373861641
20
18.582182295171
30
0
41
1
10
0.445354275577668
20
18.5873012849739
30
0
41
1
10
0.442418788951861
20
18.5948579492663
30
0
41
1
10
0.427384545505847
20
18.5950746114101
30
0
41
1
10
0.399754942026281
20
18.581362677502
30
0
41
1
10
0.370009658106184
20
18.5596731755941
30
0
41
1
10
0.349555716539089
20
18.5427287095626
30
0
41
1
10
0.343278579248931
20
18.5373273217359
30
0
0
SPLINE
5
1AA
100
AcDbEntity
8
1
62
256
6
ByLayer
370
18
48
1
60
0
100
AcDbSpline
70
4
71
1
72
4
73
2
40
0
40
0
40
1
40
1
41
1
10
29.3447331797375
20
18.0872148448348
30
0
41
1
10
29.2358346370587
20
17.8641646188229
30
0
0
SPLINE
5
1AB
100
AcDbEntity
8
1
62
256
6
ByLayer
370
18
48
1
60
0
100
AcDbSpline
70
4
71
2
72
6
73
3
40
0
40
0
40
0
40
1
40
1
40
1
41
1
10
31.1878001622217
20
17.9035861596168
30
0
41
1
10
31.2245538518795
20
18.0313601438515
30
0
41
1
10
31.2429376767666
20
18.1638826976638
30
0
0
SPLINE
5
1AC
100
AcDbEntity
8
1
62
256
6
ByLayer
370
18
48
1
60
0
100
AcDbSpline
70
4
71
1
72
4
73
2
40
0
40
0
40
1
40
1
41
1
10
0.34327857925749
20
9.76435133857411
30
0
41
1
10
-0.325
20
9.08445616148815
30
0
0
SPLINE
5
1AD
100
AcDbEntity
8
1
62
256
6
ByLayer
370
18
48
1
60
0
100
AcDbSpline
70
4
71
3
72
10
73
6
40
0
40
0
40
0
40
0
40
0.656803858759671
40
0.992209999913101
40
1
40
1
40
1
40
1
41
1
10
0.343278579257491
20
13.3683356695468
30
0
41
1
10
0.383346644876841
20
13.4481664582863
30
0
41
1
10
0.424160423914365
20
13.5603947550811
30
0
41
1
10
0.445103440378738
20
13.6702822609787
30
0
41
1
10
0.445277002774481
20
13.7031393535352
30
0
41
1
10
0.445278504389573
20
13.7038837939876
30
0
0
SPLINE
5
1AE
100
AcDbEntity
8
1
62
256
6
ByLayer
370
18
48
1
60
0
100
AcDbSpline
70
4
71
1
72
4
73
2
40
0
40
0
40
1
40
1
41
1
10
0.343278579257491
20
16.008510663641
30
0
41
1
10
-0.325
20
14.8816949219503
30
0
0
SPLINE
5
1AF
100
AcDbEntity
8
1
62
256
6
ByLayer
370
18
48
1
60
0
100
AcDbSpline
70
4
71
1
72
4
73
2
40
0
40
0
40
1
40
1
41
1
10
0.34327857925749
20
18.5373273217393
30
0
41
1
10
-0.325
20
17.9642657448057
30
0
0
SPLINE
5
1B0
100
AcDbEntity
8
1
62
256
6
ByLayer
370
18
48
1
60
0
100
AcDbSpline
70
4
71
1
72
4
73
2
40
0
40
0
40
1
40
1
41
1
10
0.343278579257491
20
19.6464364834369
30
0
41
1
10
-0.325
20
18.9546127301509
30
0
0
SPLINE
5
1B1
100
AcDbEntity
8
1
62
256
6
ByLayer
370
18
48
1
60
0
100
AcDbSpline
70
4
71
3
72
11
73
7
40
0
40
0
40
0
40
0
40
0.32112948580626
40
0.664660234010775
40
0.887736079927318
40
1
40
1
40
1
40
1
41
1
10
0.445278504389573
20
13.7038837939876
30
0
41
1
10
0.445688851265104
20
13.7167474564222
30
0
41
1
10
0.443056919037478
20
13.7398108419285
30
0
41
1
10
0.431801172553047
20
13.764646490319
30
0
41
1
10
0.414544732245253
20
13.7723314667557
30
0
41
1
10
0.404076025230893
20
13.7719308784024
30
0
41
1
10
0.400327262826621
20
13.771366314836
30
0
0
SPLINE
5
1B2
100
AcDbEntity
8
1
62
256
6
ByLayer
370
18
48
1
60
0
100
AcDbSpline
70
4
71
3
72
11
73
7
40
0
40
0
40
0
40
0
40
0.264554630503613
40
0.534843262846663
40
0.765289203618368
40
1
40
1
40
1
40
1
41
1
10
24.2769521661823
20
12.9227969147491
30
0
41
1
10
24.2492638228904
20
13.0371894128527
30
0
41
1
10
24.1950172795753
20
13.2742304793982
30
0
41
1
10
24.1208388370711
20
13.6332951629043
30
0
41
1
10
24.0568410495524
20
13.9877306166879
30
0
41
1
10
24.0202782583254
20
14.2107468029335
30
0
41
1
10
24.0028569346093
20
14.3235445928533
30
0
0
SPLINE
5
1B3
100
AcDbEntity
8
1
62
256
6
ByLayer
370
18
48
1
60
0
100
AcDbSpline
70
4
71
1
72
4
73
2
40
0
40
0
40
1
40
1
41
1
10
31.4322282394303
20
19.8473439546463
30
0
41
1
10
31.6874569444341
20
19.8748925265814
30
0
0
SPLINE
5
1B4
100
AcDbEntity
8
1
62
256
6
ByLayer
370
18
48
1
60
0
100
AcDbSpline
70
4
71
1
72
4
73
2
40
0
40
0
40
1
40
1
41
1
10
28.2661663898004
20
19.6599557883186
30
0
41
1
10
28.3213002584429
20
19.7281173888714
30
0
0
SPLINE
5
1B5
100
AcDbEntity
8
1
62
256
6
ByLayer
370
18
48
1
60
0
100
AcDbSpline
70
4
71
3
72
13
73
9
40
0
40
0
40
0
40
0
40
0.207438039460519
40
0.416274474974625
40
0.629718048959344
40
0.737283553742756
40
0.844850323786195
40
1
40
1
40
1
40
1
41
1
10
0.343278579257491
20
5.34998840487793
30
0
41
1
10
0.21450564986732
20
4.61831987097275
30
0
41
1
10
0.0093632726892046
20
3.14355578497432
30
0
41
1
10
-0.142590593077835
20
0.886004580706271
30
0
41
1
10
-0.126728631207391
20
-1.01860707860907
30
0
41
1
10
-0.0266272122474295
20
-2.55327635307177
30
0
41
1
10
0.109554434618213
20
-3.87392140567373
30
0
41
1
10
0.247350709853289
20
-4.80340082885367
30
0
41
1
10
0.343278579257494
20
-5.34998840487793
30
0
0
LINE
5
70
100
AcDbEntity
8
1
62
256
6
ByLayer
370
18
48
1
60
0
100
AcDbLine
10
-0.325
20
-17.375337
30
0
11
-0.325
21
-17.536458
31
0
39
0
210
0
220
0
230
1
0
LINE
5
72
100
AcDbEntity
8
1
62
256
6
ByLayer
370
18
48
1
60
0
100
AcDbLine
10
-0.325
20
-11.416648
30
0
11
-0.325
21
-11.899153
31
0
39
0
210
0
220
0
230
1
0
LINE
5
73
100
AcDbEntity
8
1
62
256
6
ByLayer
370
18
48
1
60
0
100
AcDbLine
10
0.675
20
-20
30
0
11
4.996228
21
-20
31
0
39
0
210
0
220
0
230
1
0
LINE
5
74
100
AcDbEntity
8
1
62
256
6
ByLayer
370
18
48
1
60
0
100
AcDbLine
10
0.343279
20
-18.537327
30
0
11
0.343279
21
-18.408217
31
0
39
0
210
0
220
0
230
1
0
LINE
5
75
100
AcDbEntity
8
1
62
256
6
ByLayer
370
18
48
1
60
0
100
AcDbLine
10
-0.325
20
-18.924913
30
0
11
-0.325
21
-18.790685
31
0
39
0
210
0
220
0
230
1
0
LINE
5
76
100
AcDbEntity
8
SK1
62
256
6
ByLayer
370
18
48
1
60
0
100
AcDbLine
10
-3.825
20
-2.65359
30
0
11
-3.825
21
0
31
0
39
0
210
0
220
0
230
1
0
LINE
5
78
100
AcDbEntity
8
1
62
256
6
ByLayer
370
18
48
1
60
0
100
AcDbLine
10
-0.325
20
-18.924913
30
0
11
-0.325
21
-18.954613
31
0
39
0
210
0
220
0
230
1
0
LINE
5
79
100
AcDbEntity
8
1
62
256
6
ByLayer
370
18
48
1
60
0
100
AcDbLine
10
-0.325
20
-16.63099
30
0
11
-0.325
21
-16.832702
31
0
39
0
210
0
220
0
230
1
0
LINE
5
7A
100
AcDbEntity
8
1
62
256
6
ByLayer
370
18
48
1
60
0
100
AcDbLine
10
10.732163
20
-4.711114
30
0
11
10.181692
21
-5.598997
31
0
39
0
210
0
220
0
230
1
0
LINE
5
7B
100
AcDbEntity
8
1
62
256
6
ByLayer
370
18
48
1
60
0
100
AcDbLine
10
18.308152
20
2.597717
30
0
11
17.083861
21
0.622995
31
0
39
0
210
0
220
0
230
1
0
LINE
5
7C
100
AcDbEntity
8
1
62
256
6
ByLayer
370
18
48
1
60
0
100
AcDbLine
10
-0.325
20
-17.375337
30
0
11
-0.325
21
-16.832702
31
0
39
0
210
0
220
0
230
1
0
LINE
5
7D
100
AcDbEntity
8
1
62
256
6
ByLayer
370
18
48
1
60
0
100
AcDbLine
10
0.343279
20
-19.002697
30
0
11
0.343279
21
-18.904826
31
0
39
0
210
0
220
0
230
1
0
LINE
5
7E
100
AcDbEntity
8
SK1
62
256
6
ByLayer
370
18
48
1
60
0
100
AcDbLine
10
-3.225
20
-3
30
0
11
-0.325
21
-3
31
0
39
0
210
0
220
0
230
1
0
LINE
5
7F
100
AcDbEntity
8
1
62
256
6
ByLayer
370
18
48
1
60
0
100
AcDbLine
10
-0.325
20
-17.964266
30
0
11
-0.325
21
-18.089081
31
0
39
0
210
0
220
0
230
1
0
LINE
5
80
100
AcDbEntity
8
1
62
256
6
ByLayer
370
18
48
1
60
0
100
AcDbLine
10
-0.325
20
-13.177721
30
0
11
-0.325
21
-13.55645
31
0
39
0
210
0
220
0
230
1
0
LINE
5
81
100
AcDbEntity
8
1
62
256
6
ByLayer
370
18
48
1
60
0
100
AcDbLine
10
5.416674
20
-15.194277
30
0
11
4.996228
21
-20
31
0
39
0
210
0
220
0
230
1
0
LINE
5
82
100
AcDbEntity
8
1
62
256
6
ByLayer
370
18
48
1
60
0
100
AcDbLine
10
-0.325
20
-9.084456
30
0
11
-0.325
21
-6.61172
31
0
39
0
210
0
220
0
230
1
0
LINE
5
83
100
AcDbEntity
8
1
62
256
6
ByLayer
370
18
48
1
60
0
100
AcDbLine
10
-0.325
20
-11.416648
30
0
11
-0.325
21
-9.741783
31
0
39
0
210
0
220
0
230
1
0
LINE
5
84
100
AcDbEntity
8
1
62
256
6
ByLayer
370
18
48
1
60
0
100
AcDbLine
10
0.343279
20
-16.254923
30
0
11
0.343279
21
-16.008511
31
0
39
0
210
0
220
0
230
1
0
LINE
5
85
100
AcDbEntity
8
SK1
62
256
6
ByLayer
370
18
48
1
60
0
100
AcDbLine
10
-3.225
20
3
30
0
11
-3.225
21
0
31
0
39
0
210
0
220
0
230
1
0
LINE
5
86
100
AcDbEntity
8
SK1
62
256
6
ByLayer
370
18
48
1
60
0
100
AcDbLine
10
-3.825
20
0
30
0
11
-3.825
21
2.65359
31
0
39
0
210
0
220
0
230
1
0
LINE
5
87
100
AcDbEntity
8
1
62
256
6
ByLayer
370
18
48
1
60
0
100
AcDbLine
10
-0.325
20
-18.999075
30
0
11
-0.325
21
-19
31
0
39
0
210
0
220
0
230
1
0
LINE
5
88
100
AcDbEntity
8
1
62
256
6
ByLayer
370
18
48
1
60
0
100
AcDbLine
10
-0.325
20
-5.496803
30
0
11
-0.325
21
-6.61172
31
0
39
0
210
0
220
0
230
1
0
LINE
5
89
100
AcDbEntity
8
1
62
256
6
ByLayer
370
18
48
1
60
0
100
AcDbLine
10
0.343279
20
-9.764351
30
0
11
0.343279
21
-9.118793
31
0
39
0
210
0
220
0
230
1
0
LINE
5
8A
100
AcDbEntity
8
1
62
256
6
ByLayer
370
18
48
1
60
0
100
AcDbLine
10
0.343279
20
-12.013016
30
0
11
0.343279
21
-11.540468
31
0
39
0
210
0
220
0
230
1
0
LINE
5
8B
100
AcDbEntity
8
1
62
256
6
ByLayer
370
18
48
1
60
0
100
AcDbLine
10
0.343279
20
-17.934952
30
0
11
0.343279
21
-17.771675
31
0
39
0
210
0
220
0
230
1
0
LINE
5
8C
100
AcDbEntity
8
1
62
256
6
ByLayer
370
18
48
1
60
0
100
AcDbLine
10
23.374816
20
-5.152991
30
0
11
16.374816
21
-5.152991
31
0
39
0
210
0
220
0
230
1
0
LINE
5
8D
100
AcDbEntity
8
1
62
256
6
ByLayer
370
18
48
1
60
0
100
AcDbLine
10
-0.325
20
-18.412695
30
0
11
-0.325
21
-18.089081
31
0
39
0
210
0
220
0
230
1
0
LINE
5
8E
100
AcDbEntity
8
1
62
256
6
ByLayer
370
18
48
1
60
0
100
AcDbLine
10
-0.325
20
-18.730719
30
0
11
-0.325
21
-18.504117
31
0
39
0
210
0
220
0
230
1
0
LINE
5
8F
100
AcDbEntity
8
1
62
256
6
ByLayer
370
18
48
1
60
0
100
AcDbLine
10
-0.325
20
-18.999075
30
0
11
-0.325
21
-18.954613
31
0
39
0
210
0
220
0
230
1
0
LINE
5
90
100
AcDbEntity
8
SK1
62
256
6
ByLayer
370
18
48
1
60
0
100
AcDbLine
10
-3.225
20
3
30
0
11
-3.825
21
2.65359
31
0
39
0
210
0
220
0
230
1
0
LINE
5
91
100
AcDbEntity
8
1
62
256
6
ByLayer
370
18
48
1
60
0
100
AcDbLine
10
-0.325
20
-18.412695
30
0
11
-0.325
21
-18.504117
31
0
39
0
210
0
220
0
230
1
0
LINE
5
92
100
AcDbEntity
8
1
62
256
6
ByLayer
370
18
48
1
60
0
100
AcDbLine
10
-0.325
20
-14.576174
30
0
11
-0.325
21
-14.881695
31
0
39
0
210
0
220
0
230
1
0
LINE
5
93
100
AcDbEntity
8
1
62
256
6
ByLayer
370
18
48
1
60
0
100
AcDbLine
10
7.869761
20
-8.717798
30
0
11
6.4
21
-8.717798
31
0
39
0
210
0
220
0
230
1
0
LINE
5
94
100
AcDbEntity
8
1
62
256
6
ByLayer
370
18
48
1
60
0
100
AcDbLine
10
0.343279
20
-6.470901
30
0
11
0.343279
21
-5.349988
31
0
39
0
210
0
220
0
230
1
0
LINE
5
95
100
AcDbEntity
8
1
62
256
6
ByLayer
370
18
48
1
60
0
100
AcDbLine
10
-0.325
20
-13.177721
30
0
11
-0.325
21
-11.899153
31
0
39
0
210
0
220
0
230
1
0
LINE
5
96
100
AcDbEntity
8
1
62
256
6
ByLayer
370
18
48
1
60
0
100
AcDbLine
10
-0.325
20
-14.576174
30
0
11
-0.325
21
-13.55645
31
0
39
0
210
0
220
0
230
1
0
LINE
5
97
100
AcDbEntity
8
SK1
62
256
6
ByLayer
370
18
48
1
60
0
100
AcDbLine
10
-3.225
20
0
30
0
11
-3.225
21
-3
31
0
39
0
210
0
220
0
230
1
0
LINE
5
98
100
AcDbEntity
8
1
62
256
6
ByLayer
370
18
48
1
60
0
100
AcDbLine
10
-0.325
20
-9.084456
30
0
11
-0.325
21
-9.741783
31
0
39
0
210
0
220
0
230
1
0
LINE
5
99
100
AcDbEntity
8
1
62
256
6
ByLayer
370
18
48
1
60
0
100
AcDbLine
10
0.343279
20
-13.739816
30
0
11
0.343279
21
-13.368336
31
0
39
0
210
0
220
0
230
1
0
LINE
5
9A
100
AcDbEntity
8
1
62
256
6
ByLayer
370
18
48
1
60
0
100
AcDbLine
10
-0.325
20
-15.709148
30
0
11
-0.325
21
-14.881695
31
0
39
0
210
0
220
0
230
1
0
LINE
5
9B
100
AcDbEntity
8
1
62
256
6
ByLayer
370
18
48
1
60
0
100
AcDbLine
10
-0.325
20
-16.63099
30
0
11
-0.325
21
-15.95783
31
0
39
0
210
0
220
0
230
1
0
LINE
5
9C
100
AcDbEntity
8
1
62
256
6
ByLayer
370
18
48
1
60
0
100
AcDbLine
10
17.50764
20
0.30113
30
0
11
11.782986
21
-5.112019
31
0
39
0
210
0
220
0
230
1
0
LINE
5
9D
100
AcDbEntity
8
1
62
256
6
ByLayer
370
18
48
1
60
0
100
AcDbLine
10
0.343279
20
-19.340954
30
0
11
0.343279
21
-19.272323
31
0
39
0
210
0
220
0
230
1
0
LINE
5
9E
100
AcDbEntity
8
1
62
256
6
ByLayer
370
18
48
1
60
0
100
AcDbLine
10
0.343279
20
-19.558693
30
0
11
0.343279
21
-19.518003
31
0
39
0
210
0
220
0
230
1
0
LINE
5
9F
100
AcDbEntity
8
1
62
256
6
ByLayer
370
18
48
1
60
0
100
AcDbLine
10
0.343279
20
-19.65992
30
0
11
0.343279
21
-19.646436
31
0
39
0
210
0
220
0
230
1
0
LINE
5
A0
100
AcDbEntity
8
SK1
62
256
6
ByLayer
370
18
48
1
60
0
100
AcDbLine
10
-0.325
20
3
30
0
11
-3.225
21
3
31
0
39
0
210
0
220
0
230
1
0
LINE
5
A1
100
AcDbEntity
8
1
62
256
6
ByLayer
370
18
48
1
60
0
100
AcDbLine
10
18.308152
20
2.597717
30
0
11
10.732163
21
-4.711114
31
0
39
0
210
0
220
0
230
1
0
LINE
5
A2
100
AcDbEntity
8
1
62
256
6
ByLayer
370
18
48
1
60
0
100
AcDbLine
10
-0.325
20
-18.730719
30
0
11
-0.325
21
-18.790685
31
0
39
0
210
0
220
0
230
1
0
LINE
5
A3
100
AcDbEntity
8
1
62
256
6
ByLayer
370
18
48
1
60
0
100
AcDbLine
10
-0.325
20
-15.709148
30
0
11
-0.325
21
-15.95783
31
0
39
0
210
0
220
0
230
1
0
LINE
5
A4
100
AcDbEntity
8
1
62
256
6
ByLayer
370
18
48
1
60
0
100
AcDbLine
10
11.236653
20
-4.906039
30
0
11
17.083861
21
0.622995
31
0
39
0
210
0
220
0
230
1
0
LINE
5
A5
100
AcDbEntity
8
1
62
256
6
ByLayer
370
18
48
1
60
0
100
AcDbLine
10
0.343279
20
-15.124567
30
0
11
0.343279
21
-14.823711
31
0
39
0
210
0
220
0
230
1
0
LINE
5
A6
100
AcDbEntity
8
1
62
256
6
ByLayer
370
18
48
1
60
0
100
AcDbLine
10
0.343279
20
-17.181168
30
0
11
0.343279
21
-16.979471
31
0
39
0
210
0
220
0
230
1
0
LINE
5
A7
100
AcDbEntity
8
1
62
256
6
ByLayer
370
18
48
1
60
0
100
AcDbLine
10
17.628535
20
1.501527
30
0
11
17.50764
21
0.30113
31
0
39
0
210
0
220
0
230
1
0
LINE
5
A8
100
AcDbEntity
8
1
62
256
6
ByLayer
370
18
48
1
60
0
100
AcDbLine
10
-0.325
20
-17.964266
30
0
11
-0.325
21
-17.536458
31
0
39
0
210
0
220
0
230
1
0
LINE
5
A9
100
AcDbEntity
8
SK1
62
256
6
ByLayer
370
18
48
1
60
0
100
AcDbLine
10
-3.825
20
-2.65359
30
0
11
-3.225
21
-3
31
0
39
0
210
0
220
0
230
1
0
LINE
5
AA
100
AcDbEntity
8
1
62
256
6
ByLayer
370
18
48
1
60
0
100
AcDbLine
10
-0.325
20
-19
30
0
11
0.675
21
-20
31
0
39
0
210
0
220
0
230
1
0
LINE
5
AB
100
AcDbEntity
8
1
62
256
6
ByLayer
370
18
48
1
60
0
100
AcDbLine
10
19.973951
20
19.495855
30
0
11
19.566997
21
13.358984
31
0
39
0
210
0
220
0
230
1
0
LINE
5
AC
100
AcDbEntity
8
1
62
256
6
ByLayer
370
18
48
1
60
0
100
AcDbLine
10
-0.325
20
11.899153
30
0
11
-0.325
21
13.177721
31
0
39
0
210
0
220
0
230
1
0
LINE
5
AD
100
AcDbEntity
8
1
62
256
6
ByLayer
370
18
48
1
60
0
100
AcDbLine
10
0.343279
20
16.979471
30
0
11
0.343279
21
17.181168
31
0
39
0
210
0
220
0
230
1
0
LINE
5
AE
100
AcDbEntity
8
1
62
256
6
ByLayer
370
18
48
1
60
0
100
AcDbLine
10
16.886039
20
24.273538
30
0
11
16.919078
21
24.179463
31
0
39
0
210
0
220
0
230
1
0
LINE
5
AF
100
AcDbEntity
8
1
62
256
6
ByLayer
370
18
48
1
60
0
100
AcDbLine
10
22.162925
20
18.811081
30
0
11
25.839672
21
16.555919
31
0
39
0
210
0
220
0
230
1
0
LINE
5
B0
100
AcDbEntity
8
1
62
256
6
ByLayer
370
18
48
1
60
0
100
AcDbLine
10
0.343279
20
18.904826
30
0
11
0.343279
21
19.002697
31
0
39
0
210
0
220
0
230
1
0
LINE
5
B1
100
AcDbEntity
8
1
62
256
6
ByLayer
370
18
48
1
60
0
100
AcDbLine
10
-0.325
20
18.954613
30
0
11
-0.325
21
18.999075
31
0
39
0
210
0
220
0
230
1
0
LINE
5
B2
100
AcDbEntity
8
1
62
256
6
ByLayer
370
18
48
1
60
0
100
AcDbLine
10
25.382053
20
11.688441
30
0
11
25.402269
21
11.721049
31
0
39
0
210
0
220
0
230
1
0
LINE
5
B3
100
AcDbEntity
8
1
62
256
6
ByLayer
370
18
48
1
60
0
100
AcDbLine
10
28.617484
20
20.061155
30
0
11
28.252669
21
19.472726
31
0
39
0
210
0
220
0
230
1
0
LINE
5
B4
100
AcDbEntity
8
1
62
256
6
ByLayer
370
18
48
1
60
0
100
AcDbLine
10
19.398983
20
20.851374
30
0
11
19.973951
21
19.495855
31
0
39
0
210
0
220
0
230
1
0
LINE
5
B5
100
AcDbEntity
8
1
62
256
6
ByLayer
370
18
48
1
60
0
100
AcDbLine
10
0.343279
20
13.368336
30
0
11
0.343279
21
13.739816
31
0
39
0
210
0
220
0
230
1
0
LINE
5
B6
100
AcDbEntity
8
1
62
256
6
ByLayer
370
18
48
1
60
0
100
AcDbLine
10
-0.325
20
13.55645
30
0
11
-0.325
21
14.576174
31
0
39
0
210
0
220
0
230
1
0
LINE
5
B7
100
AcDbEntity
8
1
62
256
6
ByLayer
370
18
48
1
60
0
100
AcDbLine
10
-0.325
20
14.881695
30
0
11
-0.325
21
15.709148
31
0
39
0
210
0
220
0
230
1
0
LINE
5
B8
100
AcDbEntity
8
1
62
256
6
ByLayer
370
18
48
1
60
0
100
AcDbLine
10
0.343279
20
18.408217
30
0
11
0.343279
21
18.537327
31
0
39
0
210
0
220
0
230
1
0
LINE
5
B9
100
AcDbEntity
8
1
62
256
6
ByLayer
370
18
48
1
60
0
100
AcDbLine
10
34.763604
20
12.528331
30
0
11
34.999882
21
26.064705
31
0
39
0
210
0
220
0
230
1
0
LINE
5
BA
100
AcDbEntity
8
1
62
256
6
ByLayer
370
18
48
1
60
0
100
AcDbLine
10
34.144668
20
11.324433
30
0
11
34.64902
21
12.137927
31
0
39
0
210
0
220
0
230
1
0
LINE
5
BB
100
AcDbEntity
8
1
62
256
6
ByLayer
370
18
48
1
60
0
100
AcDbLine
10
23.859573
20
12.562443
30
0
11
23.769058
21
13.025013
31
0
39
0
210
0
220
0
230
1
0
LINE
5
BC
100
AcDbEntity
8
1
62
256
6
ByLayer
370
18
48
1
60
0
100
AcDbLine
10
30.996573
20
17.771557
30
0
11
31.455646
21
18.51202
31
0
39
0
210
0
220
0
230
1
0
LINE
5
BD
100
AcDbEntity
8
1
62
256
6
ByLayer
370
18
48
1
60
0
100
AcDbLine
10
6.875
20
13.358984
30
0
11
6.875
21
18.922602
31
0
39
0
210
0
220
0
230
1
0
LINE
5
BE
100
AcDbEntity
8
1
62
256
6
ByLayer
370
18
48
1
60
0
100
AcDbLine
10
-0.325
20
15.95783
30
0
11
-0.325
21
16.63099
31
0
39
0
210
0
220
0
230
1
0
LINE
5
BF
100
AcDbEntity
8
1
62
256
6
ByLayer
370
18
48
1
60
0
100
AcDbLine
10
24.815779
20
21.997975
30
0
11
23.149339
21
22.40935
31
0
39
0
210
0
220
0
230
1
0
LINE
5
C0
100
AcDbEntity
8
1
62
256
6
ByLayer
370
18
48
1
60
0
100
AcDbLine
10
-0.325
20
17.536458
30
0
11
-0.325
21
17.964266
31
0
39
0
210
0
220
0
230
1
0
LINE
5
C1
100
AcDbEntity
8
1
62
256
6
ByLayer
370
18
48
1
60
0
100
AcDbLine
10
33.827582
20
26.783744
30
0
11
21.87273
21
20.435052
31
0
39
0
210
0
220
0
230
1
0
LINE
5
C2
100
AcDbEntity
8
1
62
256
6
ByLayer
370
18
48
1
60
0
100
AcDbLine
10
22.274876
20
14.21294
30
0
11
22.645722
21
14.811098
31
0
39
0
210
0
220
0
230
1
0
LINE
5
C3
100
AcDbEntity
8
1
62
256
6
ByLayer
370
18
48
1
60
0
100
AcDbLine
10
23.769058
20
13.025013
30
0
11
23.63201
21
13.725387
31
0
39
0
210
0
220
0
230
1
0
LINE
5
C4
100
AcDbEntity
8
1
62
256
6
ByLayer
370
18
48
1
60
0
100
AcDbLine
10
6.875
20
20
30
0
11
0.675
21
20
31
0
39
0
210
0
220
0
230
1
0
LINE
5
C5
100
AcDbEntity
8
1
62
256
6
ByLayer
370
18
48
1
60
0
100
AcDbLine
10
6.4
20
8.717798
30
0
11
6.875
21
8.717798
31
0
39
0
210
0
220
0
230
1
0
LINE
5
C6
100
AcDbEntity
8
1
62
256
6
ByLayer
370
18
48
1
60
0
100
AcDbLine
10
19.566997
20
13.358984
30
0
11
6.875
21
13.358984
31
0
39
0
210
0
220
0
230
1
0
LINE
5
C7
100
AcDbEntity
8
1
62
256
6
ByLayer
370
18
48
1
60
0
100
AcDbLine
10
0.343279
20
16.008511
30
0
11
0.343279
21
16.254923
31
0
39
0
210
0
220
0
230
1
0
LINE
5
C8
100
AcDbEntity
8
1
62
256
6
ByLayer
370
18
48
1
60
0
100
AcDbLine
10
16.886039
20
24.273538
30
0
11
27.733773
21
25.190433
31
0
39
0
210
0
220
0
230
1
0
LINE
5
C9
100
AcDbEntity
8
1
62
256
6
ByLayer
370
18
48
1
60
0
100
AcDbLine
10
23.149339
20
22.40935
30
0
11
22.39705
21
21.195945
31
0
39
0
210
0
220
0
230
1
0
LINE
5
CA
100
AcDbEntity
8
1
62
256
6
ByLayer
370
18
48
1
60
0
100
AcDbLine
10
-0.325
20
18.790685
30
0
11
-0.325
21
18.924913
31
0
39
0
210
0
220
0
230
1
0
LINE
5
CB
100
AcDbEntity
8
1
62
256
6
ByLayer
370
18
48
1
60
0
100
AcDbLine
10
21.580789
20
20.16237
30
0
11
21.076438
21
19.348875
31
0
39
0
210
0
220
0
230
1
0
LINE
5
CC
100
AcDbEntity
8
1
62
256
6
ByLayer
370
18
48
1
60
0
100
AcDbLine
10
20.30281
20
14.882618
30
0
11
20.282594
21
14.850011
31
0
39
0
210
0
220
0
230
1
0
LINE
5
CD
100
AcDbEntity
8
1
62
256
6
ByLayer
370
18
48
1
60
0
100
AcDbLine
10
23.63201
20
13.725387
30
0
11
22.953443
21
13.969163
31
0
39
0
210
0
220
0
230
1
0
LINE
5
CE
100
AcDbEntity
8
1
62
256
6
ByLayer
370
18
48
1
60
0
100
AcDbLine
10
0.675
20
20
30
0
11
-0.325
21
19
31
0
39
0
210
0
220
0
230
1
0
LINE
5
CF
100
AcDbEntity
8
1
62
256
6
ByLayer
370
18
48
1
60
0
100
AcDbLine
10
0.343279
20
17.771675
30
0
11
0.343279
21
17.934952
31
0
39
0
210
0
220
0
230
1
0
LINE
5
D0
100
AcDbEntity
8
1
62
256
6
ByLayer
370
18
48
1
60
0
100
AcDbLine
10
-0.325
20
16.832702
30
0
11
-0.325
21
17.375337
31
0
39
0
210
0
220
0
230
1
0
LINE
5
D1
100
AcDbEntity
8
1
62
256
6
ByLayer
370
18
48
1
60
0
100
AcDbLine
10
22.123507
20
18.820812
30
0
11
22.162925
21
18.811081
31
0
39
0
210
0
220
0
230
1
0
LINE
5
D2
100
AcDbEntity
8
1
62
256
6
ByLayer
370
18
48
1
60
0
100
AcDbLine
10
0.343279
20
19.272323
30
0
11
0.343279
21
19.340954
31
0
39
0
210
0
220
0
230
1
0
LINE
5
D3
100
AcDbEntity
8
1
62
256
6
ByLayer
370
18
48
1
60
0
100
AcDbLine
10
0.343279
20
19.518003
30
0
11
0.343279
21
19.558693
31
0
39
0
210
0
220
0
230
1
0
LINE
5
D4
100
AcDbEntity
8
1
62
256
6
ByLayer
370
18
48
1
60
0
100
AcDbLine
10
0.343279
20
19.646436
30
0
11
0.343279
21
19.65992
31
0
39
0
210
0
220
0
230
1
0
LINE
5
D5
100
AcDbEntity
8
1
62
256
6
ByLayer
370
18
48
1
60
0
100
AcDbLine
10
22.953443
20
13.969163
30
0
11
22.274876
21
14.21294
31
0
39
0
210
0
220
0
230
1
0
LINE
5
D6
100
AcDbEntity
8
1
62
256
6
ByLayer
370
18
48
1
60
0
100
AcDbLine
10
30.757161
20
13.539738
30
0
11
33.922772
21
11.598085
31
0
39
0
210
0
220
0
230
1
0
LINE
5
D7
100
AcDbEntity
8
1
62
256
6
ByLayer
370
18
48
1
60
0
100
AcDbLine
10
6.875
20
8.717798
30
0
11
6.875
21
13.358984
31
0
39
0
210
0
220
0
230
1
0
LINE
5
D8
100
AcDbEntity
8
1
62
256
6
ByLayer
370
18
48
1
60
0
100
AcDbLine
10
-0.325
20
6.61172
30
0
11
-0.325
21
9.084456
31
0
39
0
210
0
220
0
230
1
0
LINE
5
D9
100
AcDbEntity
8
1
62
256
6
ByLayer
370
18
48
1
60
0
100
AcDbLine
10
-0.325
20
9.741783
30
0
11
-0.325
21
11.416648
31
0
39
0
210
0
220
0
230
1
0
LINE
5
DA
100
AcDbEntity
8
1
62
256
6
ByLayer
370
18
48
1
60
0
100
AcDbLine
10
0.343279
20
14.823711
30
0
11
0.343279
21
15.124567
31
0
39
0
210
0
220
0
230
1
0
LINE
5
DB
100
AcDbEntity
8
1
62
256
6
ByLayer
370
18
48
1
60
0
100
AcDbLine
10
22.274876
20
14.21294
30
0
11
21.733356
21
13.756343
31
0
39
0
210
0
220
0
230
1
0
LINE
5
DC
100
AcDbEntity
8
1
62
256
6
ByLayer
370
18
48
1
60
0
100
AcDbLine
10
23.63201
20
13.725387
30
0
11
24.002857
21
14.323545
31
0
39
0
210
0
220
0
230
1
0
LINE
5
DD
100
AcDbEntity
8
1
62
256
6
ByLayer
370
18
48
1
60
0
100
AcDbLine
10
0.343279
20
5.349988
30
0
11
0.343279
21
6.470901
31
0
39
0
210
0
220
0
230
1
0
LINE
5
DE
100
AcDbEntity
8
1
62
256
6
ByLayer
370
18
48
1
60
0
100
AcDbLine
10
0.343279
20
9.118793
30
0
11
0.343279
21
9.764351
31
0
39
0
210
0
220
0
230
1
0
LINE
5
DF
100
AcDbEntity
8
1
62
256
6
ByLayer
370
18
48
1
60
0
100
AcDbLine
10
0.343279
20
11.540468
30
0
11
0.343279
21
12.013016
31
0
39
0
210
0
220
0
230
1
0
LINE
5
E0
100
AcDbEntity
8
1
62
256
6
ByLayer
370
18
48
1
60
0
100
AcDbLine
10
27.733773
20
25.190433
30
0
11
28.590918
21
24.002784
31
0
39
0
210
0
220
0
230
1
0
LINE
5
E1
100
AcDbEntity
8
1
62
256
6
ByLayer
370
18
48
1
60
0
100
AcDbLine
10
26.393611
20
16.043782
30
0
11
30.049623
21
13.801339
31
0
39
0
210
0
220
0
230
1
0
LINE
5
E2
100
AcDbEntity
8
1
62
256
6
ByLayer
370
18
48
1
60
0
100
AcDbLine
10
-0.325
20
18.089081
30
0
11
-0.325
21
18.412695
31
0
39
0
210
0
220
0
230
1
0
LINE
5
E3
100
AcDbEntity
8
1
62
256
6
ByLayer
370
18
48
1
60
0
100
AcDbLine
10
-0.325
20
18.504117
30
0
11
-0.325
21
18.730719
31
0
39
0
210
0
220
0
230
1
0
LINE
5
E4
100
AcDbEntity
8
1
62
256
6
ByLayer
370
18
48
1
60
0
100
AcDbLine
10
23.017233
20
21.042847
30
0
11
22.39705
21
21.195945
31
0
39
0
210
0
220
0
230
1
0
LINE
5
E5
100
AcDbEntity
8
1
62
256
6
ByLayer
370
18
48
1
60
0
100
AcDbLine
10
21.733356
20
13.756343
30
0
11
21.603957
21
13.647236
31
0
39
0
210
0
220
0
230
1
0
LINE
5
E6
100
AcDbEntity
8
1
62
256
6
ByLayer
370
18
48
1
60
0
100
AcDbLine
10
-0.325
20
11.899153
30
0
11
-0.325
21
11.416648
31
0
39
0
210
0
220
0
230
1
0
LINE
5
E7
100
AcDbEntity
8
1
62
256
6
ByLayer
370
18
48
1
60
0
100
AcDbLine
10
-0.325
20
18.504117
30
0
11
-0.325
21
18.412695
31
0
39
0
210
0
220
0
230
1
0
LINE
5
E8
100
AcDbEntity
8
1
62
256
6
ByLayer
370
18
48
1
60
0
100
AcDbLine
10
6.875
20
23.608146
30
0
11
6.875
21
18.922602
31
0
39
0
210
0
220
0
230
1
0
LINE
5
E9
100
AcDbEntity
8
1
62
256
6
ByLayer
370
18
48
1
60
0
100
AcDbLine
10
0.675
20
20
30
0
11
0.675
21
-20
31
0
39
0
210
0
220
0
230
1
0
LINE
5
EA
100
AcDbEntity
8
1
62
256
6
ByLayer
370
18
48
1
60
0
100
AcDbLine
10
-0.325
20
15.95783
30
0
11
-0.325
21
15.709148
31
0
39
0
210
0
220
0
230
1
0
LINE
5
EB
100
AcDbEntity
8
1
62
256
6
ByLayer
370
18
48
1
60
0
100
AcDbLine
10
33.922772
20
11.598085
30
0
11
33.729791
21
2.135611
31
0
39
0
210
0
220
0
230
1
0
LINE
5
EC
100
AcDbEntity
8
1
62
256
6
ByLayer
370
18
48
1
60
0
100
AcDbLine
10
-0.325
20
9.741783
30
0
11
-0.325
21
9.084456
31
0
39
0
210
0
220
0
230
1
0
LINE
5
ED
100
AcDbEntity
8
1
62
256
6
ByLayer
370
18
48
1
60
0
100
AcDbLine
10
-0.325
20
18.089081
30
0
11
-0.325
21
17.964266
31
0
39
0
210
0
220
0
230
1
0
LINE
5
EE
100
AcDbEntity
8
1
62
256
6
ByLayer
370
18
48
1
60
0
100
AcDbLine
10
19.566997
20
13.358984
30
0
11
18.308152
21
2.597717
31
0
39
0
210
0
220
0
230
1
0
LINE
5
EF
100
AcDbEntity
8
1
62
256
6
ByLayer
370
18
48
1
60
0
100
AcDbLine
10
-0.325
20
14.881695
30
0
11
-0.325
21
14.576174
31
0
39
0
210
0
220
0
230
1
0
LINE
5
F0
100
AcDbEntity
8
1
62
256
6
ByLayer
370
18
48
1
60
0
100
AcDbLine
10
-0.325
20
18.954613
30
0
11
-0.325
21
18.924913
31
0
39
0
210
0
220
0
230
1
0
LINE
5
F1
100
AcDbEntity
8
1
62
256
6
ByLayer
370
18
48
1
60
0
100
AcDbLine
10
-0.325
20
-5.496803
30
0
11
-0.325
21
5.496803
31
0
39
0
210
0
220
0
230
1
0
LINE
5
F2
100
AcDbEntity
8
1
62
256
6
ByLayer
370
18
48
1
60
0
100
AcDbLine
10
-0.325
20
6.61172
30
0
11
-0.325
21
5.496803
31
0
39
0
210
0
220
0
230
1
0
LINE
5
F3
100
AcDbEntity
8
1
62
256
6
ByLayer
370
18
48
1
60
0
100
AcDbLine
10
-0.325
20
17.536458
30
0
11
-0.325
21
17.375337
31
0
39
0
210
0
220
0
230
1
0
LINE
5
F4
100
AcDbEntity
8
1
62
256
6
ByLayer
370
18
48
1
60
0
100
AcDbLine
10
-0.325
20
19
30
0
11
-0.325
21
18.999075
31
0
39
0
210
0
220
0
230
1
0
LINE
5
F5
100
AcDbEntity
8
1
62
256
6
ByLayer
370
18
48
1
60
0
100
AcDbLine
10
-0.325
20
13.55645
30
0
11
-0.325
21
13.177721
31
0
39
0
210
0
220
0
230
1
0
LINE
5
F6
100
AcDbEntity
8
1
62
256
6
ByLayer
370
18
48
1
60
0
100
AcDbLine
10
6
20
-7.838367
30
0
11
6
21
7.838367
31
0
39
0
210
0
220
0
230
1
0
LINE
5
F7
100
AcDbEntity
8
1
62
256
6
ByLayer
370
18
48
1
60
0
100
AcDbLine
10
-0.325
20
18.790685
30
0
11
-0.325
21
18.730719
31
0
39
0
210
0
220
0
230
1
0
LINE
5
F8
100
AcDbEntity
8
1
62
256
6
ByLayer
370
18
48
1
60
0
100
AcDbLine
10
-0.325
20
16.832702
30
0
11
-0.325
21
16.63099
31
0
39
0
210
0
220
0
230
1
0
LINE
5
F9
100
AcDbEntity
8
1
62
256
6
ByLayer
370
18
48
1
60
0
100
AcDbLine
10
6.4
20
8.717798
30
0
11
6.4
21
-8.717798
31
0
39
0
210
0
220
0
230
1
0
LINE
5
FA
100
AcDbEntity
8
4
62
256
6
ByLayer
370
18
48
0.05
60
0
100
AcDbLine
10
35
20
0
30
0
11
0
21
0
31
0
39
0
210
0
220
0
230
1
0
LINE
5
FC
100
AcDbEntity
8
SK4
62
256
6
ByLayer
370
18
48
0.05
60
0
100
AcDbLine
10
-5
20
0
30
0
11
40
21
0
31
0
39
0
210
0
220
0
230
1
0
LINE
5
FE
100
AcDbEntity
8
80
62
256
6
ByLayer
370
18
48
1
60
0
100
AcDbLine
10
0
20
0
30
0
11
-3.5
21
0
31
0
39
0
210
0
220
0
230
1
0
LINE
5
FF
100
AcDbEntity
8
81
62
256
6
ByLayer
370
18
48
1
60
0
100
AcDbLine
10
35
20
26.875
30
0
11
38.5
21
26.875
31
0
39
0
210
0
220
0
230
1
0
MTEXT
5
1B6
100
AcDbEntity
8
SK6
62
256
6
ByLayer
370
13
48
1
60
0
100
AcDbMText
10
-5.151346
20
-43.322776
30
0
210
0
220
0
230
1
1
\W1.0928;SL-PTFNR-40-16HP
40
3.175
41
0
44
0.903614
50
0
71
7
72
5
7
blockfont
0
DIMENSION
5
1C4
100
AcDbEntity
8
2
62
256
6
ByLayer
370
13
48
1
60
0
100
AcDbDimension
2
DimnDraft3D1
10
0
20
-61.340603
30
0
11
10.136823
21
-61.340603
31
0
70
32
71
5
72
1
41
1
210
0
220
0
230
1
3
Standard
100
AcDbAlignedDimension
13
26.875
23
-40.0875
33
0
14
0
24
-36.5875
34
0
50
0
100
AcDbRotatedDimension
1001
ACAD
1000
DSTYLE
1002
{
1070
   279
1070
     0
1070
   173
1070
     1
1070
   340
1005
1B7
1070
   271
1070
     0
1070
   272
1070
     3
1070
    77
1070
     1
1070
    73
1070
     0
1070
   171
1070
     4
1070
   274
1070
     4
1070
   177
1070
     7
1070
   176
1070
     7
1070
   178
1070
     7
1070
    78
1070
     8
1070
    48
1040
-0.005
1070
    41
1041
3.175
1070
   147
1041
1.5875
1070
    42
1041
1.5875
1070
    44
1041
3.175
1070
   140
1041
3.175
1070
   343
1005
0
1070
   344
1005
0
1002
}
0
DIMENSION
5
1CE
100
AcDbEntity
8
2
62
256
6
ByLayer
370
13
48
1
60
0
100
AcDbDimension
2
DimnDraft3D2
10
-37.303571
20
0
30
0
11
-37.303571
21
14.199323
31
0
70
32
71
5
72
1
41
1
210
0
220
0
230
1
3
Standard
100
AcDbAlignedDimension
13
-28.4625
23
35
33
0
14
-1.5875
24
0
34
0
50
90
100
AcDbRotatedDimension
1001
ACAD
1000
DSTYLE
1002
{
1070
    74
1070
     0
1070
   279
1070
     0
1070
   173
1070
     1
1070
   340
1005
1B7
1070
   271
1070
     0
1070
   272
1070
     3
1070
    77
1070
     1
1070
    73
1070
     0
1070
   171
1070
     4
1070
   274
1070
     4
1070
   177
1070
     7
1070
   176
1070
     7
1070
   178
1070
     7
1070
    78
1070
     8
1070
    48
1040
-0.005
1070
    41
1041
3.175
1070
   147
1041
1.5875
1070
    42
1041
1.5875
1070
    44
1041
3.175
1070
   140
1041
3.175
1070
   343
1005
0
1070
   344
1005
0
1002
}
0
DIMENSION
5
1D9
100
AcDbEntity
8
SK2
62
256
6
ByLayer
370
13
48
1
60
0
100
AcDbDimension
2
DimnDraft3D3
10
38.5
20
26.875
30
0
11
16.183629
21
-45.520407
31
0
70
34
71
5
72
1
41
1
210
0
220
0
230
1
3
Standard
100
AcDb2LineAngularDimension
13
34.763604
23
12.528331
33
0
14
34.999882
24
26.064705
34
0
15
35
25
26.875
35
0
16
13.919059
26
-47.745794
36
0
40
0
0
DIMENSION
5
1E4
100
AcDbEntity
8
SK2
62
256
6
ByLayer
370
13
48
1
60
0
100
AcDbDimension
2
DimnDraft3D4
10
-11.928598
20
20
30
0
11
-11.134848
21
-0.268775
31
0
70
33
71
5
72
1
41
1
210
0
220
0
230
1
3
Standard
100
AcDbAlignedDimension
13
-0.9125
23
-20
33
0
14
-0.9125
24
20
34
0
1001
ACAD
1000
DSTYLE
1002
{
1070
   279
1070
     0
1070
    74
1070
     0
1070
   173
1070
     1
1070
   340
1005
1B7
1070
   271
1070
     3
1070
   272
1070
     3
1070
    77
1070
     1
1070
    73
1070
     0
1070
   171
1070
     4
1070
   274
1070
     4
1070
   177
1070
     7
1070
   176
1070
     7
1070
   178
1070
     7
1070
    78
1070
     8
1070
    48
1040
-0.005
1070
    41
1041
3.175
1070
   147
1041
1.5875
1070
    42
1041
1.5875
1070
    44
1041
3.175
1070
   140
1041
3.175
1070
   343
1005
0
1070
   344
1005
0
1002
}
0
ENDSEC
0
SECTION
2
OBJECTS
0
DICTIONARY
5
24f
330
0
100
AcDbDictionary
280
0
281
1
3
ACAD_GROUP
350
250
3
ACAD_MLINESTYLE
350
251
0
DICTIONARY
5
250
330
0
100
AcDbDictionary
280
0
281
1
0
DICTIONARY
5
251
330
0
100
AcDbDictionary
280
0
281
1
3
Standard
350
18
0
MLINESTYLE
5
18
330
251
100
AcDbMlineStyle
2
Standard
70
0
3

62
256
51
90
52
90
71
2
49
-0.5
62
256
6
ByLayer
49
0.5
62
256
6
ByLayer
0
RASTERVARIABLES
5
23d
330

100
AcDbRasterVariables
90
0
70
1
71
1
72
1
0
ENDSEC
0
EOF
