0
SECTION
2
HEADER
9
$ACADVER
1
AC1015
9
$DWGCODEPAGE
3
ANSI_1252
9
$HANDSEED
5
28f
9
$ANGBASE
50
0
9
$ANGDIR
70
0
9
$ATTMODE
70
1
9
$AUNITS
70
0
9
$AUPREC
70
0
9
$CECOLOR
62
256
9
$CELTSCALE
40
1
9
$CELTYPE
6
ByLayer
9
$CELWEIGHT
370
18
9
$CLAYER
8
0
9
$CMLJUST
70
0
9
$CMLSCALE
40
1
9
$CMLSTYLE
2
Standard
9
$DIMSTYLE
2
Standard
9
$TEXTSIZE
40
0.2
9
$TEXTSTYLE
7
Standard
9
$LUNITS
70
2
9
$LUPREC
70
4
9
$EXTNAMES
290
1
9
$INSUNITS
70
4
9
$LTSCALE
40
1
9
$LWDISPLAY
290
1
9
$PDMODE
70
0
9
$PDSIZE
40
0
9
$PLINEGEN
70
0
0
ENDSEC
0
SECTION
2
CLASSES
0
CLASS
1
RASTERVARIABLES
2
AcDbRasterVariables
3
ISM
90
0
280
0
281
0
0
ENDSEC
0
SECTION
2
TABLES
0
TABLE
2
VPORT
5
285
100
AcDbSymbolTable
0
VPORT
5
1
100
AcDbSymbolTableRecord
100
AcDbViewportTableRecord
2
*Active
70
0
10
0
20
0
11
1
21
1
12
-1
22
1
13
0
23
0
14
0.5
24
0.5
15
10
25
10
16
0
26
0
36
1
17
0
27
0
37
0
0
ENDTAB
0
TABLE
2
LTYPE
5
286
100
AcDbSymbolTable
0
LTYPE
5
14
100
AcDbSymbolTableRecord
100
AcDbLinetypeTableRecord
70
0
2
ByBlock
3

72
65
73
0
40
0
0
LTYPE
5
15
100
AcDbSymbolTableRecord
100
AcDbLinetypeTableRecord
70
0
2
ByLayer
3

72
65
73
0
40
0
0
LTYPE
5
16
100
AcDbSymbolTableRecord
100
AcDbLinetypeTableRecord
70
0
2
CONTINUOUS
3
Solid line
72
65
73
0
40
0
0
LTYPE
5
6A
100
AcDbSymbolTableRecord
100
AcDbLinetypeTableRecord
70
0
2
CENTER
3
____ _ ____ _ ____ _ ____
72
65
73
4
40
47.5
49
22
74
0
49
-8.5
74
0
49
8.5
74
0
49
-8.5
74
0
0
LTYPE
5
6B
100
AcDbSymbolTableRecord
100
AcDbLinetypeTableRecord
70
0
2
DASHED
3
__ __ __ __ __ __ __ __ __
72
65
73
2
40
25.72
49
12.86
74
0
49
-12.86
74
0
0
ENDTAB
0
TABLE
2
LAYER
5
287
100
AcDbSymbolTable
0
LAYER
5
10
100
AcDbSymbolTableRecord
100
AcDbLayerTableRecord
2
0
70
0
62
7
6
CONTINUOUS
290
1
370
-3
390
0
0
LAYER
5
6D
100
AcDbSymbolTableRecord
100
AcDbLayerTableRecord
2
81
70
0
62
-3
6
CONTINUOUS
290
1
370
-3
390
0
0
LAYER
5
6F
100
AcDbSymbolTableRecord
100
AcDbLayerTableRecord
2
80
70
0
62
-6
6
CONTINUOUS
290
1
370
-3
390
0
0
LAYER
5
71
100
AcDbSymbolTableRecord
100
AcDbLayerTableRecord
2
1
70
0
62
4
6
CONTINUOUS
290
1
370
-3
390
0
0
LAYER
5
107
100
AcDbSymbolTableRecord
100
AcDbLayerTableRecord
2
4
70
0
62
-2
6
CENTER
290
1
370
-3
390
0
0
LAYER
5
1FB
100
AcDbSymbolTableRecord
100
AcDbLayerTableRecord
2
2
70
0
62
7
6
CONTINUOUS
290
1
370
-3
390
0
0
LAYER
5
271
100
AcDbSymbolTableRecord
100
AcDbLayerTableRecord
2
SK1
70
0
62
4
6
CONTINUOUS
290
1
370
-3
390
0
0
LAYER
5
272
100
AcDbSymbolTableRecord
100
AcDbLayerTableRecord
2
SK4
70
0
62
2
6
CENTER
290
1
370
-3
390
0
0
LAYER
5
273
100
AcDbSymbolTableRecord
100
AcDbLayerTableRecord
2
SK6
70
0
62
5
6
CONTINUOUS
290
1
370
-3
390
0
0
LAYER
5
274
100
AcDbSymbolTableRecord
100
AcDbLayerTableRecord
2
SK2
70
0
62
7
6
CONTINUOUS
290
1
370
-3
390
0
0
ENDTAB
0
TABLE
2
STYLE
5
288
100
AcDbSymbolTable
0
STYLE
5
11
100
AcDbSymbolTableRecord
100
AcDbTextStyleTableRecord
2
Standard
3
txt
70
0
71
0
40
0
41
1
42
0
50
0
0
STYLE
5
1EA
100
AcDbSymbolTableRecord
100
AcDbTextStyleTableRecord
2
blockfont
3
simplex.shx
70
0
71
0
40
0
41
1
42
0
50
0
0
STYLE
5
1EB
100
AcDbSymbolTableRecord
100
AcDbTextStyleTableRecord
2
DWGDirectTextStyle
3
simplex
70
0
71
0
40
0
41
1
42
0
50
0
0
ENDTAB
0
TABLE
2
DIMSTYLE
5
289
100
AcDbSymbolTable
100
AcDbDimStyleTable
0
DIMSTYLE
105
27
100
AcDbSymbolTableRecord
100
AcDbDimStyleTableRecord
2
Standard
70
0
3
<>
41
0.18
42
0.0625
44
0.18
140
0.18
147
0.09
73
0
74
0
77
1
271
2
275
0
278
52
280
0
340
11
0
ENDTAB
0
TABLE
2
VIEW
5
28a
100
AcDbSymbolTable
0
ENDTAB
0
TABLE
2
UCS
5
28b
100
AcDbSymbolTable
0
ENDTAB
0
TABLE
2
APPID
5
28c
100
AcDbSymbolTable
0
APPID
5
12
100
AcDbSymbolTableRecord
100
AcDbRegAppTableRecord
2
ACAD
70
0
0
ENDTAB
0
TABLE
2
BLOCK_RECORD
5
28d
100
AcDbSymbolTable
0
BLOCK_RECORD
5
1F
100
AcDbSymbolTableRecord
100
AcDbBlockTableRecord
2
*Model_Space
340
0
70
0
0
BLOCK_RECORD
5
1B
100
AcDbSymbolTableRecord
100
AcDbBlockTableRecord
2
*Paper_Space
340
0
70
0
0
BLOCK_RECORD
5
23
100
AcDbSymbolTableRecord
100
AcDbBlockTableRecord
2
*Paper_Space0
340
0
70
0
0
BLOCK_RECORD
5
1ED
100
AcDbSymbolTableRecord
100
AcDbBlockTableRecord
2
DimnDraft3D1
340
0
70
0
0
BLOCK_RECORD
5
1F9
100
AcDbSymbolTableRecord
100
AcDbBlockTableRecord
2
DimnDraft3D2
340
0
70
0
0
BLOCK_RECORD
5
204
100
AcDbSymbolTableRecord
100
AcDbBlockTableRecord
2
DimnDraft3D3
340
0
70
0
0
BLOCK_RECORD
5
20E
100
AcDbSymbolTableRecord
100
AcDbBlockTableRecord
2
DimnDraft3D4
340
0
70
0
0
ENDTAB
0
ENDSEC
0
SECTION
2
BLOCKS
0
BLOCK
5
20
100
AcDbEntity
8
0
100
AcDbBlockBegin
2
*Model_Space
70
0
10
0
20
0
30
0
3
*Model_Space
0
ENDBLK
5
21
100
AcDbEntity
8
0
100
AcDbBlockEnd
0
BLOCK
5
1C
100
AcDbEntity
8
0
100
AcDbBlockBegin
2
*Paper_Space
70
0
10
0
20
0
30
0
3
*Paper_Space
0
ENDBLK
5
1D
100
AcDbEntity
8
0
100
AcDbBlockEnd
0
BLOCK
5
24
100
AcDbEntity
8
0
100
AcDbBlockBegin
2
*Paper_Space0
70
0
10
0
20
0
30
0
3
*Paper_Space0
0
ENDBLK
5
25
100
AcDbEntity
8
0
100
AcDbBlockEnd
0
BLOCK
5
1F6
100
AcDbEntity
8
0
100
AcDbBlockBegin
2
DimnDraft3D1
70
0
10
0
20
0
30
0
3
DimnDraft3D1
0
MTEXT
5
1EE
100
AcDbEntity
8
SK2
62
256
6
ByLayer
370
13
48
1
60
0
100
AcDbMText
10
-21.883246
20
2.31995
30
0
210
0
220
0
230
1
1
\W1.1795;40
40
3.5
41
0
44
0.903614
50
89.385921819944
71
7
72
5
7
blockfont
0
MTEXT
5
1F0
100
AcDbEntity
8
SK2
62
256
6
ByLayer
370
13
48
1
60
0
100
AcDbMText
10
-21.967353
20
-5.527255
30
0
210
0
220
0
230
1
1
%%c
40
3.5
41
0
44
0.903614
50
89.385921819944
71
7
72
5
7
blockfont
0
LINE
5
1F1
100
AcDbEntity
8
SK2
62
256
6
ByLayer
370
13
48
1
60
0
100
AcDbLine
10
2.016315
20
20.017014
30
0
11
-23.370955
21
20.289117
31
0
39
0
210
0
220
0
230
1
0
LINE
5
1F2
100
AcDbEntity
8
SK2
62
256
6
ByLayer
370
13
48
1
60
0
100
AcDbLine
10
1.587591
20
-19.982986
30
0
11
-23.799679
21
-19.710883
31
0
39
0
210
0
220
0
230
1
0
LINE
5
1F3
100
AcDbEntity
8
SK2
62
256
6
ByLayer
370
13
48
1
60
0
100
AcDbLine
10
-20.196138
20
20.255089
30
0
11
-20.624862
21
-19.744911
31
0
39
0
210
0
220
0
230
1
0
SOLID
5
1F4
100
AcDbEntity
8
SK2
62
256
6
ByLayer
370
13
48
1
60
0
100
AcDbTrace
10
-20.196138
20
20.255089
30
0
11
-19.812193
21
17.075793
31
0
12
-20.648138
22
17.08475
32
0
13
-20.196138
23
20.255089
33
0
39
0
210
0
220
0
230
1
0
SOLID
5
1F5
100
AcDbEntity
8
SK2
62
256
6
ByLayer
370
13
48
1
60
0
100
AcDbTrace
10
-20.624862
20
-19.744911
30
0
11
-21.008806
21
-16.565615
31
0
12
-20.172861
22
-16.574571
32
0
13
-20.624862
23
-19.744911
33
0
39
0
210
0
220
0
230
1
0
ENDBLK
5
1F7
100
AcDbEntity
8
0
100
AcDbBlockEnd
0
BLOCK
5
201
100
AcDbEntity
8
0
100
AcDbBlockBegin
2
DimnDraft3D2
70
0
10
0
20
0
30
0
3
DimnDraft3D2
0
MTEXT
5
1FA
100
AcDbEntity
8
2
62
256
6
ByLayer
370
13
48
1
60
0
100
AcDbMText
10
54.079948
20
-13.763542
30
0
210
0
220
0
230
1
1
\W1.1795;22
40
3.5
41
0
44
0.903614
50
90
71
7
72
5
7
blockfont
0
LINE
5
1FC
100
AcDbEntity
8
2
62
256
6
ByLayer
370
13
48
1
60
0
100
AcDbLine
10
40.5875
20
-22
30
0
11
57.87474
21
-22
31
0
39
0
210
0
220
0
230
1
0
LINE
5
1FD
100
AcDbEntity
8
2
62
256
6
ByLayer
370
13
48
1
60
0
100
AcDbLine
10
30.900863
20
0
30
0
11
57.87474
21
0
31
0
39
0
210
0
220
0
230
1
0
LINE
5
1FE
100
AcDbEntity
8
2
62
256
6
ByLayer
370
13
48
1
60
0
100
AcDbLine
10
54.69974
20
-22
30
0
11
54.69974
21
0
31
0
39
0
210
0
220
0
230
1
0
SOLID
5
1FF
100
AcDbEntity
8
2
62
256
6
ByLayer
370
13
48
1
60
0
100
AcDbTrace
10
54.69974
20
-22
30
0
11
54.281743
21
-18.825002
31
0
12
55.117736
22
-18.824998
32
0
13
54.69974
23
-22
33
0
39
0
210
0
220
0
230
1
0
SOLID
5
200
100
AcDbEntity
8
2
62
256
6
ByLayer
370
13
48
1
60
0
100
AcDbTrace
10
54.69974
20
0
30
0
11
55.117736
21
-3.174998
31
0
12
54.281743
22
-3.175002
32
0
13
54.69974
23
0
33
0
39
0
210
0
220
0
230
1
0
ENDBLK
5
202
100
AcDbEntity
8
0
100
AcDbBlockEnd
0
BLOCK
5
20B
100
AcDbEntity
8
0
100
AcDbBlockBegin
2
DimnDraft3D3
70
0
10
0
20
0
30
0
3
DimnDraft3D3
0
MTEXT
5
205
100
AcDbEntity
8
2
62
256
6
ByLayer
370
13
48
1
60
0
100
AcDbMText
10
21.80198
20
-31.403167
30
0
210
0
220
0
230
1
1
\W1.4729;75%%d
40
3.5
41
0
44
0.903614
50
322.5
71
7
72
5
7
blockfont
0
LINE
5
206
100
AcDbEntity
8
2
62
256
6
ByLayer
370
13
48
1
60
0
100
AcDbLine
10
22.20054
20
-25.304605
30
0
11
16.272205
21
-26.893098
31
0
39
0
210
0
220
0
230
1
0
LINE
5
207
100
AcDbEntity
8
2
62
256
6
ByLayer
370
13
48
1
60
0
100
AcDbLine
10
35
20
-23.5875
30
0
11
35
21
-41.263441
31
0
39
0
210
0
220
0
230
1
0
ARC
5
208
100
AcDbEntity
8
2
62
256
6
ByLayer
370
13
48
1
60
0
100
AcDbCircle
39
0
10
35
20
-21.875
30
0
40
16.2134405615555
210
0
220
0
230
1
100
AcDbArc
50
195
51
270
0
SOLID
5
209
100
AcDbEntity
8
2
62
256
6
ByLayer
370
13
48
1
60
0
100
AcDbTrace
10
19.339019
20
-26.071347
30
0
11
20.70739
21
-28.966671
31
0
12
19.911399
22
-29.222178
32
0
13
19.339019
23
-26.071347
33
0
39
0
210
0
220
0
230
1
0
SOLID
5
20A
100
AcDbEntity
8
2
62
256
6
ByLayer
370
13
48
1
60
0
100
AcDbTrace
10
35
20
-38.088441
30
0
11
31.808391
21
-38.351059
31
0
12
31.849169
22
-37.516061
32
0
13
35
23
-38.088441
33
0
39
0
210
0
220
0
230
1
0
ENDBLK
5
20C
100
AcDbEntity
8
0
100
AcDbBlockEnd
0
BLOCK
5
215
100
AcDbEntity
8
0
100
AcDbBlockBegin
2
DimnDraft3D4
70
0
10
0
20
0
30
0
3
DimnDraft3D4
0
MTEXT
5
20F
100
AcDbEntity
8
2
62
256
6
ByLayer
370
13
48
1
60
0
100
AcDbMText
10
14.736458
20
-48.019094
30
0
210
0
220
0
230
1
1
\W1.1795;35
40
3.5
41
0
44
0.903614
50
0
71
7
72
5
7
blockfont
0
LINE
5
210
100
AcDbEntity
8
2
62
256
6
ByLayer
370
13
48
1
60
0
100
AcDbLine
10
0
20
-1.5875
30
0
11
0
21
-51.813886
31
0
39
0
210
0
220
0
230
1
0
LINE
5
211
100
AcDbEntity
8
2
62
256
6
ByLayer
370
13
48
1
60
0
100
AcDbLine
10
35
20
-23.5875
30
0
11
35
21
-51.813886
31
0
39
0
210
0
220
0
230
1
0
LINE
5
212
100
AcDbEntity
8
2
62
256
6
ByLayer
370
13
48
1
60
0
100
AcDbLine
10
0
20
-48.638886
30
0
11
35
21
-48.638886
31
0
39
0
210
0
220
0
230
1
0
SOLID
5
213
100
AcDbEntity
8
2
62
256
6
ByLayer
370
13
48
1
60
0
100
AcDbTrace
10
0
20
-48.638886
30
0
11
3.174998
21
-48.220889
31
0
12
3.175002
22
-49.056883
32
0
13
0
23
-48.638886
33
0
39
0
210
0
220
0
230
1
0
SOLID
5
214
100
AcDbEntity
8
2
62
256
6
ByLayer
370
13
48
1
60
0
100
AcDbTrace
10
35
20
-48.638886
30
0
11
31.825002
21
-49.056883
31
0
12
31.824998
22
-48.220889
32
0
13
35
23
-48.638886
33
0
39
0
210
0
220
0
230
1
0
ENDBLK
5
216
100
AcDbEntity
8
0
100
AcDbBlockEnd
0
ENDSEC
0
SECTION
2
ENTITIES
0
ARC
5
10C
100
AcDbEntity
8
1
62
256
6
ByLayer
370
18
48
1
60
0
100
AcDbCircle
39
0
10
-5.675
20
-21
30
0
40
0.999999999999998
210
0
220
0
230
-1
100
AcDbArc
50
90
51
170
0
ARC
5
10D
100
AcDbEntity
8
1
62
256
6
ByLayer
370
18
48
1
60
0
100
AcDbCircle
39
0
10
8.85946
20
-21.783657
30
0
40
2
210
0
220
0
230
1
100
AcDbArc
50
190
51
265
0
ARC
5
10E
100
AcDbEntity
8
1
62
256
6
ByLayer
370
18
48
1
60
0
100
AcDbCircle
39
0
10
17.250285
20
14.773817
30
0
40
9.00000000000013
210
0
220
0
230
1
100
AcDbArc
50
234.312433
51
270
0
ARC
5
10F
100
AcDbEntity
8
1
62
256
6
ByLayer
370
18
48
1
60
0
100
AcDbCircle
39
0
10
-17.250285
20
14.773817
30
0
40
9
210
0
220
0
230
-1
100
AcDbArc
50
305.687567
51
342.049096
0
ARC
5
110
100
AcDbEntity
8
1
62
256
6
ByLayer
370
18
48
1
60
0
100
AcDbCircle
39
0
10
20.250285
20
-4.226183
30
0
40
10.0000000000007
210
0
220
0
230
1
100
AcDbArc
50
25
51
62.58253
0
ELLIPSE
5
111
100
AcDbEntity
8
1
62
256
6
ByLayer
370
18
48
1
60
0
100
AcDbEllipse
10
22.931817
20
-23.778789
30
0
11
-0.396999996894968
21
-0.687624171665215
31
0
210
0
220
0
230
1
40
0.989133
41
-0.220063267369273
42
-4.01012468261886E-09
0
ELLIPSE
5
112
100
AcDbEntity
8
1
62
256
6
ByLayer
370
18
48
1
60
0
100
AcDbEllipse
10
27.428886
20
-16.717024
30
0
11
-1.29999999999852
21
-2.25166604984047
31
0
210
0
220
0
230
1
40
0.989133
41
0
42
1.4004750698601
0
ELLIPSE
5
113
100
AcDbEntity
8
1
62
256
6
ByLayer
370
18
48
1
60
0
100
AcDbEllipse
10
22.230259
20
-11.637315
30
0
11
-0.950000000994096
21
-1.6454482666662
31
0
210
0
220
0
230
1
40
0.989133
41
2.3529129438293
42
2.71669819736908
0
ELLIPSE
5
114
100
AcDbEntity
8
1
62
256
6
ByLayer
370
18
48
1
60
0
100
AcDbEllipse
10
27.358138
20
-17.261552
30
0
11
-1.17499999999846
21
-2.03515969889392
31
0
210
0
220
0
230
1
40
0.989133
41
1.59899237997208
42
2.33917836026894
0
ELLIPSE
5
115
100
AcDbEntity
8
1
62
256
6
ByLayer
370
18
48
1
60
0
100
AcDbEllipse
10
15.009093
20
-15.864195
30
0
11
-0.866025403783477
21
-1.50000000000066
31
0
210
0
220
0
230
1
40
0.989133
41
-1.57625953531464
42
-0.529061984118085
0
ELLIPSE
5
116
100
AcDbEntity
8
1
62
256
6
ByLayer
370
18
48
1
60
0
100
AcDbEllipse
10
26.897215
20
-16.995438
30
0
11
-1.28999999999878
21
-2.23434554176521
31
0
210
0
220
0
230
1
40
0.989133
41
0.137550704720406
42
1.08446697568739
0
ELLIPSE
5
117
100
AcDbEntity
8
1
62
256
6
ByLayer
370
18
48
1
60
0
100
AcDbEllipse
10
14.928245
20
-15.817518
30
0
11
-1.99999999999769
21
-3.46410161513913
31
0
210
0
220
0
230
1
40
0.989133
41
3.14159265358979
42
-1.57625953531681
0
ELLIPSE
5
118
100
AcDbEntity
8
1
62
256
6
ByLayer
370
18
48
1
60
0
100
AcDbEllipse
10
15.009093
20
-15.864195
30
0
11
-1.58624999999815
21
-2.7474655935072
31
0
210
0
220
0
230
1
40
0.989133
41
0
42
6.28318530717959
0
ELLIPSE
5
119
100
AcDbEntity
8
1
62
256
6
ByLayer
370
18
48
1
60
0
100
AcDbEllipse
10
16.595537
20
-15.378435
30
0
11
-4.64999999424802
21
-8.0540362588039
31
0
210
0
220
0
230
1
40
0.989133
41
-2.59579633772129
42
-2.40630554593625
0
ELLIPSE
5
11A
100
AcDbEntity
8
1
62
256
6
ByLayer
370
18
48
1
60
0
100
AcDbEllipse
10
28.208664
20
-3.100318
30
0
11
-0.41447888304999
21
-1.96747558133564
31
0
210
0
220
0
230
1
40
0.943652
41
0.583174599106781
42
1.76789582530604
0
ELLIPSE
5
11B
100
AcDbEntity
8
1
62
256
6
ByLayer
370
18
48
1
60
0
100
AcDbEllipse
10
27.49255
20
-16.75378
30
0
11
-1.04999999999879
21
-1.81865334794804
31
0
210
0
220
0
230
1
40
0.989133
41
-0.580001346934654
42
1.37657943359432
0
ELLIPSE
5
11C
100
AcDbEntity
8
1
62
256
6
ByLayer
370
18
48
1
60
0
100
AcDbEllipse
10
27.287391
20
-17.806081
30
0
11
-1.29999999999841
21
-2.25166604984027
31
0
210
0
220
0
230
1
40
0.989133
41
3.14159265358979
42
-1.74111758372688
0
ELLIPSE
5
11D
100
AcDbEntity
8
1
62
256
6
ByLayer
370
18
48
1
60
0
100
AcDbEllipse
10
27.503291
20
-17.345356
30
0
11
-1.28999999999844
21
-2.23434554176462
31
0
210
0
220
0
230
1
40
0.989133
41
3.14159265358979
42
-1.57625953531471
0
ELLIPSE
5
11E
100
AcDbEntity
8
1
62
256
6
ByLayer
370
18
48
1
60
0
100
AcDbEllipse
10
21.004845
20
-11.033146
30
0
11
-1.04999999940963
21
-1.81865334826318
31
0
210
0
220
0
230
1
40
0.989133
41
1.86850787633688
42
2.2353915383415
0
ELLIPSE
5
11F
100
AcDbEntity
8
1
62
256
6
ByLayer
370
18
48
1
60
0
100
AcDbEllipse
10
30.862613
20
-10.212087
30
0
11
-0.39700000031362
21
-0.687624170448427
31
0
210
0
220
0
230
1
40
0.989133
41
-3.14159265315414
42
-2.93992592633543
0
ELLIPSE
5
120
100
AcDbEntity
8
1
62
256
6
ByLayer
370
18
48
1
60
0
100
AcDbEllipse
10
25.932076
20
-16.438215
30
0
11
-1.4249999902228
21
-2.46817240696132
31
0
210
0
220
0
230
1
40
0.989133
41
0.480273070629164
42
0.737836547067375
0
ELLIPSE
5
121
100
AcDbEntity
8
1
62
256
6
ByLayer
370
18
48
1
60
0
100
AcDbEllipse
10
20.188043
20
-13.072329
30
0
11
-0.397000000297731
21
-0.687624170420906
31
0
210
0
220
0
230
1
40
0.989133
41
-2.3616576982851
42
-1.9021421643915
0
ELLIPSE
5
122
100
AcDbEntity
8
1
62
256
6
ByLayer
370
18
48
1
60
0
100
AcDbEllipse
10
26.082661
20
-16.525155
30
0
11
-1.38749999852478
21
-2.40322049626532
31
0
210
0
220
0
230
1
40
0.989133
41
2.45674635557306
42
2.71665330452754
0
ELLIPSE
5
123
100
AcDbEntity
8
1
62
256
6
ByLayer
370
18
48
1
60
0
100
AcDbEllipse
10
14.499785
20
-15.570146
30
0
11
-0.749999999999166
21
-1.29903810567723
31
0
210
0
220
0
230
1
40
0.989133
41
2.08893189387257
42
3.13612944506914
0
ELLIPSE
5
124
100
AcDbEntity
8
1
62
256
6
ByLayer
370
18
48
1
60
0
100
AcDbEllipse
10
14.928245
20
-15.817518
30
0
11
-1.99999999999766
21
-3.46410161513908
31
0
210
0
220
0
230
1
40
0.989133
41
-1.57625953531668
42
-1.34690444010077E-15
0
ELLIPSE
5
125
100
AcDbEntity
8
1
62
256
6
ByLayer
370
18
48
1
60
0
100
AcDbEllipse
10
17.985978
20
-16.181207
30
0
11
-2.17601413601387
21
-10.3292468020188
31
0
210
0
220
0
230
1
40
0.943652
41
-2.8950335228706
42
-2.27923807164322
0
ELLIPSE
5
126
100
AcDbEntity
8
1
62
256
6
ByLayer
370
18
48
1
60
0
100
AcDbEllipse
10
26.868647
20
-16.39357
30
0
11
-1.30000002000789
21
-2.25166604623752
31
0
210
0
220
0
230
1
40
0.989133
41
-0.0932120431709345
42
7.27693510438864E-09
0
ELLIPSE
5
127
100
AcDbEntity
8
1
62
256
6
ByLayer
370
18
48
1
60
0
100
AcDbEllipse
10
27.583475
20
-5.89757
30
0
11
-0.0324652051544655
21
1.19956075730887
31
0
210
0
220
0
230
1
40
0.125664
41
0.809565507869456
42
1.49379013153144
0
ELLIPSE
5
128
100
AcDbEntity
8
1
62
256
6
ByLayer
370
18
48
1
60
0
100
AcDbEllipse
10
21.959798
20
-11.584488
30
0
11
-1.04999999999875
21
-1.81865334794798
31
0
210
0
220
0
230
1
40
0.989133
41
3.14159265358979
42
-1.6489827113037
0
ELLIPSE
5
129
100
AcDbEntity
8
1
62
256
6
ByLayer
370
18
48
1
60
0
100
AcDbEllipse
10
16.587343
20
-6.195172
30
0
11
-0.0324652051808507
21
1.19956075828378
31
0
210
0
220
0
230
1
40
0.125664
41
1.24834289307421
42
1.49379013125105
0
ELLIPSE
5
12A
100
AcDbEntity
8
1
62
256
6
ByLayer
370
18
48
1
60
0
100
AcDbEllipse
10
14.499785
20
-15.570146
30
0
11
-0.749999999666183
21
-1.29903810605448
31
0
210
0
220
0
230
1
40
0.989133
41
3.13612944468451
42
-2.93636143893324
0
ELLIPSE
5
12B
100
AcDbEntity
8
1
62
256
6
ByLayer
370
18
48
1
60
0
100
AcDbEllipse
10
14.499785
20
-15.570146
30
0
11
-0.749999999999223
21
-1.29903810567733
31
0
210
0
220
0
230
1
40
0.989133
41
1.04173434267444
42
2.08893189387089
0
ELLIPSE
5
12C
100
AcDbEntity
8
1
62
256
6
ByLayer
370
18
48
1
60
0
100
AcDbEllipse
10
20.79412
20
-13.422247
30
0
11
-0.396999999999554
21
-0.687624170605139
31
0
210
0
220
0
230
1
40
0.989133
41
-2.36165769871385
42
-0.790861371919037
0
ELLIPSE
5
12D
100
AcDbEntity
8
1
62
256
6
ByLayer
370
18
48
1
60
0
100
AcDbEllipse
10
-241.395329
20
-9.899361
30
0
11
-303.23364572932
21
-5.23455745754877
31
0
210
0
220
0
230
1
40
0.001321
41
-2.66603733104114
42
-2.65493525645917
0
ELLIPSE
5
12E
100
AcDbEntity
8
1
62
256
6
ByLayer
370
18
48
1
60
0
100
AcDbEllipse
10
21.959798
20
-11.584488
30
0
11
-1.0500000000048
21
-1.81865334795845
31
0
210
0
220
0
230
1
40
0.989133
41
2.61979108542694
42
3.14159265358979
0
ELLIPSE
5
12F
100
AcDbEntity
8
1
62
256
6
ByLayer
370
18
48
1
60
0
100
AcDbEllipse
10
21.004845
20
-11.033146
30
0
11
-1.05000000046622
21
-1.81865334770554
31
0
210
0
220
0
230
1
40
0.989133
41
2.47043434806413
42
2.87294454836706
0
ELLIPSE
5
130
100
AcDbEntity
8
1
62
256
6
ByLayer
370
18
48
1
60
0
100
AcDbEllipse
10
27.428886
20
-16.717024
30
0
11
-1.30000000000131
21
-2.2516660498453
31
0
210
0
220
0
230
1
40
0.989133
41
-0.60389698317235
42
0
0
ELLIPSE
5
131
100
AcDbEntity
8
1
62
256
6
ByLayer
370
18
48
1
60
0
100
AcDbEllipse
10
26.897215
20
-16.995438
30
0
11
-1.289999999999
21
-2.23434554176558
31
0
210
0
220
0
230
1
40
0.989133
41
2.39394087291062
42
3.0040419488685
0
ELLIPSE
5
132
100
AcDbEntity
8
1
62
256
6
ByLayer
370
18
48
1
60
0
100
AcDbEllipse
10
20.941182
20
-10.99639
30
0
11
-1.04999999999897
21
-1.81865334794835
31
0
210
0
220
0
230
1
40
0.989133
41
1.84020337004274
42
2.85454335252536
0
ELLIPSE
5
133
100
AcDbEntity
8
1
62
256
6
ByLayer
370
18
48
1
60
0
100
AcDbEllipse
10
25.082575
20
-9.899495
30
0
11
-11.2586613326761
21
1.37874282035295E-15
31
0
210
0
220
0
230
1
40
0.466308
41
-1.5707963267949
42
-0.953600841885738
0
ELLIPSE
5
134
100
AcDbEntity
8
1
62
256
6
ByLayer
370
18
48
1
60
0
100
AcDbEllipse
10
15.009093
20
-15.864195
30
0
11
-0.866025403783657
21
-1.50000000000097
31
0
210
0
220
0
230
1
40
0.989133
41
2.61253066946819
42
-2.62345708651493
0
ELLIPSE
5
135
100
AcDbEntity
8
1
62
256
6
ByLayer
370
18
48
1
60
0
100
AcDbEllipse
10
14.499785
20
-15.570146
30
0
11
-0.74999999999883
21
-1.29903810567665
31
0
210
0
220
0
230
1
40
0.989133
41
-0.00546320851103919
42
1.04173434268581
0
ELLIPSE
5
136
100
AcDbEntity
8
1
62
256
6
ByLayer
370
18
48
1
60
0
100
AcDbEllipse
10
27.503291
20
-17.345356
30
0
11
-1.2899999999985
21
-2.23434554176472
31
0
210
0
220
0
230
1
40
0.989133
41
0
42
3.14159265358979
0
ELLIPSE
5
137
100
AcDbEntity
8
1
62
256
6
ByLayer
370
18
48
1
60
0
100
AcDbEllipse
10
22.5981
20
-16.833327
30
0
11
-0.949999999996176
21
-1.64544826718636
31
0
210
0
220
0
230
1
40
0.989133
41
-1.18870118403927
42
-0.788679710443756
0
ELLIPSE
5
138
100
AcDbEntity
8
1
62
256
6
ByLayer
370
18
48
1
60
0
100
AcDbEllipse
10
27.421802
20
-17.298308
30
0
11
-0.925000000000409
21
-1.60214699700441
31
0
210
0
220
0
230
1
40
0.989133
41
1.62577159053038
42
2.31239914981327
0
ELLIPSE
5
139
100
AcDbEntity
8
1
62
256
6
ByLayer
370
18
48
1
60
0
100
AcDbEllipse
10
18.345292
20
-16.388656
30
0
11
-9.19317035261942
21
5.30767937779092
31
0
210
0
220
0
230
-1
40
0.989133
41
-0.0984014264347371
42
0.409204558970902
0
ELLIPSE
5
13A
100
AcDbEntity
8
1
62
256
6
ByLayer
370
18
48
1
60
0
100
AcDbEllipse
10
15.009093
20
-15.864195
30
0
11
-0.866025403783441
21
-1.5000000000006
31
0
210
0
220
0
230
1
40
0.989133
41
-2.62345708651361
42
-1.57625953531701
0
ELLIPSE
5
13B
100
AcDbEntity
8
1
62
256
6
ByLayer
370
18
48
1
60
0
100
AcDbEllipse
10
23.537893
20
-24.128707
30
0
11
-0.396999999999305
21
-0.687624170604708
31
0
210
0
220
0
230
1
40
0.989133
41
-0.790861371929738
42
0
0
ELLIPSE
5
13C
100
AcDbEntity
8
1
62
256
6
ByLayer
370
18
48
1
60
0
100
AcDbEllipse
10
31.468689
20
-10.562005
30
0
11
-0.396999999998196
21
-0.687624170602787
31
0
210
0
220
0
230
1
40
0.989133
41
2.35073128160044
42
3.14159265358979
0
ELLIPSE
5
13D
100
AcDbEntity
8
1
62
256
6
ByLayer
370
18
48
1
60
0
100
AcDbEllipse
10
26.727152
20
-17.482627
30
0
11
-1.29999999999417
21
-2.25166604983293
31
0
210
0
220
0
230
1
40
0.989133
41
3.14159265358979
42
-2.62693295084635
0
ELLIPSE
5
13E
100
AcDbEntity
8
1
62
256
6
ByLayer
370
18
48
1
60
0
100
AcDbEllipse
10
27.351054
20
-17.842837
30
0
11
-1.04999999999877
21
-1.81865334794802
31
0
210
0
220
0
230
1
40
0.989133
41
2.56159130665535
42
-1.76501321999524
0
ELLIPSE
5
13F
100
AcDbEntity
8
1
62
256
6
ByLayer
370
18
48
1
60
0
100
AcDbEllipse
10
15.009093
20
-15.864195
30
0
11
-0.866025403782845
21
-1.49999999999957
31
0
210
0
220
0
230
1
40
0.989133
41
-0.529061984120651
42
0.518135567076299
0
ELLIPSE
5
140
100
AcDbEntity
8
1
62
256
6
ByLayer
370
18
48
1
60
0
100
AcDbEllipse
10
31.468689
20
-10.562005
30
0
11
-0.396999999998542
21
-0.687624170603386
31
0
210
0
220
0
230
1
40
0.989133
41
3.14159265358979
42
-2.36165769867144
0
ELLIPSE
5
141
100
AcDbEntity
8
1
62
256
6
ByLayer
370
18
48
1
60
0
100
AcDbEllipse
10
15.009093
20
-15.864195
30
0
11
-0.866025403783199
21
-1.50000000000018
31
0
210
0
220
0
230
1
40
0.989133
41
1.56533311826383
42
2.61253066946068
0
ELLIPSE
5
142
100
AcDbEntity
8
1
62
256
6
ByLayer
370
18
48
1
60
0
100
AcDbEllipse
10
23.537893
20
-24.128707
30
0
11
-0.396999999998653
21
-0.687624170603578
31
0
210
0
220
0
230
1
40
0.989133
41
0
42
0.779934954918676
0
ELLIPSE
5
143
100
AcDbEntity
8
1
62
256
6
ByLayer
370
18
48
1
60
0
100
AcDbEllipse
10
26.082661
20
-16.525155
30
0
11
-1.38750000184157
21
-2.40322049434127
31
0
210
0
220
0
230
1
40
0.989133
41
0.424939349244871
42
0.69863520953788
0
ELLIPSE
5
144
100
AcDbEntity
8
1
62
256
6
ByLayer
370
18
48
1
60
0
100
AcDbEllipse
10
21.275306
20
-11.085972
30
0
11
-0.993635207154223
21
-1.7210266482527
31
0
210
0
220
0
230
1
40
0.989133
41
2.74624745641727
42
2.95684384685958
0
ELLIPSE
5
145
100
AcDbEntity
8
1
62
256
6
ByLayer
370
18
48
1
60
0
100
AcDbEllipse
10
25.932076
20
-16.438215
30
0
11
-1.42500000574931
21
-2.46817239777823
31
0
210
0
220
0
230
1
40
0.989133
41
2.44956387980302
42
2.66131958107859
0
ELLIPSE
5
146
100
AcDbEntity
8
1
62
256
6
ByLayer
370
18
48
1
60
0
100
AcDbEllipse
10
27.358138
20
-17.261552
30
0
11
-1.1749999999995
21
-2.03515969889573
31
0
210
0
220
0
230
1
40
0.989133
41
-1.54260027358949
42
-0.802414293293202
0
ELLIPSE
5
147
100
AcDbEntity
8
1
62
256
6
ByLayer
370
18
48
1
60
0
100
AcDbEllipse
10
27.060844
20
-16.933242
30
0
11
-1.17495051559774
21
-2.03511070053315
31
0
210
0
220
0
230
1
40
0.989147
41
-0.0123650300482173
42
-7.7263285748359E-06
0
ELLIPSE
5
148
100
AcDbEntity
8
1
62
256
6
ByLayer
370
18
48
1
60
0
100
AcDbEllipse
10
23.350169
20
-19.741578
30
0
11
-0.95000000041718
21
-1.64544826696365
31
0
210
0
220
0
230
1
40
0.989133
41
-0.788679710201705
42
-0.388658236608857
0
ELLIPSE
5
149
100
AcDbEntity
8
1
62
256
6
ByLayer
370
18
48
1
60
0
100
AcDbEllipse
10
21.462184
20
-11.844917
30
0
11
-0.949999999998784
21
-1.64544826719088
31
0
210
0
220
0
230
1
40
0.989133
41
-1.9134457711096
42
-0.788679710357634
0
ELLIPSE
5
14A
100
AcDbEntity
8
1
62
256
6
ByLayer
370
18
48
1
60
0
100
AcDbEllipse
10
15.009093
20
-15.864195
30
0
11
-0.866025403783329
21
-1.5000000000004
31
0
210
0
220
0
230
1
40
0.989133
41
0.518135567081195
42
1.5653331182779
0
ELLIPSE
5
14B
100
AcDbEntity
8
1
62
256
6
ByLayer
370
18
48
1
60
0
100
AcDbEllipse
10
27.503291
20
-17.345356
30
0
11
-1.28999999999849
21
-2.23434554176471
31
0
210
0
220
0
230
1
40
0.989133
41
-1.57625953531659
42
0
0
ELLIPSE
5
14C
100
AcDbEntity
8
1
62
256
6
ByLayer
370
18
48
1
60
0
100
AcDbEllipse
10
27.37529
20
-2.619169
30
0
11
-1.59999999999839
21
-2.77128129211172
31
0
210
0
220
0
230
1
40
0.989133
41
0.54579631659083
42
1.4251819191659
0
ELLIPSE
5
14D
100
AcDbEntity
8
1
62
256
6
ByLayer
370
18
48
1
60
0
100
AcDbEllipse
10
14.372458
20
-15.496634
30
0
11
-0.749999999999128
21
-1.29903810567716
31
0
210
0
220
0
230
1
40
0.989133
41
0.0495669057807442
42
3.09202574780179
0
ELLIPSE
5
14E
100
AcDbEntity
8
1
62
256
6
ByLayer
370
18
48
1
60
0
100
AcDbEllipse
10
25.082575
20
-9.899495
30
0
11
-11.2586613326968
21
1.37874282035548E-15
31
0
210
0
220
0
230
1
40
0.466308
41
-1.91531179670305
42
-1.5707963267949
0
ELLIPSE
5
14F
100
AcDbEntity
8
1
62
256
6
ByLayer
370
18
48
1
60
0
100
AcDbEllipse
10
23.560624
20
-11.302842
30
0
11
-0.0389622246979758
21
0.144852218952243
31
0
210
0
220
0
230
1
40
0.092793
41
-0.115849065099036
42
1.46658279004989
0
ELLIPSE
5
150
100
AcDbEntity
8
1
62
256
6
ByLayer
370
18
48
1
60
0
100
AcDbEllipse
10
-241.402914
20
-9.899497
30
0
11
-303.241286024397
21
-5.23469399263644
31
0
210
0
220
0
230
1
40
0.001321
41
-2.63207798098204
42
-2.61100976975249
0
ELLIPSE
5
151
100
AcDbEntity
8
1
62
256
6
ByLayer
370
18
48
1
60
0
100
AcDbEllipse
10
16.313542
20
-9.899495
30
0
11
-9.84668992478634
21
-5.05283711914326
31
0
210
0
220
0
230
1
40
0.144744
41
-2.62573973462773
42
-2.43353466884789
0
ELLIPSE
5
152
100
AcDbEntity
8
1
62
256
6
ByLayer
370
18
48
1
60
0
100
AcDbEllipse
10
25.036438
20
-4.988727
30
0
11
-2.5458078813532
21
-0.0665385906568615
31
0
210
0
220
0
230
1
40
0.069407
41
-1.55812584581295
42
-1.30903693007887
0
ELLIPSE
5
153
100
AcDbEntity
8
1
62
256
6
ByLayer
370
18
48
1
60
0
100
AcDbEllipse
10
14.928245
20
-15.817518
30
0
11
-1.99999999999767
21
-3.4641016151391
31
0
210
0
220
0
230
1
40
0.989133
41
0
42
3.14159265358979
0
ELLIPSE
5
154
100
AcDbEntity
8
1
62
256
6
ByLayer
370
18
48
1
60
0
100
AcDbEllipse
10
14.499785
20
-15.570146
30
0
11
-0.749999996618727
21
-1.299038106752
31
0
210
0
220
0
230
1
40
0.989133
41
-0.207514969826356
42
-0.00546321080832883
0
ELLIPSE
5
155
100
AcDbEntity
8
1
62
256
6
ByLayer
370
18
48
1
60
0
100
AcDbEllipse
10
27.421802
20
-17.298308
30
0
11
-0.924999999996262
21
-1.60214699699722
31
0
210
0
220
0
230
1
40
0.989133
41
-1.51582106319565
42
-0.829193503909992
0
ELLIPSE
5
156
100
AcDbEntity
8
1
62
256
6
ByLayer
370
18
48
1
60
0
100
AcDbEllipse
10
27.060878
20
-16.933184
30
0
11
-1.17500000000514
21
-2.03515969890549
31
0
210
0
220
0
230
1
40
0.989133
41
-0.492125907930332
42
-0.0123571270236606
0
ELLIPSE
5
157
100
AcDbEntity
8
1
62
256
6
ByLayer
370
18
48
1
60
0
100
AcDbEllipse
10
27.287391
20
-17.806081
30
0
11
-1.30000000000038
21
-2.2516660498437
31
0
210
0
220
0
230
1
40
0.989133
41
2.53769567041025
42
3.14159265358979
0
ELLIPSE
5
158
100
AcDbEntity
8
1
62
256
6
ByLayer
370
18
48
1
60
0
100
AcDbEllipse
10
25.082575
20
9.899495
30
0
11
-11.2586613326732
21
1.37874282035259E-15
31
0
210
0
220
0
230
1
40
0.466308
41
0.904058642474362
42
1.55058064779622
0
ELLIPSE
5
159
100
AcDbEntity
8
1
62
256
6
ByLayer
370
18
48
1
60
0
100
AcDbEllipse
10
44.151713
20
-0.011237
30
0
11
-155.750066005624
21
-1.50374369264908
31
0
210
0
220
0
230
1
40
0.127975
41
1.31621964526488
42
1.31993512432838
0
ELLIPSE
5
15A
100
AcDbEntity
8
1
62
256
6
ByLayer
370
18
48
1
60
0
100
AcDbEllipse
10
310.662059
20
2.53546
30
0
11
-391.01710432564
21
-3.75320875637368
31
0
210
0
220
0
230
1
40
0.093675
41
0.687466410908761
42
0.734669876547029
0
ELLIPSE
5
15B
100
AcDbEntity
8
1
62
256
6
ByLayer
370
18
48
1
60
0
100
AcDbEllipse
10
169.895647
20
13.050161
30
0
11
-150.01298808573
21
-37.6869479440263
31
0
210
0
220
0
230
1
40
0.023708
41
0.0683486864196388
42
0.101339255153124
0
ELLIPSE
5
15C
100
AcDbEntity
8
1
62
256
6
ByLayer
370
18
48
1
60
0
100
AcDbEllipse
10
10.668004
20
0
30
0
11
-7.6830884393949
21
-19.9723307383956
31
0
210
0
220
0
230
1
40
0.136881
41
0.301446311560474
42
0.943026708718051
0
ELLIPSE
5
15D
100
AcDbEntity
8
1
62
256
6
ByLayer
370
18
48
1
60
0
100
AcDbEllipse
10
34.212463
20
-21.268465
30
0
11
-0.396999999999541
21
-0.687624170605116
31
0
210
0
220
0
230
1
40
0.989133
41
0.779934954875787
42
2.3507312816707
0
POINT
5
6C
100
AcDbEntity
8
81
62
256
6
ByLayer
370
13
48
1
60
0
100
AcDbPoint
10
35
20
-22
30
0
39
0
210
0
220
0
230
1
50
360
0
POINT
5
6E
100
AcDbEntity
8
80
62
256
6
ByLayer
370
13
48
1
60
0
100
AcDbPoint
10
0
20
0
30
0
39
0
210
0
220
0
230
1
50
360
0
SPLINE
5
15E
100
AcDbEntity
8
1
62
256
6
ByLayer
370
18
48
1
60
0
100
AcDbSpline
70
4
71
3
72
10
73
6
40
0
40
0
40
0
40
0
40
0.380092284938673
40
0.988808279777259
40
1
40
1
40
1
40
1
41
1
10
22.8479066183927
20
-9.87621644742304
30
0
41
1
10
22.9093312113128
20
-9.9576931850337
30
0
41
1
10
23.0522832812532
20
-10.1767269014294
30
0
41
1
10
23.1551961906892
20
-10.4230524893602
30
0
41
1
10
23.2000926112444
20
-10.5790652034547
30
0
41
1
10
23.2008974418497
20
-10.5818839355873
30
0
0
SPLINE
5
15F
100
AcDbEntity
8
1
62
256
6
ByLayer
370
18
48
1
60
0
100
AcDbSpline
70
4
71
3
72
10
73
6
40
0
40
0
40
0
40
0
40
0.373562299847971
40
0.900072767599818
40
1
40
1
40
1
40
1
41
1
10
0.343278579257491
20
-5.34998840487792
30
0
41
1
10
0.36383819727098
20
-5.46424197604528
30
0
41
1
10
0.405239346638605
20
-5.73819331918353
30
0
41
1
10
0.4404944130617
20
-6.04371842445937
30
0
41
1
10
0.444858120752446
20
-6.23002569633091
30
0
41
1
10
0.4452547737749
20
-6.25968037350799
30
0
0
SPLINE
5
160
100
AcDbEntity
8
1
62
256
6
ByLayer
370
18
48
1
60
0
100
AcDbSpline
70
4
71
1
72
4
73
2
40
0
40
0
40
1
40
1
41
1
10
0.34327857925749
20
-15.1245672474212
30
0
41
1
10
-0.325
20
-14.576173837808
30
0
0
SPLINE
5
161
100
AcDbEntity
8
1
62
256
6
ByLayer
370
18
48
1
60
0
100
AcDbSpline
70
4
71
3
72
10
73
6
40
0
40
0
40
0
40
0
40
0.519972815659773
40
0.811096427693669
40
1
40
1
40
1
40
1
41
1
10
0.34327857925749
20
-14.8237109429722
30
0
41
1
10
0.373158401212095
20
-14.8772801513825
30
0
41
1
10
0.409492882502976
20
-14.9569864428823
30
0
41
1
10
0.439827846720284
20
-15.0528272249789
30
0
41
1
10
0.444582505623643
20
-15.0927809032537
30
0
41
1
10
0.445268008465127
20
-15.107879944568
30
0
0
SPLINE
5
162
100
AcDbEntity
8
1
62
256
6
ByLayer
370
18
48
1
60
0
100
AcDbSpline
70
4
71
3
72
10
73
6
40
0
40
0
40
0
40
0
40
0.6510182376344
40
0.941688302691961
40
1
40
1
40
1
40
1
41
1
10
0.343278579257492
20
-9.11879287402913
30
0
41
1
10
0.382101841517206
20
-9.23907725816406
30
0
41
1
10
0.421163780593169
20
-9.40863650215755
30
0
41
1
10
0.443767068358767
20
-9.58683530372369
30
0
41
1
10
0.445166123407124
20
-9.64607128163212
30
0
41
1
10
0.445270074839047
20
-9.65592105805465
30
0
0
SPLINE
5
163
100
AcDbEntity
8
1
62
256
6
ByLayer
370
18
48
1
60
0
100
AcDbSpline
70
4
71
3
72
15
73
11
40
0
40
0
40
0
40
0
40
0.107136219929671
40
0.211562938179961
40
0.304607961447509
40
0.397908648388196
40
0.538413622099106
40
0.679224751619588
40
0.839555756209003
40
1
40
1
40
1
40
1
41
1
10
6.2
20
-12
30
0
41
1
10
6.09930483292871
20
-11.9974923166786
30
0
41
1
10
5.91331387038262
20
-11.9689507027236
30
0
41
1
10
5.67542932572433
20
-11.8487465086432
30
0
41
1
10
5.49289135544828
20
-11.6959770670052
30
0
41
1
10
5.32726803951201
20
-11.4967540038616
30
0
41
1
10
5.18678522291675
20
-11.243036862569
30
0
41
1
10
5.0775610337938
20
-10.9241198042794
30
0
41
1
10
5.01365275839594
20
-10.5768093532421
30
0
41
1
10
4.99915828465592
20
-10.3306608106664
30
0
41
1
10
5
20
-10.2058806577385
30
0
0
SPLINE
5
164
100
AcDbEntity
8
1
62
256
6
ByLayer
370
18
48
1
60
0
100
AcDbSpline
70
4
71
3
72
12
73
8
40
0
40
0
40
0
40
0
40
0.0913045395127526
40
0.295810713087292
40
0.508386110195917
40
0.837322015377631
40
1
40
1
40
1
40
1
41
1
10
0.44527857854944
20
-19.7560469117246
30
0
41
1
10
0.445262417292104
20
-19.756309718114
30
0
41
1
10
0.444044050287318
20
-19.7559688236375
30
0
41
1
10
0.434766909727236
20
-19.7480947933914
30
0
41
1
10
0.409788268894756
20
-19.7247469505845
30
0
41
1
10
0.376945690909013
20
-19.6929519463733
30
0
41
1
10
0.351945112403602
20
-19.6684507021674
30
0
41
1
10
0.343278579251096
20
-19.659920499448
30
0
0
SPLINE
5
165
100
AcDbEntity
8
1
62
256
6
ByLayer
370
18
48
1
60
0
100
AcDbSpline
70
4
71
1
72
4
73
2
40
0
40
0
40
1
40
1
41
1
10
0.34327857925749
20
-6.47090137540591
30
0
41
1
10
-0.325
20
-5.49680304813625
30
0
0
SPLINE
5
166
100
AcDbEntity
8
1
62
256
6
ByLayer
370
18
48
1
60
0
100
AcDbSpline
70
4
71
3
72
11
73
7
40
0
40
0
40
0
40
0
40
0.35875999109771
40
0.635283454213903
40
0.861255451520047
40
1
40
1
40
1
40
1
41
1
10
0.343278579257485
20
-19.6464364834369
30
0
41
1
10
0.363063141795489
20
-19.6667641633906
30
0
41
1
10
0.393715789184491
20
-19.6986286683902
30
0
41
1
10
0.427776069172768
20
-19.7349699059508
30
0
41
1
10
0.442851656513411
20
-19.7520465092696
30
0
41
1
10
0.44518407609693
20
-19.7555139734217
30
0
41
1
10
0.44527857854944
20
-19.7560469117246
30
0
0
SPLINE
5
167
100
AcDbEntity
8
1
62
256
6
ByLayer
370
18
48
1
60
0
100
AcDbSpline
70
4
71
3
72
13
73
9
40
0
40
0
40
0
40
0
40
0.0873567378933666
40
0.29685869942524
40
0.508074974959303
40
0.688110787978948
40
0.912198191365231
40
1
40
1
40
1
40
1
41
1
10
0.445276670197079
20
-16.2567364954148
30
0
41
1
10
0.445339899564483
20
-16.2606390439808
30
0
41
1
10
0.444580912207131
20
-16.2729312134249
30
0
41
1
10
0.438424514079118
20
-16.2898822237654
30
0
41
1
10
0.419738195308064
20
-16.2967894116173
30
0
41
1
10
0.391459944511396
20
-16.2886249735707
30
0
41
1
10
0.364940634042524
20
-16.2719559799631
30
0
41
1
10
0.348088072645902
20
-16.2588832613755
30
0
41
1
10
0.343278579249779
20
-16.2549231580643
30
0
0
SPLINE
5
168
100
AcDbEntity
8
1
62
256
6
ByLayer
370
18
48
1
60
0
100
AcDbSpline
70
4
71
1
72
4
73
2
40
0
40
0
40
1
40
1
41
1
10
0.343278579257491
20
-18.9048259409171
30
0
41
1
10
-0.325
20
-18.0890807878676
30
0
0
SPLINE
5
169
100
AcDbEntity
8
1
62
256
6
ByLayer
370
18
48
1
60
0
100
AcDbSpline
70
4
71
1
72
4
73
2
40
0
40
0
40
1
40
1
41
1
10
25.4769891514906
20
-18.5781475652382
30
0
41
1
10
25.4725855479855
20
-18.5767415925507
30
0
0
SPLINE
5
16A
100
AcDbEntity
8
1
62
256
6
ByLayer
370
18
48
1
60
0
100
AcDbSpline
70
4
71
3
72
10
73
6
40
0
40
0
40
0
40
0
40
0.484210272283956
40
0.77575989123551
40
1
40
1
40
1
40
1
41
1
10
0.343278579257491
20
-17.7716749003053
30
0
41
1
10
0.370934683219427
20
-17.8092687365537
30
0
41
1
10
0.406316377930559
20
-17.8644963146342
30
0
41
1
10
0.439142429592592
20
-17.9312355204878
30
0
41
1
10
0.444593960116143
20
-17.9567526878107
30
0
41
1
10
0.445278578418583
20
-17.9666666294272
30
0
0
SPLINE
5
16B
100
AcDbEntity
8
1
62
256
6
ByLayer
370
18
48
1
60
0
100
AcDbSpline
70
4
71
1
72
4
73
2
40
0
40
0
40
1
40
1
41
1
10
0.343278579257491
20
-16.008510663641
30
0
41
1
10
-0.325
20
-14.8816949219503
30
0
0
SPLINE
5
16C
100
AcDbEntity
8
1
62
256
6
ByLayer
370
18
48
1
60
0
100
AcDbSpline
70
4
71
1
72
4
73
2
40
0
40
0
40
1
40
1
41
1
10
0.34327857925749
20
-19.0026970897866
30
0
41
1
10
-0.325
20
-18.4126951788705
30
0
0
SPLINE
5
16D
100
AcDbEntity
8
1
62
256
6
ByLayer
370
18
48
1
60
0
100
AcDbSpline
70
4
71
1
72
4
73
2
40
0
40
0
40
1
40
1
41
1
10
0.343278579257491
20
-13.3683356695468
30
0
41
1
10
-0.325
20
-11.8991530686011
30
0
0
SPLINE
5
16E
100
AcDbEntity
8
1
62
256
6
ByLayer
370
18
48
1
60
0
100
AcDbSpline
70
4
71
1
72
4
73
2
40
0
40
0
40
1
40
1
41
1
10
29.6221820817265
20
-16.6828576176464
30
0
41
1
10
29.2151758777916
20
-16.8907754868932
30
0
0
SPLINE
5
16F
100
AcDbEntity
8
1
62
256
6
ByLayer
370
18
48
1
60
0
100
AcDbSpline
70
4
71
3
72
14
73
10
40
0
40
0
40
0
40
0
40
0.0605632236412844
40
0.307519264854577
40
0.484474450975054
40
0.612939291301862
40
0.742116713754717
40
0.858868455403246
40
1
40
1
40
1
40
1
41
1
10
0.44527689673248
20
-11.9488597401227
30
0
41
1
10
0.445308180126559
20
-11.9530012942195
30
0
41
1
10
0.444949509029535
20
-11.9736364097296
30
0
41
1
10
0.441407325024671
20
-12.0044481419012
30
0
41
1
10
0.428586448334317
20
-12.0317704696501
30
0
41
1
10
0.411080162647439
20
-12.0436672363703
30
0
41
1
10
0.390593562774665
20
-12.0432369588891
30
0
41
1
10
0.367046751533775
20
-12.0322192974105
30
0
41
1
10
0.351734972464639
20
-12.0207974910253
30
0
41
1
10
0.34327857925749
20
-12.0130158376653
30
0
0
SPLINE
5
170
100
AcDbEntity
8
1
62
256
6
ByLayer
370
18
48
1
60
0
100
AcDbSpline
70
4
71
1
72
4
73
2
40
0
40
0
40
1
40
1
41
1
10
8.36800708693058
20
-12.5817265856956
30
0
41
1
10
8.68081937700578
20
-12
30
0
0
SPLINE
5
171
100
AcDbEntity
8
1
62
256
6
ByLayer
370
18
48
1
60
0
100
AcDbSpline
70
4
71
1
72
4
73
2
40
0
40
0
40
1
40
1
41
1
10
0.34327857925749
20
-18.5373273217393
30
0
41
1
10
-0.325
20
-17.9642657448057
30
0
0
SPLINE
5
172
100
AcDbEntity
8
1
62
256
6
ByLayer
370
18
48
1
60
0
100
AcDbSpline
70
4
71
3
72
13
73
9
40
0
40
0
40
0
40
0
40
0.0141426749672782
40
0.443635885130004
40
0.666557866785931
40
0.82355155985782
40
0.919640238954417
40
1
40
1
40
1
40
1
41
1
10
25.8952726662233
20
-18.9737680600602
30
0
41
1
10
25.8914585193886
20
-18.9715646254404
30
0
41
1
10
25.7722308945986
20
-18.9022365684416
30
0
41
1
10
25.6070936958753
20
-18.7818437855117
30
0
41
1
10
25.4520576247666
20
-18.6297544005903
30
0
41
1
10
25.3862126580054
20
-18.5518724574155
30
0
41
1
10
25.3624437787925
20
-18.5170660913324
30
0
41
1
10
25.3638614140594
20
-18.5143633616428
30
0
41
1
10
25.3669896113107
20
-18.5157757500861
30
0
0
SPLINE
5
173
100
AcDbEntity
8
1
62
256
6
ByLayer
370
18
48
1
60
0
100
AcDbSpline
70
4
71
3
72
11
73
7
40
0
40
0
40
0
40
0
40
0.128709323381074
40
0.378483294965363
40
0.634356167321735
40
1
40
1
40
1
40
1
41
1
10
13.5126118808362
20
-16.7267631542111
30
0
41
1
10
13.5717431588473
20
-16.761359581828
30
0
41
1
10
13.7477939133056
20
-16.8643550999414
30
0
41
1
10
14.053889045838
20
-17.0433988918466
30
0
41
1
10
14.4929955293154
20
-17.3001569320555
30
0
41
1
10
14.8058994112323
20
-17.4830587268263
30
0
41
1
10
14.9915577519032
20
-17.5915593136789
30
0
0
SPLINE
5
174
100
AcDbEntity
8
1
62
256
6
ByLayer
370
18
48
1
60
0
100
AcDbSpline
70
4
71
3
72
13
73
9
40
0
40
0
40
0
40
0
40
0.159607261867439
40
0.349187474989683
40
0.540335686645973
40
0.708570849644268
40
0.906245943310002
40
1
40
1
40
1
40
1
41
1
10
0.445268008465127
20
-15.107879944568
30
0
41
1
10
0.445533112871724
20
-15.1163304117451
30
0
41
1
10
0.444034984519167
20
-15.1327570849862
30
0
41
1
10
0.435734230516095
20
-15.1531534626684
30
0
41
1
10
0.417359714532144
20
-15.1621557382585
30
0
41
1
10
0.390388826186602
20
-15.1565162597864
30
0
41
1
10
0.364703298214654
20
-15.1413052454818
30
0
41
1
10
0.348542417143026
20
-15.1289371124836
30
0
41
1
10
0.343278579223907
20
-15.1245672474115
30
0
0
SPLINE
5
175
100
AcDbEntity
8
1
62
256
6
ByLayer
370
18
48
1
60
0
100
AcDbSpline
70
4
71
3
72
14
73
10
40
0
40
0
40
0
40
0
40
0.299554993682678
40
0.447283097936984
40
0.596044430847601
40
0.688952772893006
40
0.782416656876076
40
0.867545661811702
40
1
40
1
40
1
40
1
41
1
10
0.445270074839047
20
-9.65592105805465
30
0
41
1
10
0.44619216498163
20
-9.6817559410662
30
0
41
1
10
0.443491801190857
20
-9.71727095479038
30
0
41
1
10
0.433535456889534
20
-9.7604281394419
30
0
41
1
10
0.421216896446767
20
-9.78346809508259
30
0
41
1
10
0.404473571750945
20
-9.79444121536336
30
0
41
1
10
0.387118592193602
20
-9.79454649011402
30
0
41
1
10
0.365809949670601
20
-9.78467054375278
30
0
41
1
10
0.351744098655152
20
-9.773326444858
30
0
41
1
10
0.343278579257471
20
-9.76435133857412
30
0
0
SPLINE
5
176
100
AcDbEntity
8
1
62
256
6
ByLayer
370
18
48
1
60
0
100
AcDbSpline
70
4
71
3
72
12
73
8
40
0
40
0
40
0
40
0
40
0.204245446738405
40
0.414998653529254
40
0.669450422043239
40
0.93118833459108
40
1
40
1
40
1
40
1
41
1
10
24.5181381201762
20
-4.80112892457236
30
0
41
1
10
24.6788880418938
20
-4.80153969383928
30
0
41
1
10
24.9998379450701
20
-4.80971495872204
30
0
41
1
10
25.5041132082683
20
-4.84621160357034
30
0
41
1
10
26.0167729053013
20
-4.91693099073135
30
0
41
1
10
26.3920981660247
20
-5.00674463209045
30
0
41
1
10
26.5894930049765
20
-5.07119596862526
30
0
41
1
10
26.6299723538756
20
-5.08517243737244
30
0
0
SPLINE
5
177
100
AcDbEntity
8
1
62
256
6
ByLayer
370
18
48
1
60
0
100
AcDbSpline
70
4
71
3
72
12
73
8
40
0
40
0
40
0
40
0
40
0.0869922293587094
40
0.304723355848462
40
0.51049264101133
40
0.797151079008095
40
1
40
1
40
1
40
1
41
1
10
0.445278434846709
20
-19.4113263027233
30
0
41
1
10
0.445289858870735
20
-19.412627364029
30
0
41
1
10
0.44420124310925
20
-19.4159873014852
30
0
41
1
10
0.435311474222773
20
-19.4144768570077
30
0
41
1
10
0.411338334381415
20
-19.3990917995989
30
0
41
1
10
0.378978064464339
20
-19.3728484657292
30
0
41
1
10
0.354171820152453
20
-19.35091397486
30
0
41
1
10
0.343278579257491
20
-19.340953677083
30
0
0
SPLINE
5
178
100
AcDbEntity
8
1
62
256
6
ByLayer
370
18
48
1
60
0
100
AcDbSpline
70
4
71
1
72
4
73
2
40
0
40
0
40
1
40
1
41
1
10
0.34327857925749
20
-9.7643513385741
30
0
41
1
10
-0.325
20
-9.08445616148815
30
0
0
SPLINE
5
179
100
AcDbEntity
8
1
62
256
6
ByLayer
370
18
48
1
60
0
100
AcDbSpline
70
4
71
1
72
4
73
2
40
0
40
0
40
1
40
1
41
1
10
25.9960639976501
20
-19.1027995546811
30
0
41
1
10
26.1238518987541
20
-19.1378398044565
30
0
0
SPLINE
5
17A
100
AcDbEntity
8
1
62
256
6
ByLayer
370
18
48
1
60
0
100
AcDbSpline
70
4
71
3
72
10
73
6
40
0
40
0
40
0
40
0
40
0.518472063503979
40
0.804388165633826
40
1
40
1
40
1
40
1
41
1
10
0.343278579257492
20
-16.9794705811172
30
0
41
1
10
0.373154006176411
20
-17.0233146114617
30
0
41
1
10
0.409283392479335
20
-17.0861615294962
30
0
41
1
10
0.440133018209672
20
-17.1601050191044
30
0
41
1
10
0.444724835053299
20
-17.1881338076274
30
0
41
1
10
0.445278221262945
20
-17.1986612353246
30
0
0
SPLINE
5
17B
100
AcDbEntity
8
1
62
256
6
ByLayer
370
18
48
1
60
0
100
AcDbSpline
70
4
71
3
72
12
73
8
40
0
40
0
40
0
40
0
40
0.113059226439812
40
0.323831645084121
40
0.534188431318768
40
0.850864934467258
40
1
40
1
40
1
40
1
41
1
10
0.445278468411715
20
-19.6418037281452
30
0
41
1
10
0.445271165196065
20
-19.6428210297956
30
0
41
1
10
0.443697816345615
20
-19.6441064822079
30
0
41
1
10
0.43304521982258
20
-19.637989340363
30
0
41
1
10
0.407150383625202
20
-19.6172219236943
30
0
41
1
10
0.375020908959502
20
-19.5884258899265
30
0
41
1
10
0.351214610342898
20
-19.566201069071
30
0
41
1
10
0.343278579250218
20
-19.5586932485726
30
0
0
SPLINE
5
17C
100
AcDbEntity
8
1
62
256
6
ByLayer
370
18
48
1
60
0
100
AcDbSpline
70
4
71
2
72
6
73
3
40
0
40
0
40
0
40
1
40
1
40
1
41
1
10
0.34327857925749
20
-11.54046753934
30
0
41
1
10
0.437514128700351
20
-11.7594541353348
30
0
41
1
10
0.44527689673248
20
-11.9488597401227
30
0
0
SPLINE
5
17D
100
AcDbEntity
8
1
62
256
6
ByLayer
370
18
48
1
60
0
100
AcDbSpline
70
4
71
1
72
4
73
2
40
0
40
0
40
1
40
1
41
1
10
29.0549704276555
20
-18.1238397957252
30
0
41
1
10
29.403507489205
20
-18.3659453968551
30
0
0
SPLINE
5
17E
100
AcDbEntity
8
1
62
256
6
ByLayer
370
18
48
1
60
0
100
AcDbSpline
70
4
71
3
72
13
73
9
40
0
40
0
40
0
40
0
40
0.0414554286394384
40
0.257288121419045
40
0.474594288463935
40
0.663371611005841
40
0.908281117885497
40
1
40
1
40
1
40
1
41
1
10
0.445278221262945
20
-17.1986612353246
30
0
41
1
10
0.445290471540199
20
-17.2002303990524
30
0
41
1
10
0.44495668297683
20
-17.2095582320094
30
0
41
1
10
0.440223987855059
20
-17.2232262883632
30
0
41
1
10
0.422160539089437
20
-17.2276881015109
30
0
41
1
10
0.393668585324251
20
-17.2175459167364
30
0
41
1
10
0.366115692588832
20
-17.1993747953103
30
0
41
1
10
0.348231995837727
20
-17.1852712862034
30
0
41
1
10
0.343278579252596
20
-17.1811675775391
30
0
0
SPLINE
5
17F
100
AcDbEntity
8
1
62
256
6
ByLayer
370
18
48
1
60
0
100
AcDbSpline
70
4
71
1
72
4
73
2
40
0
40
0
40
1
40
1
41
1
10
0.343278579257491
20
-14.8237109429722
30
0
41
1
10
-0.325
20
-13.5564502636199
30
0
0
SPLINE
5
180
100
AcDbEntity
8
1
62
256
6
ByLayer
370
18
48
1
60
0
100
AcDbSpline
70
4
71
1
72
4
73
2
40
0
40
0
40
1
40
1
41
1
10
29.7604364381586
20
-4.20313011494396
30
0
41
1
10
29.855284581385
20
-4.58714670134771
30
0
0
SPLINE
5
181
100
AcDbEntity
8
1
62
256
6
ByLayer
370
18
48
1
60
0
100
AcDbSpline
70
4
71
1
72
4
73
2
40
0
40
0
40
1
40
1
41
1
10
4.14303948425981
20
-19.3839817385132
30
0
41
1
10
4.11298690479921
20
-19.4272469067454
30
0
0
SPLINE
5
182
100
AcDbEntity
8
1
62
256
6
ByLayer
370
18
48
1
60
0
100
AcDbSpline
70
4
71
1
72
4
73
2
40
0
40
0
40
1
40
1
41
1
10
0.34327857925749
20
-19.6599204994536
30
0
41
1
10
-0.325
20
-18.9990748130008
30
0
0
SPLINE
5
183
100
AcDbEntity
8
1
62
256
6
ByLayer
370
18
48
1
60
0
100
AcDbSpline
70
4
71
3
72
10
73
6
40
0
40
0
40
0
40
0
40
0.656803858759658
40
0.992209999913073
40
1
40
1
40
1
40
1
41
1
10
0.34327857925749
20
-13.3683356695468
30
0
41
1
10
0.383346644876841
20
-13.4481664582863
30
0
41
1
10
0.424160423914367
20
-13.5603947550812
30
0
41
1
10
0.445103440378738
20
-13.6702822609786
30
0
41
1
10
0.445277002774481
20
-13.7031393535352
30
0
41
1
10
0.445278504389573
20
-13.7038837939876
30
0
0
SPLINE
5
184
100
AcDbEntity
8
1
62
256
6
ByLayer
370
18
48
1
60
0
100
AcDbSpline
70
4
71
3
72
11
73
7
40
0
40
0
40
0
40
0
40
0.264564460488346
40
0.534863678764531
40
0.765299739901805
40
1
40
1
40
1
40
1
41
1
10
16.48803925281
20
-16.7289915327315
30
0
41
1
10
16.4837385903703
20
-16.5765439969399
30
0
41
1
10
16.4782082272358
20
-16.2673560797969
30
0
41
1
10
16.4784701074647
20
-15.8161590077951
30
0
41
1
10
16.488697504507
20
-15.3905754681671
30
0
41
1
10
16.499136906857
20
-15.1307465626033
30
0
41
1
10
16.5055748826496
20
-15.0016275923163
30
0
0
SPLINE
5
185
100
AcDbEntity
8
1
62
256
6
ByLayer
370
18
48
1
60
0
100
AcDbSpline
70
4
71
1
72
4
73
2
40
0
40
0
40
1
40
1
41
1
10
25.5530202413083
20
-19.0228605209181
30
0
41
1
10
25.9960639976501
20
-19.1027995546811
30
0
0
SPLINE
5
186
100
AcDbEntity
8
1
62
256
6
ByLayer
370
18
48
1
60
0
100
AcDbSpline
70
4
71
3
72
12
73
8
40
0
40
0
40
0
40
0
40
0.155910042952683
40
0.372034981492167
40
0.576306221690033
40
0.864098914271481
40
1
40
1
40
1
40
1
41
1
10
0.445278234941448
20
-19.0603637387078
30
0
41
1
10
0.445314636505355
20
-19.0636520292092
30
0
41
1
10
0.443008492725858
20
-19.0688639700201
30
0
41
1
10
0.429942636236082
20
-19.067136464836
30
0
41
1
10
0.403152930296951
20
-19.0516401102048
30
0
41
1
10
0.372384899069924
20
-19.0278297392994
30
0
41
1
10
0.350526580265165
20
-19.009108260593
30
0
41
1
10
0.34327857924402
20
-19.0026970897805
30
0
0
SPLINE
5
187
100
AcDbEntity
8
1
62
256
6
ByLayer
370
18
48
1
60
0
100
AcDbSpline
70
4
71
3
72
15
73
11
40
0
40
0
40
0
40
0
40
0.323714811211326
40
0.610562841426856
40
0.702362206137201
40
0.758778713691642
40
0.804108471026993
40
0.849574306335163
40
0.90577877967907
40
1
40
1
40
1
40
1
41
1
10
0.4452547737749
20
-6.25968037350799
30
0
41
1
10
0.44666721817782
20
-6.29907080580901
30
0
41
1
10
0.443037668976163
20
-6.36955049877397
30
0
41
1
10
0.43326250192864
20
-6.45005417221282
30
0
41
1
10
0.415375424285041
20
-6.49044068862493
30
0
41
1
10
0.403344579663193
20
-6.50326430263805
30
0
41
1
10
0.391539766456014
20
-6.50754502100807
30
0
41
1
10
0.378301546330509
20
-6.50516162456157
30
0
41
1
10
0.361198151048715
20
-6.49336664084895
30
0
41
1
10
0.34982983897907
20
-6.48081043754056
30
0
41
1
10
0.34327857925735
20
-6.47090137540585
30
0
0
SPLINE
5
188
100
AcDbEntity
8
1
62
256
6
ByLayer
370
18
48
1
60
0
100
AcDbSpline
70
4
71
1
72
4
73
2
40
0
40
0
40
1
40
1
41
1
10
0.343278579257491
20
-16.9794705811172
30
0
41
1
10
-0.325
20
-15.9578301704837
30
0
0
SPLINE
5
189
100
AcDbEntity
8
1
62
256
6
ByLayer
370
18
48
1
60
0
100
AcDbSpline
70
4
71
1
72
4
73
2
40
0
40
0
40
1
40
1
41
1
10
0.343278579257491
20
-17.7716749003053
30
0
41
1
10
-0.325
20
-16.8327016176845
30
0
0
SPLINE
5
18A
100
AcDbEntity
8
1
62
256
6
ByLayer
370
18
48
1
60
0
100
AcDbSpline
70
4
71
3
72
13
73
9
40
0
40
0
40
0
40
0
40
0.211239836146813
40
0.437215282717644
40
0.583955171835638
40
0.731074820089246
40
0.873919040341102
40
1
40
1
40
1
40
1
41
1
10
0.445278504389573
20
-13.7038837939876
30
0
41
1
10
0.445688851265103
20
-13.7167474564222
30
0
41
1
10
0.443068049652193
20
-13.739811111766
30
0
41
1
10
0.431765630142755
20
-13.7646456286708
30
0
41
1
10
0.411795084235744
20
-13.7735944024665
30
0
41
1
10
0.3894027009434
20
-13.7700321534603
30
0
41
1
10
0.36568065637529
20
-13.7573277574272
30
0
41
1
10
0.350489469226698
20
-13.7459997836923
30
0
41
1
10
0.34327857925749
20
-13.7398159364994
30
0
0
SPLINE
5
18B
100
AcDbEntity
8
1
62
256
6
ByLayer
370
18
48
1
60
0
100
AcDbSpline
70
4
71
1
72
4
73
2
40
0
40
0
40
1
40
1
41
1
10
26.5715312688638
20
-19.2265415140563
30
0
41
1
10
26.1614572840025
20
-19.1037761235673
30
0
0
SPLINE
5
18C
100
AcDbEntity
8
1
62
256
6
ByLayer
370
18
48
1
60
0
100
AcDbSpline
70
4
71
1
72
4
73
2
40
0
40
0
40
1
40
1
41
1
10
25.6284278390349
20
-17.7058410625099
30
0
41
1
10
25.0940946460924
20
-17.840246660378
30
0
0
SPLINE
5
18D
100
AcDbEntity
8
1
62
256
6
ByLayer
370
18
48
1
60
0
100
AcDbSpline
70
4
71
3
72
11
73
7
40
0
40
0
40
0
40
0
40
0.146006006510119
40
0.441184319401251
40
0.746419566783049
40
1
40
1
40
1
40
1
41
1
10
28.8850830158945
20
-4.95798909146639
30
0
41
1
10
28.8561720341353
20
-4.9660476630536
30
0
41
1
10
28.7663734167663
20
-4.98934073730408
30
0
41
1
10
28.6016694540366
20
-5.02483070583485
30
0
41
1
10
28.3945387221008
20
-5.05355759577504
30
0
41
1
10
28.2534915760356
20
-5.06092658565573
30
0
41
1
10
28.1879251588488
20
-5.06222227867096
30
0
0
SPLINE
5
18E
100
AcDbEntity
8
1
62
256
6
ByLayer
370
18
48
1
60
0
100
AcDbSpline
70
4
71
1
72
4
73
2
40
0
40
0
40
1
40
1
41
1
10
27.8868276488138
20
-14.8532447953273
30
0
41
1
10
27.7429414881219
20
-14.7766778280372
30
0
0
SPLINE
5
18F
100
AcDbEntity
8
1
62
256
6
ByLayer
370
18
48
1
60
0
100
AcDbSpline
70
4
71
1
72
4
73
2
40
0
40
0
40
1
40
1
41
1
10
0.34327857925749
20
-13.7398159364994
30
0
41
1
10
-0.325
20
-13.177721493111
30
0
0
SPLINE
5
190
100
AcDbEntity
8
1
62
256
6
ByLayer
370
18
48
1
60
0
100
AcDbSpline
70
4
71
1
72
4
73
2
40
0
40
0
40
1
40
1
41
1
10
0.34327857925749
20
-12.0130158376653
30
0
41
1
10
-0.325
20
-11.416647658135
30
0
0
SPLINE
5
191
100
AcDbEntity
8
1
62
256
6
ByLayer
370
18
48
1
60
0
100
AcDbSpline
70
4
71
3
72
14
73
10
40
0
40
0
40
0
40
0
40
0.132890100219842
40
0.265784221148357
40
0.398901804600307
40
0.53201228071897
40
0.664845180269494
40
0.797663003093912
40
1
40
1
40
1
40
1
41
1
10
6.88984423260406
20
-21.9025088458879
30
0
41
1
10
6.91037905846493
20
-22.0200784751791
30
0
41
1
10
6.96984655988877
20
-22.2479507223524
30
0
41
1
10
7.11557469983283
20
-22.5727132151503
30
0
41
1
10
7.31417598103709
20
-22.8666168610258
30
0
41
1
10
7.55874176735298
20
-23.1233121520052
30
0
41
1
10
7.8435782879942
20
-23.3329915021038
30
0
41
1
10
8.2160910086065
20
-23.5192798201692
30
0
41
1
10
8.50305930850707
20
-23.5890500268196
30
0
41
1
10
8.68514825313316
20
-23.6089704284529
30
0
0
SPLINE
5
192
100
AcDbEntity
8
1
62
256
6
ByLayer
370
18
48
1
60
0
100
AcDbSpline
70
4
71
2
72
6
73
3
40
0
40
0
40
0
40
1
40
1
40
1
41
1
10
23.7667099399336
20
-10.5255334926432
30
0
41
1
10
23.2012598509658
20
-10.0011687639429
30
0
41
1
10
22.6028693189435
20
-9.58774563715827
30
0
0
SPLINE
5
193
100
AcDbEntity
8
1
62
256
6
ByLayer
370
18
48
1
60
0
100
AcDbSpline
70
4
71
1
72
4
73
2
40
0
40
0
40
1
40
1
41
1
10
0.34327857925749
20
-16.2549231580666
30
0
41
1
10
-0.325
20
-15.709148409446
30
0
0
SPLINE
5
194
100
AcDbEntity
8
1
62
256
6
ByLayer
370
18
48
1
60
0
100
AcDbSpline
70
4
71
3
72
11
73
7
40
0
40
0
40
0
40
0
40
0.365642136698637
40
0.615102327343337
40
0.871291253056327
40
1
40
1
40
1
40
1
41
1
10
16.5055748826496
20
-15.0016275923163
30
0
41
1
10
16.3199396645691
20
-14.8931405010183
30
0
41
1
10
16.0102342841912
20
-14.7121083075168
30
0
41
1
10
15.5711370048506
20
-14.455356692082
30
0
41
1
10
15.2647876149649
20
-14.27616477526
30
0
41
1
10
15.0857600639055
20
-14.1714277356584
30
0
41
1
10
15.0266290115825
20
-14.1368314328485
30
0
0
SPLINE
5
195
100
AcDbEntity
8
1
62
256
6
ByLayer
370
18
48
1
60
0
100
AcDbSpline
70
4
71
3
72
11
73
7
40
0
40
0
40
0
40
0
40
0.335803928316622
40
0.644688862436811
40
0.882105351003162
40
1
40
1
40
1
40
1
41
1
10
0.34327857925749
20
-19.2723234562802
30
0
41
1
10
0.361724512446025
20
-19.2932157893378
30
0
41
1
10
0.392979421002154
20
-19.3302981334022
30
0
41
1
10
0.427886283965296
20
-19.3761074374814
30
0
41
1
10
0.443118682626498
20
-19.4014992680017
30
0
41
1
10
0.445169825212165
20
-19.4092708404394
30
0
41
1
10
0.445278434846709
20
-19.4113263027233
30
0
0
SPLINE
5
196
100
AcDbEntity
8
1
62
256
6
ByLayer
370
18
48
1
60
0
100
AcDbSpline
70
4
71
3
72
11
73
7
40
0
40
0
40
0
40
0
40
0.348035506515003
40
0.640076464216782
40
0.871815324061509
40
1
40
1
40
1
40
1
41
1
10
0.343278579257488
20
-19.5180034570805
30
0
41
1
10
0.362416222255314
20
-19.5385967369063
30
0
41
1
10
0.393343170400358
20
-19.5729181572726
30
0
41
1
10
0.427810772268242
20
-19.6138083693233
30
0
41
1
10
0.442967164178411
20
-19.6348645808948
30
0
41
1
10
0.445169801744638
20
-19.6404569289245
30
0
41
1
10
0.445278468411715
20
-19.6418037281452
30
0
0
SPLINE
5
197
100
AcDbEntity
8
1
62
256
6
ByLayer
370
18
48
1
60
0
100
AcDbSpline
70
4
71
1
72
4
73
2
40
0
40
0
40
1
40
1
41
1
10
0.343278579257491
20
-19.5180034570805
30
0
41
1
10
-0.325
20
-18.7906850260974
30
0
0
SPLINE
5
198
100
AcDbEntity
8
1
62
256
6
ByLayer
370
18
48
1
60
0
100
AcDbSpline
70
4
71
1
72
4
73
2
40
0
40
0
40
1
40
1
41
1
10
0.343278579257491
20
-11.54046753934
30
0
41
1
10
-0.325
20
-9.74178339679137
30
0
0
SPLINE
5
199
100
AcDbEntity
8
1
62
256
6
ByLayer
370
18
48
1
60
0
100
AcDbSpline
70
4
71
1
72
4
73
2
40
0
40
0
40
1
40
1
41
1
10
0.343278579257491
20
-19.2723234562802
30
0
41
1
10
-0.325
20
-18.5041169405622
30
0
0
SPLINE
5
19A
100
AcDbEntity
8
1
62
256
6
ByLayer
370
18
48
1
60
0
100
AcDbSpline
70
4
71
3
72
12
73
8
40
0
40
0
40
0
40
0
40
0.0017506891554019
40
0.255305815614663
40
0.494669361958154
40
0.730745963123102
40
1
40
1
40
1
40
1
41
1
10
4.11212828789751
20
-19.4748883899992
30
0
41
1
10
4.11220419010512
20
-19.4750912718398
30
0
41
1
10
4.12342827193628
20
-19.5046614460489
30
0
41
1
10
4.19044131079816
20
-19.5591329590414
30
0
41
1
10
4.4098285532986
20
-19.6210152515005
30
0
41
1
10
4.72761044247376
20
-19.6629073440033
30
0
41
1
10
4.97236409823347
20
-19.6765913278634
30
0
41
1
10
5.11451672361497
20
-19.679639454513
30
0
0
SPLINE
5
19B
100
AcDbEntity
8
1
62
256
6
ByLayer
370
18
48
1
60
0
100
AcDbSpline
70
4
71
1
72
4
73
2
40
0
40
0
40
1
40
1
41
1
10
0.34327857925749
20
-17.93495223803
30
0
41
1
10
-0.325
20
-17.3753372269432
30
0
0
SPLINE
5
19C
100
AcDbEntity
8
1
62
256
6
ByLayer
370
18
48
1
60
0
100
AcDbSpline
70
4
71
3
72
12
73
8
40
0
40
0
40
0
40
0
40
0.0638148999826873
40
0.354469843081231
40
0.649447411647353
40
0.951472843695476
40
1
40
1
40
1
40
1
41
1
10
28.7204715360219
20
-15.6551424821346
30
0
41
1
10
28.7071670882367
20
-15.6343835113056
30
0
41
1
10
28.6315931922047
20
-15.5202109890918
30
0
41
1
10
28.4752264487091
20
-15.320423548138
30
0
41
1
10
28.2255107350994
20
-15.0794483434432
30
0
41
1
10
28.0203464149245
20
-14.9322361229041
30
0
41
1
10
27.9031738265818
20
-14.8626863403914
30
0
41
1
10
27.8868276488138
20
-14.8532447953273
30
0
0
SPLINE
5
19D
100
AcDbEntity
8
1
62
256
6
ByLayer
370
18
48
1
60
0
100
AcDbSpline
70
4
71
3
72
11
73
7
40
0
40
0
40
0
40
0
40
0.264564460488346
40
0.534863678764533
40
0.765299739901806
40
1
40
1
40
1
40
1
41
1
10
15.0266290115825
20
-14.1368314328485
30
0
41
1
10
14.8916518351191
20
-14.2079238042576
30
0
41
1
10
14.6194827530326
20
-14.3548575929615
30
0
41
1
10
14.2264475542814
20
-14.5764485364213
30
0
41
1
10
13.8606834794922
20
-14.7940494232325
30
0
41
1
10
13.6394604743969
20
-14.9305104971578
30
0
41
1
10
13.5301475106758
20
-14.9993992137959
30
0
0
SPLINE
5
19E
100
AcDbEntity
8
1
62
256
6
ByLayer
370
18
48
1
60
0
100
AcDbSpline
70
4
71
1
72
4
73
2
40
0
40
0
40
1
40
1
41
1
10
6.88984423260406
20
-21.9025088458879
30
0
41
1
10
6.65980775301221
20
-20.5631168675599
30
0
0
SPLINE
5
19F
100
AcDbEntity
8
1
62
256
6
ByLayer
370
18
48
1
60
0
100
AcDbSpline
70
4
71
1
72
4
73
2
40
0
40
0
40
1
40
1
41
1
10
0.34327857925749
20
-19.340953677083
30
0
41
1
10
-0.325
20
-18.7307192534083
30
0
0
SPLINE
5
1A0
100
AcDbEntity
8
1
62
256
6
ByLayer
370
18
48
1
60
0
100
AcDbSpline
70
4
71
1
72
4
73
2
40
0
40
0
40
1
40
1
41
1
10
0.34327857925749
20
-19.5586932485776
30
0
41
1
10
-0.325
20
-18.9249133089164
30
0
0
SPLINE
5
1A1
100
AcDbEntity
8
1
62
256
6
ByLayer
370
18
48
1
60
0
100
AcDbSpline
70
4
71
3
72
11
73
7
40
0
40
0
40
0
40
0
40
0.428889305017781
40
0.719916196301775
40
0.948052780218022
40
1
40
1
40
1
40
1
41
1
10
0.343278579257491
20
-18.9048259409171
30
0
41
1
10
0.367334862436482
20
-18.9335752321486
30
0
41
1
10
0.401092964365655
20
-18.9773880302465
30
0
41
1
10
0.434633759248649
20
-19.0289537733588
30
0
41
1
10
0.444479936763295
20
-19.0517797976305
30
0
41
1
10
0.445253882006703
20
-19.0591109236254
30
0
41
1
10
0.445278234941448
20
-19.0603637387078
30
0
0
SPLINE
5
1A2
100
AcDbEntity
8
1
62
256
6
ByLayer
370
18
48
1
60
0
100
AcDbSpline
70
4
71
3
72
13
73
9
40
0
40
0
40
0
40
0
40
0.0024029464344152
40
0.220422091102885
40
0.439620029841707
40
0.6353782789727
40
0.897417111562256
40
1
40
1
40
1
40
1
41
1
10
0.445278578418583
20
-17.9666666294272
30
0
41
1
10
0.445278612290263
20
-17.9667425564784
30
0
41
1
10
0.445260830136243
20
-17.9736863103226
30
0
41
1
10
0.441798294547954
20
-17.9845261716879
30
0
41
1
10
0.424758854576671
20
-17.9867261735205
30
0
41
1
10
0.396546020232474
20
-17.9748097612443
30
0
41
1
10
0.367884158535974
20
-17.9549767034546
30
0
41
1
10
0.348768969724563
20
-17.9395722557813
30
0
41
1
10
0.343278579251766
20
-17.934952238028
30
0
0
SPLINE
5
1A3
100
AcDbEntity
8
1
62
256
6
ByLayer
370
18
48
1
60
0
100
AcDbSpline
70
4
71
2
72
6
73
3
40
0
40
0
40
0
40
1
40
1
40
1
41
1
10
23.0684485245995
20
-10.7290513330873
30
0
41
1
10
23.0350202748033
20
-10.4841696315195
30
0
41
1
10
22.9458199412891
20
-10.2548469715424
30
0
0
SPLINE
5
1A4
100
AcDbEntity
8
1
62
256
6
ByLayer
370
18
48
1
60
0
100
AcDbSpline
70
4
71
1
72
4
73
2
40
0
40
0
40
1
40
1
41
1
10
25.3127692386139
20
-16.1571588811693
30
0
41
1
10
25.7886332891709
20
-16.4727767536778
30
0
0
SPLINE
5
1A5
100
AcDbEntity
8
1
62
256
6
ByLayer
370
18
48
1
60
0
100
AcDbSpline
70
4
71
1
72
4
73
2
40
0
40
0
40
1
40
1
41
1
10
0.343278579257491
20
-19.6464364834369
30
0
41
1
10
-0.325
20
-18.9546127301509
30
0
0
SPLINE
5
1A6
100
AcDbEntity
8
1
62
256
6
ByLayer
370
18
48
1
60
0
100
AcDbSpline
70
4
71
3
72
10
73
6
40
0
40
0
40
0
40
0
40
0.559758535487846
40
0.830946843984512
40
1
40
1
40
1
40
1
41
1
10
0.343278579257491
20
-16.008510663641
30
0
41
1
10
0.375835000962202
20
-16.060685868099
30
0
41
1
10
0.412443345063805
20
-16.1327878433732
30
0
41
1
10
0.441035997145792
20
-16.2154682416438
30
0
41
1
10
0.444826546848865
20
-16.2457297423429
30
0
41
1
10
0.445276670197079
20
-16.2567364954148
30
0
0
SPLINE
5
1A7
100
AcDbEntity
8
1
62
256
6
ByLayer
370
18
48
1
60
0
100
AcDbSpline
70
4
71
3
72
12
73
8
40
0
40
0
40
0
40
0
40
0.0187365367577035
40
0.437439954389085
40
0.781613474872529
40
0.978606960453226
40
1
40
1
40
1
40
1
41
1
10
25.1036410660087
20
-18.2037040792315
30
0
41
1
10
25.1065470223577
20
-18.2073663743095
30
0
41
1
10
25.1743365396592
20
-18.2923854104624
30
0
41
1
10
25.299853456893
20
-18.4273384378273
30
0
41
1
10
25.4340242654628
20
-18.5425615182753
30
0
41
1
10
25.4730329886227
20
-18.5739607630052
30
0
41
1
10
25.4767145809386
20
-18.577835685393
30
0
41
1
10
25.4769891514906
20
-18.5781475652382
30
0
0
SPLINE
5
1A8
100
AcDbEntity
8
1
62
256
6
ByLayer
370
18
48
1
60
0
100
AcDbSpline
70
4
71
2
72
6
73
3
40
0
40
0
40
0
40
1
40
1
40
1
41
1
10
0.343278579257491
20
-9.11879287402913
30
0
41
1
10
-0.0372097028531919
20
-7.88173052791113
30
0
41
1
10
-0.325
20
-6.61172018086065
30
0
0
SPLINE
5
1A9
100
AcDbEntity
8
1
62
256
6
ByLayer
370
18
48
1
60
0
100
AcDbSpline
70
4
71
3
72
11
73
7
40
0
40
0
40
0
40
0
40
0.264564460488346
40
0.534863678764531
40
0.765299739901804
40
1
40
1
40
1
40
1
41
1
10
13.5301475106758
20
-14.9993992137959
30
0
41
1
10
13.5228198085388
20
-15.1451331101689
30
0
41
1
10
13.5111129262863
20
-15.4443690990477
30
0
41
1
10
13.5022643257235
20
-15.8906086257532
30
0
41
1
10
13.5037821155374
20
-16.3229732521743
30
0
41
1
10
13.5088552031447
20
-16.5917582979908
30
0
41
1
10
13.5126118808362
20
-16.7267631542111
30
0
0
SPLINE
5
1AA
100
AcDbEntity
8
1
62
256
6
ByLayer
370
18
48
1
60
0
100
AcDbSpline
70
4
71
1
72
4
73
2
40
0
40
0
40
1
40
1
41
1
10
0.343278579257491
20
-18.408216543415
30
0
41
1
10
-0.325
20
-17.536457559895
30
0
0
SPLINE
5
1AB
100
AcDbEntity
8
1
62
256
6
ByLayer
370
18
48
1
60
0
100
AcDbSpline
70
4
71
3
72
12
73
8
40
0
40
0
40
0
40
0
40
0.187849722396696
40
0.406096222995449
40
0.606677343088089
40
0.882425202251414
40
1
40
1
40
1
40
1
41
1
10
0.445278373861641
20
-18.582182295171
30
0
41
1
10
0.445354275577668
20
-18.5873012849739
30
0
41
1
10
0.442418788951861
20
-18.5948579492662
30
0
41
1
10
0.427384545505847
20
-18.5950746114101
30
0
41
1
10
0.399754942026282
20
-18.581362677502
30
0
41
1
10
0.370009658106185
20
-18.5596731755941
30
0
41
1
10
0.349555716539088
20
-18.5427287095626
30
0
41
1
10
0.343278579248929
20
-18.537327321736
30
0
0
SPLINE
5
1AC
100
AcDbEntity
8
1
62
256
6
ByLayer
370
18
48
1
60
0
100
AcDbSpline
70
4
71
3
72
11
73
7
40
0
40
0
40
0
40
0
40
0.251481271238697
40
0.5037412222389
40
0.756194498923389
40
1
40
1
40
1
40
1
41
1
10
6.65980775301221
20
-20.5631168675599
30
0
41
1
10
6.63762410010217
20
-20.440941075743
30
0
41
1
10
6.55940488389457
20
-20.2176397761475
30
0
41
1
10
6.33152059099667
20
-19.9318137079693
30
0
41
1
10
6.02278846657613
20
-19.7426002770778
30
0
41
1
10
5.79501053375295
20
-19.6972449076692
30
0
41
1
10
5.675
20
-19.6927469036894
30
0
0
SPLINE
5
1AD
100
AcDbEntity
8
1
62
256
6
ByLayer
370
18
48
1
60
0
100
AcDbSpline
70
4
71
1
72
4
73
2
40
0
40
0
40
1
40
1
41
1
10
26.5715312688635
20
-19.226541514058
30
0
41
1
10
26.7574250342125
20
-19.2284978774423
30
0
0
SPLINE
5
1AE
100
AcDbEntity
8
1
62
256
6
ByLayer
370
18
48
1
60
0
100
AcDbSpline
70
4
71
1
72
4
73
2
40
0
40
0
40
1
40
1
41
1
10
26.1614572840024
20
-19.1037761235673
30
0
41
1
10
25.8952726662233
20
-18.9737680600602
30
0
0
SPLINE
5
1AF
100
AcDbEntity
8
1
62
256
6
ByLayer
370
18
48
1
60
0
100
AcDbSpline
70
4
71
3
72
11
73
7
40
0
40
0
40
0
40
0
40
0.264564460488346
40
0.534863678764531
40
0.765299739901803
40
1
40
1
40
1
40
1
41
1
10
14.9915577519032
20
-17.5915593136789
30
0
41
1
10
15.11490656379
20
-17.5137533028512
30
0
41
1
10
15.3698384004896
20
-17.3568675858831
30
0
41
1
10
15.7542868789068
20
-17.130319097127
30
0
41
1
10
16.1317961405523
20
-16.9194992971089
30
0
41
1
10
16.3685316356048
20
-16.7919943634363
30
0
41
1
10
16.4880392528099
20
-16.7289915327315
30
0
0
SPLINE
5
1B0
100
AcDbEntity
8
1
62
256
6
ByLayer
370
18
48
1
60
0
100
AcDbSpline
70
4
71
1
72
4
73
2
40
0
40
0
40
1
40
1
41
1
10
0.34327857925749
20
-17.1811675775406
30
0
41
1
10
-0.325
20
-16.6309904620861
30
0
0
SPLINE
5
1B1
100
AcDbEntity
8
1
62
256
6
ByLayer
370
18
48
1
60
0
100
AcDbSpline
70
4
71
3
72
11
73
7
40
0
40
0
40
0
40
0
40
0.455277467965049
40
0.748092018745106
40
0.975425944721881
40
1
40
1
40
1
40
1
41
1
10
0.343278579257492
20
-18.408216543415
30
0
41
1
10
0.369026073613004
20
-18.4409191423207
30
0
41
1
10
0.403746503369586
20
-18.4900822569192
30
0
41
1
10
0.436759025524846
20
-18.5483177102066
30
0
41
1
10
0.444919717714684
20
-18.5731380551661
30
0
41
1
10
0.445271557367966
20
-18.5814001836208
30
0
41
1
10
0.445278373861641
20
-18.582182295171
30
0
0
SPLINE
5
1B2
100
AcDbEntity
8
1
62
256
6
ByLayer
370
18
48
1
60
0
100
AcDbSpline
70
4
71
3
72
11
73
7
40
0
40
0
40
0
40
0
40
0.106198987855089
40
0.389067987887681
40
0.820910985054672
40
1
40
1
40
1
40
1
41
1
10
0.445277405909412
20
17.9663561103936
30
0
41
1
10
0.445123306617705
20
17.9618896801901
30
0
41
1
10
0.442940411932281
20
17.9442877136092
30
0
41
1
10
0.422782322103139
20
17.8940836374508
30
0
41
1
10
0.384184187616987
20
17.8298654793235
30
0
41
1
10
0.35300585016107
20
17.7850553634904
30
0
41
1
10
0.343278579257492
20
17.7716749003053
30
0
0
SPLINE
5
1B3
100
AcDbEntity
8
1
62
256
6
ByLayer
370
18
48
1
60
0
100
AcDbSpline
70
4
71
3
72
12
73
8
40
0
40
0
40
0
40
0
40
0.226789456522486
40
0.455218713672522
40
0.685221605130319
40
0.882469461365307
40
1
40
1
40
1
40
1
41
1
10
0.343278579257303
20
17.9349522380299
30
0
41
1
10
0.355737109710145
20
17.9455282908492
30
0
41
1
10
0.379222619078096
20
17.9634728317158
30
0
41
1
10
0.412125534517436
20
17.982898249373
30
0
41
1
10
0.435053464964195
20
17.9874373627686
30
0
41
1
10
0.444055192580697
20
17.9789034438424
30
0
41
1
10
0.445355813670376
20
17.9702071332822
30
0
41
1
10
0.445277405909412
20
17.9663561103936
30
0
0
SPLINE
5
1B4
100
AcDbEntity
8
1
62
256
6
ByLayer
370
18
48
1
60
0
100
AcDbSpline
70
4
71
3
72
14
73
10
40
0
40
0
40
0
40
0
40
0.0951138196714185
40
0.251234824831276
40
0.368749334776946
40
0.4861140724125
40
0.656465668092942
40
0.947867871263824
40
1
40
1
40
1
40
1
41
1
10
0.343278579251495
20
12.0130158376624
30
0
41
1
10
0.348910212672857
20
12.018144316371
30
0
41
1
10
0.36373882928791
20
12.0299280809997
30
0
41
1
10
0.386556132654234
20
12.0424010202522
30
0
41
1
10
0.408246643388888
20
12.0439969399759
30
0
41
1
10
0.425734644034434
20
12.0348859932232
30
0
41
1
10
0.441054078202894
20
12.0082505162581
30
0
41
1
10
0.444963169803966
20
11.9754397641241
30
0
41
1
10
0.445304168214724
20
11.9523608855338
30
0
41
1
10
0.44527669607777
20
11.9487961174387
30
0
0
SPLINE
5
1B5
100
AcDbEntity
8
1
62
256
6
ByLayer
370
18
48
1
60
0
100
AcDbSpline
70
4
71
1
72
4
73
2
40
0
40
0
40
1
40
1
41
1
10
-0.325
20
11.8991530686011
30
0
41
1
10
0.343278579257491
20
13.3683356695468
30
0
0
SPLINE
5
1B6
100
AcDbEntity
8
1
62
256
6
ByLayer
370
18
48
1
60
0
100
AcDbSpline
70
4
71
1
72
4
73
2
40
0
40
0
40
1
40
1
41
1
10
-0.325
20
14.576173837808
30
0
41
1
10
0.34327857925749
20
15.1245672474212
30
0
0
SPLINE
5
1B7
100
AcDbEntity
8
1
62
256
6
ByLayer
370
18
48
1
60
0
100
AcDbSpline
70
4
71
1
72
4
73
2
40
0
40
0
40
1
40
1
41
1
10
-0.325
20
5.49680304813626
30
0
41
1
10
0.34327857925749
20
6.47090137540591
30
0
0
SPLINE
5
1B8
100
AcDbEntity
8
1
62
256
6
ByLayer
370
18
48
1
60
0
100
AcDbSpline
70
4
71
3
72
18
73
14
40
0
40
0
40
0
40
0
40
0.0562270801472142
40
0.122947224272651
40
0.186664219782691
40
0.25192128739401
40
0.322220325366042
40
0.39396258298623
40
0.50103968530678
40
0.611166295780247
40
0.753625032413951
40
0.900151273450469
40
1
40
1
40
1
40
1
41
1
10
24.8570567222159
20
4.64949493689333
30
0
41
1
10
24.8569063907313
20
4.64966329565813
30
0
41
1
10
24.8397661978782
20
4.65844599272011
30
0
41
1
10
24.7564296366368
20
4.70133493068772
30
0
41
1
10
24.6100651357818
20
4.77404924464298
30
0
41
1
10
24.4073702316513
20
4.86998170978411
30
0
41
1
10
24.1456502308918
20
4.98574843968545
30
0
41
1
10
23.7781309773993
20
5.13448619055988
30
0
41
1
10
23.2888989551076
20
5.30756125006413
30
0
41
1
10
22.6143551481714
20
5.50028478793955
30
0
41
1
10
21.8087073928834
20
5.66559692963674
30
0
41
1
10
20.9883928633001
20
5.75709994111283
30
0
41
1
10
20.4643009162622
20
5.77366877847598
30
0
41
1
10
20.2502847556335
20
5.773817382593
30
0
0
SPLINE
5
1B9
100
AcDbEntity
8
1
62
256
6
ByLayer
370
18
48
1
60
0
100
AcDbSpline
70
4
71
1
72
4
73
2
40
0
40
0
40
1
40
1
41
1
10
8.68839611304857
20
12
30
0
41
1
10
8.55695231903188
20
12.4444459766703
30
0
0
SPLINE
5
1BA
100
AcDbEntity
8
1
62
256
6
ByLayer
370
18
48
1
60
0
100
AcDbSpline
70
4
71
3
72
15
73
11
40
0
40
0
40
0
40
0
40
0.085601181857073
40
0.136793106851747
40
0.188458482577205
40
0.234430364549001
40
0.293389902841403
40
0.397106801703251
40
0.715174581256924
40
1
40
1
40
1
40
1
41
1
10
0.343278579257491
20
6.47090137540591
30
0
41
1
10
0.349212575622308
20
6.47972344933499
30
0
41
1
10
0.359500312310949
20
6.49139548765135
30
0
41
1
10
0.375569672796222
20
6.50376564919148
30
0
41
1
10
0.389116145198392
20
6.50777601075664
30
0
41
1
10
0.402040526512331
20
6.50425874471182
30
0
41
1
10
0.415407148990422
20
6.4909663045503
30
0
41
1
10
0.434793971546986
20
6.44576157210661
30
0
41
1
10
0.44324749746664
20
6.36400233288702
30
0
41
1
10
0.446302482797607
20
6.29406876068541
30
0
41
1
10
0.445254189009822
20
6.25956455740035
30
0
0
SPLINE
5
1BB
100
AcDbEntity
8
1
62
256
6
ByLayer
370
18
48
1
60
0
100
AcDbSpline
70
4
71
1
72
4
73
2
40
0
40
0
40
1
40
1
41
1
10
-0.325
20
16.6309904620861
30
0
41
1
10
0.34327857925749
20
17.1811675775406
30
0
0
SPLINE
5
1BC
100
AcDbEntity
8
1
62
256
6
ByLayer
370
18
48
1
60
0
100
AcDbSpline
70
4
71
1
72
4
73
2
40
0
40
0
40
1
40
1
41
1
10
-0.325
20
11.416647658135
30
0
41
1
10
0.34327857925749
20
12.0130158376653
30
0
0
SPLINE
5
1BD
100
AcDbEntity
8
1
62
256
6
ByLayer
370
18
48
1
60
0
100
AcDbSpline
70
4
71
3
72
11
73
7
40
0
40
0
40
0
40
0
40
0.129986378109063
40
0.389616123972233
40
0.76136535032211
40
1
40
1
40
1
40
1
41
1
10
0.445278467199843
20
19.0604083246194
30
0
41
1
10
0.445116242918297
20
19.0571365934628
30
0
41
1
10
0.442621235730302
20
19.045598795222
30
0
41
1
10
0.423556894287484
20
19.0100938973368
30
0
41
1
10
0.386717274614252
20
18.9585759137435
30
0
41
1
10
0.356229650754088
20
18.9203822968807
30
0
41
1
10
0.343278579257765
20
18.9048259409158
30
0
0
SPLINE
5
1BE
100
AcDbEntity
8
1
62
256
6
ByLayer
370
18
48
1
60
0
100
AcDbSpline
70
4
71
3
72
11
73
7
40
0
40
0
40
0
40
0
40
0.37704976897982
40
0.626146412392419
40
0.877055085418209
40
1
40
1
40
1
40
1
41
1
10
0.343278579257467
20
19.5586932485775
30
0
41
1
10
0.364260206963798
20
19.5786182731757
30
0
41
1
10
0.394481893089508
20
19.6062236296444
30
0
41
1
10
0.429220654131095
20
19.6353726879473
30
0
41
1
10
0.443297367683248
20
19.6442291198121
30
0
41
1
10
0.445259480947445
20
19.642901832403
30
0
41
1
10
0.445278476027663
20
19.6418045876656
30
0
0
SPLINE
5
1BF
100
AcDbEntity
8
1
62
256
6
ByLayer
370
18
48
1
60
0
100
AcDbSpline
70
4
71
1
72
4
73
2
40
0
40
0
40
1
40
1
41
1
10
-0.325
20
16.8327016176845
30
0
41
1
10
0.343278579257491
20
17.7716749003053
30
0
0
SPLINE
5
1C0
100
AcDbEntity
8
1
62
256
6
ByLayer
370
18
48
1
60
0
100
AcDbSpline
70
4
71
1
72
4
73
2
40
0
40
0
40
1
40
1
41
1
10
-0.325
20
9.74178339679137
30
0
41
1
10
0.343278579257492
20
11.54046753934
30
0
0
SPLINE
5
1C1
100
AcDbEntity
8
1
62
256
6
ByLayer
370
18
48
1
60
0
100
AcDbSpline
70
4
71
1
72
4
73
2
40
0
40
0
40
1
40
1
41
1
10
-0.325
20
13.177721493111
30
0
41
1
10
0.34327857925749
20
13.7398159364994
30
0
0
SPLINE
5
1C2
100
AcDbEntity
8
1
62
256
6
ByLayer
370
18
48
1
60
0
100
AcDbSpline
70
4
71
3
72
10
73
6
40
0
40
0
40
0
40
0
40
0.0915222333176446
40
0.503585151909415
40
1
40
1
40
1
40
1
41
1
10
0.445272100753338
20
13.7023655376355
30
0
41
1
10
0.445064628163655
20
13.6934816835138
30
0
41
1
10
0.44235772849438
20
13.6438456537832
30
0
41
1
10
0.412840402106327
20
13.5304557976483
30
0
41
1
10
0.372092470306819
20
13.4271263072337
30
0
41
1
10
0.34327857925749
20
13.3683356695468
30
0
0
SPLINE
5
1C3
100
AcDbEntity
8
1
62
256
6
ByLayer
370
18
48
1
60
0
100
AcDbSpline
70
4
71
3
72
12
73
8
40
0
40
0
40
0
40
0
40
0.29388551393378
40
0.551583630342011
40
0.76829809545484
40
0.98559803129687
40
1
40
1
40
1
40
1
41
1
10
0.343278579257451
20
19.3409536770829
30
0
41
1
10
0.359327636723326
20
19.3556655023031
30
0
41
1
10
0.386672782147686
20
19.3794794312371
30
0
41
1
10
0.420081069610368
20
19.4053624667612
30
0
41
1
10
0.440263916400309
20
19.4165970325709
30
0
41
1
10
0.445141600358905
20
19.4148321413421
30
0
41
1
10
0.445279018769174
20
19.4115786999383
30
0
41
1
10
0.445278576731542
20
19.4113671396395
30
0
0
SPLINE
5
1C4
100
AcDbEntity
8
1
62
256
6
ByLayer
370
18
48
1
60
0
100
AcDbSpline
70
4
71
1
72
4
73
2
40
0
40
0
40
1
40
1
41
1
10
-0.325
20
13.5564502636199
30
0
41
1
10
0.343278579257491
20
14.8237109429722
30
0
0
SPLINE
5
1C5
100
AcDbEntity
8
1
62
256
6
ByLayer
370
18
48
1
60
0
100
AcDbSpline
70
4
71
3
72
12
73
8
40
0
40
0
40
0
40
0
40
0.203270758909816
40
0.419252926883049
40
0.63667332099818
40
0.824123027314457
40
1
40
1
40
1
40
1
41
1
10
0.343278579257166
20
17.1811675775405
30
0
41
1
10
0.354505630456393
20
17.1905634675508
30
0
41
1
10
0.376498959911648
20
17.206892479093
30
0
41
1
10
0.408207329374478
20
17.2243244689357
30
0
41
1
10
0.431637050371848
20
17.2274087455663
30
0
41
1
10
0.443280547572828
20
17.2169363102184
30
0
41
1
10
0.445466876418011
20
17.2054051693497
30
0
41
1
10
0.445277225885606
20
17.1984554799941
30
0
0
SPLINE
5
1C6
100
AcDbEntity
8
1
62
256
6
ByLayer
370
18
48
1
60
0
100
AcDbSpline
70
4
71
3
72
10
73
6
40
0
40
0
40
0
40
0
40
0.0973687239808833
40
0.86935021174935
40
1
40
1
40
1
40
1
41
1
10
0.445250819439456
20
9.65319653452224
30
0
41
1
10
0.444879249571743
20
9.63674055698609
30
0
41
1
10
0.439277210114545
20
9.48925615197938
30
0
41
1
10
0.397746041576935
20
9.30463469041952
30
0
41
1
10
0.350538851777675
20
9.1423662359924
30
0
41
1
10
0.343278579257555
20
9.11879287402922
30
0
0
SPLINE
5
1C7
100
AcDbEntity
8
1
62
256
6
ByLayer
370
18
48
1
60
0
100
AcDbSpline
70
4
71
3
72
10
73
6
40
0
40
0
40
0
40
0
40
0.144664166532566
40
0.404927225093676
40
1
40
1
40
1
40
1
41
1
10
0.445254189009822
20
6.25956455740035
30
0
41
1
10
0.445175073921616
20
6.21673330372417
30
0
41
1
10
0.442535017866236
20
6.096282489651
30
0
41
1
10
0.411839385009433
20
5.79256913480829
30
0
41
1
10
0.376339534953992
20
5.53240657584598
30
0
41
1
10
0.343278579257491
20
5.34998840487792
30
0
0
SPLINE
5
1C8
100
AcDbEntity
8
1
62
256
6
ByLayer
370
18
48
1
60
0
100
AcDbSpline
70
4
71
3
72
14
73
10
40
0
40
0
40
0
40
0
40
0.0623103518216443
40
0.181656212535357
40
0.267605111190413
40
0.353625913065707
40
0.468506553391102
40
0.663555228059064
40
1
40
1
40
1
40
1
41
1
10
0.343278579240745
20
9.76435133856304
30
0
41
1
10
0.347214695927325
20
9.76839913165588
30
0
41
1
10
0.35884589129092
20
9.77903269873496
30
0
41
1
10
0.377322319569326
20
9.79145668898984
30
0
41
1
10
0.397002275760515
20
9.79549683499391
30
0
41
1
10
0.413544611736595
20
9.79012741167564
30
0
41
1
10
0.429836972413406
20
9.77106934944368
30
0
41
1
10
0.443054992244433
20
9.72507283744322
30
0
41
1
10
0.446902707930006
20
9.68317315780632
30
0
41
1
10
0.445250819439456
20
9.65319653452224
30
0
0
SPLINE
5
1C9
100
AcDbEntity
8
1
62
256
6
ByLayer
370
18
48
1
60
0
100
AcDbSpline
70
4
71
3
72
11
73
7
40
0
40
0
40
0
40
0
40
0.0558574186571264
40
0.331669256416617
40
0.769926106518206
40
1
40
1
40
1
40
1
41
1
10
0.445277225885606
20
17.1984554799941
30
0
41
1
10
0.445226417107378
20
17.1955864416562
30
0
41
1
10
0.444154887660013
20
17.1779799549074
30
0
41
1
10
0.428319243696322
20
17.1260459000451
30
0
41
1
10
0.389574627313923
20
17.05173580805
30
0
41
1
10
0.355913629967242
20
16.9982689250171
30
0
41
1
10
0.343278579260322
20
16.9794705811172
30
0
0
SPLINE
5
1CA
100
AcDbEntity
8
1
62
256
6
ByLayer
370
18
48
1
60
0
100
AcDbSpline
70
4
71
1
72
4
73
2
40
0
40
0
40
1
40
1
41
1
10
-0.325
20
18.9546127301509
30
0
41
1
10
0.343278579257491
20
19.6464364834369
30
0
0
SPLINE
5
1CB
100
AcDbEntity
8
1
62
256
6
ByLayer
370
18
48
1
60
0
100
AcDbSpline
70
4
71
1
72
4
73
2
40
0
40
0
40
1
40
1
41
1
10
-0.325
20
15.709148409446
30
0
41
1
10
0.34327857925749
20
16.2549231580666
30
0
0
SPLINE
5
1CC
100
AcDbEntity
8
1
62
256
6
ByLayer
370
18
48
1
60
0
100
AcDbSpline
70
4
71
2
72
6
73
3
40
0
40
0
40
0
40
1
40
1
40
1
41
1
10
0.44527669607777
20
11.9487961174387
30
0
41
1
10
0.435256087330965
20
11.7572184002966
30
0
41
1
10
0.343278579257501
20
11.54046753934
30
0
0
SPLINE
5
1CD
100
AcDbEntity
8
1
62
256
6
ByLayer
370
18
48
1
60
0
100
AcDbSpline
70
4
71
1
72
4
73
2
40
0
40
0
40
1
40
1
41
1
10
-0.325
20
18.5041169405622
30
0
41
1
10
0.343278579257491
20
19.2723234562802
30
0
0
SPLINE
5
1CE
100
AcDbEntity
8
1
62
256
6
ByLayer
370
18
48
1
60
0
100
AcDbSpline
70
4
71
2
72
6
73
3
40
0
40
0
40
0
40
1
40
1
40
1
41
1
10
-0.325
20
6.61172018086065
30
0
41
1
10
-0.0372120069985972
20
7.88172906724867
30
0
41
1
10
0.343278579257493
20
9.11879287402913
30
0
0
SPLINE
5
1CF
100
AcDbEntity
8
1
62
256
6
ByLayer
370
18
48
1
60
0
100
AcDbSpline
70
4
71
3
72
11
73
7
40
0
40
0
40
0
40
0
40
0.368355745173117
40
0.630619954408381
40
0.851044226944076
40
1
40
1
40
1
40
1
41
1
10
0.343278579257477
20
19.6599204994536
30
0
41
1
10
0.363674819027274
20
19.6800229202904
30
0
41
1
10
0.394095702266306
20
19.709666784556
30
0
41
1
10
0.427775911233607
20
19.7417247196223
30
0
41
1
10
0.442750307096173
20
19.7550542914909
30
0
41
1
10
0.445203738322436
20
19.756427522086
30
0
41
1
10
0.445278539535509
20
19.7560426846343
30
0
0
SPLINE
5
1D0
100
AcDbEntity
8
1
62
256
6
ByLayer
370
18
48
1
60
0
100
AcDbSpline
70
4
71
3
72
11
73
7
40
0
40
0
40
0
40
0
40
0.17263184106813
40
0.433288647058153
40
0.798977060677813
40
1
40
1
40
1
40
1
41
1
10
0.445278576731542
20
19.4113671396395
30
0
41
1
10
0.445008376110248
20
19.4082162591869
30
0
41
1
10
0.441472922893595
20
19.3977468991209
30
0
41
1
10
0.419088150177288
20
19.363625065103
30
0
41
1
10
0.382685056579654
20
19.3179230670645
30
0
41
1
10
0.354101261463677
20
19.2846106626576
30
0
41
1
10
0.343278579257143
20
19.2723234562772
30
0
0
SPLINE
5
1D1
100
AcDbEntity
8
1
62
256
6
ByLayer
370
18
48
1
60
0
100
AcDbSpline
70
4
71
1
72
4
73
2
40
0
40
0
40
1
40
1
41
1
10
-0.325
20
18.4126951788705
30
0
41
1
10
0.34327857925749
20
19.0026970897866
30
0
0
SPLINE
5
1D2
100
AcDbEntity
8
1
62
256
6
ByLayer
370
18
48
1
60
0
100
AcDbSpline
70
4
71
3
72
10
73
6
40
0
40
0
40
0
40
0
40
0.246284594069625
40
0.724455311353489
40
1
40
1
40
1
40
1
41
1
10
0.445278119583138
20
15.1092803777227
30
0
41
1
10
0.444127074641213
20
15.0891805624018
30
0
41
1
10
0.43565977060564
20
15.0277798493013
30
0
41
1
10
0.396094936570752
20
14.9267678139017
30
0
41
1
10
0.358702007898449
20
14.8517197144237
30
0
41
1
10
0.343278579257491
20
14.8237109429722
30
0
0
SPLINE
5
1D3
100
AcDbEntity
8
1
62
256
6
ByLayer
370
18
48
1
60
0
100
AcDbSpline
70
4
71
1
72
4
73
2
40
0
40
0
40
1
40
1
41
1
10
-0.325
20
18.9990748130008
30
0
41
1
10
0.34327857925749
20
19.6599204994536
30
0
0
SPLINE
5
1D4
100
AcDbEntity
8
1
62
256
6
ByLayer
370
18
48
1
60
0
100
AcDbSpline
70
4
71
3
72
12
73
8
40
0
40
0
40
0
40
0
40
0.0879679718621831
40
0.283055728612353
40
0.567672363101583
40
0.965694066278996
40
1
40
1
40
1
40
1
41
1
10
0.445278476027663
20
19.6418045876656
30
0
41
1
10
0.445238962358769
20
19.6409223299726
30
0
41
1
10
0.444027087766861
20
19.6370365604352
30
0
41
1
10
0.433684521778393
20
19.6214298034136
30
0
41
1
10
0.402818572871545
20
19.5836177147108
30
0
41
1
10
0.36771521550465
20
19.5444411610658
30
0
41
1
10
0.345090099933314
20
19.5199585642933
30
0
41
1
10
0.34327857925749
20
19.5180034570805
30
0
0
SPLINE
5
1D5
100
AcDbEntity
8
1
62
256
6
ByLayer
370
18
48
1
60
0
100
AcDbSpline
70
4
71
3
72
12
73
8
40
0
40
0
40
0
40
0
40
0.0717048724516966
40
0.270487942903332
40
0.534181099728722
40
0.895170451611563
40
1
40
1
40
1
40
1
41
1
10
0.445278539535509
20
19.7560426846343
30
0
41
1
10
0.445261270165032
20
19.7558022216784
30
0
41
1
10
0.444342779956786
20
19.7540443795163
30
0
41
1
10
0.435455451976625
20
19.7434589349704
30
0
41
1
10
0.407568226532942
20
19.7132191731861
30
0
41
1
10
0.372806344085124
20
19.6768709992717
30
0
41
1
10
0.348830765414624
20
19.6521448533471
30
0
41
1
10
0.34327857925736
20
19.6464364834368
30
0
0
SPLINE
5
1D6
100
AcDbEntity
8
1
62
256
6
ByLayer
370
18
48
1
60
0
100
AcDbSpline
70
4
71
1
72
4
73
2
40
0
40
0
40
1
40
1
41
1
10
-0.325
20
15.9578301704837
30
0
41
1
10
0.343278579257491
20
16.9794705811172
30
0
0
SPLINE
5
1D7
100
AcDbEntity
8
1
62
256
6
ByLayer
370
18
48
1
60
0
100
AcDbSpline
70
4
71
3
72
11
73
7
40
0
40
0
40
0
40
0
40
0.0046144971205866
40
0.267804678343641
40
0.708008732143671
40
1
40
1
40
1
40
1
41
1
10
0.445278549848734
20
16.2572737352011
30
0
41
1
10
0.445278113165042
20
16.256985905268
30
0
41
1
10
0.445197089814696
20
16.2402412678274
30
0
41
1
10
0.43405016326792
20
16.1869489268442
30
0
41
1
10
0.395811157439261
20
16.099886710878
30
0
41
1
10
0.359569176577507
20
16.035017127777
30
0
41
1
10
0.343278579257491
20
16.008510663641
30
0
0
SPLINE
5
1D8
100
AcDbEntity
8
1
62
256
6
ByLayer
370
18
48
1
60
0
100
AcDbSpline
70
4
71
3
72
11
73
7
40
0
40
0
40
0
40
0
40
0.11904325122361
40
0.389913838451919
40
0.789509952301258
40
1
40
1
40
1
40
1
41
1
10
0.44527834872284
20
18.5821760187423
30
0
41
1
10
0.445121977203638
20
18.578225165663
30
0
41
1
10
0.442778322425682
20
18.5637923962997
30
0
41
1
10
0.42315980767439
20
18.5215044891387
30
0
41
1
10
0.385493562221762
20
18.4640799323162
30
0
41
1
10
0.354706973961005
20
18.4228504719757
30
0
41
1
10
0.343278579257571
20
18.4082165434148
30
0
0
SPLINE
5
1D9
100
AcDbEntity
8
1
62
256
6
ByLayer
370
18
48
1
60
0
100
AcDbSpline
70
4
71
3
72
12
73
8
40
0
40
0
40
0
40
0
40
0.179365425844846
40
0.381815697063603
40
0.585600282111708
40
0.761575933387325
40
1
40
1
40
1
40
1
41
1
10
0.343278579256898
20
16.2549231580664
30
0
41
1
10
0.353231057005816
20
16.2632052906845
30
0
41
1
10
0.373586207190961
20
16.278058524467
30
0
41
1
10
0.403838683001081
20
16.2938265615468
30
0
41
1
10
0.427565016982744
20
16.2958160296083
30
0
41
1
10
0.442289253486506
20
16.2832966139005
30
0
41
1
10
0.445629561941433
20
16.268406549665
30
0
41
1
10
0.445278549848733
20
16.2572737352011
30
0
0
SPLINE
5
1DA
100
AcDbEntity
8
1
62
256
6
ByLayer
370
18
48
1
60
0
100
AcDbSpline
70
4
71
1
72
4
73
2
40
0
40
0
40
1
40
1
41
1
10
-0.325
20
17.9642657448057
30
0
41
1
10
0.34327857925749
20
18.5373273217393
30
0
0
SPLINE
5
1DB
100
AcDbEntity
8
1
62
256
6
ByLayer
370
18
48
1
60
0
100
AcDbSpline
70
4
71
1
72
4
73
2
40
0
40
0
40
1
40
1
41
1
10
-0.325
20
18.9249133089164
30
0
41
1
10
0.34327857925749
20
19.5586932485776
30
0
0
SPLINE
5
1DC
100
AcDbEntity
8
1
62
256
6
ByLayer
370
18
48
1
60
0
100
AcDbSpline
70
4
71
1
72
4
73
2
40
0
40
0
40
1
40
1
41
1
10
-0.325
20
18.7307192534083
30
0
41
1
10
0.34327857925749
20
19.340953677083
30
0
0
SPLINE
5
1DD
100
AcDbEntity
8
1
62
256
6
ByLayer
370
18
48
1
60
0
100
AcDbSpline
70
4
71
3
72
13
73
9
40
0
40
0
40
0
40
0
40
0.153120007309568
40
0.371061266991207
40
0.558070078771871
40
0.718402876742634
40
0.966760479932348
40
1
40
1
40
1
40
1
41
1
10
0.343278579256339
20
15.1245672474207
30
0
41
1
10
0.351911344989993
20
15.1318115299512
30
0
41
1
10
0.372158726005774
20
15.1465643542531
30
0
41
1
10
0.40249454097026
20
15.1612418176068
30
0
41
1
10
0.426115765692785
20
15.1597293885332
30
0
41
1
10
0.441314685066628
20
15.1444854055131
30
0
41
1
10
0.445053568677735
20
15.1249309807666
30
0
41
1
10
0.445287961447449
20
15.11096384431
30
0
41
1
10
0.445278119583138
20
15.1092803777227
30
0
0
SPLINE
5
1DE
100
AcDbEntity
8
1
62
256
6
ByLayer
370
18
48
1
60
0
100
AcDbSpline
70
4
71
1
72
4
73
2
40
0
40
0
40
1
40
1
41
1
10
-0.325
20
18.0890807878676
30
0
41
1
10
0.343278579257491
20
18.9048259409171
30
0
0
SPLINE
5
1DF
100
AcDbEntity
8
1
62
256
6
ByLayer
370
18
48
1
60
0
100
AcDbSpline
70
4
71
1
72
4
73
2
40
0
40
0
40
1
40
1
41
1
10
-0.325
20
17.3753372269432
30
0
41
1
10
0.34327857925749
20
17.93495223803
30
0
0
SPLINE
5
1E0
100
AcDbEntity
8
1
62
256
6
ByLayer
370
18
48
1
60
0
100
AcDbSpline
70
4
71
1
72
4
73
2
40
0
40
0
40
1
40
1
41
1
10
-0.325
20
9.08445616148815
30
0
41
1
10
0.34327857925749
20
9.7643513385741
30
0
0
SPLINE
5
1E1
100
AcDbEntity
8
1
62
256
6
ByLayer
370
18
48
1
60
0
100
AcDbSpline
70
4
71
1
72
4
73
2
40
0
40
0
40
1
40
1
41
1
10
-0.325
20
18.7906850260974
30
0
41
1
10
0.343278579257491
20
19.5180034570805
30
0
0
SPLINE
5
1E2
100
AcDbEntity
8
1
62
256
6
ByLayer
370
18
48
1
60
0
100
AcDbSpline
70
4
71
1
72
4
73
2
40
0
40
0
40
1
40
1
41
1
10
-0.325
20
17.536457559895
30
0
41
1
10
0.343278579257491
20
18.408216543415
30
0
0
SPLINE
5
1E3
100
AcDbEntity
8
1
62
256
6
ByLayer
370
18
48
1
60
0
100
AcDbSpline
70
4
71
3
72
12
73
8
40
0
40
0
40
0
40
0
40
0.271961273739263
40
0.521123041612955
40
0.73267790411433
40
0.944638079734931
40
1
40
1
40
1
40
1
41
1
10
0.343278579257425
20
19.0026970897866
30
0
41
1
10
0.358134580847596
20
19.0159093491319
30
0
41
1
10
0.384274922351619
20
19.0375752584701
30
0
41
1
10
0.417167558444371
20
19.0606857942675
30
0
41
1
10
0.438192886420746
20
19.0697013257015
30
0
41
1
10
0.444711556004376
20
19.0663953413087
30
0
41
1
10
0.44528866227537
20
19.0615488120661
30
0
41
1
10
0.445278467199843
20
19.0604083246195
30
0
0
SPLINE
5
1E4
100
AcDbEntity
8
1
62
256
6
ByLayer
370
18
48
1
60
0
100
AcDbSpline
70
4
71
3
72
14
73
10
40
0
40
0
40
0
40
0
40
0.222844906144848
40
0.451765262488147
40
0.661855487005964
40
0.788006014861566
40
0.886971149285699
40
0.981075370783248
40
1
40
1
40
1
40
1
41
1
10
5
20
10.2058806577385
30
0
41
1
10
4.99755293531708
20
10.3800536268684
30
0
41
1
10
5.02746938854274
20
10.7245733323089
30
0
41
1
10
5.15993251514557
20
11.2133346752163
30
0
41
1
10
5.38348440264143
20
11.5940129671625
30
0
41
1
10
5.64702802955657
20
11.8331532673724
30
0
41
1
10
5.8923079000529
20
11.9586276013626
30
0
41
1
10
6.08145982224864
20
11.997195485249
30
0
41
1
10
6.18290190961275
20
11.9999831173465
30
0
41
1
10
6.2
20
12
30
0
0
SPLINE
5
1E5
100
AcDbEntity
8
1
62
256
6
ByLayer
370
18
48
1
60
0
100
AcDbSpline
70
4
71
3
72
13
73
9
40
0
40
0
40
0
40
0
40
0.12438171038383
40
0.311548082376531
40
0.452310637303394
40
0.592791007258006
40
0.800773201982932
40
1
40
1
40
1
40
1
41
1
10
0.343278579255026
20
13.7398159364983
30
0
41
1
10
0.350473078317273
20
13.7460060781993
30
0
41
1
10
0.368162409076173
20
13.7591996526113
30
0
41
1
10
0.394393134318739
20
13.7722142789085
30
0
41
1
10
0.41706240423451
20
13.772420394954
30
0
41
1
10
0.434068511965459
20
13.761076935972
30
0
41
1
10
0.44357155392419
20
13.7365702700504
30
0
41
1
10
0.445689947594561
20
13.7145628294118
30
0
41
1
10
0.445272100753338
20
13.7023655376355
30
0
0
SPLINE
5
1E6
100
AcDbEntity
8
1
62
256
6
ByLayer
370
18
48
1
60
0
100
AcDbSpline
70
4
71
3
72
12
73
8
40
0
40
0
40
0
40
0
40
0.249911022237579
40
0.489614640952235
40
0.731048898773425
40
0.936573073655146
40
1
40
1
40
1
40
1
41
1
10
0.34327857925738
20
18.5373273217392
30
0
41
1
10
0.356942052465505
20
18.5491687676408
30
0
41
1
10
0.381802671138944
20
18.568884063502
30
0
41
1
10
0.415680000592183
20
18.590622099859
30
0
41
1
10
0.437936738137033
20
18.5969346372919
30
0
41
1
10
0.444665341769792
20
18.5901966797517
30
0
41
1
10
0.445296386196716
20
18.5838485956857
30
0
41
1
10
0.44527834872284
20
18.5821760187423
30
0
0
SPLINE
5
1E7
100
AcDbEntity
8
1
62
256
6
ByLayer
370
18
48
1
60
0
100
AcDbSpline
70
4
71
1
72
4
73
2
40
0
40
0
40
1
40
1
41
1
10
-0.325
20
14.8816949219503
30
0
41
1
10
0.343278579257491
20
16.008510663641
30
0
0
SPLINE
5
1E8
100
AcDbEntity
8
1
62
256
6
ByLayer
370
18
48
1
60
0
100
AcDbSpline
70
4
71
3
72
13
73
9
40
0
40
0
40
0
40
0
40
0.207438039460519
40
0.416274474974626
40
0.629718048959345
40
0.737283553742758
40
0.844850323786196
40
1
40
1
40
1
40
1
41
1
10
0.343278579257491
20
-5.34998840487792
30
0
41
1
10
0.214505649867319
20
-4.61831987097274
30
0
41
1
10
0.0093632726892021
20
-3.14355578497431
30
0
41
1
10
-0.142590593077833
20
-0.886004580706259
30
0
41
1
10
-0.12672863120739
20
1.01860707860909
30
0
41
1
10
-0.0266272122474286
20
2.55327635307178
30
0
41
1
10
0.109554434618213
20
3.87392140567373
30
0
41
1
10
0.247350709853288
20
4.80340082885366
30
0
41
1
10
0.343278579257493
20
5.34998840487792
30
0
0
LINE
5
70
100
AcDbEntity
8
1
62
256
6
ByLayer
370
18
48
1
60
0
100
AcDbLine
10
-0.325
20
-11.899153
30
0
11
-0.325
21
-13.177721
31
0
39
0
210
0
220
0
230
1
0
LINE
5
72
100
AcDbEntity
8
1
62
256
6
ByLayer
370
18
48
1
60
0
100
AcDbLine
10
-0.325
20
-18.954613
30
0
11
-0.325
21
-18.999075
31
0
39
0
210
0
220
0
230
1
0
LINE
5
73
100
AcDbEntity
8
1
62
256
6
ByLayer
370
18
48
1
60
0
100
AcDbLine
10
-0.325
20
-17.964266
30
0
11
-0.325
21
-18.089081
31
0
39
0
210
0
220
0
230
1
0
LINE
5
74
100
AcDbEntity
8
1
62
256
6
ByLayer
370
18
48
1
60
0
100
AcDbLine
10
-0.325
20
-18.730719
30
0
11
-0.325
21
-18.790685
31
0
39
0
210
0
220
0
230
1
0
LINE
5
75
100
AcDbEntity
8
1
62
256
6
ByLayer
370
18
48
1
60
0
100
AcDbLine
10
-0.325
20
-18.790685
30
0
11
-0.325
21
-18.924913
31
0
39
0
210
0
220
0
230
1
0
LINE
5
76
100
AcDbEntity
8
1
62
256
6
ByLayer
370
18
48
1
60
0
100
AcDbLine
10
-0.325
20
-18.504117
30
0
11
-0.325
21
-18.730719
31
0
39
0
210
0
220
0
230
1
0
LINE
5
77
100
AcDbEntity
8
1
62
256
6
ByLayer
370
18
48
1
60
0
100
AcDbLine
10
6.659808
20
-20.826352
30
0
11
6.889844
21
-22.130954
31
0
39
0
210
0
220
0
230
1
0
LINE
5
78
100
AcDbEntity
8
1
62
256
6
ByLayer
370
18
48
1
60
0
100
AcDbLine
10
20.031376
20
-13.626624
30
0
11
22.77515
21
-24.333084
31
0
39
0
210
0
220
0
230
1
0
LINE
5
79
100
AcDbEntity
8
1
62
256
6
ByLayer
370
18
48
1
60
0
100
AcDbLine
10
8.685148
20
-23.776047
30
0
11
20.293939
21
-24.791684
31
0
39
0
210
0
220
0
230
1
0
LINE
5
7A
100
AcDbEntity
8
1
62
256
6
ByLayer
370
18
48
1
60
0
100
AcDbLine
10
19.991989
20
-12.307306
30
0
11
20.598065
21
-12.657225
31
0
39
0
210
0
220
0
230
1
0
LINE
5
7B
100
AcDbEntity
8
1
62
256
6
ByLayer
370
18
48
1
60
0
100
AcDbLine
10
0.343279
20
-18.408217
30
0
11
0.343279
21
-18.537327
31
0
39
0
210
0
220
0
230
1
0
LINE
5
7C
100
AcDbEntity
8
1
62
256
6
ByLayer
370
18
48
1
60
0
100
AcDbLine
10
0.343279
20
-18.904826
30
0
11
0.343279
21
-19.002697
31
0
39
0
210
0
220
0
230
1
0
LINE
5
7D
100
AcDbEntity
8
1
62
256
6
ByLayer
370
18
48
1
60
0
100
AcDbLine
10
0.343279
20
-17.771675
30
0
11
0.343279
21
-17.934952
31
0
39
0
210
0
220
0
230
1
0
LINE
5
7E
100
AcDbEntity
8
1
62
256
6
ByLayer
370
18
48
1
60
0
100
AcDbLine
10
-0.325
20
-17.536458
30
0
11
-0.325
21
-17.964266
31
0
39
0
210
0
220
0
230
1
0
LINE
5
7F
100
AcDbEntity
8
1
62
256
6
ByLayer
370
18
48
1
60
0
100
AcDbLine
10
5.114517
20
-19.679639
30
0
11
6.493613
21
-16.05433
31
0
39
0
210
0
220
0
230
1
0
LINE
5
80
100
AcDbEntity
8
1
62
256
6
ByLayer
370
18
48
1
60
0
100
AcDbLine
10
8.685148
20
-23.776047
30
0
11
8.685148
21
-23.60897
31
0
39
0
210
0
220
0
230
1
0
LINE
5
81
100
AcDbEntity
8
1
62
256
6
ByLayer
370
18
48
1
60
0
100
AcDbLine
10
-0.325
20
-13.177721
30
0
11
-0.325
21
-13.55645
31
0
39
0
210
0
220
0
230
1
0
LINE
5
82
100
AcDbEntity
8
1
62
256
6
ByLayer
370
18
48
1
60
0
100
AcDbLine
10
16.43455
20
-6.106957
30
0
11
27.430683
21
-5.809355
31
0
39
0
210
0
220
0
230
1
0
LINE
5
83
100
AcDbEntity
8
1
62
256
6
ByLayer
370
18
48
1
60
0
100
AcDbLine
10
0.343279
20
-5.349988
30
0
11
0.343279
21
-6.470901
31
0
39
0
210
0
220
0
230
1
0
LINE
5
84
100
AcDbEntity
8
1
62
256
6
ByLayer
370
18
48
1
60
0
100
AcDbLine
10
19.960698
20
-13.585818
30
0
11
20.031376
21
-13.626624
31
0
39
0
210
0
220
0
230
1
0
LINE
5
85
100
AcDbEntity
8
1
62
256
6
ByLayer
370
18
48
1
60
0
100
AcDbLine
10
31.198633
20
-9.781871
30
0
11
29.855285
21
-4.587147
31
0
39
0
210
0
220
0
230
1
0
LINE
5
86
100
AcDbEntity
8
SK1
62
256
6
ByLayer
370
18
48
1
60
0
100
AcDbLine
10
-3.825
20
-2.65359
30
0
11
-3.225
21
-3
31
0
39
0
210
0
220
0
230
1
0
LINE
5
88
100
AcDbEntity
8
1
62
256
6
ByLayer
370
18
48
1
60
0
100
AcDbLine
10
0.343279
20
-11.540468
30
0
11
0.343279
21
-12.013016
31
0
39
0
210
0
220
0
230
1
0
LINE
5
89
100
AcDbEntity
8
SK1
62
256
6
ByLayer
370
18
48
1
60
0
100
AcDbLine
10
-3.225
20
-3
30
0
11
-0.325
21
-3
31
0
39
0
210
0
220
0
230
1
0
LINE
5
8A
100
AcDbEntity
8
1
62
256
6
ByLayer
370
18
48
1
60
0
100
AcDbLine
10
23.200897
20
-10.581884
30
0
11
23.410235
21
-11.39139
31
0
39
0
210
0
220
0
230
1
0
LINE
5
8B
100
AcDbEntity
8
1
62
256
6
ByLayer
370
18
48
1
60
0
100
AcDbLine
10
20.733682
20
-16.574945
30
0
11
19.638006
21
-12.337972
31
0
39
0
210
0
220
0
230
1
0
LINE
5
8C
100
AcDbEntity
8
1
62
256
6
ByLayer
370
18
48
1
60
0
100
AcDbLine
10
31.198633
20
-9.781871
30
0
11
24.183942
21
-11.645057
31
0
39
0
210
0
220
0
230
1
0
LINE
5
8D
100
AcDbEntity
8
1
62
256
6
ByLayer
370
18
48
1
60
0
100
AcDbLine
10
15.996267
20
-14.707579
30
0
11
15.256794
21
-14.27518
31
0
39
0
210
0
220
0
230
1
0
LINE
5
8E
100
AcDbEntity
8
1
62
256
6
ByLayer
370
18
48
1
60
0
100
AcDbLine
10
0.343279
20
-16.979471
30
0
11
0.343279
21
-17.181168
31
0
39
0
210
0
220
0
230
1
0
LINE
5
8F
100
AcDbEntity
8
1
62
256
6
ByLayer
370
18
48
1
60
0
100
AcDbLine
10
5.675
20
-19.692747
30
0
11
5.675
21
-20
31
0
39
0
210
0
220
0
230
1
0
LINE
5
90
100
AcDbEntity
8
1
62
256
6
ByLayer
370
18
48
1
60
0
100
AcDbLine
10
-0.325
20
-18.924913
30
0
11
-0.325
21
-18.954613
31
0
39
0
210
0
220
0
230
1
0
LINE
5
91
100
AcDbEntity
8
1
62
256
6
ByLayer
370
18
48
1
60
0
100
AcDbLine
10
-0.325
20
-5.496803
30
0
11
-0.325
21
-6.61172
31
0
39
0
210
0
220
0
230
1
0
LINE
5
92
100
AcDbEntity
8
1
62
256
6
ByLayer
370
18
48
1
60
0
100
AcDbLine
10
-0.325
20
-14.576174
30
0
11
-0.325
21
-14.881695
31
0
39
0
210
0
220
0
230
1
0
LINE
5
93
100
AcDbEntity
8
1
62
256
6
ByLayer
370
18
48
1
60
0
100
AcDbLine
10
-0.325
20
-6.61172
30
0
11
-0.325
21
-9.084456
31
0
39
0
210
0
220
0
230
1
0
LINE
5
94
100
AcDbEntity
8
1
62
256
6
ByLayer
370
18
48
1
60
0
100
AcDbLine
10
24.975805
20
-17.771952
30
0
11
25.094095
21
-17.840247
31
0
39
0
210
0
220
0
230
1
0
LINE
5
95
100
AcDbEntity
8
1
62
256
6
ByLayer
370
18
48
1
60
0
100
AcDbLine
10
0.343279
20
-16.008511
30
0
11
0.343279
21
-16.254923
31
0
39
0
210
0
220
0
230
1
0
LINE
5
96
100
AcDbEntity
8
1
62
256
6
ByLayer
370
18
48
1
60
0
100
AcDbLine
10
15.987499
20
-15.57126
30
0
11
15.996267
21
-14.707579
31
0
39
0
210
0
220
0
230
1
0
LINE
5
97
100
AcDbEntity
8
1
62
256
6
ByLayer
370
18
48
1
60
0
100
AcDbLine
10
23.543202
20
-11.291369
30
0
11
23.558775
21
-11.351589
31
0
39
0
210
0
220
0
230
1
0
LINE
5
98
100
AcDbEntity
8
1
62
256
6
ByLayer
370
18
48
1
60
0
100
AcDbLine
10
15.978731
20
-16.434942
30
0
11
16.488039
21
-16.728992
31
0
39
0
210
0
220
0
230
1
0
LINE
5
99
100
AcDbEntity
8
1
62
256
6
ByLayer
370
18
48
1
60
0
100
AcDbLine
10
0.343279
20
-19.646436
30
0
11
0.343279
21
-19.65992
31
0
39
0
210
0
220
0
230
1
0
LINE
5
9A
100
AcDbEntity
8
1
62
256
6
ByLayer
370
18
48
1
60
0
100
AcDbLine
10
25.472586
20
-18.576742
30
0
11
25.36699
21
-18.515776
31
0
39
0
210
0
220
0
230
1
0
LINE
5
9B
100
AcDbEntity
8
1
62
256
6
ByLayer
370
18
48
1
60
0
100
AcDbLine
10
15.230491
20
-16.866226
30
0
11
15.978731
21
-16.434942
31
0
39
0
210
0
220
0
230
1
0
LINE
5
9C
100
AcDbEntity
8
1
62
256
6
ByLayer
370
18
48
1
60
0
100
AcDbLine
10
15.256794
20
-14.27518
30
0
11
15.023282
21
-14.138637
31
0
39
0
210
0
220
0
230
1
0
LINE
5
9D
100
AcDbEntity
8
1
62
256
6
ByLayer
370
18
48
1
60
0
100
AcDbLine
10
22.725323
20
-24.276617
30
0
11
21.85426
21
-20.908219
31
0
39
0
210
0
220
0
230
1
0
LINE
5
9E
100
AcDbEntity
8
1
62
256
6
ByLayer
370
18
48
1
60
0
100
AcDbLine
10
-0.325
20
-16.63099
30
0
11
-0.325
21
-16.832702
31
0
39
0
210
0
220
0
230
1
0
LINE
5
9F
100
AcDbEntity
8
1
62
256
6
ByLayer
370
18
48
1
60
0
100
AcDbLine
10
6.889844
20
-21.902509
30
0
11
6.889844
21
-22.130954
31
0
39
0
210
0
220
0
230
1
0
LINE
5
A0
100
AcDbEntity
8
1
62
256
6
ByLayer
370
18
48
1
60
0
100
AcDbLine
10
-0.325
20
-15.95783
30
0
11
-0.325
21
-16.63099
31
0
39
0
210
0
220
0
230
1
0
LINE
5
A1
100
AcDbEntity
8
1
62
256
6
ByLayer
370
18
48
1
60
0
100
AcDbLine
10
-0.325
20
-9.741783
30
0
11
-0.325
21
-11.416648
31
0
39
0
210
0
220
0
230
1
0
LINE
5
A2
100
AcDbEntity
8
1
62
256
6
ByLayer
370
18
48
1
60
0
100
AcDbLine
10
25.312769
20
-16.157159
30
0
11
25.260829
21
-16.127171
31
0
39
0
210
0
220
0
230
1
0
LINE
5
A3
100
AcDbEntity
8
1
62
256
6
ByLayer
370
18
48
1
60
0
100
AcDbLine
10
22.692463
20
-24.285345
30
0
11
22.77515
21
-24.333084
31
0
39
0
210
0
220
0
230
1
0
LINE
5
A4
100
AcDbEntity
8
1
62
256
6
ByLayer
370
18
48
1
60
0
100
AcDbLine
10
17.717197
20
-5.663167
30
0
11
18.566621
21
-5.618095
31
0
39
0
210
0
220
0
230
1
0
LINE
5
A5
100
AcDbEntity
8
1
62
256
6
ByLayer
370
18
48
1
60
0
100
AcDbLine
10
23.661234
20
-11.260018
30
0
11
23.543202
21
-11.291369
31
0
39
0
210
0
220
0
230
1
0
LINE
5
A6
100
AcDbEntity
8
1
62
256
6
ByLayer
370
18
48
1
60
0
100
AcDbLine
10
-0.325
20
-19
30
0
11
0.675
21
-20
31
0
39
0
210
0
220
0
230
1
0
LINE
5
A7
100
AcDbEntity
8
1
62
256
6
ByLayer
370
18
48
1
60
0
100
AcDbLine
10
-0.325
20
-15.709148
30
0
11
-0.325
21
-15.95783
31
0
39
0
210
0
220
0
230
1
0
LINE
5
A8
100
AcDbEntity
8
1
62
256
6
ByLayer
370
18
48
1
60
0
100
AcDbLine
10
-0.325
20
-17.375337
30
0
11
-0.325
21
-17.536458
31
0
39
0
210
0
220
0
230
1
0
LINE
5
A9
100
AcDbEntity
8
1
62
256
6
ByLayer
370
18
48
1
60
0
100
AcDbLine
10
-0.325
20
-18.999075
30
0
11
-0.325
21
-19
31
0
39
0
210
0
220
0
230
1
0
LINE
5
AA
100
AcDbEntity
8
1
62
256
6
ByLayer
370
18
48
1
60
0
100
AcDbLine
10
25.568647
20
-18.645236
30
0
11
26.128886
21
-18.96869
31
0
39
0
210
0
220
0
230
1
0
LINE
5
AB
100
AcDbEntity
8
1
62
256
6
ByLayer
370
18
48
1
60
0
100
AcDbLine
10
15.996267
20
-14.707579
30
0
11
16.505575
21
-15.001628
31
0
39
0
210
0
220
0
230
1
0
LINE
5
AC
100
AcDbEntity
8
1
62
256
6
ByLayer
370
18
48
1
60
0
100
AcDbLine
10
24.054436
20
-11.14426
30
0
11
24.183942
21
-11.645057
31
0
39
0
210
0
220
0
230
1
0
LINE
5
AD
100
AcDbEntity
8
1
62
256
6
ByLayer
370
18
48
1
60
0
100
AcDbLine
10
24.183942
20
-11.645057
30
0
11
23.523476
21
-11.158543
31
0
39
0
210
0
220
0
230
1
0
LINE
5
AE
100
AcDbEntity
8
1
62
256
6
ByLayer
370
18
48
1
60
0
100
AcDbLine
10
20.742679
20
-24.803231
30
0
11
22.725323
21
-24.276617
31
0
39
0
210
0
220
0
230
1
0
LINE
5
AF
100
AcDbEntity
8
1
62
256
6
ByLayer
370
18
48
1
60
0
100
AcDbLine
10
25.885878
20
-18.968344
30
0
11
25.895523
21
-18.973913
31
0
39
0
210
0
220
0
230
1
0
LINE
5
B0
100
AcDbEntity
8
1
62
256
6
ByLayer
370
18
48
1
60
0
100
AcDbLine
10
0.343279
20
-19.272323
30
0
11
0.343279
21
-19.340954
31
0
39
0
210
0
220
0
230
1
0
LINE
5
B1
100
AcDbEntity
8
1
62
256
6
ByLayer
370
18
48
1
60
0
100
AcDbLine
10
-0.325
20
-18.089081
30
0
11
-0.325
21
-18.412695
31
0
39
0
210
0
220
0
230
1
0
LINE
5
B2
100
AcDbEntity
8
1
62
256
6
ByLayer
370
18
48
1
60
0
100
AcDbLine
10
-0.325
20
-14.881695
30
0
11
-0.325
21
-15.709148
31
0
39
0
210
0
220
0
230
1
0
LINE
5
B3
100
AcDbEntity
8
1
62
256
6
ByLayer
370
18
48
1
60
0
100
AcDbLine
10
23.250777
20
-11.434117
30
0
11
23.068449
21
-10.729051
31
0
39
0
210
0
220
0
230
1
0
LINE
5
B4
100
AcDbEntity
8
1
62
256
6
ByLayer
370
18
48
1
60
0
100
AcDbLine
10
0.343279
20
-9.118793
30
0
11
0.343279
21
-9.764351
31
0
39
0
210
0
220
0
230
1
0
LINE
5
B5
100
AcDbEntity
8
1
62
256
6
ByLayer
370
18
48
1
60
0
100
AcDbLine
10
6.659808
20
-20.563117
30
0
11
6.659808
21
-20.826352
31
0
39
0
210
0
220
0
230
1
0
LINE
5
B6
100
AcDbEntity
8
1
62
256
6
ByLayer
370
18
48
1
60
0
100
AcDbLine
10
-0.325
20
-9.084456
30
0
11
-0.325
21
-9.741783
31
0
39
0
210
0
220
0
230
1
0
LINE
5
B7
100
AcDbEntity
8
1
62
256
6
ByLayer
370
18
48
1
60
0
100
AcDbLine
10
-0.325
20
-16.832702
30
0
11
-0.325
21
-17.375337
31
0
39
0
210
0
220
0
230
1
0
LINE
5
B8
100
AcDbEntity
8
1
62
256
6
ByLayer
370
18
48
1
60
0
100
AcDbLine
10
23.725059
20
-11.307033
30
0
11
19.991989
21
-12.307306
31
0
39
0
210
0
220
0
230
1
0
LINE
5
B9
100
AcDbEntity
8
1
62
256
6
ByLayer
370
18
48
1
60
0
100
AcDbLine
10
23.733948
20
-24.89373
30
0
11
34.408517
21
-22.033487
31
0
39
0
210
0
220
0
230
1
0
LINE
5
BA
100
AcDbEntity
8
1
62
256
6
ByLayer
370
18
48
1
60
0
100
AcDbLine
10
31.865689
20
-9.874381
30
0
11
31.259613
21
-9.524462
31
0
39
0
210
0
220
0
230
1
0
LINE
5
BB
100
AcDbEntity
8
1
62
256
6
ByLayer
370
18
48
1
60
0
100
AcDbLine
10
20.773922
20
-17.326382
30
0
11
21.525992
21
-20.234633
31
0
39
0
210
0
220
0
230
1
0
LINE
5
BC
100
AcDbEntity
8
1
62
256
6
ByLayer
370
18
48
1
60
0
100
AcDbLine
10
0.343279
20
-19.518003
30
0
11
0.343279
21
-19.558693
31
0
39
0
210
0
220
0
230
1
0
LINE
5
BD
100
AcDbEntity
8
1
62
256
6
ByLayer
370
18
48
1
60
0
100
AcDbLine
10
27.886691
20
-14.853166
30
0
11
27.766128
21
-14.783559
31
0
39
0
210
0
220
0
230
1
0
LINE
5
BE
100
AcDbEntity
8
1
62
256
6
ByLayer
370
18
48
1
60
0
100
AcDbLine
10
31.190239
20
-9.749411
30
0
11
31.272635
21
-9.796983
31
0
39
0
210
0
220
0
230
1
0
LINE
5
BF
100
AcDbEntity
8
1
62
256
6
ByLayer
370
18
48
1
60
0
100
AcDbLine
10
31.272635
20
-9.796983
30
0
11
20.598065
21
-12.657225
31
0
39
0
210
0
220
0
230
1
0
LINE
5
C0
100
AcDbEntity
8
1
62
256
6
ByLayer
370
18
48
1
60
0
100
AcDbLine
10
14.48225
20
-17.29751
30
0
11
15.230491
21
-16.866226
31
0
39
0
210
0
220
0
230
1
0
LINE
5
C1
100
AcDbEntity
8
1
62
256
6
ByLayer
370
18
48
1
60
0
100
AcDbLine
10
-0.325
20
-11.416648
30
0
11
-0.325
21
-11.899153
31
0
39
0
210
0
220
0
230
1
0
LINE
5
C2
100
AcDbEntity
8
1
62
256
6
ByLayer
370
18
48
1
60
0
100
AcDbLine
10
-0.325
20
-18.412695
30
0
11
-0.325
21
-18.504117
31
0
39
0
210
0
220
0
230
1
0
LINE
5
C3
100
AcDbEntity
8
1
62
256
6
ByLayer
370
18
48
1
60
0
100
AcDbLine
10
22.94582
20
-10.254847
30
0
11
22.847907
21
-9.876216
31
0
39
0
210
0
220
0
230
1
0
LINE
5
C4
100
AcDbEntity
8
1
62
256
6
ByLayer
370
18
48
1
60
0
100
AcDbLine
10
15.978731
20
-16.434942
30
0
11
15.987499
21
-15.57126
31
0
39
0
210
0
220
0
230
1
0
LINE
5
C5
100
AcDbEntity
8
1
62
256
6
ByLayer
370
18
48
1
60
0
100
AcDbLine
10
8.680819
20
-12
30
0
11
6.2
21
-12
31
0
39
0
210
0
220
0
230
1
0
LINE
5
C6
100
AcDbEntity
8
1
62
256
6
ByLayer
370
18
48
1
60
0
100
AcDbLine
10
12.84768
20
-19.235105
30
0
11
12.928245
21
-19.281619
31
0
39
0
210
0
220
0
230
1
0
LINE
5
C7
100
AcDbEntity
8
1
62
256
6
ByLayer
370
18
48
1
60
0
100
AcDbLine
10
0.675
20
-20
30
0
11
5.675
21
-20
31
0
39
0
210
0
220
0
230
1
0
LINE
5
C8
100
AcDbEntity
8
1
62
256
6
ByLayer
370
18
48
1
60
0
100
AcDbLine
10
0.343279
20
-13.368336
30
0
11
0.343279
21
-13.739816
31
0
39
0
210
0
220
0
230
1
0
LINE
5
C9
100
AcDbEntity
8
1
62
256
6
ByLayer
370
18
48
1
60
0
100
AcDbLine
10
28.587391
20
-15.554414
30
0
11
28.027152
21
-15.23096
31
0
39
0
210
0
220
0
230
1
0
LINE
5
CA
100
AcDbEntity
8
1
62
256
6
ByLayer
370
18
48
1
60
0
100
AcDbLine
10
22.534817
20
-24.466413
30
0
11
23.140893
21
-24.816331
31
0
39
0
210
0
220
0
230
1
0
LINE
5
CB
100
AcDbEntity
8
1
62
256
6
ByLayer
370
18
48
1
60
0
100
AcDbLine
10
0.343279
20
-14.823711
30
0
11
0.343279
21
-15.124567
31
0
39
0
210
0
220
0
230
1
0
LINE
5
CC
100
AcDbEntity
8
1
62
256
6
ByLayer
370
18
48
1
60
0
100
AcDbLine
10
-0.325
20
-13.55645
30
0
11
-0.325
21
-14.576174
31
0
39
0
210
0
220
0
230
1
0
LINE
5
CD
100
AcDbEntity
8
1
62
256
6
ByLayer
370
18
48
1
60
0
100
AcDbLine
10
23.200897
20
-10.581884
30
0
11
24.054436
21
-11.14426
31
0
39
0
210
0
220
0
230
1
0
LINE
5
CE
100
AcDbEntity
8
1
62
256
6
ByLayer
370
18
48
1
60
0
100
AcDbLine
10
-0.325
20
6.61172
30
0
11
-0.325
21
5.496803
31
0
39
0
210
0
220
0
230
1
0
LINE
5
CF
100
AcDbEntity
8
1
62
256
6
ByLayer
370
18
48
1
60
0
100
AcDbLine
10
18.119931
20
5.773817
30
0
11
17.250285
21
5.773817
31
0
39
0
210
0
220
0
230
1
0
LINE
5
D0
100
AcDbEntity
8
1
62
256
6
ByLayer
370
18
48
1
60
0
100
AcDbLine
10
-0.325
20
15.709148
30
0
11
-0.325
21
14.881695
31
0
39
0
210
0
220
0
230
1
0
LINE
5
D1
100
AcDbEntity
8
1
62
256
6
ByLayer
370
18
48
1
60
0
100
AcDbLine
10
-0.325
20
17.375337
30
0
11
-0.325
21
16.832702
31
0
39
0
210
0
220
0
230
1
0
LINE
5
D2
100
AcDbEntity
8
1
62
256
6
ByLayer
370
18
48
1
60
0
100
AcDbLine
10
-0.325
20
19
30
0
11
-0.325
21
18.999075
31
0
39
0
210
0
220
0
230
1
0
LINE
5
D3
100
AcDbEntity
8
1
62
256
6
ByLayer
370
18
48
1
60
0
100
AcDbLine
10
-0.325
20
17.536458
30
0
11
-0.325
21
17.375337
31
0
39
0
210
0
220
0
230
1
0
LINE
5
D4
100
AcDbEntity
8
1
62
256
6
ByLayer
370
18
48
1
60
0
100
AcDbLine
10
0.343279
20
18.537327
30
0
11
0.343279
21
18.408217
31
0
39
0
210
0
220
0
230
1
0
LINE
5
D5
100
AcDbEntity
8
1
62
256
6
ByLayer
370
18
48
1
60
0
100
AcDbLine
10
0.343279
20
19.558693
30
0
11
0.343279
21
19.518003
31
0
39
0
210
0
220
0
230
1
0
LINE
5
D6
100
AcDbEntity
8
1
62
256
6
ByLayer
370
18
48
1
60
0
100
AcDbLine
10
-0.325
20
9.741783
30
0
11
-0.325
21
9.084456
31
0
39
0
210
0
220
0
230
1
0
LINE
5
D7
100
AcDbEntity
8
1
62
256
6
ByLayer
370
18
48
1
60
0
100
AcDbLine
10
-0.325
20
13.55645
30
0
11
-0.325
21
13.177721
31
0
39
0
210
0
220
0
230
1
0
LINE
5
D8
100
AcDbEntity
8
1
62
256
6
ByLayer
370
18
48
1
60
0
100
AcDbLine
10
-0.325
20
17.964266
30
0
11
-0.325
21
17.536458
31
0
39
0
210
0
220
0
230
1
0
LINE
5
D9
100
AcDbEntity
8
1
62
256
6
ByLayer
370
18
48
1
60
0
100
AcDbLine
10
0.343279
20
16.254923
30
0
11
0.343279
21
16.008511
31
0
39
0
210
0
220
0
230
1
0
LINE
5
DA
100
AcDbEntity
8
1
62
256
6
ByLayer
370
18
48
1
60
0
100
AcDbLine
10
-0.325
20
18.790685
30
0
11
-0.325
21
18.730719
31
0
39
0
210
0
220
0
230
1
0
LINE
5
DB
100
AcDbEntity
8
SK1
62
256
6
ByLayer
370
18
48
1
60
0
100
AcDbLine
10
-3.225
20
3
30
0
11
-3.825
21
2.65359
31
0
39
0
210
0
220
0
230
1
0
LINE
5
DC
100
AcDbEntity
8
1
62
256
6
ByLayer
370
18
48
1
60
0
100
AcDbLine
10
-0.325
20
14.576174
30
0
11
-0.325
21
13.55645
31
0
39
0
210
0
220
0
230
1
0
LINE
5
DD
100
AcDbEntity
8
1
62
256
6
ByLayer
370
18
48
1
60
0
100
AcDbLine
10
-0.325
20
11.899153
30
0
11
-0.325
21
11.416648
31
0
39
0
210
0
220
0
230
1
0
LINE
5
DE
100
AcDbEntity
8
1
62
256
6
ByLayer
370
18
48
1
60
0
100
AcDbLine
10
18.119931
20
5.773817
30
0
11
20.250285
21
5.773817
31
0
39
0
210
0
220
0
230
1
0
LINE
5
DF
100
AcDbEntity
8
1
62
256
6
ByLayer
370
18
48
1
60
0
100
AcDbLine
10
-3.225
20
3
30
0
11
-3.225
21
2.988584
31
0
39
0
210
0
220
0
230
1
0
LINE
5
E0
100
AcDbEntity
8
1
62
256
6
ByLayer
370
18
48
1
60
0
100
AcDbLine
10
0.343279
20
19.340954
30
0
11
0.343279
21
19.272323
31
0
39
0
210
0
220
0
230
1
0
LINE
5
E1
100
AcDbEntity
8
1
62
256
6
ByLayer
370
18
48
1
60
0
100
AcDbLine
10
8.556952
20
12.444446
30
0
11
6.532448
21
20
31
0
39
0
210
0
220
0
230
1
0
LINE
5
E2
100
AcDbEntity
8
1
62
256
6
ByLayer
370
18
48
1
60
0
100
AcDbLine
10
-0.325
20
16.63099
30
0
11
-0.325
21
15.95783
31
0
39
0
210
0
220
0
230
1
0
LINE
5
E3
100
AcDbEntity
8
1
62
256
6
ByLayer
370
18
48
1
60
0
100
AcDbLine
10
0.343279
20
13.739816
30
0
11
0.343279
21
13.368336
31
0
39
0
210
0
220
0
230
1
0
LINE
5
E4
100
AcDbEntity
8
1
62
256
6
ByLayer
370
18
48
1
60
0
100
AcDbLine
10
-0.325
20
9.084456
30
0
11
-0.325
21
6.61172
31
0
39
0
210
0
220
0
230
1
0
LINE
5
E5
100
AcDbEntity
8
1
62
256
6
ByLayer
370
18
48
1
60
0
100
AcDbLine
10
-0.325
20
18.412695
30
0
11
-0.325
21
18.089081
31
0
39
0
210
0
220
0
230
1
0
LINE
5
E6
100
AcDbEntity
8
1
62
256
6
ByLayer
370
18
48
1
60
0
100
AcDbLine
10
-0.325
20
18.999075
30
0
11
-0.325
21
18.954613
31
0
39
0
210
0
220
0
230
1
0
LINE
5
E7
100
AcDbEntity
8
1
62
256
6
ByLayer
370
18
48
1
60
0
100
AcDbLine
10
-0.325
20
15.95783
30
0
11
-0.325
21
15.709148
31
0
39
0
210
0
220
0
230
1
0
LINE
5
E8
100
AcDbEntity
8
1
62
256
6
ByLayer
370
18
48
1
60
0
100
AcDbLine
10
-0.325
20
16.832702
30
0
11
-0.325
21
16.63099
31
0
39
0
210
0
220
0
230
1
0
LINE
5
E9
100
AcDbEntity
8
1
62
256
6
ByLayer
370
18
48
1
60
0
100
AcDbLine
10
0.343279
20
17.181168
30
0
11
0.343279
21
16.979471
31
0
39
0
210
0
220
0
230
1
0
LINE
5
EA
100
AcDbEntity
8
1
62
256
6
ByLayer
370
18
48
1
60
0
100
AcDbLine
10
-0.325
20
18.089081
30
0
11
-0.325
21
17.964266
31
0
39
0
210
0
220
0
230
1
0
LINE
5
EB
100
AcDbEntity
8
1
62
256
6
ByLayer
370
18
48
1
60
0
100
AcDbLine
10
-0.325
20
18.954613
30
0
11
-0.325
21
18.924913
31
0
39
0
210
0
220
0
230
1
0
LINE
5
EC
100
AcDbEntity
8
1
62
256
6
ByLayer
370
18
48
1
60
0
100
AcDbLine
10
-0.325
20
18.730719
30
0
11
-0.325
21
18.504117
31
0
39
0
210
0
220
0
230
1
0
LINE
5
ED
100
AcDbEntity
8
1
62
256
6
ByLayer
370
18
48
1
60
0
100
AcDbLine
10
-0.325
20
18.924913
30
0
11
-0.325
21
18.790685
31
0
39
0
210
0
220
0
230
1
0
LINE
5
EE
100
AcDbEntity
8
1
62
256
6
ByLayer
370
18
48
1
60
0
100
AcDbLine
10
-0.325
20
14.881695
30
0
11
-0.325
21
14.576174
31
0
39
0
210
0
220
0
230
1
0
LINE
5
EF
100
AcDbEntity
8
SK1
62
256
6
ByLayer
370
18
48
1
60
0
100
AcDbLine
10
-0.325
20
3
30
0
11
-3.225
21
3
31
0
39
0
210
0
220
0
230
1
0
LINE
5
F0
100
AcDbEntity
8
1
62
256
6
ByLayer
370
18
48
1
60
0
100
AcDbLine
10
0.343279
20
19.002697
30
0
11
0.343279
21
18.904826
31
0
39
0
210
0
220
0
230
1
0
LINE
5
F1
100
AcDbEntity
8
1
62
256
6
ByLayer
370
18
48
1
60
0
100
AcDbLine
10
-0.325
20
13.177721
30
0
11
-0.325
21
11.899153
31
0
39
0
210
0
220
0
230
1
0
LINE
5
F2
100
AcDbEntity
8
1
62
256
6
ByLayer
370
18
48
1
60
0
100
AcDbLine
10
0.343279
20
12.013016
30
0
11
0.343279
21
11.540468
31
0
39
0
210
0
220
0
230
1
0
LINE
5
F3
100
AcDbEntity
8
1
62
256
6
ByLayer
370
18
48
1
60
0
100
AcDbLine
10
-0.325
20
11.416648
30
0
11
-0.325
21
9.741783
31
0
39
0
210
0
220
0
230
1
0
LINE
5
F4
100
AcDbEntity
8
1
62
256
6
ByLayer
370
18
48
1
60
0
100
AcDbLine
10
6.2
20
12
30
0
11
8.688396
21
12
31
0
39
0
210
0
220
0
230
1
0
LINE
5
F5
100
AcDbEntity
8
1
62
256
6
ByLayer
370
18
48
1
60
0
100
AcDbLine
10
-0.325
20
18.504117
30
0
11
-0.325
21
18.412695
31
0
39
0
210
0
220
0
230
1
0
LINE
5
F6
100
AcDbEntity
8
1
62
256
6
ByLayer
370
18
48
1
60
0
100
AcDbLine
10
0.343279
20
19.65992
30
0
11
0.343279
21
19.646436
31
0
39
0
210
0
220
0
230
1
0
LINE
5
F7
100
AcDbEntity
8
1
62
256
6
ByLayer
370
18
48
1
60
0
100
AcDbLine
10
6.532448
20
20
30
0
11
0.675
21
20
31
0
39
0
210
0
220
0
230
1
0
LINE
5
F8
100
AcDbEntity
8
1
62
256
6
ByLayer
370
18
48
1
60
0
100
AcDbLine
10
0.343279
20
17.934952
30
0
11
0.343279
21
17.771675
31
0
39
0
210
0
220
0
230
1
0
LINE
5
F9
100
AcDbEntity
8
1
62
256
6
ByLayer
370
18
48
1
60
0
100
AcDbLine
10
0.343279
20
9.764351
30
0
11
0.343279
21
9.118793
31
0
39
0
210
0
220
0
230
1
0
LINE
5
FA
100
AcDbEntity
8
1
62
256
6
ByLayer
370
18
48
1
60
0
100
AcDbLine
10
0.675
20
20
30
0
11
-0.325
21
19
31
0
39
0
210
0
220
0
230
1
0
LINE
5
FB
100
AcDbEntity
8
1
62
256
6
ByLayer
370
18
48
1
60
0
100
AcDbLine
10
0.343279
20
15.124567
30
0
11
0.343279
21
14.823711
31
0
39
0
210
0
220
0
230
1
0
LINE
5
FC
100
AcDbEntity
8
1
62
256
6
ByLayer
370
18
48
1
60
0
100
AcDbLine
10
0.343279
20
6.470901
30
0
11
0.343279
21
5.349988
31
0
39
0
210
0
220
0
230
1
0
LINE
5
FD
100
AcDbEntity
8
1
62
256
6
ByLayer
370
18
48
1
60
0
100
AcDbLine
10
30.110495
20
-3.098586
30
0
11
29.313363
21
0
31
0
39
0
210
0
220
0
230
1
0
LINE
5
FE
100
AcDbEntity
8
1
62
256
6
ByLayer
370
18
48
1
60
0
100
AcDbLine
10
6.2
20
-12
30
0
11
6.2
21
12
31
0
39
0
210
0
220
0
230
1
0
LINE
5
FF
100
AcDbEntity
8
SK1
62
256
6
ByLayer
370
18
48
1
60
0
100
AcDbLine
10
-3.225
20
2.988584
30
0
11
-3.225
21
-3
31
0
39
0
210
0
220
0
230
1
0
LINE
5
100
100
AcDbEntity
8
1
62
256
6
ByLayer
370
18
48
1
60
0
100
AcDbLine
10
0.675
20
20
30
0
11
0.675
21
-20
31
0
39
0
210
0
220
0
230
1
0
LINE
5
101
100
AcDbEntity
8
1
62
256
6
ByLayer
370
18
48
1
60
0
100
AcDbLine
10
12
20
-7.901166
30
0
11
12
21
7.463926
31
0
39
0
210
0
220
0
230
1
0
LINE
5
102
100
AcDbEntity
8
1
62
256
6
ByLayer
370
18
48
1
60
0
100
AcDbLine
10
5
20
-10.205881
30
0
11
5
21
10.205881
31
0
39
0
210
0
220
0
230
1
0
LINE
5
103
100
AcDbEntity
8
1
62
256
6
ByLayer
370
18
48
1
60
0
100
AcDbLine
10
34.975206
20
-21.064088
30
0
11
32.231433
21
-10.357628
31
0
39
0
210
0
220
0
230
1
0
LINE
5
104
100
AcDbEntity
8
1
62
256
6
ByLayer
370
18
48
1
60
0
100
AcDbLine
10
-0.325
20
5.496803
30
0
11
-0.325
21
-5.496803
31
0
39
0
210
0
220
0
230
1
0
LINE
5
105
100
AcDbEntity
8
SK1
62
256
6
ByLayer
370
18
48
1
60
0
100
AcDbLine
10
-3.825
20
-2.65359
30
0
11
-3.825
21
2.643492
31
0
39
0
210
0
220
0
230
1
0
LINE
5
106
100
AcDbEntity
8
4
62
256
6
ByLayer
370
13
48
0.05
60
0
100
AcDbLine
10
0
20
0
30
0
11
35
21
0
31
0
39
0
210
0
220
0
230
1
0
LINE
5
108
100
AcDbEntity
8
SK4
62
256
6
ByLayer
370
13
48
0.05
60
0
100
AcDbLine
10
-5
20
0
30
0
11
40
21
0
31
0
39
0
210
0
220
0
230
1
0
LINE
5
10A
100
AcDbEntity
8
81
62
256
6
ByLayer
370
13
48
1
60
0
100
AcDbLine
10
35
20
-22
30
0
11
39
21
-22
31
0
39
0
210
0
220
0
230
1
0
LINE
5
10B
100
AcDbEntity
8
80
62
256
6
ByLayer
370
13
48
1
60
0
100
AcDbLine
10
0
20
0
30
0
11
-4
21
0
31
0
39
0
210
0
220
0
230
1
0
MTEXT
5
1E9
100
AcDbEntity
8
SK6
62
256
6
ByLayer
370
13
48
1
60
0
100
AcDbMText
10
-8.979515
20
-64.374678
30
0
210
0
220
0
230
1
1
\W1.0830;SL-PSRNL-40-12HP
40
3.175
41
0
44
0.903614
50
0
71
7
72
5
7
blockfont
0
DIMENSION
5
1F8
100
AcDbEntity
8
SK2
62
256
6
ByLayer
370
13
48
1
60
0
100
AcDbDimension
2
DimnDraft3D1
10
-23.799679
20
-19.710883
30
0
11
-23.022767
21
1.457114
31
0
70
33
71
5
72
1
41
1
210
0
220
0
230
1
3
Standard
100
AcDbAlignedDimension
13
2.016315
23
20.017014
33
0
14
1.587591
24
-19.982986
34
0
1001
ACAD
1000
DSTYLE
1002
{
1070
   279
1070
     0
1070
    74
1070
     0
1070
   173
1070
     1
1070
   340
1005
1EA
1070
   271
1070
     0
1070
   272
1070
     3
1070
    77
1070
     1
1070
    73
1070
     0
1070
   171
1070
     4
1070
   274
1070
     4
1070
   177
1070
     7
1070
   176
1070
     7
1070
   178
1070
     7
1070
    78
1070
     8
1070
    48
1040
-0.005
1070
    41
1041
3.175
1070
   147
1041
1.75
1070
    42
1041
1.5875
1070
    44
1041
3.175
1070
   140
1041
3.5
1070
   343
1005
0
1070
   344
1005
0
1002
}
0
DIMENSION
5
203
100
AcDbEntity
8
2
62
256
6
ByLayer
370
13
48
1
60
0
100
AcDbDimension
2
DimnDraft3D2
10
54.69974
20
0
30
0
11
54.69974
21
-14.638542
31
0
70
32
71
5
72
1
41
1
210
0
220
0
230
1
3
Standard
100
AcDbAlignedDimension
13
40.5875
23
-22
33
0
14
30.900863
24
0
34
0
50
90
100
AcDbRotatedDimension
1001
ACAD
1000
DSTYLE
1002
{
1070
    74
1070
     0
1070
   279
1070
     0
1070
   173
1070
     1
1070
   340
1005
1EA
1070
   271
1070
     3
1070
   272
1070
     3
1070
    77
1070
     1
1070
    73
1070
     0
1070
   171
1070
     4
1070
   274
1070
     4
1070
   177
1070
     7
1070
   176
1070
     7
1070
   178
1070
     7
1070
    78
1070
     8
1070
    48
1040
-0.005
1070
    41
1041
3.175
1070
   147
1041
1.75
1070
    42
1041
1.5875
1070
    44
1041
3.175
1070
   140
1041
3.5
1070
   343
1005
0
1070
   344
1005
0
1002
}
0
DIMENSION
5
20D
100
AcDbEntity
8
2
62
256
6
ByLayer
370
13
48
1
60
0
100
AcDbDimension
2
DimnDraft3D3
10
35
20
-21
30
0
11
27.260548
21
-31.961251
31
0
70
34
71
5
72
1
41
1
210
0
220
0
230
1
3
Standard
100
AcDb2LineAngularDimension
13
23.733948
23
-24.89373
33
0
14
34.408517
24
-22.033487
34
0
15
35
25
-22
35
0
16
25.129883
26
-34.737987
36
0
40
0
0
DIMENSION
5
217
100
AcDbEntity
8
2
62
256
6
ByLayer
370
13
48
1
60
0
100
AcDbDimension
2
DimnDraft3D4
10
35
20
-48.638886
30
0
11
13.861458
21
-48.638886
31
0
70
32
71
5
72
1
41
1
210
0
220
0
230
1
3
Standard
100
AcDbAlignedDimension
13
0
23
-1.5875
33
0
14
35
24
-23.5875
34
0
50
0
100
AcDbRotatedDimension
1001
ACAD
1000
DSTYLE
1002
{
1070
   279
1070
     0
1070
   173
1070
     1
1070
   340
1005
1EA
1070
   271
1070
     3
1070
   272
1070
     3
1070
    77
1070
     1
1070
    73
1070
     0
1070
   171
1070
     4
1070
   274
1070
     4
1070
   177
1070
     7
1070
   176
1070
     7
1070
   178
1070
     7
1070
    78
1070
     8
1070
    48
1040
-0.005
1070
    41
1041
3.175
1070
   147
1041
1.75
1070
    42
1041
1.5875
1070
    44
1041
3.175
1070
   140
1041
3.5
1070
   343
1005
0
1070
   344
1005
0
1002
}
0
ENDSEC
0
SECTION
2
OBJECTS
0
DICTIONARY
5
282
330
0
100
AcDbDictionary
280
0
281
1
3
ACAD_GROUP
350
283
3
ACAD_MLINESTYLE
350
284
0
DICTIONARY
5
283
330
0
100
AcDbDictionary
280
0
281
1
0
DICTIONARY
5
284
330
0
100
AcDbDictionary
280
0
281
1
3
Standard
350
18
0
MLINESTYLE
5
18
330
284
100
AcDbMlineStyle
2
Standard
70
0
3

62
256
51
90
52
90
71
2
49
-0.5
62
256
6
ByLayer
49
0.5
62
256
6
ByLayer
0
RASTERVARIABLES
5
270
330

100
AcDbRasterVariables
90
0
70
1
71
1
72
1
0
ENDSEC
0
EOF
