0
SECTION
2
HEADER
9
$ACADVER
1
AC1015
9
$DWGCODEPAGE
3
ANSI_1252
9
$HANDSEED
5
270
9
$ANGBASE
50
0
9
$ANGDIR
70
0
9
$ATTMODE
70
1
9
$AUNITS
70
0
9
$AUPREC
70
0
9
$CECOLOR
62
256
9
$CELTSCALE
40
1
9
$CELTYPE
6
ByLayer
9
$CELWEIGHT
370
18
9
$CLAYER
8
0
9
$CMLJUST
70
0
9
$CMLSCALE
40
1
9
$CMLSTYLE
2
Standard
9
$DIMSTYLE
2
Standard
9
$TEXTSIZE
40
0.2
9
$TEXTSTYLE
7
Standard
9
$LUNITS
70
2
9
$LUPREC
70
4
9
$EXTNAMES
290
1
9
$INSUNITS
70
4
9
$LTSCALE
40
1
9
$LWDISPLAY
290
1
9
$PDMODE
70
0
9
$PDSIZE
40
0
9
$PLINEGEN
70
0
0
ENDSEC
0
SECTION
2
CLASSES
0
CLASS
1
RASTERVARIABLES
2
AcDbRasterVariables
3
ISM
90
0
280
0
281
0
0
ENDSEC
0
SECTION
2
TABLES
0
TABLE
2
VPORT
5
266
100
AcDbSymbolTable
0
VPORT
5
1
100
AcDbSymbolTableRecord
100
AcDbViewportTableRecord
2
*Active
70
0
10
0
20
0
11
1
21
1
12
-1
22
1
13
0
23
0
14
0.5
24
0.5
15
10
25
10
16
0
26
0
36
1
17
0
27
0
37
0
0
ENDTAB
0
TABLE
2
LTYPE
5
267
100
AcDbSymbolTable
0
LTYPE
5
14
100
AcDbSymbolTableRecord
100
AcDbLinetypeTableRecord
70
0
2
ByBlock
3

72
65
73
0
40
0
0
LTYPE
5
15
100
AcDbSymbolTableRecord
100
AcDbLinetypeTableRecord
70
0
2
ByLayer
3

72
65
73
0
40
0
0
LTYPE
5
16
100
AcDbSymbolTableRecord
100
AcDbLinetypeTableRecord
70
0
2
CONTINUOUS
3
Solid line
72
65
73
0
40
0
0
LTYPE
5
6A
100
AcDbSymbolTableRecord
100
AcDbLinetypeTableRecord
70
0
2
CENTER
3
____ _ ____ _ ____ _ ____
72
65
73
4
40
47.5
49
22
74
0
49
-8.5
74
0
49
8.5
74
0
49
-8.5
74
0
0
LTYPE
5
6B
100
AcDbSymbolTableRecord
100
AcDbLinetypeTableRecord
70
0
2
DASHED
3
__ __ __ __ __ __ __ __ __
72
65
73
2
40
25.72
49
12.86
74
0
49
-12.86
74
0
0
ENDTAB
0
TABLE
2
LAYER
5
268
100
AcDbSymbolTable
0
LAYER
5
10
100
AcDbSymbolTableRecord
100
AcDbLayerTableRecord
2
0
70
0
62
7
6
CONTINUOUS
290
1
370
-3
390
0
0
LAYER
5
6D
100
AcDbSymbolTableRecord
100
AcDbLayerTableRecord
2
80
70
0
62
-6
6
CONTINUOUS
290
1
370
-3
390
0
0
LAYER
5
6F
100
AcDbSymbolTableRecord
100
AcDbLayerTableRecord
2
81
70
0
62
-3
6
CONTINUOUS
290
1
370
-3
390
0
0
LAYER
5
71
100
AcDbSymbolTableRecord
100
AcDbLayerTableRecord
2
1
70
0
62
4
6
CONTINUOUS
290
1
370
-3
390
0
0
LAYER
5
FA
100
AcDbSymbolTableRecord
100
AcDbLayerTableRecord
2
4
70
0
62
-2
6
CENTER
290
1
370
-3
390
0
0
LAYER
5
1DB
100
AcDbSymbolTableRecord
100
AcDbLayerTableRecord
2
2
70
0
62
7
6
CONTINUOUS
290
1
370
-3
390
0
0
LAYER
5
252
100
AcDbSymbolTableRecord
100
AcDbLayerTableRecord
2
SK1
70
0
62
4
6
CONTINUOUS
290
1
370
-3
390
0
0
LAYER
5
253
100
AcDbSymbolTableRecord
100
AcDbLayerTableRecord
2
SK4
70
0
62
2
6
CENTER
290
1
370
-3
390
0
0
LAYER
5
254
100
AcDbSymbolTableRecord
100
AcDbLayerTableRecord
2
SK6
70
0
62
5
6
CONTINUOUS
290
1
370
-3
390
0
0
LAYER
5
255
100
AcDbSymbolTableRecord
100
AcDbLayerTableRecord
2
SK2
70
0
62
7
6
CONTINUOUS
290
1
370
-3
390
0
0
ENDTAB
0
TABLE
2
STYLE
5
269
100
AcDbSymbolTable
0
STYLE
5
11
100
AcDbSymbolTableRecord
100
AcDbTextStyleTableRecord
2
Standard
3
txt
70
0
71
0
40
0
41
1
42
0
50
0
0
STYLE
5
1CA
100
AcDbSymbolTableRecord
100
AcDbTextStyleTableRecord
2
iso_b_vert
3
simplex.shx
70
0
71
0
40
0
41
1
42
0
50
0
0
STYLE
5
1CB
100
AcDbSymbolTableRecord
100
AcDbTextStyleTableRecord
2
DWGDirectTextStyle
3
simplex
70
0
71
0
40
0
41
1
42
0
50
0
0
ENDTAB
0
TABLE
2
DIMSTYLE
5
26a
100
AcDbSymbolTable
100
AcDbDimStyleTable
0
DIMSTYLE
105
27
100
AcDbSymbolTableRecord
100
AcDbDimStyleTableRecord
2
Standard
70
0
3
<>
41
0.18
42
0.0625
44
0.18
140
0.18
147
0.09
73
0
74
0
77
1
271
2
275
0
278
52
280
0
340
11
0
ENDTAB
0
TABLE
2
VIEW
5
26b
100
AcDbSymbolTable
0
ENDTAB
0
TABLE
2
UCS
5
26c
100
AcDbSymbolTable
0
ENDTAB
0
TABLE
2
APPID
5
26d
100
AcDbSymbolTable
0
APPID
5
12
100
AcDbSymbolTableRecord
100
AcDbRegAppTableRecord
2
ACAD
70
0
0
ENDTAB
0
TABLE
2
BLOCK_RECORD
5
26e
100
AcDbSymbolTable
0
BLOCK_RECORD
5
1F
100
AcDbSymbolTableRecord
100
AcDbBlockTableRecord
2
*Model_Space
340
0
70
0
0
BLOCK_RECORD
5
1B
100
AcDbSymbolTableRecord
100
AcDbBlockTableRecord
2
*Paper_Space
340
0
70
0
0
BLOCK_RECORD
5
23
100
AcDbSymbolTableRecord
100
AcDbBlockTableRecord
2
*Paper_Space0
340
0
70
0
0
BLOCK_RECORD
5
1CD
100
AcDbSymbolTableRecord
100
AcDbBlockTableRecord
2
DimnDraft3D1
340
0
70
0
0
BLOCK_RECORD
5
1D9
100
AcDbSymbolTableRecord
100
AcDbBlockTableRecord
2
DimnDraft3D2
340
0
70
0
0
BLOCK_RECORD
5
1E4
100
AcDbSymbolTableRecord
100
AcDbBlockTableRecord
2
DimnDraft3D3
340
0
70
0
0
BLOCK_RECORD
5
1EE
100
AcDbSymbolTableRecord
100
AcDbBlockTableRecord
2
DimnDraft3D4
340
0
70
0
0
ENDTAB
0
ENDSEC
0
SECTION
2
BLOCKS
0
BLOCK
5
20
100
AcDbEntity
8
0
100
AcDbBlockBegin
2
*Model_Space
70
0
10
0
20
0
30
0
3
*Model_Space
0
ENDBLK
5
21
100
AcDbEntity
8
0
100
AcDbBlockEnd
0
BLOCK
5
1C
100
AcDbEntity
8
0
100
AcDbBlockBegin
2
*Paper_Space
70
0
10
0
20
0
30
0
3
*Paper_Space
0
ENDBLK
5
1D
100
AcDbEntity
8
0
100
AcDbBlockEnd
0
BLOCK
5
24
100
AcDbEntity
8
0
100
AcDbBlockBegin
2
*Paper_Space0
70
0
10
0
20
0
30
0
3
*Paper_Space0
0
ENDBLK
5
25
100
AcDbEntity
8
0
100
AcDbBlockEnd
0
BLOCK
5
1D6
100
AcDbEntity
8
0
100
AcDbBlockBegin
2
DimnDraft3D1
70
0
10
0
20
0
30
0
3
DimnDraft3D1
0
MTEXT
5
1CE
100
AcDbEntity
8
SK2
62
256
6
ByLayer
370
13
48
1
60
0
100
AcDbMText
10
-12.547129
20
4.327978
30
0
210
0
220
0
230
1
1
\W0.6563;25
40
3.175
41
0
44
1.084337
50
90
71
7
72
5
7
iso_b_vert
0
MTEXT
5
1D0
100
AcDbEntity
8
SK2
62
256
6
ByLayer
370
13
48
1
60
0
100
AcDbMText
10
-12.547129
20
-2.790967
30
0
210
0
220
0
230
1
1
%%c
40
3.175
41
0
44
1.084337
50
90
71
7
72
5
7
iso_b_vert
0
LINE
5
1D1
100
AcDbEntity
8
SK2
62
256
6
ByLayer
370
13
48
1
60
0
100
AcDbLine
10
-1.1085
20
12.5
30
0
11
-14.134629
21
12.5
31
0
39
0
210
0
220
0
230
1
0
LINE
5
1D2
100
AcDbEntity
8
SK2
62
256
6
ByLayer
370
13
48
1
60
0
100
AcDbLine
10
-1.1085
20
-12.5
30
0
11
-14.134629
21
-12.5
31
0
39
0
210
0
220
0
230
1
0
LINE
5
1D3
100
AcDbEntity
8
SK2
62
256
6
ByLayer
370
13
48
1
60
0
100
AcDbLine
10
-10.959629
20
12.5
30
0
11
-10.959629
21
-12.5
31
0
39
0
210
0
220
0
230
1
0
SOLID
5
1D4
100
AcDbEntity
8
SK2
62
256
6
ByLayer
370
13
48
1
60
0
100
AcDbTrace
10
-10.959629
20
12.5
30
0
11
-10.541632
21
9.325002
31
0
12
-11.377626
22
9.324998
32
0
13
-10.959629
23
12.5
33
0
39
0
210
0
220
0
230
1
0
SOLID
5
1D5
100
AcDbEntity
8
SK2
62
256
6
ByLayer
370
13
48
1
60
0
100
AcDbTrace
10
-10.959629
20
-12.5
30
0
11
-11.377626
21
-9.325002
31
0
12
-10.541632
22
-9.324998
32
0
13
-10.959629
23
-12.5
33
0
39
0
210
0
220
0
230
1
0
ENDBLK
5
1D7
100
AcDbEntity
8
0
100
AcDbBlockEnd
0
BLOCK
5
1E1
100
AcDbEntity
8
0
100
AcDbBlockBegin
2
DimnDraft3D2
70
0
10
0
20
0
30
0
3
DimnDraft3D2
0
MTEXT
5
1DA
100
AcDbEntity
8
2
62
256
6
ByLayer
370
13
48
1
60
0
100
AcDbMText
10
14.938882
20
-25.873557
30
0
210
0
220
0
230
1
1
\W0.6563;32
40
3.175
41
0
44
1.084337
50
0
71
7
72
5
7
iso_b_vert
0
LINE
5
1DC
100
AcDbEntity
8
2
62
256
6
ByLayer
370
13
48
1
60
0
100
AcDbLine
10
0
20
-1.5875
30
0
11
0
21
-29.842307
31
0
39
0
210
0
220
0
230
1
0
LINE
5
1DD
100
AcDbEntity
8
2
62
256
6
ByLayer
370
13
48
1
60
0
100
AcDbLine
10
32
20
-22.5875
30
0
11
32
21
-29.842307
31
0
39
0
210
0
220
0
230
1
0
LINE
5
1DE
100
AcDbEntity
8
2
62
256
6
ByLayer
370
13
48
1
60
0
100
AcDbLine
10
0
20
-26.667307
30
0
11
32
21
-26.667307
31
0
39
0
210
0
220
0
230
1
0
SOLID
5
1DF
100
AcDbEntity
8
2
62
256
6
ByLayer
370
13
48
1
60
0
100
AcDbTrace
10
0
20
-26.667307
30
0
11
3.174998
21
-26.249311
31
0
12
3.175002
22
-27.085304
32
0
13
0
23
-26.667307
33
0
39
0
210
0
220
0
230
1
0
SOLID
5
1E0
100
AcDbEntity
8
2
62
256
6
ByLayer
370
13
48
1
60
0
100
AcDbTrace
10
32
20
-26.667307
30
0
11
28.825002
21
-27.085304
31
0
12
28.824998
22
-26.249311
32
0
13
32
23
-26.667307
33
0
39
0
210
0
220
0
230
1
0
ENDBLK
5
1E2
100
AcDbEntity
8
0
100
AcDbBlockEnd
0
BLOCK
5
1EB
100
AcDbEntity
8
0
100
AcDbBlockBegin
2
DimnDraft3D3
70
0
10
0
20
0
30
0
3
DimnDraft3D3
0
MTEXT
5
1E5
100
AcDbEntity
8
2
62
256
6
ByLayer
370
13
48
1
60
0
100
AcDbMText
10
51.03835
20
-11.164243
30
0
210
0
220
0
230
1
1
\W0.6139;21
40
3.175
41
0
44
1.084337
50
90
71
7
72
5
7
iso_b_vert
0
LINE
5
1E6
100
AcDbEntity
8
2
62
256
6
ByLayer
370
13
48
1
60
0
100
AcDbLine
10
1.5875
20
0
30
0
11
55.0071
21
0
31
0
39
0
210
0
220
0
230
1
0
LINE
5
1E7
100
AcDbEntity
8
2
62
256
6
ByLayer
370
13
48
1
60
0
100
AcDbLine
10
33.5875
20
-21
30
0
11
55.0071
21
-21
31
0
39
0
210
0
220
0
230
1
0
LINE
5
1E8
100
AcDbEntity
8
2
62
256
6
ByLayer
370
13
48
1
60
0
100
AcDbLine
10
51.8321
20
0
30
0
11
51.8321
21
-21
31
0
39
0
210
0
220
0
230
1
0
SOLID
5
1E9
100
AcDbEntity
8
2
62
256
6
ByLayer
370
13
48
1
60
0
100
AcDbTrace
10
51.8321
20
0
30
0
11
52.250096
21
-3.174998
31
0
12
51.414103
22
-3.175002
32
0
13
51.8321
23
0
33
0
39
0
210
0
220
0
230
1
0
SOLID
5
1EA
100
AcDbEntity
8
2
62
256
6
ByLayer
370
13
48
1
60
0
100
AcDbTrace
10
51.8321
20
-21
30
0
11
51.414103
21
-17.825002
31
0
12
52.250096
22
-17.824998
32
0
13
51.8321
23
-21
33
0
39
0
210
0
220
0
230
1
0
ENDBLK
5
1EC
100
AcDbEntity
8
0
100
AcDbBlockEnd
0
BLOCK
5
1F6
100
AcDbEntity
8
0
100
AcDbBlockBegin
2
DimnDraft3D4
70
0
10
0
20
0
30
0
3
DimnDraft3D4
0
MTEXT
5
1EF
100
AcDbEntity
8
SK2
62
256
6
ByLayer
370
13
48
1
60
0
100
AcDbMText
10
38.216331
20
-28.789919
30
0
210
0
220
0
230
1
1
\W0.8385;93%%d
40
3.175
41
0
44
1.084337
50
50.3924222497473
71
7
72
5
7
iso_b_vert
0
LINE
5
1F0
100
AcDbEntity
8
SK2
62
256
6
ByLayer
370
13
48
1
60
0
100
AcDbLine
10
31.472887
20
-9.998995
30
0
11
31.333145
21
-7.332569
31
0
39
0
210
0
220
0
230
1
0
LINE
5
1F1
100
AcDbEntity
8
SK2
62
256
6
ByLayer
370
13
48
1
60
0
100
AcDbLine
10
37.5875
20
-21
30
0
11
45.735613
21
-21
31
0
39
0
210
0
220
0
230
1
0
ARC
5
1F2
100
AcDbEntity
8
SK2
62
256
6
ByLayer
370
13
48
1
60
0
100
AcDbCircle
39
0
10
32.049425
20
-21
30
0
40
10.5111877887205
210
0
220
0
230
1
100
AcDbArc
50
305.152125
51
0
0
ARC
5
1F3
100
AcDbEntity
8
SK2
62
256
6
ByLayer
370
13
48
1
60
0
100
AcDbCircle
39
0
10
32.049425
20
-21
30
0
40
10.5111877887205
210
0
220
0
230
1
100
AcDbArc
50
0
51
93
0
SOLID
5
1F4
100
AcDbEntity
8
SK2
62
256
6
ByLayer
370
13
48
1
60
0
100
AcDbTrace
10
31.499312
20
-10.503217
30
0
11
34.682941
21
-10.15704
31
0
12
34.664062
22
-10.99282
32
0
13
31.499312
23
-10.503217
33
0
39
0
210
0
220
0
230
1
0
SOLID
5
1F5
100
AcDbEntity
8
SK2
62
256
6
ByLayer
370
13
48
1
60
0
100
AcDbTrace
10
42.560613
20
-21
30
0
11
41.906051
21
-17.865214
31
0
12
42.739697
22
-17.802613
32
0
13
42.560613
23
-21
33
0
39
0
210
0
220
0
230
1
0
ENDBLK
5
1F7
100
AcDbEntity
8
0
100
AcDbBlockEnd
0
ENDSEC
0
SECTION
2
ENTITIES
0
ARC
5
FF
100
AcDbEntity
8
1
62
256
6
ByLayer
370
18
48
1
60
0
100
AcDbCircle
39
0
10
-25.911105
20
-11.425208
30
0
40
2.3
210
0
220
0
230
-1
100
AcDbArc
50
279.91131
51
286.684988
0
ARC
5
100
100
AcDbEntity
8
1
62
256
6
ByLayer
370
18
48
1
60
0
100
AcDbCircle
39
0
10
-25.517852
20
1.23832
30
0
40
5.00000000078996
210
0
220
0
230
-1
100
AcDbArc
50
166.503145
51
173.817114
0
ARC
5
101
100
AcDbEntity
8
1
62
256
6
ByLayer
370
18
48
1
60
0
100
AcDbCircle
39
0
10
-25.911105
20
-11.425208
30
0
40
2.3
210
0
220
0
230
-1
100
AcDbArc
50
188.690568
51
192.970553
0
ARC
5
102
100
AcDbEntity
8
1
62
256
6
ByLayer
370
18
48
1
60
0
100
AcDbCircle
39
0
10
14.479899
20
-1.783557
30
0
40
4.5
210
0
220
0
230
1
100
AcDbArc
50
354.672019
51
45
0
ARC
5
103
100
AcDbEntity
8
1
62
256
6
ByLayer
370
18
48
1
60
0
100
AcDbCircle
39
0
10
-15.517852
20
14.43832
30
0
40
8.2
210
0
220
0
230
-1
100
AcDbArc
50
319.494941
51
344.138329
0
ELLIPSE
5
104
100
AcDbEntity
8
1
62
256
6
ByLayer
370
18
48
1
60
0
100
AcDbEllipse
10
26.324972
20
-12.043479
30
0
11
-1.3088286099767
21
-0.876123116163423
31
0
210
0
220
0
230
-1
40
0.979574
41
6.38953974935076E-08
42
0.034845688913966
0
ELLIPSE
5
105
100
AcDbEntity
8
1
62
256
6
ByLayer
370
18
48
1
60
0
100
AcDbEllipse
10
26.879778
20
-12.872296
30
0
11
-1.58305974021089
21
-1.05969186980135
31
0
210
0
220
0
230
-1
40
0.979574
41
1.61932825801627
42
3.14159265358979
0
ELLIPSE
5
106
100
AcDbEntity
8
1
62
256
6
ByLayer
370
18
48
1
60
0
100
AcDbEllipse
10
25.955847
20
-11.492048
30
0
11
-1.88217939908397
21
-1.25992092120744
31
0
210
0
220
0
230
-1
40
0.979574
41
-2.43494661923118
42
-2.34008152733434
0
ELLIPSE
5
107
100
AcDbEntity
8
1
62
256
6
ByLayer
370
18
48
1
60
0
100
AcDbEllipse
10
25.955847
20
-11.492048
30
0
11
-1.8821793647325
21
-1.25992096436155
31
0
210
0
220
0
230
-1
40
0.979574
41
-0.793022844665136
42
-0.668480579597729
0
ELLIPSE
5
108
100
AcDbEntity
8
1
62
256
6
ByLayer
370
18
48
1
60
0
100
AcDbEllipse
10
18.624811
20
-19.096388
30
0
11
-4.32121293915552
21
-2.89259722990855
31
0
210
0
220
0
230
-1
40
0.979574
41
1.59914467906827
42
2.71234070207884
0
ELLIPSE
5
109
100
AcDbEntity
8
1
62
256
6
ByLayer
370
18
48
1
60
0
100
AcDbEllipse
10
25.767764
20
-2.437592
30
0
11
-2.07750622074796
21
-1.3906717451482
31
0
210
0
220
0
230
-1
40
0.979574
41
0.609871708027221
42
3.14159265358979
0
ELLIPSE
5
10A
100
AcDbEntity
8
1
62
256
6
ByLayer
370
18
48
1
60
0
100
AcDbEllipse
10
25.823344
20
-2.520623
30
0
11
-1.43971181097834
21
-0.963735519387689
31
0
210
0
220
0
230
-1
40
0.979574
41
0
42
6.28318530717959
0
ELLIPSE
5
10B
100
AcDbEntity
8
1
62
256
6
ByLayer
370
18
48
1
60
0
100
AcDbEllipse
10
26.805953
20
-12.76201
30
0
11
-1.47502941662764
21
-0.987376939230864
31
0
210
0
220
0
230
-1
40
0.979574
41
1.8667944031851
42
2.32382389480314
0
ELLIPSE
5
10C
100
AcDbEntity
8
1
62
256
6
ByLayer
370
18
48
1
60
0
100
AcDbEllipse
10
25.510147
20
-2.052742
30
0
11
-0.83100248829912
21
-0.556268698059082
31
0
210
0
220
0
230
-1
40
0.979574
41
-2.04586317117104
42
-0.998665619974258
0
ELLIPSE
5
10D
100
AcDbEntity
8
1
62
256
6
ByLayer
370
18
48
1
60
0
100
AcDbEllipse
10
18.877523
20
5.656854
30
0
11
-33.3147660044718
21
-0.638439550120626
31
0
210
0
220
0
230
-1
40
0.110919
41
-1.92118523995229
42
-1.79870956098989
0
ELLIPSE
5
10E
100
AcDbEntity
8
1
62
256
6
ByLayer
370
18
48
1
60
0
100
AcDbEllipse
10
14.479899
20
-1.783557
30
0
11
-0.522550489017277
21
-3.66291411150935
31
0
210
0
220
0
230
-1
40
1
41
-1.58880516605123
42
-1.55542031846525
0
ELLIPSE
5
10F
100
AcDbEntity
8
1
62
256
6
ByLayer
370
18
48
1
60
0
100
AcDbEllipse
10
26.879778
20
-12.872296
30
0
11
-1.58305974020946
21
-1.05969186980358
31
0
210
0
220
0
230
-1
40
0.979574
41
0
42
1.61932825801771
0
ELLIPSE
5
110
100
AcDbEntity
8
1
62
256
6
ByLayer
370
18
48
1
60
0
100
AcDbEllipse
10
27.151951
20
-12.720357
30
0
11
-1.57890472778159
21
-1.05691052628566
31
0
210
0
220
0
230
-1
40
0.979574
41
-0.639515610212111
42
0
0
ELLIPSE
5
111
100
AcDbEntity
8
1
62
256
6
ByLayer
370
18
48
1
60
0
100
AcDbEllipse
10
26.324972
20
-12.043479
30
0
11
-1.3088291429578
21
-0.876123508702354
31
0
210
0
220
0
230
-1
40
0.979574
41
3.10674711826508
42
-3.14159257121004
0
ELLIPSE
5
112
100
AcDbEntity
8
1
62
256
6
ByLayer
370
18
48
1
60
0
100
AcDbEllipse
10
28.092122
20
-11.162645
30
0
11
-0.0776897721032035
21
0.645340450234048
31
0
210
0
220
0
230
-1
40
0.092582
41
2.65896499669661
42
2.82050568748267
0
ELLIPSE
5
113
100
AcDbEntity
8
1
62
256
6
ByLayer
370
18
48
1
60
0
100
AcDbEllipse
10
26.282462
20
-11.979975
30
0
11
-1.45432260448364
21
-0.97351590911476
31
0
210
0
220
0
230
-1
40
0.979574
41
-2.97522707263928
42
-2.70959468849741
0
ELLIPSE
5
114
100
AcDbEntity
8
1
62
256
6
ByLayer
370
18
48
1
60
0
100
AcDbEllipse
10
29.789256
20
-10.008296
30
0
11
-0.659815975716356
21
-0.441677346240994
31
0
210
0
220
0
230
-1
40
0.979574
41
2.71015904048929
42
3.14159265358979
0
ELLIPSE
5
115
100
AcDbEntity
8
1
62
256
6
ByLayer
370
18
48
1
60
0
100
AcDbEllipse
10
35.939019
20
-28.296616
30
0
11
-21.3618664579133
21
28.399842839878
31
0
210
0
220
0
230
-1
40
0.021695
41
0.738476046929762
42
0.758335881215806
0
ELLIPSE
5
116
100
AcDbEntity
8
1
62
256
6
ByLayer
370
18
48
1
60
0
100
AcDbEllipse
10
20.485017
20
-5.210086
30
0
11
-0.0310321680005254
21
2.3706229127762
31
0
210
0
220
0
230
-1
40
0.832707
41
0.989086596178436
42
1.10824869828282
0
ELLIPSE
5
117
100
AcDbEntity
8
1
62
256
6
ByLayer
370
18
48
1
60
0
100
AcDbEllipse
10
3.381131
20
-34.49236
30
0
11
-16.50289106449
21
-26.9694367443724
31
0
210
0
220
0
230
-1
40
0.004621
41
2.19236712188613
42
2.20611649028144
0
ELLIPSE
5
118
100
AcDbEntity
8
1
62
256
6
ByLayer
370
18
48
1
60
0
100
AcDbEllipse
10
27.286865
20
-9.112276
30
0
11
-1.24650373244088
21
-0.834403047101356
31
0
210
0
220
0
230
-1
40
0.979574
41
2.71234070208838
42
-3.11981779329496
0
ELLIPSE
5
119
100
AcDbEntity
8
1
62
256
6
ByLayer
370
18
48
1
60
0
100
AcDbEllipse
10
27.185508
20
-12.770487
30
0
11
-1.32960398127864
21
-0.89002991689492
31
0
210
0
220
0
230
-1
40
0.979574
41
-0.622690329004383
42
1.57961857271228
0
ELLIPSE
5
11A
100
AcDbEntity
8
1
62
256
6
ByLayer
370
18
48
1
60
0
100
AcDbEllipse
10
25.510147
20
-2.052742
30
0
11
-0.831002488295021
21
-0.556268698066615
31
0
210
0
220
0
230
-1
40
0.979574
41
-0.998665619965656
42
-0.0909405509245844
0
ELLIPSE
5
11B
100
AcDbEntity
8
1
62
256
6
ByLayer
370
18
48
1
60
0
100
AcDbEllipse
10
27.151951
20
-12.720357
30
0
11
-1.5789047277687
21
-1.05691052631229
31
0
210
0
220
0
230
-1
40
0.979574
41
0
42
1.59644385390363
0
ELLIPSE
5
11C
100
AcDbEntity
8
1
62
256
6
ByLayer
370
18
48
1
60
0
100
AcDbEllipse
10
25.823344
20
-2.520623
30
0
11
-0.959559020633422
21
-0.642323765132884
31
0
210
0
220
0
230
-1
40
0.979574
41
2.66652580921416
42
-2.56946194676886
0
ELLIPSE
5
11D
100
AcDbEntity
8
1
62
256
6
ByLayer
370
18
48
1
60
0
100
AcDbEllipse
10
1.976123
20
-5.656854
30
0
11
-33.314766009377
21
-0.638439549926854
31
0
210
0
220
0
230
-1
40
0.110919
41
-2.62413349465504
42
-2.44487647343031
0
ELLIPSE
5
11E
100
AcDbEntity
8
1
62
256
6
ByLayer
370
18
48
1
60
0
100
AcDbEllipse
10
1.976123
20
-5.656854
30
0
11
-33.3147660088251
21
-0.638439549959909
31
0
210
0
220
0
230
-1
40
0.110919
41
2.14087740537735
42
2.26690903810488
0
ELLIPSE
5
11F
100
AcDbEntity
8
1
62
256
6
ByLayer
370
18
48
1
60
0
100
AcDbEllipse
10
18.900733
20
-7.5
30
0
11
-7.73316071977977
21
-11.9382768709491
31
0
210
0
220
0
230
-1
40
0.157186
41
-0.641724315141534
42
-0.558889241909367
0
ELLIPSE
5
120
100
AcDbEntity
8
1
62
256
6
ByLayer
370
18
48
1
60
0
100
AcDbEllipse
10
23.999779
20
-5.656854
30
0
11
-5.99555524042951
21
3.73774224245341
31
0
210
0
220
0
230
-1
40
0.05053
41
1.88116617200465
42
2.17730524793636
0
ELLIPSE
5
121
100
AcDbEntity
8
1
62
256
6
ByLayer
370
18
48
1
60
0
100
AcDbEllipse
10
20.10644
20
-4.644534
30
0
11
-1.74510522120901
21
-1.16816427035334
31
0
210
0
220
0
230
-1
40
0.979574
41
-2.99078232945657
42
-2.8184254623399
0
ELLIPSE
5
122
100
AcDbEntity
8
1
62
256
6
ByLayer
370
18
48
1
60
0
100
AcDbEllipse
10
21.96233
20
-5.656854
30
0
11
-0.283653466795921
21
3.74986357226762
31
0
210
0
220
0
230
-1
40
0.1128
41
-2.32497494663118
42
-2.23221115877392
0
ELLIPSE
5
123
100
AcDbEntity
8
1
62
256
6
ByLayer
370
18
48
1
60
0
100
AcDbEllipse
10
20.10644
20
-4.644534
30
0
11
-1.74510521830385
21
-1.1681642580552
31
0
210
0
220
0
230
-1
40
0.979574
41
-1.60038810268588
42
-1.52226439658678
0
ELLIPSE
5
124
100
AcDbEntity
8
1
62
256
6
ByLayer
370
18
48
1
60
0
100
AcDbEllipse
10
26.83951
20
-12.81214
30
0
11
-1.22572867024361
21
-0.820496329633575
31
0
210
0
220
0
230
-1
40
0.979574
41
1.79282729296701
42
2.30569360432443
0
ELLIPSE
5
125
100
AcDbEntity
8
1
62
256
6
ByLayer
370
18
48
1
60
0
100
AcDbEllipse
10
25.510147
20
-2.052742
30
0
11
-0.831002488312077
21
-0.5562686980427
31
0
210
0
220
0
230
-1
40
0.979574
41
-3.0930607223879
42
-2.04586317119226
0
ELLIPSE
5
126
100
AcDbEntity
8
1
62
256
6
ByLayer
370
18
48
1
60
0
100
AcDbEllipse
10
26.493511
20
-12.853794
30
0
11
-1.3296039812794
21
-0.890029916893916
31
0
210
0
220
0
230
-1
40
0.979574
41
2.51890232458465
42
-1.56197408087833
0
ELLIPSE
5
127
100
AcDbEntity
8
1
62
256
6
ByLayer
370
18
48
1
60
0
100
AcDbEllipse
10
26.879778
20
-12.872296
30
0
11
-1.58305974020997
21
-1.05969186980289
31
0
210
0
220
0
230
-1
40
0.979574
41
3.14159265358979
42
0
0
ELLIPSE
5
128
100
AcDbEntity
8
1
62
256
6
ByLayer
370
18
48
1
60
0
100
AcDbEllipse
10
26.347343
20
-12.076899
30
0
11
-1.58305974003746
21
-1.05969187012253
31
0
210
0
220
0
230
-1
40
0.979574
41
-0.584558546581207
42
-0.259357820695803
0
ELLIPSE
5
129
100
AcDbEntity
8
1
62
256
6
ByLayer
370
18
48
1
60
0
100
AcDbEllipse
10
22.548573
20
-5.652429
30
0
11
-0.659815975709607
21
-0.441677346258982
31
0
210
0
220
0
230
-1
40
0.979574
41
0.528497475520672
42
2.7101590405136
0
ELLIPSE
5
12A
100
AcDbEntity
8
1
62
256
6
ByLayer
370
18
48
1
60
0
100
AcDbEllipse
10
38.151445
20
-31.601562
30
0
11
-21.3631976428914
21
28.4016533661589
31
0
210
0
220
0
230
-1
40
0.021694
41
0.526900285727507
42
0.537146710842211
0
ELLIPSE
5
12B
100
AcDbEntity
8
1
62
256
6
ByLayer
370
18
48
1
60
0
100
AcDbEllipse
10
20.477727
20
-5.199195
30
0
11
-2.21725946333907
21
-0.0385366373259741
31
0
210
0
220
0
230
-1
40
0.805119
41
-1.59245689748411
42
-1.39114363495751
0
ELLIPSE
5
12C
100
AcDbEntity
8
1
62
256
6
ByLayer
370
18
48
1
60
0
100
AcDbEllipse
10
25.75747
20
-2.422214
30
0
11
-2.07750638226424
21
-1.39067153226557
31
0
210
0
220
0
230
-1
40
0.979574
41
-2.30931610297273
42
-2.23715186844056
0
ELLIPSE
5
12D
100
AcDbEntity
8
1
62
256
6
ByLayer
370
18
48
1
60
0
100
AcDbEllipse
10
24.127242
20
1.025305
30
0
11
-12.0760630418735
21
-19.7585651398173
31
0
210
0
220
0
230
-1
40
0.157714
41
-0.196073416097497
42
-0.0782414254130798
0
ELLIPSE
5
12E
100
AcDbEntity
8
1
62
256
6
ByLayer
370
18
48
1
60
0
100
AcDbEllipse
10
25.75747
20
-2.422214
30
0
11
-2.07750621040519
21
-1.39067174912591
31
0
210
0
220
0
230
-1
40
0.979574
41
3.54938392775316E-09
42
0.115993101437275
0
ELLIPSE
5
12F
100
AcDbEntity
8
1
62
256
6
ByLayer
370
18
48
1
60
0
100
AcDbEllipse
10
25.823344
20
-2.520623
30
0
11
-0.959559020631825
21
-0.642323765134863
31
0
210
0
220
0
230
-1
40
0.979574
41
0.572130706823054
42
1.6193282580198
0
ELLIPSE
5
130
100
AcDbEntity
8
1
62
256
6
ByLayer
370
18
48
1
60
0
100
AcDbEllipse
10
23.716828
20
-5.656854
30
0
11
-5.9955552426266
21
3.7377422437199
31
0
210
0
220
0
230
-1
40
0.05053
41
1.32646099993145
42
1.81723308160261
0
ELLIPSE
5
131
100
AcDbEntity
8
1
62
256
6
ByLayer
370
18
48
1
60
0
100
AcDbEllipse
10
1.976123
20
-5.656854
30
0
11
-33.3147660038368
21
-0.638439549554191
31
0
210
0
220
0
230
-1
40
0.110919
41
2.47922757440385
42
2.61627671842172
0
ELLIPSE
5
132
100
AcDbEntity
8
1
62
256
6
ByLayer
370
18
48
1
60
0
100
AcDbEllipse
10
26.459954
20
-12.803664
30
0
11
-1.57890472778413
21
-1.05691052628062
31
0
210
0
220
0
230
-1
40
0.979574
41
2.50207704337467
42
3.14159265358979
0
ELLIPSE
5
133
100
AcDbEntity
8
1
62
256
6
ByLayer
370
18
48
1
60
0
100
AcDbEllipse
10
25.75747
20
-2.422214
30
0
11
-2.07750622075292
21
-1.39067174514229
31
0
210
0
220
0
230
-1
40
0.979574
41
3.14159265358979
42
-2.30931599642652
0
ELLIPSE
5
134
100
AcDbEntity
8
1
62
256
6
ByLayer
370
18
48
1
60
0
100
AcDbEllipse
10
29.789256
20
-10.008296
30
0
11
-0.659815848038122
21
-0.441677317359213
31
0
210
0
220
0
230
-1
40
0.979574
41
-3.14159259559978
42
-3.09306066064325
0
ELLIPSE
5
135
100
AcDbEntity
8
1
62
256
6
ByLayer
370
18
48
1
60
0
100
AcDbEllipse
10
1.976123
20
-5.656854
30
0
11
-33.3147660176097
21
-0.638439549425189
31
0
210
0
220
0
230
-1
40
0.110919
41
-2.20779774531499
42
-2.05632321025806
0
ELLIPSE
5
136
100
AcDbEntity
8
1
62
256
6
ByLayer
370
18
48
1
60
0
100
AcDbEllipse
10
20.162368
20
-4.728084
30
0
11
-1.74510522543742
21
-1.16816426590857
31
0
210
0
220
0
230
-1
40
0.979574
41
-1.57159010367487
42
-1.10294473548738
0
ELLIPSE
5
137
100
AcDbEntity
8
1
62
256
6
ByLayer
370
18
48
1
60
0
100
AcDbEllipse
10
20.10644
20
-4.644534
30
0
11
-1.74510522542864
21
-1.1681642659239
31
0
210
0
220
0
230
-1
40
0.979574
41
-1.52226439557286
42
-0.117868273718212
0
ELLIPSE
5
138
100
AcDbEntity
8
1
62
256
6
ByLayer
370
18
48
1
60
0
100
AcDbEllipse
10
20.162368
20
-4.728084
30
0
11
-1.74510528135258
21
-1.16816420761361
31
0
210
0
220
0
230
-1
40
0.979574
41
-2.95252989803551
42
-2.8582671374307
0
ELLIPSE
5
139
100
AcDbEntity
8
1
62
256
6
ByLayer
370
18
48
1
60
0
100
AcDbEllipse
10
25.823344
20
-2.520623
30
0
11
-0.959559020631795
21
-0.642323765135547
31
0
210
0
220
0
230
-1
40
0.979574
41
1.61932825802033
42
2.66652580921678
0
ELLIPSE
5
13A
100
AcDbEntity
8
1
62
256
6
ByLayer
370
18
48
1
60
0
100
AcDbEllipse
10
25.823344
20
-2.520623
30
0
11
-0.959559020631708
21
-0.642323765135695
31
0
210
0
220
0
230
-1
40
0.979574
41
-1.52226439556932
42
-0.475066844372863
0
ELLIPSE
5
13B
100
AcDbEntity
8
1
62
256
6
ByLayer
370
18
48
1
60
0
100
AcDbEllipse
10
24.445422
20
1.087607
30
0
11
-12.8134903242025
21
-19.7757847845503
31
0
210
0
220
0
230
-1
40
0.15695
41
-0.331429685182629
42
-0.236478025507404
0
ELLIPSE
5
13C
100
AcDbEntity
8
1
62
256
6
ByLayer
370
18
48
1
60
0
100
AcDbEllipse
10
23.9703
20
-15.736297
30
0
11
-0.659815975708632
21
-0.441677346255232
31
0
210
0
220
0
230
-1
40
0.979574
41
-0.43143361308018
42
0
0
ELLIPSE
5
13D
100
AcDbEntity
8
1
62
256
6
ByLayer
370
18
48
1
60
0
100
AcDbEllipse
10
26.282462
20
-11.979975
30
0
11
-1.45432260574987
21
-0.973515907202894
31
0
210
0
220
0
230
-1
40
0.979574
41
-0.428570758144302
42
-0.166365580980608
0
ELLIPSE
5
13E
100
AcDbEntity
8
1
62
256
6
ByLayer
370
18
48
1
60
0
100
AcDbEllipse
10
22.016138
20
-4.857032
30
0
11
-0.659815975709555
21
-0.441677346259054
31
0
210
0
220
0
230
-1
40
0.979574
41
0.52849747552078
42
2.41799489183869
0
ELLIPSE
5
13F
100
AcDbEntity
8
1
62
256
6
ByLayer
370
18
48
1
60
0
100
AcDbEllipse
10
25.767764
20
-2.437592
30
0
11
-2.07750622076044
21
-1.39067174513286
31
0
210
0
220
0
230
-1
40
0.979574
41
3.14159265358979
42
-2.36129139913114
0
ELLIPSE
5
140
100
AcDbEntity
8
1
62
256
6
ByLayer
370
18
48
1
60
0
100
AcDbEllipse
10
36.612014
20
-29.302017
30
0
11
-19.1402657277273
21
31.9449815879826
31
0
210
0
220
0
230
-1
40
0.025986
41
0.678953260697509
42
0.695530249621443
0
ELLIPSE
5
141
100
AcDbEntity
8
1
62
256
6
ByLayer
370
18
48
1
60
0
100
AcDbEllipse
10
10.3572
20
-12.029574
30
0
11
-5.23531567435084
21
-3.5044928003282
31
0
210
0
220
0
230
-1
40
0.979574
41
-2.32558609906475
42
-2.08284057964081
0
ELLIPSE
5
142
100
AcDbEntity
8
1
62
256
6
ByLayer
370
18
48
1
60
0
100
AcDbEllipse
10
25.823344
20
-2.520623
30
0
11
-0.959559020632598
21
-0.642323765133878
31
0
210
0
220
0
230
-1
40
0.979574
41
-2.56946194676775
42
-1.5222643955711
0
ELLIPSE
5
143
100
AcDbEntity
8
1
62
256
6
ByLayer
370
18
48
1
60
0
100
AcDbEllipse
10
25.431848
20
-1.935772
30
0
11
-0.831002488299176
21
-0.556268698059293
31
0
210
0
220
0
230
-1
40
0.979574
41
-2.98736832449507
42
-0.133291504651985
0
ELLIPSE
5
144
100
AcDbEntity
8
1
62
256
6
ByLayer
370
18
48
1
60
0
100
AcDbEllipse
10
31.230944
20
-5.656854
30
0
11
-0.27514741157216
21
3.74989649466259
31
0
210
0
220
0
230
-1
40
0.101261
41
-1.90974168462995
42
-0.866966590558826
0
ELLIPSE
5
145
100
AcDbEntity
8
1
62
256
6
ByLayer
370
18
48
1
60
0
100
AcDbEllipse
10
25.75747
20
-2.422214
30
0
11
-2.07750622074785
21
-1.39067174514837
31
0
210
0
220
0
230
-1
40
0.979574
41
-2.23715176156859
42
-1.81339729249679E-16
0
ELLIPSE
5
146
100
AcDbEntity
8
1
62
256
6
ByLayer
370
18
48
1
60
0
100
AcDbEllipse
10
30.768015
20
-11.63983
30
0
11
-0.659815975739266
21
-0.441677346224226
31
0
210
0
220
0
230
-1
40
0.979574
41
-3.09306072242361
42
-2.6130951781269
0
ELLIPSE
5
147
100
AcDbEntity
8
1
62
256
6
ByLayer
370
18
48
1
60
0
100
AcDbEllipse
10
26.347343
20
-12.076899
30
0
11
-1.58305974027238
21
-1.05969186972312
31
0
210
0
220
0
230
-1
40
0.979574
41
-2.88223483275362
42
-2.50884268895446
0
ELLIPSE
5
148
100
AcDbEntity
8
1
62
256
6
ByLayer
370
18
48
1
60
0
100
AcDbEllipse
10
31.210983
20
-20.092164
30
0
11
-0.659815975709494
21
-0.441677346259146
31
0
210
0
220
0
230
-1
40
0.979574
41
-2.61309517806887
42
-0.431433613075943
0
ELLIPSE
5
149
100
AcDbEntity
8
1
62
256
6
ByLayer
370
18
48
1
60
0
100
AcDbEllipse
10
20.162368
20
-4.728084
30
0
11
-1.74510399055575
21
-1.16816613627406
31
0
210
0
220
0
230
-1
40
0.979574
41
-1.10294368754421
42
-1.04074733290286
0
ELLIPSE
5
14A
100
AcDbEntity
8
1
62
256
6
ByLayer
370
18
48
1
60
0
100
AcDbEllipse
10
16.534171
20
-13.497794
30
0
11
-0.777748103217839
21
0.187370982558946
31
0
210
0
220
0
230
-1
40
0.137769
41
1.28072730679983
42
1.42236997615947
0
ELLIPSE
5
14B
100
AcDbEntity
8
1
62
256
6
ByLayer
370
18
48
1
60
0
100
AcDbEllipse
10
26.805953
20
-12.76201
30
0
11
-1.47502941678774
21
-0.987376938958451
31
0
210
0
220
0
230
-1
40
0.979574
41
-1.36689565104571
42
-0.817768758962312
0
ELLIPSE
5
14C
100
AcDbEntity
8
1
62
256
6
ByLayer
370
18
48
1
60
0
100
AcDbEllipse
10
26.83951
20
-12.81214
30
0
11
-1.22572867027716
21
-0.820496329576084
31
0
210
0
220
0
230
-1
40
0.979574
41
-1.34876536066836
42
-0.835899049309716
0
ELLIPSE
5
14D
100
AcDbEntity
8
1
62
256
6
ByLayer
370
18
48
1
60
0
100
AcDbEllipse
10
17.663266
20
-5.656854
30
0
11
-6.03796722448042
21
3.74290541885484
31
0
210
0
220
0
230
-1
40
0.038185
41
2.10380455760571
42
2.3022656460747
0
ELLIPSE
5
14E
100
AcDbEntity
8
1
62
256
6
ByLayer
370
18
48
1
60
0
100
AcDbEllipse
10
25.823344
20
-2.520623
30
0
11
-0.959559020633529
21
-0.642323765132161
31
0
210
0
220
0
230
-1
40
0.979574
41
-0.475066844376264
42
0.57213070682046
0
ELLIPSE
5
14F
100
AcDbEntity
8
1
62
256
6
ByLayer
370
18
48
1
60
0
100
AcDbEllipse
10
26.459954
20
-12.803664
30
0
11
-1.57890472776873
21
-1.05691052631224
31
0
210
0
220
0
230
-1
40
0.979574
41
3.14159265358979
42
-1.54514879968619
0
POINT
5
6C
100
AcDbEntity
8
80
62
256
6
ByLayer
370
13
48
1
60
0
100
AcDbPoint
10
0
20
0
30
0
39
0
210
0
220
0
230
1
50
360
0
POINT
5
6E
100
AcDbEntity
8
81
62
256
6
ByLayer
370
13
48
1
60
0
100
AcDbPoint
10
32
20
-21
30
0
39
0
210
0
220
0
230
1
50
360
0
SPLINE
5
150
100
AcDbEntity
8
1
62
256
6
ByLayer
370
18
48
1
60
0
100
AcDbSpline
70
4
71
3
72
13
73
9
40
0
40
0
40
0
40
0
40
0.182852334702797
40
0.41036788833749
40
0.566052791858508
40
0.721862109913301
40
0.87950855497316
40
1
40
1
40
1
40
1
41
1
10
20.8544161698372
20
-7.36014456942856
30
0
41
1
10
20.6998330011573
20
-7.38348605952194
30
0
41
1
10
20.3593238189614
20
-7.39765835797432
30
0
41
1
10
19.8917818155442
20
-7.28839159362588
30
0
41
1
10
19.4926407011153
20
-7.09603878592242
30
0
41
1
10
19.1782433052735
20
-6.87515709850118
30
0
41
1
10
18.9234548997718
20
-6.6259838501973
30
0
41
1
10
18.7846598272836
20
-6.44462856020255
30
0
41
1
10
18.728859598389
20
-6.36173894635953
30
0
0
SPLINE
5
151
100
AcDbEntity
8
1
62
256
6
ByLayer
370
18
48
1
60
0
100
AcDbSpline
70
4
71
3
72
15
73
11
40
0
40
0
40
0
40
0
40
0.135716656279127
40
0.271414084377569
40
0.410483130032489
40
0.549505457812348
40
0.73079513863766
40
0.823821262578419
40
0.91682626505291
40
1
40
1
40
1
40
1
41
1
10
7.52349955892742
20
12.0158064849625
30
0
41
1
10
7.53179175724728
20
11.9198973095708
30
0
41
1
10
7.5587865227223
20
11.7139996606013
30
0
41
1
10
7.6267372130723
20
11.3589683692137
30
0
41
1
10
7.73628317241575
20
10.9596399310666
30
0
41
1
10
7.91627996747512
20
10.4759142910883
30
0
41
1
10
8.15392929939838
20
10.0057296679023
30
0
41
1
10
8.43706514158569
20
9.57672693611717
30
0
41
1
10
8.68332315200887
20
9.26115141875909
30
0
41
1
10
8.8704726716493
20
9.05919717076222
30
0
41
1
10
8.96446609406726
20
8.96446609406727
30
0
0
SPLINE
5
152
100
AcDbEntity
8
1
62
256
6
ByLayer
370
18
48
1
60
0
100
AcDbSpline
70
4
71
1
72
4
73
2
40
0
40
0
40
1
40
1
41
1
10
-0.271
20
11.5138249074754
30
0
41
1
10
0.268331828749801
20
12.1200720484261
30
0
0
SPLINE
5
153
100
AcDbEntity
8
1
62
256
6
ByLayer
370
18
48
1
60
0
100
AcDbSpline
70
4
71
1
72
4
73
2
40
0
40
0
40
1
40
1
41
1
10
-0.270999999999999
20
-9.17214064436432
30
0
41
1
10
0.2683318287498
20
-10.078193301587
30
0
0
SPLINE
5
154
100
AcDbEntity
8
1
62
256
6
ByLayer
370
18
48
1
60
0
100
AcDbSpline
70
4
71
3
72
11
73
7
40
0
40
0
40
0
40
0
40
0.253532778421075
40
0.505615953969967
40
0.75347356069159
40
1
40
1
40
1
40
1
41
1
10
0.2683318287498
20
-2.49876249156754
30
0
41
1
10
0.213521442329603
20
-2.07876453007929
30
0
41
1
10
0.131931211675355
20
-1.23915001486172
30
0
41
1
10
0.0917702246293648
20
0.0211511880604022
30
0
41
1
10
0.134534050048702
20
1.26952935194271
30
0
41
1
10
0.215049138641747
20
2.09041515546027
30
0
41
1
10
0.268331828749801
20
2.49876249156754
30
0
0
SPLINE
5
155
100
AcDbEntity
8
1
62
256
6
ByLayer
370
18
48
1
60
0
100
AcDbSpline
70
4
71
3
72
14
73
10
40
0
40
0
40
0
40
0
40
0.279187996850467
40
0.494361588370806
40
0.62061019062062
40
0.713032327327818
40
0.805431245844565
40
0.93152041736063
40
1
40
1
40
1
40
1
41
1
10
0.359300056387305
20
-6.34893140737092
30
0
41
1
10
0.36026725317564
20
-6.36997056165787
30
0
41
1
10
0.357749015678482
20
-6.4037045531654
30
0
41
1
10
0.348196036379338
20
-6.44242055557297
30
0
41
1
10
0.333635023129586
20
-6.46105706102571
30
0
41
1
10
0.31855496458936
20
-6.46664744301674
30
0
41
1
10
0.300515953153847
20
-6.46357084773644
30
0
41
1
10
0.283150632312056
20
-6.45252477733933
30
0
41
1
10
0.272161546963096
20
-6.44286822719109
30
0
41
1
10
0.268331828737741
20
-6.43906530842519
30
0
0
SPLINE
5
156
100
AcDbEntity
8
1
62
256
6
ByLayer
370
18
48
1
60
0
100
AcDbSpline
70
4
71
1
72
4
73
2
40
0
40
0
40
1
40
1
41
1
10
-0.271000000000001
20
-11.665576025212
30
0
41
1
10
0.2683318287498
20
-12.1687415592248
30
0
0
SPLINE
5
157
100
AcDbEntity
8
1
62
256
6
ByLayer
370
18
48
1
60
0
100
AcDbSpline
70
4
71
3
72
15
73
11
40
0
40
0
40
0
40
0
40
0.0735794556667163
40
0.117337412783374
40
0.161512553787533
40
0.201285889870521
40
0.24698378060108
40
0.324285439557619
40
0.552206145790194
40
1
40
1
40
1
40
1
41
1
10
0.268331828749798
20
-3.70548291117113
30
0
41
1
10
0.273172716641108
20
-3.71323795227824
30
0
41
1
10
0.281660549583935
20
-3.72373770242346
30
0
41
1
10
0.294994108695797
20
-3.73539203964326
30
0
41
1
10
0.306592550255217
20
-3.74011211861695
30
0
41
1
10
0.317722482983456
20
-3.73821805832594
30
0
41
1
10
0.328848612210137
20
-3.72863089765883
30
0
41
1
10
0.344838890609916
20
-3.69670939973578
30
0
41
1
10
0.357652064254883
20
-3.61043940822518
30
0
41
1
10
0.362696847142541
20
-3.53212662877292
30
0
41
1
10
0.359189874572762
20
-3.47602307280862
30
0
0
SPLINE
5
158
100
AcDbEntity
8
1
62
256
6
ByLayer
370
18
48
1
60
0
100
AcDbSpline
70
4
71
2
72
6
73
3
40
0
40
0
40
0
40
1
40
1
40
1
41
1
10
-0.270999999999999
20
-3.87113213414371
30
0
41
1
10
-0.0500116079329004
20
-4.90085228983695
30
0
41
1
10
0.268331828749801
20
-5.8960033537971
30
0
0
SPLINE
5
159
100
AcDbEntity
8
1
62
256
6
ByLayer
370
18
48
1
60
0
100
AcDbSpline
70
4
71
1
72
4
73
2
40
0
40
0
40
1
40
1
41
1
10
22.250343976365
20
-4.07213146829326
30
0
41
1
10
22.4496943718874
20
-4.45869298233672
30
0
0
SPLINE
5
15A
100
AcDbEntity
8
1
62
256
6
ByLayer
370
18
48
1
60
0
100
AcDbSpline
70
4
71
3
72
10
73
6
40
0
40
0
40
0
40
0
40
0.401789293179051
40
0.787951506776319
40
1
40
1
40
1
40
1
41
1
10
12.6856042362852
20
-18.630170019492
30
0
41
1
10
12.6777510122654
20
-18.6425856665938
30
0
41
1
10
12.68975366952
20
-18.6671396364195
30
0
41
1
10
12.7791529366702
20
-18.7005788050644
30
0
41
1
10
12.8580826868796
20
-18.7191785033424
30
0
41
1
10
12.889664654403
20
-18.7257153388548
30
0
0
SPLINE
5
15B
100
AcDbEntity
8
1
62
256
6
ByLayer
370
18
48
1
60
0
100
AcDbSpline
70
4
71
2
72
6
73
3
40
0
40
0
40
0
40
1
40
1
40
1
41
1
10
-0.271000000000001
20
3.87113213414371
30
0
41
1
10
-0.0500062923016532
20
4.90085566286657
30
0
41
1
10
0.268331828749801
20
5.8960033537971
30
0
0
SPLINE
5
15C
100
AcDbEntity
8
1
62
256
6
ByLayer
370
18
48
1
60
0
100
AcDbSpline
70
4
71
1
72
4
73
2
40
0
40
0
40
1
40
1
41
1
10
27.3535977008465
20
-14.164040739983
30
0
41
1
10
27.4544456450021
20
-14.3769134790713
30
0
0
SPLINE
5
15D
100
AcDbEntity
8
1
62
256
6
ByLayer
370
18
48
1
60
0
100
AcDbSpline
70
4
71
3
72
15
73
11
40
0
40
0
40
0
40
0
40
0.0112909722749646
40
0.0569039564534877
40
0.118156021154827
40
0.212370835149933
40
0.380906474337964
40
0.570085139971541
40
0.847769070553715
40
1
40
1
40
1
40
1
41
1
10
25.2810916427486
20
-13.3104961951523
30
0
41
1
10
25.281221961859
20
-13.3106918441619
30
0
41
1
10
25.2819730780773
20
-13.3118735682426
30
0
41
1
10
25.2847407039079
20
-13.316820725202
30
0
41
1
10
25.2917254677283
20
-13.330008652733
30
0
41
1
10
25.3051506665393
20
-13.3555489655772
30
0
41
1
10
25.3258309405402
20
-13.3939495268737
30
0
41
1
10
25.3568400723607
20
-13.4486289766439
30
0
41
1
10
25.3891753718432
20
-13.5016865947554
30
0
41
1
10
25.4128325986881
20
-13.5379056652257
30
0
41
1
10
25.4213679053017
20
-13.5506761410865
30
0
0
SPLINE
5
15E
100
AcDbEntity
8
1
62
256
6
ByLayer
370
18
48
1
60
0
100
AcDbSpline
70
4
71
3
72
14
73
10
40
0
40
0
40
0
40
0
40
0.0520285362892778
40
0.260345823937605
40
0.470428986783134
40
0.606728777468414
40
0.743454192490042
40
0.874744711721347
40
1
40
1
40
1
40
1
41
1
10
0.359330333578334
20
8.08505542682337
30
0
41
1
10
0.359351028161649
20
8.08797534119766
30
0
41
1
10
0.359111037428117
20
8.10231662594553
30
0
41
1
10
0.356282106078729
20
8.12662237503681
30
0
41
1
10
0.345376379345625
20
8.14869481073463
30
0
41
1
10
0.327957511158836
20
8.15717923161228
30
0
41
1
10
0.308700658680628
20
8.15464273498728
30
0
41
1
10
0.288079595218732
20
8.14384835186282
30
0
41
1
10
0.274850731660025
20
8.13391702845702
30
0
41
1
10
0.268331828749799
20
8.12819294108706
30
0
0
SPLINE
5
15F
100
AcDbEntity
8
1
62
256
6
ByLayer
370
18
48
1
60
0
100
AcDbSpline
70
4
71
1
72
4
73
2
40
0
40
0
40
1
40
1
41
1
10
0.2683318287498
20
10.2909881629557
30
0
41
1
10
-0.271000000000001
20
9.85016060782767
30
0
0
SPLINE
5
160
100
AcDbEntity
8
1
62
256
6
ByLayer
370
18
48
1
60
0
100
AcDbSpline
70
4
71
3
72
10
73
6
40
0
40
0
40
0
40
0
40
0.322108196225187
40
0.939308237273255
40
1
40
1
40
1
40
1
41
1
10
8.63758302167174
20
9.32482518819489
30
0
41
1
10
8.6233513058403
20
9.34229113572742
30
0
41
1
10
8.58853832498409
20
9.3850346820116
30
0
41
1
10
8.57249026116584
20
9.40571885915933
30
0
41
1
10
8.57158436165418
20
9.40685315088719
30
0
41
1
10
8.57158437204799
20
9.40685424623048
30
0
0
SPLINE
5
161
100
AcDbEntity
8
1
62
256
6
ByLayer
370
18
48
1
60
0
100
AcDbSpline
70
4
71
2
72
6
73
3
40
0
40
0
40
0
40
1
40
1
40
1
41
1
10
7.63007253501608
20
12.1971308101537
30
0
41
1
10
7.51431222776936
20
12.1146860767474
30
0
41
1
10
7.52349955892742
20
12.0158064849625
30
0
0
SPLINE
5
162
100
AcDbEntity
8
1
62
256
6
ByLayer
370
18
48
1
60
0
100
AcDbSpline
70
4
71
3
72
11
73
7
40
0
40
0
40
0
40
0
40
0.203474525533117
40
0.638867430116404
40
0.91802528678726
40
1
40
1
40
1
40
1
41
1
10
0.268331828749987
20
-10.8438471855183
30
0
41
1
10
0.278228677233276
20
-10.8580487462897
30
0
41
1
10
0.307106097990215
20
-10.901764417126
30
0
41
1
10
0.341633801713023
20
-10.9634344321392
30
0
41
1
10
0.357784037726482
20
-11.0091320083732
30
0
41
1
10
0.359241260918894
20
-11.0249323147136
30
0
41
1
10
0.359330518587423
20
-11.0283357433787
30
0
0
SPLINE
5
163
100
AcDbEntity
8
1
62
256
6
ByLayer
370
18
48
1
60
0
100
AcDbSpline
70
4
71
1
72
4
73
2
40
0
40
0
40
1
40
1
41
1
10
-0.271000000000001
20
-11.4458797826991
30
0
41
1
10
0.2683318287498
20
-11.9256996731398
30
0
0
SPLINE
5
164
100
AcDbEntity
8
1
62
256
6
ByLayer
370
18
48
1
60
0
100
AcDbSpline
70
4
71
1
72
4
73
2
40
0
40
0
40
1
40
1
41
1
10
-0.270999999999999
20
-11.1868522829257
30
0
41
1
10
0.268331828749801
20
-11.8428081509547
30
0
0
SPLINE
5
165
100
AcDbEntity
8
1
62
256
6
ByLayer
370
18
48
1
60
0
100
AcDbSpline
70
4
71
3
72
12
73
8
40
0
40
0
40
0
40
0
40
0.184324116955661
40
0.370302047932393
40
0.560925803877063
40
0.752911486773798
40
1
40
1
40
1
40
1
41
1
10
16.5313246156869
20
-12.4834422311869
30
0
41
1
10
16.4938247321638
20
-12.7164612142733
30
0
41
1
10
16.4011605780387
20
-13.1734825074222
30
0
41
1
10
16.2051592965663
20
-13.8335808901265
30
0
41
1
10
15.9580808824992
20
-14.4645373844301
30
0
41
1
10
15.6353498117423
20
-15.11875871435
30
0
41
1
10
15.3783120925635
20
-15.5384828894143
30
0
41
1
10
15.2228273999019
20
-15.7632164062637
30
0
0
SPLINE
5
166
100
AcDbEntity
8
1
62
256
6
ByLayer
370
18
48
1
60
0
100
AcDbSpline
70
4
71
3
72
11
73
7
40
0
40
0
40
0
40
0
40
0.24917244970136
40
0.498775941065772
40
0.749291955242893
40
1
40
1
40
1
40
1
41
1
10
13.3392338638215
20
-18.2663392050734
30
0
41
1
10
12.7870211771445
20
-18.1565318207156
30
0
41
1
10
11.6743237985389
20
-17.9348869041889
30
0
41
1
10
9.97770234829106
20
-17.5953432377136
30
0
41
1
10
8.26163389659255
20
-17.2516344934799
30
0
41
1
10
7.10816310175536
20
-17.0208888894242
30
0
41
1
10
6.529
20
-16.9050617313239
30
0
0
SPLINE
5
167
100
AcDbEntity
8
1
62
256
6
ByLayer
370
18
48
1
60
0
100
AcDbSpline
70
4
71
3
72
10
73
6
40
0
40
0
40
0
40
0
40
0.0670658484547658
40
0.562290515449564
40
1
40
1
40
1
40
1
41
1
10
27.4880295514193
20
-11.10534709844
30
0
41
1
10
27.4987412796593
20
-11.11321391994
30
0
41
1
10
27.5875641056966
20
-11.1799897688815
30
0
41
1
10
27.7328412326563
20
-11.3137021783373
30
0
41
1
10
27.8420816315279
20
-11.4525371676704
30
0
41
1
10
27.888054404652
20
-11.5214681931046
30
0
0
SPLINE
5
168
100
AcDbEntity
8
1
62
256
6
ByLayer
370
18
48
1
60
0
100
AcDbSpline
70
4
71
3
72
10
73
6
40
0
40
0
40
0
40
0
40
0.58215423687043
40
0.962693690054504
40
1
40
1
40
1
40
1
41
1
10
0.2683318287498
20
-7.75608774490778
30
0
41
1
10
0.299130741457837
20
-7.82389768154569
30
0
41
1
10
0.3358394474415
20
-7.93073619985955
30
0
41
1
10
0.358359825785802
20
-8.04060943014347
30
0
41
1
10
0.359292207775334
20
-8.08120175972707
30
0
41
1
10
0.359329328033872
20
-8.0848029970337
30
0
0
SPLINE
5
169
100
AcDbEntity
8
1
62
256
6
ByLayer
370
18
48
1
60
0
100
AcDbSpline
70
4
71
3
72
11
73
7
40
0
40
0
40
0
40
0
40
0.218997415999439
40
0.61927844236923
40
0.888735239576666
40
1
40
1
40
1
40
1
41
1
10
0.268331828749801
20
-11.4229183373425
30
0
41
1
10
0.278947205061365
20
-11.4367117769403
30
0
41
1
10
0.306741613514442
20
-11.4746029519853
30
0
41
1
10
0.340356229611403
20
-11.527100045096
30
0
41
1
10
0.357275791389287
20
-11.5650578961897
30
0
41
1
10
0.359206910240325
20
-11.5779970869357
30
0
41
1
10
0.359331568261181
20
-11.5814200468529
30
0
0
SPLINE
5
16A
100
AcDbEntity
8
1
62
256
6
ByLayer
370
18
48
1
60
0
100
AcDbSpline
70
4
71
1
72
4
73
2
40
0
40
0
40
1
40
1
41
1
10
-0.271
20
10.0461765861446
30
0
41
1
10
0.268331828749801
20
10.8438471855183
30
0
0
SPLINE
5
16B
100
AcDbEntity
8
1
62
256
6
ByLayer
370
18
48
1
60
0
100
AcDbSpline
70
4
71
3
72
12
73
8
40
0
40
0
40
0
40
0
40
0.0790223359714257
40
0.29284847195521
40
0.498904688149117
40
0.792562107831363
40
1
40
1
40
1
40
1
41
1
10
0.359331764949147
20
12.2375004848054
30
0
41
1
10
0.359336278476171
20
12.2383440066074
30
0
41
1
10
0.358465935135042
20
12.2405339111161
30
0
41
1
10
0.35096492299014
20
12.2381469608872
30
0
41
1
10
0.32992574821046
20
12.2231972307218
30
0
41
1
10
0.300843725704107
20
12.1984942948419
30
0
41
1
10
0.278263045943714
20
12.177995685096
30
0
41
1
10
0.2683318287498
20
12.1687415592248
30
0
0
SPLINE
5
16C
100
AcDbEntity
8
1
62
256
6
ByLayer
370
18
48
1
60
0
100
AcDbSpline
70
4
71
1
72
4
73
2
40
0
40
0
40
1
40
1
41
1
10
-0.271000000000001
20
6.41546288275445
30
0
41
1
10
0.268331828749801
20
7.75608774490778
30
0
0
SPLINE
5
16D
100
AcDbEntity
8
1
62
256
6
ByLayer
370
18
48
1
60
0
100
AcDbSpline
70
4
71
1
72
4
73
2
40
0
40
0
40
1
40
1
41
1
10
26.1574602171903
20
-11.1471070535415
30
0
41
1
10
26.3254217918096
20
-11.4602399620563
30
0
0
SPLINE
5
16E
100
AcDbEntity
8
1
62
256
6
ByLayer
370
18
48
1
60
0
100
AcDbSpline
70
4
71
1
72
4
73
2
40
0
40
0
40
1
40
1
41
1
10
26.5029495838102
20
-14.4914600136891
30
0
41
1
10
26.6139374974338
20
-14.2530852631831
30
0
0
SPLINE
5
16F
100
AcDbEntity
8
1
62
256
6
ByLayer
370
18
48
1
60
0
100
AcDbSpline
70
4
71
1
72
4
73
2
40
0
40
0
40
1
40
1
41
1
10
-0.271000000000001
20
8.01284368997674
30
0
41
1
10
0.268331828749801
20
9.07887320461248
30
0
0
SPLINE
5
170
100
AcDbEntity
8
1
62
256
6
ByLayer
370
18
48
1
60
0
100
AcDbSpline
70
4
71
3
72
10
73
6
40
0
40
0
40
0
40
0
40
0.264800139327981
40
0.535338786696859
40
1
40
1
40
1
40
1
41
1
10
26.4052562865971
20
-3.4906365253541
30
0
41
1
10
26.3028261370983
20
-3.48823554402013
30
0
41
1
10
26.0958580578616
20
-3.48611227089
30
0
41
1
10
25.7027173304996
20
-3.4921148544636
30
0
41
1
10
25.4279975141302
20
-3.5076265749879
30
0
41
1
10
25.2578412729086
20
-3.52175260312346
30
0
0
SPLINE
5
171
100
AcDbEntity
8
1
62
256
6
ByLayer
370
18
48
1
60
0
100
AcDbSpline
70
4
71
3
72
17
73
13
40
0
40
0
40
0
40
0
40
0.115703704174552
40
0.231765784112766
40
0.347419557690981
40
0.475644005658772
40
0.603688600949439
40
0.69504029736544
40
0.786275140421673
40
0.86096171418976
40
0.935588558805249
40
1
40
1
40
1
40
1
41
1
10
15.5178523262271
20
6.23832021878528
30
0
41
1
10
15.2162914970385
20
6.23879316032435
30
0
41
1
10
14.6165627437686
20
6.27214181727905
30
0
41
1
10
13.7253240949903
20
6.42072138130395
30
0
41
1
10
12.8262430828923
20
6.67274310268529
30
0
41
1
10
11.9383226938358
20
7.04032226923655
30
0
41
1
10
11.1665354432834
20
7.47129239164351
30
0
41
1
10
10.5466866262364
20
7.90707963431163
30
0
41
1
10
10.0913297729673
20
8.28253489834731
30
0
41
1
10
9.73123492013068
20
8.62326342754058
30
0
41
1
10
9.46766120345484
20
8.90061966388158
30
0
41
1
10
9.33591818690863
20
9.04911554014115
30
0
41
1
10
9.28299363133345
20
9.11229571126482
30
0
0
SPLINE
5
172
100
AcDbEntity
8
1
62
256
6
ByLayer
370
18
48
1
60
0
100
AcDbSpline
70
4
71
1
72
4
73
2
40
0
40
0
40
1
40
1
41
1
10
0.2683318287498
20
11.9256996731398
30
0
41
1
10
-0.271000000000001
20
11.4458797826991
30
0
0
SPLINE
5
173
100
AcDbEntity
8
1
62
256
6
ByLayer
370
18
48
1
60
0
100
AcDbSpline
70
4
71
3
72
12
73
8
40
0
40
0
40
0
40
0
40
0.288422804166649
40
0.48014536669279
40
0.673337000236561
40
0.837680567165538
40
1
40
1
40
1
40
1
41
1
10
16.858890250313
20
2.20141278771995
30
0
41
1
10
16.717207202494
20
2.20210436773524
30
0
41
1
10
16.4979870857865
20
2.18891975698167
30
0
41
1
10
16.210201741616
20
2.13600026966918
30
0
41
1
10
16.0323249678574
20
2.07252224987251
30
0
41
1
10
15.9489214287444
20
2.00956220918772
30
0
41
1
10
15.9504510539695
20
1.97880417111904
30
0
41
1
10
15.964102111765
20
1.96483007636949
30
0
0
SPLINE
5
174
100
AcDbEntity
8
1
62
256
6
ByLayer
370
18
48
1
60
0
100
AcDbSpline
70
4
71
3
72
10
73
6
40
0
40
0
40
0
40
0
40
0.415487139626728
40
0.744926191211842
40
1
40
1
40
1
40
1
41
1
10
9.28299363133341
20
9.1122957112648
30
0
41
1
10
9.15434596096624
20
9.1371908178277
30
0
41
1
10
8.9538548963618
20
9.18502835813159
30
0
41
1
10
8.72255784310521
20
9.26373031218939
30
0
41
1
10
8.65669121195864
20
9.30624249276393
30
0
41
1
10
8.63758302167175
20
9.32482518819489
30
0
0
SPLINE
5
175
100
AcDbEntity
8
1
62
256
6
ByLayer
370
18
48
1
60
0
100
AcDbSpline
70
4
71
3
72
13
73
9
40
0
40
0
40
0
40
0
40
0.148757804847987
40
0.339113122078976
40
0.531100495817393
40
0.700205697522893
40
0.858219270091586
40
1
40
1
40
1
40
1
41
1
10
0.35932296070904
20
9.33957028487368
30
0
41
1
10
0.359528396515943
20
9.34671142013039
30
0
41
1
10
0.358350304356801
20
9.3613832053878
30
0
41
1
10
0.351572442543487
20
9.38028818629839
30
0
41
1
10
0.335682204535842
20
9.38972572892813
30
0
41
1
10
0.31344647652806
20
9.38604257558648
30
0
41
1
10
0.290375431912327
20
9.37365901694352
30
0
41
1
10
0.275512447796802
20
9.36274468205927
30
0
41
1
10
0.268331828749801
20
9.3567344158534
30
0
0
SPLINE
5
176
100
AcDbEntity
8
1
62
256
6
ByLayer
370
18
48
1
60
0
100
AcDbSpline
70
4
71
3
72
18
73
14
40
0
40
0
40
0
40
0
40
0.131329591675669
40
0.262673040630289
40
0.377954825050884
40
0.493108943091034
40
0.576530603856489
40
0.659880886193941
40
0.743738783572766
40
0.827577980778534
40
0.903086654071346
40
0.978619468431756
40
1
40
1
40
1
40
1
41
1
10
25.5178523262271
20
6.23832021878528
30
0
41
1
10
25.8420216187597
20
6.23719255357166
30
0
41
1
10
26.4768357410797
20
6.17542920535823
30
0
41
1
10
27.3674060888837
20
5.91379950313246
30
0
41
1
10
28.1557304107635
20
5.51215130580754
30
0
41
1
10
28.7743247482343
20
5.05630525173865
30
0
41
1
10
29.2557059210623
20
4.57583289386297
30
0
41
1
10
29.6223558210139
20
4.11376968201335
30
0
41
1
10
29.9147976378375
20
3.63731005419549
30
0
41
1
10
30.1287536375309
20
3.19041937446783
30
0
41
1
10
30.2725044529578
20
2.79960756026218
30
0
41
1
10
30.3435159276504
20
2.55173693774002
30
0
41
1
10
30.3736506428044
20
2.43108675073488
30
0
41
1
10
30.3797659851908
20
2.40528018930061
30
0
0
SPLINE
5
177
100
AcDbEntity
8
1
62
256
6
ByLayer
370
18
48
1
60
0
100
AcDbSpline
70
4
71
1
72
4
73
2
40
0
40
0
40
1
40
1
41
1
10
-0.271
20
10.7050531993073
30
0
41
1
10
0.268331828749801
20
11.4229183373425
30
0
0
SPLINE
5
178
100
AcDbEntity
8
1
62
256
6
ByLayer
370
18
48
1
60
0
100
AcDbSpline
70
4
71
1
72
4
73
2
40
0
40
0
40
1
40
1
41
1
10
-0.270999999999999
20
-10.7050531993073
30
0
41
1
10
0.2683318287498
20
-11.4229183373425
30
0
0
SPLINE
5
179
100
AcDbEntity
8
1
62
256
6
ByLayer
370
18
48
1
60
0
100
AcDbSpline
70
4
71
3
72
13
73
9
40
0
40
0
40
0
40
0
40
0.0492175185607783
40
0.294116259138204
40
0.451887467772389
40
0.636387811673611
40
0.850535856129753
40
1
40
1
40
1
40
1
41
1
10
0.359330919657452
20
-9.34064347837262
30
0
41
1
10
0.35935081612139
20
-9.34292465102796
30
0
41
1
10
0.359029878973065
20
-9.35614597888584
30
0
41
1
10
0.355319137588399
20
-9.37417993703806
30
0
41
1
10
0.341560184544514
20
-9.38772214718417
30
0
41
1
10
0.320471309038504
20
-9.38904365822946
30
0
41
1
10
0.293671025394588
20
-9.37606033690258
30
0
41
1
10
0.275876398904938
20
-9.36307721718997
30
0
41
1
10
0.268331828748665
20
-9.35673441585296
30
0
0
SPLINE
5
17A
100
AcDbEntity
8
1
62
256
6
ByLayer
370
18
48
1
60
0
100
AcDbSpline
70
4
71
1
72
4
73
2
40
0
40
0
40
1
40
1
41
1
10
0.2683318287498
20
3.70548291117112
30
0
41
1
10
-0.271000000000001
20
2.8223507932216
30
0
0
SPLINE
5
17B
100
AcDbEntity
8
1
62
256
6
ByLayer
370
18
48
1
60
0
100
AcDbSpline
70
4
71
3
72
13
73
9
40
0
40
0
40
0
40
0
40
0.261428949976879
40
0.453627100446453
40
0.584245924863963
40
0.715092137673192
40
0.888658264283519
40
1
40
1
40
1
40
1
41
1
10
0.359329328033872
20
-8.08480299703371
30
0
41
1
10
0.359993139972262
20
-8.10034265809883
30
0
41
1
10
0.35717047234585
20
-8.12329378494179
30
0
41
1
10
0.346285820784916
20
-8.14714485150737
30
0
41
1
10
0.330795928151663
20
-8.1564579755995
30
0
41
1
10
0.310886255313657
20
-8.15580930334157
30
0
41
1
10
0.288784005633854
20
-8.14446128894175
30
0
41
1
10
0.274127245359677
20
-8.13328237777806
30
0
41
1
10
0.268331828746529
20
-8.1281929410856
30
0
0
SPLINE
5
17C
100
AcDbEntity
8
1
62
256
6
ByLayer
370
18
48
1
60
0
100
AcDbSpline
70
4
71
3
72
10
73
6
40
0
40
0
40
0
40
0
40
0.508650756871745
40
0.801191435939511
40
1
40
1
40
1
40
1
41
1
10
0.2683318287498
20
9.07887320461248
30
0
41
1
10
0.294295374956084
20
9.12672930699614
30
0
41
1
10
0.326454572350504
20
9.19890646035473
30
0
41
1
10
0.354097729856307
20
9.28704197955009
30
0
41
1
10
0.35864187355523
20
9.32486496100233
30
0
41
1
10
0.35932296070904
20
9.33957028487368
30
0
0
SPLINE
5
17D
100
AcDbEntity
8
1
62
256
6
ByLayer
370
18
48
1
60
0
100
AcDbSpline
70
4
71
3
72
12
73
8
40
0
40
0
40
0
40
0
40
0.149560785128488
40
0.364720931774569
40
0.569120585866123
40
0.858729366243192
40
1
40
1
40
1
40
1
41
1
10
0.359331525754294
20
11.979353402347
30
0
41
1
10
0.359359245302602
20
11.9820272558659
30
0
41
1
10
0.357411336226793
20
11.9863324591018
30
0
41
1
10
0.346129828879962
20
11.9845194025845
30
0
41
1
10
0.32246912956856
20
11.9704225303163
30
0
41
1
10
0.294847551375131
20
11.948768616163
30
0
41
1
10
0.27505386362629
20
11.9316854344225
30
0
41
1
10
0.268331828735678
20
11.9256996731331
30
0
0
SPLINE
5
17E
100
AcDbEntity
8
1
62
256
6
ByLayer
370
18
48
1
60
0
100
AcDbSpline
70
4
71
3
72
10
73
6
40
0
40
0
40
0
40
0
40
0.502359070501742
40
0.789833822561345
40
1
40
1
40
1
40
1
41
1
10
0.268331828749801
20
10.8438471855183
30
0
41
1
10
0.29401660320913
20
10.8802342940266
30
0
41
1
10
0.325877720238667
20
10.9328599599138
30
0
41
1
10
0.354299302489963
20
10.9956003895488
30
0
41
1
10
0.358777329684227
20
11.0194505660648
30
0
41
1
10
0.359331762285981
20
11.0286100524652
30
0
0
SPLINE
5
17F
100
AcDbEntity
8
1
62
256
6
ByLayer
370
18
48
1
60
0
100
AcDbSpline
70
4
71
1
72
4
73
2
40
0
40
0
40
1
40
1
41
1
10
27.1089562783823
20
-11.0325605189238
30
0
41
1
10
27.0650819952223
20
-11.3711954388563
30
0
0
SPLINE
5
180
100
AcDbEntity
8
1
62
256
6
ByLayer
370
18
48
1
60
0
100
AcDbSpline
70
4
71
3
72
10
73
6
40
0
40
0
40
0
40
0
40
0.264800139327982
40
0.535338786696858
40
1
40
1
40
1
40
1
41
1
10
25.2414322903448
20
-1.55060944454004
30
0
41
1
10
25.3370528318914
20
-1.54283764215935
30
0
41
1
10
25.5338487968868
20
-1.52976492767547
30
0
41
1
10
25.9208636147818
20
-1.51461092855771
30
0
41
1
10
26.2061839917953
20
-1.5149352460906
30
0
41
1
10
26.3888473040333
20
-1.51949336677068
30
0
0
SPLINE
5
181
100
AcDbEntity
8
1
62
256
6
ByLayer
370
18
48
1
60
0
100
AcDbSpline
70
4
71
1
72
4
73
2
40
0
40
0
40
1
40
1
41
1
10
9.46650718149332
20
8.9046756747884
30
0
41
1
10
9.27553236893561
20
9.12104257408777
30
0
0
SPLINE
5
182
100
AcDbEntity
8
1
62
256
6
ByLayer
370
18
48
1
60
0
100
AcDbSpline
70
4
71
1
72
4
73
2
40
0
40
0
40
1
40
1
41
1
10
0.2683318287498
20
11.5430218856524
30
0
41
1
10
-0.271000000000001
20
11.0817716995073
30
0
0
SPLINE
5
183
100
AcDbEntity
8
1
62
256
6
ByLayer
370
18
48
1
60
0
100
AcDbSpline
70
4
71
3
72
13
73
9
40
0
40
0
40
0
40
0
40
0.0202710400744566
40
0.237105346645653
40
0.455253032434635
40
0.647593998869198
40
0.901690810888889
40
1
40
1
40
1
40
1
41
1
10
0.359331762285981
20
11.0286100524652
30
0
41
1
10
0.359334155922905
20
11.0292357472774
30
0
41
1
10
0.359195195694611
20
11.0363858722057
30
0
41
1
10
0.355601364506347
20
11.0472083530105
30
0
41
1
10
0.34000230748215
20
11.0501308630473
30
0
41
1
10
0.31475139568811
20
11.040282598471
30
0
41
1
10
0.289622286149189
20
11.0232994843838
30
0
41
1
10
0.273044707065432
20
11.0100873546477
30
0
41
1
10
0.268331828744738
20
11.0061526343829
30
0
0
SPLINE
5
184
100
AcDbEntity
8
1
62
256
6
ByLayer
370
18
48
1
60
0
100
AcDbSpline
70
4
71
1
72
4
73
2
40
0
40
0
40
1
40
1
41
1
10
-0.271000000000001
20
11.1868522829257
30
0
41
1
10
0.268331828749801
20
11.8428081509547
30
0
0
SPLINE
5
185
100
AcDbEntity
8
1
62
256
6
ByLayer
370
18
48
1
60
0
100
AcDbSpline
70
4
71
3
72
15
73
11
40
0
40
0
40
0
40
0
40
0.131783886237848
40
0.263567790344529
40
0.400512618166619
40
0.537457469916417
40
0.651452785244086
40
0.765448112968127
40
0.882724049354838
40
1
40
1
40
1
40
1
41
1
10
6.529
20
-16.9050617313239
30
0
41
1
10
6.52445091728317
20
-16.666449671042
30
0
41
1
10
6.51480039678661
20
-16.163256477519
30
0
41
1
10
6.49844125401883
20
-15.3164584677969
30
0
41
1
10
6.48017011572272
20
-14.3839157509901
30
0
41
1
10
6.46110880409834
20
-13.4282973352847
30
0
41
1
10
6.44184700319466
20
-12.4819120676172
30
0
41
1
10
6.42253047180093
20
-11.552412737909
30
0
41
1
10
6.40194194010575
20
-10.584602690617
30
0
41
1
10
6.38739925421664
20
-9.91998595999508
30
0
41
1
10
6.37995137109244
20
-9.58377813200316
30
0
0
SPLINE
5
186
100
AcDbEntity
8
1
62
256
6
ByLayer
370
18
48
1
60
0
100
AcDbSpline
70
4
71
3
72
12
73
8
40
0
40
0
40
0
40
0
40
0.144582548619683
40
0.337188764465865
40
0.561393294786413
40
0.784080448564459
40
1
40
1
40
1
40
1
41
1
10
0.359330518587423
20
-11.0283357433787
30
0
41
1
10
0.359441914104705
20
-11.0329806068844
30
0
41
1
10
0.357936067414267
20
-11.0418960092203
30
0
41
1
10
0.348843794130816
20
-11.0503247797689
30
0
41
1
10
0.328165933937002
20
-11.0469069833106
30
0
41
1
10
0.299287206148938
20
-11.0304218172409
30
0
41
1
10
0.27894121484058
20
-11.0150943469462
30
0
41
1
10
0.268331828749584
20
-11.0061526343845
30
0
0
SPLINE
5
187
100
AcDbEntity
8
1
62
256
6
ByLayer
370
18
48
1
60
0
100
AcDbSpline
70
4
71
2
72
6
73
3
40
0
40
0
40
0
40
1
40
1
40
1
41
1
10
0.359189874572762
20
-3.47602307280862
30
0
41
1
10
0.346383745690245
20
-2.99491737130353
30
0
41
1
10
0.268331828749801
20
-2.49876249156754
30
0
0
SPLINE
5
188
100
AcDbEntity
8
1
62
256
6
ByLayer
370
18
48
1
60
0
100
AcDbSpline
70
4
71
1
72
4
73
2
40
0
40
0
40
1
40
1
41
1
10
-0.270999999999999
20
-10.0461765861446
30
0
41
1
10
0.268331828749801
20
-10.8438471855183
30
0
0
SPLINE
5
189
100
AcDbEntity
8
1
62
256
6
ByLayer
370
18
48
1
60
0
100
AcDbSpline
70
4
71
3
72
14
73
10
40
0
40
0
40
0
40
0
40
0.311119280725957
40
0.454448335464529
40
0.598836965547958
40
0.696103494601781
40
0.793734707190265
40
0.907036761786908
40
1
40
1
40
1
40
1
41
1
10
0.359324739626246
20
6.35198220554972
30
0
41
1
10
0.360269027972228
20
6.3750969846424
30
0
41
1
10
0.357566193310409
20
6.40555562757496
30
0
41
1
10
0.347776921733131
20
6.44131457264664
30
0
41
1
10
0.336182484585269
20
6.45915399987679
30
0
41
1
10
0.320617327429638
20
6.46651775160012
30
0
41
1
10
0.303166472405806
20
6.46449152527242
30
0
41
1
10
0.285038984476183
20
6.45400651391756
30
0
41
1
10
0.273484915520463
20
6.44422746261474
30
0
41
1
10
0.268331828749799
20
6.43906530843253
30
0
0
SPLINE
5
18A
100
AcDbEntity
8
1
62
256
6
ByLayer
370
18
48
1
60
0
100
AcDbSpline
70
4
71
1
72
4
73
2
40
0
40
0
40
1
40
1
41
1
10
-0.271000000000001
20
-2.82235079322196
30
0
41
1
10
0.2683318287498
20
-3.70548291117113
30
0
0
SPLINE
5
18B
100
AcDbEntity
8
1
62
256
6
ByLayer
370
18
48
1
60
0
100
AcDbSpline
70
4
71
3
72
11
73
7
40
0
40
0
40
0
40
0
40
0.425652297409819
40
0.715271558366471
40
0.942938862323258
40
1
40
1
40
1
40
1
41
1
10
0.268331828749801
20
11.8428081509547
30
0
41
1
10
0.289592674416182
20
11.868058088341
30
0
41
1
10
0.319541575238035
20
11.9065203882598
30
0
41
1
10
0.349495602476345
20
11.9517069356899
30
0
41
1
10
0.358541842308456
20
11.9717982382006
30
0
41
1
10
0.359306169822707
20
11.9781885962433
30
0
41
1
10
0.359331525754294
20
11.979353402347
30
0
0
SPLINE
5
18C
100
AcDbEntity
8
1
62
256
6
ByLayer
370
18
48
1
60
0
100
AcDbSpline
70
4
71
3
72
11
73
7
40
0
40
0
40
0
40
0
40
0.35653514719994
40
0.635491930941154
40
0.862126118559973
40
1
40
1
40
1
40
1
41
1
10
0.268331828749795
20
12.2643869809201
30
0
41
1
10
0.285852283113384
20
12.2825688910374
30
0
41
1
10
0.313208330494387
20
12.3113952849431
30
0
41
1
10
0.343641433543293
20
12.3445753150566
30
0
41
1
10
0.35716273855204
20
12.360500693031
30
0
41
1
10
0.359243073557546
20
12.3639354283892
30
0
41
1
10
0.359331824520917
20
12.3645437457717
30
0
0
SPLINE
5
18D
100
AcDbEntity
8
1
62
256
6
ByLayer
370
18
48
1
60
0
100
AcDbSpline
70
4
71
3
72
23
73
19
40
0
40
0
40
0
40
0
40
0.0112273053526586
40
0.0824717003504627
40
0.151666172504438
40
0.222864807673316
40
0.292092934358003
40
0.363334859140215
40
0.432454861672524
40
0.503575594670544
40
0.572788623969455
40
0.643979609626832
40
0.713721071810238
40
0.785466046412919
40
0.85549434734806
40
0.927595895823276
40
0.996829705519711
40
1
40
1
40
1
40
1
41
1
10
6.83899643807847
20
-18.3411284158171
30
0
41
1
10
6.84799877564184
20
-18.3419098448579
30
0
41
1
10
6.91630821132042
20
-18.347568439281
30
0
41
1
10
7.07284170055768
20
-18.3564451044091
30
0
41
1
10
7.35733085996331
20
-18.3673945933773
30
0
41
1
10
7.69698344770211
20
-18.3793469024007
30
0
41
1
10
8.08824971010201
20
-18.3952124362372
30
0
41
1
10
8.51268554889483
20
-18.4169181626383
30
0
41
1
10
8.96555862855614
20
-18.4463974234732
30
0
41
1
10
9.42591299595781
20
-18.4835724850166
30
0
41
1
10
9.88921316538176
20
-18.5284479425928
30
0
41
1
10
10.3354117892421
20
-18.5784951846143
30
0
41
1
10
10.7599684221249
20
-18.6317242905389
30
0
41
1
10
11.1439204725756
20
-18.6835981499604
30
0
41
1
10
11.4822890805903
20
-18.7306897932303
30
0
41
1
10
11.7578000248663
20
-18.7677166299822
30
0
41
1
10
11.9004610856565
20
-18.783870231503
30
0
41
1
10
11.9589511471052
20
-18.7890660237283
30
0
41
1
10
11.9614884754993
20
-18.7892884834646
30
0
0
SPLINE
5
18E
100
AcDbEntity
8
1
62
256
6
ByLayer
370
18
48
1
60
0
100
AcDbSpline
70
4
71
3
72
27
73
23
40
0
40
0
40
0
40
0
40
0.0137997368997996
40
0.0645842018186722
40
0.115324501920907
40
0.159692538087353
40
0.204047546184327
40
0.248414717800988
40
0.29279859747068
40
0.381743052532825
40
0.432158914037743
40
0.482589999639284
40
0.540248926069314
40
0.597868064419335
40
0.645345687999319
40
0.692793890286422
40
0.740382614083211
40
0.787982196166234
40
0.878759380626459
40
0.92884752853974
40
0.978938188991902
40
1
40
1
40
1
40
1
41
1
10
18.728859598389
20
-6.36173894635953
30
0
41
1
10
18.7117643517015
20
-6.33624422657656
30
0
41
1
10
18.6342644121411
20
-6.2154000044126
30
0
41
1
10
18.5154701765899
20
-5.98521553562306
30
0
41
1
10
18.4103083943781
20
-5.67281056050084
30
0
41
1
10
18.357823421983
20
-5.36226609938513
30
0
41
1
10
18.3516551270739
20
-5.06349930835981
30
0
41
1
10
18.3925865992848
20
-4.77127352073513
30
0
41
1
10
18.5045258633813
20
-4.40058507661876
30
0
41
1
10
18.7055588461082
20
-4.05955114197545
30
0
41
1
10
18.9807141036081
20
-3.77098344583571
30
0
41
1
10
19.246045828987
20
-3.56744732555711
30
0
41
1
10
19.5582694949254
20
-3.39939647998259
30
0
41
1
10
19.894750982067
20
-3.28248700544727
30
0
41
1
10
20.2291877550418
20
-3.21888458098099
30
0
41
1
10
20.5504023015352
20
-3.19963486636348
30
0
41
1
10
20.8713784407339
20
-3.22447368199072
30
0
41
1
10
21.2756775640453
20
-3.31211208004613
30
0
41
1
10
21.6493597864746
20
-3.48316533492774
30
0
41
1
10
21.9660699612561
20
-3.72847568880569
30
0
41
1
10
22.1384930796299
20
-3.9147376019968
30
0
41
1
10
22.2256861872978
20
-4.03537786940914
30
0
41
1
10
22.250343976365
20
-4.07213146829326
30
0
0
SPLINE
5
18F
100
AcDbEntity
8
1
62
256
6
ByLayer
370
18
48
1
60
0
100
AcDbSpline
70
4
71
1
72
4
73
2
40
0
40
0
40
1
40
1
41
1
10
15.71235483743
20
-14.9194257950657
30
0
41
1
10
15.9149187549888
20
-14.7831506409394
30
0
0
SPLINE
5
190
100
AcDbEntity
8
1
62
256
6
ByLayer
370
18
48
1
60
0
100
AcDbSpline
70
4
71
3
72
13
73
9
40
0
40
0
40
0
40
0
40
0.117557238024308
40
0.30367583358846
40
0.489895341724367
40
0.682601643172199
40
0.875454894377409
40
1
40
1
40
1
40
1
41
1
10
23.5747101935783
20
-3.65564809764918
30
0
41
1
10
23.5387377787554
20
-3.60145309114978
30
0
41
1
10
23.4539964556218
20
-3.46165267979996
30
0
41
1
10
23.3522161479121
20
-3.23307132332382
30
0
41
1
10
23.2811479117282
20
-2.97952601833433
30
0
41
1
10
23.2530545501292
20
-2.7426902618441
30
0
41
1
10
23.2599153084078
20
-2.55411481346592
30
0
41
1
10
23.276092669188
20
-2.45057400201074
30
0
41
1
10
23.2845327396428
20
-2.41194358033889
30
0
0
SPLINE
5
191
100
AcDbEntity
8
1
62
256
6
ByLayer
370
18
48
1
60
0
100
AcDbSpline
70
4
71
1
72
4
73
2
40
0
40
0
40
1
40
1
41
1
10
28.2025966048004
20
-2.88089940646024
30
0
41
1
10
28.1638334129197
20
-2.98666966737334
30
0
0
SPLINE
5
192
100
AcDbEntity
8
1
62
256
6
ByLayer
370
18
48
1
60
0
100
AcDbSpline
70
4
71
2
72
6
73
3
40
0
40
0
40
0
40
1
40
1
40
1
41
1
10
0.268331828749801
20
7.75608774490778
30
0
41
1
10
0.350900078778038
20
7.93394269592646
30
0
41
1
10
0.359330333578334
20
8.08505542682337
30
0
0
SPLINE
5
193
100
AcDbEntity
8
1
62
256
6
ByLayer
370
18
48
1
60
0
100
AcDbSpline
70
4
71
3
72
12
73
8
40
0
40
0
40
0
40
0
40
0.184796160621898
40
0.547200123642844
40
0.80727933726773
40
0.995937110522119
40
1
40
1
40
1
40
1
41
1
10
0.268331828748938
20
-12.1200720484235
30
0
41
1
10
0.277170250367842
20
-12.129872340899
30
0
41
1
10
0.301856914226289
20
-12.1577884270214
30
0
41
1
10
0.334133737249373
20
-12.1965009017341
30
0
41
1
10
0.355107048018285
20
-12.2258339625567
30
0
41
1
10
0.359294618303097
20
-12.2352318088166
30
0
41
1
10
0.359331737651604
20
-12.2374725072878
30
0
41
1
10
0.359331826023104
20
-12.2375190696703
30
0
0
SPLINE
5
194
100
AcDbEntity
8
1
62
256
6
ByLayer
370
18
48
1
60
0
100
AcDbSpline
70
4
71
3
72
11
73
7
40
0
40
0
40
0
40
0
40
0.128709323381072
40
0.378483294965362
40
0.634356167321737
40
1
40
1
40
1
40
1
41
1
10
26.3888473040333
20
-1.51949336677068
30
0
41
1
10
26.4115901677381
20
-1.55768028204636
30
0
41
1
10
26.4795092180894
20
-1.67160960243959
30
0
41
1
10
26.5984306717152
20
-1.87064418045546
30
0
41
1
10
26.7713151004391
20
-2.15877352529238
30
0
41
1
10
26.8961240894379
20
-2.36593032974411
30
0
41
1
10
26.9707593021594
20
-2.48950690717771
30
0
0
SPLINE
5
195
100
AcDbEntity
8
1
62
256
6
ByLayer
370
18
48
1
60
0
100
AcDbSpline
70
4
71
3
72
11
73
7
40
0
40
0
40
0
40
0
40
0.365642316311328
40
0.615102400289596
40
0.871291210391267
40
1
40
1
40
1
40
1
41
1
10
25.2578412729086
20
-3.52175260312346
30
0
41
1
10
25.1832157736472
20
-3.39819187346707
30
0
41
1
10
25.0596830804427
20
-3.19315318557879
30
0
41
1
10
24.8867751579613
20
-2.9049989826344
30
0
41
1
10
24.767739413403
20
-2.70578142096911
30
0
41
1
10
24.698671870912
20
-2.58992563029768
30
0
41
1
10
24.6759292747824
20
-2.55173906271643
30
0
0
SPLINE
5
196
100
AcDbEntity
8
1
62
256
6
ByLayer
370
18
48
1
60
0
100
AcDbSpline
70
4
71
3
72
13
73
9
40
0
40
0
40
0
40
0
40
0.0780620867941854
40
0.28856787222353
40
0.500735129593798
40
0.682348981824662
40
0.910668274429191
40
1
40
1
40
1
40
1
41
1
10
0.359330476521857
20
10.295499528587
30
0
41
1
10
0.359374606357411
20
10.2985211896028
30
0
41
1
10
0.358779852491415
20
10.3089323149146
30
0
41
1
10
0.353561212148372
20
10.3234416019678
30
0
41
1
10
0.337034573258189
20
10.3291690565376
30
0
41
1
10
0.311806866284287
20
10.3215651514505
30
0
41
1
10
0.287942285079976
20
10.3064367634575
30
0
41
1
10
0.272684972961005
20
10.2945743105254
30
0
41
1
10
0.268331828743181
20
10.2909881629537
30
0
0
SPLINE
5
197
100
AcDbEntity
8
1
62
256
6
ByLayer
370
18
48
1
60
0
100
AcDbSpline
70
4
71
3
72
12
73
8
40
0
40
0
40
0
40
0
40
0.221868356584494
40
0.443604471647926
40
0.667292799918721
40
0.881132634437361
40
1
40
1
40
1
40
1
41
1
10
18.1754557876599
20
-1.96483007636948
30
0
41
1
10
18.1756283647257
20
-1.98261922383574
30
0
41
1
10
18.2044958122129
20
-2.0209793186365
30
0
41
1
10
18.339045184074
20
-2.09415987863265
30
0
41
1
10
18.5464749352801
20
-2.16074243749125
30
0
41
1
10
18.7702206775881
20
-2.19601208375278
30
0
41
1
10
18.9092658516505
20
-2.20124883920091
30
0
41
1
10
18.9604566003799
20
-2.20141278771995
30
0
0
SPLINE
5
198
100
AcDbEntity
8
1
62
256
6
ByLayer
370
18
48
1
60
0
100
AcDbSpline
70
4
71
3
72
14
73
10
40
0
40
0
40
0
40
0
40
0.154864862174502
40
0.309718450807626
40
0.362512544847448
40
0.543834022976238
40
0.725150530929125
40
0.862570164792954
40
1
40
1
40
1
40
1
41
1
10
17.0961940777126
20
0.832738110421959
30
0
41
1
10
17.2199083929903
20
0.708693852994165
30
0
41
1
10
17.4474742361321
20
0.446355448094521
30
0
41
1
10
17.6700617636791
20
0.102469570499192
30
0
41
1
10
17.8715690462803
20
-0.285557780592943
30
0
41
1
10
18.0415293361353
20
-0.723047071942783
30
0
41
1
10
18.158004927826
20
-1.27391518309765
30
0
41
1
10
18.1891333827221
20
-1.78388908080566
30
0
41
1
10
18.1704586904883
20
-2.08812241859065
30
0
41
1
10
18.1516293192752
20
-2.2400614919034
30
0
0
SPLINE
5
199
100
AcDbEntity
8
1
62
256
6
ByLayer
370
18
48
1
60
0
100
AcDbSpline
70
4
71
3
72
11
73
7
40
0
40
0
40
0
40
0
40
0.461149537622164
40
0.752671226609298
40
0.979282741504935
40
1
40
1
40
1
40
1
41
1
10
0.268331828749802
20
11.4229183373425
30
0
41
1
10
0.291615662249601
20
11.4529243050156
30
0
41
1
10
0.322693217161747
20
11.4977694880928
30
0
41
1
10
0.352015463308785
20
11.5508939474715
30
0
41
1
10
0.35906380653951
20
11.5733355050969
30
0
41
1
10
0.359327178887016
20
11.5808355757214
30
0
41
1
10
0.359331679926706
20
11.5814485668552
30
0
0
SPLINE
5
19A
100
AcDbEntity
8
1
62
256
6
ByLayer
370
18
48
1
60
0
100
AcDbSpline
70
4
71
3
72
12
73
8
40
0
40
0
40
0
40
0
40
0.239601592056625
40
0.480799687230507
40
0.727102983623756
40
0.975230865516711
40
1
40
1
40
1
40
1
41
1
10
7.46343919400723
20
12.9
30
0
41
1
10
7.46323354079127
20
12.8999496368199
30
0
41
1
10
7.46868112072233
20
12.8727105913152
30
0
41
1
10
7.49319737722216
20
12.7487771780976
30
0
41
1
10
7.53932319846446
20
12.5397000375123
30
0
41
1
10
7.59162935405977
20
12.3333645321003
30
0
41
1
10
7.6268225640078
20
12.2085928518923
30
0
41
1
10
7.63007253501608
20
12.1971308101537
30
0
0
SPLINE
5
19B
100
AcDbEntity
8
1
62
256
6
ByLayer
370
18
48
1
60
0
100
AcDbSpline
70
4
71
1
72
4
73
2
40
0
40
0
40
1
40
1
41
1
10
-0.271000000000001
20
-7.66457200370641
30
0
41
1
10
0.2683318287498
20
-8.12819294108705
30
0
0
SPLINE
5
19C
100
AcDbEntity
8
1
62
256
6
ByLayer
370
18
48
1
60
0
100
AcDbSpline
70
4
71
1
72
4
73
2
40
0
40
0
40
1
40
1
41
1
10
-0.271000000000001
20
-8.91336995754132
30
0
41
1
10
0.2683318287498
20
-9.3567344158534
30
0
0
SPLINE
5
19D
100
AcDbEntity
8
1
62
256
6
ByLayer
370
18
48
1
60
0
100
AcDbSpline
70
4
71
1
72
4
73
2
40
0
40
0
40
1
40
1
41
1
10
-0.270999999999999
20
-11.6989599537737
30
0
41
1
10
0.268331828749801
20
-12.2643869809201
30
0
0
SPLINE
5
19E
100
AcDbEntity
8
1
62
256
6
ByLayer
370
18
48
1
60
0
100
AcDbSpline
70
4
71
1
72
4
73
2
40
0
40
0
40
1
40
1
41
1
10
-0.271000000000001
20
-11.5138249074754
30
0
41
1
10
0.268331828749801
20
-12.1200720484261
30
0
0
SPLINE
5
19F
100
AcDbEntity
8
1
62
256
6
ByLayer
370
18
48
1
60
0
100
AcDbSpline
70
4
71
1
72
4
73
2
40
0
40
0
40
1
40
1
41
1
10
-0.271000000000001
20
-9.85016060782767
30
0
41
1
10
0.2683318287498
20
-10.2909881629557
30
0
0
SPLINE
5
1A0
100
AcDbEntity
8
1
62
256
6
ByLayer
370
18
48
1
60
0
100
AcDbSpline
70
4
71
3
72
12
73
8
40
0
40
0
40
0
40
0
40
0.0709332740876766
40
0.275121791317292
40
0.514967288949968
40
0.753093953522738
40
1
40
1
40
1
40
1
41
1
10
0.359331568261181
20
-11.5814200468529
30
0
41
1
10
0.359352312878336
20
-11.5831506043792
30
0
41
1
10
0.3587123608123
20
-11.5891002928853
30
0
41
1
10
0.352440182646737
20
-11.5953422966892
30
0
41
1
10
0.332501154433382
20
-11.5899306836977
30
0
41
1
10
0.302394949583373
20
-11.5708114950485
30
0
41
1
10
0.280380192303371
20
-11.5534371238155
30
0
41
1
10
0.268331828749693
20
-11.5430218856523
30
0
0
SPLINE
5
1A1
100
AcDbEntity
8
1
62
256
6
ByLayer
370
18
48
1
60
0
100
AcDbSpline
70
4
71
1
72
4
73
2
40
0
40
0
40
1
40
1
41
1
10
-0.271000000000001
20
-11.0817716995073
30
0
41
1
10
0.2683318287498
20
-11.5430218856524
30
0
0
SPLINE
5
1A2
100
AcDbEntity
8
1
62
256
6
ByLayer
370
18
48
1
60
0
100
AcDbSpline
70
4
71
2
72
6
73
3
40
0
40
0
40
0
40
1
40
1
40
1
41
1
10
28.1904792703484
20
-11.5179324168884
30
0
41
1
10
28.1948459678142
20
-11.6505349337165
30
0
41
1
10
28.1886673595357
20
-11.7309351045914
30
0
0
SPLINE
5
1A3
100
AcDbEntity
8
1
62
256
6
ByLayer
370
18
48
1
60
0
100
AcDbSpline
70
4
71
3
72
10
73
6
40
0
40
0
40
0
40
0
40
0.554873866463304
40
0.826171516936045
40
1
40
1
40
1
40
1
41
1
10
0.2683318287498
20
10.078193301587
30
0
41
1
10
0.297042485611953
20
10.1237146656172
30
0
41
1
10
0.329564832630889
20
10.1866767140122
30
0
41
1
10
0.355411467980932
20
10.2591469816994
30
0
41
1
10
0.358910072642581
20
10.2857151880664
30
0
41
1
10
0.359330476521857
20
10.295499528587
30
0
0
SPLINE
5
1A4
100
AcDbEntity
8
1
62
256
6
ByLayer
370
18
48
1
60
0
100
AcDbSpline
70
4
71
3
72
11
73
7
40
0
40
0
40
0
40
0
40
0.341460539759492
40
0.641527162254541
40
0.875753048474616
40
1
40
1
40
1
40
1
41
1
10
0.268331828749799
20
12.1200720484261
30
0
41
1
10
0.285063281614812
20
12.1385849885249
30
0
41
1
10
0.312759840387382
20
12.1704484752409
30
0
41
1
10
0.343687769859024
20
12.2091694393067
30
0
41
1
10
0.357316938825073
20
12.2299731914561
30
0
41
1
10
0.359233996956258
20
12.2359581750239
30
0
41
1
10
0.359331764949147
20
12.2375004848054
30
0
0
SPLINE
5
1A5
100
AcDbEntity
8
1
62
256
6
ByLayer
370
18
48
1
60
0
100
AcDbSpline
70
4
71
2
72
6
73
3
40
0
40
0
40
0
40
1
40
1
40
1
41
1
10
26.0107314165293
20
-6.50991933488035
30
0
41
1
10
25.7133011035753
20
-6.31777641170051
30
0
41
1
10
25.3626066407996
20
-6.27487221129397
30
0
0
SPLINE
5
1A6
100
AcDbEntity
8
1
62
256
6
ByLayer
370
18
48
1
60
0
100
AcDbSpline
70
4
71
1
72
4
73
2
40
0
40
0
40
1
40
1
41
1
10
-0.271000000000001
20
-10.5583220257766
30
0
41
1
10
0.2683318287498
20
-11.0061526343846
30
0
0
SPLINE
5
1A7
100
AcDbEntity
8
1
62
256
6
ByLayer
370
18
48
1
60
0
100
AcDbSpline
70
4
71
1
72
4
73
2
40
0
40
0
40
1
40
1
41
1
10
-0.271
20
9.17214064436433
30
0
41
1
10
0.268331828749801
20
10.078193301587
30
0
0
SPLINE
5
1A8
100
AcDbEntity
8
1
62
256
6
ByLayer
370
18
48
1
60
0
100
AcDbSpline
70
4
71
3
72
12
73
8
40
0
40
0
40
0
40
0
40
0.0699451472526677
40
0.15645518799005
40
0.296033290284574
40
0.565298932495775
40
1
40
1
40
1
40
1
41
1
10
19.9955750110987
20
-6.81897416765622
30
0
41
1
10
19.994676844412
20
-6.81755928389315
30
0
41
1
10
19.9952201285166
20
-6.81469672420422
30
0
41
1
10
20.0094515384372
20
-6.81068493434459
30
0
41
1
10
20.0488855199894
20
-6.80651839621343
30
0
41
1
10
20.1358339982176
20
-6.80199544541068
30
0
41
1
10
20.2142947103525
20
-6.7967902570978
30
0
41
1
10
20.2673723806302
20
-6.79357140041039
30
0
0
SPLINE
5
1A9
100
AcDbEntity
8
1
62
256
6
ByLayer
370
18
48
1
60
0
100
AcDbSpline
70
4
71
3
72
11
73
7
40
0
40
0
40
0
40
0
40
0.233261703080064
40
0.603771118498364
40
0.862990004372145
40
1
40
1
40
1
40
1
41
1
10
0.26833182874994
20
-11.8428081509529
30
0
41
1
10
0.279603670601444
20
-11.856258689331
30
0
41
1
10
0.306532034699477
20
-11.8896793276495
30
0
41
1
10
0.339323236356042
20
-11.9348368029315
30
0
41
1
10
0.356800675964921
20
-11.966329805437
30
0
41
1
10
0.359172312081908
20
-11.9764691337797
30
0
41
1
10
0.359331760064782
20
-11.9793990344134
30
0
0
SPLINE
5
1AA
100
AcDbEntity
8
1
62
256
6
ByLayer
370
18
48
1
60
0
100
AcDbSpline
70
4
71
3
72
11
73
7
40
0
40
0
40
0
40
0
40
0.039814682978089
40
0.430191316174522
40
0.77954739739705
40
1
40
1
40
1
40
1
41
1
10
9.27553236893561
20
9.12104257408777
30
0
41
1
10
9.26949424832947
20
9.12811505660304
30
0
41
1
10
9.20549770975624
20
9.20321072312895
30
0
41
1
10
9.11079674328671
20
9.32017282920522
30
0
41
1
10
9.05298545869903
20
9.39367821797069
30
0
41
1
10
9.04301833507681
20
9.40655845767167
30
0
41
1
10
9.04295076992404
20
9.4068542459118
30
0
0
SPLINE
5
1AB
100
AcDbEntity
8
1
62
256
6
ByLayer
370
18
48
1
60
0
100
AcDbSpline
70
4
71
3
72
10
73
6
40
0
40
0
40
0
40
0
40
0.264800139327982
40
0.535338786696858
40
1
40
1
40
1
40
1
41
1
10
26.9707593021594
20
-2.48950690717771
30
0
41
1
10
26.9185498975444
20
-2.57082099393553
30
0
41
1
10
26.8139663692102
20
-2.73936682717156
30
0
41
1
10
26.6186537453565
20
-3.07513738200877
30
0
41
1
10
26.4859462366849
20
-3.32737538041543
30
0
41
1
10
26.4052562865971
20
-3.4906365253541
30
0
0
SPLINE
5
1AC
100
AcDbEntity
8
1
62
256
6
ByLayer
370
18
48
1
60
0
100
AcDbSpline
70
4
71
3
72
12
73
8
40
0
40
0
40
0
40
0
40
0.0936191645742142
40
0.298636645849339
40
0.510268918260297
40
0.836720609367691
40
1
40
1
40
1
40
1
41
1
10
0.359331824520917
20
12.3645437457718
30
0
41
1
10
0.359318510405131
20
12.3648693544289
30
0
41
1
10
0.358200829014264
20
12.3647996529208
30
0
41
1
10
0.349815344568187
20
12.3580738180608
30
0
41
1
10
0.327517681566255
20
12.3376788397459
30
0
41
1
10
0.298305851956253
20
12.3096807616279
30
0
41
1
10
0.276090553216726
20
12.2880419707856
30
0
41
1
10
0.268331828743196
20
12.280440935746
30
0
0
SPLINE
5
1AD
100
AcDbEntity
8
1
62
256
6
ByLayer
370
18
48
1
60
0
100
AcDbSpline
70
4
71
1
72
4
73
2
40
0
40
0
40
1
40
1
41
1
10
0.2683318287498
20
6.43906530843253
30
0
41
1
10
-0.271000000000001
20
5.9091593310724
30
0
0
SPLINE
5
1AE
100
AcDbEntity
8
1
62
256
6
ByLayer
370
18
48
1
60
0
100
AcDbSpline
70
4
71
1
72
4
73
2
40
0
40
0
40
1
40
1
41
1
10
-0.271
20
11.6989599537737
30
0
41
1
10
0.268331828749801
20
12.2643869809201
30
0
0
SPLINE
5
1AF
100
AcDbEntity
8
1
62
256
6
ByLayer
370
18
48
1
60
0
100
AcDbSpline
70
4
71
2
72
6
73
3
40
0
40
0
40
0
40
1
40
1
40
1
41
1
10
12.7157051398098
20
-18.6089577031033
30
0
41
1
10
12.692958495864
20
-18.6190077271251
30
0
41
1
10
12.6856042362852
20
-18.630170019492
30
0
0
SPLINE
5
1B0
100
AcDbEntity
8
1
62
256
6
ByLayer
370
18
48
1
60
0
100
AcDbSpline
70
4
71
2
72
6
73
3
40
0
40
0
40
0
40
1
40
1
40
1
41
1
10
18.1778440628321
20
-1.90685425695678
30
0
41
1
10
18.1779534003041
20
-1.9069043286471
30
0
41
1
10
18.1754557876599
20
-1.96483007636948
30
0
0
SPLINE
5
1B1
100
AcDbEntity
8
1
62
256
6
ByLayer
370
18
48
1
60
0
100
AcDbSpline
70
4
71
1
72
4
73
2
40
0
40
0
40
1
40
1
41
1
10
-0.271000000000001
20
-5.9091593310724
30
0
41
1
10
0.2683318287498
20
-6.43906530843253
30
0
0
SPLINE
5
1B2
100
AcDbEntity
8
1
62
256
6
ByLayer
370
18
48
1
60
0
100
AcDbSpline
70
4
71
3
72
10
73
6
40
0
40
0
40
0
40
0
40
0.290526091644593
40
0.883216910578994
40
1
40
1
40
1
40
1
41
1
10
0.268331828749801
20
2.49876249156754
30
0
41
1
10
0.281351188167012
20
2.59527153649546
30
0
41
1
10
0.316278307784879
20
2.88771679041901
30
0
41
1
10
0.352933688178699
20
3.21986715615613
30
0
41
1
10
0.358667205179748
20
3.45000753939296
30
0
41
1
10
0.359291388638563
20
3.48781576225677
30
0
0
SPLINE
5
1B3
100
AcDbEntity
8
1
62
256
6
ByLayer
370
18
48
1
60
0
100
AcDbSpline
70
4
71
1
72
4
73
2
40
0
40
0
40
1
40
1
41
1
10
-0.270999999999999
20
-8.01284368997674
30
0
41
1
10
0.268331828749801
20
-9.07887320461248
30
0
0
SPLINE
5
1B4
100
AcDbEntity
8
1
62
256
6
ByLayer
370
18
48
1
60
0
100
AcDbSpline
70
4
71
3
72
12
73
8
40
0
40
0
40
0
40
0
40
0.0479199121771584
40
0.260647968491079
40
0.472931002079617
40
0.723625540299857
40
1
40
1
40
1
40
1
41
1
10
0.359331760064782
20
-11.9793990344134
30
0
41
1
10
0.359338236301603
20
-11.9802358944881
30
0
41
1
10
0.358899750643325
20
-11.9842876866774
30
0
41
1
10
0.353360017939275
20
-11.9869676998408
30
0
41
1
10
0.334750107021628
20
-11.9785454703085
30
0
41
1
10
0.305324905981323
20
-11.9574502392373
30
0
41
1
10
0.281796496511546
20
-11.9377516403157
30
0
41
1
10
0.268331828749748
20
-11.9256996731398
30
0
0
SPLINE
5
1B5
100
AcDbEntity
8
1
62
256
6
ByLayer
370
18
48
1
60
0
100
AcDbSpline
70
4
71
1
72
4
73
2
40
0
40
0
40
1
40
1
41
1
10
0.2683318287498
20
12.1687415592248
30
0
41
1
10
-0.271000000000001
20
11.665576025212
30
0
0
SPLINE
5
1B6
100
AcDbEntity
8
1
62
256
6
ByLayer
370
18
48
1
60
0
100
AcDbSpline
70
4
71
3
72
10
73
6
40
0
40
0
40
0
40
0
40
0.264800139327981
40
0.535338786696857
40
1
40
1
40
1
40
1
41
1
10
24.6759292747824
20
-2.55173906271643
30
0
41
1
10
24.7213290714453
20
-2.46025219224395
30
0
41
1
10
24.8157404855382
20
-2.2765103713939
30
0
41
1
10
25.004927199925
20
-1.93158840101254
30
0
41
1
10
25.1482352692404
20
-1.69518644066307
30
0
41
1
10
25.2414322903448
20
-1.55060944454004
30
0
0
SPLINE
5
1B7
100
AcDbEntity
8
1
62
256
6
ByLayer
370
18
48
1
60
0
100
AcDbSpline
70
4
71
3
72
12
73
8
40
0
40
0
40
0
40
0
40
0.107430121594077
40
0.470764483686305
40
0.735096835727678
40
0.932397542322122
40
1
40
1
40
1
40
1
41
1
10
0.26833182874968
20
-12.2643869809199
30
0
41
1
10
0.273408859506771
20
-12.2696599792873
30
0
41
1
10
0.295007920137622
20
-12.2921866755955
30
0
41
1
10
0.326154303002382
20
-12.3252777418964
30
0
41
1
10
0.350862758840437
20
-12.3528260040261
30
0
41
1
10
0.358552845086089
20
-12.3625286586241
30
0
41
1
10
0.359317067357946
20
-12.3642735663434
30
0
41
1
10
0.359331781776585
20
-12.364539075899
30
0
0
SPLINE
5
1B8
100
AcDbEntity
8
1
62
256
6
ByLayer
370
18
48
1
60
0
100
AcDbSpline
70
4
71
2
72
6
73
3
40
0
40
0
40
0
40
1
40
1
40
1
41
1
10
17.5859028952314
20
-8.62710048421725
30
0
41
1
10
17.3187633479388
20
-8.65351258314815
30
0
41
1
10
17.1166555383567
20
-8.75401927984958
30
0
0
SPLINE
5
1B9
100
AcDbEntity
8
1
62
256
6
ByLayer
370
18
48
1
60
0
100
AcDbSpline
70
4
71
1
72
4
73
2
40
0
40
0
40
1
40
1
41
1
10
0.2683318287498
20
8.12819294108705
30
0
41
1
10
-0.271000000000001
20
7.66457200370641
30
0
0
SPLINE
5
1BA
100
AcDbEntity
8
1
62
256
6
ByLayer
370
18
48
1
60
0
100
AcDbSpline
70
4
71
1
72
4
73
2
40
0
40
0
40
1
40
1
41
1
10
0.2683318287498
20
11.0061526343846
30
0
41
1
10
-0.271000000000001
20
10.5583220257766
30
0
0
SPLINE
5
1BB
100
AcDbEntity
8
1
62
256
6
ByLayer
370
18
48
1
60
0
100
AcDbSpline
70
4
71
1
72
4
73
2
40
0
40
0
40
1
40
1
41
1
10
0.2683318287498
20
12.2804409357516
30
0
41
1
10
-0.271000000000001
20
11.7489643798932
30
0
0
SPLINE
5
1BC
100
AcDbEntity
8
1
62
256
6
ByLayer
370
18
48
1
60
0
100
AcDbSpline
70
4
71
3
72
11
73
7
40
0
40
0
40
0
40
0
40
0.214833870384959
40
0.433329466527271
40
0.694665298821461
40
1
40
1
40
1
40
1
41
1
10
0.359331826023104
20
-12.2375190696703
30
0
41
1
10
0.359193571016923
20
-12.2397309857166
30
0
41
1
10
0.355640806340482
20
-12.2406233998851
30
0
41
1
10
0.338093443372239
20
-12.2295124190781
30
0
41
1
10
0.308152648795547
20
-12.2049941013474
30
0
41
1
10
0.283217655583704
20
-12.1826435743731
30
0
41
1
10
0.268331828749772
20
-12.1687415592248
30
0
0
SPLINE
5
1BD
100
AcDbEntity
8
1
62
256
6
ByLayer
370
18
48
1
60
0
100
AcDbSpline
70
4
71
3
72
10
73
6
40
0
40
0
40
0
40
0
40
0.0350382786006956
40
0.847032158958181
40
1
40
1
40
1
40
1
41
1
10
0.268331828749799
20
-5.8960033537971
30
0
41
1
10
0.270041108984355
20
-5.90136643216482
30
0
41
1
10
0.310738464062809
20
-6.03089125155141
30
0
41
1
10
0.350721602089441
20
-6.18832539256194
30
0
41
1
10
0.358576062276996
20
-6.32706150447388
30
0
41
1
10
0.359300056387305
20
-6.34893140737092
30
0
0
SPLINE
5
1BE
100
AcDbEntity
8
1
62
256
6
ByLayer
370
18
48
1
60
0
100
AcDbSpline
70
4
71
1
72
4
73
2
40
0
40
0
40
1
40
1
41
1
10
-0.270999999999999
20
-6.41546288275445
30
0
41
1
10
0.268331828749801
20
-7.75608774490778
30
0
0
SPLINE
5
1BF
100
AcDbEntity
8
1
62
256
6
ByLayer
370
18
48
1
60
0
100
AcDbSpline
70
4
71
3
72
11
73
7
40
0
40
0
40
0
40
0
40
0.151405679175204
40
0.370655590767302
40
0.630635967994671
40
1
40
1
40
1
40
1
41
1
10
0.359331781776585
20
-12.364539075899
30
0
41
1
10
0.359266746304581
20
-12.3650276222696
30
0
41
1
10
0.357044019171238
20
-12.3640864760458
30
0
41
1
10
0.343648628540492
20
-12.3526238728144
30
0
41
1
10
0.313666303553641
20
-12.3245350963259
30
0
41
1
10
0.286582115910594
20
-12.2983533087583
30
0
41
1
10
0.268331828749787
20
-12.2804409357516
30
0
0
SPLINE
5
1C0
100
AcDbEntity
8
1
62
256
6
ByLayer
370
18
48
1
60
0
100
AcDbSpline
70
4
71
3
72
12
73
8
40
0
40
0
40
0
40
0
40
0.225616767075021
40
0.403854168514623
40
0.610472922463039
40
0.815730156194813
40
1
40
1
40
1
40
1
41
1
10
0.359331619391969
20
-10.295785068539
30
0
41
1
10
0.359614415361103
20
-10.3049134110336
30
0
41
1
10
0.356864389313924
20
-10.3175891487659
30
0
41
1
10
0.344320170425645
20
-10.3284066412758
30
0
41
1
10
0.323194234188899
20
-10.3264524470617
30
0
41
1
10
0.295919536916762
20
-10.3120918870976
30
0
41
1
10
0.277448232722891
20
-10.2985777129342
30
0
41
1
10
0.268331828749331
20
-10.2909881629555
30
0
0
SPLINE
5
1C1
100
AcDbEntity
8
1
62
256
6
ByLayer
370
18
48
1
60
0
100
AcDbSpline
70
4
71
3
72
16
73
12
40
0
40
0
40
0
40
0
40
0.352985857991941
40
0.621519473627988
40
0.721231930166435
40
0.769202152102704
40
0.809849657630448
40
0.850732707054675
40
0.895624161816584
40
0.968320103448866
40
1
40
1
40
1
40
1
41
1
10
0.359291388638563
20
3.48781576225677
30
0
41
1
10
0.360840731741437
20
3.52984020604321
30
0
41
1
10
0.357534519502321
20
3.60052771636167
30
0
41
1
10
0.348474740895334
20
3.68156293791821
30
0
41
1
10
0.333407105297633
20
3.72145576095368
30
0
41
1
10
0.322620749571188
20
3.73475689772068
30
0
41
1
10
0.31294451368989
20
3.73978465904799
30
0
41
1
10
0.301952396897737
20
3.73889399965955
30
0
41
1
10
0.28841629823096
20
3.73079597473627
30
0
41
1
10
0.277307023016074
20
3.71821990158698
30
0
41
1
10
0.270357985016391
20
3.708573292872
30
0
41
1
10
0.268331828744223
20
3.70548291116444
30
0
0
SPLINE
5
1C2
100
AcDbEntity
8
1
62
256
6
ByLayer
370
18
48
1
60
0
100
AcDbSpline
70
4
71
1
72
4
73
2
40
0
40
0
40
1
40
1
41
1
10
-0.271000000000001
20
-11.7489643798932
30
0
41
1
10
0.2683318287498
20
-12.2804409357516
30
0
0
SPLINE
5
1C3
100
AcDbEntity
8
1
62
256
6
ByLayer
370
18
48
1
60
0
100
AcDbSpline
70
4
71
1
72
4
73
2
40
0
40
0
40
1
40
1
41
1
10
6.37995137109244
20
-9.58377813200316
30
0
41
1
10
6.29261933471099
20
-2.2400614919034
30
0
0
SPLINE
5
1C4
100
AcDbEntity
8
1
62
256
6
ByLayer
370
18
48
1
60
0
100
AcDbSpline
70
4
71
3
72
10
73
6
40
0
40
0
40
0
40
0
40
0.682295883440775
40
0.948845624007809
40
1
40
1
40
1
40
1
41
1
10
0.268331828749799
20
5.8960033537971
30
0
41
1
10
0.304762525528104
20
6.00374823065262
30
0
41
1
10
0.339186889874317
20
6.14884338865689
30
0
41
1
10
0.358216652156643
20
6.29935887168928
30
0
41
1
10
0.359250617271193
20
6.34471673938017
30
0
41
1
10
0.359324739626246
20
6.35198220554972
30
0
0
SPLINE
5
1C5
100
AcDbEntity
8
1
62
256
6
ByLayer
370
18
48
1
60
0
100
AcDbSpline
70
4
71
1
72
4
73
2
40
0
40
0
40
1
40
1
41
1
10
0.2683318287498
20
9.3567344158534
30
0
41
1
10
-0.271000000000001
20
8.91336995754132
30
0
0
SPLINE
5
1C6
100
AcDbEntity
8
1
62
256
6
ByLayer
370
18
48
1
60
0
100
AcDbSpline
70
4
71
3
72
11
73
7
40
0
40
0
40
0
40
0
40
0.280546645052891
40
0.720638105940804
40
0.985614471914625
40
1
40
1
40
1
40
1
41
1
10
0.2683318287498
20
-10.078193301587
30
0
41
1
10
0.282225042198504
20
-10.1005592744009
30
0
41
1
10
0.314106267754838
20
-10.15665644218
30
0
41
1
10
0.348337625057409
20
-10.2323458596401
30
0
41
1
10
0.359098015644739
20
-10.2798443190759
30
0
41
1
10
0.35932797614201
20
-10.2950101172008
30
0
41
1
10
0.359331619391969
20
-10.295785068539
30
0
0
SPLINE
5
1C7
100
AcDbEntity
8
1
62
256
6
ByLayer
370
18
48
1
60
0
100
AcDbSpline
70
4
71
3
72
12
73
8
40
0
40
0
40
0
40
0
40
0.191976352451685
40
0.409977497463028
40
0.609555752104931
40
0.883210016355263
40
1
40
1
40
1
40
1
41
1
10
0.359331679926706
20
11.5814485668552
30
0
41
1
10
0.359406194153562
20
11.5862842890075
30
0
41
1
10
0.356716055471153
20
11.5933620614225
30
0
41
1
10
0.343109093604425
20
11.5938489262939
30
0
41
1
10
0.318446713757943
20
11.5818758663026
30
0
41
1
10
0.292026661806352
20
11.5627568304243
30
0
41
1
10
0.27389689540536
20
11.5477971651708
30
0
41
1
10
0.268331828741909
20
11.5430218856493
30
0
0
SPLINE
5
1C8
100
AcDbEntity
8
1
62
256
6
ByLayer
370
18
48
1
60
0
100
AcDbSpline
70
4
71
3
72
10
73
6
40
0
40
0
40
0
40
0
40
0.293055746104333
40
0.769031401105588
40
1
40
1
40
1
40
1
41
1
10
0.268331828749801
20
-9.07887320461248
30
0
41
1
10
0.282961446927168
20
-9.10613792066977
30
0
41
1
10
0.31668121881244
20
-9.17613603875911
30
0
41
1
10
0.351339474635258
20
-9.26837015710502
30
0
41
1
10
0.358395120404956
20
-9.32331345124479
30
0
41
1
10
0.359330919657452
20
-9.34064347837262
30
0
0
LINE
5
70
100
AcDbEntity
8
1
62
256
6
ByLayer
370
18
48
1
60
0
100
AcDbLine
10
0.268332
20
-12.264387
30
0.467383
11
0.268332
21
-12.280441
31
0.467383
39
0
210
0
220
0
230
1
0
LINE
5
72
100
AcDbEntity
8
1
62
256
6
ByLayer
370
18
48
1
60
0
100
AcDbLine
10
0.268332
20
12.280441
30
0.467383
11
0.268332
21
12.264387
31
0.467383
39
0
210
0
220
0
230
1
0
LINE
5
73
100
AcDbEntity
8
1
62
256
6
ByLayer
370
18
48
1
60
0
100
AcDbLine
10
21.219298
20
-7.369103
30
-1.324324
11
21.22012
21
-7.384158
31
-1.326986
39
0
210
0
220
0
230
1
0
LINE
5
74
100
AcDbEntity
8
1
62
256
6
ByLayer
370
18
48
1
60
0
100
AcDbLine
10
0.268332
20
8.128193
30
0
11
0.268332
21
7.756088
31
0
39
0
210
0
220
0
230
1
0
LINE
5
75
100
AcDbEntity
8
SK1
62
256
6
ByLayer
370
18
48
1
60
0
100
AcDbLine
10
-4.071
20
2.866025
30
0
11
-3.571
21
3
31
0
39
0
210
0
220
0
230
1
0
LINE
5
77
100
AcDbEntity
8
1
62
256
6
ByLayer
370
18
48
1
60
0
100
AcDbLine
10
-0.271
20
8.026119
30
0
11
-0.271
21
8.91337
31
0
39
0
210
0
220
0
230
1
0
LINE
5
78
100
AcDbEntity
8
SK1
62
256
6
ByLayer
370
18
48
1
60
0
100
AcDbLine
10
-3.571
20
-3
30
0
11
-3.571
21
0
31
0
39
0
210
0
220
0
230
1
0
LINE
5
79
100
AcDbEntity
8
SK1
62
256
6
ByLayer
370
18
48
1
60
0
100
AcDbLine
10
-0.271
20
-3
30
0
11
-3.571
21
-3
31
0
39
0
210
0
220
0
230
1
0
LINE
5
7A
100
AcDbEntity
8
SK1
62
256
6
ByLayer
370
18
48
1
60
0
100
AcDbLine
10
-3.571
20
-3
30
0
11
-4.071
21
-2.866025
31
0
39
0
210
0
220
0
230
1
0
LINE
5
7B
100
AcDbEntity
8
1
62
256
6
ByLayer
370
18
48
1
60
0
100
AcDbLine
10
0.268332
20
-9.356734
30
0
11
0.268332
21
-9.078873
31
0
39
0
210
0
220
0
230
1
0
LINE
5
7C
100
AcDbEntity
8
1
62
256
6
ByLayer
370
18
48
1
60
0
100
AcDbLine
10
-0.271
20
-10.705053
30
0
11
-0.271
21
-10.558322
31
0
39
0
210
0
220
0
230
1
0
LINE
5
7D
100
AcDbEntity
8
1
62
256
6
ByLayer
370
18
48
1
60
0
100
AcDbLine
10
-0.271
20
-9.172141
30
0
11
-0.271
21
-8.91337
31
0
39
0
210
0
220
0
230
1
0
LINE
5
7E
100
AcDbEntity
8
1
62
256
6
ByLayer
370
18
48
1
60
0
100
AcDbLine
10
-0.271
20
2.822351
30
0
11
-0.271
21
-2.822351
31
0
39
0
210
0
220
0
230
1
0
LINE
5
7F
100
AcDbEntity
8
1
62
256
6
ByLayer
370
18
48
1
60
0
100
AcDbLine
10
22.778049
20
-15.382577
30
0
11
23.310484
21
-16.177974
31
0
39
0
210
0
220
0
230
1
0
LINE
5
80
100
AcDbEntity
8
1
62
256
6
ByLayer
370
18
48
1
60
0
100
AcDbLine
10
22.203586
20
-14.160273
30
0
11
21.760618
21
-5.707939
31
0
39
0
210
0
220
0
230
1
0
LINE
5
81
100
AcDbEntity
8
1
62
256
6
ByLayer
370
18
48
1
60
0
100
AcDbLine
10
25.016143
20
-12.919602
30
0
11
25.294883
21
-13.336008
31
0
39
0
210
0
220
0
230
1
0
LINE
5
82
100
AcDbEntity
8
1
62
256
6
ByLayer
370
18
48
1
60
0
100
AcDbLine
10
31.124378
20
-9.860593
30
0
11
28.550869
21
-8.304656
31
0
39
0
210
0
220
0
230
1
0
LINE
5
83
100
AcDbEntity
8
1
62
256
6
ByLayer
370
18
48
1
60
0
100
AcDbLine
10
-0.271
20
-10.705053
30
0
11
-0.271
21
-11.081772
31
0
39
0
210
0
220
0
230
1
0
LINE
5
84
100
AcDbEntity
8
1
62
256
6
ByLayer
370
18
48
1
60
0
100
AcDbLine
10
22.229132
20
-15.221082
30
0
11
21.84826
21
-8.247669
31
0
39
0
210
0
220
0
230
1
0
LINE
5
85
100
AcDbEntity
8
1
62
256
6
ByLayer
370
18
48
1
60
0
100
AcDbLine
10
-0.271
20
-11.186852
30
0
11
-0.271
21
-11.44588
31
0
39
0
210
0
220
0
230
1
0
LINE
5
86
100
AcDbEntity
8
SK1
62
256
6
ByLayer
370
18
48
1
60
0
100
AcDbLine
10
-4.071
20
0
30
0
11
-4.071
21
-2.866025
31
0
39
0
210
0
220
0
230
1
0
LINE
5
87
100
AcDbEntity
8
1
62
256
6
ByLayer
370
18
48
1
60
0
100
AcDbLine
10
21.294777
20
-7.323618
30
0
11
21.300746
21
-7.432904
31
0
39
0
210
0
220
0
230
1
0
LINE
5
88
100
AcDbEntity
8
1
62
256
6
ByLayer
370
18
48
1
60
0
100
AcDbLine
10
26.657562
20
-2.021626
30
0
11
26.374811
21
-2.522191
31
0
39
0
210
0
220
0
230
1
0
LINE
5
89
100
AcDbEntity
8
1
62
256
6
ByLayer
370
18
48
1
60
0
100
AcDbLine
10
26.366606
20
-1.536619
30
0
11
26.657562
21
-2.021626
31
0
39
0
210
0
220
0
230
1
0
LINE
5
8A
100
AcDbEntity
8
1
62
256
6
ByLayer
370
18
48
1
60
0
100
AcDbLine
10
26.092059
20
-3.022756
30
0
11
26.405256
21
-3.490637
31
0
39
0
210
0
220
0
230
1
0
LINE
5
8B
100
AcDbEntity
8
1
62
256
6
ByLayer
370
18
48
1
60
0
100
AcDbLine
10
0.268332
20
-8.128193
30
0
11
0.268332
21
-7.756088
31
0
39
0
210
0
220
0
230
1
0
LINE
5
8C
100
AcDbEntity
8
1
62
256
6
ByLayer
370
18
48
1
60
0
100
AcDbLine
10
0.268332
20
-11.006153
30
0
11
0.268332
21
-10.843847
31
0
39
0
210
0
220
0
230
1
0
LINE
5
8D
100
AcDbEntity
8
1
62
256
6
ByLayer
370
18
48
1
60
0
100
AcDbLine
10
-0.271
20
11.75
30
0
11
0.479
21
12.5
31
0
39
0
210
0
220
0
230
1
0
LINE
5
8E
100
AcDbEntity
8
1
62
256
6
ByLayer
370
18
48
1
60
0
100
AcDbLine
10
-0.271
20
-11.69896
30
0
11
-0.271
21
-11.665576
31
0
39
0
210
0
220
0
230
1
0
LINE
5
8F
100
AcDbEntity
8
1
62
256
6
ByLayer
370
18
48
1
60
0
100
AcDbLine
10
15.222827
20
-15.763216
30
0
11
13.829218
21
-17.790931
31
0
39
0
210
0
220
0
230
1
0
LINE
5
90
100
AcDbEntity
8
1
62
256
6
ByLayer
370
18
48
1
60
0
100
AcDbLine
10
-0.271
20
-3.871132
30
0
11
-0.271
21
-2.822351
31
0
39
0
210
0
220
0
230
1
0
LINE
5
91
100
AcDbEntity
8
1
62
256
6
ByLayer
370
18
48
1
60
0
100
AcDbLine
10
-0.271
20
9.850161
30
0
11
-0.271
21
10.046177
31
0
39
0
210
0
220
0
230
1
0
LINE
5
92
100
AcDbEntity
8
1
62
256
6
ByLayer
370
18
48
1
60
0
100
AcDbLine
10
30.763398
20
-3.251379
30
0
11
30.488768
21
1.776832
31
0
39
0
210
0
220
0
230
1
0
LINE
5
93
100
AcDbEntity
8
1
62
256
6
ByLayer
370
18
48
1
60
0
100
AcDbLine
10
21.802773
20
-7.985396
30
0
11
21.44615
21
-7.520815
31
0
39
0
210
0
220
0
230
1
0
LINE
5
94
100
AcDbEntity
8
1
62
256
6
ByLayer
370
18
48
1
60
0
100
AcDbLine
10
25.518352
20
-3.038314
30
0
11
24.97569
21
-3.05303
31
0
39
0
210
0
220
0
230
1
0
LINE
5
95
100
AcDbEntity
8
1
62
256
6
ByLayer
370
18
48
1
60
0
100
AcDbLine
10
-0.271
20
6.415463
30
0
11
-0.271
21
7.664572
31
0
39
0
210
0
220
0
230
1
0
LINE
5
96
100
AcDbEntity
8
SK1
62
256
6
ByLayer
370
18
48
1
60
0
100
AcDbLine
10
-3.571
20
0
30
0
11
-3.571
21
3
31
0
39
0
210
0
220
0
230
1
0
LINE
5
97
100
AcDbEntity
8
1
62
256
6
ByLayer
370
18
48
1
60
0
100
AcDbLine
10
6.275155
20
-12.5
30
0
11
0.479
21
-12.5
31
0
39
0
210
0
220
0
230
1
0
LINE
5
98
100
AcDbEntity
8
1
62
256
6
ByLayer
370
18
48
1
60
0
100
AcDbLine
10
0.268332
20
-2.498762
30
0
11
0.268332
21
-3.705483
31
0
39
0
210
0
220
0
230
1
0
LINE
5
99
100
AcDbEntity
8
1
62
256
6
ByLayer
370
18
48
1
60
0
100
AcDbLine
10
0.268332
20
3.705483
30
0
11
0.268332
21
2.498762
31
0
39
0
210
0
220
0
230
1
0
LINE
5
9A
100
AcDbEntity
8
1
62
256
6
ByLayer
370
18
48
1
60
0
100
AcDbLine
10
-0.271
20
-8.012844
30
0
11
-0.271
21
-7.664572
31
0
39
0
210
0
220
0
230
1
0
LINE
5
9B
100
AcDbEntity
8
1
62
256
6
ByLayer
370
18
48
1
60
0
100
AcDbLine
10
24.987097
20
-12.871301
30
0
11
25.281092
21
-13.310496
31
0
39
0
210
0
220
0
230
1
0
LINE
5
9C
100
AcDbEntity
8
1
62
256
6
ByLayer
370
18
48
1
60
0
100
AcDbLine
10
30.320527
20
-9.374587
30
0
11
30.449072
21
-9.566619
31
0
39
0
210
0
220
0
230
1
0
LINE
5
9D
100
AcDbEntity
8
1
62
256
6
ByLayer
370
18
48
1
60
0
100
AcDbLine
10
0.479
20
-12.5
30
0
11
-0.271
21
-11.75
31
0
39
0
210
0
220
0
230
1
0
LINE
5
9E
100
AcDbEntity
8
1
62
256
6
ByLayer
370
18
48
1
60
0
100
AcDbLine
10
31.998938
20
-20.036654
30
0
11
31.55597
21
-11.58432
31
0
39
0
210
0
220
0
230
1
0
LINE
5
9F
100
AcDbEntity
8
1
62
256
6
ByLayer
370
18
48
1
60
0
100
AcDbLine
10
21.362217
20
-7.47007
30
0
11
21.228183
21
-4.912542
31
0
39
0
210
0
220
0
230
1
0
LINE
5
A0
100
AcDbEntity
8
1
62
256
6
ByLayer
370
18
48
1
60
0
100
AcDbLine
10
31.448043
20
-11.230028
30
0
11
30.469285
21
-9.598495
31
0
39
0
210
0
220
0
230
1
0
LINE
5
A1
100
AcDbEntity
8
1
62
256
6
ByLayer
370
18
48
1
60
0
100
AcDbLine
10
22.967003
20
-4.980942
30
0
11
30.207686
21
-9.336809
31
0
39
0
210
0
220
0
230
1
0
LINE
5
A2
100
AcDbEntity
8
1
62
256
6
ByLayer
370
18
48
1
60
0
100
AcDbLine
10
0.268332
20
-11.9257
30
0
11
0.268332
21
-11.842808
31
0
39
0
210
0
220
0
230
1
0
LINE
5
A3
100
AcDbEntity
8
1
62
256
6
ByLayer
370
18
48
1
60
0
100
AcDbLine
10
-0.271
20
11.186852
30
0
11
-0.271
21
11.44588
31
0
39
0
210
0
220
0
230
1
0
LINE
5
A4
100
AcDbEntity
8
1
62
256
6
ByLayer
370
18
48
1
60
0
100
AcDbLine
10
0.268332
20
11.543022
30
0
11
0.268332
21
11.422918
31
0
39
0
210
0
220
0
230
1
0
LINE
5
A5
100
AcDbEntity
8
1
62
256
6
ByLayer
370
18
48
1
60
0
100
AcDbLine
10
16.444686
20
-13.364114
30
0
11
17.585903
21
-8.6271
31
0
39
0
210
0
220
0
230
1
0
LINE
5
A6
100
AcDbEntity
8
1
62
256
6
ByLayer
370
18
48
1
60
0
100
AcDbLine
10
26.473819
20
2.201413
30
0
11
19.896496
21
-2.201413
31
0
39
0
210
0
220
0
230
1
0
LINE
5
A7
100
AcDbEntity
8
1
62
256
6
ByLayer
370
18
48
1
60
0
100
AcDbLine
10
18.151629
20
-2.240061
30
0
11
6.292619
21
-2.240061
31
0
39
0
210
0
220
0
230
1
0
LINE
5
A8
100
AcDbEntity
8
1
62
256
6
ByLayer
370
18
48
1
60
0
100
AcDbLine
10
-0.271
20
11.513825
30
0
11
-0.271
21
11.665576
31
0
39
0
210
0
220
0
230
1
0
LINE
5
A9
100
AcDbEntity
8
1
62
256
6
ByLayer
370
18
48
1
60
0
100
AcDbLine
10
-0.271
20
-11.69896
30
0
11
-0.271
21
-11.748964
31
0
39
0
210
0
220
0
230
1
0
LINE
5
AA
100
AcDbEntity
8
1
62
256
6
ByLayer
370
18
48
1
60
0
100
AcDbLine
10
-0.271
20
11.748964
30
0
11
-0.271
21
11.69896
31
0
39
0
210
0
220
0
230
1
0
LINE
5
AB
100
AcDbEntity
8
1
62
256
6
ByLayer
370
18
48
1
60
0
100
AcDbLine
10
0.268332
20
-6.439065
30
0
11
0.268332
21
-5.896003
31
0
39
0
210
0
220
0
230
1
0
LINE
5
AC
100
AcDbEntity
8
1
62
256
6
ByLayer
370
18
48
1
60
0
100
AcDbLine
10
0.268332
20
11.006153
30
0
11
0.268332
21
10.843847
31
0
39
0
210
0
220
0
230
1
0
LINE
5
AD
100
AcDbEntity
8
1
62
256
6
ByLayer
370
18
48
1
60
0
100
AcDbLine
10
-0.271
20
11.44588
30
0
11
-0.271
21
11.513825
31
0
39
0
210
0
220
0
230
1
0
LINE
5
AE
100
AcDbEntity
8
1
62
256
6
ByLayer
370
18
48
1
60
0
100
AcDbLine
10
6.292619
20
12.9
30
0
11
7.463439
21
12.9
31
0
39
0
210
0
220
0
230
1
0
LINE
5
AF
100
AcDbEntity
8
1
62
256
6
ByLayer
370
18
48
1
60
0
100
AcDbLine
10
-0.271
20
-10.046177
30
0
11
-0.271
21
-10.558322
31
0
39
0
210
0
220
0
230
1
0
LINE
5
B0
100
AcDbEntity
8
1
62
256
6
ByLayer
370
18
48
1
60
0
100
AcDbLine
10
-0.271
20
-11.186852
30
0
11
-0.271
21
-11.081772
31
0
39
0
210
0
220
0
230
1
0
LINE
5
B1
100
AcDbEntity
8
1
62
256
6
ByLayer
370
18
48
1
60
0
100
AcDbLine
10
-0.271
20
2.822351
30
0
11
-0.271
21
3.871132
31
0
39
0
210
0
220
0
230
1
0
LINE
5
B2
100
AcDbEntity
8
1
62
256
6
ByLayer
370
18
48
1
60
0
100
AcDbLine
10
0.479
20
12.5
30
0
11
6.275155
21
12.5
31
0
39
0
210
0
220
0
230
1
0
LINE
5
B3
100
AcDbEntity
8
1
62
256
6
ByLayer
370
18
48
1
60
0
100
AcDbLine
10
25.573047
20
-13.777268
30
0
11
25.421594
21
-13.551015
31
0
39
0
210
0
220
0
230
1
0
LINE
5
B4
100
AcDbEntity
8
1
62
256
6
ByLayer
370
18
48
1
60
0
100
AcDbLine
10
27.779319
20
-11.384744
30
0
11
27.633801
21
-11.167356
31
0
39
0
210
0
220
0
230
1
0
LINE
5
B5
100
AcDbEntity
8
1
62
256
6
ByLayer
370
18
48
1
60
0
100
AcDbLine
10
8.964466
20
8.964466
30
0
11
17.096194
21
0.832738
31
0
39
0
210
0
220
0
230
1
0
LINE
5
B6
100
AcDbEntity
8
SK1
62
256
6
ByLayer
370
18
48
1
60
0
100
AcDbLine
10
-3.571
20
3
30
0
11
-0.271
21
3
31
0
39
0
210
0
220
0
230
1
0
LINE
5
B7
100
AcDbEntity
8
1
62
256
6
ByLayer
370
18
48
1
60
0
100
AcDbLine
10
31.124378
20
-9.860593
30
0
11
30.964312
21
-6.929944
31
0
39
0
210
0
220
0
230
1
0
LINE
5
B8
100
AcDbEntity
8
1
62
256
6
ByLayer
370
18
48
1
60
0
100
AcDbLine
10
-0.271
20
10.705053
30
0
11
-0.271
21
11.081772
31
0
39
0
210
0
220
0
230
1
0
LINE
5
B9
100
AcDbEntity
8
1
62
256
6
ByLayer
370
18
48
1
60
0
100
AcDbLine
10
28.080105
20
-7.845385
30
0
11
27.572443
21
-7.538454
31
0
39
0
210
0
220
0
230
1
0
LINE
5
BA
100
AcDbEntity
8
1
62
256
6
ByLayer
370
18
48
1
60
0
100
AcDbLine
10
-0.271
20
7.664572
30
0
11
-0.271
21
8.012844
31
0
39
0
210
0
220
0
230
1
0
LINE
5
BB
100
AcDbEntity
8
1
62
256
6
ByLayer
370
18
48
1
60
0
100
AcDbLine
10
0.268332
20
-12.168742
30
0
11
0.268332
21
-12.120072
31
0
39
0
210
0
220
0
230
1
0
LINE
5
BC
100
AcDbEntity
8
1
62
256
6
ByLayer
370
18
48
1
60
0
100
AcDbLine
10
22.091435
20
-3.902009
30
0
11
22.143475
21
-3.933472
31
0
39
0
210
0
220
0
230
1
0
LINE
5
BD
100
AcDbEntity
8
1
62
256
6
ByLayer
370
18
48
1
60
0
100
AcDbLine
10
18.960457
20
-2.201413
30
0
11
19.896496
21
-2.201413
31
0
39
0
210
0
220
0
230
1
0
LINE
5
BE
100
AcDbEntity
8
1
62
256
6
ByLayer
370
18
48
1
60
0
100
AcDbLine
10
11.959874
20
-18.789147
30
0
11
12.331691
21
-18.821677
31
0
39
0
210
0
220
0
230
1
0
LINE
5
BF
100
AcDbEntity
8
1
62
256
6
ByLayer
370
18
48
1
60
0
100
AcDbLine
10
6.843748
20
-18.341544
30
0
11
6.529
21
-18.314007
31
0
39
0
210
0
220
0
230
1
0
LINE
5
C0
100
AcDbEntity
8
SK1
62
256
6
ByLayer
370
18
48
1
60
0
100
AcDbLine
10
-4.071
20
2.866025
30
0
11
-4.071
21
0
31
0
39
0
210
0
220
0
230
1
0
LINE
5
C1
100
AcDbEntity
8
1
62
256
6
ByLayer
370
18
48
1
60
0
100
AcDbLine
10
-0.271
20
-6.415463
30
0
11
-0.271
21
-5.909159
31
0
39
0
210
0
220
0
230
1
0
LINE
5
C2
100
AcDbEntity
8
1
62
256
6
ByLayer
370
18
48
1
60
0
100
AcDbLine
10
21.228183
20
-4.912542
30
0
11
21.760618
21
-5.707939
31
0
39
0
210
0
220
0
230
1
0
LINE
5
C3
100
AcDbEntity
8
1
62
256
6
ByLayer
370
18
48
1
60
0
100
AcDbLine
10
27.108956
20
-11.032561
30
0
11
27.088443
21
-11.001916
31
0
39
0
210
0
220
0
230
1
0
LINE
5
C4
100
AcDbEntity
8
1
62
256
6
ByLayer
370
18
48
1
60
0
100
AcDbLine
10
27.887407
20
-11.5205
30
0
11
28.038859
21
-11.746753
31
0
39
0
210
0
220
0
230
1
0
LINE
5
C5
100
AcDbEntity
8
1
62
256
6
ByLayer
370
18
48
1
60
0
100
AcDbLine
10
-0.271
20
10.558322
30
0
11
-0.271
21
10.705053
31
0
39
0
210
0
220
0
230
1
0
LINE
5
C6
100
AcDbEntity
8
1
62
256
6
ByLayer
370
18
48
1
60
0
100
AcDbLine
10
17.66188
20
1.398424
30
0
11
17.096194
21
0.832738
31
0
39
0
210
0
220
0
230
1
0
LINE
5
C7
100
AcDbEntity
8
1
62
256
6
ByLayer
370
18
48
1
60
0
100
AcDbLine
10
0.479
20
-12.5
30
0
11
0.479
21
12.5
31
0
39
0
210
0
220
0
230
1
0
LINE
5
C8
100
AcDbEntity
8
1
62
256
6
ByLayer
370
18
48
1
60
0
100
AcDbLine
10
21.44615
20
-7.520815
30
0
11
20.556769
21
-6.983098
31
0
39
0
210
0
220
0
230
1
0
LINE
5
C9
100
AcDbEntity
8
1
62
256
6
ByLayer
370
18
48
1
60
0
100
AcDbLine
10
6.529
20
-18.314007
30
0
11
6.529
21
-16.905062
31
0
39
0
210
0
220
0
230
1
0
LINE
5
CA
100
AcDbEntity
8
1
62
256
6
ByLayer
370
18
48
1
60
0
100
AcDbLine
10
26.374811
20
-2.522191
30
0
11
26.092059
21
-3.022756
31
0
39
0
210
0
220
0
230
1
0
LINE
5
CB
100
AcDbEntity
8
1
62
256
6
ByLayer
370
18
48
1
60
0
100
AcDbLine
10
23.679963
20
-3.812885
30
0
11
23.522653
21
-3.577881
31
0
39
0
210
0
220
0
230
1
0
LINE
5
CC
100
AcDbEntity
8
1
62
256
6
ByLayer
370
18
48
1
60
0
100
AcDbLine
10
21.219298
20
-7.369103
30
0
11
21.294777
21
-7.323618
31
0
39
0
210
0
220
0
230
1
0
LINE
5
CD
100
AcDbEntity
8
1
62
256
6
ByLayer
370
18
48
1
60
0
100
AcDbLine
10
22.524726
20
-14.962119
30
0
11
22.204411
21
-14.768457
31
0
39
0
210
0
220
0
230
1
0
LINE
5
CE
100
AcDbEntity
8
1
62
256
6
ByLayer
370
18
48
1
60
0
100
AcDbLine
10
-0.271
20
9.172141
30
0
11
-0.271
21
9.850161
31
0
39
0
210
0
220
0
230
1
0
LINE
5
CF
100
AcDbEntity
8
1
62
256
6
ByLayer
370
18
48
1
60
0
100
AcDbLine
10
6.275155
20
12.5
30
0
11
6.292619
21
12.9
31
0
39
0
210
0
220
0
230
1
0
LINE
5
D0
100
AcDbEntity
8
1
62
256
6
ByLayer
370
18
48
1
60
0
100
AcDbLine
10
-0.271
20
11.665576
30
0
11
-0.271
21
11.69896
31
0
39
0
210
0
220
0
230
1
0
LINE
5
D1
100
AcDbEntity
8
1
62
256
6
ByLayer
370
18
48
1
60
0
100
AcDbLine
10
-0.271
20
-3.871132
30
0
11
-0.271
21
-5.909159
31
0
39
0
210
0
220
0
230
1
0
LINE
5
D2
100
AcDbEntity
8
1
62
256
6
ByLayer
370
18
48
1
60
0
100
AcDbLine
10
-0.271
20
-10.046177
30
0
11
-0.271
21
-9.850161
31
0
39
0
210
0
220
0
230
1
0
LINE
5
D3
100
AcDbEntity
8
1
62
256
6
ByLayer
370
18
48
1
60
0
100
AcDbLine
10
18.134346
20
-2.362365
30
0
11
16.990586
21
-9.583778
31
0
39
0
210
0
220
0
230
1
0
LINE
5
D4
100
AcDbEntity
8
1
62
256
6
ByLayer
370
18
48
1
60
0
100
AcDbLine
10
16.990586
20
-9.583778
30
0
11
6.379951
21
-9.583778
31
0
39
0
210
0
220
0
230
1
0
LINE
5
D5
100
AcDbEntity
8
1
62
256
6
ByLayer
370
18
48
1
60
0
100
AcDbLine
10
-0.271
20
-11.75
30
0
11
-0.271
21
-11.748964
31
0
39
0
210
0
220
0
230
1
0
LINE
5
D6
100
AcDbEntity
8
1
62
256
6
ByLayer
370
18
48
1
60
0
100
AcDbLine
10
22.183964
20
-14.394088
30
0
11
22.524726
21
-14.962119
31
0
39
0
210
0
220
0
230
1
0
LINE
5
D7
100
AcDbEntity
8
1
62
256
6
ByLayer
370
18
48
1
60
0
100
AcDbLine
10
22.967003
20
-4.980942
30
0
11
22.73246
21
-4.630562
31
0
39
0
210
0
220
0
230
1
0
LINE
5
D8
100
AcDbEntity
8
1
62
256
6
ByLayer
370
18
48
1
60
0
100
AcDbLine
10
23.55187
20
-16.407784
30
0
11
30.792553
21
-20.763651
31
0
39
0
210
0
220
0
230
1
0
LINE
5
D9
100
AcDbEntity
8
1
62
256
6
ByLayer
370
18
48
1
60
0
100
AcDbLine
10
-0.271
20
11.081772
30
0
11
-0.271
21
11.186852
31
0
39
0
210
0
220
0
230
1
0
LINE
5
DA
100
AcDbEntity
8
1
62
256
6
ByLayer
370
18
48
1
60
0
100
AcDbLine
10
-0.271
20
-9.172141
30
0
11
-0.271
21
-9.850161
31
0
39
0
210
0
220
0
230
1
0
LINE
5
DB
100
AcDbEntity
8
1
62
256
6
ByLayer
370
18
48
1
60
0
100
AcDbLine
10
0.268332
20
11.9257
30
0
11
0.268332
21
11.842808
31
0
39
0
210
0
220
0
230
1
0
LINE
5
DC
100
AcDbEntity
8
1
62
256
6
ByLayer
370
18
48
1
60
0
100
AcDbLine
10
0.268332
20
-11.543022
30
0
11
0.268332
21
-11.422918
31
0
39
0
210
0
220
0
230
1
0
LINE
5
DD
100
AcDbEntity
8
1
62
256
6
ByLayer
370
18
48
1
60
0
100
AcDbLine
10
25.517852
20
6.23832
30
0
11
15.517852
21
6.23832
31
0
39
0
210
0
220
0
230
1
0
LINE
5
DE
100
AcDbEntity
8
1
62
256
6
ByLayer
370
18
48
1
60
0
100
AcDbLine
10
21.37471
20
-14.704501
30
0
11
22.229132
21
-15.221082
31
0
39
0
210
0
220
0
230
1
0
LINE
5
DF
100
AcDbEntity
8
1
62
256
6
ByLayer
370
18
48
1
60
0
100
AcDbLine
10
26.657562
20
-2.021626
30
0
11
26.970759
21
-2.489507
31
0
39
0
210
0
220
0
230
1
0
LINE
5
E0
100
AcDbEntity
8
1
62
256
6
ByLayer
370
18
48
1
60
0
100
AcDbLine
10
0.268332
20
12.168742
30
0
11
0.268332
21
12.120072
31
0
39
0
210
0
220
0
230
1
0
LINE
5
E1
100
AcDbEntity
8
1
62
256
6
ByLayer
370
18
48
1
60
0
100
AcDbLine
10
26.092059
20
-3.022756
30
0
11
25.518352
21
-3.038314
31
0
39
0
210
0
220
0
230
1
0
LINE
5
E2
100
AcDbEntity
8
1
62
256
6
ByLayer
370
18
48
1
60
0
100
AcDbLine
10
20.257314
20
-6.977221
30
0
11
19.995575
21
-6.818974
31
0
39
0
210
0
220
0
230
1
0
LINE
5
E3
100
AcDbEntity
8
1
62
256
6
ByLayer
370
18
48
1
60
0
100
AcDbLine
10
16.990586
20
-9.583778
30
0
11
16.531325
21
-12.483442
31
0
39
0
210
0
220
0
230
1
0
LINE
5
E4
100
AcDbEntity
8
1
62
256
6
ByLayer
370
18
48
1
60
0
100
AcDbLine
10
0.268332
20
-10.290988
30
0
11
0.268332
21
-10.078193
31
0
39
0
210
0
220
0
230
1
0
LINE
5
E5
100
AcDbEntity
8
1
62
256
6
ByLayer
370
18
48
1
60
0
100
AcDbLine
10
-0.271
20
-6.415463
30
0
11
-0.271
21
-7.664572
31
0
39
0
210
0
220
0
230
1
0
LINE
5
E6
100
AcDbEntity
8
1
62
256
6
ByLayer
370
18
48
1
60
0
100
AcDbLine
10
-0.271
20
-8.026119
30
0
11
-0.271
21
-8.91337
31
0
39
0
210
0
220
0
230
1
0
LINE
5
E7
100
AcDbEntity
8
1
62
256
6
ByLayer
370
18
48
1
60
0
100
AcDbLine
10
0.268332
20
9.356734
30
0
11
0.268332
21
9.078873
31
0
39
0
210
0
220
0
230
1
0
LINE
5
E8
100
AcDbEntity
8
1
62
256
6
ByLayer
370
18
48
1
60
0
100
AcDbLine
10
-0.271
20
10.046177
30
0
11
-0.271
21
10.558322
31
0
39
0
210
0
220
0
230
1
0
LINE
5
E9
100
AcDbEntity
8
1
62
256
6
ByLayer
370
18
48
1
60
0
100
AcDbLine
10
6.275155
20
-12.5
30
0
11
6.275155
21
12.5
31
0
39
0
210
0
220
0
230
1
0
LINE
5
EA
100
AcDbEntity
8
1
62
256
6
ByLayer
370
18
48
1
60
0
100
AcDbLine
10
0.268332
20
6.439065
30
0
11
0.268332
21
5.896003
31
0
39
0
210
0
220
0
230
1
0
LINE
5
EB
100
AcDbEntity
8
1
62
256
6
ByLayer
370
18
48
1
60
0
100
AcDbLine
10
-0.271
20
-11.513825
30
0
11
-0.271
21
-11.44588
31
0
39
0
210
0
220
0
230
1
0
LINE
5
EC
100
AcDbEntity
8
1
62
256
6
ByLayer
370
18
48
1
60
0
100
AcDbLine
10
0.268332
20
10.290988
30
0
11
0.268332
21
10.078193
31
0
39
0
210
0
220
0
230
1
0
LINE
5
ED
100
AcDbEntity
8
1
62
256
6
ByLayer
370
18
48
1
60
0
100
AcDbLine
10
26.473819
20
2.201413
30
0
11
16.85889
21
2.201413
31
0
39
0
210
0
220
0
230
1
0
LINE
5
EE
100
AcDbEntity
8
1
62
256
6
ByLayer
370
18
48
1
60
0
100
AcDbLine
10
-0.271
20
11.748964
30
0
11
-0.271
21
11.75
31
0
39
0
210
0
220
0
230
1
0
LINE
5
EF
100
AcDbEntity
8
1
62
256
6
ByLayer
370
18
48
1
60
0
100
AcDbLine
10
-0.271
20
8.91337
30
0
11
-0.271
21
9.172141
31
0
39
0
210
0
220
0
230
1
0
LINE
5
F0
100
AcDbEntity
8
1
62
256
6
ByLayer
370
18
48
1
60
0
100
AcDbLine
10
6.529
20
-18.314007
30
0
11
6.275155
21
-12.5
31
0
39
0
210
0
220
0
230
1
0
LINE
5
F1
100
AcDbEntity
8
1
62
256
6
ByLayer
370
18
48
1
60
0
100
AcDbLine
10
17.66188
20
1.398424
30
0
11
16.85889
21
2.201413
31
0
39
0
210
0
220
0
230
1
0
LINE
5
F2
100
AcDbEntity
8
1
62
256
6
ByLayer
370
18
48
1
60
0
100
AcDbLine
10
6.292619
20
-2.240061
30
0
11
6.292619
21
12.9
31
0
39
0
210
0
220
0
230
1
0
LINE
5
F3
100
AcDbEntity
8
1
62
256
6
ByLayer
370
18
48
1
60
0
100
AcDbLine
10
21.294777
20
-7.323618
30
0
11
20.396714
21
-6.780651
31
0
39
0
210
0
220
0
230
1
0
LINE
5
F4
100
AcDbEntity
8
1
62
256
6
ByLayer
370
18
48
1
60
0
100
AcDbLine
10
30.656933
20
-9.577977
30
0
11
30.676961
21
-9.944679
31
0
39
0
210
0
220
0
230
1
0
LINE
5
F5
100
AcDbEntity
8
1
62
256
6
ByLayer
370
18
48
1
60
0
100
AcDbLine
10
20.267372
20
-6.793571
30
0
11
21.219298
21
-7.369103
31
0
39
0
210
0
220
0
230
1
0
LINE
5
F6
100
AcDbEntity
8
1
62
256
6
ByLayer
370
18
48
1
60
0
100
AcDbLine
10
-0.271
20
-11.513825
30
0
11
-0.271
21
-11.665576
31
0
39
0
210
0
220
0
230
1
0
LINE
5
F7
100
AcDbEntity
8
1
62
256
6
ByLayer
370
18
48
1
60
0
100
AcDbLine
10
-0.271
20
5.909159
30
0
11
-0.271
21
6.415463
31
0
39
0
210
0
220
0
230
1
0
LINE
5
F8
100
AcDbEntity
8
1
62
256
6
ByLayer
370
18
48
1
60
0
100
AcDbLine
10
-0.271
20
3.871132
30
0
11
-0.271
21
5.909159
31
0
39
0
210
0
220
0
230
1
0
LINE
5
F9
100
AcDbEntity
8
4
62
256
6
ByLayer
370
13
48
0.05
60
0
100
AcDbLine
10
0
20
0
30
0
11
32
21
0
31
0
39
0
210
0
220
0
230
1
0
LINE
5
FB
100
AcDbEntity
8
SK4
62
256
6
ByLayer
370
13
48
0.05
60
0
100
AcDbLine
10
-5
20
0
30
0
11
37
21
0
31
0
39
0
210
0
220
0
230
1
0
LINE
5
FD
100
AcDbEntity
8
80
62
256
6
ByLayer
370
13
48
1
60
0
100
AcDbLine
10
0
20
0
30
0
11
-4
21
0
31
0
39
0
210
0
220
0
230
1
0
LINE
5
FE
100
AcDbEntity
8
81
62
256
6
ByLayer
370
13
48
1
60
0
100
AcDbLine
10
32
20
-21
30
0
11
36
21
-21
31
0
39
0
210
0
220
0
230
1
0
MTEXT
5
1C9
100
AcDbEntity
8
SK6
62
256
6
ByLayer
370
13
48
1
60
0
100
AcDbMText
10
-3.375453
20
-41.047412
30
0
210
0
220
0
230
1
1
\W0.7227;SL-PDUNL-25-11HP-G
40
3.175
41
0
44
1.084337
50
0
71
7
72
5
7
iso_b_vert
0
DIMENSION
5
1D8
100
AcDbEntity
8
SK2
62
256
6
ByLayer
370
13
48
1
60
0
100
AcDbDimension
2
DimnDraft3D1
10
-14.134629
20
-12.5
30
0
11
-13.340879
21
3.534228
31
0
70
33
71
5
72
1
41
1
210
0
220
0
230
1
3
Standard
100
AcDbAlignedDimension
13
-1.1085
23
12.5
33
0
14
-1.1085
24
-12.5
34
0
1001
ACAD
1000
DSTYLE
1002
{
1070
   279
1070
     0
1070
    74
1070
     0
1070
   173
1070
     1
1070
   340
1005
1CA
1070
   271
1070
     1
1070
   272
1070
     2
1070
    77
1070
     1
1070
    73
1070
     0
1070
   171
1070
     3
1070
   274
1070
     4
1070
   177
1070
     7
1070
   176
1070
     7
1070
   178
1070
     7
1070
    78
1070
     8
1070
    48
1040
-0.005
1070
    41
1041
3.175
1070
   147
1041
1.5875
1070
    42
1041
1.5875
1070
    44
1041
3.175
1070
   140
1041
3.175
1070
   343
1005
0
1070
   344
1005
0
1002
}
0
DIMENSION
5
1E3
100
AcDbEntity
8
2
62
256
6
ByLayer
370
13
48
1
60
0
100
AcDbDimension
2
DimnDraft3D2
10
26.667307
20
32
30
0
11
26.667307
21
17.854868
31
0
70
32
71
5
72
1
41
1
210
0
220
0
230
1
3
Standard
100
AcDbAlignedDimension
13
1.5875
23
0
33
0
14
22.5875
24
32
34
0
50
90
100
AcDbRotatedDimension
1001
ACAD
1000
DSTYLE
1002
{
1070
    74
1070
     0
1070
   279
1070
     0
1070
   173
1070
     1
1070
   340
1005
1CA
1070
   271
1070
     1
1070
   272
1070
     2
1070
    77
1070
     1
1070
    73
1070
     0
1070
   171
1070
     3
1070
   274
1070
     4
1070
   177
1070
     7
1070
   176
1070
     7
1070
   178
1070
     7
1070
    78
1070
     8
1070
    48
1040
-0.005
1070
    41
1041
3.175
1070
   147
1041
1.5875
1070
    42
1041
1.5875
1070
    44
1041
3.175
1070
   140
1041
3.175
1070
   343
1005
0
1070
   344
1005
0
1002
}
0
DIMENSION
5
1ED
100
AcDbEntity
8
2
62
256
6
ByLayer
370
13
48
1
60
0
100
AcDbDimension
2
DimnDraft3D3
10
-21
20
-51.8321
30
0
11
-9.042007
21
-51.8321
31
0
70
32
71
5
72
1
41
1
210
0
220
0
230
1
3
Standard
100
AcDbAlignedDimension
13
0
23
-1.5875
33
0
14
-21
24
-33.5875
34
0
50
0
100
AcDbRotatedDimension
1001
ACAD
1000
DSTYLE
1002
{
1070
   279
1070
     0
1070
   173
1070
     1
1070
   340
1005
1CA
1070
   271
1070
     1
1070
   272
1070
     2
1070
    77
1070
     1
1070
    73
1070
     0
1070
   171
1070
     3
1070
   274
1070
     4
1070
   177
1070
     7
1070
   176
1070
     7
1070
   178
1070
     7
1070
    78
1070
     8
1070
    48
1040
-0.005
1070
    41
1041
3.175
1070
   147
1041
1.5875
1070
    42
1041
1.5875
1070
    44
1041
3.175
1070
   140
1041
3.175
1070
   343
1005
0
1070
   344
1005
0
1002
}
0
DIMENSION
5
1F8
100
AcDbEntity
8
SK2
62
256
6
ByLayer
370
13
48
1
60
0
100
AcDbDimension
2
DimnDraft3D4
10
32
20
-22
30
0
11
-25.67701
21
-37.701436
31
0
70
34
71
5
72
1
41
1
210
0
220
0
230
1
3
Standard
100
AcDb2LineAngularDimension
13
31.998938
23
-20.036654
33
0
14
31.55597
24
-11.58432
34
0
15
32
25
-21
35
0
16
-13.375454
26
-39.284849
36
0
40
0
0
ENDSEC
0
SECTION
2
OBJECTS
0
DICTIONARY
5
263
330
0
100
AcDbDictionary
280
0
281
1
3
ACAD_GROUP
350
264
3
ACAD_MLINESTYLE
350
265
0
DICTIONARY
5
264
330
0
100
AcDbDictionary
280
0
281
1
0
DICTIONARY
5
265
330
0
100
AcDbDictionary
280
0
281
1
3
Standard
350
18
0
MLINESTYLE
5
18
330
265
100
AcDbMlineStyle
2
Standard
70
0
3

62
256
51
90
52
90
71
2
49
-0.5
62
256
6
ByLayer
49
0.5
62
256
6
ByLayer
0
RASTERVARIABLES
5
251
330

100
AcDbRasterVariables
90
0
70
1
71
1
72
1
0
ENDSEC
0
EOF
