0
SECTION
2
HEADER
9
$ACADVER
1
AC1015
9
$DWGCODEPAGE
3
ANSI_1252
9
$HANDSEED
5
263
9
$ANGBASE
50
0
9
$ANGDIR
70
0
9
$ATTMODE
70
1
9
$AUNITS
70
0
9
$AUPREC
70
0
9
$CECOLOR
62
256
9
$CELTSCALE
40
1
9
$CELTYPE
6
ByLayer
9
$CELWEIGHT
370
18
9
$CLAYER
8
0
9
$CMLJUST
70
0
9
$CMLSCALE
40
1
9
$CMLSTYLE
2
Standard
9
$DIMSTYLE
2
Standard
9
$TEXTSIZE
40
0.2
9
$TEXTSTYLE
7
Standard
9
$LUNITS
70
2
9
$LUPREC
70
4
9
$EXTNAMES
290
1
9
$INSUNITS
70
4
9
$LTSCALE
40
1
9
$LWDISPLAY
290
1
9
$PDMODE
70
0
9
$PDSIZE
40
0
9
$PLINEGEN
70
0
0
ENDSEC
0
SECTION
2
CLASSES
0
CLASS
1
RASTERVARIABLES
2
AcDbRasterVariables
3
ISM
90
0
280
0
281
0
0
ENDSEC
0
SECTION
2
TABLES
0
TABLE
2
VPORT
5
259
100
AcDbSymbolTable
0
VPORT
5
1
100
AcDbSymbolTableRecord
100
AcDbViewportTableRecord
2
*Active
70
0
10
0
20
0
11
1
21
1
12
-1
22
1
13
0
23
0
14
0.5
24
0.5
15
10
25
10
16
0
26
0
36
1
17
0
27
0
37
0
0
ENDTAB
0
TABLE
2
LTYPE
5
25a
100
AcDbSymbolTable
0
LTYPE
5
14
100
AcDbSymbolTableRecord
100
AcDbLinetypeTableRecord
70
0
2
ByBlock
3

72
65
73
0
40
0
0
LTYPE
5
15
100
AcDbSymbolTableRecord
100
AcDbLinetypeTableRecord
70
0
2
ByLayer
3

72
65
73
0
40
0
0
LTYPE
5
16
100
AcDbSymbolTableRecord
100
AcDbLinetypeTableRecord
70
0
2
CONTINUOUS
3
Solid line
72
65
73
0
40
0
0
LTYPE
5
6A
100
AcDbSymbolTableRecord
100
AcDbLinetypeTableRecord
70
0
2
CENTER
3
____ _ ____ _ ____ _ ____
72
65
73
4
40
47.5
49
22
74
0
49
-8.5
74
0
49
8.5
74
0
49
-8.5
74
0
0
LTYPE
5
6B
100
AcDbSymbolTableRecord
100
AcDbLinetypeTableRecord
70
0
2
DASHED
3
__ __ __ __ __ __ __ __ __
72
65
73
2
40
25.72
49
12.86
74
0
49
-12.86
74
0
0
ENDTAB
0
TABLE
2
LAYER
5
25b
100
AcDbSymbolTable
0
LAYER
5
10
100
AcDbSymbolTableRecord
100
AcDbLayerTableRecord
2
0
70
0
62
7
6
CONTINUOUS
290
1
370
-3
390
0
0
LAYER
5
6D
100
AcDbSymbolTableRecord
100
AcDbLayerTableRecord
2
80
70
0
62
-6
6
CONTINUOUS
290
1
370
-3
390
0
0
LAYER
5
6F
100
AcDbSymbolTableRecord
100
AcDbLayerTableRecord
2
81
70
0
62
-3
6
CONTINUOUS
290
1
370
-3
390
0
0
LAYER
5
71
100
AcDbSymbolTableRecord
100
AcDbLayerTableRecord
2
1
70
0
62
4
6
CONTINUOUS
290
1
370
-3
390
0
0
LAYER
5
EE
100
AcDbSymbolTableRecord
100
AcDbLayerTableRecord
2
4
70
0
62
-2
6
CENTER
290
1
370
-3
390
0
0
LAYER
5
1CF
100
AcDbSymbolTableRecord
100
AcDbLayerTableRecord
2
2
70
0
62
7
6
CONTINUOUS
290
1
370
-3
390
0
0
LAYER
5
245
100
AcDbSymbolTableRecord
100
AcDbLayerTableRecord
2
SK1
70
0
62
4
6
CONTINUOUS
290
1
370
-3
390
0
0
LAYER
5
246
100
AcDbSymbolTableRecord
100
AcDbLayerTableRecord
2
SK4
70
0
62
2
6
CENTER
290
1
370
-3
390
0
0
LAYER
5
247
100
AcDbSymbolTableRecord
100
AcDbLayerTableRecord
2
SK6
70
0
62
5
6
CONTINUOUS
290
1
370
-3
390
0
0
LAYER
5
248
100
AcDbSymbolTableRecord
100
AcDbLayerTableRecord
2
SK2
70
0
62
7
6
CONTINUOUS
290
1
370
-3
390
0
0
ENDTAB
0
TABLE
2
STYLE
5
25c
100
AcDbSymbolTable
0
STYLE
5
11
100
AcDbSymbolTableRecord
100
AcDbTextStyleTableRecord
2
Standard
3
txt
70
0
71
0
40
0
41
1
42
0
50
0
0
STYLE
5
1BE
100
AcDbSymbolTableRecord
100
AcDbTextStyleTableRecord
2
iso_b_vert
3
simplex.shx
70
0
71
0
40
0
41
1
42
0
50
0
0
STYLE
5
1BF
100
AcDbSymbolTableRecord
100
AcDbTextStyleTableRecord
2
DWGDirectTextStyle
3
simplex
70
0
71
0
40
0
41
1
42
0
50
0
0
ENDTAB
0
TABLE
2
DIMSTYLE
5
25d
100
AcDbSymbolTable
100
AcDbDimStyleTable
0
DIMSTYLE
105
27
100
AcDbSymbolTableRecord
100
AcDbDimStyleTableRecord
2
Standard
70
0
3
<>
41
0.18
42
0.0625
44
0.18
140
0.18
147
0.09
73
0
74
0
77
1
271
2
275
0
278
52
280
0
340
11
0
ENDTAB
0
TABLE
2
VIEW
5
25e
100
AcDbSymbolTable
0
ENDTAB
0
TABLE
2
UCS
5
25f
100
AcDbSymbolTable
0
ENDTAB
0
TABLE
2
APPID
5
260
100
AcDbSymbolTable
0
APPID
5
12
100
AcDbSymbolTableRecord
100
AcDbRegAppTableRecord
2
ACAD
70
0
0
ENDTAB
0
TABLE
2
BLOCK_RECORD
5
261
100
AcDbSymbolTable
0
BLOCK_RECORD
5
1F
100
AcDbSymbolTableRecord
100
AcDbBlockTableRecord
2
*Model_Space
340
0
70
0
0
BLOCK_RECORD
5
1B
100
AcDbSymbolTableRecord
100
AcDbBlockTableRecord
2
*Paper_Space
340
0
70
0
0
BLOCK_RECORD
5
23
100
AcDbSymbolTableRecord
100
AcDbBlockTableRecord
2
*Paper_Space0
340
0
70
0
0
BLOCK_RECORD
5
1C1
100
AcDbSymbolTableRecord
100
AcDbBlockTableRecord
2
DimnDraft3D1
340
0
70
0
0
BLOCK_RECORD
5
1CD
100
AcDbSymbolTableRecord
100
AcDbBlockTableRecord
2
DimnDraft3D2
340
0
70
0
0
BLOCK_RECORD
5
1D8
100
AcDbSymbolTableRecord
100
AcDbBlockTableRecord
2
DimnDraft3D3
340
0
70
0
0
BLOCK_RECORD
5
1E2
100
AcDbSymbolTableRecord
100
AcDbBlockTableRecord
2
DimnDraft3D4
340
0
70
0
0
ENDTAB
0
ENDSEC
0
SECTION
2
BLOCKS
0
BLOCK
5
20
100
AcDbEntity
8
0
100
AcDbBlockBegin
2
*Model_Space
70
0
10
0
20
0
30
0
3
*Model_Space
0
ENDBLK
5
21
100
AcDbEntity
8
0
100
AcDbBlockEnd
0
BLOCK
5
1C
100
AcDbEntity
8
0
100
AcDbBlockBegin
2
*Paper_Space
70
0
10
0
20
0
30
0
3
*Paper_Space
0
ENDBLK
5
1D
100
AcDbEntity
8
0
100
AcDbBlockEnd
0
BLOCK
5
24
100
AcDbEntity
8
0
100
AcDbBlockBegin
2
*Paper_Space0
70
0
10
0
20
0
30
0
3
*Paper_Space0
0
ENDBLK
5
25
100
AcDbEntity
8
0
100
AcDbBlockEnd
0
BLOCK
5
1CA
100
AcDbEntity
8
0
100
AcDbBlockBegin
2
DimnDraft3D1
70
0
10
0
20
0
30
0
3
DimnDraft3D1
0
MTEXT
5
1C2
100
AcDbEntity
8
SK2
62
256
6
ByLayer
370
13
48
1
60
0
100
AcDbMText
10
-12.913194
20
1.500289
30
0
210
0
220
0
230
1
1
\W0.6563;25
40
3.175
41
0
44
1.084337
50
90
71
7
72
5
7
iso_b_vert
0
MTEXT
5
1C4
100
AcDbEntity
8
SK2
62
256
6
ByLayer
370
13
48
1
60
0
100
AcDbMText
10
-12.913194
20
-5.618656
30
0
210
0
220
0
230
1
1
%%c
40
3.175
41
0
44
1.084337
50
90
71
7
72
5
7
iso_b_vert
0
LINE
5
1C5
100
AcDbEntity
8
SK2
62
256
6
ByLayer
370
13
48
1
60
0
100
AcDbLine
10
-1.1085
20
-12.5
30
0
11
-14.500694
21
-12.5
31
0
39
0
210
0
220
0
230
1
0
LINE
5
1C6
100
AcDbEntity
8
SK2
62
256
6
ByLayer
370
13
48
1
60
0
100
AcDbLine
10
-1.1085
20
12.5
30
0
11
-14.500694
21
12.5
31
0
39
0
210
0
220
0
230
1
0
LINE
5
1C7
100
AcDbEntity
8
SK2
62
256
6
ByLayer
370
13
48
1
60
0
100
AcDbLine
10
-11.325694
20
-12.5
30
0
11
-11.325694
21
12.5
31
0
39
0
210
0
220
0
230
1
0
SOLID
5
1C8
100
AcDbEntity
8
SK2
62
256
6
ByLayer
370
13
48
1
60
0
100
AcDbTrace
10
-11.325694
20
-12.5
30
0
11
-11.743691
21
-9.325002
31
0
12
-10.907698
22
-9.324998
32
0
13
-11.325694
23
-12.5
33
0
39
0
210
0
220
0
230
1
0
SOLID
5
1C9
100
AcDbEntity
8
SK2
62
256
6
ByLayer
370
13
48
1
60
0
100
AcDbTrace
10
-11.325694
20
12.5
30
0
11
-10.907698
21
9.325002
31
0
12
-11.743691
22
9.324998
32
0
13
-11.325694
23
12.5
33
0
39
0
210
0
220
0
230
1
0
ENDBLK
5
1CB
100
AcDbEntity
8
0
100
AcDbBlockEnd
0
BLOCK
5
1D5
100
AcDbEntity
8
0
100
AcDbBlockBegin
2
DimnDraft3D2
70
0
10
0
20
0
30
0
3
DimnDraft3D2
0
MTEXT
5
1CE
100
AcDbEntity
8
2
62
256
6
ByLayer
370
13
48
1
60
0
100
AcDbMText
10
12.938882
20
26.699273
30
0
210
0
220
0
230
1
1
\W0.6563;28
40
3.175
41
0
44
1.084337
50
0
71
7
72
5
7
iso_b_vert
0
LINE
5
1D0
100
AcDbEntity
8
2
62
256
6
ByLayer
370
13
48
1
60
0
100
AcDbLine
10
0
20
1.5875
30
0
11
0
21
29.080523
31
0
39
0
210
0
220
0
230
1
0
LINE
5
1D1
100
AcDbEntity
8
2
62
256
6
ByLayer
370
13
48
1
60
0
100
AcDbLine
10
28
20
20.5875
30
0
11
28
21
29.080523
31
0
39
0
210
0
220
0
230
1
0
LINE
5
1D2
100
AcDbEntity
8
2
62
256
6
ByLayer
370
13
48
1
60
0
100
AcDbLine
10
0
20
25.905523
30
0
11
28
21
25.905523
31
0
39
0
210
0
220
0
230
1
0
SOLID
5
1D3
100
AcDbEntity
8
2
62
256
6
ByLayer
370
13
48
1
60
0
100
AcDbTrace
10
0
20
25.905523
30
0
11
3.174998
21
26.32352
31
0
12
3.175002
22
25.487527
32
0
13
0
23
25.905523
33
0
39
0
210
0
220
0
230
1
0
SOLID
5
1D4
100
AcDbEntity
8
2
62
256
6
ByLayer
370
13
48
1
60
0
100
AcDbTrace
10
28
20
25.905523
30
0
11
24.825002
21
25.487527
31
0
12
24.824998
22
26.32352
32
0
13
28
23
25.905523
33
0
39
0
210
0
220
0
230
1
0
ENDBLK
5
1D6
100
AcDbEntity
8
0
100
AcDbBlockEnd
0
BLOCK
5
1DF
100
AcDbEntity
8
0
100
AcDbBlockBegin
2
DimnDraft3D3
70
0
10
0
20
0
30
0
3
DimnDraft3D3
0
MTEXT
5
1D9
100
AcDbEntity
8
2
62
256
6
ByLayer
370
13
48
1
60
0
100
AcDbMText
10
39.453979
20
7.945926
30
0
210
0
220
0
230
1
1
\W0.5286;19
40
3.175
41
0
44
1.084337
50
90
71
7
72
5
7
iso_b_vert
0
LINE
5
1DA
100
AcDbEntity
8
2
62
256
6
ByLayer
370
13
48
1
60
0
100
AcDbLine
10
1.5875
20
0
30
0
11
43.422729
21
0
31
0
39
0
210
0
220
0
230
1
0
LINE
5
1DB
100
AcDbEntity
8
2
62
256
6
ByLayer
370
13
48
1
60
0
100
AcDbLine
10
32.5875
20
19
30
0
11
43.422729
21
19
31
0
39
0
210
0
220
0
230
1
0
LINE
5
1DC
100
AcDbEntity
8
2
62
256
6
ByLayer
370
13
48
1
60
0
100
AcDbLine
10
40.247729
20
0
30
0
11
40.247729
21
19
31
0
39
0
210
0
220
0
230
1
0
SOLID
5
1DD
100
AcDbEntity
8
2
62
256
6
ByLayer
370
13
48
1
60
0
100
AcDbTrace
10
40.247729
20
0
30
0
11
39.829732
21
3.174998
31
0
12
40.665726
22
3.175002
32
0
13
40.247729
23
0
33
0
39
0
210
0
220
0
230
1
0
SOLID
5
1DE
100
AcDbEntity
8
2
62
256
6
ByLayer
370
13
48
1
60
0
100
AcDbTrace
10
40.247729
20
19
30
0
11
40.665726
21
15.825002
31
0
12
39.829732
22
15.824998
32
0
13
40.247729
23
19
33
0
39
0
210
0
220
0
230
1
0
ENDBLK
5
1E0
100
AcDbEntity
8
0
100
AcDbBlockEnd
0
BLOCK
5
1E9
100
AcDbEntity
8
0
100
AcDbBlockBegin
2
DimnDraft3D4
70
0
10
0
20
0
30
0
3
DimnDraft3D4
0
MTEXT
5
1E3
100
AcDbEntity
8
SK2
62
256
6
ByLayer
370
13
48
1
60
0
100
AcDbMText
10
31.315278
20
-12.228467
30
0
210
0
220
0
230
1
1
\W0.8385;95%%d
40
3.175
41
0
44
1.084337
50
30.8532011963049
71
7
72
5
7
iso_b_vert
0
LINE
5
1E4
100
AcDbEntity
8
SK2
62
256
6
ByLayer
370
13
48
1
60
0
100
AcDbLine
10
27.166934
20
8.5204
30
0
11
24.941903
21
-16.911822
31
0
39
0
210
0
220
0
230
1
0
LINE
5
1E5
100
AcDbEntity
8
SK2
62
256
6
ByLayer
370
13
48
1
60
0
100
AcDbLine
10
34.5875
20
0
30
0
11
43.397919
21
0
31
0
39
0
210
0
220
0
230
1
0
ARC
5
1E6
100
AcDbEntity
8
SK2
62
256
6
ByLayer
370
13
48
1
60
0
100
AcDbCircle
39
0
10
26.421496
20
0
30
0
40
13.8014225164089
210
0
220
0
230
1
100
AcDbArc
50
265
51
0
0
SOLID
5
1E7
100
AcDbEntity
8
SK2
62
256
6
ByLayer
370
13
48
1
60
0
100
AcDbTrace
10
25.218623
20
-13.748904
30
0
11
28.404733
21
-13.42635
31
0
12
28.379655
22
-14.261967
32
0
13
25.218623
23
-13.748904
33
0
39
0
210
0
220
0
230
1
0
SOLID
5
1E8
100
AcDbEntity
8
SK2
62
256
6
ByLayer
370
13
48
1
60
0
100
AcDbTrace
10
40.222919
20
0
30
0
11
40.458527
21
-3.193716
31
0
12
39.623904
22
-3.145876
32
0
13
40.222919
23
0
33
0
39
0
210
0
220
0
230
1
0
ENDBLK
5
1EA
100
AcDbEntity
8
0
100
AcDbBlockEnd
0
ENDSEC
0
SECTION
2
ENTITIES
0
ARC
5
F3
100
AcDbEntity
8
1
62
256
6
ByLayer
370
18
48
1
60
0
100
AcDbCircle
39
0
10
22.04662
20
12.711741
30
0
40
2.3
210
0
220
0
230
1
100
AcDbArc
50
95.903392
51
104.684988
0
ARC
5
F4
100
AcDbEntity
8
1
62
256
6
ByLayer
370
18
48
1
60
0
100
AcDbCircle
39
0
10
-10.674359
20
2.352898
30
0
40
4.5
210
0
220
0
230
-1
100
AcDbArc
50
176.061196
51
222
0
ARC
5
F5
100
AcDbEntity
8
1
62
256
6
ByLayer
370
18
48
1
60
0
100
AcDbCircle
39
0
10
21.289027
20
3.235779
30
0
40
5
210
0
220
0
230
1
100
AcDbArc
50
270
51
302.576261
0
ARC
5
F6
100
AcDbEntity
8
1
62
256
6
ByLayer
370
18
48
1
60
0
100
AcDbCircle
39
0
10
21.289027
20
3.235779
30
0
40
5.00000000000181
210
0
220
0
230
1
100
AcDbArc
50
302.576261
51
355
0
ARC
5
F7
100
AcDbEntity
8
1
62
256
6
ByLayer
370
18
48
1
60
0
100
AcDbCircle
39
0
10
22.04662
20
12.711741
30
0
40
2.3
210
0
220
0
230
1
100
AcDbArc
50
3.718724
51
14.459674
0
ARC
5
F8
100
AcDbEntity
8
1
62
256
6
ByLayer
370
18
48
1
60
0
100
AcDbCircle
39
0
10
15.689027
20
-9.964221
30
0
40
8.2
210
0
220
0
230
1
100
AcDbArc
50
90
51
113.613188
0
ELLIPSE
5
F9
100
AcDbEntity
8
1
62
256
6
ByLayer
370
18
48
1
60
0
100
AcDbEllipse
10
19.835848
20
5.623556
30
0
11
-0.936557707079637
21
0.675420605729945
31
0
210
0
220
0
230
1
40
0.979574
41
2.44617799115317
42
-2.78980976483014
0
ELLIPSE
5
FA
100
AcDbEntity
8
1
62
256
6
ByLayer
370
18
48
1
60
0
100
AcDbEllipse
10
19.766579
20
5.527506
30
0
11
-2.02770691610939
21
1.46232850699267
31
0
210
0
220
0
230
1
40
0.979574
41
0
42
1.39898043995113
0
ELLIPSE
5
FB
100
AcDbEntity
8
1
62
256
6
ByLayer
370
18
48
1
60
0
100
AcDbEllipse
10
22.834672
20
13.804476
30
0
11
-1.19634708059518
21
0.862773818975029
31
0
210
0
220
0
230
1
40
0.979574
41
-1.56271305644002
42
-1.04984674507791
0
ELLIPSE
5
FC
100
AcDbEntity
8
1
62
256
6
ByLayer
370
18
48
1
60
0
100
AcDbEllipse
10
27.211511
20
18.091631
30
0
11
-0.643999716555462
21
0.464435533821971
31
0
210
0
220
0
230
1
40
0.979574
41
-2.613095178069
42
-0.867765926074693
0
ELLIPSE
5
FD
100
AcDbEntity
8
1
62
256
6
ByLayer
370
18
48
1
60
0
100
AcDbEllipse
10
22.834672
20
13.804476
30
0
11
-1.19634708049269
21
0.862773819145632
31
0
210
0
220
0
230
1
40
0.979574
41
1.57887959728705
42
2.09174590864363
0
ELLIPSE
5
FE
100
AcDbEntity
8
1
62
256
6
ByLayer
370
18
48
1
60
0
100
AcDbEllipse
10
-4.014201
20
5.656854
30
0
11
-31.6610452308548
21
0.624398560276981
31
0
210
0
220
0
230
1
40
0.116789
41
-2.36988341162667
42
-2.21375838057309
0
ELLIPSE
5
FF
100
AcDbEntity
8
1
62
256
6
ByLayer
370
18
48
1
60
0
100
AcDbEllipse
10
19.835848
20
5.623556
30
0
11
-1.40520089286187
21
1.01339365534831
31
0
210
0
220
0
230
1
40
0.979574
41
0
42
6.28318530717959
0
ELLIPSE
5
100
100
AcDbEntity
8
1
62
256
6
ByLayer
370
18
48
1
60
0
100
AcDbEllipse
10
19.835848
20
5.623556
30
0
11
-0.93655770708301
21
0.67542060572386
31
0
210
0
220
0
230
1
40
0.979574
41
1.39898043995037
42
2.44617799114709
0
ELLIPSE
5
101
100
AcDbEntity
8
1
62
256
6
ByLayer
370
18
48
1
60
0
100
AcDbEllipse
10
22.47295
20
13.880451
30
0
11
-1.54105725623805
21
1.11136966532197
31
0
210
0
220
0
230
1
40
0.979574
41
2.28812934769952
42
3.14159265358979
0
ELLIPSE
5
102
100
AcDbEntity
8
1
62
256
6
ByLayer
370
18
48
1
60
0
100
AcDbEllipse
10
22.508235
20
13.929379
30
0
11
-1.29773242630813
21
0.935890244477617
31
0
210
0
220
0
230
1
40
0.979574
41
2.30495462888818
42
-1.77592177657472
0
ELLIPSE
5
103
100
AcDbEntity
8
1
62
256
6
ByLayer
370
18
48
1
60
0
100
AcDbEllipse
10
22.879367
20
13.866452
30
0
11
-1.54511267007321
21
1.11429432233105
31
0
210
0
220
0
230
1
40
0.979574
41
3.14159265358979
42
0
0
ELLIPSE
5
104
100
AcDbEntity
8
1
62
256
6
ByLayer
370
18
48
1
60
0
100
AcDbEllipse
10
22.437113
20
13.25321
30
0
11
-1.41946145600977
21
1.02367799556623
31
0
210
0
220
0
230
1
40
0.979574
41
-0.469172997890481
42
-0.0109219530249359
0
ELLIPSE
5
105
100
AcDbEntity
8
1
62
256
6
ByLayer
370
18
48
1
60
0
100
AcDbEllipse
10
22.481813
20
13.315192
30
0
11
-1.27745535711013
21
0.921266959366158
31
0
210
0
220
0
230
1
40
0.979574
41
-0.127710545548983
42
0.146768289590214
0
ELLIPSE
5
106
100
AcDbEntity
8
1
62
256
6
ByLayer
370
18
48
1
60
0
100
AcDbEllipse
10
22.155377
20
13.440095
30
0
11
-1.54105725365518
21
1.11136963497024
31
0
210
0
220
0
230
1
40
0.979574
41
3.06165338178125
42
3.14159264167987
0
ELLIPSE
5
107
100
AcDbEntity
8
1
62
256
6
ByLayer
370
18
48
1
60
0
100
AcDbEllipse
10
22.093668
20
12.776979
30
0
11
-1.83706218539075
21
1.32484056753884
31
0
210
0
220
0
230
1
40
0.979574
41
-2.4731120814311
42
-2.27751856781769
0
ELLIPSE
5
108
100
AcDbEntity
8
1
62
256
6
ByLayer
370
18
48
1
60
0
100
AcDbEllipse
10
17.070987
20
10.34173
30
0
11
-1.70327380952953
21
1.22835594587675
31
0
210
0
220
0
230
1
40
0.979574
41
0
42
2.93303698346395
0
ELLIPSE
5
109
100
AcDbEntity
8
1
62
256
6
ByLayer
370
18
48
1
60
0
100
AcDbEllipse
10
-4.014201
20
5.656854
30
0
11
-31.6610452372438
21
0.624398559881294
31
0
210
0
220
0
230
1
40
0.116789
41
2.38386957066546
42
2.86173699126842
0
ELLIPSE
5
10A
100
AcDbEntity
8
1
62
256
6
ByLayer
370
18
48
1
60
0
100
AcDbEllipse
10
19.766579
20
5.527506
30
0
11
-2.02770691610785
21
1.46232850699458
31
0
210
0
220
0
230
1
40
0.979574
41
-2.94686744263631
42
-1.70433636237131
0
ELLIPSE
5
10B
100
AcDbEntity
8
1
62
256
6
ByLayer
370
18
48
1
60
0
100
AcDbEllipse
10
19.782746
20
5.519682
30
0
11
-2.02770691618297
21
1.46232850668841
31
0
210
0
220
0
230
1
40
0.979574
41
-1.65805243316565
42
-1.38960002723296
0
ELLIPSE
5
10C
100
AcDbEntity
8
1
62
256
6
ByLayer
370
18
48
1
60
0
100
AcDbEllipse
10
19.766579
20
5.527506
30
0
11
-2.02770691651389
21
1.4623285068574
31
0
210
0
220
0
230
1
40
0.979574
41
3.14159265345235
42
-2.9468674427827
0
ELLIPSE
5
10D
100
AcDbEntity
8
1
62
256
6
ByLayer
370
18
48
1
60
0
100
AcDbEllipse
10
23.125822
20
13.630644
30
0
11
-1.54105725624443
21
1.11136966531108
31
0
210
0
220
0
230
1
40
0.979574
41
-0.853463305897029
42
0
0
ELLIPSE
5
10E
100
AcDbEntity
8
1
62
256
6
ByLayer
370
18
48
1
60
0
100
AcDbEllipse
10
22.481813
20
13.315192
30
0
11
-1.27745535699984
21
0.921266960513517
31
0
210
0
220
0
230
1
40
0.979574
41
2.98654181314602
42
-3.1403617802216
0
ELLIPSE
5
10F
100
AcDbEntity
8
1
62
256
6
ByLayer
370
18
48
1
60
0
100
AcDbEllipse
10
22.481813
20
13.315192
30
0
11
-1.27745535151678
21
0.921266971189831
31
0
210
0
220
0
230
1
40
0.979574
41
2.83146275132566
42
2.98654182061215
0
ELLIPSE
5
110
100
AcDbEntity
8
1
62
256
6
ByLayer
370
18
48
1
60
0
100
AcDbEllipse
10
22.481813
20
13.315192
30
0
11
-1.27745535100048
21
0.921266965301384
31
0
210
0
220
0
230
1
40
0.979574
41
0.146768294874395
42
0.310129915841661
0
ELLIPSE
5
111
100
AcDbEntity
8
1
62
256
6
ByLayer
370
18
48
1
60
0
100
AcDbEllipse
10
19.766579
20
5.527506
30
0
11
-2.02770691610681
21
1.46232850699578
31
0
210
0
220
0
230
1
40
0.979574
41
1.39898043995279
42
3.14159265358979
0
ELLIPSE
5
112
100
AcDbEntity
8
1
62
256
6
ByLayer
370
18
48
1
60
0
100
AcDbEllipse
10
19.76658
20
5.527506
30
0
11
-2.02770507907228
21
1.4623315798468
31
0
210
0
220
0
230
1
40
0.979574
41
-0.524478126183262
42
-0.485769796904306
0
ELLIPSE
5
113
100
AcDbEntity
8
1
62
256
6
ByLayer
370
18
48
1
60
0
100
AcDbEllipse
10
19.506513
20
5.166891
30
0
11
-0.81108276644468
21
0.584931402795226
31
0
210
0
220
0
230
1
40
0.979574
41
-1.21901343804242
42
-0.171815886845668
0
ELLIPSE
5
114
100
AcDbEntity
8
1
62
256
6
ByLayer
370
18
48
1
60
0
100
AcDbEllipse
10
19.766579
20
5.527506
30
0
11
-2.02770691602419
21
1.46232850716333
31
0
210
0
220
0
230
1
40
0.979574
41
-0.485771222600646
42
-3.62679458494865E-16
0
ELLIPSE
5
115
100
AcDbEntity
8
1
62
256
6
ByLayer
370
18
48
1
60
0
100
AcDbEllipse
10
22.093668
20
12.776979
30
0
11
-1.83706217935258
21
1.32484057515124
31
0
210
0
220
0
230
1
40
0.979574
41
-0.828967536601128
42
-0.668480575377037
0
ELLIPSE
5
116
100
AcDbEntity
8
1
62
256
6
ByLayer
370
18
48
1
60
0
100
AcDbEllipse
10
22.47295
20
13.880451
30
0
11
-1.5410572562432
21
1.11136966531438
31
0
210
0
220
0
230
1
40
0.979574
41
3.14159265358979
42
-1.75909649538504
0
ELLIPSE
5
117
100
AcDbEntity
8
1
62
256
6
ByLayer
370
18
48
1
60
0
100
AcDbEllipse
10
22.799386
20
13.755548
30
0
11
-1.43967191202585
21
1.0382532374566
31
0
210
0
220
0
230
1
40
0.979574
41
1.95765219349353
42
2.1098761973244
0
ELLIPSE
5
118
100
AcDbEntity
8
1
62
256
6
ByLayer
370
18
48
1
60
0
100
AcDbEllipse
10
22.799386
20
13.755548
30
0
11
-1.43967191043139
21
1.03825323997377
31
0
210
0
220
0
230
1
40
0.979574
41
-1.58084334667456
42
-1.03171645459304
0
ELLIPSE
5
119
100
AcDbEntity
8
1
62
256
6
ByLayer
370
18
48
1
60
0
100
AcDbEllipse
10
19.238978
20
17.54807
30
0
11
-0.643999716553934
21
0.464435533824711
31
0
210
0
220
0
230
1
40
0.979574
41
-0.867765926070622
42
0
0
ELLIPSE
5
11A
100
AcDbEntity
8
1
62
256
6
ByLayer
370
18
48
1
60
0
100
AcDbEllipse
10
19.506513
20
5.166891
30
0
11
-0.811082782190978
21
0.584931357313405
31
0
210
0
220
0
230
1
40
0.979574
41
-0.171815933192002
42
-0.0926491639422532
0
ELLIPSE
5
11B
100
AcDbEntity
8
1
62
256
6
ByLayer
370
18
48
1
60
0
100
AcDbEllipse
10
19.835848
20
5.623556
30
0
11
-0.936557707092472
21
0.675420605712593
31
0
210
0
220
0
230
1
40
0.979574
41
-2.78980976484833
42
-1.74261221365236
0
ELLIPSE
5
11C
100
AcDbEntity
8
1
62
256
6
ByLayer
370
18
48
1
60
0
100
AcDbEllipse
10
19.506513
20
5.166891
30
0
11
-0.81108276647153
21
0.584931402764335
31
0
210
0
220
0
230
1
40
0.979574
41
-2.91492885207822
42
-2.26621098928039
0
ELLIPSE
5
11D
100
AcDbEntity
8
1
62
256
6
ByLayer
370
18
48
1
60
0
100
AcDbEllipse
10
19.506513
20
5.166891
30
0
11
-0.811082766441503
21
0.584931402799698
31
0
210
0
220
0
230
1
40
0.979574
41
-2.26621098923356
42
-1.21901343803676
0
ELLIPSE
5
11E
100
AcDbEntity
8
1
62
256
6
ByLayer
370
18
48
1
60
0
100
AcDbEllipse
10
18.173193
20
9.122631
30
0
11
-0.643999716551691
21
0.464435533826637
31
0
210
0
220
0
230
1
40
0.979574
41
0.528497475528093
42
1.7791127504936
0
ELLIPSE
5
11F
100
AcDbEntity
8
1
62
256
6
ByLayer
370
18
48
1
60
0
100
AcDbEllipse
10
22.505337
20
13.347811
30
0
11
-1.54511267005677
21
1.11429432234993
31
0
210
0
220
0
230
1
40
0.979574
41
-2.96941068815754
42
-2.31452104830004
0
ELLIPSE
5
120
100
AcDbEntity
8
1
62
256
6
ByLayer
370
18
48
1
60
0
100
AcDbEllipse
10
23.125822
20
13.630644
30
0
11
-1.54105725623824
21
1.11136966532049
31
0
210
0
220
0
230
1
40
0.979574
41
0
42
1.35422032018582
0
ELLIPSE
5
121
100
AcDbEntity
8
1
62
256
6
ByLayer
370
18
48
1
60
0
100
AcDbEllipse
10
21.887136
20
10.363113
30
0
11
-1.21662414962991
21
0.877397104251353
31
0
210
0
220
0
230
1
40
0.979574
41
1.82279991576164
42
2.27382672755696
0
ELLIPSE
5
122
100
AcDbEntity
8
1
62
256
6
ByLayer
370
18
48
1
60
0
100
AcDbEllipse
10
16.741652
20
9.885064
30
0
11
-1.70327080455604
21
1.22836014855096
31
0
210
0
220
0
230
1
40
0.979574
41
-1.36558266525663
42
-1.32657818848977
0
ELLIPSE
5
123
100
AcDbEntity
8
1
62
256
6
ByLayer
370
18
48
1
60
0
100
AcDbEllipse
10
16.741651
20
9.885063
30
0
11
-1.70327030470229
21
1.22836218514092
31
0
210
0
220
0
230
1
40
0.979575
41
-1.38542635321415
42
-1.36558169482073
0
ELLIPSE
5
124
100
AcDbEntity
8
1
62
256
6
ByLayer
370
18
48
1
60
0
100
AcDbEllipse
10
19.42418
20
5.052725
30
0
11
-0.811082766442575
21
0.584931402798536
31
0
210
0
220
0
230
1
40
0.979574
41
-2.8536761436444
42
-0.223239990530756
0
ELLIPSE
5
125
100
AcDbEntity
8
1
62
256
6
ByLayer
370
18
48
1
60
0
100
AcDbEllipse
10
19.835848
20
5.623556
30
0
11
-0.936557707080214
21
0.675420605729373
31
0
210
0
220
0
230
1
40
0.979574
41
-0.695414662437271
42
0.351782888758962
0
ELLIPSE
5
126
100
AcDbEntity
8
1
62
256
6
ByLayer
370
18
48
1
60
0
100
AcDbEllipse
10
19.835848
20
5.623556
30
0
11
-0.936557707079373
21
0.675420605729537
31
0
210
0
220
0
230
1
40
0.979574
41
-1.74261221363342
42
-0.695414662437
0
ELLIPSE
5
127
100
AcDbEntity
8
1
62
256
6
ByLayer
370
18
48
1
60
0
100
AcDbEllipse
10
22.505337
20
13.347811
30
0
11
-1.5451126701335
21
1.11429432222724
31
0
210
0
220
0
230
1
40
0.979574
41
-0.699632254527473
42
-0.172181965481221
0
ELLIPSE
5
128
100
AcDbEntity
8
1
62
256
6
ByLayer
370
18
48
1
60
0
100
AcDbEllipse
10
22.879367
20
13.866452
30
0
11
-1.54511267007712
21
1.11429432232626
31
0
210
0
220
0
230
1
40
0.979574
41
0
42
0.703030400716983
0
ELLIPSE
5
129
100
AcDbEntity
8
1
62
256
6
ByLayer
370
18
48
1
60
0
100
AcDbEllipse
10
18.547223
20
9.641273
30
0
11
-0.64399971655532
21
0.464435533822138
31
0
210
0
220
0
230
1
40
0.979574
41
0.528497475521051
42
2.2738267275154
0
ELLIPSE
5
12A
100
AcDbEntity
8
1
62
256
6
ByLayer
370
18
48
1
60
0
100
AcDbEllipse
10
23.161108
20
13.679573
30
0
11
-1.29773242630804
21
0.935890244477691
31
0
210
0
220
0
230
1
40
0.979574
41
-0.836638024701556
42
1.36567087701516
0
ELLIPSE
5
12B
100
AcDbEntity
8
1
62
256
6
ByLayer
370
18
48
1
60
0
100
AcDbEllipse
10
22.622956
20
13.510905
30
0
11
-1.27745438560575
21
0.921268135406708
31
0
210
0
220
0
230
1
40
0.979574
41
0.684084659003378
42
0.737743558075827
0
ELLIPSE
5
12C
100
AcDbEntity
8
1
62
256
6
ByLayer
370
18
48
1
60
0
100
AcDbEllipse
10
22.481813
20
13.315192
30
0
11
-1.27745534047434
21
0.921266965859225
31
0
210
0
220
0
230
1
40
0.979574
41
-3.14036177150925
42
-3.01388209833452
0
ELLIPSE
5
12D
100
AcDbEntity
8
1
62
256
6
ByLayer
370
18
48
1
60
0
100
AcDbEllipse
10
23.609347
20
10.480532
30
0
11
-1.21662414956664
21
0.877397104353624
31
0
210
0
220
0
230
1
40
0.979574
41
2.2738267276384
42
2.72485353943235
0
ELLIPSE
5
12E
100
AcDbEntity
8
1
62
256
6
ByLayer
370
18
48
1
60
0
100
AcDbEllipse
10
26.917373
20
5.656854
30
0
11
-0.416726399669329
21
-3.74976598732113
31
0
210
0
220
0
230
1
40
0.100529
41
-1.65535906483957
42
-1.11248349193752
0
ELLIPSE
5
12F
100
AcDbEntity
8
1
62
256
6
ByLayer
370
18
48
1
60
0
100
AcDbEllipse
10
15.045181
20
9.333929
30
0
11
-0.799506761443617
21
-0.0280880473553405
31
0
210
0
220
0
230
1
40
0.160086
41
0.569671567023073
42
1.44720857949686
0
ELLIPSE
5
130
100
AcDbEntity
8
1
62
256
6
ByLayer
370
18
48
1
60
0
100
AcDbEllipse
10
12.410513
20
17.279634
30
0
11
-0.508793838951765
21
-0.617356322740317
31
0
210
0
220
0
230
1
40
0.01323
41
0.914751253687214
42
1.36875999241296
0
ELLIPSE
5
131
100
AcDbEntity
8
1
62
256
6
ByLayer
370
18
48
1
60
0
100
AcDbEllipse
10
-4.014201
20
5.656854
30
0
11
-31.6610452372317
21
0.624398559880184
31
0
210
0
220
0
230
1
40
0.116789
41
-2.87857274302489
42
-2.49957529051794
0
ELLIPSE
5
132
100
AcDbEntity
8
1
62
256
6
ByLayer
370
18
48
1
60
0
100
AcDbEllipse
10
-101.484994
20
6.978982
30
0
11
-134.774410589
21
-11.6673132544056
31
0
210
0
220
0
230
1
40
0.01073
41
-2.55746786630822
42
-2.49156853465218
0
ELLIPSE
5
133
100
AcDbEntity
8
1
62
256
6
ByLayer
370
18
48
1
60
0
100
AcDbEllipse
10
12.009666
20
17.609992
30
0
11
-1.14197997227722
21
-0.0891191303053637
31
0
210
0
220
0
230
1
40
0.107615
41
0.0981101204538037
42
1.47991073131577
0
ELLIPSE
5
134
100
AcDbEntity
8
1
62
256
6
ByLayer
370
18
48
1
60
0
100
AcDbEllipse
10
16.809002
20
9.978454
30
0
11
-2.18188300502946
21
-0.964353729370542
31
0
210
0
220
0
230
1
40
0.835325
41
-2.3320637474596
42
-2.21708878628411
0
ELLIPSE
5
135
100
AcDbEntity
8
1
62
256
6
ByLayer
370
18
48
1
60
0
100
AcDbEllipse
10
22.808249
20
13.190288
30
0
11
-1.54105725665932
21
1.11136966495722
31
0
210
0
220
0
230
1
40
0.979574
41
0
42
0.335765614542271
0
ELLIPSE
5
136
100
AcDbEntity
8
1
62
256
6
ByLayer
370
18
48
1
60
0
100
AcDbEllipse
10
19.766579
20
5.527506
30
0
11
-2.02770691610687
21
1.46232850699569
31
0
210
0
220
0
230
1
40
0.979574
41
-1.66787418780133
42
-0.524479554649375
0
ELLIPSE
5
137
100
AcDbEntity
8
1
62
256
6
ByLayer
370
18
48
1
60
0
100
AcDbEllipse
10
19.835848
20
5.623556
30
0
11
-0.93655770707177
21
0.675420605738331
31
0
210
0
220
0
230
1
40
0.979574
41
0.351782888769421
42
1.39898043996658
0
ELLIPSE
5
138
100
AcDbEntity
8
1
62
256
6
ByLayer
370
18
48
1
60
0
100
AcDbEllipse
10
26.519756
20
10.184834
30
0
11
-0.643999716595577
21
0.464435533784838
31
0
210
0
220
0
230
1
40
0.979574
41
3.14159265358979
42
-2.6130951781388
0
ELLIPSE
5
139
100
AcDbEntity
8
1
62
256
6
ByLayer
370
18
48
1
60
0
100
AcDbEllipse
10
22.437113
20
13.25321
30
0
11
-1.41946145590386
21
1.02367799571246
31
0
210
0
220
0
230
1
40
0.979574
41
-3.13067070057932
42
-2.64625915692354
0
ELLIPSE
5
13A
100
AcDbEntity
8
1
62
256
6
ByLayer
370
18
48
1
60
0
100
AcDbEllipse
10
22.879367
20
13.866452
30
0
11
-1.54511267007321
21
1.11429432233105
31
0
210
0
220
0
230
1
40
0.979574
41
0.703030400720227
42
3.14159265358979
0
ELLIPSE
5
13B
100
AcDbEntity
8
1
62
256
6
ByLayer
370
18
48
1
60
0
100
AcDbEllipse
10
16.682842
20
9.803517
30
0
11
-1.70327380952962
21
1.22835594587661
31
0
210
0
220
0
230
1
40
0.979574
41
-1.41172649593909
42
-0.161995635137216
0
ELLIPSE
5
13C
100
AcDbEntity
8
1
62
256
6
ByLayer
370
18
48
1
60
0
100
AcDbEllipse
10
26.066568
20
9.372799
30
0
11
-9.08412695343625
21
6.55123174851464
31
0
210
0
220
0
230
1
40
0.979574
41
0.649943638635466
42
0.73714965050277
0
ELLIPSE
5
13D
100
AcDbEntity
8
1
62
256
6
ByLayer
370
18
48
1
60
0
100
AcDbEllipse
10
14.945221
20
12.179219
30
0
11
-0.799506761448947
21
-0.0280880473561242
31
0
210
0
220
0
230
1
40
0.160086
41
0.744644755998863
42
1.44720857949255
0
ELLIPSE
5
13E
100
AcDbEntity
8
1
62
256
6
ByLayer
370
18
48
1
60
0
100
AcDbEllipse
10
10.674359
20
2.352898
30
0
11
-3.69954649568095
21
0.0579508362470448
31
0
210
0
220
0
230
1
40
1
41
3.12675463111184
42
-3.12592962719452
0
ELLIPSE
5
13F
100
AcDbEntity
8
1
62
256
6
ByLayer
370
18
48
1
60
0
100
AcDbEllipse
10
8.003194
20
11.944414
30
0
11
-5.59647108846797
21
4.03602667929228
31
0
210
0
220
0
230
1
40
0.979574
41
-2.49164901924472
42
-1.63663560586564
0
ELLIPSE
5
140
100
AcDbEntity
8
1
62
256
6
ByLayer
370
18
48
1
60
0
100
AcDbEllipse
10
32.697612
20
-1.191382
30
0
11
-23.4041663820281
21
18.5996163591759
31
0
210
0
220
0
230
1
40
0.127196
41
-0.378270615324052
42
-0.287393440185695
0
ELLIPSE
5
141
100
AcDbEntity
8
1
62
256
6
ByLayer
370
18
48
1
60
0
100
AcDbEllipse
10
19.76658
20
5.527506
30
0
11
-2.02770630666317
21
1.46232909332176
31
0
210
0
220
0
230
1
40
0.979574
41
-1.70433603053066
42
-1.66787385378283
0
POINT
5
6C
100
AcDbEntity
8
80
62
256
6
ByLayer
370
13
48
1
60
0
100
AcDbPoint
10
0
20
0
30
0
39
0
210
0
220
0
230
1
50
360
0
POINT
5
6E
100
AcDbEntity
8
81
62
256
6
ByLayer
370
13
48
1
60
0
100
AcDbPoint
10
28
20
19
30
0
39
0
210
0
220
0
230
1
50
360
0
SPLINE
5
142
100
AcDbEntity
8
1
62
256
6
ByLayer
370
18
48
1
60
0
100
AcDbSpline
70
4
71
2
72
6
73
3
40
0
40
0
40
0
40
1
40
1
40
1
41
1
10
17.3689813196751
20
11.8755650622337
30
-0.666966603838595
41
1
10
17.369135563158
20
11.8772305776767
30
-0.658558007434894
41
1
10
17.3702376628882
20
11.8785937482369
30
-0.650189324313228
0
SPLINE
5
143
100
AcDbEntity
8
1
62
256
6
ByLayer
370
18
48
1
60
0
100
AcDbSpline
70
4
71
1
72
4
73
2
40
0
40
0
40
1
40
1
41
1
10
0.268331828749787
20
12.2643869809201
30
0
41
1
10
-0.270999999999999
20
11.6989599537737
30
0
0
SPLINE
5
144
100
AcDbEntity
8
1
62
256
6
ByLayer
370
18
48
1
60
0
100
AcDbSpline
70
4
71
3
72
11
73
7
40
0
40
0
40
0
40
0
40
0.264539885627778
40
0.534812639314706
40
0.765273399305973
40
1
40
1
40
1
40
1
41
1
10
20.647856080402
20
6.41199793040245
30
0
41
1
10
20.5487228810156
20
6.43447244285486
30
0
41
1
10
20.3484450218368
20
6.48310085206711
30
0
41
1
10
20.0581983076655
20
6.56202121956427
30
0
41
1
10
19.7868464368828
20
6.64599482562222
30
0
41
1
10
19.6221930869142
20
6.70127234201375
30
0
41
1
10
19.5406759246974
20
6.7299356997622
30
0
0
SPLINE
5
145
100
AcDbEntity
8
1
62
256
6
ByLayer
370
18
48
1
60
0
100
AcDbSpline
70
4
71
1
72
4
73
2
40
0
40
0
40
1
40
1
41
1
10
0.268331828749732
20
11.9256996731398
30
0
41
1
10
-0.271
20
11.4458797826991
30
0
0
SPLINE
5
146
100
AcDbEntity
8
1
62
256
6
ByLayer
370
18
48
1
60
0
100
AcDbSpline
70
4
71
1
72
4
73
2
40
0
40
0
40
1
40
1
41
1
10
0.268331828749786
20
11.8428081509546
30
0
41
1
10
-0.270999999999999
20
11.1868522829257
30
0
0
SPLINE
5
147
100
AcDbEntity
8
1
62
256
6
ByLayer
370
18
48
1
60
0
100
AcDbSpline
70
4
71
3
72
11
73
7
40
0
40
0
40
0
40
0
40
0.24652643930841
40
0.494384046030033
40
0.746467221578925
40
1
40
1
40
1
40
1
41
1
10
0.268331828749787
20
2.49876249156745
30
0
41
1
10
0.215049138641737
20
2.0904151554602
30
0
41
1
10
0.134534050048698
20
1.26952935194267
30
0
41
1
10
0.0917702246293621
20
0.0211511880603999
30
0
41
1
10
0.131931211675351
20
-1.23915001486168
30
0
41
1
10
0.213521442329594
20
-2.07876453007922
30
0
41
1
10
0.268331828749786
20
-2.49876249156745
30
0
0
SPLINE
5
148
100
AcDbEntity
8
1
62
256
6
ByLayer
370
18
48
1
60
0
100
AcDbSpline
70
4
71
3
72
17
73
13
40
0
40
0
40
0
40
0
40
0.0985089619500022
40
0.197017926774309
40
0.297686182911735
40
0.398354441858757
40
0.511072865829459
40
0.623791293251739
40
0.739784062035594
40
0.855776832896407
40
0.927786430194922
40
1
40
1
40
1
40
1
41
1
10
5.729
20
16.2569306445677
30
0
41
1
10
5.72445347590477
20
16.0341244667492
30
0
41
1
10
5.71518366086966
20
15.5690929855239
30
0
41
1
10
5.7006234346127
20
14.8060593702765
30
0
41
1
10
5.68545383537791
20
13.9812103131788
30
0
41
1
10
5.66908837883981
20
13.0625151230265
30
0
41
1
10
5.65162951770843
20
12.0533680694593
30
0
41
1
10
5.63293409806981
20
10.943681315432
30
0
41
1
10
5.6137257925997
20
9.77622820285428
30
0
41
1
10
5.59659585502255
20
8.71241615591507
30
0
41
1
10
5.58187743043552
20
7.78335834339913
30
0
41
1
10
5.5737254047802
20
7.2624667597767
30
0
41
1
10
5.5696425923718
20
7
30
0
0
SPLINE
5
149
100
AcDbEntity
8
1
62
256
6
ByLayer
370
18
48
1
60
0
100
AcDbSpline
70
4
71
3
72
28
73
24
40
0
40
0
40
0
40
0
40
0.0231006776084832
40
0.0906666919453156
40
0.164355383353284
40
0.206540558598131
40
0.248720113274655
40
0.290836646908488
40
0.332977220651708
40
0.376240121960627
40
0.419529078771841
40
0.470521204778439
40
0.521525426716941
40
0.580676674428473
40
0.639749837305683
40
0.683643882448378
40
0.727514415138171
40
0.771433018972868
40
0.815374089070486
40
0.859388529670494
40
0.903423452186778
40
0.954230062691957
40
1
40
1
40
1
40
1
41
1
10
17.6700302879497
20
6.86413436944861
30
0
41
1
10
17.6346886657369
20
6.81516795735529
30
0
41
1
10
17.5024576094684
20
6.61854589931214
30
0
41
1
10
17.3022453779061
20
6.22812500761244
30
0
41
1
10
17.1743733921929
20
5.74316337215771
30
0
41
1
10
17.1487055579082
20
5.31512024308541
30
0
41
1
10
17.1779082088153
20
4.97570480536909
30
0
41
1
10
17.2585798526461
20
4.65051461339076
30
0
41
1
10
17.3855547900478
20
4.34418111460105
30
0
41
1
10
17.5566496918113
20
4.06370956837403
30
0
41
1
10
17.7781813625982
20
3.79719820050753
30
0
41
1
10
18.0514186944195
20
3.55601762147777
30
0
41
1
10
18.3937505400973
20
3.3366392896191
30
0
41
1
10
18.7929965446283
20
3.16241219684804
30
0
41
1
10
19.2088954048667
20
3.05509421553247
30
0
41
1
10
19.602862704769
20
3.01125981387174
30
0
41
1
10
19.9607413881164
20
3.01396230567178
30
0
41
1
10
20.312290504341
20
3.06200989654973
30
0
41
1
10
20.6481401897743
20
3.15292476054268
30
0
41
1
10
20.9600880974847
20
3.28644305600205
30
0
41
1
10
21.2588796839949
20
3.4676686649885
30
0
41
1
10
21.5258141521834
20
3.6950161077508
30
0
41
1
10
21.6810838615991
20
3.87834294503394
30
0
41
1
10
21.7486090009138
20
3.97159930319492
30
0
0
SPLINE
5
14A
100
AcDbEntity
8
1
62
256
6
ByLayer
370
18
48
1
60
0
100
AcDbSpline
70
4
71
3
72
10
73
6
40
0
40
0
40
0
40
0
40
0.0662335264443405
40
0.775223130619431
40
1
40
1
40
1
40
1
41
1
10
21.7486090009138
20
3.97159930319492
30
0
41
1
10
21.755998985727
20
3.98184410501611
30
0
41
1
10
21.8414801197493
20
4.10251189824273
30
0
41
1
10
21.936986714492
20
4.27180886719722
30
0
41
1
10
22.0082675723134
20
4.44008468048389
30
0
41
1
10
22.0244215930209
20
4.48131155175256
30
0
0
SPLINE
5
14B
100
AcDbEntity
8
1
62
256
6
ByLayer
370
18
48
1
60
0
100
AcDbSpline
70
4
71
1
72
4
73
2
40
0
40
0
40
1
40
1
41
1
10
-0.270999999999999
20
-5.90915933107239
30
0
41
1
10
0.268331828737729
20
-6.43906530842516
30
0
0
SPLINE
5
14C
100
AcDbEntity
8
1
62
256
6
ByLayer
370
18
48
1
60
0
100
AcDbSpline
70
4
71
3
72
10
73
6
40
0
40
0
40
0
40
0
40
0.193164622767957
40
0.601821292121591
40
1
40
1
40
1
40
1
41
1
10
7.06781567411447
20
-9.11229571126482
30
0
41
1
10
7.0573835287545
20
-9.14968285752937
30
0
41
1
10
7.02810646449467
20
-9.25509740694502
30
0
41
1
10
6.99697084051051
20
-9.37429549978621
30
0
41
1
10
6.98861149388337
20
-9.4063545528663
30
0
41
1
10
6.98874699471502
20
-9.40685424818404
30
0
0
SPLINE
5
14D
100
AcDbEntity
8
1
62
256
6
ByLayer
370
18
48
1
60
0
100
AcDbSpline
70
4
71
1
72
4
73
2
40
0
40
0
40
1
40
1
41
1
10
-0.271
20
-11.5138249074754
30
0
41
1
10
0.268331828749786
20
-12.1200720484261
30
0
0
SPLINE
5
14E
100
AcDbEntity
8
1
62
256
6
ByLayer
370
18
48
1
60
0
100
AcDbSpline
70
4
71
3
72
15
73
11
40
0
40
0
40
0
40
0
40
0.0735794556667167
40
0.11733741278337
40
0.161512553787526
40
0.201285889870517
40
0.24698378060107
40
0.324285439557598
40
0.552206145790148
40
1
40
1
40
1
40
1
41
1
10
0.268331828749784
20
-3.70548291117107
30
0
41
1
10
0.273172716641094
20
-3.71323795227819
30
0
41
1
10
0.28166054958392
20
-3.7237377024234
30
0
41
1
10
0.294994108695783
20
-3.7353920396432
30
0
41
1
10
0.3065925502552
20
-3.7401121186169
30
0
41
1
10
0.317722482983439
20
-3.73821805832588
30
0
41
1
10
0.328848612210122
20
-3.72863089765878
30
0
41
1
10
0.344838890609898
20
-3.69670939973572
30
0
41
1
10
0.35765206425487
20
-3.61043940822512
30
0
41
1
10
0.362696847142528
20
-3.53212662877286
30
0
41
1
10
0.359189874572747
20
-3.47602307280855
30
0
0
SPLINE
5
14F
100
AcDbEntity
8
1
62
256
6
ByLayer
370
18
48
1
60
0
100
AcDbSpline
70
4
71
3
72
13
73
9
40
0
40
0
40
0
40
0
40
0.149464143876532
40
0.363612188331076
40
0.548112532230936
40
0.705883740863976
40
0.950782481439596
40
1
40
1
40
1
40
1
41
1
10
0.268331828747552
20
-9.35673441585203
30
0
41
1
10
0.275876398904204
20
-9.36307721718944
30
0
41
1
10
0.29367102539421
20
-9.37606033690238
30
0
41
1
10
0.320471309038488
20
-9.38904365822945
30
0
41
1
10
0.341560184544499
20
-9.38772214718415
30
0
41
1
10
0.355319137588385
20
-9.37417993703803
30
0
41
1
10
0.359029878973051
20
-9.35614597888582
30
0
41
1
10
0.359350816121376
20
-9.34292465102794
30
0
41
1
10
0.359330919657438
20
-9.3406434783726
30
0
0
SPLINE
5
150
100
AcDbEntity
8
1
62
256
6
ByLayer
370
18
48
1
60
0
100
AcDbSpline
70
4
71
1
72
4
73
2
40
0
40
0
40
1
40
1
41
1
10
12.5003221828211
20
-2.40960913759676
30
0
41
1
10
12.198556782472
20
-2.54420638840401
30
0
0
SPLINE
5
151
100
AcDbEntity
8
1
62
256
6
ByLayer
370
18
48
1
60
0
100
AcDbSpline
70
4
71
1
72
4
73
2
40
0
40
0
40
1
40
1
41
1
10
0.268331828749773
20
12.2804409357516
30
0
41
1
10
-0.271
20
11.7489643798932
30
0
0
SPLINE
5
152
100
AcDbEntity
8
1
62
256
6
ByLayer
370
18
48
1
60
0
100
AcDbSpline
70
4
71
1
72
4
73
2
40
0
40
0
40
1
40
1
41
1
10
0.268331828746514
20
8.12819294108558
30
0
41
1
10
-0.271
20
7.66457200370639
30
0
0
SPLINE
5
153
100
AcDbEntity
8
1
62
256
6
ByLayer
370
18
48
1
60
0
100
AcDbSpline
70
4
71
3
72
11
73
7
40
0
40
0
40
0
40
0
40
0.257943983127842
40
0.516399011830489
40
0.76632679803568
40
1
40
1
40
1
40
1
41
1
10
6.60366972852262
20
-12.1971308101537
30
0
41
1
10
6.60334439040455
20
-12.2296027539853
30
0
41
1
10
6.63322397437229
20
-12.2892222668899
30
0
41
1
10
6.77189636476892
20
-12.3651122926672
30
0
41
1
10
6.98573614220266
20
-12.4168133255526
30
0
41
1
10
7.15245347781117
20
-12.4344963370811
30
0
41
1
10
7.24114485644371
20
-12.439501814212
30
0
0
SPLINE
5
154
100
AcDbEntity
8
1
62
256
6
ByLayer
370
18
48
1
60
0
100
AcDbSpline
70
4
71
3
72
10
73
6
40
0
40
0
40
0
40
0
40
0.230968598894399
40
0.706944253895636
40
1
40
1
40
1
40
1
41
1
10
0.359330919657438
20
-9.3406434783726
30
0
41
1
10
0.358395120404942
20
-9.32331345124477
30
0
41
1
10
0.351339474635245
20
-9.268370157105
30
0
41
1
10
0.316681218812426
20
-9.17613603875909
30
0
41
1
10
0.282961446927155
20
-9.10613792066975
30
0
41
1
10
0.268331828749786
20
-9.07887320461246
30
0
0
SPLINE
5
155
100
AcDbEntity
8
1
62
256
6
ByLayer
370
18
48
1
60
0
100
AcDbSpline
70
4
71
3
72
11
73
7
40
0
40
0
40
0
40
0
40
0.264539885627775
40
0.534812639314705
40
0.765273399305971
40
1
40
1
40
1
40
1
41
1
10
19.0238405524875
20
4.83511457124963
30
0
41
1
10
19.1158132671191
20
4.80271112395781
30
0
41
1
10
19.3054764469881
20
4.73936409403497
30
0
41
1
10
19.5904335369056
20
4.65310898086895
30
0
41
1
10
19.8690171725473
20
4.57916314870052
30
0
41
1
10
20.0432245032663
20
4.53713345778122
30
0
41
1
10
20.1310207081921
20
4.51717680188988
30
0
0
SPLINE
5
156
100
AcDbEntity
8
1
62
256
6
ByLayer
370
18
48
1
60
0
100
AcDbSpline
70
4
71
3
72
11
73
7
40
0
40
0
40
0
40
0
40
0.111264760423337
40
0.38072155763077
40
0.781002584000565
40
1
40
1
40
1
40
1
41
1
10
0.359331568261167
20
-11.5814200468529
30
0
41
1
10
0.359206910240311
20
-11.5779970869357
30
0
41
1
10
0.357275791389273
20
-11.5650578961897
30
0
41
1
10
0.340356229611388
20
-11.527100045096
30
0
41
1
10
0.306741613514429
20
-11.4746029519853
30
0
41
1
10
0.278947205061352
20
-11.4367117769403
30
0
41
1
10
0.268331828749788
20
-11.4229183373424
30
0
0
SPLINE
5
157
100
AcDbEntity
8
1
62
256
6
ByLayer
370
18
48
1
60
0
100
AcDbSpline
70
4
71
1
72
4
73
2
40
0
40
0
40
1
40
1
41
1
10
0.268331828749787
20
12.1200720484261
30
0
41
1
10
-0.270999999999999
20
11.5138249074754
30
0
0
SPLINE
5
158
100
AcDbEntity
8
1
62
256
6
ByLayer
370
18
48
1
60
0
100
AcDbSpline
70
4
71
1
72
4
73
2
40
0
40
0
40
1
40
1
41
1
10
22.6656263756157
20
12.0123001771201
30
0
41
1
10
22.697059228646
20
12.3586167564213
30
0
0
SPLINE
5
159
100
AcDbEntity
8
1
62
256
6
ByLayer
370
18
48
1
60
0
100
AcDbSpline
70
4
71
3
72
17
73
13
40
0
40
0
40
0
40
0
40
0.106849113392978
40
0.213992596234325
40
0.320792559123218
40
0.428219254496958
40
0.536029181692993
40
0.64335200817629
40
0.739822472539165
40
0.836665561929769
40
0.93313995362451
40
1
40
1
40
1
40
1
41
1
10
6.60366972852262
20
-12.1971308101537
30
0
41
1
10
6.60526782673471
20
-12.0513033871931
30
0
41
1
10
6.62068060991284
20
-11.7184849408742
30
0
41
1
10
6.67255825209614
20
-11.0931378510981
30
0
41
1
10
6.7770384669907
20
-10.3521865216783
30
0
41
1
10
6.95439623316934
20
-9.49936556765253
30
0
41
1
10
7.22404867052107
20
-8.55790964056767
30
0
41
1
10
7.58975393066421
20
-7.5848227107302
30
0
41
1
10
8.05859801301742
20
-6.61105269317331
30
0
41
1
10
8.61447678929764
20
-5.66772913039418
30
0
41
1
10
9.20821409296309
20
-4.83612371063593
30
0
41
1
10
9.62983036334517
20
-4.33717049590333
30
0
41
1
10
9.81068968153257
20
-4.13586742051427
30
0
0
SPLINE
5
15A
100
AcDbEntity
8
1
62
256
6
ByLayer
370
18
48
1
60
0
100
AcDbSpline
70
4
71
3
72
11
73
7
40
0
40
0
40
0
40
0
40
0.0819747132127497
40
0.361132569883605
40
0.796525474466891
40
1
40
1
40
1
40
1
41
1
10
0.359330518587408
20
-11.0283357433786
30
0
41
1
10
0.359241260918879
20
-11.0249323147136
30
0
41
1
10
0.357784037726467
20
-11.0091320083731
30
0
41
1
10
0.341633801713008
20
-10.9634344321392
30
0
41
1
10
0.307106097990199
20
-10.901764417126
30
0
41
1
10
0.278228677233261
20
-10.8580487462897
30
0
41
1
10
0.268331828749972
20
-10.8438471855183
30
0
0
SPLINE
5
15B
100
AcDbEntity
8
1
62
256
6
ByLayer
370
18
48
1
60
0
100
AcDbSpline
70
4
71
1
72
4
73
2
40
0
40
0
40
1
40
1
41
1
10
0.268331828749786
20
11.4229183373425
30
0
41
1
10
-0.270999999999999
20
10.7050531993073
30
0
0
SPLINE
5
15C
100
AcDbEntity
8
1
62
256
6
ByLayer
370
18
48
1
60
0
100
AcDbSpline
70
4
71
1
72
4
73
2
40
0
40
0
40
1
40
1
41
1
10
-0.271
20
-11.1868522829257
30
0
41
1
10
0.268331828749786
20
-11.8428081509546
30
0
0
SPLINE
5
15D
100
AcDbEntity
8
1
62
256
6
ByLayer
370
18
48
1
60
0
100
AcDbSpline
70
4
71
3
72
10
73
6
40
0
40
0
40
0
40
0
40
0.682295883440758
40
0.948845624007793
40
1
40
1
40
1
40
1
41
1
10
0.268331828749786
20
5.89600335379707
30
0
41
1
10
0.30476252552809
20
6.00374823065258
30
0
41
1
10
0.339186889874303
20
6.14884338865686
30
0
41
1
10
0.358216652156628
20
6.29935887168923
30
0
41
1
10
0.359250617271179
20
6.34471673938014
30
0
41
1
10
0.359324739626232
20
6.35198220554969
30
0
0
SPLINE
5
15E
100
AcDbEntity
8
1
62
256
6
ByLayer
370
18
48
1
60
0
100
AcDbSpline
70
4
71
1
72
4
73
2
40
0
40
0
40
1
40
1
41
1
10
-0.270999999999999
20
-9.85016060782767
30
0
41
1
10
0.268331828749316
20
-10.2909881629555
30
0
0
SPLINE
5
15F
100
AcDbEntity
8
1
62
256
6
ByLayer
370
18
48
1
60
0
100
AcDbSpline
70
4
71
3
72
14
73
10
40
0
40
0
40
0
40
0
40
0.311119280705491
40
0.454448335434637
40
0.598836965508558
40
0.696103494555985
40
0.793734707138049
40
0.90703676172724
40
1
40
1
40
1
40
1
41
1
10
0.359324739626232
20
6.35198220554969
30
0
41
1
10
0.360269027972214
20
6.37509698464237
30
0
41
1
10
0.357566193310395
20
6.40555562757493
30
0
41
1
10
0.347776921733116
20
6.44131457264661
30
0
41
1
10
0.336182484585253
20
6.45915399987676
30
0
41
1
10
0.320617327429624
20
6.46651775160008
30
0
41
1
10
0.303166472405791
20
6.4644915252724
30
0
41
1
10
0.285038984472248
20
6.45400651391518
30
0
41
1
10
0.273484915513075
20
6.44422746260859
30
0
41
1
10
0.268331828738928
20
6.43906530842197
30
0
0
SPLINE
5
160
100
AcDbEntity
8
1
62
256
6
ByLayer
370
18
48
1
60
0
100
AcDbSpline
70
4
71
1
72
4
73
2
40
0
40
0
40
1
40
1
41
1
10
-0.271
20
-7.66457200370639
30
0
41
1
10
0.268331828746514
20
-8.12819294108558
30
0
0
SPLINE
5
161
100
AcDbEntity
8
1
62
256
6
ByLayer
370
18
48
1
60
0
100
AcDbSpline
70
4
71
3
72
11
73
7
40
0
40
0
40
0
40
0
40
0.137009995627843
40
0.39622888150162
40
0.766738296919913
40
1
40
1
40
1
40
1
41
1
10
0.359331760064767
20
-11.9793990344134
30
0
41
1
10
0.359172312081894
20
-11.9764691337796
30
0
41
1
10
0.356800675964907
20
-11.966329805437
30
0
41
1
10
0.339323236356031
20
-11.9348368029314
30
0
41
1
10
0.306532034699465
20
-11.8896793276495
30
0
41
1
10
0.279603670601431
20
-11.856258689331
30
0
41
1
10
0.268331828749926
20
-11.8428081509529
30
0
0
SPLINE
5
162
100
AcDbEntity
8
1
62
256
6
ByLayer
370
18
48
1
60
0
100
AcDbSpline
70
4
71
3
72
12
73
8
40
0
40
0
40
0
40
0
40
0.191976352451518
40
0.409977497462677
40
0.609555752104411
40
0.883210016354504
40
1
40
1
40
1
40
1
41
1
10
0.359331679926692
20
11.5814485668552
30
0
41
1
10
0.359406194153548
20
11.5862842890075
30
0
41
1
10
0.356716055471138
20
11.5933620614225
30
0
41
1
10
0.343109093604411
20
11.5938489262939
30
0
41
1
10
0.31844671375793
20
11.5818758663026
30
0
41
1
10
0.292026661806298
20
11.5627568304243
30
0
41
1
10
0.273896895405267
20
11.5477971651707
30
0
41
1
10
0.268331828741775
20
11.5430218856492
30
0
0
SPLINE
5
163
100
AcDbEntity
8
1
62
256
6
ByLayer
370
18
48
1
60
0
100
AcDbSpline
70
4
71
3
72
11
73
7
40
0
40
0
40
0
40
0
40
0.425652297409828
40
0.715271558366487
40
0.942938862323267
40
1
40
1
40
1
40
1
41
1
10
0.268331828749786
20
11.8428081509546
30
0
41
1
10
0.289592674416168
20
11.868058088341
30
0
41
1
10
0.319541575238021
20
11.9065203882598
30
0
41
1
10
0.349495602476332
20
11.9517069356899
30
0
41
1
10
0.358541842308442
20
11.9717982382005
30
0
41
1
10
0.359306169822693
20
11.9781885962433
30
0
41
1
10
0.359331525754279
20
11.979353402347
30
0
0
SPLINE
5
164
100
AcDbEntity
8
1
62
256
6
ByLayer
370
18
48
1
60
0
100
AcDbSpline
70
4
71
2
72
6
73
3
40
0
40
0
40
0
40
1
40
1
40
1
41
1
10
0.359189874572747
20
-3.47602307280855
30
0
41
1
10
0.346383745690232
20
-2.99491737130346
30
0
41
1
10
0.268331828749787
20
-2.49876249156745
30
0
0
SPLINE
5
165
100
AcDbEntity
8
1
62
256
6
ByLayer
370
18
48
1
60
0
100
AcDbSpline
70
4
71
1
72
4
73
2
40
0
40
0
40
1
40
1
41
1
10
0.268331828749679
20
11.5430218856523
30
0
41
1
10
-0.271
20
11.0817716995073
30
0
0
SPLINE
5
166
100
AcDbEntity
8
1
62
256
6
ByLayer
370
18
48
1
60
0
100
AcDbSpline
70
4
71
3
72
11
73
7
40
0
40
0
40
0
40
0
40
0.35653514719994
40
0.635491930941153
40
0.862126118559976
40
1
40
1
40
1
40
1
41
1
10
0.268331828749781
20
12.2643869809201
30
0
41
1
10
0.285852283113369
20
12.2825688910374
30
0
41
1
10
0.313208330494372
20
12.3113952849431
30
0
41
1
10
0.343641433543279
20
12.3445753150566
30
0
41
1
10
0.357162738552025
20
12.360500693031
30
0
41
1
10
0.359243073557532
20
12.3639354283892
30
0
41
1
10
0.359331824520903
20
12.3645437457717
30
0
0
SPLINE
5
167
100
AcDbEntity
8
1
62
256
6
ByLayer
370
18
48
1
60
0
100
AcDbSpline
70
4
71
1
72
4
73
2
40
0
40
0
40
1
40
1
41
1
10
23.830844787744
20
15.1553107427556
30
0
41
1
10
23.6701248128944
20
14.9833224601039
30
0
0
SPLINE
5
168
100
AcDbEntity
8
1
62
256
6
ByLayer
370
18
48
1
60
0
100
AcDbSpline
70
4
71
3
72
10
73
6
40
0
40
0
40
0
40
0
40
0.435265736455076
40
0.741631653416012
40
1
40
1
40
1
40
1
41
1
10
0.268331828749754
20
-12.2804409357516
30
0
41
1
10
0.28658211591057
20
-12.2983533087583
30
0
41
1
10
0.313558785675042
20
-12.3244306865986
30
0
41
1
10
0.343890169166364
20
-12.3528584309289
30
0
41
1
10
0.353389011893067
20
-12.3609081906518
30
0
41
1
10
0.356508057771045
20
-12.3632916438505
30
0
0
SPLINE
5
169
100
AcDbEntity
8
1
62
256
6
ByLayer
370
18
48
1
60
0
100
AcDbSpline
70
4
71
1
72
4
73
2
40
0
40
0
40
1
40
1
41
1
10
-0.271
20
-11.6989599537737
30
0
41
1
10
0.268331828749786
20
-12.2643869809201
30
0
0
SPLINE
5
16A
100
AcDbEntity
8
1
62
256
6
ByLayer
370
18
48
1
60
0
100
AcDbSpline
70
4
71
1
72
4
73
2
40
0
40
0
40
1
40
1
41
1
10
21.4551153761196
20
7.29917889436245
30
0
41
1
10
21.3864606959283
20
7.37097942790959
30
0
0
SPLINE
5
16B
100
AcDbEntity
8
1
62
256
6
ByLayer
370
18
48
1
60
0
100
AcDbSpline
70
4
71
3
72
12
73
8
40
0
40
0
40
0
40
0
40
0.149560785128422
40
0.364720931774401
40
0.569120585865857
40
0.858729366242794
40
1
40
1
40
1
40
1
41
1
10
0.35933152575428
20
11.979353402347
30
0
41
1
10
0.359359245302588
20
11.9820272558659
30
0
41
1
10
0.357411336226779
20
11.9863324591018
30
0
41
1
10
0.346129828879947
20
11.9845194025845
30
0
41
1
10
0.322469129568546
20
11.9704225303163
30
0
41
1
10
0.294847551375096
20
11.948768616163
30
0
41
1
10
0.275053863626233
20
11.9316854344225
30
0
41
1
10
0.268331828735598
20
11.9256996731331
30
0
0
SPLINE
5
16C
100
AcDbEntity
8
1
62
256
6
ByLayer
370
18
48
1
60
0
100
AcDbSpline
70
4
71
1
72
4
73
2
40
0
40
0
40
1
40
1
41
1
10
10.9239360813537
20
17.48920344195
30
0
41
1
10
10.8741168364642
20
17.5092640374562
30
0
0
SPLINE
5
16D
100
AcDbEntity
8
1
62
256
6
ByLayer
370
18
48
1
60
0
100
AcDbSpline
70
4
71
1
72
4
73
2
40
0
40
0
40
1
40
1
41
1
10
21.9992185767248
20
12.6256295167339
30
0
41
1
10
21.7898017973824
20
12.3812941848352
30
0
0
SPLINE
5
16E
100
AcDbEntity
8
1
62
256
6
ByLayer
370
18
48
1
60
0
100
AcDbSpline
70
4
71
3
72
13
73
9
40
0
40
0
40
0
40
0
40
0.148757804846928
40
0.339113122076509
40
0.531100495813499
40
0.700205697517759
40
0.858219270085284
40
1
40
1
40
1
40
1
41
1
10
0.359322960709026
20
9.33957028487366
30
0
41
1
10
0.359528396515929
20
9.34671142013037
30
0
41
1
10
0.358350304356788
20
9.36138320538777
30
0
41
1
10
0.351572442543473
20
9.38028818629837
30
0
41
1
10
0.335682204535828
20
9.3897257289281
30
0
41
1
10
0.313446476528048
20
9.38604257558647
30
0
41
1
10
0.290375431911951
20
9.3736590169433
30
0
41
1
10
0.275512447796064
20
9.36274468205872
30
0
41
1
10
0.268331828748687
20
9.35673441585247
30
0
0
SPLINE
5
16F
100
AcDbEntity
8
1
62
256
6
ByLayer
370
18
48
1
60
0
100
AcDbSpline
70
4
71
2
72
6
73
3
40
0
40
0
40
0
40
1
40
1
40
1
41
1
10
-0.271
20
-6.41546288275445
30
0
41
1
10
-0.0200544979018922
20
-7.09581668810056
30
0
41
1
10
0.268331828749787
20
-7.75608774490775
30
0
0
SPLINE
5
170
100
AcDbEntity
8
1
62
256
6
ByLayer
370
18
48
1
60
0
100
AcDbSpline
70
4
71
1
72
4
73
2
40
0
40
0
40
1
40
1
41
1
10
-0.271
20
-10.0461765861446
30
0
41
1
10
0.268331828749786
20
-10.8438471855183
30
0
0
SPLINE
5
171
100
AcDbEntity
8
1
62
256
6
ByLayer
370
18
48
1
60
0
100
AcDbSpline
70
4
71
3
72
12
73
8
40
0
40
0
40
0
40
0
40
0.0798518267711881
40
0.399570910818936
40
0.722000206808129
40
0.931189010703108
40
1
40
1
40
1
40
1
41
1
10
0.35933033357832
20
8.08505542682335
30
0
41
1
10
0.359351028161635
20
8.08797534119764
30
0
41
1
10
0.35911155209738
20
8.10231655778711
30
0
41
1
10
0.356274243702644
20
8.1266234162627
30
0
41
1
10
0.345400519919736
20
8.1486916137632
30
0
41
1
10
0.331230225668046
20
8.15557079450896
30
0
41
1
10
0.323376853760051
20
8.15587850657044
30
0
41
1
10
0.321346378447235
20
8.15579876082247
30
0
0
SPLINE
5
172
100
AcDbEntity
8
1
62
256
6
ByLayer
370
18
48
1
60
0
100
AcDbSpline
70
4
71
1
72
4
73
2
40
0
40
0
40
1
40
1
41
1
10
0.268331828749787
20
9.07887320461246
30
0
41
1
10
-0.271
20
8.01284368997674
30
0
0
SPLINE
5
173
100
AcDbEntity
8
1
62
256
6
ByLayer
370
18
48
1
60
0
100
AcDbSpline
70
4
71
3
72
14
73
10
40
0
40
0
40
0
40
0
40
0.0996154407625892
40
0.267437284859878
40
0.436759286694817
40
0.605957643343001
40
0.750603509775466
40
0.895258742130311
40
1
40
1
40
1
40
1
41
1
10
8.9981548356322
20
-5.22373225629009
30
0
41
1
10
8.91505411142378
20
-5.341372087601
30
0
41
1
10
8.70079914305438
20
-5.66197509800933
30
0
41
1
10
8.38479892911637
20
-6.2127348352144
30
0
41
1
10
8.08649071679866
20
-6.86731970560006
30
0
41
1
10
7.86658161548904
20
-7.47923917839346
30
0
41
1
10
7.71872361614017
20
-8.01669111607583
30
0
41
1
10
7.63170747679952
20
-8.42864178492743
30
0
41
1
10
7.59392159676287
20
-8.65005287000929
30
0
41
1
10
7.58139735418452
20
-8.73688698819574
30
0
0
SPLINE
5
174
100
AcDbEntity
8
1
62
256
6
ByLayer
370
18
48
1
60
0
100
AcDbSpline
70
4
71
1
72
4
73
2
40
0
40
0
40
1
40
1
41
1
10
-0.270999999999999
20
-8.9133699575413
30
0
41
1
10
0.268331828748651
20
-9.35673441585294
30
0
0
SPLINE
5
175
100
AcDbEntity
8
1
62
256
6
ByLayer
370
18
48
1
60
0
100
AcDbSpline
70
4
71
3
72
12
73
8
40
0
40
0
40
0
40
0
40
0.0676024576778906
40
0.264903164272333
40
0.529235516313706
40
0.892569878405942
40
1
40
1
40
1
40
1
41
1
10
0.359331781776571
20
-12.364539075899
30
0
41
1
10
0.359317067357932
20
-12.3642735663434
30
0
41
1
10
0.358552845086075
20
-12.3625286586241
30
0
41
1
10
0.350862758840422
20
-12.3528260040261
30
0
41
1
10
0.326154303002366
20
-12.3252777418964
30
0
41
1
10
0.295007920137607
20
-12.2921866755954
30
0
41
1
10
0.273408859506754
20
-12.2696599792873
30
0
41
1
10
0.268331828749665
20
-12.2643869809199
30
0
0
SPLINE
5
176
100
AcDbEntity
8
1
62
256
6
ByLayer
370
18
48
1
60
0
100
AcDbSpline
70
4
71
1
72
4
73
2
40
0
40
0
40
1
40
1
41
1
10
0.268331828749316
20
10.2909881629555
30
0
41
1
10
-0.271
20
9.85016060782767
30
0
0
SPLINE
5
177
100
AcDbEntity
8
1
62
256
6
ByLayer
370
18
48
1
60
0
100
AcDbSpline
70
4
71
3
72
11
73
7
40
0
40
0
40
0
40
0
40
0.226193530646294
40
0.459685087549644
40
0.819855645385856
40
1
40
1
40
1
40
1
41
1
10
0.358245292003569
20
12.3644456612012
30
0
41
1
10
0.35637492869199
20
12.3632943347409
30
0
41
1
10
0.349951284318701
20
12.3582021495976
30
0
41
1
10
0.327456842114182
20
12.3376214053285
30
0
41
1
10
0.298315730382623
20
12.309690087183
30
0
41
1
10
0.276090553216698
20
12.2880419707856
30
0
41
1
10
0.268331828743162
20
12.2804409357459
30
0
0
SPLINE
5
178
100
AcDbEntity
8
1
62
256
6
ByLayer
370
18
48
1
60
0
100
AcDbSpline
70
4
71
3
72
12
73
8
40
0
40
0
40
0
40
0
40
0.0790223359713983
40
0.292848471955131
40
0.498904688148981
40
0.792562107831151
40
1
40
1
40
1
40
1
41
1
10
0.359331764949133
20
12.2375004848054
30
0
41
1
10
0.359336278476157
20
12.2383440066074
30
0
41
1
10
0.358465935135028
20
12.2405339111161
30
0
41
1
10
0.350964922990126
20
12.2381469608872
30
0
41
1
10
0.329925748210446
20
12.2231972307218
30
0
41
1
10
0.300843725704081
20
12.1984942948418
30
0
41
1
10
0.278263045943676
20
12.177995685096
30
0
41
1
10
0.268331828749749
20
12.1687415592248
30
0
0
SPLINE
5
179
100
AcDbEntity
8
1
62
256
6
ByLayer
370
18
48
1
60
0
100
AcDbSpline
70
4
71
3
72
12
73
8
40
0
40
0
40
0
40
0
40
0.25446371295192
40
0.508720807296642
40
0.719815382916435
40
0.930650857838956
40
1
40
1
40
1
40
1
41
1
10
11.9879852684112
20
-2.64696129829802
30
0
41
1
10
11.7086144182772
20
-2.78671638240378
30
0
41
1
10
11.1607604849579
20
-3.10617621550452
30
0
41
1
10
10.4061050826033
20
-3.66914670071776
30
0
41
1
10
9.73965328445351
20
-4.29946888676565
30
0
41
1
10
9.29063564127197
20
-4.82312209403716
30
0
41
1
10
9.05532144667728
20
-5.14312624656754
30
0
41
1
10
8.9981548356322
20
-5.22373225629009
30
0
0
SPLINE
5
17A
100
AcDbEntity
8
1
62
256
6
ByLayer
370
18
48
1
60
0
100
AcDbSpline
70
4
71
1
72
4
73
2
40
0
40
0
40
1
40
1
41
1
10
0.26833182874957
20
11.0061526343845
30
0
41
1
10
-0.271
20
10.5583220257766
30
0
0
SPLINE
5
17B
100
AcDbEntity
8
1
62
256
6
ByLayer
370
18
48
1
60
0
100
AcDbSpline
70
4
71
3
72
12
73
8
40
0
40
0
40
0
40
0
40
0.128654908885326
40
0.378323283420719
40
0.634087980293302
40
0.81612851595086
40
1
40
1
40
1
40
1
41
1
10
20.1310207081921
20
4.51717680188988
30
0
41
1
10
20.1633046205072
20
4.54782700592645
30
0
41
1
10
20.2594822574508
20
4.63941269157751
30
0
41
1
10
20.4271198544458
20
4.80018200470227
30
0
41
1
10
20.6170650958777
20
4.98467253189179
30
0
41
1
10
20.7905266472861
20
5.15488385269305
30
0
41
1
10
20.8920438008679
20
5.2551089377872
30
0
41
1
10
20.9430284721493
20
5.3056184814663
30
0
0
SPLINE
5
17C
100
AcDbEntity
8
1
62
256
6
ByLayer
370
18
48
1
60
0
100
AcDbSpline
70
4
71
3
72
11
73
7
40
0
40
0
40
0
40
0
40
0.443633486343179
40
0.732053808549952
40
0.946833696505433
40
1
40
1
40
1
40
1
41
1
10
21.068824049813
20
13.4079495490469
30
0
41
1
10
21.0680938180405
20
13.415095069184
30
0
41
1
10
21.066746222436
20
13.4245322398706
30
0
41
1
10
21.064794323728
20
13.4335642046758
30
0
41
1
10
21.0634265705609
20
13.4349458886358
30
0
41
1
10
21.0627510870912
20
13.4342552677479
30
0
41
1
10
21.0626156981401
20
13.4340709645772
30
0
0
SPLINE
5
17D
100
AcDbEntity
8
1
62
256
6
ByLayer
370
18
48
1
60
0
100
AcDbSpline
70
4
71
1
72
4
73
2
40
0
40
0
40
1
40
1
41
1
10
7.58139735418452
20
-8.73688698819574
30
0
41
1
10
7.52022998518896
20
-9.24954419573091
30
0
0
SPLINE
5
17E
100
AcDbEntity
8
1
62
256
6
ByLayer
370
18
48
1
60
0
100
AcDbSpline
70
4
71
1
72
4
73
2
40
0
40
0
40
1
40
1
41
1
10
5.5696425923718
20
7
30
0
41
1
10
5.53140626742673
20
2.2400614919034
30
0
0
SPLINE
5
17F
100
AcDbEntity
8
1
62
256
6
ByLayer
370
18
48
1
60
0
100
AcDbSpline
70
4
71
3
72
11
73
7
40
0
40
0
40
0
40
0
40
0.305334701178712
40
0.56667053347283
40
0.785166129615088
40
1
40
1
40
1
40
1
41
1
10
0.268331828749724
20
-12.1687415592248
30
0
41
1
10
0.283217655583668
20
-12.1826435743731
30
0
41
1
10
0.308152648795522
20
-12.2049941013474
30
0
41
1
10
0.338093443372224
20
-12.2295124190781
30
0
41
1
10
0.355640806340468
20
-12.2406233998851
30
0
41
1
10
0.359193571016909
20
-12.2397309857166
30
0
41
1
10
0.35933182602309
20
-12.2375190696703
30
0
0
SPLINE
5
180
100
AcDbEntity
8
1
62
256
6
ByLayer
370
18
48
1
60
0
100
AcDbSpline
70
4
71
1
72
4
73
2
40
0
40
0
40
1
40
1
41
1
10
-0.270999999999999
20
-11.665576025212
30
0
41
1
10
0.268331828749759
20
-12.1687415592248
30
0
0
SPLINE
5
181
100
AcDbEntity
8
1
62
256
6
ByLayer
370
18
48
1
60
0
100
AcDbSpline
70
4
71
1
72
4
73
2
40
0
40
0
40
1
40
1
41
1
10
-0.271
20
-8.01284368997674
30
0
41
1
10
0.268331828749787
20
-9.07887320461246
30
0
0
SPLINE
5
182
100
AcDbEntity
8
1
62
256
6
ByLayer
370
18
48
1
60
0
100
AcDbSpline
70
4
71
2
72
6
73
3
40
0
40
0
40
0
40
1
40
1
40
1
41
1
10
-0.271
20
-3.8711321341437
30
0
41
1
10
-0.0500116079329075
20
-4.90085228983692
30
0
41
1
10
0.268331828749787
20
-5.89600335379707
30
0
0
SPLINE
5
183
100
AcDbEntity
8
1
62
256
6
ByLayer
370
18
48
1
60
0
100
AcDbSpline
70
4
71
1
72
4
73
2
40
0
40
0
40
1
40
1
41
1
10
0.268331828737728
20
6.43906530842516
30
0
41
1
10
-0.271
20
5.90915933107238
30
0
0
SPLINE
5
184
100
AcDbEntity
8
1
62
256
6
ByLayer
370
18
48
1
60
0
100
AcDbSpline
70
4
71
3
72
12
73
8
40
0
40
0
40
0
40
0
40
0.246906046477899
40
0.485032711050468
40
0.724878208682945
40
0.929066725912394
40
1
40
1
40
1
40
1
41
1
10
0.268331828749559
20
-11.5430218856522
30
0
41
1
10
0.280380192303282
20
-11.5534371238155
30
0
41
1
10
0.302394949583325
20
-11.5708114950484
30
0
41
1
10
0.332501154433368
20
-11.5899306836977
30
0
41
1
10
0.352440182646723
20
-11.5953422966892
30
0
41
1
10
0.358712360812285
20
-11.5891002928852
30
0
41
1
10
0.359352312878322
20
-11.5831506043792
30
0
41
1
10
0.359331568261167
20
-11.5814200468529
30
0
0
SPLINE
5
185
100
AcDbEntity
8
1
62
256
6
ByLayer
370
18
48
1
60
0
100
AcDbSpline
70
4
71
1
72
4
73
2
40
0
40
0
40
1
40
1
41
1
10
-0.271
20
-9.17214064436432
30
0
41
1
10
0.268331828749787
20
-10.0781933015869
30
0
0
SPLINE
5
186
100
AcDbEntity
8
1
62
256
6
ByLayer
370
18
48
1
60
0
100
AcDbSpline
70
4
71
3
72
13
73
9
40
0
40
0
40
0
40
0
40
0.0780620867939297
40
0.288567872222577
40
0.500735129592156
40
0.682348981822423
40
0.910668274426202
40
1
40
1
40
1
40
1
41
1
10
0.359330476521842
20
10.295499528587
30
0
41
1
10
0.359374606357397
20
10.2985211896028
30
0
41
1
10
0.3587798524914
20
10.3089323149146
30
0
41
1
10
0.353561212148358
20
10.3234416019677
30
0
41
1
10
0.337034573258176
20
10.3291690565376
30
0
41
1
10
0.311806866284275
20
10.3215651514505
30
0
41
1
10
0.287942285079807
20
10.3064367634574
30
0
41
1
10
0.272684972960679
20
10.2945743105251
30
0
41
1
10
0.268331828742693
20
10.2909881629533
30
0
0
SPLINE
5
187
100
AcDbEntity
8
1
62
256
6
ByLayer
370
18
48
1
60
0
100
AcDbSpline
70
4
71
3
72
16
73
12
40
0
40
0
40
0
40
0
40
0.352985857982922
40
0.621519473612004
40
0.721231930147988
40
0.769202152083001
40
0.809849657609702
40
0.850732707032882
40
0.895624161793652
40
0.96832010342409
40
1
40
1
40
1
40
1
41
1
10
0.359291388638549
20
3.48781576225671
30
0
41
1
10
0.360840731741423
20
3.52984020604315
30
0
41
1
10
0.357534519502306
20
3.60052771636161
30
0
41
1
10
0.348474740895321
20
3.68156293791815
30
0
41
1
10
0.333407105297619
20
3.72145576095362
30
0
41
1
10
0.322620749571169
20
3.73475689772062
30
0
41
1
10
0.312944513689874
20
3.73978465904794
30
0
41
1
10
0.30195239689772
20
3.73889399965949
30
0
41
1
10
0.288416298230937
20
3.73079597473621
30
0
41
1
10
0.277307023014169
20
3.71821990158473
30
0
41
1
10
0.270357985012946
20
3.70857329286722
30
0
41
1
10
0.268331828739255
20
3.705482911157
30
0
0
SPLINE
5
188
100
AcDbEntity
8
1
62
256
6
ByLayer
370
18
48
1
60
0
100
AcDbSpline
70
4
71
3
72
12
73
8
40
0
40
0
40
0
40
0
40
0.182182688616099
40
0.365910080432756
40
0.615264866624086
40
0.871345538725037
40
1
40
1
40
1
40
1
41
1
10
19.5406759246974
20
6.7299356997622
30
0
41
1
10
19.4901613175132
20
6.67989208755902
30
0
41
1
10
19.388648278741
20
6.57966818710697
30
0
41
1
10
19.2169644919002
20
6.41119528970779
30
0
41
1
10
19.0265389340294
20
6.22620801109729
30
0
41
1
10
18.8587559356008
20
6.0652783746723
30
0
41
1
10
18.7609518950896
20
5.97214380305919
30
0
41
1
10
18.7286681607401
20
5.94149402018578
30
0
0
SPLINE
5
189
100
AcDbEntity
8
1
62
256
6
ByLayer
370
18
48
1
60
0
100
AcDbSpline
70
4
71
1
72
4
73
2
40
0
40
0
40
1
40
1
41
1
10
-0.270999999999999
20
-11.7489643798932
30
0
41
1
10
0.268331828749773
20
-12.2804409357516
30
0
0
SPLINE
5
18A
100
AcDbEntity
8
1
62
256
6
ByLayer
370
18
48
1
60
0
100
AcDbSpline
70
4
71
3
72
13
73
9
40
0
40
0
40
0
40
0
40
0.0621922891537197
40
0.264306131743547
40
0.466407420645824
40
0.699604282998189
40
0.932814792446833
40
1
40
1
40
1
40
1
41
1
10
13.4239949558704
20
-0.12288536293634
30
0
41
1
10
13.4602204178256
20
-0.0826565933071979
30
0
41
1
10
13.6101258352089
20
0.0913055664777764
30
0
41
1
10
13.8456684764176
20
0.4234216592963
30
0
41
1
10
14.100437086511
20
0.91701847627191
30
0
41
1
10
14.283597827167
20
1.46913275782331
30
0
41
1
10
14.3570786385803
20
1.9255443510285
30
0
41
1
10
14.3708992199041
20
2.18247361884174
30
0
41
1
10
14.3726381539996
20
2.2400614919034
30
0
0
SPLINE
5
18B
100
AcDbEntity
8
1
62
256
6
ByLayer
370
18
48
1
60
0
100
AcDbSpline
70
4
71
2
72
6
73
3
40
0
40
0
40
0
40
1
40
1
40
1
41
1
10
5.729
20
17.1421442131008
30
0
41
1
10
5.70590628524588
20
16.8961787763227
30
0
41
1
10
5.69519013364401
20
16.6512672724397
30
0
0
SPLINE
5
18C
100
AcDbEntity
8
1
62
256
6
ByLayer
370
18
48
1
60
0
100
AcDbSpline
70
4
71
3
72
12
73
8
40
0
40
0
40
0
40
0
40
0.215919551436804
40
0.438606705214492
40
0.66281123553469
40
0.855417451380557
40
1
40
1
40
1
40
1
41
1
10
0.268331828749339
20
-11.0061526343843
30
0
41
1
10
0.278941214840419
20
-11.0150943469461
30
0
41
1
10
0.299287206148854
20
-11.0304218172409
30
0
41
1
10
0.32816593393699
20
-11.0469069833105
30
0
41
1
10
0.348843794130803
20
-11.0503247797689
30
0
41
1
10
0.357936067414253
20
-11.0418960092203
30
0
41
1
10
0.359441914104691
20
-11.0329806068844
30
0
41
1
10
0.359330518587408
20
-11.0283357433786
30
0
0
SPLINE
5
18D
100
AcDbEntity
8
1
62
256
6
ByLayer
370
18
48
1
60
0
100
AcDbSpline
70
4
71
2
72
6
73
3
40
0
40
0
40
0
40
1
40
1
40
1
41
1
10
-0.270999999999999
20
-2.82235079322188
30
0
41
1
10
-0.0196435053416781
20
-3.27882475580647
30
0
41
1
10
0.268331828749783
20
-3.70548291117107
30
0
0
SPLINE
5
18E
100
AcDbEntity
8
1
62
256
6
ByLayer
370
18
48
1
60
0
100
AcDbSpline
70
4
71
1
72
4
73
2
40
0
40
0
40
1
40
1
41
1
10
0.268331828749787
20
10.8438471855183
30
0
41
1
10
-0.270999999999999
20
10.0461765861446
30
0
0
SPLINE
5
18F
100
AcDbEntity
8
1
62
256
6
ByLayer
370
18
48
1
60
0
100
AcDbSpline
70
4
71
1
72
4
73
2
40
0
40
0
40
1
40
1
41
1
10
0.26833182874865
20
9.35673441585294
30
0
41
1
10
-0.271
20
8.9133699575413
30
0
0
SPLINE
5
190
100
AcDbEntity
8
1
62
256
6
ByLayer
370
18
48
1
60
0
100
AcDbSpline
70
4
71
3
72
10
73
6
40
0
40
0
40
0
40
0
40
0.554873866463305
40
0.826171516936043
40
1
40
1
40
1
40
1
41
1
10
0.268331828749787
20
10.0781933015869
30
0
41
1
10
0.29704248561194
20
10.1237146656171
30
0
41
1
10
0.329564832630875
20
10.1866767140121
30
0
41
1
10
0.355411467980918
20
10.2591469816994
30
0
41
1
10
0.358910072642566
20
10.2857151880664
30
0
41
1
10
0.359330476521842
20
10.295499528587
30
0
0
SPLINE
5
191
100
AcDbEntity
8
1
62
256
6
ByLayer
370
18
48
1
60
0
100
AcDbSpline
70
4
71
3
72
12
73
8
40
0
40
0
40
0
40
0
40
0.184269843807844
40
0.38952707753896
40
0.596145831486709
40
0.774383232925729
40
1
40
1
40
1
40
1
41
1
10
0.268331828748842
20
-10.2909881629551
30
0
41
1
10
0.27744823272257
20
-10.2985777129339
30
0
41
1
10
0.295919536916598
20
-10.3120918870975
30
0
41
1
10
0.323194234188886
20
-10.3264524470617
30
0
41
1
10
0.344320170425632
20
-10.3284066412758
30
0
41
1
10
0.356864389313911
20
-10.3175891487659
30
0
41
1
10
0.359614415361088
20
-10.3049134110336
30
0
41
1
10
0.359331619391955
20
-10.295785068539
30
0
0
SPLINE
5
192
100
AcDbEntity
8
1
62
256
6
ByLayer
370
18
48
1
60
0
100
AcDbSpline
70
4
71
1
72
4
73
2
40
0
40
0
40
1
40
1
41
1
10
-0.270999999999999
20
-11.0817716995073
30
0
41
1
10
0.26833182874968
20
-11.5430218856523
30
0
0
SPLINE
5
193
100
AcDbEntity
8
1
62
256
6
ByLayer
370
18
48
1
60
0
100
AcDbSpline
70
4
71
1
72
4
73
2
40
0
40
0
40
1
40
1
41
1
10
12.198556782472
20
-2.54420638840401
30
0
41
1
10
11.9121285742504
20
-2.68582572223829
30
0
0
SPLINE
5
194
100
AcDbEntity
8
1
62
256
6
ByLayer
370
18
48
1
60
0
100
AcDbSpline
70
4
71
3
72
12
73
8
40
0
40
0
40
0
40
0
40
0.0040628894778749
40
0.192720662732261
40
0.452799876357146
40
0.815203839378101
40
1
40
1
40
1
40
1
41
1
10
0.35933182602309
20
-12.2375190696703
30
0
41
1
10
0.35933173765159
20
-12.2374725072878
30
0
41
1
10
0.359294618303082
20
-12.2352318088166
30
0
41
1
10
0.355107048018272
20
-12.2258339625567
30
0
41
1
10
0.334133737249358
20
-12.1965009017341
30
0
41
1
10
0.301856914226273
20
-12.1577884270214
30
0
41
1
10
0.277170250367827
20
-12.129872340899
30
0
41
1
10
0.268331828748922
20
-12.1200720484234
30
0
0
SPLINE
5
195
100
AcDbEntity
8
1
62
256
6
ByLayer
370
18
48
1
60
0
100
AcDbSpline
70
4
71
1
72
4
73
2
40
0
40
0
40
1
40
1
41
1
10
-0.270999999999999
20
-10.5583220257766
30
0
41
1
10
0.268331828749569
20
-11.0061526343845
30
0
0
SPLINE
5
196
100
AcDbEntity
8
1
62
256
6
ByLayer
370
18
48
1
60
0
100
AcDbSpline
70
4
71
2
72
6
73
3
40
0
40
0
40
0
40
1
40
1
40
1
41
1
10
0.268331828749787
20
7.75608774490775
30
0
41
1
10
0.350900078778026
20
7.93394269592644
30
0
41
1
10
0.35933033357832
20
8.08505542682335
30
0
0
SPLINE
5
197
100
AcDbEntity
8
1
62
256
6
ByLayer
370
18
48
1
60
0
100
AcDbSpline
70
4
71
3
72
11
73
7
40
0
40
0
40
0
40
0
40
0.461149537622157
40
0.752671226609291
40
0.979282741504926
40
1
40
1
40
1
40
1
41
1
10
0.268331828749787
20
11.4229183373425
30
0
41
1
10
0.291615662249586
20
11.4529243050156
30
0
41
1
10
0.322693217161733
20
11.4977694880928
30
0
41
1
10
0.35201546330877
20
11.5508939474715
30
0
41
1
10
0.359063806539497
20
11.5733355050968
30
0
41
1
10
0.359327178887001
20
11.5808355757214
30
0
41
1
10
0.359331679926692
20
11.5814485668552
30
0
0
SPLINE
5
198
100
AcDbEntity
8
1
62
256
6
ByLayer
370
18
48
1
60
0
100
AcDbSpline
70
4
71
3
72
11
73
7
40
0
40
0
40
0
40
0
40
0.264539885627776
40
0.534812639314707
40
0.765273399305972
40
1
40
1
40
1
40
1
41
1
10
20.9430284721493
20
5.3056184814663
30
0
41
1
10
20.9139739700379
20
5.39613786766804
30
0
41
1
10
20.8566878135016
20
5.58360807519946
30
0
41
1
10
20.7773688116683
20
5.86733461225169
30
0
41
1
10
20.7076787474994
20
6.14711739719978
30
0
41
1
10
20.6672858903694
20
6.32304911916355
30
0
41
1
10
20.647856080402
20
6.41199793040245
30
0
0
SPLINE
5
199
100
AcDbEntity
8
1
62
256
6
ByLayer
370
18
48
1
60
0
100
AcDbSpline
70
4
71
1
72
4
73
2
40
0
40
0
40
1
40
1
41
1
10
0.268331828749758
20
12.1687415592248
30
0
41
1
10
-0.271
20
11.665576025212
30
0
0
SPLINE
5
19A
100
AcDbEntity
8
1
62
256
6
ByLayer
370
18
48
1
60
0
100
AcDbSpline
70
4
71
2
72
6
73
3
40
0
40
0
40
0
40
1
40
1
40
1
41
1
10
12.0603317768093
20
16.94566092176
30
0
41
1
10
8.8973148322165
20
16.6122153177696
30
0
41
1
10
5.729
20
16.2569306445677
30
0
0
SPLINE
5
19B
100
AcDbEntity
8
1
62
256
6
ByLayer
370
18
48
1
60
0
100
AcDbSpline
70
4
71
3
72
13
73
9
40
0
40
0
40
0
40
0
40
0.0176031028390925
40
0.0413830651291778
40
0.0866653237997386
40
0.257192003450438
40
0.938108186313807
40
1
40
1
40
1
40
1
41
1
10
23.7457214027822
20
12.4074419505829
30
0
41
1
10
23.7461561678158
20
12.408065127277
30
0
41
1
10
23.7462824663573
20
12.4084816742647
30
0
41
1
10
23.7409843583498
20
12.4028017478529
30
0
41
1
10
23.7152426955102
20
12.3744467099097
30
0
41
1
10
23.5818968048251
20
12.235714816584
30
0
41
1
10
23.4080527693008
20
12.1076519671272
30
0
41
1
10
23.2524706226184
20
12.027152036367
30
0
41
1
10
23.2393662885795
20
12.0205615294094
30
0
0
SPLINE
5
19C
100
AcDbEntity
8
1
62
256
6
ByLayer
370
18
48
1
60
0
100
AcDbSpline
70
4
71
1
72
4
73
2
40
0
40
0
40
1
40
1
41
1
10
22.9722841609733
20
15.2503352204164
30
0
41
1
10
22.9331452378979
20
15.4987949380026
30
0
0
SPLINE
5
19D
100
AcDbEntity
8
1
62
256
6
ByLayer
370
18
48
1
60
0
100
AcDbSpline
70
4
71
3
72
10
73
6
40
0
40
0
40
0
40
0
40
0.152967841041746
40
0.964961721399115
40
1
40
1
40
1
40
1
41
1
10
0.359300056387291
20
-6.34893140737089
30
0
41
1
10
0.358576062276982
20
-6.32706150447386
30
0
41
1
10
0.350721602089433
20
-6.18832539256195
30
0
41
1
10
0.310738464062809
20
-6.03089125155139
30
0
41
1
10
0.27004110898435
20
-5.90136643216481
30
0
41
1
10
0.268331828749785
20
-5.89600335379707
30
0
0
SPLINE
5
19E
100
AcDbEntity
8
1
62
256
6
ByLayer
370
18
48
1
60
0
100
AcDbSpline
70
4
71
1
72
4
73
2
40
0
40
0
40
1
40
1
41
1
10
7.06781567411447
20
-9.11229571126482
30
0
41
1
10
7.09057507605903
20
-9.06200361865213
30
0
0
SPLINE
5
19F
100
AcDbEntity
8
1
62
256
6
ByLayer
370
18
48
1
60
0
100
AcDbSpline
70
4
71
3
72
11
73
7
40
0
40
0
40
0
40
0
40
0.0143855280853825
40
0.279361894059213
40
0.719453354947143
40
1
40
1
40
1
40
1
41
1
10
0.359331619391955
20
-10.295785068539
30
0
41
1
10
0.359327976141996
20
-10.2950101172007
30
0
41
1
10
0.359098015644723
20
-10.2798443190758
30
0
41
1
10
0.348337625057394
20
-10.2323458596401
30
0
41
1
10
0.314106267754821
20
-10.15665644218
30
0
41
1
10
0.282225042198489
20
-10.1005592744009
30
0
41
1
10
0.268331828749787
20
-10.0781933015869
30
0
0
SPLINE
5
1A0
100
AcDbEntity
8
1
62
256
6
ByLayer
370
18
48
1
60
0
100
AcDbSpline
70
4
71
3
72
14
73
10
40
0
40
0
40
0
40
0
40
0.0684795826998957
40
0.194568754207763
40
0.286967672718508
40
0.379389809419704
40
0.505638411661301
40
0.720812003167639
40
1
40
1
40
1
40
1
41
1
10
0.268331828726871
20
-6.43906530841463
30
0
41
1
10
0.272161546955729
20
-6.44286822718468
30
0
41
1
10
0.283150632308119
20
-6.45252477733673
30
0
41
1
10
0.300515953153828
20
-6.46357084773643
30
0
41
1
10
0.318554964589344
20
-6.46664744301671
30
0
41
1
10
0.333635023129568
20
-6.46105706102568
30
0
41
1
10
0.348196036379322
20
-6.44242055557295
30
0
41
1
10
0.357749015678466
20
-6.40370455316538
30
0
41
1
10
0.360267253175625
20
-6.36997056165784
30
0
41
1
10
0.359300056387291
20
-6.34893140737089
30
0
0
SPLINE
5
1A1
100
AcDbEntity
8
1
62
256
6
ByLayer
370
18
48
1
60
0
100
AcDbSpline
70
4
71
3
72
13
73
9
40
0
40
0
40
0
40
0
40
0.0202710400744314
40
0.23710534664527
40
0.455253032433896
40
0.647593998868146
40
0.901690810887418
40
1
40
1
40
1
40
1
41
1
10
0.359331762285967
20
11.0286100524651
30
0
41
1
10
0.359334155922891
20
11.0292357472774
30
0
41
1
10
0.359195195694597
20
11.0363858722057
30
0
41
1
10
0.355601364506333
20
11.0472083530105
30
0
41
1
10
0.340002307482136
20
11.0501308630473
30
0
41
1
10
0.314751395688097
20
11.040282598471
30
0
41
1
10
0.289622286149098
20
11.0232994843837
30
0
41
1
10
0.273044707065266
20
11.0100873546476
30
0
41
1
10
0.268331828744492
20
11.0061526343827
30
0
0
SPLINE
5
1A2
100
AcDbEntity
8
1
62
256
6
ByLayer
370
18
48
1
60
0
100
AcDbSpline
70
4
71
3
72
10
73
6
40
0
40
0
40
0
40
0
40
0.502359070501734
40
0.789833822561351
40
1
40
1
40
1
40
1
41
1
10
0.268331828749788
20
10.8438471855183
30
0
41
1
10
0.294016603209116
20
10.8802342940266
30
0
41
1
10
0.325877720238652
20
10.9328599599138
30
0
41
1
10
0.354299302489949
20
10.9956003895488
30
0
41
1
10
0.358777329684213
20
11.0194505660648
30
0
41
1
10
0.359331762285967
20
11.0286100524651
30
0
0
SPLINE
5
1A3
100
AcDbEntity
8
1
62
256
6
ByLayer
370
18
48
1
60
0
100
AcDbSpline
70
4
71
2
72
6
73
3
40
0
40
0
40
0
40
1
40
1
40
1
41
1
10
0.268331828749787
20
7.75608774490775
30
0
41
1
10
-0.0200538613898738
20
7.09581678746872
30
0
41
1
10
-0.271
20
6.41546288275445
30
0
0
SPLINE
5
1A4
100
AcDbEntity
8
1
62
256
6
ByLayer
370
18
48
1
60
0
100
AcDbSpline
70
4
71
3
72
12
73
8
40
0
40
0
40
0
40
0
40
0.276374459700483
40
0.527068997920586
40
0.739352031509028
40
0.952080087822849
40
1
40
1
40
1
40
1
41
1
10
0.268331828749667
20
-11.9256996731397
30
0
41
1
10
0.28179649651149
20
-11.9377516403157
30
0
41
1
10
0.30532490598129
20
-11.9574502392372
30
0
41
1
10
0.334750107021612
20
-11.9785454703085
30
0
41
1
10
0.35336001793926
20
-11.9869676998408
30
0
41
1
10
0.358899750643311
20
-11.9842876866774
30
0
41
1
10
0.359338236301588
20
-11.9802358944881
30
0
41
1
10
0.359331760064767
20
-11.9793990344134
30
0
0
SPLINE
5
1A5
100
AcDbEntity
8
1
62
256
6
ByLayer
370
18
48
1
60
0
100
AcDbSpline
70
4
71
3
72
10
73
6
40
0
40
0
40
0
40
0
40
0.290526091644584
40
0.883216910578981
40
1
40
1
40
1
40
1
41
1
10
0.268331828749786
20
2.49876249156745
30
0
41
1
10
0.281351188166997
20
2.59527153649538
30
0
41
1
10
0.316278307784863
20
2.88771679041892
30
0
41
1
10
0.352933688178684
20
3.21986715615606
30
0
41
1
10
0.358667205179734
20
3.45000753939289
30
0
41
1
10
0.359291388638549
20
3.48781576225671
30
0
0
SPLINE
5
1A6
100
AcDbEntity
8
1
62
256
6
ByLayer
370
18
48
1
60
0
100
AcDbSpline
70
4
71
1
72
4
73
2
40
0
40
0
40
1
40
1
41
1
10
0.268331828749787
20
10.0781933015869
30
0
41
1
10
-0.270999999999999
20
9.17214064436432
30
0
0
SPLINE
5
1A7
100
AcDbEntity
8
1
62
256
6
ByLayer
370
18
48
1
60
0
100
AcDbSpline
70
4
71
3
72
15
73
11
40
0
40
0
40
0
40
0
40
0.127156630104309
40
0.254346229359316
40
0.386459933759535
40
0.518601879491848
40
0.63782689904643
40
0.757063891451096
40
0.878528633339972
40
1
40
1
40
1
40
1
41
1
10
14.3743591016041
20
11.9232450120669
30
0
41
1
10
14.3734758071033
20
12.1598367510032
30
0
41
1
10
14.3489461095224
20
12.6230466663517
30
0
41
1
10
14.2390933563882
20
13.2989673220447
30
0
41
1
10
14.0634040507347
20
13.9467306257391
30
0
41
1
10
13.8339837435567
20
14.5425090333224
30
0
41
1
10
13.5656961816173
20
15.0805176547817
30
0
41
1
10
13.2663159658086
20
15.5680739455755
30
0
41
1
10
12.9289598985946
20
16.0228808455814
30
0
41
1
10
12.6802201489336
20
16.3039836966962
30
0
41
1
10
12.5500678038053
20
16.4385244200504
30
0
0
SPLINE
5
1A8
100
AcDbEntity
8
1
62
256
6
ByLayer
370
18
48
1
60
0
100
AcDbSpline
70
4
71
2
72
6
73
3
40
0
40
0
40
0
40
1
40
1
40
1
41
1
10
0.268331828749787
20
5.89600335379707
30
0
41
1
10
-0.050006292301662
20
4.90085566286654
30
0
41
1
10
-0.271
20
3.8711321341437
30
0
0
SPLINE
5
1A9
100
AcDbEntity
8
1
62
256
6
ByLayer
370
18
48
1
60
0
100
AcDbSpline
70
4
71
3
72
10
73
6
40
0
40
0
40
0
40
0
40
0.329575776052105
40
0.966767226229168
40
1
40
1
40
1
40
1
41
1
10
21.087646390155
20
14.0460365078746
30
0
41
1
10
21.1083540456307
20
14.0862799881125
30
0
41
1
10
21.1739570808878
20
14.2008354355642
30
0
41
1
10
21.2576557039259
20
14.3102080597118
30
0
41
1
10
21.3198526894116
20
14.3775624434494
30
0
41
1
10
21.3229522614838
20
14.3808885842843
30
0
0
SPLINE
5
1AA
100
AcDbEntity
8
1
62
256
6
ByLayer
370
18
48
1
60
0
100
AcDbSpline
70
4
71
1
72
4
73
2
40
0
40
0
40
1
40
1
41
1
10
21.0711757975523
20
13.3865698139941
30
0
41
1
10
21.068824049813
20
13.4079495490469
30
0
0
SPLINE
5
1AB
100
AcDbEntity
8
1
62
256
6
ByLayer
370
18
48
1
60
0
100
AcDbSpline
70
4
71
3
72
12
73
8
40
0
40
0
40
0
40
0
40
0.252959239933228
40
0.505562754378661
40
0.713010814767819
40
0.885078629071767
40
1
40
1
40
1
40
1
41
1
10
14.3712567559404
20
2.20141278771995
30
0
41
1
10
14.374759771255
20
2.2478971673485
30
0
41
1
10
14.4152953749237
20
2.34139398666824
30
0
41
1
10
14.5710174952161
20
2.48741207806254
30
0
41
1
10
14.7788207184839
20
2.59805695285031
30
0
41
1
10
14.9850886778613
20
2.65292411099397
30
0
41
1
10
15.1113576302308
20
2.66166100743394
30
0
41
1
10
15.1637300412207
20
2.66200719220411
30
0
0
SPLINE
5
1AC
100
AcDbEntity
8
1
62
256
6
ByLayer
370
18
48
1
60
0
100
AcDbSpline
70
4
71
3
72
11
73
7
40
0
40
0
40
0
40
0
40
0.341460539759498
40
0.641527162254543
40
0.875753048474614
40
1
40
1
40
1
40
1
41
1
10
0.268331828749785
20
12.1200720484261
30
0
41
1
10
0.285063281614798
20
12.1385849885249
30
0
41
1
10
0.312759840387368
20
12.1704484752409
30
0
41
1
10
0.34368776985901
20
12.2091694393067
30
0
41
1
10
0.357316938825058
20
12.229973191456
30
0
41
1
10
0.359233996956244
20
12.2359581750239
30
0
41
1
10
0.359331764949133
20
12.2375004848054
30
0
0
SPLINE
5
1AD
100
AcDbEntity
8
1
62
256
6
ByLayer
370
18
48
1
60
0
100
AcDbSpline
70
4
71
3
72
10
73
6
40
0
40
0
40
0
40
0
40
0.508650756871766
40
0.801191435939534
40
1
40
1
40
1
40
1
41
1
10
0.268331828749786
20
9.07887320461246
30
0
41
1
10
0.294295374956071
20
9.12672930699612
30
0
41
1
10
0.326454572350491
20
9.19890646035471
30
0
41
1
10
0.354097729856292
20
9.28704197955007
30
0
41
1
10
0.358641873555216
20
9.32486496100231
30
0
41
1
10
0.359322960709026
20
9.33957028487366
30
0
0
SPLINE
5
1AE
100
AcDbEntity
8
1
62
256
6
ByLayer
370
18
48
1
60
0
100
AcDbSpline
70
4
71
3
72
13
73
9
40
0
40
0
40
0
40
0
40
0.111341735733987
40
0.284907862340901
40
0.415754075147561
40
0.546372899562507
40
0.738571050028302
40
1
40
1
40
1
40
1
41
1
10
0.268331828743476
20
-8.12819294108297
30
0
41
1
10
0.274127245357639
20
-8.13328237777652
30
0
41
1
10
0.28878400563279
20
-8.14446128894116
30
0
41
1
10
0.310886255313644
20
-8.15580930334155
30
0
41
1
10
0.330795928151649
20
-8.15645797559948
30
0
41
1
10
0.346285820784901
20
-8.14714485150734
30
0
41
1
10
0.357170472345835
20
-8.12329378494177
30
0
41
1
10
0.359993139972247
20
-8.10034265809881
30
0
41
1
10
0.359329328033858
20
-8.08480299703369
30
0
0
SPLINE
5
1AF
100
AcDbEntity
8
1
62
256
6
ByLayer
370
18
48
1
60
0
100
AcDbSpline
70
4
71
2
72
6
73
3
40
0
40
0
40
0
40
1
40
1
40
1
41
1
10
18.754575310109
20
7.78431306953213
30
0
41
1
10
18.7021779083334
20
7.75852805515342
30
0
41
1
10
18.6510975107479
20
7.73068565457718
30
0
0
SPLINE
5
1B0
100
AcDbEntity
8
1
62
256
6
ByLayer
370
18
48
1
60
0
100
AcDbSpline
70
4
71
3
72
13
73
9
40
0
40
0
40
0
40
0
40
0.0377212657970878
40
0.232493055511838
40
0.421017904672231
40
0.613622173389238
40
0.804892435308075
40
1
40
1
40
1
40
1
41
1
10
7.09057507605903
20
-9.06200361865213
30
0
41
1
10
7.09319507473986
20
-9.05772405116952
30
0
41
1
10
7.11031062439261
20
-9.03128644098534
30
0
41
1
10
7.15299090528501
20
-8.98214993868559
30
0
41
1
10
7.23332581459119
20
-8.91497924878749
30
0
41
1
10
7.33182462424011
20
-8.85038289358997
30
0
41
1
10
7.44805458877898
20
-8.78926807071348
30
0
41
1
10
7.53497113748799
20
-8.75371097491059
30
0
41
1
10
7.58139735418452
20
-8.73688698819574
30
0
0
SPLINE
5
1B1
100
AcDbEntity
8
1
62
256
6
ByLayer
370
18
48
1
60
0
100
AcDbSpline
70
4
71
3
72
10
73
6
40
0
40
0
40
0
40
0
40
0.0373063099455194
40
0.41784576312957
40
1
40
1
40
1
40
1
41
1
10
0.359329328033858
20
-8.08480299703369
30
0
41
1
10
0.35929220777532
20
-8.08120175972705
30
0
41
1
10
0.358359825785789
20
-8.04060943014344
30
0
41
1
10
0.335839447441487
20
-7.93073619985953
30
0
41
1
10
0.299130741457825
20
-7.82389768154567
30
0
41
1
10
0.268331828749786
20
-7.75608774490775
30
0
0
SPLINE
5
1B2
100
AcDbEntity
8
1
62
256
6
ByLayer
370
18
48
1
60
0
100
AcDbSpline
70
4
71
1
72
4
73
2
40
0
40
0
40
1
40
1
41
1
10
-0.271
20
-11.4458797826991
30
0
41
1
10
0.268331828749732
20
-11.9256996731398
30
0
0
SPLINE
5
1B3
100
AcDbEntity
8
1
62
256
6
ByLayer
370
18
48
1
60
0
100
AcDbSpline
70
4
71
3
72
11
73
7
40
0
40
0
40
0
40
0
40
0.302678091465337
40
0.603480591679215
40
0.952835755768215
40
1
40
1
40
1
40
1
41
1
10
15.0271317019895
20
8.24180112944829
30
0
41
1
10
14.9368744040827
20
8.25418060384943
30
0
41
1
10
14.7708199616795
20
8.29422979260436
30
0
41
1
10
14.5472702441091
20
8.41709812072154
30
0
41
1
10
14.4262793649081
20
8.52734930933361
30
0
41
1
10
14.3747303382838
20
8.59191978743604
30
0
41
1
10
14.3688264793479
20
8.59966101303778
30
0
0
SPLINE
5
1B4
100
AcDbEntity
8
1
62
256
6
ByLayer
370
18
48
1
60
0
100
AcDbSpline
70
4
71
3
72
10
73
6
40
0
40
0
40
0
40
0
40
0.49999999907127
40
0.49999999907127
40
1
40
1
40
1
40
1
41
1
10
17.4558633002192
20
11.9844875884981
30
4.124E-13
41
1
10
17.441591284625
20
11.9668394853001
30
4.124E-13
41
1
10
17.427319807568
20
11.9491909465736
30
0
41
1
10
17.3987779289697
20
11.9138929993788
30
0
41
1
10
17.3845075274151
20
11.896243590894
30
-3.7E-15
41
1
10
17.3702376628882
20
11.8785937482369
30
-3.7E-15
0
SPLINE
5
1B5
100
AcDbEntity
8
1
62
256
6
ByLayer
370
18
48
1
60
0
100
AcDbSpline
70
4
71
3
72
12
73
8
40
0
40
0
40
0
40
0
40
0.227036439734741
40
0.468134989155335
40
0.701420944788386
40
0.928000446698638
40
1
40
1
40
1
40
1
41
1
10
17.4973695363872
20
11.8010497164806
30
0
41
1
10
17.4811353344755
20
11.8076094128589
30
0
41
1
10
17.4500970252312
20
11.820935991497
30
0
41
1
10
17.4085813093804
20
11.8411776440395
30
0
41
1
10
17.379697005389
20
11.8590347939094
30
0
41
1
10
17.3696334148892
20
11.8698738427401
30
0
41
1
10
17.3688900018966
20
11.874517670995
30
0
41
1
10
17.3689813196751
20
11.8755650622337
30
0
0
SPLINE
5
1B6
100
AcDbEntity
8
1
62
256
6
ByLayer
370
18
48
1
60
0
100
AcDbSpline
70
4
71
3
72
10
73
6
40
0
40
0
40
0
40
0
40
0.264716456298301
40
0.64100698766346
40
1
40
1
40
1
40
1
41
1
10
0.321346378447235
20
8.15579876082247
30
0
41
1
10
0.317074955897456
20
8.15553097071432
30
0
41
1
10
0.306461664086409
20
8.15347959463446
30
0
41
1
10
0.288052435187629
20
8.14383136525793
30
0
41
1
10
0.274850731657984
20
8.1339170284555
30
0
41
1
10
0.268331828746746
20
8.12819294108442
30
0
0
SPLINE
5
1B7
100
AcDbEntity
8
1
62
256
6
ByLayer
370
18
48
1
60
0
100
AcDbSpline
70
4
71
1
72
4
73
2
40
0
40
0
40
1
40
1
41
1
10
7.62870947117741
20
-8.45714157998829
30
0
41
1
10
7.57601512526535
20
-8.77298399730149
30
0
0
SPLINE
5
1B8
100
AcDbEntity
8
1
62
256
6
ByLayer
370
18
48
1
60
0
100
AcDbSpline
70
4
71
1
72
4
73
2
40
0
40
0
40
1
40
1
41
1
10
-0.271
20
-10.7050531993073
30
0
41
1
10
0.268331828749786
20
-11.4229183373425
30
0
0
SPLINE
5
1B9
100
AcDbEntity
8
1
62
256
6
ByLayer
370
18
48
1
60
0
100
AcDbSpline
70
4
71
2
72
6
73
3
40
0
40
0
40
0
40
1
40
1
40
1
41
1
10
0.268331828744212
20
3.70548291116438
30
0
41
1
10
-0.0196399532430565
20
3.27882360692901
30
0
41
1
10
-0.271
20
2.82235079322178
30
0
0
SPLINE
5
1BA
100
AcDbEntity
8
1
62
256
6
ByLayer
370
18
48
1
60
0
100
AcDbSpline
70
4
71
3
72
11
73
7
40
0
40
0
40
0
40
0
40
0.264539885627776
40
0.534812639314705
40
0.76527339930597
40
1
40
1
40
1
40
1
41
1
10
18.7286681607401
20
5.94149402018578
30
0
41
1
10
18.7505621780969
20
5.84104569914463
30
0
41
1
10
18.7972336553234
20
5.63885687090263
30
0
41
1
10
18.8712630329028
20
5.34779558818153
30
0
41
1
10
18.9481848619308
20
5.07804057712297
30
0
41
1
10
18.9981316998111
20
4.91535668063141
30
0
41
1
10
19.0238405524875
20
4.83511457124963
30
0
0
SPLINE
5
1BB
100
AcDbEntity
8
1
62
256
6
ByLayer
370
18
48
1
60
0
100
AcDbSpline
70
4
71
1
72
4
73
2
40
0
40
0
40
1
40
1
41
1
10
12.4044349015056
20
-2.4508027588255
30
0
41
1
10
11.9879852684112
20
-2.64696129829802
30
0
0
SPLINE
5
1BC
100
AcDbEntity
8
1
62
256
6
ByLayer
370
18
48
1
60
0
100
AcDbSpline
70
4
71
3
72
13
73
9
40
0
40
0
40
0
40
0
40
0.049117299792418
40
0.237123563218781
40
0.426236118749044
40
0.593411886422988
40
0.768774562987901
40
1
40
1
40
1
40
1
41
1
10
11.9879852684112
20
-2.64696129829802
30
0
41
1
10
11.9697469128143
20
-2.64440160640988
30
0
41
1
10
11.8832462883988
20
-2.63015782761994
30
0
41
1
10
11.7340533596565
20
-2.5882228391639
30
0
41
1
10
11.5891325200631
20
-2.50132976236875
30
0
41
1
10
11.5109823117555
20
-2.40250976553715
30
0
41
1
10
11.4924372453696
20
-2.29767861344984
30
0
41
1
10
11.5212339379188
20
-2.23460217033914
30
0
41
1
10
11.5524804564113
20
-2.20141278771995
30
0
0
LINE
5
70
100
AcDbEntity
8
1
62
256
6
ByLayer
370
18
48
1
60
0
100
AcDbLine
10
26.27
20
2.8
30
2.496217
11
26.281367
21
2.8
31
2.494853
39
0
210
0
220
0
230
1
0
LINE
5
72
100
AcDbEntity
8
1
62
256
6
ByLayer
370
18
48
1
60
0
100
AcDbLine
10
0.268332
20
-12.280441
30
0.467383
11
0.268332
21
-12.264387
31
0.467383
39
0
210
0
220
0
230
1
0
LINE
5
73
100
AcDbEntity
8
1
62
256
6
ByLayer
370
18
48
1
60
0
100
AcDbLine
10
0.268332
20
12.264387
30
0.467383
11
0.268332
21
12.280441
31
0.467383
39
0
210
0
220
0
230
1
0
LINE
5
74
100
AcDbEntity
8
1
62
256
6
ByLayer
370
18
48
1
60
0
100
AcDbLine
10
21.731664
20
3.978344
30
0
11
21.794286
21
4.065177
31
0
39
0
210
0
220
0
230
1
0
LINE
5
75
100
AcDbEntity
8
1
62
256
6
ByLayer
370
18
48
1
60
0
100
AcDbLine
10
17.630992
20
11.986968
30
0
11
17.387655
21
9.205607
31
0
39
0
210
0
220
0
230
1
0
LINE
5
76
100
AcDbEntity
8
1
62
256
6
ByLayer
370
18
48
1
60
0
100
AcDbLine
10
21.051313
20
13.418399
30
0
11
21.062616
21
13.434071
31
0
39
0
210
0
220
0
230
1
0
LINE
5
77
100
AcDbEntity
8
1
62
256
6
ByLayer
370
18
48
1
60
0
100
AcDbLine
10
27.142219
20
18.873168
30
0
11
19.169686
21
18.329606
31
0
39
0
210
0
220
0
230
1
0
LINE
5
78
100
AcDbEntity
8
SK1
62
256
6
ByLayer
370
18
48
1
60
0
100
AcDbLine
10
-3.571
20
-3
30
0
11
-0.271
21
-3
31
0
39
0
210
0
220
0
230
1
0
LINE
5
7A
100
AcDbEntity
8
1
62
256
6
ByLayer
370
18
48
1
60
0
100
AcDbLine
10
23.696434
20
12.328725
30
0
11
24.014007
21
12.769081
31
0
39
0
210
0
220
0
230
1
0
LINE
5
7B
100
AcDbEntity
8
1
62
256
6
ByLayer
370
18
48
1
60
0
100
AcDbLine
10
-0.271
20
-11.665576
30
0
11
-0.271
21
-11.69896
31
0
39
0
210
0
220
0
230
1
0
LINE
5
7C
100
AcDbEntity
8
1
62
256
6
ByLayer
370
18
48
1
60
0
100
AcDbLine
10
23.981135
20
-0.977599
30
0
11
18.934352
21
2.662007
31
0
39
0
210
0
220
0
230
1
0
LINE
5
7D
100
AcDbEntity
8
1
62
256
6
ByLayer
370
18
48
1
60
0
100
AcDbLine
10
13.423995
20
-0.122885
30
0
11
14.018511
21
-0.65819
31
0
39
0
210
0
220
0
230
1
0
LINE
5
7E
100
AcDbEntity
8
1
62
256
6
ByLayer
370
18
48
1
60
0
100
AcDbLine
10
21.289027
20
-1.764221
30
0
11
15.689027
21
-1.764221
31
0
39
0
210
0
220
0
230
1
0
LINE
5
7F
100
AcDbEntity
8
1
62
256
6
ByLayer
370
18
48
1
60
0
100
AcDbLine
10
15.16373
20
2.662007
30
0
11
18.934352
21
2.662007
31
0
39
0
210
0
220
0
230
1
0
LINE
5
80
100
AcDbEntity
8
1
62
256
6
ByLayer
370
18
48
1
60
0
100
AcDbLine
10
-0.271
20
-8.91337
30
0
11
-0.271
21
-9.172141
31
0
39
0
210
0
220
0
230
1
0
LINE
5
81
100
AcDbEntity
8
1
62
256
6
ByLayer
370
18
48
1
60
0
100
AcDbLine
10
-0.271
20
-7.664572
30
0
11
-0.271
21
-6.415463
31
0
39
0
210
0
220
0
230
1
0
LINE
5
82
100
AcDbEntity
8
1
62
256
6
ByLayer
370
18
48
1
60
0
100
AcDbLine
10
-0.271
20
-11.748964
30
0
11
-0.271
21
-11.69896
31
0
39
0
210
0
220
0
230
1
0
LINE
5
83
100
AcDbEntity
8
1
62
256
6
ByLayer
370
18
48
1
60
0
100
AcDbLine
10
-0.271
20
8.026119
30
0
11
-0.271
21
8.91337
31
0
39
0
210
0
220
0
230
1
0
LINE
5
84
100
AcDbEntity
8
1
62
256
6
ByLayer
370
18
48
1
60
0
100
AcDbLine
10
0.268332
20
-8.128193
30
0
11
0.268332
21
-7.756088
31
0
39
0
210
0
220
0
230
1
0
LINE
5
85
100
AcDbEntity
8
1
62
256
6
ByLayer
370
18
48
1
60
0
100
AcDbLine
10
20.466107
20
5.402143
30
0
11
20.318521
21
5.955333
31
0
39
0
210
0
220
0
230
1
0
LINE
5
86
100
AcDbEntity
8
SK1
62
256
6
ByLayer
370
18
48
1
60
0
100
AcDbLine
10
-3.571
20
3
30
0
11
-4.071
21
2.866025
31
0
39
0
210
0
220
0
230
1
0
LINE
5
87
100
AcDbEntity
8
1
62
256
6
ByLayer
370
18
48
1
60
0
100
AcDbLine
10
-0.271
20
-7.664572
30
0
11
-0.271
21
-8.012844
31
0
39
0
210
0
220
0
230
1
0
LINE
5
88
100
AcDbEntity
8
1
62
256
6
ByLayer
370
18
48
1
60
0
100
AcDbLine
10
14.374359
20
2.352898
30
0
11
14.374359
21
7
31
0
39
0
210
0
220
0
230
1
0
LINE
5
89
100
AcDbEntity
8
SK1
62
256
6
ByLayer
370
18
48
1
60
0
100
AcDbLine
10
-3.571
20
3
30
0
11
-3.571
21
-3
31
0
39
0
210
0
220
0
230
1
0
LINE
5
8A
100
AcDbEntity
8
1
62
256
6
ByLayer
370
18
48
1
60
0
100
AcDbLine
10
14.018511
20
-0.65819
30
0
11
12.404435
21
-2.450803
31
0
39
0
210
0
220
0
230
1
0
LINE
5
8B
100
AcDbEntity
8
1
62
256
6
ByLayer
370
18
48
1
60
0
100
AcDbLine
10
9.81069
20
-4.135867
30
0
11
13.423995
21
-0.122885
31
0
39
0
210
0
220
0
230
1
0
LINE
5
8C
100
AcDbEntity
8
1
62
256
6
ByLayer
370
18
48
1
60
0
100
AcDbLine
10
5.513942
20
-12.5
30
0
11
5.531406
21
-12.9
31
0
39
0
210
0
220
0
230
1
0
LINE
5
8D
100
AcDbEntity
8
1
62
256
6
ByLayer
370
18
48
1
60
0
100
AcDbLine
10
5.729
20
17.142144
30
0
11
5.729
21
16.256931
31
0
39
0
210
0
220
0
230
1
0
LINE
5
8E
100
AcDbEntity
8
1
62
256
6
ByLayer
370
18
48
1
60
0
100
AcDbLine
10
0.479
20
12.5
30
0
11
-0.271
21
11.75
31
0
39
0
210
0
220
0
230
1
0
LINE
5
8F
100
AcDbEntity
8
1
62
256
6
ByLayer
370
18
48
1
60
0
100
AcDbLine
10
0.268332
20
-3.705483
30
0
11
0.268332
21
-2.498762
31
0
39
0
210
0
220
0
230
1
0
LINE
5
90
100
AcDbEntity
8
1
62
256
6
ByLayer
370
18
48
1
60
0
100
AcDbLine
10
0.268332
20
-6.439065
30
0
11
0.268332
21
-5.896003
31
0
39
0
210
0
220
0
230
1
0
LINE
5
91
100
AcDbEntity
8
1
62
256
6
ByLayer
370
18
48
1
60
0
100
AcDbLine
10
18.805337
20
5.87905
30
0
11
18.754444
21
5.829633
31
0
39
0
210
0
220
0
230
1
0
LINE
5
92
100
AcDbEntity
8
1
62
256
6
ByLayer
370
18
48
1
60
0
100
AcDbLine
10
17.49737
20
11.80105
30
0
11
17.516446
21
12.008559
31
0
39
0
210
0
220
0
230
1
0
LINE
5
93
100
AcDbEntity
8
1
62
256
6
ByLayer
370
18
48
1
60
0
100
AcDbLine
10
-0.271
20
-2.822351
30
0
11
-0.271
21
-3.871132
31
0
39
0
210
0
220
0
230
1
0
LINE
5
94
100
AcDbEntity
8
1
62
256
6
ByLayer
370
18
48
1
60
0
100
AcDbLine
10
-0.271
20
11.186852
30
0
11
-0.271
21
11.44588
31
0
39
0
210
0
220
0
230
1
0
LINE
5
95
100
AcDbEntity
8
1
62
256
6
ByLayer
370
18
48
1
60
0
100
AcDbLine
10
0.268332
20
11.842808
30
0
11
0.268332
21
11.9257
31
0
39
0
210
0
220
0
230
1
0
LINE
5
96
100
AcDbEntity
8
1
62
256
6
ByLayer
370
18
48
1
60
0
100
AcDbLine
10
19.211341
20
6.27327
30
0
11
19.540676
21
6.729936
31
0
39
0
210
0
220
0
230
1
0
LINE
5
97
100
AcDbEntity
8
SK1
62
256
6
ByLayer
370
18
48
1
60
0
100
AcDbLine
10
-4.071
20
-2.866025
30
0
11
-4.071
21
2.866025
31
0
39
0
210
0
220
0
230
1
0
LINE
5
98
100
AcDbEntity
8
1
62
256
6
ByLayer
370
18
48
1
60
0
100
AcDbLine
10
20.585542
20
4.954472
30
0
11
20.466107
21
5.402143
31
0
39
0
210
0
220
0
230
1
0
LINE
5
99
100
AcDbEntity
8
1
62
256
6
ByLayer
370
18
48
1
60
0
100
AcDbLine
10
-0.271
20
-10.558322
30
0
11
-0.271
21
-10.046177
31
0
39
0
210
0
220
0
230
1
0
LINE
5
9A
100
AcDbEntity
8
1
62
256
6
ByLayer
370
18
48
1
60
0
100
AcDbLine
10
17.387655
20
9.205607
30
0
11
17.761685
21
9.724248
31
0
39
0
210
0
220
0
230
1
0
LINE
5
9B
100
AcDbEntity
8
1
62
256
6
ByLayer
370
18
48
1
60
0
100
AcDbLine
10
18.594978
20
18.012506
30
0
11
18.447703
21
17.80829
31
0
39
0
210
0
220
0
230
1
0
LINE
5
9C
100
AcDbEntity
8
1
62
256
6
ByLayer
370
18
48
1
60
0
100
AcDbLine
10
5.513942
20
12.5
30
0
11
5.513942
21
-12.5
31
0
39
0
210
0
220
0
230
1
0
LINE
5
9D
100
AcDbEntity
8
1
62
256
6
ByLayer
370
18
48
1
60
0
100
AcDbLine
10
-0.271
20
11.186852
30
0
11
-0.271
21
11.081772
31
0
39
0
210
0
220
0
230
1
0
LINE
5
9E
100
AcDbEntity
8
1
62
256
6
ByLayer
370
18
48
1
60
0
100
AcDbLine
10
0.268332
20
-11.9257
30
0
11
0.268332
21
-11.842808
31
0
39
0
210
0
220
0
230
1
0
LINE
5
9F
100
AcDbEntity
8
1
62
256
6
ByLayer
370
18
48
1
60
0
100
AcDbLine
10
5.531406
20
-12.9
30
0
11
7.200856
21
-12.9
31
0
39
0
210
0
220
0
230
1
0
LINE
5
A0
100
AcDbEntity
8
1
62
256
6
ByLayer
370
18
48
1
60
0
100
AcDbLine
10
0.268332
20
9.078873
30
0
11
0.268332
21
9.356734
31
0
39
0
210
0
220
0
230
1
0
LINE
5
A1
100
AcDbEntity
8
1
62
256
6
ByLayer
370
18
48
1
60
0
100
AcDbLine
10
0.268332
20
-11.543022
30
0
11
0.268332
21
-11.422918
31
0
39
0
210
0
220
0
230
1
0
LINE
5
A2
100
AcDbEntity
8
1
62
256
6
ByLayer
370
18
48
1
60
0
100
AcDbLine
10
17.593352
20
11.994714
30
0
11
17.572588
21
11.768846
31
0
39
0
210
0
220
0
230
1
0
LINE
5
A3
100
AcDbEntity
8
1
62
256
6
ByLayer
370
18
48
1
60
0
100
AcDbLine
10
19.764931
20
6.114301
30
0
11
19.211341
21
6.27327
31
0
39
0
210
0
220
0
230
1
0
LINE
5
A4
100
AcDbEntity
8
1
62
256
6
ByLayer
370
18
48
1
60
0
100
AcDbLine
10
-0.271
20
11.69896
30
0
11
-0.271
21
11.748964
31
0
39
0
210
0
220
0
230
1
0
LINE
5
A5
100
AcDbEntity
8
1
62
256
6
ByLayer
370
18
48
1
60
0
100
AcDbLine
10
11.91557
20
17.479517
30
0
11
18.458488
21
17.925608
31
0
39
0
210
0
220
0
230
1
0
LINE
5
A6
100
AcDbEntity
8
1
62
256
6
ByLayer
370
18
48
1
60
0
100
AcDbLine
10
0.268332
20
2.498762
30
0
11
0.268332
21
3.705483
31
0
39
0
210
0
220
0
230
1
0
LINE
5
A7
100
AcDbEntity
8
1
62
256
6
ByLayer
370
18
48
1
60
0
100
AcDbLine
10
0.268332
20
7.756088
30
0
11
0.268332
21
8.128193
31
0
39
0
210
0
220
0
230
1
0
LINE
5
A8
100
AcDbEntity
8
SK1
62
256
6
ByLayer
370
18
48
1
60
0
100
AcDbLine
10
-4.071
20
-2.866025
30
0
11
-3.571
21
-3
31
0
39
0
210
0
220
0
230
1
0
LINE
5
A9
100
AcDbEntity
8
1
62
256
6
ByLayer
370
18
48
1
60
0
100
AcDbLine
10
20.318521
20
5.955333
30
0
11
20.647856
21
6.411998
31
0
39
0
210
0
220
0
230
1
0
LINE
5
AA
100
AcDbEntity
8
1
62
256
6
ByLayer
370
18
48
1
60
0
100
AcDbLine
10
0.268332
20
-11.006153
30
0
11
0.268332
21
-10.843847
31
0
39
0
210
0
220
0
230
1
0
LINE
5
AB
100
AcDbEntity
8
1
62
256
6
ByLayer
370
18
48
1
60
0
100
AcDbLine
10
22.665626
20
12.0123
30
0
11
22.659845
21
12.004284
31
0
39
0
210
0
220
0
230
1
0
LINE
5
AC
100
AcDbEntity
8
1
62
256
6
ByLayer
370
18
48
1
60
0
100
AcDbLine
10
18.45344
20
17.631045
30
0
11
17.761685
21
9.724248
31
0
39
0
210
0
220
0
230
1
0
LINE
5
AD
100
AcDbEntity
8
1
62
256
6
ByLayer
370
18
48
1
60
0
100
AcDbLine
10
26.885085
20
9.367028
30
0
11
26.576956
21
6.01531
31
0
39
0
210
0
220
0
230
1
0
LINE
5
AE
100
AcDbEntity
8
1
62
256
6
ByLayer
370
18
48
1
60
0
100
AcDbLine
10
5.695196
20
16.651398
30
0
11
5.513942
21
12.5
31
0
39
0
210
0
220
0
230
1
0
LINE
5
AF
100
AcDbEntity
8
1
62
256
6
ByLayer
370
18
48
1
60
0
100
AcDbLine
10
26.394939
20
4.035394
30
0
11
26.281367
21
2.8
31
0
39
0
210
0
220
0
230
1
0
LINE
5
B0
100
AcDbEntity
8
1
62
256
6
ByLayer
370
18
48
1
60
0
100
AcDbLine
10
24.373945
20
9.195821
30
0
11
26.885085
21
9.367028
31
0
39
0
210
0
220
0
230
1
0
LINE
5
B1
100
AcDbEntity
8
1
62
256
6
ByLayer
370
18
48
1
60
0
100
AcDbLine
10
-0.271
20
-10.558322
30
0
11
-0.271
21
-10.705053
31
0
39
0
210
0
220
0
230
1
0
LINE
5
B2
100
AcDbEntity
8
1
62
256
6
ByLayer
370
18
48
1
60
0
100
AcDbLine
10
-0.271
20
-8.91337
30
0
11
-0.271
21
-8.026119
31
0
39
0
210
0
220
0
230
1
0
LINE
5
B3
100
AcDbEntity
8
1
62
256
6
ByLayer
370
18
48
1
60
0
100
AcDbLine
10
-0.271
20
10.705053
30
0
11
-0.271
21
10.558322
31
0
39
0
210
0
220
0
230
1
0
LINE
5
B4
100
AcDbEntity
8
1
62
256
6
ByLayer
370
18
48
1
60
0
100
AcDbLine
10
-0.271
20
3.871132
30
0
11
-0.271
21
5.909159
31
0
39
0
210
0
220
0
230
1
0
LINE
5
B5
100
AcDbEntity
8
1
62
256
6
ByLayer
370
18
48
1
60
0
100
AcDbLine
10
0.268332
20
-10.290988
30
0
11
0.268332
21
-10.078193
31
0
39
0
210
0
220
0
230
1
0
LINE
5
B6
100
AcDbEntity
8
1
62
256
6
ByLayer
370
18
48
1
60
0
100
AcDbLine
10
-0.271
20
6.415463
30
0
11
-0.271
21
7.664572
31
0
39
0
210
0
220
0
230
1
0
LINE
5
B7
100
AcDbEntity
8
1
62
256
6
ByLayer
370
18
48
1
60
0
100
AcDbLine
10
-0.271
20
11.513825
30
0
11
-0.271
21
11.665576
31
0
39
0
210
0
220
0
230
1
0
LINE
5
B8
100
AcDbEntity
8
1
62
256
6
ByLayer
370
18
48
1
60
0
100
AcDbLine
10
-0.271
20
9.172141
30
0
11
-0.271
21
8.91337
31
0
39
0
210
0
220
0
230
1
0
LINE
5
B9
100
AcDbEntity
8
1
62
256
6
ByLayer
370
18
48
1
60
0
100
AcDbLine
10
0.268332
20
11.422918
30
0
11
0.268332
21
11.543022
31
0
39
0
210
0
220
0
230
1
0
LINE
5
BA
100
AcDbEntity
8
1
62
256
6
ByLayer
370
18
48
1
60
0
100
AcDbLine
10
0.268332
20
10.843847
30
0
11
0.268332
21
11.006153
31
0
39
0
210
0
220
0
230
1
0
LINE
5
BB
100
AcDbEntity
8
1
62
256
6
ByLayer
370
18
48
1
60
0
100
AcDbLine
10
-0.271
20
10.705053
30
0
11
-0.271
21
11.081772
31
0
39
0
210
0
220
0
230
1
0
LINE
5
BC
100
AcDbEntity
8
SK1
62
256
6
ByLayer
370
18
48
1
60
0
100
AcDbLine
10
-0.271
20
3
30
0
11
-3.571
21
3
31
0
39
0
210
0
220
0
230
1
0
LINE
5
BD
100
AcDbEntity
8
1
62
256
6
ByLayer
370
18
48
1
60
0
100
AcDbLine
10
27.305294
20
10.101859
30
0
11
27.997049
21
18.008656
31
0
39
0
210
0
220
0
230
1
0
LINE
5
BE
100
AcDbEntity
8
1
62
256
6
ByLayer
370
18
48
1
60
0
100
AcDbLine
10
23.745721
20
12.407442
30
0
11
23.604578
21
12.211728
31
0
39
0
210
0
220
0
230
1
0
LINE
5
BF
100
AcDbEntity
8
1
62
256
6
ByLayer
370
18
48
1
60
0
100
AcDbLine
10
11.91557
20
17.479517
30
0
11
12.316418
21
17.149158
31
0
39
0
210
0
220
0
230
1
0
LINE
5
C0
100
AcDbEntity
8
1
62
256
6
ByLayer
370
18
48
1
60
0
100
AcDbLine
10
18.616515
20
8.859736
30
0
11
26.589049
21
9.403298
31
0
39
0
210
0
220
0
230
1
0
LINE
5
C1
100
AcDbEntity
8
1
62
256
6
ByLayer
370
18
48
1
60
0
100
AcDbLine
10
7.200856
20
-12.9
30
0
11
7.241145
21
-12.439502
31
0
39
0
210
0
220
0
230
1
0
LINE
5
C2
100
AcDbEntity
8
1
62
256
6
ByLayer
370
18
48
1
60
0
100
AcDbLine
10
-0.271
20
-11.081772
30
0
11
-0.271
21
-10.705053
31
0
39
0
210
0
220
0
230
1
0
LINE
5
C3
100
AcDbEntity
8
1
62
256
6
ByLayer
370
18
48
1
60
0
100
AcDbLine
10
5.531406
20
2.240061
30
0
11
5.531406
21
-12.9
31
0
39
0
210
0
220
0
230
1
0
LINE
5
C4
100
AcDbEntity
8
1
62
256
6
ByLayer
370
18
48
1
60
0
100
AcDbLine
10
14.374359
20
7
30
0
11
14.374359
21
11.923245
31
0
39
0
210
0
220
0
230
1
0
LINE
5
C5
100
AcDbEntity
8
1
62
256
6
ByLayer
370
18
48
1
60
0
100
AcDbLine
10
-0.271
20
3.871132
30
0
11
-0.271
21
2.822351
31
0
39
0
210
0
220
0
230
1
0
LINE
5
C6
100
AcDbEntity
8
1
62
256
6
ByLayer
370
18
48
1
60
0
100
AcDbLine
10
-0.271
20
-5.909159
30
0
11
-0.271
21
-3.871132
31
0
39
0
210
0
220
0
230
1
0
LINE
5
C7
100
AcDbEntity
8
1
62
256
6
ByLayer
370
18
48
1
60
0
100
AcDbLine
10
0.268332
20
-9.356734
30
0
11
0.268332
21
-9.078873
31
0
39
0
210
0
220
0
230
1
0
LINE
5
C8
100
AcDbEntity
8
1
62
256
6
ByLayer
370
18
48
1
60
0
100
AcDbLine
10
-0.271
20
-11.75
30
0
11
0.479
21
-12.5
31
0
39
0
210
0
220
0
230
1
0
LINE
5
C9
100
AcDbEntity
8
1
62
256
6
ByLayer
370
18
48
1
60
0
100
AcDbLine
10
-0.271
20
-9.850161
30
0
11
-0.271
21
-9.172141
31
0
39
0
210
0
220
0
230
1
0
LINE
5
CA
100
AcDbEntity
8
1
62
256
6
ByLayer
370
18
48
1
60
0
100
AcDbLine
10
-0.271
20
-11.665576
30
0
11
-0.271
21
-11.513825
31
0
39
0
210
0
220
0
230
1
0
LINE
5
CB
100
AcDbEntity
8
1
62
256
6
ByLayer
370
18
48
1
60
0
100
AcDbLine
10
-0.271
20
-5.909159
30
0
11
-0.271
21
-6.415463
31
0
39
0
210
0
220
0
230
1
0
LINE
5
CC
100
AcDbEntity
8
1
62
256
6
ByLayer
370
18
48
1
60
0
100
AcDbLine
10
-0.271
20
-9.850161
30
0
11
-0.271
21
-10.046177
31
0
39
0
210
0
220
0
230
1
0
LINE
5
CD
100
AcDbEntity
8
1
62
256
6
ByLayer
370
18
48
1
60
0
100
AcDbLine
10
26.881603
20
9.329157
30
0
11
27.163756
21
9.720398
31
0
39
0
210
0
220
0
230
1
0
LINE
5
CE
100
AcDbEntity
8
1
62
256
6
ByLayer
370
18
48
1
60
0
100
AcDbLine
10
0.479
20
-12.5
30
0
11
5.513942
21
-12.5
31
0
39
0
210
0
220
0
230
1
0
LINE
5
CF
100
AcDbEntity
8
1
62
256
6
ByLayer
370
18
48
1
60
0
100
AcDbLine
10
14.374359
20
7
30
0
11
5.569643
21
7
31
0
39
0
210
0
220
0
230
1
0
LINE
5
D0
100
AcDbEntity
8
1
62
256
6
ByLayer
370
18
48
1
60
0
100
AcDbLine
10
5.513942
20
12.5
30
0
11
0.479
21
12.5
31
0
39
0
210
0
220
0
230
1
0
LINE
5
D1
100
AcDbEntity
8
1
62
256
6
ByLayer
370
18
48
1
60
0
100
AcDbLine
10
-0.271
20
-11.44588
30
0
11
-0.271
21
-11.186852
31
0
39
0
210
0
220
0
230
1
0
LINE
5
D2
100
AcDbEntity
8
1
62
256
6
ByLayer
370
18
48
1
60
0
100
AcDbLine
10
14.851125
20
12.048743
30
0
11
14.951085
21
9.203453
31
0
39
0
210
0
220
0
230
1
0
LINE
5
D3
100
AcDbEntity
8
1
62
256
6
ByLayer
370
18
48
1
60
0
100
AcDbLine
10
18.488219
20
8.794536
30
0
11
21.358166
21
8.990207
31
0
39
0
210
0
220
0
230
1
0
LINE
5
D4
100
AcDbEntity
8
1
62
256
6
ByLayer
370
18
48
1
60
0
100
AcDbLine
10
0.479
20
12.5
30
0
11
0.479
21
-12.5
31
0
39
0
210
0
220
0
230
1
0
LINE
5
D5
100
AcDbEntity
8
1
62
256
6
ByLayer
370
18
48
1
60
0
100
AcDbLine
10
12.060332
20
16.945661
30
0
11
11.821729
21
17.192742
31
0
39
0
210
0
220
0
230
1
0
LINE
5
D6
100
AcDbEntity
8
1
62
256
6
ByLayer
370
18
48
1
60
0
100
AcDbLine
10
-0.271
20
8.012844
30
0
11
-0.271
21
7.664572
31
0
39
0
210
0
220
0
230
1
0
LINE
5
D7
100
AcDbEntity
8
1
62
256
6
ByLayer
370
18
48
1
60
0
100
AcDbLine
10
12.550068
20
16.438524
30
0
11
12.060332
21
16.945661
31
0
39
0
210
0
220
0
230
1
0
LINE
5
D8
100
AcDbEntity
8
1
62
256
6
ByLayer
370
18
48
1
60
0
100
AcDbLine
10
-0.271
20
9.172141
30
0
11
-0.271
21
9.850161
31
0
39
0
210
0
220
0
230
1
0
LINE
5
D9
100
AcDbEntity
8
1
62
256
6
ByLayer
370
18
48
1
60
0
100
AcDbLine
10
-0.271
20
-2.822351
30
0
11
-0.271
21
2.822351
31
0
39
0
210
0
220
0
230
1
0
LINE
5
DA
100
AcDbEntity
8
1
62
256
6
ByLayer
370
18
48
1
60
0
100
AcDbLine
10
7.52023
20
-9.249544
30
0
11
7.241145
21
-12.439502
31
0
39
0
210
0
220
0
230
1
0
LINE
5
DB
100
AcDbEntity
8
1
62
256
6
ByLayer
370
18
48
1
60
0
100
AcDbLine
10
19.211341
20
6.27327
30
0
11
18.805337
21
5.87905
31
0
39
0
210
0
220
0
230
1
0
LINE
5
DC
100
AcDbEntity
8
1
62
256
6
ByLayer
370
18
48
1
60
0
100
AcDbLine
10
-0.271
20
11.69896
30
0
11
-0.271
21
11.665576
31
0
39
0
210
0
220
0
230
1
0
LINE
5
DD
100
AcDbEntity
8
1
62
256
6
ByLayer
370
18
48
1
60
0
100
AcDbLine
10
-0.271
20
-11.44588
30
0
11
-0.271
21
-11.513825
31
0
39
0
210
0
220
0
230
1
0
LINE
5
DE
100
AcDbEntity
8
1
62
256
6
ByLayer
370
18
48
1
60
0
100
AcDbLine
10
-0.271
20
11.513825
30
0
11
-0.271
21
11.44588
31
0
39
0
210
0
220
0
230
1
0
LINE
5
DF
100
AcDbEntity
8
1
62
256
6
ByLayer
370
18
48
1
60
0
100
AcDbLine
10
0.268332
20
5.896003
30
0
11
0.268332
21
6.439065
31
0
39
0
210
0
220
0
230
1
0
LINE
5
E0
100
AcDbEntity
8
1
62
256
6
ByLayer
370
18
48
1
60
0
100
AcDbLine
10
21.584765
20
14.742014
30
0
11
21.267192
21
14.301658
31
0
39
0
210
0
220
0
230
1
0
LINE
5
E1
100
AcDbEntity
8
1
62
256
6
ByLayer
370
18
48
1
60
0
100
AcDbLine
10
-0.271
20
11.75
30
0
11
-0.271
21
11.748964
31
0
39
0
210
0
220
0
230
1
0
LINE
5
E2
100
AcDbEntity
8
1
62
256
6
ByLayer
370
18
48
1
60
0
100
AcDbLine
10
-0.271
20
-11.748964
30
0
11
-0.271
21
-11.75
31
0
39
0
210
0
220
0
230
1
0
LINE
5
E3
100
AcDbEntity
8
1
62
256
6
ByLayer
370
18
48
1
60
0
100
AcDbLine
10
22.01804
20
8.886659
30
0
11
23.740252
21
9.004078
31
0
39
0
210
0
220
0
230
1
0
LINE
5
E4
100
AcDbEntity
8
1
62
256
6
ByLayer
370
18
48
1
60
0
100
AcDbLine
10
0.268332
20
10.078193
30
0
11
0.268332
21
10.290988
31
0
39
0
210
0
220
0
230
1
0
LINE
5
E5
100
AcDbEntity
8
1
62
256
6
ByLayer
370
18
48
1
60
0
100
AcDbLine
10
-0.271
20
6.415463
30
0
11
-0.271
21
5.909159
31
0
39
0
210
0
220
0
230
1
0
LINE
5
E6
100
AcDbEntity
8
1
62
256
6
ByLayer
370
18
48
1
60
0
100
AcDbLine
10
-0.271
20
-11.081772
30
0
11
-0.271
21
-11.186852
31
0
39
0
210
0
220
0
230
1
0
LINE
5
E7
100
AcDbEntity
8
1
62
256
6
ByLayer
370
18
48
1
60
0
100
AcDbLine
10
20.318521
20
5.955333
30
0
11
19.764931
21
6.114301
31
0
39
0
210
0
220
0
230
1
0
LINE
5
E8
100
AcDbEntity
8
1
62
256
6
ByLayer
370
18
48
1
60
0
100
AcDbLine
10
-0.271
20
10.046177
30
0
11
-0.271
21
9.850161
31
0
39
0
210
0
220
0
230
1
0
LINE
5
E9
100
AcDbEntity
8
1
62
256
6
ByLayer
370
18
48
1
60
0
100
AcDbLine
10
0.268332
20
-12.168742
30
0
11
0.268332
21
-12.120072
31
0
39
0
210
0
220
0
230
1
0
LINE
5
EA
100
AcDbEntity
8
1
62
256
6
ByLayer
370
18
48
1
60
0
100
AcDbLine
10
0.268332
20
12.120072
30
0
11
0.268332
21
12.168742
31
0
39
0
210
0
220
0
230
1
0
LINE
5
EB
100
AcDbEntity
8
1
62
256
6
ByLayer
370
18
48
1
60
0
100
AcDbLine
10
-0.271
20
10.046177
30
0
11
-0.271
21
10.558322
31
0
39
0
210
0
220
0
230
1
0
LINE
5
EC
100
AcDbEntity
8
1
62
256
6
ByLayer
370
18
48
1
60
0
100
AcDbLine
10
14.372638
20
2.240061
30
0
11
5.531406
21
2.240061
31
0
39
0
210
0
220
0
230
1
0
LINE
5
ED
100
AcDbEntity
8
4
62
256
6
ByLayer
370
13
48
0.05
60
0
100
AcDbLine
10
0
20
0
30
0
11
28
21
0
31
0
39
0
210
0
220
0
230
1
0
LINE
5
EF
100
AcDbEntity
8
SK4
62
256
6
ByLayer
370
13
48
0.05
60
0
100
AcDbLine
10
-5
20
0
30
0
11
33
21
0
31
0
39
0
210
0
220
0
230
1
0
LINE
5
F1
100
AcDbEntity
8
80
62
256
6
ByLayer
370
13
48
1
60
0
100
AcDbLine
10
0
20
0
30
0
11
-3
21
0
31
0
39
0
210
0
220
0
230
1
0
LINE
5
F2
100
AcDbEntity
8
81
62
256
6
ByLayer
370
13
48
1
60
0
100
AcDbLine
10
28
20
19
30
0
11
31
21
19
31
0
39
0
210
0
220
0
230
1
0
MTEXT
5
1BD
100
AcDbEntity
8
SK6
62
256
6
ByLayer
370
13
48
1
60
0
100
AcDbMText
10
-2.66527
20
-32.310725
30
0
210
0
220
0
230
1
1
\W0.7460;SL-PCLNR-25-09HP-G
40
3.175
41
0
44
1.084337
50
0
71
7
72
5
7
iso_b_vert
0
DIMENSION
5
1CC
100
AcDbEntity
8
SK2
62
256
6
ByLayer
370
13
48
1
60
0
100
AcDbDimension
2
DimnDraft3D1
10
-14.500694
20
12.5
30
0
11
-13.706944
21
0.706539
31
0
70
33
71
5
72
1
41
1
210
0
220
0
230
1
3
Standard
100
AcDbAlignedDimension
13
-1.1085
23
-12.5
33
0
14
-1.1085
24
12.5
34
0
1001
ACAD
1000
DSTYLE
1002
{
1070
   279
1070
     0
1070
    74
1070
     0
1070
   173
1070
     1
1070
   340
1005
1BE
1070
   271
1070
     1
1070
   272
1070
     2
1070
    77
1070
     1
1070
    73
1070
     0
1070
   171
1070
     3
1070
   274
1070
     4
1070
   177
1070
     7
1070
   176
1070
     7
1070
   178
1070
     7
1070
    78
1070
     8
1070
    48
1040
-0.005
1070
    41
1041
3.175
1070
   147
1041
1.5875
1070
    42
1041
1.5875
1070
    44
1041
3.175
1070
   140
1041
3.175
1070
   343
1005
0
1070
   344
1005
0
1002
}
0
DIMENSION
5
1D7
100
AcDbEntity
8
2
62
256
6
ByLayer
370
13
48
1
60
0
100
AcDbDimension
2
DimnDraft3D2
10
-25.905523
20
28
30
0
11
-25.905523
21
12.145132
31
0
70
32
71
5
72
1
41
1
210
0
220
0
230
1
3
Standard
100
AcDbAlignedDimension
13
-1.5875
23
0
33
0
14
-20.5875
24
28
34
0
50
90
100
AcDbRotatedDimension
1001
ACAD
1000
DSTYLE
1002
{
1070
    74
1070
     0
1070
   279
1070
     0
1070
   173
1070
     1
1070
   340
1005
1BE
1070
   271
1070
     1
1070
   272
1070
     2
1070
    77
1070
     1
1070
    73
1070
     0
1070
   171
1070
     3
1070
   274
1070
     4
1070
   177
1070
     7
1070
   176
1070
     7
1070
   178
1070
     7
1070
    78
1070
     8
1070
    48
1040
-0.005
1070
    41
1041
3.175
1070
   147
1041
1.5875
1070
    42
1041
1.5875
1070
    44
1041
3.175
1070
   140
1041
3.175
1070
   343
1005
0
1070
   344
1005
0
1002
}
0
DIMENSION
5
1E1
100
AcDbEntity
8
2
62
256
6
ByLayer
370
13
48
1
60
0
100
AcDbDimension
2
DimnDraft3D3
10
19
20
-40.247729
30
0
11
7.152176
21
-40.247729
31
0
70
32
71
5
72
1
41
1
210
0
220
0
230
1
3
Standard
100
AcDbAlignedDimension
13
0
23
-1.5875
33
0
14
19
24
-32.5875
34
0
50
0
100
AcDbRotatedDimension
1001
ACAD
1000
DSTYLE
1002
{
1070
   279
1070
     0
1070
   173
1070
     1
1070
   340
1005
1BE
1070
   271
1070
     1
1070
   272
1070
     2
1070
    77
1070
     1
1070
    73
1070
     0
1070
   171
1070
     3
1070
   274
1070
     4
1070
   177
1070
     7
1070
   176
1070
     7
1070
   178
1070
     7
1070
    78
1070
     8
1070
    48
1040
-0.005
1070
    41
1041
3.175
1070
   147
1041
1.5875
1070
    42
1041
1.5875
1070
    44
1041
3.175
1070
   140
1041
3.175
1070
   343
1005
0
1070
   344
1005
0
1002
}
0
DIMENSION
5
1EB
100
AcDbEntity
8
SK2
62
256
6
ByLayer
370
13
48
1
60
0
100
AcDbDimension
2
DimnDraft3D4
10
33
20
0
30
0
11
-9.122615
21
-31.871153
31
0
70
34
71
5
72
1
41
1
210
0
220
0
230
1
3
Standard
100
AcDb2LineAngularDimension
13
27.305294
23
10.101859
33
0
14
27.997049
24
18.008656
34
0
15
-5
25
0
35
0
16
-10.175476
26
-35.745602
36
0
40
0
0
ENDSEC
0
SECTION
2
OBJECTS
0
DICTIONARY
5
256
330
0
100
AcDbDictionary
280
0
281
1
3
ACAD_GROUP
350
257
3
ACAD_MLINESTYLE
350
258
0
DICTIONARY
5
257
330
0
100
AcDbDictionary
280
0
281
1
0
DICTIONARY
5
258
330
0
100
AcDbDictionary
280
0
281
1
3
Standard
350
18
0
MLINESTYLE
5
18
330
258
100
AcDbMlineStyle
2
Standard
70
0
3

62
256
51
90
52
90
71
2
49
-0.5
62
256
6
ByLayer
49
0.5
62
256
6
ByLayer
0
RASTERVARIABLES
5
244
330

100
AcDbRasterVariables
90
0
70
1
71
1
72
1
0
ENDSEC
0
EOF
