0
SECTION
2
HEADER
9
$ACADVER
1
AC1015
9
$DWGCODEPAGE
3
ANSI_1252
9
$HANDSEED
5
257
9
$ANGBASE
50
0
9
$ANGDIR
70
0
9
$ATTMODE
70
1
9
$AUNITS
70
0
9
$AUPREC
70
0
9
$CECOLOR
62
256
9
$CELTSCALE
40
1
9
$CELTYPE
6
ByLayer
9
$CELWEIGHT
370
18
9
$CLAYER
8
0
9
$CMLJUST
70
0
9
$CMLSCALE
40
1
9
$CMLSTYLE
2
Standard
9
$DIMSTYLE
2
Standard
9
$TEXTSIZE
40
0.2
9
$TEXTSTYLE
7
Standard
9
$LUNITS
70
2
9
$LUPREC
70
4
9
$EXTNAMES
290
1
9
$INSUNITS
70
4
9
$LTSCALE
40
1
9
$LWDISPLAY
290
1
9
$PDMODE
70
0
9
$PDSIZE
40
0
9
$PLINEGEN
70
0
0
ENDSEC
0
SECTION
2
CLASSES
0
CLASS
1
RASTERVARIABLES
2
AcDbRasterVariables
3
ISM
90
0
280
0
281
0
0
ENDSEC
0
SECTION
2
TABLES
0
TABLE
2
VPORT
5
24d
100
AcDbSymbolTable
0
VPORT
5
1
100
AcDbSymbolTableRecord
100
AcDbViewportTableRecord
2
*Active
70
0
10
0
20
0
11
1
21
1
12
-1
22
1
13
0
23
0
14
0.5
24
0.5
15
10
25
10
16
0
26
0
36
1
17
0
27
0
37
0
0
ENDTAB
0
TABLE
2
LTYPE
5
24e
100
AcDbSymbolTable
0
LTYPE
5
14
100
AcDbSymbolTableRecord
100
AcDbLinetypeTableRecord
70
0
2
ByBlock
3

72
65
73
0
40
0
0
LTYPE
5
15
100
AcDbSymbolTableRecord
100
AcDbLinetypeTableRecord
70
0
2
ByLayer
3

72
65
73
0
40
0
0
LTYPE
5
16
100
AcDbSymbolTableRecord
100
AcDbLinetypeTableRecord
70
0
2
CONTINUOUS
3
Solid line
72
65
73
0
40
0
0
LTYPE
5
6A
100
AcDbSymbolTableRecord
100
AcDbLinetypeTableRecord
70
0
2
CENTER
3
____ _ ____ _ ____ _ ____
72
65
73
4
40
47.5
49
22
74
0
49
-8.5
74
0
49
8.5
74
0
49
-8.5
74
0
0
LTYPE
5
6B
100
AcDbSymbolTableRecord
100
AcDbLinetypeTableRecord
70
0
2
DASHED
3
__ __ __ __ __ __ __ __ __
72
65
73
2
40
25.72
49
12.86
74
0
49
-12.86
74
0
0
ENDTAB
0
TABLE
2
LAYER
5
24f
100
AcDbSymbolTable
0
LAYER
5
10
100
AcDbSymbolTableRecord
100
AcDbLayerTableRecord
2
0
70
0
62
7
6
CONTINUOUS
290
1
370
-3
390
0
0
LAYER
5
6D
100
AcDbSymbolTableRecord
100
AcDbLayerTableRecord
2
81
70
0
62
-3
6
CONTINUOUS
290
1
370
-3
390
0
0
LAYER
5
6F
100
AcDbSymbolTableRecord
100
AcDbLayerTableRecord
2
80
70
0
62
-6
6
CONTINUOUS
290
1
370
-3
390
0
0
LAYER
5
74
100
AcDbSymbolTableRecord
100
AcDbLayerTableRecord
2
4
70
0
62
-2
6
CENTER
290
1
370
-3
390
0
0
LAYER
5
76
100
AcDbSymbolTableRecord
100
AcDbLayerTableRecord
2
1
70
0
62
4
6
CONTINUOUS
290
1
370
-3
390
0
0
LAYER
5
1C1
100
AcDbSymbolTableRecord
100
AcDbLayerTableRecord
2
2
70
0
62
7
6
CONTINUOUS
290
1
370
-3
390
0
0
LAYER
5
237
100
AcDbSymbolTableRecord
100
AcDbLayerTableRecord
2
SK4
70
0
62
2
6
CENTER
290
1
370
-3
390
0
0
LAYER
5
238
100
AcDbSymbolTableRecord
100
AcDbLayerTableRecord
2
SK1
70
0
62
4
6
CONTINUOUS
290
1
370
-3
390
0
0
LAYER
5
239
100
AcDbSymbolTableRecord
100
AcDbLayerTableRecord
2
SK6
70
0
62
5
6
CONTINUOUS
290
1
370
-3
390
0
0
LAYER
5
23a
100
AcDbSymbolTableRecord
100
AcDbLayerTableRecord
2
SK2
70
0
62
7
6
CONTINUOUS
290
1
370
-3
390
0
0
ENDTAB
0
TABLE
2
STYLE
5
250
100
AcDbSymbolTable
0
STYLE
5
11
100
AcDbSymbolTableRecord
100
AcDbTextStyleTableRecord
2
Standard
3
txt
70
0
71
0
40
0
41
1
42
0
50
0
0
STYLE
5
197
100
AcDbSymbolTableRecord
100
AcDbTextStyleTableRecord
2
iso_b_vert
3
simplex.shx
70
0
71
0
40
0
41
1
42
0
50
0
0
STYLE
5
198
100
AcDbSymbolTableRecord
100
AcDbTextStyleTableRecord
2
DWGDirectTextStyle
3
simplex
70
0
71
0
40
0
41
1
42
0
50
0
0
ENDTAB
0
TABLE
2
DIMSTYLE
5
251
100
AcDbSymbolTable
100
AcDbDimStyleTable
0
DIMSTYLE
105
27
100
AcDbSymbolTableRecord
100
AcDbDimStyleTableRecord
2
Standard
70
0
3
<>
41
0.18
42
0.0625
44
0.18
140
0.18
147
0.09
73
0
74
0
77
1
271
2
275
0
278
52
280
0
340
11
0
ENDTAB
0
TABLE
2
VIEW
5
252
100
AcDbSymbolTable
0
ENDTAB
0
TABLE
2
UCS
5
253
100
AcDbSymbolTable
0
ENDTAB
0
TABLE
2
APPID
5
254
100
AcDbSymbolTable
0
APPID
5
12
100
AcDbSymbolTableRecord
100
AcDbRegAppTableRecord
2
ACAD
70
0
0
ENDTAB
0
TABLE
2
BLOCK_RECORD
5
255
100
AcDbSymbolTable
0
BLOCK_RECORD
5
1F
100
AcDbSymbolTableRecord
100
AcDbBlockTableRecord
2
*Model_Space
340
0
70
0
0
BLOCK_RECORD
5
1B
100
AcDbSymbolTableRecord
100
AcDbBlockTableRecord
2
*Paper_Space
340
0
70
0
0
BLOCK_RECORD
5
23
100
AcDbSymbolTableRecord
100
AcDbBlockTableRecord
2
*Paper_Space0
340
0
70
0
0
BLOCK_RECORD
5
19A
100
AcDbSymbolTableRecord
100
AcDbBlockTableRecord
2
DimnDraft3D1
340
0
70
0
0
BLOCK_RECORD
5
1AA
100
AcDbSymbolTableRecord
100
AcDbBlockTableRecord
2
_CLOSED
340
0
70
0
0
BLOCK_RECORD
5
1B1
100
AcDbSymbolTableRecord
100
AcDbBlockTableRecord
2
DimnDraft3D2
340
0
70
0
0
BLOCK_RECORD
5
1BF
100
AcDbSymbolTableRecord
100
AcDbBlockTableRecord
2
DimnDraft3D3
340
0
70
0
0
BLOCK_RECORD
5
1CF
100
AcDbSymbolTableRecord
100
AcDbBlockTableRecord
2
DimnDraft3D4
340
0
70
0
0
ENDTAB
0
ENDSEC
0
SECTION
2
BLOCKS
0
BLOCK
5
20
100
AcDbEntity
8
0
100
AcDbBlockBegin
2
*Model_Space
70
0
10
0
20
0
30
0
3
*Model_Space
0
ENDBLK
5
21
100
AcDbEntity
8
0
100
AcDbBlockEnd
0
BLOCK
5
1C
100
AcDbEntity
8
0
100
AcDbBlockBegin
2
*Paper_Space
70
0
10
0
20
0
30
0
3
*Paper_Space
0
ENDBLK
5
1D
100
AcDbEntity
8
0
100
AcDbBlockEnd
0
BLOCK
5
24
100
AcDbEntity
8
0
100
AcDbBlockBegin
2
*Paper_Space0
70
0
10
0
20
0
30
0
3
*Paper_Space0
0
ENDBLK
5
25
100
AcDbEntity
8
0
100
AcDbBlockEnd
0
BLOCK
5
1A7
100
AcDbEntity
8
0
100
AcDbBlockBegin
2
DimnDraft3D1
70
0
10
0
20
0
30
0
3
DimnDraft3D1
0
MTEXT
5
19B
100
AcDbEntity
8
SK2
62
256
6
ByLayer
370
18
48
1
60
0
100
AcDbMText
10
-212.021875
20
2.625
30
0
210
0
220
0
230
1
1
\W0.9046;40
40
4.5
41
0
44
1.084337
50
90
71
7
72
5
7
iso_b_vert
0
MTEXT
5
19D
100
AcDbEntity
8
SK2
62
256
6
ByLayer
370
18
48
1
60
0
100
AcDbMText
10
-212.353125
20
-5.956445
30
0
210
0
220
0
230
1
1
%%c
40
3.175
41
0
44
1.084337
50
90
71
7
72
5
7
iso_b_vert
0
LINE
5
19E
100
AcDbEntity
8
SK2
62
256
6
ByLayer
370
13
48
1
60
0
100
AcDbLine
10
-201.5875
20
20
30
0
11
-213.278125
21
20
31
0
39
0
210
0
220
0
230
1
0
LINE
5
19F
100
AcDbEntity
8
SK2
62
256
6
ByLayer
370
13
48
1
60
0
100
AcDbLine
10
-201.5875
20
-20
30
0
11
-213.278125
21
-20
31
0
39
0
210
0
220
0
230
1
0
LINE
5
1A0
100
AcDbEntity
8
SK2
62
256
6
ByLayer
370
13
48
1
60
0
100
AcDbLine
10
-210.103125
20
20
30
0
11
-210.103125
21
-20
31
0
39
0
210
0
220
0
230
1
0
LINE
5
1A1
100
AcDbEntity
8
SK2
62
256
6
ByLayer
370
13
48
1
60
0
100
AcDbLine
10
-210.103125
20
20
30
0
11
-209.685128
21
16.825002
31
0
39
0
210
0
220
0
230
1
0
LINE
5
1A2
100
AcDbEntity
8
SK2
62
256
6
ByLayer
370
13
48
1
60
0
100
AcDbLine
10
-210.103125
20
20
30
0
11
-210.521122
21
16.824998
31
0
39
0
210
0
220
0
230
1
0
LINE
5
1A3
100
AcDbEntity
8
SK2
62
256
6
ByLayer
370
13
48
1
60
0
100
AcDbLine
10
-209.685128
20
16.825002
30
0
11
-210.521122
21
16.824998
31
0
39
0
210
0
220
0
230
1
0
LINE
5
1A4
100
AcDbEntity
8
SK2
62
256
6
ByLayer
370
13
48
1
60
0
100
AcDbLine
10
-210.103125
20
-20
30
0
11
-210.521122
21
-16.825002
31
0
39
0
210
0
220
0
230
1
0
LINE
5
1A5
100
AcDbEntity
8
SK2
62
256
6
ByLayer
370
13
48
1
60
0
100
AcDbLine
10
-210.103125
20
-20
30
0
11
-209.685128
21
-16.824998
31
0
39
0
210
0
220
0
230
1
0
LINE
5
1A6
100
AcDbEntity
8
SK2
62
256
6
ByLayer
370
13
48
1
60
0
100
AcDbLine
10
-210.521122
20
-16.825002
30
0
11
-209.685128
21
-16.824998
31
0
39
0
210
0
220
0
230
1
0
ENDBLK
5
1A8
100
AcDbEntity
8
0
100
AcDbBlockEnd
0
BLOCK
5
1AB
100
AcDbEntity
8
0
100
AcDbBlockBegin
2
_CLOSED
70
0
10
0
20
0
30
0
3
_CLOSED
0
LINE
5
1AD
100
AcDbEntity
8
0
62
256
6
ByLayer
370
-2
48
1
60
0
100
AcDbLine
10
-1
20
0.166667
30
0
11
0
21
0
31
0
39
0
210
0
220
0
230
1
0
LINE
5
1AE
100
AcDbEntity
8
0
62
256
6
ByLayer
370
-2
48
1
60
0
100
AcDbLine
10
0
20
0
30
0
11
-1
21
-0.166667
31
0
39
0
210
0
220
0
230
1
0
LINE
5
1AF
100
AcDbEntity
8
0
62
256
6
ByLayer
370
-2
48
1
60
0
100
AcDbLine
10
-1
20
0.166667
30
0
11
-1
21
-0.166667
31
0
39
0
210
0
220
0
230
1
0
LINE
5
1B0
100
AcDbEntity
8
0
62
256
6
ByLayer
370
-2
48
1
60
0
100
AcDbLine
10
0
20
0
30
0
11
-1
21
0
31
0
39
0
210
0
220
0
230
1
0
ENDBLK
5
1AC
100
AcDbEntity
8
0
100
AcDbBlockEnd
0
BLOCK
5
1BC
100
AcDbEntity
8
0
100
AcDbBlockBegin
2
DimnDraft3D2
70
0
10
0
20
0
30
0
3
DimnDraft3D2
0
MTEXT
5
1B2
100
AcDbEntity
8
SK2
62
256
6
ByLayer
370
18
48
1
60
0
100
AcDbMText
10
-53.813158
20
-43.375
30
0
210
0
220
0
230
1
1
\W0.8635;300
40
4.5
41
0
44
1.084337
50
0
71
7
72
5
7
iso_b_vert
0
LINE
5
1B3
100
AcDbEntity
8
SK2
62
256
6
ByLayer
370
13
48
1
60
0
100
AcDbLine
10
-200
20
-21.5875
30
0
11
-200
21
-47.675
31
0
39
0
210
0
220
0
230
1
0
LINE
5
1B4
100
AcDbEntity
8
SK2
62
256
6
ByLayer
370
13
48
1
60
0
100
AcDbLine
10
100
20
-7.4875
30
0
11
100
21
-47.675
31
0
39
0
210
0
220
0
230
1
0
LINE
5
1B5
100
AcDbEntity
8
SK2
62
256
6
ByLayer
370
13
48
1
60
0
100
AcDbLine
10
-200
20
-44.5
30
0
11
100
21
-44.5
31
0
39
0
210
0
220
0
230
1
0
LINE
5
1B6
100
AcDbEntity
8
SK2
62
256
6
ByLayer
370
13
48
1
60
0
100
AcDbLine
10
-200
20
-44.5
30
0
11
-196.825002
21
-44.082003
31
0
39
0
210
0
220
0
230
1
0
LINE
5
1B7
100
AcDbEntity
8
SK2
62
256
6
ByLayer
370
13
48
1
60
0
100
AcDbLine
10
-200
20
-44.5
30
0
11
-196.824998
21
-44.917997
31
0
39
0
210
0
220
0
230
1
0
LINE
5
1B8
100
AcDbEntity
8
SK2
62
256
6
ByLayer
370
13
48
1
60
0
100
AcDbLine
10
-196.825002
20
-44.082003
30
0
11
-196.824998
21
-44.917997
31
0
39
0
210
0
220
0
230
1
0
LINE
5
1B9
100
AcDbEntity
8
SK2
62
256
6
ByLayer
370
13
48
1
60
0
100
AcDbLine
10
100
20
-44.5
30
0
11
96.825002
21
-44.917997
31
0
39
0
210
0
220
0
230
1
0
LINE
5
1BA
100
AcDbEntity
8
SK2
62
256
6
ByLayer
370
13
48
1
60
0
100
AcDbLine
10
100
20
-44.5
30
0
11
96.824998
21
-44.082003
31
0
39
0
210
0
220
0
230
1
0
LINE
5
1BB
100
AcDbEntity
8
SK2
62
256
6
ByLayer
370
13
48
1
60
0
100
AcDbLine
10
96.825002
20
-44.917997
30
0
11
96.824998
21
-44.082003
31
0
39
0
210
0
220
0
230
1
0
ENDBLK
5
1BD
100
AcDbEntity
8
0
100
AcDbBlockEnd
0
BLOCK
5
1CC
100
AcDbEntity
8
0
100
AcDbBlockBegin
2
DimnDraft3D3
70
0
10
0
20
0
30
0
3
DimnDraft3D3
0
MTEXT
5
1C0
100
AcDbEntity
8
2
62
256
6
ByLayer
370
18
48
1
60
0
100
AcDbMText
10
132.9625
20
-23.878125
30
0
210
0
220
0
230
1
1
\W0.7361;40
40
4.5
41
0
44
1.084337
50
0
71
7
72
5
7
iso_b_vert
0
MTEXT
5
1C2
100
AcDbEntity
8
2
62
256
6
ByLayer
370
18
48
1
60
0
100
AcDbMText
10
124.718555
20
-23.546875
30
0
210
0
220
0
230
1
1
%%c
40
3.175
41
0
44
1.084337
50
0
71
7
72
5
7
iso_b_vert
0
LINE
5
1C3
100
AcDbEntity
8
2
62
256
6
ByLayer
370
13
48
1
60
0
100
AcDbLine
10
80
20
-7.4875
30
0
11
80
21
-28.971875
31
0
39
0
210
0
220
0
230
1
0
LINE
5
1C4
100
AcDbEntity
8
2
62
256
6
ByLayer
370
13
48
1
60
0
100
AcDbLine
10
120
20
-7.4875
30
0
11
120
21
-28.971875
31
0
39
0
210
0
220
0
230
1
0
LINE
5
1C5
100
AcDbEntity
8
2
62
256
6
ByLayer
370
13
48
1
60
0
100
AcDbLine
10
80
20
-25.796875
30
0
11
137.6875
21
-25.796875
31
0
39
0
210
0
220
0
230
1
0
LINE
5
1C6
100
AcDbEntity
8
2
62
256
6
ByLayer
370
13
48
1
60
0
100
AcDbLine
10
80
20
-25.796875
30
0
11
83.174998
21
-25.378878
31
0
39
0
210
0
220
0
230
1
0
LINE
5
1C7
100
AcDbEntity
8
2
62
256
6
ByLayer
370
13
48
1
60
0
100
AcDbLine
10
80
20
-25.796875
30
0
11
83.175002
21
-26.214872
31
0
39
0
210
0
220
0
230
1
0
LINE
5
1C8
100
AcDbEntity
8
2
62
256
6
ByLayer
370
13
48
1
60
0
100
AcDbLine
10
83.174998
20
-25.378878
30
0
11
83.175002
21
-26.214872
31
0
39
0
210
0
220
0
230
1
0
LINE
5
1C9
100
AcDbEntity
8
2
62
256
6
ByLayer
370
13
48
1
60
0
100
AcDbLine
10
120
20
-25.796875
30
0
11
116.825002
21
-26.214872
31
0
39
0
210
0
220
0
230
1
0
LINE
5
1CA
100
AcDbEntity
8
2
62
256
6
ByLayer
370
13
48
1
60
0
100
AcDbLine
10
120
20
-25.796875
30
0
11
116.824998
21
-25.378878
31
0
39
0
210
0
220
0
230
1
0
LINE
5
1CB
100
AcDbEntity
8
2
62
256
6
ByLayer
370
13
48
1
60
0
100
AcDbLine
10
116.825002
20
-26.214872
30
0
11
116.824998
21
-25.378878
31
0
39
0
210
0
220
0
230
1
0
ENDBLK
5
1CD
100
AcDbEntity
8
0
100
AcDbBlockEnd
0
BLOCK
5
1DA
100
AcDbEntity
8
0
100
AcDbBlockBegin
2
DimnDraft3D4
70
0
10
0
20
0
30
0
3
DimnDraft3D4
0
MTEXT
5
1D0
100
AcDbEntity
8
2
62
256
6
ByLayer
370
18
48
1
60
0
100
AcDbMText
10
47.317763
20
31.625
30
0
210
0
220
0
230
1
1
\W0.6217;100
40
4.5
41
0
44
1.084337
50
0
71
7
72
5
7
iso_b_vert
0
LINE
5
1D1
100
AcDbEntity
8
2
62
256
6
ByLayer
370
13
48
1
60
0
100
AcDbLine
10
100
20
-4.3125
30
0
11
100
21
33.675
31
0
39
0
210
0
220
0
230
1
0
LINE
5
1D2
100
AcDbEntity
8
2
62
256
6
ByLayer
370
13
48
1
60
0
100
AcDbLine
10
0
20
1.5875
30
0
11
0
21
33.675
31
0
39
0
210
0
220
0
230
1
0
LINE
5
1D3
100
AcDbEntity
8
2
62
256
6
ByLayer
370
13
48
1
60
0
100
AcDbLine
10
100
20
30.5
30
0
11
0
21
30.5
31
0
39
0
210
0
220
0
230
1
0
LINE
5
1D4
100
AcDbEntity
8
2
62
256
6
ByLayer
370
13
48
1
60
0
100
AcDbLine
10
100
20
30.5
30
0
11
96.825002
21
30.082003
31
0
39
0
210
0
220
0
230
1
0
LINE
5
1D5
100
AcDbEntity
8
2
62
256
6
ByLayer
370
13
48
1
60
0
100
AcDbLine
10
100
20
30.5
30
0
11
96.824998
21
30.917997
31
0
39
0
210
0
220
0
230
1
0
LINE
5
1D6
100
AcDbEntity
8
2
62
256
6
ByLayer
370
13
48
1
60
0
100
AcDbLine
10
96.825002
20
30.082003
30
0
11
96.824998
21
30.917997
31
0
39
0
210
0
220
0
230
1
0
LINE
5
1D7
100
AcDbEntity
8
2
62
256
6
ByLayer
370
13
48
1
60
0
100
AcDbLine
10
0
20
30.5
30
0
11
3.174998
21
30.917997
31
0
39
0
210
0
220
0
230
1
0
LINE
5
1D8
100
AcDbEntity
8
2
62
256
6
ByLayer
370
13
48
1
60
0
100
AcDbLine
10
0
20
30.5
30
0
11
3.175002
21
30.082003
31
0
39
0
210
0
220
0
230
1
0
LINE
5
1D9
100
AcDbEntity
8
2
62
256
6
ByLayer
370
13
48
1
60
0
100
AcDbLine
10
3.174998
20
30.917997
30
0
11
3.175002
21
30.082003
31
0
39
0
210
0
220
0
230
1
0
ENDBLK
5
1DB
100
AcDbEntity
8
0
100
AcDbBlockEnd
0
ENDSEC
0
SECTION
2
ENTITIES
0
ARC
5
10A
100
AcDbEntity
8
1
62
256
6
ByLayer
370
13
48
1
60
0
100
AcDbCircle
39
0
10
-31.5
20
0
30
0
40
20.00000000004
210
0
220
0
230
-1
100
AcDbArc
50
157.668355
51
202.331645
0
POINT
5
6C
100
AcDbEntity
8
81
62
256
6
ByLayer
370
18
48
1
60
0
100
AcDbPoint
10
100
20
-5.9
30
0
39
0
210
0
220
0
230
1
50
360
0
POINT
5
6E
100
AcDbEntity
8
80
62
256
6
ByLayer
370
18
48
1
60
0
100
AcDbPoint
10
0
20
0
30
0
39
0
210
0
220
0
230
1
50
360
0
SPLINE
5
10B
100
AcDbEntity
8
1
62
256
6
ByLayer
370
13
48
1
60
0
100
AcDbSpline
70
4
71
3
72
8
73
4
40
0
40
0
40
0
40
0
40
1
40
1
40
1
40
1
41
1
10
83.4024978348664
20
-5.50548094716174
30
0
41
1
10
83.7421508647506
20
-5.72342515336805
30
0
41
1
10
84.0844419401573
20
-5.93821388267014
30
0
41
1
10
84.4296453447787
20
-6.1495190528384
30
0
0
SPLINE
5
10C
100
AcDbEntity
8
1
62
256
6
ByLayer
370
13
48
1
60
0
100
AcDbSpline
70
4
71
3
72
10
73
6
40
0
40
0
40
0
40
0
40
0.5
40
0.5
40
1
40
1
40
1
40
1
41
1
10
118.605631390478
20
-6.22451905283845
30
0
41
1
10
118.599824980866
20
-6.22451905283845
30
0
41
1
10
118.602640029568
20
-6.21582693505553
30
0
41
1
10
118.622073737362
20
-6.18745262089541
30
0
41
1
10
118.637549649379
20
-6.16888492907251
30
0
41
1
10
118.654965581825
20
-6.14951905283846
30
0
0
SPLINE
5
10D
100
AcDbEntity
8
1
62
256
6
ByLayer
370
13
48
1
60
0
100
AcDbSpline
70
4
71
3
72
10
73
6
40
0
40
0
40
0
40
0
40
0.5
40
0.5
40
1
40
1
40
1
40
1
41
1
10
82.2013685448115
20
-6.22451905283842
30
0
41
1
10
82.1893123232984
20
-6.22451905283842
30
0
41
1
10
82.1686412055901
20
-6.21457957050438
30
0
41
1
10
82.1233187917317
20
-6.18692030948392
30
0
41
1
10
82.0987754206581
20
-6.16931603378887
30
0
41
1
10
82.0735535278101
20
-6.14951905283843
30
0
0
SPLINE
5
10E
100
AcDbEntity
8
1
62
256
6
ByLayer
370
13
48
1
60
0
100
AcDbSpline
70
4
71
3
72
8
73
4
40
0
40
0
40
0
40
0
40
1
40
1
40
1
40
1
41
1
10
85.6080312530775
20
-6.1495190528384
30
0
41
1
10
85.2241003985483
20
-5.93944622760338
30
0
41
1
10
84.8437514236082
20
-5.72461241366014
30
0
41
1
10
84.4666357421941
20
-5.50548094716171
30
0
0
SPLINE
5
10F
100
AcDbEntity
8
1
62
256
6
ByLayer
370
13
48
1
60
0
100
AcDbSpline
70
4
71
3
72
8
73
4
40
0
40
0
40
0
40
0
40
1
40
1
40
1
40
1
41
1
10
107.714837220704
20
-5.50548094716186
30
0
41
1
10
106.6806456291
20
-5.76970565136432
30
0
41
1
10
105.633480910794
20
-5.98644255655987
30
0
41
1
10
104.571656778948
20
-6.14951905283871
30
0
0
SPLINE
5
110
100
AcDbEntity
8
1
62
256
6
ByLayer
370
13
48
1
60
0
100
AcDbSpline
70
4
71
3
72
8
73
4
40
0
40
0
40
0
40
0
40
1
40
1
40
1
40
1
41
1
10
88.9088140824144
20
-6.14951905283843
30
0
41
1
10
88.391732490669
20
-5.94495113090071
30
0
41
1
10
87.8805153485285
20
-5.72990519726233
30
0
41
1
10
87.3745471663856
20
-5.50548094716174
30
0
0
SPLINE
5
111
100
AcDbEntity
8
1
62
256
6
ByLayer
370
13
48
1
60
0
100
AcDbSpline
70
4
71
3
72
12
73
8
40
0
40
0
40
0
40
0
40
0.499999999999994
40
0.499999999999994
40
0.749999999999997
40
0.749999999999997
40
1
40
1
40
1
40
1
41
1
10
116.530067264423
20
-6.14951905283846
30
0
41
1
10
116.50011410017
20
-6.16967009306703
30
0
41
1
10
116.470469995651
20
-6.1872637196185
30
0
41
1
10
116.428073003984
20
-6.20776482432009
30
0
41
1
10
116.414528635589
20
-6.21348701653886
30
0
41
1
10
116.3890495173
20
-6.22188979263171
30
0
41
1
10
116.377205597811
20
-6.22451905284694
30
0
41
1
10
116.367574635847
20
-6.22451905284754
30
0
0
SPLINE
5
112
100
AcDbEntity
8
1
62
256
6
ByLayer
370
13
48
1
60
0
100
AcDbSpline
70
4
71
3
72
12
73
8
40
0
40
0
40
0
40
0
40
0.25000000000013
40
0.25000000000013
40
0.50000000000026
40
0.50000000000026
40
1
40
1
40
1
40
1
41
1
10
115.385077456793
20
-6.22451905284183
30
0
41
1
10
115.3970628219
20
-6.2245190528416
30
0
41
1
10
115.411203307264
20
-6.22183387594717
30
0
41
1
10
115.440765681165
20
-6.21345197081399
30
0
41
1
10
115.456480849912
20
-6.20766321215623
30
0
41
1
10
115.504452627256
20
-6.18722302573272
30
0
41
1
10
115.537121074233
20
-6.16986192139618
30
0
41
1
10
115.570354655221
20
-6.14951905283843
30
0
0
SPLINE
5
113
100
AcDbEntity
8
1
62
256
6
ByLayer
370
13
48
1
60
0
100
AcDbSpline
70
4
71
3
72
12
73
8
40
0
40
0
40
0
40
0
40
0.24999999999988
40
0.24999999999988
40
0.49999999999976
40
0.49999999999976
40
1
40
1
40
1
40
1
41
1
10
112.680963139062
20
-6.22451905283845
30
0
41
1
10
112.699682664341
20
-6.22451905283845
30
0
41
1
10
112.719770498515
20
-6.22187437749082
30
0
41
1
10
112.76145958376
20
-6.21361899400637
30
0
41
1
10
112.783123205227
20
-6.2079003505001
30
0
41
1
10
112.847808300421
20
-6.18780249935222
30
0
41
1
10
112.891350994336
20
-6.17043605892212
30
0
41
1
10
112.935284486065
20
-6.14951905283851
30
0
0
SPLINE
5
114
100
AcDbEntity
8
1
62
256
6
ByLayer
370
13
48
1
60
0
100
AcDbSpline
70
4
71
3
72
20
73
16
40
0
40
0
40
0
40
0
40
0.249999999999793
40
0.249999999999793
40
0.499999999999586
40
0.499999999999586
40
0.624999999999607
40
0.624999999999607
40
0.749999999999628
40
0.749999999999628
40
0.812499999999722
40
0.812499999999722
40
0.874999999999815
40
0.874999999999815
40
1
40
1
40
1
40
1
41
1
10
87.3745471663857
20
-5.50548094716177
30
0
41
1
10
87.3330759696232
20
-5.48708622875316
30
0
41
1
10
87.2918301276621
20
-5.47107222333938
30
0
41
1
10
87.209833479229
20
-5.44406615569614
30
0
41
1
10
87.1687075546968
20
-5.43293265899973
30
0
41
1
10
87.1104074750769
20
-5.42301933334397
30
0
41
1
10
87.0913370989443
20
-5.42081290176455
30
0
41
1
10
87.0554135352718
20
-5.42021563079652
30
0
41
1
10
87.0385248712966
20
-5.4217490900744
30
0
41
1
10
87.0186119392052
20
-5.42975914248123
30
0
41
1
10
87.012938510353
20
-5.43343559436798
30
0
41
1
10
87.0052183982439
20
-5.44338599883028
30
0
41
1
10
87.0032802102885
20
-5.44973131291664
30
0
41
1
10
87.0047485163876
20
-5.4714944427829
30
0
41
1
10
87.0154102423896
20
-5.48915543045172
30
0
41
1
10
87.0294364666587
20
-5.50548094716189
30
0
0
SPLINE
5
115
100
AcDbEntity
8
1
62
256
6
ByLayer
370
13
48
1
60
0
100
AcDbSpline
70
4
71
3
72
14
73
10
40
0
40
0
40
0
40
0
40
0.25
40
0.25
40
0.5
40
0.5
40
0.75
40
0.75
40
1
40
1
40
1
40
1
41
1
10
110.475907994423
20
-6.22451905284873
30
0
41
1
10
110.462281395913
20
-6.22451905284922
30
0
41
1
10
110.448985196585
20
-6.22373905596831
30
0
41
1
10
110.424455583018
20
-6.21952679675169
30
0
41
1
10
110.412985598394
20
-6.21610681385727
30
0
41
1
10
110.396138883716
20
-6.204132804219
30
0
41
1
10
110.391309954094
20
-6.19485565507011
30
0
41
1
10
110.395797555878
20
-6.17260415892477
30
0
41
1
10
110.404268793235
20
-6.16050952677372
30
0
41
1
10
110.414661697571
20
-6.14951905283806
30
0
0
SPLINE
5
116
100
AcDbEntity
8
1
62
256
6
ByLayer
370
13
48
1
60
0
100
AcDbSpline
70
4
71
3
72
12
73
8
40
0
40
0
40
0
40
0
40
0.50000000000026
40
0.50000000000026
40
0.75000000000013
40
0.75000000000013
40
1
40
1
40
1
40
1
41
1
10
114.391968746923
20
-6.14951905283843
30
0
41
1
10
114.354319421295
20
-6.17011937737493
30
0
41
1
10
114.316372092325
20
-6.18779779520745
30
0
41
1
10
114.261690431265
20
-6.2078994519652
30
0
41
1
10
114.243805868422
20
-6.21354501573265
30
0
41
1
10
114.209001852777
20
-6.22187953072628
30
0
41
1
10
114.192387326259
20
-6.22451905283845
30
0
41
1
10
114.177577975202
20
-6.22451905283845
30
0
0
SPLINE
5
117
100
AcDbEntity
8
1
62
256
6
ByLayer
370
13
48
1
60
0
100
AcDbSpline
70
4
71
3
72
8
73
4
40
0
40
0
40
0
40
0
40
1
40
1
40
1
40
1
41
1
10
88.9805993208182
20
-5.50548094716174
30
0
41
1
10
89.1813648270545
20
-5.72073367181611
30
0
41
1
10
89.3829019218485
20
-5.93544301666398
30
0
41
1
10
89.5853383024207
20
-6.14951905283053
30
0
0
SPLINE
5
118
100
AcDbEntity
8
1
62
256
6
ByLayer
370
13
48
1
60
0
100
AcDbSpline
70
4
71
3
72
8
73
4
40
0
40
0
40
0
40
0
40
1
40
1
40
1
40
1
41
1
10
119.511589753913
20
-5.5054809471618
30
0
41
1
10
119.312475928032
20
-5.72045604762087
30
0
41
1
10
119.112948743661
20
-5.93514458153888
30
0
41
1
10
118.912973356459
20
-6.14951905283846
30
0
0
SPLINE
5
119
100
AcDbEntity
8
1
62
256
6
ByLayer
370
13
48
1
60
0
100
AcDbSpline
70
4
71
3
72
12
73
8
40
0
40
0
40
0
40
0
40
0.499999999999998
40
0.499999999999998
40
0.749999999999999
40
0.749999999999999
40
1
40
1
40
1
40
1
41
1
10
82.6924784141889
20
-6.1495190528384
30
0
41
1
10
82.7199655563367
20
-6.16958816027076
30
0
41
1
10
82.74662103652
20
-6.18705703676352
30
0
41
1
10
82.7846320114468
20
-6.20776064922146
30
0
41
1
10
82.7965886811885
20
-6.21351039202199
30
0
41
1
10
82.8185864061737
20
-6.2219171459495
30
0
41
1
10
82.8285780871553
20
-6.22451905284146
30
0
41
1
10
82.8362477712811
20
-6.22451905284166
30
0
0
SPLINE
5
11A
100
AcDbEntity
8
1
62
256
6
ByLayer
370
13
48
1
60
0
100
AcDbSpline
70
4
71
3
72
10
73
6
40
0
40
0
40
0
40
0
40
0.5
40
0.5
40
1
40
1
40
1
40
1
41
1
10
118.747582310107
20
-6.14951905283843
30
0
41
1
10
118.725520353466
20
-6.16911509374995
30
0
41
1
10
118.70419388982
20
-6.18707462449333
30
0
41
1
10
118.667827159659
20
-6.21469553107605
30
0
41
1
10
118.652361402677
20
-6.2245190528385
30
0
41
1
10
118.646315021874
20
-6.2245190528385
30
0
0
SPLINE
5
11B
100
AcDbEntity
8
1
62
256
6
ByLayer
370
13
48
1
60
0
100
AcDbSpline
70
4
71
3
72
8
73
4
40
0
40
0
40
0
40
0
40
1
40
1
40
1
40
1
41
1
10
112.935284486065
20
-6.14951905283846
30
0
41
1
10
113.372384898788
20
-5.9414128533912
30
0
41
1
10
113.804986266806
20
-5.72650473366292
30
0
41
1
10
114.23354250388
20
-5.50548094716177
30
0
0
SPLINE
5
11C
100
AcDbEntity
8
1
62
256
6
ByLayer
370
13
48
1
60
0
100
AcDbSpline
70
4
71
3
72
16
73
12
40
0
40
0
40
0
40
0
40
0.249999999999937
40
0.249999999999937
40
0.374999999999945
40
0.374999999999945
40
0.499999999999954
40
0.499999999999954
40
0.749999999999977
40
0.749999999999977
40
1
40
1
40
1
40
1
41
1
10
118.830440266676
20
-5.50548094716177
30
0
41
1
10
118.851472890335
20
-5.48124256877517
30
0
41
1
10
118.869390775144
20
-5.45767020522075
30
0
41
1
10
118.881024804893
20
-5.43316895709094
30
0
41
1
10
118.882192339511
20
-5.42706152630021
30
0
41
1
10
118.878425014179
20
-5.42029967805777
30
0
41
1
10
118.873600998023
20
-5.41972957894444
30
0
41
1
10
118.853129710278
20
-5.42466552848833
30
0
41
1
10
118.832296227573
20
-5.43625848657797
30
0
41
1
10
118.786376520978
20
-5.46662793169972
30
0
41
1
10
118.761814276564
20
-5.48500377779911
30
0
41
1
10
118.736384309397
20
-5.50548094716177
30
0
0
SPLINE
5
11D
100
AcDbEntity
8
1
62
256
6
ByLayer
370
13
48
1
60
0
100
AcDbSpline
70
4
71
3
72
8
73
4
40
0
40
0
40
0
40
0
40
1
40
1
40
1
40
1
41
1
10
81.0870266435411
20
-6.1495190528384
30
0
41
1
10
80.8870512563392
20
-5.93514458153885
30
0
41
1
10
80.6875240719676
20
-5.72045604762084
30
0
41
1
10
80.4884102460874
20
-5.50548094716174
30
0
0
SPLINE
5
11E
100
AcDbEntity
8
1
62
256
6
ByLayer
370
13
48
1
60
0
100
AcDbSpline
70
4
71
3
72
14
73
10
40
0
40
0
40
0
40
0
40
0.25
40
0.25
40
0.5
40
0.5
40
0.75
40
0.75
40
1
40
1
40
1
40
1
41
1
10
116.246756103083
20
-6.2245190528385
30
0
41
1
10
116.239484357814
20
-6.2245190528385
30
0
41
1
10
116.233404483957
20
-6.22306960271169
30
0
41
1
10
116.225472481898
20
-6.21627499402024
30
0
41
1
10
116.223746714242
20
-6.21082092142916
30
0
41
1
10
116.225627085928
20
-6.19672158771971
30
0
41
1
10
116.22922125671
20
-6.187961482541
30
0
41
1
10
116.240045288044
20
-6.16934652089321
30
0
41
1
10
116.24723924373
20
-6.15942486713718
30
0
41
1
10
116.255351720802
20
-6.14951905283846
30
0
0
SPLINE
5
11F
100
AcDbEntity
8
1
62
256
6
ByLayer
370
13
48
1
60
0
100
AcDbSpline
70
4
71
3
72
8
73
4
40
0
40
0
40
0
40
0
40
1
40
1
40
1
40
1
41
1
10
80.8363946517015
20
-5.50548094716171
30
0
41
1
10
81.0886905471494
20
-5.72130427985863
30
0
41
1
10
81.3422387932477
20
-5.93601812046106
30
0
41
1
10
81.5971561220212
20
-6.14951905283837
30
0
0
SPLINE
5
120
100
AcDbEntity
8
1
62
256
6
ByLayer
370
13
48
1
60
0
100
AcDbSpline
70
4
71
3
72
10
73
6
40
0
40
0
40
0
40
0
40
0.5
40
0.5
40
1
40
1
40
1
40
1
41
1
10
96.3645972976555
20
-6.22451905283842
30
0
41
1
10
96.2091179175598
20
-6.22451905283842
30
0
41
1
10
96.0531347146676
20
-6.21646969519378
30
0
41
1
10
95.7408372824076
20
-6.19114212677871
30
0
41
1
10
95.584310415894
20
-6.17347272172444
30
0
41
1
10
95.4283432210519
20
-6.14951905283851
30
0
0
SPLINE
5
121
100
AcDbEntity
8
1
62
256
6
ByLayer
370
13
48
1
60
0
100
AcDbSpline
70
4
71
3
72
18
73
14
40
0
40
0
40
0
40
0
40
0.125
40
0.125
40
0.25
40
0.25
40
0.375
40
0.375
40
0.5
40
0.5
40
0.75
40
0.75
40
1
40
1
40
1
40
1
41
1
10
85.4898709372897
20
-5.5054809471618
30
0
41
1
10
85.4773781044308
20
-5.49038723417908
30
0
41
1
10
85.4672952434338
20
-5.47463966351953
30
0
41
1
10
85.4597416855871
20
-5.44723805162661
30
0
41
1
10
85.4628951326899
20
-5.43645796602581
30
0
41
1
10
85.4798060050309
20
-5.42340543767111
30
0
41
1
10
85.4927400439741
20
-5.42087244047372
30
0
41
1
10
85.5210320276029
20
-5.42017359220196
30
0
41
1
10
85.5366310975184
20
-5.42194651200168
30
0
41
1
10
85.5861691028477
20
-5.43123319765147
30
0
41
1
10
85.6218108823334
20
-5.44250101928256
30
0
41
1
10
85.6937224669938
20
-5.47019656723685
30
0
41
1
10
85.7299657172693
20
-5.4866606607207
30
0
41
1
10
85.7664574961202
20
-5.50548094716174
30
0
0
SPLINE
5
122
100
AcDbEntity
8
1
62
256
6
ByLayer
370
13
48
1
60
0
100
AcDbSpline
70
4
71
3
72
18
73
14
40
0
40
0
40
0
40
0
40
0.25
40
0.25
40
0.499999999999999
40
0.499999999999999
40
0.624999999999999
40
0.624999999999999
40
0.75
40
0.75
40
0.875
40
0.875
40
1
40
1
40
1
40
1
41
1
10
116.597502165134
20
-5.50548094716177
30
0
41
1
10
116.627999859255
20
-5.48591157738866
30
0
41
1
10
116.658537646876
20
-5.46838531451331
30
0
41
1
10
116.716762650352
20
-5.43982085993127
30
0
41
1
10
116.745272559543
20
-5.42831238166355
30
0
41
1
10
116.781414780948
20
-5.42058324126501
30
0
41
1
10
116.79249628339
20
-5.41963895130914
30
0
41
1
10
116.809523040135
20
-5.42303955069755
30
0
41
1
10
116.815541443777
20
-5.42755279953789
30
0
41
1
10
116.818763732688
20
-5.44318131392984
30
0
41
1
10
116.815867996966
20
-5.45407326033424
30
0
41
1
10
116.803286004072
20
-5.47852113031126
30
0
41
1
10
116.7937544735
20
-5.49203412934688
30
0
41
1
10
116.782744099361
20
-5.50548094716177
30
0
0
SPLINE
5
123
100
AcDbEntity
8
1
62
256
6
ByLayer
370
13
48
1
60
0
100
AcDbSpline
70
4
71
3
72
8
73
4
40
0
40
0
40
0
40
0
40
1
40
1
40
1
40
1
41
1
10
81.252417689893
20
-6.1495190528384
30
0
41
1
10
81.0117586125147
20
-5.93575899506649
30
0
41
1
10
80.7722295592671
20
-5.72105319202421
30
0
41
1
10
80.5337357743899
20
-5.50548094716174
30
0
0
SPLINE
5
124
100
AcDbEntity
8
1
62
256
6
ByLayer
370
13
48
1
60
0
100
AcDbSpline
70
4
71
3
72
8
73
4
40
0
40
0
40
0
40
0
40
1
40
1
40
1
40
1
41
1
10
112.97056353334
20
-5.50548094716177
30
0
41
1
10
112.785977765841
20
-5.72032551074372
30
0
41
1
10
112.601146714653
20
-5.93501222988718
30
0
41
1
10
112.416037958942
20
-6.14951905283846
30
0
0
SPLINE
5
125
100
AcDbEntity
8
1
62
256
6
ByLayer
370
13
48
1
60
0
100
AcDbSpline
70
4
71
3
72
16
73
12
40
0
40
0
40
0
40
0
40
0.250000000000107
40
0.250000000000107
40
0.375000000000089
40
0.375000000000089
40
0.500000000000072
40
0.500000000000072
40
0.750000000000036
40
0.750000000000036
40
1
40
1
40
1
40
1
41
1
10
119.511589753913
20
-5.50548094716177
30
0
41
1
10
119.532857574096
20
-5.48251894660629
30
0
41
1
10
119.55200392596
20
-5.46073449994842
30
0
41
1
10
119.570592247818
20
-5.43631610925885
30
0
41
1
10
119.574902709345
20
-5.42975805919292
30
0
41
1
10
119.578295351034
20
-5.42152580788908
30
0
41
1
10
119.577339361099
20
-5.4198570570893
30
0
41
1
10
119.56714105102
20
-5.42239133890965
30
0
41
1
10
119.550836159511
20
-5.43386798025017
30
0
41
1
10
119.512265260847
20
-5.46475876423432
30
0
41
1
10
119.489693086015
20
-5.48430382493791
30
0
41
1
10
119.46626422561
20
-5.50548094716177
30
0
0
SPLINE
5
126
100
AcDbEntity
8
1
62
256
6
ByLayer
370
13
48
1
60
0
100
AcDbSpline
70
4
71
3
72
8
73
4
40
0
40
0
40
0
40
0
40
1
40
1
40
1
40
1
41
1
10
117.469079857781
20
-5.5054809471618
30
0
41
1
10
117.15832687827
20
-5.72262203690559
30
0
41
1
10
116.845395744974
20
-5.93738130193987
30
0
41
1
10
116.530067264423
20
-6.14951905283843
30
0
0
SPLINE
5
127
100
AcDbEntity
8
1
62
256
6
ByLayer
370
13
48
1
60
0
100
AcDbSpline
70
4
71
3
72
18
73
14
40
0
40
0
40
0
40
0
40
0.24999999999991
40
0.24999999999991
40
0.499999999999821
40
0.499999999999821
40
0.624999999999866
40
0.624999999999866
40
0.74999999999991
40
0.74999999999991
40
0.874999999999955
40
0.874999999999955
40
1
40
1
40
1
40
1
41
1
10
118.175819762351
20
-5.5054809471618
30
0
41
1
10
118.202676786927
20
-5.4852544990739
30
0
41
1
10
118.229264250333
20
-5.46693739209297
30
0
41
1
10
118.278390804175
20
-5.43744016057349
30
0
41
1
10
118.301605164819
20
-5.42578494706638
30
0
41
1
10
118.327307427451
20
-5.41984483651314
30
0
41
1
10
118.334094507581
20
-5.41996515765152
30
0
41
1
10
118.341793352639
20
-5.42576194168257
30
0
41
1
10
118.342580674964
20
-5.4315819727868
30
0
41
1
10
118.337716639787
20
-5.44774923723836
30
0
41
1
10
118.332117442831
20
-5.45815862889472
30
0
41
1
10
118.316923902463
20
-5.48083417603578
30
0
41
1
10
118.307429716121
20
-5.49304974317735
30
0
41
1
10
118.29691650505
20
-5.50548094716174
30
0
0
SPLINE
5
128
100
AcDbEntity
8
1
62
256
6
ByLayer
370
13
48
1
60
0
100
AcDbSpline
70
4
71
3
72
14
73
10
40
0
40
0
40
0
40
0
40
0.25
40
0.25
40
0.5
40
0.5
40
0.75
40
0.75
40
1
40
1
40
1
40
1
41
1
10
115.232978672733
20
-6.14951905283846
30
0
41
1
10
115.224746262517
20
-6.15959452543555
30
0
41
1
10
115.217674277649
20
-6.16968253757094
30
0
41
1
10
115.207800118019
20
-6.18875310713625
30
0
41
1
10
115.205152576725
20
-6.1976914038492
30
0
41
1
10
115.206050037488
20
-6.2117962008283
30
0
41
1
10
115.20955383902
20
-6.216924575349
30
0
41
1
10
115.220601835668
20
-6.22321800420258
30
0
41
1
10
115.228144216741
20
-6.22451905283967
30
0
41
1
10
115.23659984976
20
-6.22451905283961
30
0
0
SPLINE
5
129
100
AcDbEntity
8
1
62
256
6
ByLayer
370
13
48
1
60
0
100
AcDbSpline
70
4
71
3
72
18
73
14
40
0
40
0
40
0
40
0
40
0.249999999999877
40
0.249999999999877
40
0.499999999999755
40
0.499999999999755
40
0.624999999999816
40
0.624999999999816
40
0.749999999999877
40
0.749999999999877
40
0.874999999999939
40
0.874999999999939
40
1
40
1
40
1
40
1
41
1
10
114.23354250388
20
-5.5054809471618
30
0
41
1
10
114.270088454251
20
-5.48663272227643
30
0
41
1
10
114.306765952787
20
-5.46998485903271
30
0
41
1
10
114.378682458851
20
-5.44233494292769
30
0
41
1
10
114.413757661325
20
-5.43124153672917
30
0
41
1
10
114.463487920991
20
-5.42192690186613
30
0
41
1
10
114.479181331776
20
-5.42014435988531
30
0
41
1
10
114.507695828779
20
-5.42091850291359
30
0
41
1
10
114.520465427917
20
-5.42351287301062
30
0
41
1
10
114.537177820361
20
-5.43661845790027
30
0
41
1
10
114.540261434112
20
-5.44751737976898
30
0
41
1
10
114.532536225804
20
-5.47495401959489
30
0
41
1
10
114.522581755403
20
-5.49043573111703
30
0
41
1
10
114.51012906271
20
-5.50548094716183
30
0
0
SPLINE
5
12A
100
AcDbEntity
8
1
62
256
6
ByLayer
370
13
48
1
60
0
100
AcDbSpline
70
4
71
3
72
12
73
8
40
0
40
0
40
0
40
0
40
0.500000000000214
40
0.500000000000214
40
0.750000000000107
40
0.750000000000107
40
1
40
1
40
1
40
1
41
1
10
111.091185917586
20
-6.14951905283866
30
0
41
1
10
111.037474347949
20
-6.17076843467689
30
0
41
1
10
110.984061191244
20
-6.18813306614098
30
0
41
1
10
110.904387183139
20
-6.2080523980286
30
0
41
1
10
110.877774689176
20
-6.21366616142893
30
0
41
1
10
110.825372487015
20
-6.22187662018126
30
0
41
1
10
110.799811427642
20
-6.22451905283845
30
0
41
1
10
110.775432011087
20
-6.22451905283845
30
0
0
SPLINE
5
12B
100
AcDbEntity
8
1
62
256
6
ByLayer
370
13
48
1
60
0
100
AcDbSpline
70
4
71
3
72
10
73
6
40
0
40
0
40
0
40
0
40
0.5
40
0.5
40
1
40
1
40
1
40
1
41
1
10
81.5971561220212
20
-6.14951905283837
30
0
41
1
10
81.6206941101128
20
-6.16923282603696
30
0
41
1
10
81.6436390205067
20
-6.1870951761195
30
0
41
1
10
81.6840650249651
20
-6.21460932737133
30
0
41
1
10
81.7021491751365
20
-6.22451905283864
30
0
41
1
10
81.7109821809291
20
-6.22451905283864
30
0
0
SPLINE
5
12C
100
AcDbEntity
8
1
62
256
6
ByLayer
370
13
48
1
60
0
100
AcDbSpline
70
4
71
3
72
14
73
10
40
0
40
0
40
0
40
0
40
0.25
40
0.25
40
0.5
40
0.5
40
0.75
40
0.75
40
1
40
1
40
1
40
1
41
1
10
83.744648279198
20
-6.14951905283843
30
0
41
1
10
83.7527550661506
20
-6.15941791916515
30
0
41
1
10
83.7598903820593
20
-6.16924227723757
30
0
41
1
10
83.7708010389762
20
-6.18799346114844
30
0
41
1
10
83.7743854543695
20
-6.19675047405141
30
0
41
1
10
83.7762512661765
20
-6.21087128762025
30
0
41
1
10
83.7744874688213
20
-6.21631150960522
30
0
41
1
10
83.7666284727454
20
-6.22303916068398
30
0
41
1
10
83.7605060440044
20
-6.22451905283879
30
0
41
1
10
83.7532438969176
20
-6.22451905283876
30
0
0
SPLINE
5
12D
100
AcDbEntity
8
1
62
256
6
ByLayer
370
13
48
1
60
0
100
AcDbSpline
70
4
71
3
72
12
73
8
40
0
40
0
40
0
40
0
40
0.500000000000006
40
0.500000000000006
40
0.750000000000003
40
0.750000000000003
40
1
40
1
40
1
40
1
41
1
10
82.2483212001501
20
-6.14951905283843
30
0
41
1
10
82.2648427778021
20
-6.16901353382576
30
0
41
1
10
82.2788194618864
20
-6.1883206574754
30
0
41
1
10
82.2880536870784
20
-6.2096194155678
30
0
41
1
10
82.2890822617426
20
-6.21535169184384
30
0
41
1
10
82.2866529403168
20
-6.22275171958682
30
0
41
1
10
82.283195409713
20
-6.22451905283842
30
0
41
1
10
82.2781687837938
20
-6.22451905283842
30
0
0
SPLINE
5
12E
100
AcDbEntity
8
1
62
256
6
ByLayer
370
13
48
1
60
0
100
AcDbSpline
70
4
71
3
72
14
73
10
40
0
40
0
40
0
40
0
40
0.25
40
0.25
40
0.5
40
0.5
40
0.75
40
0.75
40
1
40
1
40
1
40
1
41
1
10
86.0232042684699
20
-6.1495190528384
30
0
41
1
10
86.0316828199369
20
-6.15975207266371
30
0
41
1
10
86.0388755890522
20
-6.17025370724059
30
0
41
1
10
86.0476405789747
20
-6.18998475586781
30
0
41
1
10
86.0489543870698
20
-6.19911441369266
30
0
41
1
10
86.0444724859078
20
-6.21292121354375
30
0
41
1
10
86.0388782474081
20
-6.21765847685916
30
0
41
1
10
86.0241958419903
20
-6.22339782391302
30
0
41
1
10
86.0151161318194
20
-6.22451905284285
30
0
41
1
10
86.0053272246076
20
-6.22451905284265
30
0
0
SPLINE
5
12F
100
AcDbEntity
8
1
62
256
6
ByLayer
370
13
48
1
60
0
100
AcDbSpline
70
4
71
3
72
12
73
8
40
0
40
0
40
0
40
0
40
0.250000000000002
40
0.250000000000002
40
0.500000000000004
40
0.500000000000004
40
1
40
1
40
1
40
1
41
1
10
117.721831216206
20
-6.22451905283845
30
0
41
1
10
117.716772203464
20
-6.22451905283845
30
0
41
1
10
117.71333498683
20
-6.22276843229426
30
0
41
1
10
117.710906962575
20
-6.21526487668541
30
0
41
1
10
117.711939375865
20
-6.20962317023887
30
0
41
1
10
117.721247508416
20
-6.18819078688645
30
0
41
1
10
117.735160049013
20
-6.16901019835237
30
0
41
1
10
117.75167879985
20
-6.14951905283846
30
0
0
SPLINE
5
130
100
AcDbEntity
8
1
62
256
6
ByLayer
370
13
48
1
60
0
100
AcDbSpline
70
4
71
3
72
14
73
10
40
0
40
0
40
0
40
0
40
0.249137605158328
40
0.249137605158328
40
0.499425070105552
40
0.499425070105552
40
0.749712535052776
40
0.749712535052776
40
1
40
1
40
1
40
1
41
1
10
119.804037090447
20
-5.4204819537278
30
0
41
1
10
119.803978410592
20
-5.4205401308698
30
0
41
1
10
119.801336564491
20
-5.423159138296
30
0
41
1
10
119.791928070063
20
-5.43249092549658
30
0
41
1
10
119.785099571365
20
-5.43926542991733
30
0
41
1
10
119.769119587201
20
-5.45513030498176
30
0
41
1
10
119.759771763622
20
-5.46441573413432
30
0
41
1
10
119.739998873104
20
-5.4840725478561
30
0
41
1
10
119.729497540244
20
-5.4945194660705
30
0
41
1
10
119.718488502244
20
-5.50548094716177
30
0
0
SPLINE
5
131
100
AcDbEntity
8
1
62
256
6
ByLayer
370
13
48
1
60
0
100
AcDbSpline
70
4
71
3
72
8
73
4
40
0
40
0
40
0
40
0
40
1
40
1
40
1
40
1
41
1
10
80.3274185280869
20
-5.50548094716174
30
0
41
1
10
80.5344692782325
20
-5.72056279419485
30
0
41
1
10
80.7420613008984
20
-5.93525486713284
30
0
41
1
10
80.9502393320768
20
-6.1495190528384
30
0
0
SPLINE
5
132
100
AcDbEntity
8
1
62
256
6
ByLayer
370
13
48
1
60
0
100
AcDbSpline
70
4
71
3
72
8
73
4
40
0
40
0
40
0
40
0
40
1
40
1
40
1
40
1
41
1
10
80.3498825485139
20
-5.50548094716171
30
0
41
1
10
80.5764346494506
20
-5.72085403444083
30
0
41
1
10
80.8038343759323
20
-5.93555365886087
30
0
41
1
10
81.0321582105078
20
-6.1495190528384
30
0
0
SPLINE
5
133
100
AcDbEntity
8
1
62
256
6
ByLayer
370
13
48
1
60
0
100
AcDbSpline
70
4
71
3
72
10
73
6
40
0
40
0
40
0
40
0
40
0.5
40
0.5
40
1
40
1
40
1
40
1
41
1
10
81.0321582105078
20
-6.1495190528384
30
0
41
1
10
81.0529659411521
20
-6.16901826234218
30
0
41
1
10
81.0728505824669
20
-6.1870658850039
30
0
41
1
10
81.1055163361332
20
-6.2148140084804
30
0
41
1
10
81.1184600002633
20
-6.22451905283842
30
0
41
1
10
81.1219186620129
20
-6.22451905283842
30
0
0
SPLINE
5
134
100
AcDbEntity
8
1
62
256
6
ByLayer
370
13
48
1
60
0
100
AcDbSpline
70
4
71
3
72
8
73
4
40
0
40
0
40
0
40
0
40
1
40
1
40
1
40
1
41
1
10
85.7664574961202
20
-5.50548094716171
30
0
41
1
10
86.1950137331935
20
-5.72650473366289
30
0
41
1
10
86.6276151012118
20
-5.94141285339117
30
0
41
1
10
87.0647155139355
20
-6.14951905283843
30
0
0
SPLINE
5
135
100
AcDbEntity
8
1
62
256
6
ByLayer
370
13
48
1
60
0
100
AcDbSpline
70
4
71
3
72
8
73
4
40
0
40
0
40
0
40
0
40
1
40
1
40
1
40
1
41
1
10
117.75167879985
20
-6.14951905283846
30
0
41
1
10
117.933551403256
20
-5.93492017590728
30
0
41
1
10
118.11529366564
20
-5.7202384127736
30
0
41
1
10
118.29691650505
20
-5.50548094716177
30
0
0
SPLINE
5
136
100
AcDbEntity
8
1
62
256
6
ByLayer
370
13
48
1
60
0
100
AcDbSpline
70
4
71
3
72
8
73
4
40
0
40
0
40
0
40
0
40
1
40
1
40
1
40
1
41
1
10
83.4699327355772
20
-6.1495190528384
30
0
41
1
10
83.1546042550256
20
-5.93738130193984
30
0
41
1
10
82.8416731217304
20
-5.72262203690556
30
0
41
1
10
82.5309201422186
20
-5.50548094716177
30
0
0
SPLINE
5
137
100
AcDbEntity
8
1
62
256
6
ByLayer
370
13
48
1
60
0
100
AcDbSpline
70
4
71
3
72
8
73
4
40
0
40
0
40
0
40
0
40
1
40
1
40
1
40
1
41
1
10
89.4306865739591
20
-5.50548094716174
30
0
41
1
10
90.0746973807125
20
-5.73755317261094
30
0
41
1
10
90.7260469209046
20
-5.95291797366741
30
0
41
1
10
91.3856384228734
20
-6.14951905283843
30
0
0
SPLINE
5
138
100
AcDbEntity
8
1
62
256
6
ByLayer
370
13
48
1
60
0
100
AcDbSpline
70
4
71
3
72
18
73
14
40
0
40
0
40
0
40
0
40
0.249999999999894
40
0.249999999999894
40
0.499999999999789
40
0.499999999999789
40
0.624999999999842
40
0.624999999999842
40
0.749999999999894
40
0.749999999999894
40
0.874999999999947
40
0.874999999999947
40
1
40
1
40
1
40
1
41
1
10
82.5309201422186
20
-5.50548094716174
30
0
41
1
10
82.5024289420774
20
-5.48557249686621
30
0
41
1
10
82.4740934802799
20
-5.46767661505243
30
0
41
1
10
82.4207742205284
20
-5.43864820411014
30
0
41
1
10
82.3950333524567
20
-5.42703588478966
30
0
41
1
10
82.3642111342249
20
-5.42013909008941
30
0
41
1
10
82.3553912723129
20
-5.41968089666022
30
0
41
1
10
82.3430790993149
20
-5.42436403165527
30
0
41
1
10
82.339932247132
20
-5.42967048917569
30
0
41
1
10
82.3412476306527
20
-5.44560781735657
30
0
41
1
10
82.3456922113036
20
-5.45630826545383
30
0
41
1
10
82.3596980449511
20
-5.47977010058978
30
0
41
1
10
82.3691851986617
20
-5.49258757710925
30
0
41
1
10
82.3798743889633
20
-5.50548094716171
30
0
0
SPLINE
5
139
100
AcDbEntity
8
1
62
256
6
ByLayer
370
13
48
1
60
0
100
AcDbSpline
70
4
71
3
72
12
73
8
40
0
40
0
40
0
40
0
40
0.250000000000107
40
0.250000000000107
40
0.500000000000215
40
0.500000000000215
40
1
40
1
40
1
40
1
41
1
10
89.2245679889126
20
-6.22451905283842
30
0
41
1
10
89.2001227225954
20
-6.22451905283842
30
0
41
1
10
89.1742807829932
20
-6.22183703272535
30
0
41
1
10
89.1217806553257
20
-6.21358152944393
30
0
41
1
10
89.0953892487188
20
-6.20800062005614
30
0
41
1
10
89.0159199661919
20
-6.18812008620537
30
0
41
1
10
88.9625586051541
20
-6.17078147159023
30
0
41
1
10
88.9088140824145
20
-6.14951905283877
30
0
0
SPLINE
5
13A
100
AcDbEntity
8
1
62
256
6
ByLayer
370
13
48
1
60
0
100
AcDbSpline
70
4
71
3
72
8
73
4
40
0
40
0
40
0
40
0
40
1
40
1
40
1
40
1
41
1
10
98.3186194999265
20
-5.50548094716177
30
0
41
1
10
99.4395398333089
20
-5.56615544464867
30
0
41
1
10
100.560460166691
20
-5.56615544464867
30
0
41
1
10
101.681380500074
20
-5.50548094716177
30
0
0
SPLINE
5
13B
100
AcDbEntity
8
1
62
256
6
ByLayer
370
13
48
1
60
0
100
AcDbSpline
70
4
71
3
72
12
73
8
40
0
40
0
40
0
40
0
40
0.249999999999874
40
0.249999999999874
40
0.499999999999748
40
0.499999999999748
40
1
40
1
40
1
40
1
41
1
10
85.8224220248032
20
-6.22451905284518
30
0
41
1
10
85.8075817297793
20
-6.22451905284464
30
0
41
1
10
85.7907535828444
20
-6.22182915869089
30
0
41
1
10
85.7561312998001
20
-6.21352170253462
30
0
41
1
10
85.7381347120779
20
-6.20784806113139
30
0
41
1
10
85.6828773300323
20
-6.18749570730088
30
0
41
1
10
85.6456306333993
20
-6.17009204914263
30
0
41
1
10
85.6080312530775
20
-6.1495190528384
30
0
0
SPLINE
5
13C
100
AcDbEntity
8
1
62
256
6
ByLayer
370
13
48
1
60
0
100
AcDbSpline
70
4
71
3
72
10
73
6
40
0
40
0
40
0
40
0
40
0.5
40
0.5
40
1
40
1
40
1
40
1
41
1
10
118.878081337987
20
-6.22451905283845
30
0
41
1
10
118.881548481264
20
-6.22451905283845
30
0
41
1
10
118.894479345471
20
-6.21481882863318
30
0
41
1
10
118.927201387503
20
-6.18702058525238
30
0
41
1
10
118.947049320136
20
-6.16900396078037
30
0
41
1
10
118.967841789492
20
-6.14951905283843
30
0
0
SPLINE
5
13D
100
AcDbEntity
8
1
62
256
6
ByLayer
370
13
48
1
60
0
100
AcDbSpline
70
4
71
3
72
8
73
4
40
0
40
0
40
0
40
0
40
1
40
1
40
1
40
1
41
1
10
96.2170729269035
20
-5.50548094715356
30
0
41
1
10
96.8230654025923
20
-5.77373553540704
30
0
41
1
10
97.4498944395468
20
-5.9961031624315
30
0
41
1
10
98.1080333964858
20
-6.14951905283843
30
0
0
SPLINE
5
13E
100
AcDbEntity
8
1
62
256
6
ByLayer
370
13
48
1
60
0
100
AcDbSpline
70
4
71
3
72
28
73
24
40
0
40
0
40
0
40
0
40
0.499999999999928
40
0.499999999999928
40
0.749999999999855
40
0.749999999999855
40
0.874999999999855
40
0.874999999999855
40
0.906249999999891
40
0.906249999999891
40
0.937499999999927
40
0.937499999999927
40
0.953124999999945
40
0.953124999999945
40
0.960937499999954
40
0.960937499999954
40
0.968749999999963
40
0.968749999999963
40
0.976562499999972
40
0.976562499999972
40
0.984374999999981
40
0.984374999999981
40
1
40
1
40
1
40
1
41
1
10
101.681380500074
20
-5.50548094716177
30
0
41
1
10
102.056594770332
20
-5.48517090672459
30
0
41
1
10
102.431162656088
20
-5.46103196347426
30
0
41
1
10
102.991891122435
20
-5.43241107187589
30
0
41
1
10
103.178996496345
20
-5.42384899362082
30
0
41
1
10
103.457451391937
20
-5.41984744839829
30
0
41
1
10
103.549962299234
20
-5.4196615205004
30
0
41
1
10
103.664339258137
20
-5.42606392578364
30
0
41
1
10
103.68715278257
20
-5.42771909843216
30
0
41
1
10
103.732071236565
20
-5.4323913861102
30
0
41
1
10
103.754265688206
20
-5.43529676414951
30
0
41
1
10
103.786346316083
20
-5.44235345179928
30
0
41
1
10
103.796919799027
20
-5.44516201514682
30
0
41
1
10
103.811211529094
20
-5.45099983819216
30
0
41
1
10
103.815798695625
20
-5.45325776981505
30
0
41
1
10
103.823522446009
20
-5.45883411565117
30
0
41
1
10
103.826711925466
20
-5.46224244487334
30
0
41
1
10
103.828777727181
20
-5.47036696494479
30
0
41
1
10
103.827324013736
20
-5.47480202130239
30
0
41
1
10
103.821439998603
20
-5.48269234513901
30
0
41
1
10
103.817381967472
20
-5.48611243856155
30
0
41
1
10
103.803912052316
20
-5.4956392254546
30
0
41
1
10
103.793517482552
20
-5.50079289236334
30
0
41
1
10
103.782927073076
20
-5.50548094716146
30
0
0
SPLINE
5
13F
100
AcDbEntity
8
1
62
256
6
ByLayer
370
13
48
1
60
0
100
AcDbSpline
70
4
71
3
72
12
73
8
40
0
40
0
40
0
40
0
40
0.500000000000186
40
0.500000000000186
40
0.750000000000093
40
0.750000000000093
40
1
40
1
40
1
40
1
41
1
10
118.912973356459
20
-6.14951905283846
30
0
41
1
10
118.894842536568
20
-6.16895536939114
30
0
41
1
10
118.878439088542
20
-6.18734456345686
30
0
41
1
10
118.861441882888
20
-6.2084936862162
30
0
41
1
10
118.857122657357
20
-6.21440069642765
30
0
41
1
10
118.852505949025
20
-6.22239680267049
30
0
41
1
10
118.852207685598
20
-6.22451905283845
30
0
41
1
10
118.853981763269
20
-6.22451905283845
30
0
0
SPLINE
5
140
100
AcDbEntity
8
1
62
256
6
ByLayer
370
13
48
1
60
0
100
AcDbSpline
70
4
71
3
72
16
73
12
40
0
40
0
40
0
40
0
40
0.249999999999943
40
0.249999999999943
40
0.374999999999888
40
0.374999999999888
40
0.499999999999834
40
0.499999999999834
40
0.749999999999917
40
0.749999999999917
40
1
40
1
40
1
40
1
41
1
10
81.7030834949499
20
-5.50548094716171
30
0
41
1
10
81.6819297223774
20
-5.48046795540063
30
0
41
1
10
81.6646764471665
20
-5.45589796194204
30
0
41
1
10
81.657373095137
20
-5.43132975858558
30
0
41
1
10
81.6582496392073
20
-5.42563883716042
30
0
41
1
10
81.666079797439
20
-5.41992722260014
30
0
41
1
10
81.6729452776094
20
-5.41988067862508
30
0
41
1
10
81.6984281599599
20
-5.42583849557269
30
0
41
1
10
81.7217505810756
20
-5.43749695804297
30
0
41
1
10
81.7714571335238
20
-5.46739912250553
30
0
41
1
10
81.7974122990776
20
-5.48532159114643
30
0
41
1
10
81.8241802376488
20
-5.50548094716174
30
0
0
SPLINE
5
141
100
AcDbEntity
8
1
62
256
6
ByLayer
370
13
48
1
60
0
100
AcDbSpline
70
4
71
3
72
10
73
6
40
0
40
0
40
0
40
0
40
0.5
40
0.5
40
1
40
1
40
1
40
1
41
1
10
81.0110862313736
20
-6.22451905283842
30
0
41
1
10
81.0100657464104
20
-6.22451905283842
30
0
41
1
10
80.9996156517975
20
-6.214981619159
30
0
41
1
10
80.9703472040453
20
-6.18703607285727
30
0
41
1
10
80.9517922756891
20
-6.16893546560584
30
0
41
1
10
80.932063514156
20
-6.14951905283843
30
0
0
SPLINE
5
142
100
AcDbEntity
8
1
62
256
6
ByLayer
370
13
48
1
60
0
100
AcDbSpline
70
4
71
3
72
40
73
36
40
0
40
0
40
0
40
0
40
0.124996832604438
40
0.124996832604438
40
0.249993665208876
40
0.249993665208876
40
0.312492081511095
40
0.312492081511095
40
0.374990497813315
40
0.374990497813315
40
0.499987330417748
40
0.499987330417748
40
0.624984163022182
40
0.624984163022182
40
0.687482579324401
40
0.687482579324401
40
0.749980995626621
40
0.749980995626621
40
0.781230203777728
40
0.781230203777728
40
0.812479411928836
40
0.812479411928836
40
0.874977828231046
40
0.874977828231046
40
0.906227036382152
40
0.906227036382152
40
0.937476244533257
40
0.937476244533257
40
0.968725452684362
40
0.968725452684362
40
0.984350056759915
40
0.984350056759915
40
0.999974660835467
40
0.999974660835467
40
1
40
1
40
1
40
1
41
1
10
115.633294025103
20
15.6332940251025
30
0
41
1
10
115.20173245384
20
16.0965105706121
30
0
41
1
10
114.756868194689
20
16.5300290441309
30
0
41
1
10
113.844450281042
20
17.3425311968778
30
0
41
1
10
113.376867818869
20
17.7214964639
30
0
41
1
10
112.66127783402
20
18.2512361466852
30
0
41
1
10
112.420379835511
20
18.4213516214243
30
0
41
1
10
111.934391634067
20
18.7488788954552
30
0
41
1
10
111.69048175278
20
18.905489247795
30
0
41
1
10
110.958057498026
20
19.3541049357586
30
0
41
1
10
110.468257446391
20
19.625258099236
30
0
41
1
10
109.493351367501
20
20.1152036887248
30
0
41
1
10
109.007996020336
20
20.3340027566752
30
0
41
1
10
108.294493761466
20
20.6240778321987
30
0
41
1
10
108.059152180679
20
20.7144008577539
30
0
41
1
10
107.597045985186
20
20.8822512758419
30
0
41
1
10
107.370229218621
20
20.9597844876008
30
0
41
1
10
107.040870420803
20
21.0662318402872
30
0
41
1
10
106.932918040101
20
21.1000695318978
30
0
41
1
10
106.72183329709
20
21.1643626639186
30
0
41
1
10
106.618759889272
20
21.1947957362482
30
0
41
1
10
106.321242198612
20
21.2802221372588
30
0
41
1
10
106.137469216528
20
21.329603911882
30
0
41
1
10
105.897967517333
20
21.3911502633133
30
0
41
1
10
105.824214362368
20
21.4095736450177
30
0
41
1
10
105.692558915685
20
21.4418230657073
30
0
41
1
10
105.635472934942
20
21.4554542046954
30
0
41
1
10
105.541960037678
20
21.4774974434016
30
0
41
1
10
105.505547389212
20
21.4859097246131
30
0
41
1
10
105.468707414429
20
21.4943790055564
30
0
41
1
10
105.459388021648
20
21.4965099152111
30
0
41
1
10
105.446994708963
20
21.4993404621796
30
0
41
1
10
105.443924635722
20
21.5000393298616
30
0
41
1
10
105.444104376182
20
21.4999983665025
30
0
41
1
10
105.444105351285
20
21.4999981443015
30
0
41
1
10
105.444106326419
20
21.4999979222366
30
0
0
SPLINE
5
143
100
AcDbEntity
8
1
62
256
6
ByLayer
370
13
48
1
60
0
100
AcDbSpline
70
4
71
3
72
18
73
14
40
0
40
0
40
0
40
0
40
0.125
40
0.125
40
0.25
40
0.25
40
0.374999999999999
40
0.374999999999999
40
0.499999999999999
40
0.499999999999999
40
0.75
40
0.75
40
1
40
1
40
1
40
1
41
1
10
83.217255900639
20
-5.50548094716174
30
0
41
1
10
83.2061811264707
20
-5.49195547848075
30
0
41
1
10
83.1967200449199
20
-5.47855385711642
30
0
41
1
10
83.1840470722894
20
-5.45388712885764
30
0
41
1
10
83.1812355366358
20
-5.44289936535824
30
0
41
1
10
83.1845196715476
20
-5.4275472589421
30
0
41
1
10
83.1904947568262
20
-5.42301280215042
30
0
41
1
10
83.2076740431856
20
-5.41962838339319
30
0
41
1
10
83.2186536750446
20
-5.42058536978209
30
0
41
1
10
83.255070112562
20
-5.42841093433023
30
0
41
1
10
83.2838074264814
20
-5.44006237750637
30
0
41
1
10
83.3421920838089
20
-5.46878232581804
30
0
41
1
10
83.3720661871934
20
-5.48595395722762
30
0
41
1
10
83.4024978348664
20
-5.50548094716177
30
0
0
SPLINE
5
144
100
AcDbEntity
8
1
62
256
6
ByLayer
370
13
48
1
60
0
100
AcDbSpline
70
4
71
3
72
8
73
4
40
0
40
0
40
0
40
0
40
1
40
1
40
1
40
1
41
1
10
108.614361577127
20
-6.14951905283843
30
0
41
1
10
109.273953079095
20
-5.95291797366744
30
0
41
1
10
109.925302619288
20
-5.73755317261097
30
0
41
1
10
110.569313426041
20
-5.50548094716177
30
0
0
SPLINE
5
145
100
AcDbEntity
8
1
62
256
6
ByLayer
370
13
48
1
60
0
100
AcDbSpline
70
4
71
3
72
10
73
6
40
0
40
0
40
0
40
0
40
0.5
40
0.5
40
1
40
1
40
1
40
1
41
1
10
117.16375222872
20
-6.22451905283987
30
0
41
1
10
117.179301727929
20
-6.22451905283975
30
0
41
1
10
117.202885157796
20
-6.21457476633765
30
0
41
1
10
117.253556685411
20
-6.18694509102949
30
0
41
1
10
117.280193117895
20
-6.16947230791371
30
0
41
1
10
117.307521585811
20
-6.14951905283843
30
0
0
SPLINE
5
146
100
AcDbEntity
8
1
62
256
6
ByLayer
370
13
48
1
60
0
100
AcDbSpline
70
4
71
3
72
8
73
4
40
0
40
0
40
0
40
0
40
1
40
1
40
1
40
1
41
1
10
113.97679573153
20
-6.14951905283843
30
0
41
1
10
114.154635866016
20
-5.93487842359559
30
0
41
1
10
114.332411382998
20
-5.7201976315053
30
0
41
1
10
114.51012906271
20
-5.5054809471618
30
0
0
SPLINE
5
147
100
AcDbEntity
8
1
62
256
6
ByLayer
370
13
48
1
60
0
100
AcDbSpline
70
4
71
3
72
10
73
6
40
0
40
0
40
0
40
0
40
0.5
40
0.5
40
1
40
1
40
1
40
1
41
1
10
84.4296453447787
20
-6.1495190528384
30
0
41
1
10
84.4629370369225
20
-6.16989749227275
30
0
41
1
10
84.4963846091838
20
-6.18762508226646
30
0
41
1
10
84.5598764324366
20
-6.2145866624677
30
0
41
1
10
84.5910578995706
20
-6.22451905283842
30
0
41
1
10
84.6149225432046
20
-6.22451905283842
30
0
0
SPLINE
5
148
100
AcDbEntity
8
1
62
256
6
ByLayer
370
13
48
1
60
0
100
AcDbSpline
70
4
71
3
72
10
73
6
40
0
40
0
40
0
40
0
40
0.5
40
0.5
40
1
40
1
40
1
40
1
41
1
10
119.067936485844
20
-6.14951905283849
30
0
41
1
10
119.048201481041
20
-6.16894161003134
30
0
41
1
10
119.029617658663
20
-6.18706981232589
30
0
41
1
10
119.000398368602
20
-6.21496804198566
30
0
41
1
10
118.989933279651
20
-6.22451905283845
30
0
41
1
10
118.988913768626
20
-6.22451905283845
30
0
0
SPLINE
5
149
100
AcDbEntity
8
1
62
256
6
ByLayer
370
13
48
1
60
0
100
AcDbSpline
70
4
71
3
72
8
73
4
40
0
40
0
40
0
40
0
40
1
40
1
40
1
40
1
41
1
10
87.5839620410576
20
-6.14951905283843
30
0
41
1
10
87.3988532853467
20
-5.93501222988715
30
0
41
1
10
87.2140222341592
20
-5.72032551074369
30
0
41
1
10
87.0294364666595
20
-5.50548094716174
30
0
0
SPLINE
5
14A
100
AcDbEntity
8
1
62
256
6
ByLayer
370
13
48
1
60
0
100
AcDbSpline
70
4
71
3
72
22
73
18
40
0
40
0
40
0
40
0
40
0.249999999999909
40
0.249999999999909
40
0.499999999999817
40
0.499999999999817
40
0.624999999999768
40
0.624999999999768
40
0.749999999999719
40
0.749999999999719
40
0.812499999999789
40
0.812499999999789
40
0.87499999999986
40
0.87499999999986
40
0.93749999999993
40
0.93749999999993
40
1
40
1
40
1
40
1
41
1
10
110.569313426041
20
-5.50548094716177
30
0
41
1
10
110.618867009697
20
-5.48762408774678
30
0
41
1
10
110.668583257953
20
-5.47199607651018
30
0
41
1
10
110.766730311979
20
-5.44574927563042
30
0
41
1
10
110.815372204283
20
-5.43496571621483
30
0
41
1
10
110.887342404394
20
-5.42438759109376
30
0
41
1
10
110.91111310264
20
-5.42183378018768
30
0
41
1
10
110.95676218232
20
-5.41992173409193
30
0
41
1
10
110.97916840452
20
-5.42044385265118
30
0
41
1
10
111.008858068355
20
-5.42619268980502
30
0
41
1
10
111.01814391775
20
-5.42896816303264
30
0
41
1
10
111.033668774578
20
-5.43739911035289
30
0
41
1
10
111.039839205725
20
-5.44314238409436
30
0
41
1
10
111.045210639931
20
-5.45823838818876
30
0
41
1
10
111.0440404902
20
-5.46769425540563
30
0
41
1
10
111.035221538159
20
-5.48672179865133
30
0
41
1
10
111.02791095437
20
-5.49635657138705
30
0
41
1
10
111.019400679183
20
-5.50548094716223
30
0
0
SPLINE
5
14B
100
AcDbEntity
8
1
62
256
6
ByLayer
370
13
48
1
60
0
100
AcDbSpline
70
4
71
3
72
8
73
4
40
0
40
0
40
0
40
0
40
1
40
1
40
1
40
1
41
1
10
119.718488502244
20
-5.50548094716177
30
0
41
1
10
119.502341973592
20
-5.72069376473388
30
0
41
1
10
119.285511663121
20
-5.93538855899664
30
0
41
1
10
119.067936485844
20
-6.14951905283843
30
0
0
SPLINE
5
14C
100
AcDbEntity
8
1
62
256
6
ByLayer
370
13
48
1
60
0
100
AcDbSpline
70
4
71
3
72
8
73
4
40
0
40
0
40
0
40
0
40
1
40
1
40
1
40
1
41
1
10
119.46626422561
20
-5.50548094716177
30
0
41
1
10
119.227770440733
20
-5.72105319202427
30
0
41
1
10
118.988241387485
20
-5.93575899506652
30
0
41
1
10
118.747582310107
20
-6.14951905283846
30
0
0
SPLINE
5
14D
100
AcDbEntity
8
1
62
256
6
ByLayer
370
13
48
1
60
0
100
AcDbSpline
70
4
71
3
72
20
73
16
40
0
40
0
40
0
40
0
40
0.0625000000000019
40
0.0625000000000019
40
0.125000000000004
40
0.125000000000004
40
0.250000000000005
40
0.250000000000005
40
0.375000000000006
40
0.375000000000006
40
0.500000000000007
40
0.500000000000007
40
0.750000000000004
40
0.750000000000004
40
1
40
1
40
1
40
1
41
1
10
112.97056353334
20
-5.50548094716177
30
0
41
1
10
112.977670113273
20
-5.49720939900939
30
0
41
1
10
112.983785985073
20
-5.48889539983264
30
0
41
1
10
112.992986305749
20
-5.4721381145977
30
0
41
1
10
112.995842257246
20
-5.4638920697644
30
0
41
1
10
112.997077756366
20
-5.4420243409788
30
0
41
1
10
112.987655345175
20
-5.43212388858018
30
0
41
1
10
112.960698006164
20
-5.42159962402923
30
0
41
1
10
112.94345347468
20
-5.42016501871643
30
0
41
1
10
112.907793502326
20
-5.42090083138348
30
0
41
1
10
112.888932502765
20
-5.42310477581256
30
0
41
1
10
112.830403479818
20
-5.43313894081825
30
0
41
1
10
112.789443446682
20
-5.44428563275557
30
0
41
1
10
112.707970429032
20
-5.47115679535182
30
0
41
1
10
112.666878212476
20
-5.48710655146999
30
0
41
1
10
112.625452833614
20
-5.50548094716174
30
0
0
SPLINE
5
14E
100
AcDbEntity
8
1
62
256
6
ByLayer
370
13
48
1
60
0
100
AcDbSpline
70
4
71
3
72
22
73
18
40
0
40
0
40
0
40
0
40
0.0625000000000666
40
0.0625000000000666
40
0.125000000000133
40
0.125000000000133
40
0.1875000000002
40
0.1875000000002
40
0.250000000000267
40
0.250000000000267
40
0.375000000000223
40
0.375000000000223
40
0.50000000000018
40
0.50000000000018
40
0.75000000000009
40
0.75000000000009
40
1
40
1
40
1
40
1
41
1
10
108.373700752015
20
-5.50548094716206
30
0
41
1
10
108.386053690735
20
-5.49449043039002
30
0
41
1
10
108.396718878704
20
-5.48196963708003
30
0
41
1
10
108.401606538226
20
-5.45707463338238
30
0
41
1
10
108.394272406772
20
-5.4470761944676
30
0
41
1
10
108.372648235527
20
-5.43393229374419
30
0
41
1
10
108.35893576771
20
-5.42999608596014
30
0
41
1
10
108.330337427589
20
-5.42435133639555
30
0
41
1
10
108.315098744819
20
-5.42270319108636
30
0
41
1
10
108.269296230662
20
-5.4197444301177
30
0
41
1
10
108.237955575734
20
-5.4202751942648
30
0
41
1
10
108.174512389467
20
-5.42360013071135
30
0
41
1
10
108.142378685624
20
-5.42649505991687
30
0
41
1
10
108.045129487892
20
-5.43762502903297
30
0
41
1
10
107.978972833575
20
-5.44831821003473
30
0
41
1
10
107.847014883303
20
-5.47376480925868
30
0
41
1
10
107.780960870595
20
-5.48858707374887
30
0
41
1
10
107.714837220704
20
-5.50548094716174
30
0
0
SPLINE
5
14F
100
AcDbEntity
8
1
62
256
6
ByLayer
370
13
48
1
60
0
100
AcDbSpline
70
4
71
3
72
18
73
14
40
0
40
0
40
0
40
0
40
0.250000000000013
40
0.250000000000013
40
0.500000000000027
40
0.500000000000027
40
0.62500000000002
40
0.62500000000002
40
0.750000000000013
40
0.750000000000013
40
0.875000000000007
40
0.875000000000007
40
1
40
1
40
1
40
1
41
1
10
92.2578078416752
20
-6.22451905283842
30
0
41
1
10
92.275432905241
20
-6.22451905283842
30
0
41
1
10
92.2927787639667
20
-6.22393134203969
30
0
41
1
10
92.3265089355276
20
-6.22077194024374
30
0
41
1
10
92.3432073681191
20
-6.21825222704007
30
0
41
1
10
92.3654034008968
20
-6.21115887196748
30
0
41
1
10
92.3724077455968
20
-6.20819610417391
30
0
41
1
10
92.383853608378
20
-6.20024981374112
30
0
41
1
10
92.3882950771282
20
-6.1951544671696
30
0
41
1
10
92.3907827127826
20
-6.18246995806456
30
0
41
1
10
92.3885135876512
20
-6.17528346133983
30
0
41
1
10
92.3795601135216
20
-6.16169149053192
30
0
41
1
10
92.3732651618446
20
-6.15538171472957
30
0
41
1
10
92.3663666611606
20
-6.14951905283843
30
0
0
SPLINE
5
150
100
AcDbEntity
8
1
62
256
6
ByLayer
370
13
48
1
60
0
100
AcDbSpline
70
4
71
3
72
8
73
4
40
0
40
0
40
0
40
0
40
1
40
1
40
1
40
1
41
1
10
92.3663666611605
20
-6.14951905283843
30
0
41
1
10
92.1167379242311
20
-5.93737311707872
30
0
41
1
10
91.8702467392773
20
-5.72252314701907
30
0
41
1
10
91.6262992479898
20
-5.50548094716515
30
0
0
SPLINE
5
151
100
AcDbEntity
8
1
62
256
6
ByLayer
370
13
48
1
60
0
100
AcDbSpline
70
4
71
3
72
8
73
4
40
0
40
0
40
0
40
0
40
1
40
1
40
1
40
1
41
1
10
117.620125611036
20
-5.5054809471618
30
0
41
1
10
117.442118225077
20
-5.72019460034662
30
0
41
1
10
117.264057408791
20
-5.93487504045055
30
0
41
1
10
117.085938074628
20
-6.14951905283843
30
0
0
SPLINE
5
152
100
AcDbEntity
8
1
62
256
6
ByLayer
370
13
48
1
60
0
100
AcDbSpline
70
4
71
3
72
8
73
4
40
0
40
0
40
0
40
0
40
1
40
1
40
1
40
1
41
1
10
118.736384309397
20
-5.50548094716177
30
0
41
1
10
118.467959643645
20
-5.72162661914021
30
0
41
1
10
118.198028218954
20
-5.93635112370646
30
0
41
1
10
117.92644647219
20
-6.14951905283849
30
0
0
SPLINE
5
153
100
AcDbEntity
8
1
62
256
6
ByLayer
370
13
48
1
60
0
100
AcDbSpline
70
4
71
3
72
12
73
8
40
0
40
0
40
0
40
0
40
0.249999999999865
40
0.249999999999865
40
0.499999999999729
40
0.499999999999729
40
1
40
1
40
1
40
1
41
1
10
83.6324253641525
20
-6.22451905284734
30
0
41
1
10
83.6227907805995
20
-6.22451905284674
30
0
41
1
10
83.6109545905568
20
-6.22189275109545
30
0
41
1
10
83.5854199222916
20
-6.21346844469392
30
0
41
1
10
83.5717512044812
20
-6.20768959257938
30
0
41
1
10
83.5291503247644
20
-6.18706032645494
30
0
41
1
10
83.4998789942488
20
-6.16966544732608
30
0
41
1
10
83.4699327355772
20
-6.1495190528384
30
0
0
SPLINE
5
154
100
AcDbEntity
8
1
62
256
6
ByLayer
370
13
48
1
60
0
100
AcDbSpline
70
4
71
3
72
8
73
4
40
0
40
0
40
0
40
0
40
1
40
1
40
1
40
1
41
1
10
115.533364257806
20
-5.50548094716177
30
0
41
1
10
115.156248576392
20
-5.72461241366017
30
0
41
1
10
114.775899601452
20
-5.93944622760341
30
0
41
1
10
114.391968746923
20
-6.14951905283846
30
0
0
SPLINE
5
155
100
AcDbEntity
8
1
62
256
6
ByLayer
370
13
48
1
60
0
100
AcDbSpline
70
4
71
3
72
8
73
4
40
0
40
0
40
0
40
0
40
1
40
1
40
1
40
1
41
1
10
108.373700752014
20
-5.5054809471618
30
0
41
1
10
108.129753260725
20
-5.72252314701689
30
0
41
1
10
107.88326207577
20
-5.93737311707764
30
0
41
1
10
107.633633338839
20
-6.14951905283846
30
0
0
SPLINE
5
156
100
AcDbEntity
8
1
62
256
6
ByLayer
370
13
48
1
60
0
100
AcDbSpline
70
4
71
3
72
8
73
4
40
0
40
0
40
0
40
0
40
1
40
1
40
1
40
1
41
1
10
81.7293973680103
20
-6.14951905283837
30
0
41
1
10
81.5425702146755
20
-5.93497972357287
30
0
41
1
10
81.3559636483338
20
-5.72029621214745
30
0
41
1
10
81.1695597333241
20
-5.50548094716174
30
0
0
SPLINE
5
157
100
AcDbEntity
8
1
62
256
6
ByLayer
370
13
48
1
60
0
100
AcDbSpline
70
4
71
3
72
18
73
14
40
0
40
0
40
0
40
0
40
0.249999999999999
40
0.249999999999999
40
0.374999999999998
40
0.374999999999998
40
0.499999999999998
40
0.499999999999998
40
0.624999999999997
40
0.624999999999997
40
0.749999999999997
40
0.749999999999997
40
1
40
1
40
1
40
1
41
1
10
80.3274185280869
20
-5.50548094716174
30
0
41
1
10
80.3057543713017
20
-5.48297647976662
30
0
41
1
10
80.2858943816534
20
-5.46186133775433
30
0
41
1
10
80.2644624548686
20
-5.43768478717092
30
0
41
1
10
80.2588617128423
20
-5.43102501857652
30
0
41
1
10
80.2523807373286
20
-5.42222057564936
30
0
41
1
10
80.2515426606651
20
-5.42009905001862
30
0
41
1
10
80.2549643433755
20
-5.42098261467427
30
0
41
1
10
80.2592423473206
20
-5.42396984893895
30
0
41
1
10
80.2713251840901
20
-5.43367583110916
30
0
41
1
10
80.2792163047836
20
-5.440450377443
30
0
41
1
10
80.3056797567488
20
-5.46393945687063
30
0
41
1
10
80.3272262265126
20
-5.48394258139228
30
0
41
1
10
80.3498825485139
20
-5.50548094716171
30
0
0
SPLINE
5
158
100
AcDbEntity
8
1
62
256
6
ByLayer
370
13
48
1
60
0
100
AcDbSpline
70
4
71
3
72
14
73
10
40
0
40
0
40
0
40
0
40
0.25
40
0.25
40
0.5
40
0.5
40
0.75
40
0.75
40
1
40
1
40
1
40
1
41
1
10
89.5853383024214
20
-6.14951905283024
30
0
41
1
10
89.5957496254077
20
-6.16052900444834
30
0
41
1
10
89.604232944092
20
-6.17267128702696
30
0
41
1
10
89.6086789000082
20
-6.1948848583626
30
0
41
1
10
89.6038377184698
20
-6.20415869550988
30
0
41
1
10
89.586990549156
20
-6.21611448024882
30
0
41
1
10
89.575371418091
20
-6.21957327649528
30
0
41
1
10
89.5507863715415
20
-6.22376123404581
30
0
41
1
10
89.5376700130612
20
-6.22451905283842
30
0
41
1
10
89.5240920055705
20
-6.22451905283842
30
0
0
SPLINE
5
159
100
AcDbEntity
8
1
62
256
6
ByLayer
370
13
48
1
60
0
100
AcDbSpline
70
4
71
3
72
8
73
4
40
0
40
0
40
0
40
0
40
1
40
1
40
1
40
1
41
1
10
81.7030834949499
20
-5.50548094716171
30
0
41
1
10
81.8847063343598
20
-5.72023841277354
30
0
41
1
10
82.0664485967436
20
-5.93492017590722
30
0
41
1
10
82.2483212001501
20
-6.14951905283843
30
0
0
SPLINE
5
15A
100
AcDbEntity
8
1
62
256
6
ByLayer
370
13
48
1
60
0
100
AcDbSpline
70
4
71
3
72
12
73
8
40
0
40
0
40
0
40
0
40
0.25
40
0.25
40
0.5
40
0.5
40
1
40
1
40
1
40
1
41
1
10
108.180039359128
20
-6.22451905283842
30
0
41
1
10
108.214893260783
20
-6.22451905283842
30
0
41
1
10
108.250500251156
20
-6.22193600601085
30
0
41
1
10
108.322493434192
20
-6.2139716131642
30
0
41
1
10
108.359014022354
20
-6.20848232872441
30
0
41
1
10
108.468435111221
20
-6.18871281689317
30
0
41
1
10
108.541387211171
20
-6.1712701503829
30
0
41
1
10
108.614361577127
20
-6.14951905283866
30
0
0
SPLINE
5
15B
100
AcDbEntity
8
1
62
256
6
ByLayer
370
13
48
1
60
0
100
AcDbSpline
70
4
71
3
72
8
73
4
40
0
40
0
40
0
40
0
40
1
40
1
40
1
40
1
41
1
10
84.7670213272664
20
-6.1495190528384
30
0
41
1
10
84.5916137032578
20
-5.93484137492604
30
0
41
1
10
84.4162089302039
20
-5.72016194991488
30
0
41
1
10
84.2408067319242
20
-5.50548094716174
30
0
0
SPLINE
5
15C
100
AcDbEntity
8
1
62
256
6
ByLayer
370
13
48
1
60
0
100
AcDbSpline
70
4
71
3
72
14
73
10
40
0
40
0
40
0
40
0
40
0.25
40
0.25
40
0.5
40
0.5
40
0.75
40
0.75
40
1
40
1
40
1
40
1
41
1
10
84.7634001502392
20
-6.22451905283842
30
0
41
1
10
84.7719261205129
20
-6.22451905283842
30
0
41
1
10
84.779350328054
20
-6.22324563070032
30
0
41
1
10
84.7904960750465
20
-6.21689576518023
30
0
41
1
10
84.793976345994
20
-6.21169621514454
30
0
41
1
10
84.7948297867181
20
-6.19765075063003
30
0
41
1
10
84.7921897210073
20
-6.18873814821885
30
0
41
1
10
84.7823551286903
20
-6.16973467536027
30
0
41
1
10
84.7752217459603
20
-6.15955537168716
30
0
41
1
10
84.7670213272666
20
-6.1495190528384
30
0
0
SPLINE
5
15D
100
AcDbEntity
8
1
62
256
6
ByLayer
370
13
48
1
60
0
100
AcDbSpline
70
4
71
3
72
44
73
40
40
0
40
0
40
0
40
0
40
0.124999999999969
40
0.124999999999969
40
0.156249999999962
40
0.156249999999962
40
0.187499999999954
40
0.187499999999954
40
0.249999999999952
40
0.249999999999952
40
0.31249999999995
40
0.31249999999995
40
0.343749999999943
40
0.343749999999943
40
0.374999999999935
40
0.374999999999935
40
0.437499999999933
40
0.437499999999933
40
0.468749999999932
40
0.468749999999932
40
0.499999999999931
40
0.499999999999931
40
0.624999999999936
40
0.624999999999936
40
0.656249999999938
40
0.656249999999938
40
0.687499999999939
40
0.687499999999939
40
0.74999999999995
40
0.74999999999995
40
0.781249999999958
40
0.781249999999958
40
0.812499999999965
40
0.812499999999965
40
0.874999999999977
40
0.874999999999977
40
0.937499999999989
40
0.937499999999989
40
1
40
1
40
1
40
1
41
1
10
73.3979157616564
20
-4.90000000000006
30
0
41
1
10
72.9241316496305
20
-4.69343738366391
30
0
41
1
10
72.4329561455006
20
-4.55098077747786
30
0
41
1
10
71.79790384513
20
-4.45190166711257
30
0
41
1
10
71.6698220648444
20
-4.43609502183196
30
0
41
1
10
71.4114611760067
20
-4.41271982551265
30
0
41
1
10
71.2820689748423
20
-4.40524974175645
30
0
41
1
10
70.8957470844663
20
-4.39537631564437
30
0
41
1
10
70.6396141502144
20
-4.40536033857759
30
0
41
1
10
70.1301308129299
20
-4.457869891326
30
0
41
1
10
69.8767802369947
20
-4.50039380838007
30
0
41
1
10
69.4989177564777
20
-4.58936354077861
30
0
41
1
10
69.3737385141401
20
-4.62316610246299
30
0
41
1
10
69.1277243524585
20
-4.69814765188121
30
0
41
1
10
69.006471805684
20
-4.73942099601294
30
0
41
1
10
68.6478931934477
20
-4.87434792461377
30
0
41
1
10
68.415725510238
20
-4.97906730642401
30
0
41
1
10
68.0778524255624
20
-5.15812056320573
30
0
41
1
10
67.9669629939253
20
-5.22147773867462
30
0
41
1
10
67.7487264056732
20
-5.35563420179554
30
0
41
1
10
67.6414267758153
20
-5.42645197184069
30
0
41
1
10
67.1217863543968
20
-5.79363870620685
30
0
41
1
10
66.752671718271
20
-6.13268846167841
30
0
41
1
10
66.3480253811119
20
-6.60859640418781
30
0
41
1
10
66.2698736956675
20
-6.7065936703431
30
0
41
1
10
66.1214617599704
20
-6.90497356069284
30
0
41
1
10
66.0509121700819
20
-7.00567410688416
30
0
41
1
10
65.8498537647387
20
-7.31201226959877
30
0
41
1
10
65.7299052162312
20
-7.52187210509629
30
0
41
1
10
65.5702243102366
20
-7.84423871201039
30
0
41
1
10
65.520378908956
20
-7.95296088524526
30
0
41
1
10
65.427390377225
20
-8.17283370115553
30
0
41
1
10
65.3841555124892
20
-8.28428659057386
30
0
41
1
10
65.2657760512539
20
-8.6182913087269
30
0
41
1
10
65.2014617776024
20
-8.84136700267663
30
0
41
1
10
65.0995754403551
20
-9.28762760152409
30
0
41
1
10
65.0620129282814
20
-9.51081481373276
30
0
41
1
10
65.0121880134556
20
-9.95677503097221
30
0
41
1
10
65.0000000000001
20
-10.1799004457343
30
0
41
1
10
65
20
-10.4000000000001
30
0
0
SPLINE
5
15E
100
AcDbEntity
8
1
62
256
6
ByLayer
370
13
48
1
60
0
100
AcDbSpline
70
4
71
3
72
26
73
22
40
0
40
0
40
0
40
0
40
0.250000000000001
40
0.250000000000001
40
0.500000000000003
40
0.500000000000003
40
0.625000000000001
40
0.625000000000001
40
0.75
40
0.75
40
0.8125
40
0.8125
40
0.874999999999999
40
0.874999999999999
40
0.906249999999999
40
0.906249999999999
40
0.937499999999999
40
0.937499999999999
40
0.96875
40
0.96875
40
1
40
1
40
1
40
1
41
1
10
92.2851627792961
20
-5.5054809471614
30
0
41
1
10
92.2189249419911
20
-5.48855790010612
30
0
41
1
10
92.1529359153928
20
-5.47375953317314
30
0
41
1
10
92.0214645695652
20
-5.44839835887615
30
0
41
1
10
91.9559772664244
20
-5.43777849666344
30
0
41
1
10
91.8582617694883
20
-5.42655520194705
30
0
41
1
10
91.825710538934
20
-5.42360277268727
30
0
41
1
10
91.761141251604
20
-5.42023699770309
30
0
41
1
10
91.7294579205364
20
-5.41975475153481
30
0
41
1
10
91.6837594623514
20
-5.42281409418899
30
0
41
1
10
91.6687598808028
20
-5.42447426446577
30
0
41
1
10
91.6402390367745
20
-5.43021764688461
30
0
41
1
10
91.626692917665
20
-5.43418988233017
30
0
41
1
10
91.6107224182939
20
-5.44411665957915
30
0
41
1
10
91.6061920857292
20
-5.44814156988193
30
0
41
1
10
91.6005667810885
20
-5.45795212294422
30
0
41
1
10
91.5996281116945
20
-5.46377784878635
30
0
41
1
10
91.6022016109563
20
-5.47602990494664
30
0
41
1
10
91.6056226400284
20
-5.48241077298007
30
0
41
1
10
91.6147214939537
20
-5.49447081779081
30
0
41
1
10
91.6202404978392
20
-5.5000904245816
30
0
41
1
10
91.6262992479895
20
-5.5054809471649
30
0
0
SPLINE
5
15F
100
AcDbEntity
8
1
62
256
6
ByLayer
370
13
48
1
60
0
100
AcDbSpline
70
4
71
3
72
8
73
4
40
0
40
0
40
0
40
0
40
1
40
1
40
1
40
1
41
1
10
118.967841789492
20
-6.14951905283846
30
0
41
1
10
119.196165624068
20
-5.93555365886092
30
0
41
1
10
119.423565350549
20
-5.72085403444086
30
0
41
1
10
119.650117451486
20
-5.50548094716177
30
0
0
SPLINE
5
160
100
AcDbEntity
8
1
62
256
6
ByLayer
370
13
48
1
60
0
100
AcDbSpline
70
4
71
3
72
14
73
10
40
0
40
0
40
0
40
0
40
0.25
40
0.25
40
0.5
40
0.5
40
0.75
40
0.75
40
1
40
1
40
1
40
1
41
1
10
117.085938074628
20
-6.14951905283846
30
0
41
1
10
117.077801348814
20
-6.15932427406551
30
0
41
1
10
117.070523272876
20
-6.16896070026894
30
0
41
1
10
117.058687107837
20
-6.18739184196141
30
0
41
1
10
117.054313901492
20
-6.19598378920446
30
0
41
1
10
117.050152844801
20
-6.21017173637966
30
0
41
1
10
117.050425175716
20
-6.21578828622089
30
0
41
1
10
117.055459079098
20
-6.22289006181262
30
0
41
1
10
117.060221498637
20
-6.22451905283856
30
0
41
1
10
117.066346790229
20
-6.22451905283856
30
0
0
SPLINE
5
161
100
AcDbEntity
8
1
62
256
6
ByLayer
370
13
48
1
60
0
100
AcDbSpline
70
4
71
3
72
16
73
12
40
0
40
0
40
0
40
0
40
0.249999999999964
40
0.249999999999964
40
0.499999999999927
40
0.499999999999927
40
0.624999999999909
40
0.624999999999909
40
0.74999999999989
40
0.74999999999989
40
1
40
1
40
1
40
1
41
1
10
80.5337357743899
20
-5.50548094716171
30
0
41
1
10
80.5102292922603
20
-5.48423366340498
30
0
41
1
10
80.4877158051996
20
-5.46474012253407
30
0
41
1
10
80.4490491660999
20
-5.43377962931015
30
0
41
1
10
80.4328255001897
20
-5.42235446069054
30
0
41
1
10
80.4226174681621
20
-5.41986073796608
30
0
41
1
10
80.4216804266939
20
-5.42150780133068
30
0
41
1
10
80.4251762788517
20
-5.42990830644848
30
0
41
1
10
80.4295073377612
20
-5.43645585847455
30
0
41
1
10
80.4480877779545
20
-5.46083689536013
30
0
41
1
10
80.4672097635856
20
-5.4825916483627
30
0
41
1
10
80.4884102460874
20
-5.50548094716177
30
0
0
SPLINE
5
162
100
AcDbEntity
8
1
62
256
6
ByLayer
370
13
48
1
60
0
100
AcDbSpline
70
4
71
3
72
12
73
8
40
0
40
0
40
0
40
0
40
0.499999999999999
40
0.499999999999999
40
0.75
40
0.75
40
1
40
1
40
1
40
1
41
1
10
118.980930883943
20
-6.22451905283845
30
0
41
1
10
118.979621001817
20
-6.22451905283845
30
0
41
1
10
118.987583661285
20
-6.21518510548304
30
0
41
1
10
119.007055846632
20
-6.19411179697309
30
0
41
1
10
119.014831887586
20
-6.18585923675499
30
0
41
1
10
119.031441573835
20
-6.16844692407264
30
0
41
1
10
119.040351617313
20
-6.15920318019698
30
0
41
1
10
119.049760667923
20
-6.14951905283843
30
0
0
SPLINE
5
163
100
AcDbEntity
8
1
62
256
6
ByLayer
370
13
48
1
60
0
100
AcDbSpline
70
4
71
3
72
26
73
22
40
0
40
0
40
0
40
0
40
0.499999999999688
40
0.499999999999688
40
0.624999999999609
40
0.624999999999609
40
0.749999999999529
40
0.749999999999529
40
0.81249999999961
40
0.81249999999961
40
0.843749999999764
40
0.843749999999764
40
0.859374999999747
40
0.859374999999747
40
0.87499999999973
40
0.87499999999973
40
0.906249999999797
40
0.906249999999797
40
0.937499999999864
40
0.937499999999864
40
1
40
1
40
1
40
1
41
1
10
102.374537960341
20
-6.22451905283847
30
0
41
1
10
102.264634605076
20
-6.22451905283847
30
0
41
1
10
102.154862991664
20
-6.2229648801995
30
0
41
1
10
102.018353832774
20
-6.21599858539233
30
0
41
1
10
101.991091567399
20
-6.21432964057473
30
0
41
1
10
101.936723708181
20
-6.2099981873715
30
0
41
1
10
101.909618851
20
-6.20742603286936
30
0
41
1
10
101.869707422903
20
-6.20159990586976
30
0
41
1
10
101.85648018382
20
-6.19938221051399
30
0
41
1
10
101.837295382974
20
-6.19445614663928
30
0
41
1
10
101.831052526284
20
-6.19261275971951
30
0
41
1
10
101.822667332308
20
-6.1885622321831
30
0
41
1
10
101.820003240603
20
-6.18698235623694
30
0
41
1
10
101.816452546672
20
-6.18286014367396
30
0
41
1
10
101.816028689291
20
-6.18017283321009
30
0
41
1
10
101.820047908372
20
-6.17312931918735
30
0
41
1
10
101.826571934372
20
-6.16997636303589
30
0
41
1
10
101.838800697302
20
-6.16455507948271
30
0
41
1
10
101.845270096957
20
-6.1623048464221
30
0
41
1
10
101.864918382828
20
-6.15608791514981
30
0
41
1
10
101.878408078221
20
-6.15267962129923
30
0
41
1
10
101.891966603511
20
-6.14951905283849
30
0
0
SPLINE
5
164
100
AcDbEntity
8
1
62
256
6
ByLayer
370
13
48
1
60
0
100
AcDbSpline
70
4
71
3
72
28
73
24
40
0
40
0
40
0
40
0
40
0.0156249999999378
40
0.0156249999999378
40
0.0234374999999063
40
0.0234374999999063
40
0.0312499999998747
40
0.0312499999998747
40
0.039062499999843
40
0.039062499999843
40
0.0468749999998114
40
0.0468749999998114
40
0.0624999999998072
40
0.0624999999998072
40
0.0937499999997969
40
0.0937499999997969
40
0.124999999999787
40
0.124999999999787
40
0.249999999999817
40
0.249999999999817
40
0.499999999999878
40
0.499999999999878
40
1
40
1
40
1
40
1
41
1
10
96.2170729269051
20
-5.50548094715327
30
0
41
1
10
96.2063881520563
20
-5.50075111965018
30
0
41
1
10
96.1958609259223
20
-5.49552854455175
30
0
41
1
10
96.1823266054793
20
-5.48588024979961
30
0
41
1
10
96.1781465487957
20
-5.48229794022262
30
0
41
1
10
96.1724304722492
20
-5.47429367140498
30
0
41
1
10
96.1711811366325
20
-5.46969559779339
30
0
41
1
10
96.1736728518862
20
-5.46169887959795
30
0
41
1
10
96.1770721467342
20
-5.45828035787642
30
0
41
1
10
96.1850891758022
20
-5.45276717676964
30
0
41
1
10
96.1896827446446
20
-5.45058431527619
30
0
41
1
10
96.2042483625971
20
-5.44480255010285
30
0
41
1
10
96.2149881253042
20
-5.44200963945582
30
0
41
1
10
96.2477275374892
20
-5.43497052982877
30
0
41
1
10
96.270195001478
20
-5.43210769109419
30
0
41
1
10
96.3151941767542
20
-5.42752815072143
30
0
41
1
10
96.3378546894324
20
-5.42591840746579
30
0
41
1
10
96.4516029662544
20
-5.41967016142951
30
0
41
1
10
96.543897501747
20
-5.41985209148999
30
0
41
1
10
96.8219676181743
20
-5.42389262424234
30
0
41
1
10
97.0089463554334
20
-5.43245024625301
30
0
41
1
10
97.5691373454653
20
-5.46105444008722
30
0
41
1
10
97.9436137672855
20
-5.48518219469457
30
0
41
1
10
98.3186194999265
20
-5.50548094716171
30
0
0
SPLINE
5
165
100
AcDbEntity
8
1
62
256
6
ByLayer
370
13
48
1
60
0
100
AcDbSpline
70
4
71
3
72
18
73
14
40
0
40
0
40
0
40
0
40
0.125
40
0.125
40
0.25
40
0.25
40
0.374999999999999
40
0.374999999999999
40
0.499999999999999
40
0.499999999999999
40
0.75
40
0.75
40
1
40
1
40
1
40
1
41
1
10
117.620125611036
20
-5.5054809471618
30
0
41
1
10
117.630875425473
20
-5.49251445188762
30
0
41
1
10
117.64032908915
20
-5.47973415248688
30
0
41
1
10
117.654345572087
20
-5.45623542309662
30
0
41
1
10
117.658811415039
20
-5.44547180275393
30
0
41
1
10
117.66003549342
20
-5.4294696622074
30
0
41
1
10
117.656799596886
20
-5.42428339992338
30
0
41
1
10
117.644562059803
20
-5.41969811546366
30
0
41
1
10
117.635626169357
20
-5.42016236094028
30
0
41
1
10
117.604892038681
20
-5.42707910598756
30
0
41
1
10
117.578923235888
20
-5.43878149106015
30
0
41
1
10
117.525207102334
20
-5.46808941422975
30
0
41
1
10
117.497481038828
20
-5.48563539841743
30
0
41
1
10
117.469079857781
20
-5.50548094716177
30
0
0
SPLINE
5
166
100
AcDbEntity
8
1
62
256
6
ByLayer
370
13
48
1
60
0
100
AcDbSpline
70
4
71
3
72
8
73
4
40
0
40
0
40
0
40
0
40
1
40
1
40
1
40
1
41
1
10
80
20
-4.90000000000006
30
0
41
1
10
80.6074637973821
20
-4.90000000000006
30
0
41
1
10
81.2158730158241
20
-4.90000000000006
30
0
41
1
10
81.825
20
-4.90000000000006
30
0
0
SPLINE
5
167
100
AcDbEntity
8
1
62
256
6
ByLayer
370
13
48
1
60
0
100
AcDbSpline
70
4
71
3
72
10
73
6
40
0
40
0
40
0
40
0
40
0.5
40
0.5
40
1
40
1
40
1
40
1
41
1
10
104.571656778948
20
-6.14951905283843
30
0
41
1
10
104.415713453807
20
-6.17346905578091
30
0
41
1
10
104.259692626898
20
-6.19108712904145
30
0
41
1
10
103.947406700533
20
-6.21643776649609
30
0
41
1
10
103.790851915782
20
-6.22451905283842
30
0
41
1
10
103.635402702345
20
-6.22451905283845
30
0
0
SPLINE
5
168
100
AcDbEntity
8
1
62
256
6
ByLayer
370
13
48
1
60
0
100
AcDbSpline
70
4
71
3
72
10
73
6
40
0
40
0
40
0
40
0
40
0.5
40
0.5
40
1
40
1
40
1
40
1
41
1
10
80.9502393320775
20
-6.14951905283922
30
0
41
1
10
80.9691869178753
20
-6.16902057765941
30
0
41
1
10
80.9865611165669
20
-6.1872020227141
30
0
41
1
10
81.0124238035097
20
-6.21519507729232
30
0
41
1
10
81.0203777433463
20
-6.22451905283839
30
0
41
1
10
81.0190691160574
20
-6.22451905283839
30
0
0
SPLINE
5
169
100
AcDbEntity
8
1
62
256
6
ByLayer
370
13
48
1
60
0
100
AcDbSpline
70
4
71
3
72
22
73
18
40
0
40
0
40
0
40
0
40
0.0624999999999756
40
0.0624999999999756
40
0.124999999999951
40
0.124999999999951
40
0.187499999999927
40
0.187499999999927
40
0.249999999999902
40
0.249999999999902
40
0.374999999999842
40
0.374999999999842
40
0.499999999999782
40
0.499999999999782
40
0.749999999999891
40
0.749999999999891
40
1
40
1
40
1
40
1
41
1
10
88.9805993208166
20
-5.50548094716223
30
0
41
1
10
88.9720665730801
20
-5.49633247722125
30
0
41
1
10
88.9647319892665
20
-5.4866686825508
30
0
41
1
10
88.9559051750033
20
-5.46752933208927
30
0
41
1
10
88.9548013610518
20
-5.45810380859496
30
0
41
1
10
88.9602211011918
20
-5.44307511055271
30
0
41
1
10
88.96642006024
20
-5.43732803724359
30
0
41
1
10
88.9819967196136
20
-5.42891495805796
30
0
41
1
10
88.991348702807
20
-5.42613850731439
30
0
41
1
10
89.021046122937
20
-5.42043105793059
30
0
41
1
10
89.0435639118224
20
-5.41991737779611
30
0
41
1
10
89.0893390190952
20
-5.4218710417739
30
0
41
1
10
89.1129810810359
20
-5.42442262206154
30
0
41
1
10
89.1853839647947
20
-5.43510225424555
30
0
41
1
10
89.2340664688065
20
-5.44594072151361
30
0
41
1
10
89.3319660569709
20
-5.47216490742002
30
0
41
1
10
89.381192832108
20
-5.48764565201333
30
0
41
1
10
89.4306865739591
20
-5.50548094716166
30
0
0
SPLINE
5
16A
100
AcDbEntity
8
1
62
256
6
ByLayer
370
13
48
1
60
0
100
AcDbSpline
70
4
71
3
72
8
73
4
40
0
40
0
40
0
40
0
40
1
40
1
40
1
40
1
41
1
10
118.830440266676
20
-5.50548094716177
30
0
41
1
10
118.644036351666
20
-5.72029621214747
30
0
41
1
10
118.457429785325
20
-5.93497972357289
30
0
41
1
10
118.27060263199
20
-6.14951905283843
30
0
0
SPLINE
5
16B
100
AcDbEntity
8
1
62
256
6
ByLayer
370
13
48
1
60
0
100
AcDbSpline
70
4
71
3
72
18
73
14
40
0
40
0
40
0
40
0
40
0.125
40
0.125
40
0.25
40
0.25
40
0.375000000000001
40
0.375000000000001
40
0.500000000000001
40
0.500000000000001
40
0.75
40
0.75
40
1
40
1
40
1
40
1
41
1
10
115.759193268076
20
-5.50548094716177
30
0
41
1
10
115.770843209336
20
-5.49122216878646
30
0
41
1
10
115.78050083887
20
-5.47686298566953
30
0
41
1
10
115.791184338945
20
-5.45091157183532
30
0
41
1
10
115.791637537883
20
-5.43990814427804
30
0
41
1
10
115.782392088677
20
-5.42537853685852
30
0
41
1
10
115.773023163071
20
-5.4217874277376
30
0
41
1
10
115.750592306848
20
-5.41979872800485
30
0
41
1
10
115.737552073181
20
-5.42118166016576
30
0
41
1
10
115.694959935123
20
-5.42982247163781
30
0
41
1
10
115.663152136342
20
-5.44131581082982
30
0
41
1
10
115.598970531252
20
-5.46948979583553
30
0
41
1
10
115.566379862322
20
-5.48629649477346
30
0
41
1
10
115.533364257806
20
-5.50548094716174
30
0
0
SPLINE
5
16C
100
AcDbEntity
8
1
62
256
6
ByLayer
370
13
48
1
60
0
100
AcDbSpline
70
4
71
3
72
8
73
4
40
0
40
0
40
0
40
0
40
1
40
1
40
1
40
1
41
1
10
119.049760667923
20
-6.14951905283843
30
0
41
1
10
119.257938699102
20
-5.93525486713287
30
0
41
1
10
119.465530721767
20
-5.7205627941949
30
0
41
1
10
119.672581471913
20
-5.5054809471618
30
0
0
SPLINE
5
16D
100
AcDbEntity
8
1
62
256
6
ByLayer
370
13
48
1
60
0
100
AcDbSpline
70
4
71
3
72
8
73
4
40
0
40
0
40
0
40
0
40
1
40
1
40
1
40
1
41
1
10
112.625452833614
20
-5.50548094716177
30
0
41
1
10
112.119484651471
20
-5.72990519726235
30
0
41
1
10
111.608267509331
20
-5.94495113090073
30
0
41
1
10
111.091185917586
20
-6.14951905283843
30
0
0
SPLINE
5
16E
100
AcDbEntity
8
1
62
256
6
ByLayer
370
13
48
1
60
0
100
AcDbSpline
70
4
71
3
72
8
73
4
40
0
40
0
40
0
40
0
40
1
40
1
40
1
40
1
41
1
10
81.8241802376488
20
-5.50548094716174
30
0
41
1
10
82.1117442192846
20
-5.7220499096004
30
0
41
1
10
82.4011179785004
20
-5.93678890235742
30
0
41
1
10
82.6924784141889
20
-6.1495190528384
30
0
0
SPLINE
5
16F
100
AcDbEntity
8
1
62
256
6
ByLayer
370
13
48
1
60
0
100
AcDbSpline
70
4
71
3
72
8
73
4
40
0
40
0
40
0
40
0
40
1
40
1
40
1
40
1
41
1
10
82.0735535278101
20
-6.14951905283843
30
0
41
1
10
81.8019717810459
20
-5.93635112370643
30
0
41
1
10
81.5320403563549
20
-5.72162661914018
30
0
41
1
10
81.2636156906033
20
-5.50548094716174
30
0
0
SPLINE
5
170
100
AcDbEntity
8
1
62
256
6
ByLayer
370
13
48
1
60
0
100
AcDbSpline
70
4
71
3
72
8
73
4
40
0
40
0
40
0
40
0
40
1
40
1
40
1
40
1
41
1
10
95.4283432210519
20
-6.14951905283871
30
0
41
1
10
94.3665190892062
20
-5.98644255655984
30
0
41
1
10
93.3193543709004
20
-5.76970565136429
30
0
41
1
10
92.2851627792961
20
-5.50548094716183
30
0
0
SPLINE
5
171
100
AcDbEntity
8
1
62
256
6
ByLayer
370
13
48
1
60
0
100
AcDbSpline
70
4
71
3
72
8
73
4
40
0
40
0
40
0
40
0
40
1
40
1
40
1
40
1
41
1
10
115.570354655221
20
-6.14951905283846
30
0
41
1
10
115.915558059843
20
-5.93821388267017
30
0
41
1
10
116.257849135249
20
-5.72342515336811
30
0
41
1
10
116.597502165134
20
-5.5054809471618
30
0
0
SPLINE
5
172
100
AcDbEntity
8
1
62
256
6
ByLayer
370
13
48
1
60
0
100
AcDbSpline
70
4
71
3
72
10
73
6
40
0
40
0
40
0
40
0
40
0.5
40
0.5
40
1
40
1
40
1
40
1
41
1
10
118.289017819071
20
-6.22451905283845
30
0
41
1
10
118.297953583915
20
-6.22451905283845
30
0
41
1
10
118.315938440173
20
-6.21461676797892
30
0
41
1
10
118.356614365801
20
-6.18691285896162
30
0
41
1
10
118.379363334701
20
-6.16918471427715
30
0
41
1
10
118.402843877979
20
-6.14951905283843
30
0
0
SPLINE
5
173
100
AcDbEntity
8
1
62
256
6
ByLayer
370
13
48
1
60
0
100
AcDbSpline
70
4
71
3
72
8
73
4
40
0
40
0
40
0
40
0
40
1
40
1
40
1
40
1
41
1
10
115.759193268076
20
-5.5054809471618
30
0
41
1
10
115.583791069796
20
-5.72016194991494
30
0
41
1
10
115.408386296742
20
-5.93484137492609
30
0
41
1
10
115.232978672733
20
-6.14951905283846
30
0
0
SPLINE
5
174
100
AcDbEntity
8
1
62
256
6
ByLayer
370
13
48
1
60
0
100
AcDbSpline
70
4
71
3
72
18
73
14
40
0
40
0
40
0
40
0
40
0.25
40
0.25
40
0.499999999999999
40
0.499999999999999
40
0.625
40
0.625
40
0.75
40
0.75
40
0.875
40
0.875
40
1
40
1
40
1
40
1
41
1
10
81.2636156906033
20
-5.50548094716174
30
0
41
1
10
81.2380749816186
20
-5.48491460430776
30
0
41
1
10
81.2130736260015
20
-5.46624517153489
30
0
41
1
10
81.1676594795469
20
-5.43624855401566
30
0
41
1
10
81.1465971669567
20
-5.42453539639223
30
0
41
1
10
81.1262450613624
20
-5.41972529118644
30
0
41
1
10
81.1214598920769
20
-5.42037737007848
30
0
41
1
10
81.1178306064488
20
-5.42715249749597
30
0
41
1
10
81.1190113602365
20
-5.43327862676321
30
0
41
1
10
81.1268063813172
20
-5.44962743318794
30
0
41
1
10
81.1332832071193
20
-5.4596878269044
30
0
41
1
10
81.1495534061476
20
-5.48173497389985
30
0
41
1
10
81.1591016994148
20
-5.49342891850478
30
0
41
1
10
81.1695597333241
20
-5.50548094716171
30
0
0
SPLINE
5
175
100
AcDbEntity
8
1
62
256
6
ByLayer
370
13
48
1
60
0
100
AcDbSpline
70
4
71
3
72
8
73
4
40
0
40
0
40
0
40
0
40
1
40
1
40
1
40
1
41
1
10
118.402843877979
20
-6.14951905283843
30
0
41
1
10
118.657761206752
20
-5.93601812046111
30
0
41
1
10
118.911309452851
20
-5.72130427985869
30
0
41
1
10
119.163605348299
20
-5.50548094716177
30
0
0
SPLINE
5
176
100
AcDbEntity
8
1
62
256
6
ByLayer
370
13
48
1
60
0
100
AcDbSpline
70
4
71
3
72
8
73
4
40
0
40
0
40
0
40
0
40
1
40
1
40
1
40
1
41
1
10
80.932063514156
20
-6.1495190528384
30
0
41
1
10
80.7144883368789
20
-5.93538855899661
30
0
41
1
10
80.4976580264082
20
-5.72069376473382
30
0
41
1
10
80.281511497756
20
-5.50548094716171
30
0
0
SPLINE
5
177
100
AcDbEntity
8
1
62
256
6
ByLayer
370
13
48
1
60
0
100
AcDbSpline
70
4
71
3
72
14
73
10
40
0
40
0
40
0
40
0
40
0.499925619030984
40
0.499925619030984
40
0.74988842854667
40
0.74988842854667
40
0.999851238062357
40
0.999851238062357
40
1
40
1
40
1
40
1
41
1
10
80.281511497756
20
-5.50548094716174
30
0
41
1
10
80.259363050894
20
-5.48342817729423
30
0
41
1
10
80.2388109947129
20
-5.46300359523204
30
0
41
1
10
80.2146132614153
20
-5.43898041542212
30
0
41
1
10
80.2078870842782
20
-5.43230754893003
30
0
41
1
10
80.1984873372601
20
-5.42298451511712
30
0
41
1
10
80.1959272774245
20
-5.42044662488826
30
0
41
1
10
80.1959615950299
20
-5.42048065041552
30
0
41
1
10
80.1959623052232
20
-5.42048135456424
30
0
41
1
10
80.1959630154212
20
-5.42048205870827
30
0
0
SPLINE
5
178
100
AcDbEntity
8
1
62
256
6
ByLayer
370
13
48
1
60
0
100
AcDbSpline
70
4
71
3
72
26
73
22
40
0
40
0
40
0
40
0
40
0.0624999999996494
40
0.0624999999996494
40
0.0937499999994742
40
0.0937499999994742
40
0.124999999999299
40
0.124999999999299
40
0.140624999999274
40
0.140624999999274
40
0.156249999999249
40
0.156249999999249
40
0.187499999999206
40
0.187499999999206
40
0.249999999999119
40
0.249999999999119
40
0.374999999999183
40
0.374999999999183
40
0.499999999999248
40
0.499999999999248
40
1
40
1
40
1
40
1
41
1
10
98.1080333964858
20
-6.1495190528384
30
0
41
1
10
98.1212689652612
20
-6.15260433831995
30
0
41
1
10
98.1343947492198
20
-6.155918726371
30
0
41
1
10
98.1535958003431
20
-6.16192462556589
30
0
41
1
10
98.1599548226915
20
-6.16410301769335
30
0
41
1
10
98.1720906987601
20
-6.16930332751463
30
0
41
1
10
98.1783458662327
20
-6.17219161864344
30
0
41
1
10
98.1835725648843
20
-6.17886731918847
30
0
41
1
10
98.1839586126736
20
-6.18156001289213
30
0
41
1
10
98.1812851896598
20
-6.18596503436717
30
0
41
1
10
98.1787716498588
20
-6.18768477006157
30
0
41
1
10
98.1707602949472
20
-6.19198251797138
30
0
41
1
10
98.1644828463379
20
-6.19392099210256
30
0
41
1
10
98.1454592116236
20
-6.19901205969106
30
0
41
1
10
98.1321624481409
20
-6.20128783518177
30
0
41
1
10
98.0920495742375
20
-6.20725334554541
30
0
41
1
10
98.0648310152333
20
-6.20985427543286
30
0
41
1
10
98.0103456952565
20
-6.21423411356173
30
0
41
1
10
97.9830041911365
20
-6.21591986312922
30
0
41
1
10
97.8460456500576
20
-6.22295512622932
30
0
41
1
10
97.735748187216
20
-6.22451905284328
30
0
41
1
10
97.6254620396597
20
-6.22451905284288
30
0
0
SPLINE
5
179
100
AcDbEntity
8
1
62
256
6
ByLayer
370
13
48
1
60
0
100
AcDbSpline
70
4
71
3
72
10
73
6
40
0
40
0
40
0
40
0
40
0.5
40
0.5
40
1
40
1
40
1
40
1
41
1
10
81.7690809187515
20
-6.22451905283842
30
0
41
1
10
81.7770703408914
20
-6.22451905283842
30
0
41
1
10
81.7770381755397
20
-6.21633627577216
30
0
41
1
10
81.7609351356406
20
-6.18771893552983
30
0
41
1
10
81.7463083594336
20
-6.16893846105825
30
0
41
1
10
81.7293973680103
20
-6.1495190528384
30
0
0
SPLINE
5
17A
100
AcDbEntity
8
1
62
256
6
ByLayer
370
13
48
1
60
0
100
AcDbSpline
70
4
71
3
72
18
73
14
40
0
40
0
40
0
40
0
40
0.125000000000129
40
0.125000000000129
40
0.250000000000258
40
0.250000000000258
40
0.375000000000386
40
0.375000000000386
40
0.500000000000515
40
0.500000000000515
40
0.750000000000257
40
0.750000000000257
40
1
40
1
40
1
40
1
41
1
10
107.633633338837
20
-6.14951905283681
30
0
41
1
10
107.626674486322
20
-6.15543300447797
30
0
41
1
10
107.62036019721
20
-6.16178948624443
30
0
41
1
10
107.611474564137
20
-6.17532466309257
30
0
41
1
10
107.609227777937
20
-6.18257292880884
30
0
41
1
10
107.611705297373
20
-6.19510668013845
30
0
41
1
10
107.616149713031
20
-6.20024900363512
30
0
41
1
10
107.627561730211
20
-6.20817802133641
30
0
41
1
10
107.634567084525
20
-6.21114695647603
30
0
41
1
10
107.656743346944
20
-6.21824142511951
30
0
41
1
10
107.673427705717
20
-6.22076421993754
30
0
41
1
10
107.707201188477
20
-6.22393124552841
30
0
41
1
10
107.724560092015
20
-6.22451905283845
30
0
41
1
10
107.742192158325
20
-6.22451905283845
30
0
0
SPLINE
5
17B
100
AcDbEntity
8
1
62
256
6
ByLayer
370
13
48
1
60
0
100
AcDbSpline
70
4
71
3
72
16
73
12
40
0
40
0
40
0
40
0
40
0.250000000000066
40
0.250000000000066
40
0.375000000000095
40
0.375000000000095
40
0.500000000000124
40
0.500000000000124
40
0.750000000000062
40
0.750000000000062
40
1
40
1
40
1
40
1
41
1
10
80.7673764743101
20
-5.50548094716174
30
0
41
1
10
80.7463333167925
20
-5.48195915112285
30
0
41
1
10
80.7277801981403
20
-5.45930819943328
30
0
41
1
10
80.712452691023
20
-5.43484041072995
30
0
41
1
10
80.7095956474033
20
-5.42842919412834
30
0
41
1
10
80.709571088557
20
-5.42090367450862
30
0
41
1
10
80.7124064832527
20
-5.41972954635546
30
0
41
1
10
80.7276842898494
20
-5.4234429029618
30
0
41
1
10
80.746380237262
20
-5.43506813891585
30
0
41
1
10
80.7883010605032
20
-5.46552221027224
30
0
41
1
10
80.8120321910101
20
-5.48464038830213
30
0
41
1
10
80.8363946517015
20
-5.50548094716171
30
0
0
SPLINE
5
17C
100
AcDbEntity
8
1
62
256
6
ByLayer
370
13
48
1
60
0
100
AcDbSpline
70
4
71
3
72
12
73
8
40
0
40
0
40
0
40
0
40
0.500000000000004
40
0.500000000000004
40
0.750000000000002
40
0.750000000000002
40
1
40
1
40
1
40
1
41
1
10
118.27060263199
20
-6.14951905283846
30
0
41
1
10
118.25365714258
20
-6.16897807615067
30
0
41
1
10
118.238966834284
20
-6.1878798440143
30
0
41
1
10
118.22700357878
20
-6.20916019638682
30
0
41
1
10
118.2248009678
20
-6.21497627972263
30
0
41
1
10
118.224782696132
20
-6.2226220848853
30
0
41
1
10
118.226971633581
20
-6.22451905283847
30
0
41
1
10
118.230919081248
20
-6.22451905283845
30
0
0
SPLINE
5
17D
100
AcDbEntity
8
1
62
256
6
ByLayer
370
13
48
1
60
0
100
AcDbSpline
70
4
71
3
72
10
73
6
40
0
40
0
40
0
40
0
40
0.5
40
0.5
40
1
40
1
40
1
40
1
41
1
10
81.3536849781257
20
-6.22451905283842
30
0
41
1
10
81.3476162400368
20
-6.22451905283842
30
0
41
1
10
81.3321655836674
20
-6.21469181596021
30
0
41
1
10
81.2957590886308
20
-6.18703711205757
30
0
41
1
10
81.2744541903327
20
-6.16909248284739
30
0
41
1
10
81.252417689893
20
-6.1495190528384
30
0
0
SPLINE
5
17E
100
AcDbEntity
8
1
62
256
6
ByLayer
370
13
48
1
60
0
100
AcDbSpline
70
4
71
3
72
8
73
4
40
0
40
0
40
0
40
0
40
1
40
1
40
1
40
1
41
1
10
82.9140619253723
20
-6.14951905283837
30
0
41
1
10
82.735942591209
20
-5.93487504045049
30
0
41
1
10
82.5578817749229
20
-5.72019460034659
30
0
41
1
10
82.3798743889635
20
-5.50548094716174
30
0
0
SPLINE
5
17F
100
AcDbEntity
8
1
62
256
6
ByLayer
370
13
48
1
60
0
100
AcDbSpline
70
4
71
3
72
14
73
10
40
0
40
0
40
0
40
0
40
0.49999999999999
40
0.49999999999999
40
0.62499999999999
40
0.62499999999999
40
0.74999999999999
40
0.74999999999999
40
1
40
1
40
1
40
1
41
1
10
118.942943478599
20
10.8346352116993
30
0
41
1
10
118.522483020821
20
11.6885808527037
30
0
41
1
10
118.040219954003
20
12.5158587498791
30
0
41
1
10
117.349747143061
20
13.521514318482
30
0
41
1
10
117.20709373769
20
13.7213696486558
30
0
41
1
10
116.914189349339
20
14.1160625293902
30
0
41
1
10
116.763788775923
20
14.311132619689
30
0
41
1
10
116.300465198424
20
14.8895250695209
30
0
41
1
10
115.975443225283
20
15.2660482342117
30
0
41
1
10
115.633294025103
20
15.6332940251025
30
0
0
SPLINE
5
180
100
AcDbEntity
8
1
62
256
6
ByLayer
370
13
48
1
60
0
100
AcDbSpline
70
4
71
3
72
12
73
8
40
0
40
0
40
0
40
0
40
0.499999999999999
40
0.499999999999999
40
0.749999999999999
40
0.749999999999999
40
1
40
1
40
1
40
1
41
1
10
117.92644647219
20
-6.14951905283846
30
0
41
1
10
117.901105375281
20
-6.16940959855603
30
0
41
1
10
117.876518128349
20
-6.18703228232476
30
0
41
1
10
117.842540744761
20
-6.20774918710046
30
0
41
1
10
117.831875322611
20
-6.21356903378035
30
0
41
1
10
117.812924150877
20
-6.22195794075714
30
0
41
1
10
117.804585630645
20
-6.22451905283941
30
0
41
1
10
117.798631455188
20
-6.22451905283947
30
0
0
SPLINE
5
181
100
AcDbEntity
8
1
62
256
6
ByLayer
370
13
48
1
60
0
100
AcDbSpline
70
4
71
3
72
18
73
14
40
0
40
0
40
0
40
0
40
0.249999999999876
40
0.249999999999876
40
0.499999999999752
40
0.499999999999752
40
0.624999999999814
40
0.624999999999814
40
0.749999999999876
40
0.749999999999876
40
0.874999999999938
40
0.874999999999938
40
1
40
1
40
1
40
1
41
1
10
84.4666357421941
20
-5.50548094716174
30
0
41
1
10
84.4335653140494
20
-5.48626463828293
30
0
41
1
10
84.4004152525624
20
-5.46918337014756
30
0
41
1
10
84.3360952185754
20
-5.4410230114643
30
0
41
1
10
84.3046273983211
20
-5.4297092539644
30
0
41
1
10
84.262296612331
20
-5.42116589935625
30
0
41
1
10
84.2490653431788
20
-5.41976930493371
30
0
41
1
10
84.2265574454257
20
-5.42188643729631
30
0
41
1
10
84.2174271695753
20
-5.42551457637541
30
0
41
1
10
84.2083525716577
20
-5.44007480985869
30
0
41
1
10
84.2088958448704
20
-5.45119730784344
30
0
41
1
10
84.2195815720905
20
-5.47697080949911
30
0
41
1
10
84.2292505695901
20
-5.49133694815757
30
0
41
1
10
84.240806731924
20
-5.50548094716174
30
0
0
SPLINE
5
182
100
AcDbEntity
8
1
62
256
6
ByLayer
370
13
48
1
60
0
100
AcDbSpline
70
4
71
3
72
12
73
8
40
0
40
0
40
0
40
0
40
0.500000000000173
40
0.500000000000173
40
0.750000000000086
40
0.750000000000086
40
1
40
1
40
1
40
1
41
1
10
91.3856384228734
20
-6.14951905283854
30
0
41
1
10
91.4586246375291
20
-6.17127368206448
30
0
41
1
10
91.5316517101681
20
-6.18873774516615
30
0
41
1
10
91.6412785734699
20
-6.20853055084692
30
0
41
1
10
91.6776568425242
20
-6.21399058154833
30
0
41
1
10
91.749521612471
20
-6.2219360753831
30
0
41
1
10
91.7850930614829
20
-6.22451905283842
30
0
41
1
10
91.8199606408716
20
-6.22451905283842
30
0
0
SPLINE
5
183
100
AcDbEntity
8
1
62
256
6
ByLayer
370
13
48
1
60
0
100
AcDbSpline
70
4
71
3
72
16
73
12
40
0
40
0
40
0
40
0
40
0.250000000000028
40
0.250000000000028
40
0.500000000000055
40
0.500000000000055
40
0.625000000000072
40
0.625000000000072
40
0.750000000000088
40
0.750000000000088
40
1
40
1
40
1
40
1
41
1
10
119.163605348299
20
-5.5054809471618
30
0
41
1
10
119.188016253029
20
-5.48459894746173
30
0
41
1
10
119.211743720001
20
-5.46548812240087
30
0
41
1
10
119.253625953005
20
-5.43506520012585
30
0
41
1
10
119.272360018835
20
-5.42341985073219
30
0
41
1
10
119.287611033622
20
-5.41973145413263
30
0
41
1
10
119.290442917201
20
-5.42089813794746
30
0
41
1
10
119.290390049382
20
-5.42849287968872
30
0
41
1
10
119.287545522747
20
-5.43485775196481
30
0
41
1
10
119.272034543986
20
-5.4595746861165
30
0
41
1
10
119.253605778303
20
-5.48202722991508
30
0
41
1
10
119.23262352569
20
-5.5054809471618
30
0
0
SPLINE
5
184
100
AcDbEntity
8
1
62
256
6
ByLayer
370
13
48
1
60
0
100
AcDbSpline
70
4
71
3
72
8
73
4
40
0
40
0
40
0
40
0
40
1
40
1
40
1
40
1
41
1
10
101.891966603512
20
-6.14951905283905
30
0
41
1
10
102.550105560444
20
-5.99610316243377
30
0
41
1
10
103.176934597393
20
-5.77373553541219
30
0
41
1
10
103.782927073077
20
-5.50548094716223
30
0
0
SPLINE
5
185
100
AcDbEntity
8
1
62
256
6
ByLayer
370
13
48
1
60
0
100
AcDbSpline
70
4
71
3
72
10
73
6
40
0
40
0
40
0
40
0
40
0.5
40
0.5
40
1
40
1
40
1
40
1
41
1
10
87.0647155139355
20
-6.14951905283843
30
0
41
1
10
87.1086148497105
20
-6.17041979706212
30
0
41
1
10
87.1527559170477
20
-6.18800130310731
30
0
41
1
10
87.2386274595374
20
-6.21463463994473
30
0
41
1
10
87.2817612896393
20
-6.22451905283842
30
0
41
1
10
87.3190368609382
20
-6.22451905283842
30
0
0
SPLINE
5
186
100
AcDbEntity
8
1
62
256
6
ByLayer
370
13
48
1
60
0
100
AcDbSpline
70
4
71
3
72
8
73
4
40
0
40
0
40
0
40
0
40
1
40
1
40
1
40
1
41
1
10
80.7673764743102
20
-5.50548094716174
30
0
41
1
10
80.9596197073175
20
-5.72036819081015
30
0
41
1
10
81.1521637135845
20
-5.93505392410211
30
0
41
1
10
81.3450344181744
20
-6.14951905283837
30
0
0
SPLINE
5
187
100
AcDbEntity
8
1
62
256
6
ByLayer
370
13
48
1
60
0
100
AcDbSpline
70
4
71
3
72
14
73
10
40
0
40
0
40
0
40
0
40
0.25
40
0.25
40
0.5
40
0.5
40
0.75
40
0.75
40
1
40
1
40
1
40
1
41
1
10
112.416037958942
20
-6.1495190528384
30
0
41
1
10
112.406903313141
20
-6.1601044184095
30
0
41
1
10
112.399390743179
20
-6.17114076879258
30
0
41
1
10
112.392132029948
20
-6.19198657226633
30
0
41
1
10
112.392963041751
20
-6.20119495513424
30
0
41
1
10
112.402483321149
20
-6.21442652466675
30
0
41
1
10
112.410827373565
20
-6.21862895684748
30
0
41
1
10
112.429812674843
20
-6.22360599609604
30
0
41
1
10
112.440478101582
20
-6.22451905283845
30
0
41
1
10
112.451817425544
20
-6.22451905283845
30
0
0
SPLINE
5
188
100
AcDbEntity
8
1
62
256
6
ByLayer
370
13
48
1
60
0
100
AcDbSpline
70
4
71
3
72
8
73
4
40
0
40
0
40
0
40
0
40
1
40
1
40
1
40
1
41
1
10
83.217255900639
20
-5.50548094716171
30
0
41
1
10
83.393042659666
20
-5.72016688726515
30
0
41
1
10
83.5688397730474
20
-5.93484646903028
30
0
41
1
10
83.7446482791979
20
-6.1495190528384
30
0
0
SPLINE
5
189
100
AcDbEntity
8
1
62
256
6
ByLayer
370
13
48
1
60
0
100
AcDbSpline
70
4
71
3
72
14
73
10
40
0
40
0
40
0
40
0
40
0.25
40
0.25
40
0.5
40
0.5
40
0.75
40
0.75
40
1
40
1
40
1
40
1
41
1
10
113.994672775396
20
-6.22451905283867
30
0
41
1
10
113.984814154099
20
-6.22451905283867
30
0
41
1
10
113.975742651166
20
-6.22338375114427
30
0
41
1
10
113.961093702934
20
-6.21763748093562
30
0
41
1
10
113.955455285073
20
-6.21285128893274
30
0
41
1
10
113.951034029878
20
-6.19892325757547
30
0
41
1
10
113.952423689022
20
-6.18981192976699
30
0
41
1
10
113.961126442541
20
-6.17027750064241
30
0
41
1
10
113.968320323803
20
-6.15974827838946
30
0
41
1
10
113.97679573153
20
-6.14951905283843
30
0
0
SPLINE
5
18A
100
AcDbEntity
8
1
62
256
6
ByLayer
370
13
48
1
60
0
100
AcDbSpline
70
4
71
3
72
10
73
6
40
0
40
0
40
0
40
0
40
0.5
40
0.5
40
1
40
1
40
1
40
1
41
1
10
81.146018236731
20
-6.22451905283842
30
0
41
1
10
81.1496047434414
20
-6.22451905283842
30
0
41
1
10
81.1441792015823
20
-6.21548199897171
30
0
41
1
10
81.1215089770912
20
-6.18728580521389
30
0
41
1
10
81.1050899388435
20
-6.1688829827427
30
0
41
1
10
81.0870266435411
20
-6.14951905283837
30
0
0
SPLINE
5
18B
100
AcDbEntity
8
1
62
256
6
ByLayer
370
13
48
1
60
0
100
AcDbSpline
70
4
71
3
72
8
73
4
40
0
40
0
40
0
40
0
40
1
40
1
40
1
40
1
41
1
10
116.255351720802
20
-6.14951905283846
30
0
41
1
10
116.431160226953
20
-5.93484646903033
30
0
41
1
10
116.606957340334
20
-5.72016688726518
30
0
41
1
10
116.782744099361
20
-5.50548094716177
30
0
0
SPLINE
5
18C
100
AcDbEntity
8
1
62
256
6
ByLayer
370
13
48
1
60
0
100
AcDbSpline
70
4
71
3
72
20
73
16
40
0
40
0
40
0
40
0
40
0.250000000000159
40
0.250000000000159
40
0.375000000000133
40
0.375000000000133
40
0.500000000000106
40
0.500000000000106
40
0.62500000000008
40
0.62500000000008
40
0.750000000000053
40
0.750000000000053
40
0.875000000000027
40
0.875000000000027
40
1
40
1
40
1
40
1
41
1
10
119.650117451486
20
-5.50548094716177
30
0
41
1
10
119.672953265891
20
-5.48377194588329
30
0
41
1
10
119.69444739794
20
-5.46382054104478
30
0
41
1
10
119.72098675663
20
-5.44027321138012
30
0
41
1
10
119.728789423281
20
-5.43357701853898
30
0
41
1
10
119.740927989038
20
-5.42383992990139
30
0
41
1
10
119.745150345582
20
-5.42090836951866
30
0
41
1
10
119.748468736839
20
-5.42014243270609
30
0
41
1
10
119.747530194953
20
-5.42236532281555
30
0
41
1
10
119.740970064443
20
-5.43122884260478
30
0
41
1
10
119.735297317198
20
-5.43796254136802
30
0
41
1
10
119.721044039136
20
-5.45402738865684
30
0
41
1
10
119.712310827563
20
-5.46353864341836
30
0
41
1
10
119.693502189437
20
-5.48362757649372
30
0
41
1
10
119.683346014699
20
-5.4942988686465
30
0
41
1
10
119.672581471913
20
-5.50548094716177
30
0
0
SPLINE
5
18D
100
AcDbEntity
8
1
62
256
6
ByLayer
370
13
48
1
60
0
100
AcDbSpline
70
4
71
3
72
8
73
4
40
0
40
0
40
0
40
0
40
1
40
1
40
1
40
1
41
1
10
118.654965581825
20
-6.14951905283846
30
0
41
1
10
118.847836286416
20
-5.93505392410216
30
0
41
1
10
119.040380292682
20
-5.72036819081021
30
0
41
1
10
119.23262352569
20
-5.50548094716177
30
0
0
SPLINE
5
18E
100
AcDbEntity
8
1
62
256
6
ByLayer
370
13
48
1
60
0
100
AcDbSpline
70
4
71
3
72
8
73
4
40
0
40
0
40
0
40
0
40
1
40
1
40
1
40
1
41
1
10
85.4898709372903
20
-5.50548094716177
30
0
41
1
10
85.667588617002
20
-5.72019763150527
30
0
41
1
10
85.8453641339843
20
-5.93487842359554
30
0
41
1
10
86.0232042684696
20
-6.1495190528384
30
0
0
SPLINE
5
18F
100
AcDbEntity
8
1
62
256
6
ByLayer
370
13
48
1
60
0
100
AcDbSpline
70
4
71
3
72
8
73
4
40
0
40
0
40
0
40
0
40
1
40
1
40
1
40
1
41
1
10
110.414661697572
20
-6.14951905283843
30
0
41
1
10
110.617098078146
20
-5.93544301666927
30
0
41
1
10
110.818635172943
20
-5.72073367181875
30
0
41
1
10
111.019400679182
20
-5.50548094716174
30
0
0
SPLINE
5
190
100
AcDbEntity
8
1
62
256
6
ByLayer
370
13
48
1
60
0
100
AcDbSpline
70
4
71
3
72
12
73
8
40
0
40
0
40
0
40
0
40
0.499999999999994
40
0.499999999999994
40
0.749999999999993
40
0.749999999999993
40
1
40
1
40
1
40
1
41
1
10
81.3450344181744
20
-6.14951905283831
30
0
41
1
10
81.3625098135729
20
-6.16895104968742
30
0
41
1
10
81.3780176458133
20
-6.18757085789213
30
0
41
1
10
81.392537032427
20
-6.2087928299714
30
0
41
1
10
81.3958247291594
20
-6.21466393113857
30
0
41
1
10
81.3981771278536
20
-6.22250405153366
30
0
41
1
10
81.3972362007849
20
-6.22451905283839
30
0
41
1
10
81.3943686095216
20
-6.22451905283839
30
0
0
SPLINE
5
191
100
AcDbEntity
8
1
62
256
6
ByLayer
370
13
48
1
60
0
100
AcDbSpline
70
4
71
3
72
8
73
4
40
0
40
0
40
0
40
0
40
1
40
1
40
1
40
1
41
1
10
117.307521585811
20
-6.14951905283843
30
0
41
1
10
117.5988820215
20
-5.93678890235745
30
0
41
1
10
117.888255780715
20
-5.72204990960043
30
0
41
1
10
118.175819762351
20
-5.5054809471618
30
0
0
SPLINE
5
192
100
AcDbEntity
8
1
62
256
6
ByLayer
370
13
48
1
60
0
100
AcDbSpline
70
4
71
3
72
12
73
8
40
0
40
0
40
0
40
0
40
0.249999999999992
40
0.249999999999992
40
0.499999999999983
40
0.499999999999983
40
1
40
1
40
1
40
1
41
1
10
82.9336532097706
20
-6.22451905283853
30
0
41
1
10
82.939782873883
20
-6.22451905283853
30
0
41
1
10
82.9445474872248
20
-6.22289813900687
30
0
41
1
10
82.9495946999927
20
-6.21574281395411
30
0
41
1
10
82.9498433300748
20
-6.21014337928617
30
0
41
1
10
82.9435898996106
20
-6.18886709885751
30
0
41
1
10
82.9303424977942
20
-6.169138076259
30
0
41
1
10
82.9140619253723
20
-6.1495190528384
30
0
0
SPLINE
5
193
100
AcDbEntity
8
1
62
256
6
ByLayer
370
13
48
1
60
0
100
AcDbSpline
70
4
71
3
72
14
73
10
40
0
40
0
40
0
40
0
40
0.25
40
0.25
40
0.5
40
0.5
40
0.75
40
0.75
40
1
40
1
40
1
40
1
41
1
10
87.5481825744578
20
-6.22451905284055
30
0
41
1
10
87.5596072309556
20
-6.22451905284066
30
0
41
1
10
87.5703488312253
20
-6.22359338185206
30
0
41
1
10
87.589440154601
20
-6.21852842451219
30
0
41
1
10
87.5976077672256
20
-6.21436427555236
30
0
41
1
10
87.6070717977682
20
-6.20108132712431
30
0
41
1
10
87.6078158048096
20
-6.1917138191196
30
0
41
1
10
87.6005315280285
20
-6.1710427154872
30
0
41
1
10
87.593046643482
20
-6.16004642738733
30
0
41
1
10
87.5839620410582
20
-6.14951905283831
30
0
0
SPLINE
5
194
100
AcDbEntity
8
SK1
62
256
6
ByLayer
370
13
48
1
60
0
100
AcDbSpline
70
4
71
3
72
22
73
18
40
0
40
0
40
0
40
0
40
0.25
40
0.25
40
0.375
40
0.375
40
0.4375
40
0.4375
40
0.5
40
0.5
40
0.75
40
0.75
40
0.8125
40
0.8125
40
0.875
40
0.875
40
1
40
1
40
1
40
1
41
1
10
-197.5
20
7.59934207678558
30
0
41
1
10
-197.964203201503
20
6.37764894384708
30
0
41
1
10
-198.340724092459
20
5.13526148686969
30
0
41
1
10
-198.730125783908
20
3.23170889735027
30
0
41
1
10
-198.830663865283
20
2.59045755620173
30
0
41
1
10
-198.932247873445
20
1.61725344119222
30
0
41
1
10
-198.957940536779
20
1.29007614143543
30
0
41
1
10
-198.991907553539
20
0.637034787001994
30
0
41
1
10
-199.000239328984
20
0.311213079283817
30
0
41
1
10
-198.999016515405
20
-1.31443106735824
30
0
41
1
10
-198.859669861064
20
-2.6037676654104
30
0
41
1
10
-198.531157709515
20
-4.20297025795159
30
0
41
1
10
-198.457635241881
20
-4.52270954914209
30
0
41
1
10
-198.297911248926
20
-5.15397501825217
30
0
41
1
10
-198.211562814081
20
-5.46635689833613
30
0
41
1
10
-197.934906352767
20
-6.39467622983193
30
0
41
1
10
-197.727040898688
20
-7.00181430031756
30
0
41
1
10
-197.5
20
-7.59934207678509
30
0
0
SPLINE
5
195
100
AcDbEntity
8
SK1
62
256
6
ByLayer
370
13
48
1
60
0
100
AcDbSpline
70
4
71
3
72
20
73
16
40
0
40
0
40
0
40
0
40
0.125
40
0.125
40
0.25
40
0.25
40
0.5
40
0.5
40
0.75
40
0.75
40
0.8125
40
0.8125
40
0.875
40
0.875
40
1
40
1
40
1
40
1
41
1
10
-197.5
20
-17.4999999999997
30
0
41
1
10
-197.682524377625
20
-17.4999999999997
30
0
41
1
10
-197.858875344579
20
-17.4999999999997
30
0
41
1
10
-198.197236920088
20
-17.4999999999997
30
0
41
1
10
-198.359251498239
20
-17.4999999999997
30
0
41
1
10
-198.816203995517
20
-17.4999999999997
30
0
41
1
10
-199.083623223843
20
-17.4999999999997
30
0
41
1
10
-199.526083311304
20
-17.4999999999997
30
0
41
1
10
-199.701058451914
20
-17.4999999999997
30
0
41
1
10
-199.849843096885
20
-17.4999999999997
30
0
41
1
10
-199.876139810332
20
-17.4999999999997
30
0
41
1
10
-199.92118488733
20
-17.4999999999997
30
0
41
1
10
-199.939961783759
20
-17.4999999999997
30
0
41
1
10
-199.985015214748
20
-17.4999999999997
30
0
41
1
10
-200.0000110011
20
-17.4999999999997
30
0
41
1
10
-199.999995249525
20
-17.4999999999997
30
0
0
LINE
5
70
100
AcDbEntity
8
SK4
62
256
6
ByLayer
370
18
48
0.05
60
0
100
AcDbLine
10
-200
20
0
30
0
11
100
21
0
31
0
39
0
210
0
220
0
230
1
0
LINE
5
72
100
AcDbEntity
8
80
62
256
6
ByLayer
370
18
48
1
60
0
100
AcDbLine
10
0
20
0
30
0
11
-5
21
0
31
0
39
0
210
0
220
0
230
1
0
LINE
5
73
100
AcDbEntity
8
4
62
256
6
ByLayer
370
18
48
0.05
60
0
100
AcDbLine
10
0
20
0
30
0
11
100
21
0
31
0
39
0
210
0
220
0
230
1
0
LINE
5
75
100
AcDbEntity
8
1
62
256
6
ByLayer
370
13
48
1
60
0
100
AcDbLine
10
105.448331
20
21.5
30
0
11
81.825
21
21.5
31
0
39
0
210
0
220
0
230
1
0
LINE
5
77
100
AcDbEntity
8
1
62
256
6
ByLayer
370
13
48
1
60
0
100
AcDbLine
10
121.5
20
-4.9
30
0
11
121.5
21
-1.19537
31
0
39
0
210
0
220
0
230
1
0
LINE
5
78
100
AcDbEntity
8
1
62
256
6
ByLayer
370
13
48
1
60
0
100
AcDbLine
10
60
20
19.675
30
0
11
59.675
21
20
31
0
39
0
210
0
220
0
230
1
0
LINE
5
79
100
AcDbEntity
8
1
62
256
6
ByLayer
370
13
48
1
60
0
100
AcDbLine
10
80
20
19.675
30
0
11
60
21
19.675
31
0
39
0
210
0
220
0
230
1
0
LINE
5
7A
100
AcDbEntity
8
1
62
256
6
ByLayer
370
13
48
1
60
0
100
AcDbLine
10
52.5
20
-20
30
0
11
59.675
21
-20
31
0
39
0
210
0
220
0
230
1
0
LINE
5
7B
100
AcDbEntity
8
SK1
62
256
6
ByLayer
370
13
48
1
60
0
100
AcDbLine
10
0
20
20
30
0
11
-197.5
21
20
31
0
39
0
210
0
220
0
230
1
0
LINE
5
7D
100
AcDbEntity
8
1
62
256
6
ByLayer
370
13
48
1
60
0
100
AcDbLine
10
81.825
20
21.5
30
0
11
80
21
19.675
31
0
39
0
210
0
220
0
230
1
0
LINE
5
7E
100
AcDbEntity
8
1
62
256
6
ByLayer
370
13
48
1
60
0
100
AcDbLine
10
59.675
20
20
30
0
11
0
21
20
31
0
39
0
210
0
220
0
230
1
0
LINE
5
7F
100
AcDbEntity
8
1
62
256
6
ByLayer
370
13
48
1
60
0
100
AcDbLine
10
80
20
-5.224519
30
0
11
80.197359
21
-5.421878
31
0
39
0
210
0
220
0
230
1
0
LINE
5
80
100
AcDbEntity
8
1
62
256
6
ByLayer
370
13
48
1
60
0
100
AcDbLine
10
119.802641
20
-5.421878
30
0
11
120
21
-5.224519
31
0
39
0
210
0
220
0
230
1
0
LINE
5
81
100
AcDbEntity
8
1
62
256
6
ByLayer
370
13
48
1
60
0
100
AcDbLine
10
59.675
20
-20
30
0
11
60
21
-19.675
31
0
39
0
210
0
220
0
230
1
0
LINE
5
82
100
AcDbEntity
8
1
62
256
6
ByLayer
370
13
48
1
60
0
100
AcDbLine
10
120
20
-5.224519
30
0
11
120
21
-4.9
31
0
39
0
210
0
220
0
230
1
0
LINE
5
83
100
AcDbEntity
8
1
62
256
6
ByLayer
370
13
48
1
60
0
100
AcDbLine
10
80
20
-4.9
30
0
11
80
21
-5.224519
31
0
39
0
210
0
220
0
230
1
0
LINE
5
84
100
AcDbEntity
8
1
62
256
6
ByLayer
370
13
48
1
60
0
100
AcDbLine
10
60
20
-19.675
30
0
11
65
21
-19.675
31
0
39
0
210
0
220
0
230
1
0
LINE
5
85
100
AcDbEntity
8
SK1
62
256
6
ByLayer
370
13
48
1
60
0
100
AcDbLine
10
-197.5
20
20
30
0
11
-200
21
17.5
31
0
39
0
210
0
220
0
230
1
0
LINE
5
86
100
AcDbEntity
8
81
62
256
6
ByLayer
370
18
48
1
60
0
100
AcDbLine
10
100
20
-5.9
30
0
11
100
21
-10.9
31
0
39
0
210
0
220
0
230
1
0
LINE
5
87
100
AcDbEntity
8
1
62
256
6
ByLayer
370
13
48
1
60
0
100
AcDbLine
10
108.373701
20
-5.505481
30
0
11
107.714795
21
-5.505481
31
0
39
0
210
0
220
0
230
1
0
LINE
5
88
100
AcDbEntity
8
1
62
256
6
ByLayer
370
13
48
1
60
0
100
AcDbLine
10
92.285205
20
-5.505481
30
0
11
91.626299
21
-5.505481
31
0
39
0
210
0
220
0
230
1
0
LINE
5
89
100
AcDbEntity
8
1
62
256
6
ByLayer
370
13
48
1
60
0
100
AcDbLine
10
81.121919
20
-6.224519
30
0
11
81.146018
21
-6.224519
31
0
39
0
210
0
220
0
230
1
0
LINE
5
8A
100
AcDbEntity
8
1
62
256
6
ByLayer
370
13
48
1
60
0
100
AcDbLine
10
89.224568
20
-6.224519
30
0
11
89.524092
21
-6.224519
31
0
39
0
210
0
220
0
230
1
0
LINE
5
8B
100
AcDbEntity
8
1
62
256
6
ByLayer
370
13
48
1
60
0
100
AcDbLine
10
115.2366
20
-6.224519
30
0
11
115.385077
21
-6.224519
31
0
39
0
210
0
220
0
230
1
0
LINE
5
8C
100
AcDbEntity
8
1
62
256
6
ByLayer
370
13
48
1
60
0
100
AcDbLine
10
112.451817
20
-6.224519
30
0
11
112.680963
21
-6.224519
31
0
39
0
210
0
220
0
230
1
0
LINE
5
8D
100
AcDbEntity
8
1
62
256
6
ByLayer
370
13
48
1
60
0
100
AcDbLine
10
84.466655
20
-5.505481
30
0
11
84.240807
21
-5.505481
31
0
39
0
210
0
220
0
230
1
0
LINE
5
8E
100
AcDbEntity
8
1
62
256
6
ByLayer
370
13
48
1
60
0
100
AcDbLine
10
118.605631
20
-6.224519
30
0
11
118.288821
21
-6.224519
31
0
39
0
210
0
220
0
230
1
0
LINE
5
8F
100
AcDbEntity
8
1
62
256
6
ByLayer
370
13
48
1
60
0
100
AcDbLine
10
96.364597
20
-6.224519
30
0
11
97.625462
21
-6.224519
31
0
39
0
210
0
220
0
230
1
0
LINE
5
90
100
AcDbEntity
8
1
62
256
6
ByLayer
370
13
48
1
60
0
100
AcDbLine
10
117.085938
20
-6.149519
30
0
11
116.530034
21
-6.149519
31
0
39
0
210
0
220
0
230
1
0
LINE
5
91
100
AcDbEntity
8
1
62
256
6
ByLayer
370
13
48
1
60
0
100
AcDbLine
10
82.692516
20
-6.149519
30
0
11
82.248321
21
-6.149519
31
0
39
0
210
0
220
0
230
1
0
LINE
5
92
100
AcDbEntity
8
1
62
256
6
ByLayer
370
13
48
1
60
0
100
AcDbLine
10
81.1221
20
-6.224519
30
0
11
81.019069
21
-6.224519
31
0
39
0
210
0
220
0
230
1
0
LINE
5
93
100
AcDbEntity
8
1
62
256
6
ByLayer
370
13
48
1
60
0
100
AcDbLine
10
65
20
-10.4
30
0
11
65
21
-19.675
31
0
39
0
210
0
220
0
230
1
0
LINE
5
94
100
AcDbEntity
8
1
62
256
6
ByLayer
370
13
48
1
60
0
100
AcDbLine
10
102.374538
20
-6.224519
30
0
11
103.635403
21
-6.224519
31
0
39
0
210
0
220
0
230
1
0
LINE
5
95
100
AcDbEntity
8
1
62
256
6
ByLayer
370
13
48
1
60
0
100
AcDbLine
10
117.751679
20
-6.149519
30
0
11
117.307484
21
-6.149519
31
0
39
0
210
0
220
0
230
1
0
LINE
5
96
100
AcDbEntity
8
1
62
256
6
ByLayer
370
13
48
1
60
0
100
AcDbLine
10
118.230919
20
-6.224519
30
0
11
117.798588
21
-6.224519
31
0
39
0
210
0
220
0
230
1
0
LINE
5
97
100
AcDbEntity
8
1
62
256
6
ByLayer
370
13
48
1
60
0
100
AcDbLine
10
116.782744
20
-5.505481
30
0
11
116.59748
21
-5.505481
31
0
39
0
210
0
220
0
230
1
0
LINE
5
98
100
AcDbEntity
8
1
62
256
6
ByLayer
370
13
48
1
60
0
100
AcDbLine
10
107.742192
20
-6.224519
30
0
11
108.180039
21
-6.224519
31
0
39
0
210
0
220
0
230
1
0
LINE
5
99
100
AcDbEntity
8
1
62
256
6
ByLayer
370
13
48
1
60
0
100
AcDbLine
10
81.011086
20
-6.224519
30
0
11
81.019069
21
-6.224519
31
0
39
0
210
0
220
0
230
1
0
LINE
5
9A
100
AcDbEntity
8
1
62
256
6
ByLayer
370
13
48
1
60
0
100
AcDbLine
10
81.032172
20
-6.149519
30
0
11
80.950239
21
-6.149519
31
0
39
0
210
0
220
0
230
1
0
LINE
5
9B
100
AcDbEntity
8
1
62
256
6
ByLayer
370
13
48
1
60
0
100
AcDbLine
10
111.019401
20
-5.505481
30
0
11
110.568983
21
-5.505481
31
0
39
0
210
0
220
0
230
1
0
LINE
5
9C
100
AcDbEntity
8
1
62
256
6
ByLayer
370
13
48
1
60
0
100
AcDbLine
10
89.431017
20
-5.505481
30
0
11
88.980599
21
-5.505481
31
0
39
0
210
0
220
0
230
1
0
LINE
5
9D
100
AcDbEntity
8
1
62
256
6
ByLayer
370
13
48
1
60
0
100
AcDbLine
10
81.825
20
21.5
30
0
11
81.825
21
-4.9
31
0
39
0
210
0
220
0
230
1
0
LINE
5
9E
100
AcDbEntity
8
1
62
256
6
ByLayer
370
13
48
1
60
0
100
AcDbLine
10
87.0647
20
-6.149519
30
0
11
86.023204
21
-6.149519
31
0
39
0
210
0
220
0
230
1
0
LINE
5
9F
100
AcDbEntity
8
1
62
256
6
ByLayer
370
13
48
1
60
0
100
AcDbLine
10
52.5
20
-20
30
0
11
50
21
-17.5
31
0
39
0
210
0
220
0
230
1
0
LINE
5
A0
100
AcDbEntity
8
1
62
256
6
ByLayer
370
13
48
1
60
0
100
AcDbLine
10
80.350054
20
-5.505481
30
0
11
80.327419
21
-5.505481
31
0
39
0
210
0
220
0
230
1
0
LINE
5
A1
100
AcDbEntity
8
1
62
256
6
ByLayer
370
13
48
1
60
0
100
AcDbLine
10
81.710982
20
-6.224519
30
0
11
81.769081
21
-6.224519
31
0
39
0
210
0
220
0
230
1
0
LINE
5
A2
100
AcDbEntity
8
1
62
256
6
ByLayer
370
13
48
1
60
0
100
AcDbLine
10
82.836255
20
-6.224519
30
0
11
82.278169
21
-6.224519
31
0
39
0
210
0
220
0
230
1
0
LINE
5
A3
100
AcDbEntity
8
1
62
256
6
ByLayer
370
13
48
1
60
0
100
AcDbLine
10
119.232624
20
-5.505481
30
0
11
119.163466
21
-5.505481
31
0
39
0
210
0
220
0
230
1
0
LINE
5
A4
100
AcDbEntity
8
1
62
256
6
ByLayer
370
13
48
1
60
0
100
AcDbLine
10
116.246756
20
-6.224519
30
0
11
115.385057
21
-6.224519
31
0
39
0
210
0
220
0
230
1
0
LINE
5
A5
100
AcDbEntity
8
1
62
256
6
ByLayer
370
13
48
1
60
0
100
AcDbLine
10
118.942943
20
10.834635
30
0
11
121.5
21
-1.19537
31
0
39
0
210
0
220
0
230
1
0
LINE
5
A6
100
AcDbEntity
8
1
62
256
6
ByLayer
370
13
48
1
60
0
100
AcDbLine
10
102.374538
20
-6.224519
30
0
11
97.625462
21
-6.224519
31
0
39
0
210
0
220
0
230
1
0
LINE
5
A7
100
AcDbEntity
8
1
62
256
6
ByLayer
370
13
48
1
60
0
100
AcDbLine
10
115.2366
20
-6.224519
30
0
11
114.177598
21
-6.224519
31
0
39
0
210
0
220
0
230
1
0
LINE
5
A8
100
AcDbEntity
8
1
62
256
6
ByLayer
370
13
48
1
60
0
100
AcDbLine
10
0
20
20
30
0
11
0
21
7.599342
31
0
39
0
210
0
220
0
230
1
0
LINE
5
A9
100
AcDbEntity
8
1
62
256
6
ByLayer
370
13
48
1
60
0
100
AcDbLine
10
112.970564
20
-5.505481
30
0
11
112.625222
21
-5.505481
31
0
39
0
210
0
220
0
230
1
0
LINE
5
AA
100
AcDbEntity
8
1
62
256
6
ByLayer
370
13
48
1
60
0
100
AcDbLine
10
87.374778
20
-5.505481
30
0
11
87.029436
21
-5.505481
31
0
39
0
210
0
220
0
230
1
0
LINE
5
AB
100
AcDbEntity
8
1
62
256
6
ByLayer
370
13
48
1
60
0
100
AcDbLine
10
104.9
20
-4.9
30
0
11
81.825
21
-4.9
31
0
39
0
210
0
220
0
230
1
0
LINE
5
AC
100
AcDbEntity
8
1
62
256
6
ByLayer
370
13
48
1
60
0
100
AcDbLine
10
83.40252
20
-5.505481
30
0
11
83.217256
21
-5.505481
31
0
39
0
210
0
220
0
230
1
0
LINE
5
AD
100
AcDbEntity
8
1
62
256
6
ByLayer
370
13
48
1
60
0
100
AcDbLine
10
81.263694
20
-5.505481
30
0
11
81.16956
21
-5.505481
31
0
39
0
210
0
220
0
230
1
0
LINE
5
AE
100
AcDbEntity
8
1
62
256
6
ByLayer
370
13
48
1
60
0
100
AcDbLine
10
82.53096
20
-5.505481
30
0
11
82.379874
21
-5.505481
31
0
39
0
210
0
220
0
230
1
0
LINE
5
AF
100
AcDbEntity
8
1
62
256
6
ByLayer
370
13
48
1
60
0
100
AcDbLine
10
110.475908
20
-6.224519
30
0
11
110.775432
21
-6.224519
31
0
39
0
210
0
220
0
230
1
0
LINE
5
B0
100
AcDbEntity
8
1
62
256
6
ByLayer
370
13
48
1
60
0
100
AcDbLine
10
118.980931
20
-6.224519
30
0
11
118.8779
21
-6.224519
31
0
39
0
210
0
220
0
230
1
0
LINE
5
B1
100
AcDbEntity
8
1
62
256
6
ByLayer
370
13
48
1
60
0
100
AcDbLine
10
82.073767
20
-6.149519
30
0
11
81.729397
21
-6.149519
31
0
39
0
210
0
220
0
230
1
0
LINE
5
B2
100
AcDbEntity
8
1
62
256
6
ByLayer
370
13
48
1
60
0
100
AcDbLine
10
118.605631
20
-6.224519
30
0
11
118.646315
21
-6.224519
31
0
39
0
210
0
220
0
230
1
0
LINE
5
B3
100
AcDbEntity
8
1
62
256
6
ByLayer
370
13
48
1
60
0
100
AcDbLine
10
81.252541
20
-6.149519
30
0
11
81.087027
21
-6.149519
31
0
39
0
210
0
220
0
230
1
0
LINE
5
B4
100
AcDbEntity
8
1
62
256
6
ByLayer
370
13
48
1
60
0
100
AcDbLine
10
118.270603
20
-6.149519
30
0
11
117.926233
21
-6.149519
31
0
39
0
210
0
220
0
230
1
0
LINE
5
B5
100
AcDbEntity
8
1
62
256
6
ByLayer
370
13
48
1
60
0
100
AcDbLine
10
0
20
-7.599342
30
0
11
0
21
7.599342
31
0
39
0
210
0
220
0
230
1
0
LINE
5
B6
100
AcDbEntity
8
1
62
256
6
ByLayer
370
13
48
1
60
0
100
AcDbLine
10
81.711179
20
-6.224519
30
0
11
81.394369
21
-6.224519
31
0
39
0
210
0
220
0
230
1
0
LINE
5
B7
100
AcDbEntity
8
1
62
256
6
ByLayer
370
13
48
1
60
0
100
AcDbLine
10
50
20
7.599342
30
0
11
50
21
-7.599342
31
0
39
0
210
0
220
0
230
1
0
LINE
5
B8
100
AcDbEntity
8
1
62
256
6
ByLayer
370
13
48
1
60
0
100
AcDbLine
10
117.066347
20
-6.224519
30
0
11
116.367558
21
-6.224519
31
0
39
0
210
0
220
0
230
1
0
LINE
5
B9
100
AcDbEntity
8
1
62
256
6
ByLayer
370
13
48
1
60
0
100
AcDbLine
10
80
20
-4.9
30
0
11
73.397916
21
-4.9
31
0
39
0
210
0
220
0
230
1
0
LINE
5
BA
100
AcDbEntity
8
1
62
256
6
ByLayer
370
13
48
1
60
0
100
AcDbLine
10
113.976796
20
-6.149519
30
0
11
112.9353
21
-6.149519
31
0
39
0
210
0
220
0
230
1
0
LINE
5
BB
100
AcDbEntity
8
1
62
256
6
ByLayer
370
13
48
1
60
0
100
AcDbLine
10
83.632442
20
-6.224519
30
0
11
82.933653
21
-6.224519
31
0
39
0
210
0
220
0
230
1
0
LINE
5
BC
100
AcDbEntity
8
1
62
256
6
ByLayer
370
13
48
1
60
0
100
AcDbLine
10
117.066347
20
-6.224519
30
0
11
117.163752
21
-6.224519
31
0
39
0
210
0
220
0
230
1
0
LINE
5
BD
100
AcDbEntity
8
1
62
256
6
ByLayer
370
13
48
1
60
0
100
AcDbLine
10
84.614943
20
-6.224519
30
0
11
83.753244
21
-6.224519
31
0
39
0
210
0
220
0
230
1
0
LINE
5
BE
100
AcDbEntity
8
1
62
256
6
ByLayer
370
13
48
1
60
0
100
AcDbLine
10
103.782927
20
-5.505481
30
0
11
101.681275
21
-5.505481
31
0
39
0
210
0
220
0
230
1
0
LINE
5
BF
100
AcDbEntity
8
1
62
256
6
ByLayer
370
13
48
1
60
0
100
AcDbLine
10
98.318725
20
-5.505481
30
0
11
96.217073
21
-5.505481
31
0
39
0
210
0
220
0
230
1
0
LINE
5
C0
100
AcDbEntity
8
1
62
256
6
ByLayer
370
13
48
1
60
0
100
AcDbLine
10
83.469966
20
-6.149519
30
0
11
82.914062
21
-6.149519
31
0
39
0
210
0
220
0
230
1
0
LINE
5
C1
100
AcDbEntity
8
1
62
256
6
ByLayer
370
13
48
1
60
0
100
AcDbLine
10
87.319035
20
-6.224519
30
0
11
86.005327
21
-6.224519
31
0
39
0
210
0
220
0
230
1
0
LINE
5
C2
100
AcDbEntity
8
1
62
256
6
ByLayer
370
13
48
1
60
0
100
AcDbLine
10
119.672581
20
-5.505481
30
0
11
119.649946
21
-5.505481
31
0
39
0
210
0
220
0
230
1
0
LINE
5
C3
100
AcDbEntity
8
1
62
256
6
ByLayer
370
13
48
1
60
0
100
AcDbLine
10
101.891967
20
-6.149519
30
0
11
98.108033
21
-6.149519
31
0
39
0
210
0
220
0
230
1
0
LINE
5
C4
100
AcDbEntity
8
1
62
256
6
ByLayer
370
13
48
1
60
0
100
AcDbLine
10
115.232979
20
-6.149519
30
0
11
114.391962
21
-6.149519
31
0
39
0
210
0
220
0
230
1
0
LINE
5
C5
100
AcDbEntity
8
1
62
256
6
ByLayer
370
13
48
1
60
0
100
AcDbLine
10
117.721831
20
-6.224519
30
0
11
117.163745
21
-6.224519
31
0
39
0
210
0
220
0
230
1
0
LINE
5
C6
100
AcDbEntity
8
1
62
256
6
ByLayer
370
13
48
1
60
0
100
AcDbLine
10
80.836534
20
-5.505481
30
0
11
80.767376
21
-5.505481
31
0
39
0
210
0
220
0
230
1
0
LINE
5
C7
100
AcDbEntity
8
1
62
256
6
ByLayer
370
13
48
1
60
0
100
AcDbLine
10
112.451817
20
-6.224519
30
0
11
110.775102
21
-6.224519
31
0
39
0
210
0
220
0
230
1
0
LINE
5
C8
100
AcDbEntity
8
1
62
256
6
ByLayer
370
13
48
1
60
0
100
AcDbLine
10
89.224898
20
-6.224519
30
0
11
87.548183
21
-6.224519
31
0
39
0
210
0
220
0
230
1
0
LINE
5
C9
100
AcDbEntity
8
1
62
256
6
ByLayer
370
13
48
1
60
0
100
AcDbLine
10
0
20
-17.5
30
0
11
0
21
-7.599342
31
0
39
0
210
0
220
0
230
1
0
LINE
5
CA
100
AcDbEntity
8
1
62
256
6
ByLayer
370
13
48
1
60
0
100
AcDbLine
10
0
20
7.599342
30
0
11
50
21
7.599342
31
0
39
0
210
0
220
0
230
1
0
LINE
5
CB
100
AcDbEntity
8
1
62
256
6
ByLayer
370
13
48
1
60
0
100
AcDbLine
10
83.632425
20
-6.224519
30
0
11
83.753244
21
-6.224519
31
0
39
0
210
0
220
0
230
1
0
LINE
5
CC
100
AcDbEntity
8
1
62
256
6
ByLayer
370
13
48
1
60
0
100
AcDbLine
10
110.475908
20
-6.224519
30
0
11
108.17972
21
-6.224519
31
0
39
0
210
0
220
0
230
1
0
LINE
5
CD
100
AcDbEntity
8
1
62
256
6
ByLayer
370
13
48
1
60
0
100
AcDbLine
10
91.82028
20
-6.224519
30
0
11
89.524092
21
-6.224519
31
0
39
0
210
0
220
0
230
1
0
LINE
5
CE
100
AcDbEntity
8
1
62
256
6
ByLayer
370
13
48
1
60
0
100
AcDbLine
10
115.759193
20
-5.505481
30
0
11
115.533345
21
-5.505481
31
0
39
0
210
0
220
0
230
1
0
LINE
5
CF
100
AcDbEntity
8
1
62
256
6
ByLayer
370
13
48
1
60
0
100
AcDbLine
10
107.742192
20
-6.224519
30
0
11
103.635201
21
-6.224519
31
0
39
0
210
0
220
0
230
1
0
LINE
5
D0
100
AcDbEntity
8
1
62
256
6
ByLayer
370
13
48
1
60
0
100
AcDbLine
10
96.364799
20
-6.224519
30
0
11
92.257808
21
-6.224519
31
0
39
0
210
0
220
0
230
1
0
LINE
5
D1
100
AcDbEntity
8
1
62
256
6
ByLayer
370
13
48
1
60
0
100
AcDbLine
10
118.853982
20
-6.224519
30
0
11
118.878081
21
-6.224519
31
0
39
0
210
0
220
0
230
1
0
LINE
5
D2
100
AcDbEntity
8
1
62
256
6
ByLayer
370
13
48
1
60
0
100
AcDbLine
10
112.416038
20
-6.149519
30
0
11
111.091014
21
-6.149519
31
0
39
0
210
0
220
0
230
1
0
LINE
5
D3
100
AcDbEntity
8
1
62
256
6
ByLayer
370
13
48
1
60
0
100
AcDbLine
10
88.908986
20
-6.149519
30
0
11
87.583962
21
-6.149519
31
0
39
0
210
0
220
0
230
1
0
LINE
5
D4
100
AcDbEntity
8
1
62
256
6
ByLayer
370
13
48
1
60
0
100
AcDbLine
10
87.319037
20
-6.224519
30
0
11
87.548183
21
-6.224519
31
0
39
0
210
0
220
0
230
1
0
LINE
5
D5
100
AcDbEntity
8
1
62
256
6
ByLayer
370
13
48
1
60
0
100
AcDbLine
10
117.620126
20
-5.505481
30
0
11
117.46904
21
-5.505481
31
0
39
0
210
0
220
0
230
1
0
LINE
5
D6
100
AcDbEntity
8
1
62
256
6
ByLayer
370
13
48
1
60
0
100
AcDbLine
10
118.912973
20
-6.149519
30
0
11
118.747459
21
-6.149519
31
0
39
0
210
0
220
0
230
1
0
LINE
5
D7
100
AcDbEntity
8
1
62
256
6
ByLayer
370
13
48
1
60
0
100
AcDbLine
10
113.994673
20
-6.224519
30
0
11
114.177578
21
-6.224519
31
0
39
0
210
0
220
0
230
1
0
LINE
5
D8
100
AcDbEntity
8
1
62
256
6
ByLayer
370
13
48
1
60
0
100
AcDbLine
10
81.824222
20
-5.505481
30
0
11
81.703083
21
-5.505481
31
0
39
0
210
0
220
0
230
1
0
LINE
5
D9
100
AcDbEntity
8
1
62
256
6
ByLayer
370
13
48
1
60
0
100
AcDbLine
10
104.9
20
-4.9
30
0
11
100
21
0
31
0
39
0
210
0
220
0
230
1
0
LINE
5
DA
100
AcDbEntity
8
1
62
256
6
ByLayer
370
13
48
1
60
0
100
AcDbLine
10
85.608038
20
-6.149519
30
0
11
84.767021
21
-6.149519
31
0
39
0
210
0
220
0
230
1
0
LINE
5
DB
100
AcDbEntity
8
1
62
256
6
ByLayer
370
13
48
1
60
0
100
AcDbLine
10
80
20
19.675
30
0
11
80
21
-4.9
31
0
39
0
210
0
220
0
230
1
0
LINE
5
DC
100
AcDbEntity
8
1
62
256
6
ByLayer
370
13
48
1
60
0
100
AcDbLine
10
118.654966
20
-6.149519
30
0
11
118.402703
21
-6.149519
31
0
39
0
210
0
220
0
230
1
0
LINE
5
DD
100
AcDbEntity
8
1
62
256
6
ByLayer
370
13
48
1
60
0
100
AcDbLine
10
120
20
-5.224519
30
0
11
80
21
-5.224519
31
0
39
0
210
0
220
0
230
1
0
LINE
5
DE
100
AcDbEntity
8
1
62
256
6
ByLayer
370
13
48
1
60
0
100
AcDbLine
10
107.633633
20
-6.149519
30
0
11
104.571592
21
-6.149519
31
0
39
0
210
0
220
0
230
1
0
LINE
5
DF
100
AcDbEntity
8
1
62
256
6
ByLayer
370
13
48
1
60
0
100
AcDbLine
10
95.428408
20
-6.149519
30
0
11
92.366367
21
-6.149519
31
0
39
0
210
0
220
0
230
1
0
LINE
5
E0
100
AcDbEntity
8
1
62
256
6
ByLayer
370
13
48
1
60
0
100
AcDbLine
10
113.994673
20
-6.224519
30
0
11
112.680965
21
-6.224519
31
0
39
0
210
0
220
0
230
1
0
LINE
5
E1
100
AcDbEntity
8
1
62
256
6
ByLayer
370
13
48
1
60
0
100
AcDbLine
10
118.230919
20
-6.224519
30
0
11
118.289018
21
-6.224519
31
0
39
0
210
0
220
0
230
1
0
LINE
5
E2
100
AcDbEntity
8
1
62
256
6
ByLayer
370
13
48
1
60
0
100
AcDbLine
10
84.614923
20
-6.224519
30
0
11
84.7634
21
-6.224519
31
0
39
0
210
0
220
0
230
1
0
LINE
5
E3
100
AcDbEntity
8
1
62
256
6
ByLayer
370
13
48
1
60
0
100
AcDbLine
10
119.51159
20
-5.505481
30
0
11
119.466146
21
-5.505481
31
0
39
0
210
0
220
0
230
1
0
LINE
5
E4
100
AcDbEntity
8
1
62
256
6
ByLayer
370
13
48
1
60
0
100
AcDbLine
10
118.980931
20
-6.224519
30
0
11
118.988914
21
-6.224519
31
0
39
0
210
0
220
0
230
1
0
LINE
5
E5
100
AcDbEntity
8
1
62
256
6
ByLayer
370
13
48
1
60
0
100
AcDbLine
10
91.819961
20
-6.224519
30
0
11
92.257808
21
-6.224519
31
0
39
0
210
0
220
0
230
1
0
LINE
5
E6
100
AcDbEntity
8
1
62
256
6
ByLayer
370
13
48
1
60
0
100
AcDbLine
10
118.853982
20
-6.224519
30
0
11
118.646126
21
-6.224519
31
0
39
0
210
0
220
0
230
1
0
LINE
5
E7
100
AcDbEntity
8
1
62
256
6
ByLayer
370
13
48
1
60
0
100
AcDbLine
10
81.353874
20
-6.224519
30
0
11
81.146018
21
-6.224519
31
0
39
0
210
0
220
0
230
1
0
LINE
5
E8
100
AcDbEntity
8
1
62
256
6
ByLayer
370
13
48
1
60
0
100
AcDbLine
10
116.246756
20
-6.224519
30
0
11
116.367575
21
-6.224519
31
0
39
0
210
0
220
0
230
1
0
LINE
5
E9
100
AcDbEntity
8
1
62
256
6
ByLayer
370
13
48
1
60
0
100
AcDbLine
10
0
20
-17.5
30
0
11
50
21
-17.5
31
0
39
0
210
0
220
0
230
1
0
LINE
5
EA
100
AcDbEntity
8
1
62
256
6
ByLayer
370
13
48
1
60
0
100
AcDbLine
10
50
20
-7.599342
30
0
11
0
21
-7.599342
31
0
39
0
210
0
220
0
230
1
0
LINE
5
EB
100
AcDbEntity
8
1
62
256
6
ByLayer
370
13
48
1
60
0
100
AcDbLine
10
82.201412
20
-6.224519
30
0
11
81.769081
21
-6.224519
31
0
39
0
210
0
220
0
230
1
0
LINE
5
EC
100
AcDbEntity
8
1
62
256
6
ByLayer
370
13
48
1
60
0
100
AcDbLine
10
121.5
20
-4.9
30
0
11
104.9
21
-4.9
31
0
39
0
210
0
220
0
230
1
0
LINE
5
ED
100
AcDbEntity
8
1
62
256
6
ByLayer
370
13
48
1
60
0
100
AcDbLine
10
100
20
0
30
0
11
115.633294
21
15.633294
31
0
39
0
210
0
220
0
230
1
0
LINE
5
EE
100
AcDbEntity
8
1
62
256
6
ByLayer
370
13
48
1
60
0
100
AcDbLine
10
117.721831
20
-6.224519
30
0
11
117.798631
21
-6.224519
31
0
39
0
210
0
220
0
230
1
0
LINE
5
EF
100
AcDbEntity
8
1
62
256
6
ByLayer
370
13
48
1
60
0
100
AcDbLine
10
116.255352
20
-6.149519
30
0
11
115.570334
21
-6.149519
31
0
39
0
210
0
220
0
230
1
0
LINE
5
F0
100
AcDbEntity
8
1
62
256
6
ByLayer
370
13
48
1
60
0
100
AcDbLine
10
110.414662
20
-6.149519
30
0
11
108.614227
21
-6.149519
31
0
39
0
210
0
220
0
230
1
0
LINE
5
F1
100
AcDbEntity
8
1
62
256
6
ByLayer
370
13
48
1
60
0
100
AcDbLine
10
91.385773
20
-6.149519
30
0
11
89.585338
21
-6.149519
31
0
39
0
210
0
220
0
230
1
0
LINE
5
F2
100
AcDbEntity
8
1
62
256
6
ByLayer
370
13
48
1
60
0
100
AcDbLine
10
82.201369
20
-6.224519
30
0
11
82.278169
21
-6.224519
31
0
39
0
210
0
220
0
230
1
0
LINE
5
F3
100
AcDbEntity
8
1
62
256
6
ByLayer
370
13
48
1
60
0
100
AcDbLine
10
114.510129
20
-5.505481
30
0
11
114.23353
21
-5.505481
31
0
39
0
210
0
220
0
230
1
0
LINE
5
F4
100
AcDbEntity
8
1
62
256
6
ByLayer
370
13
48
1
60
0
100
AcDbLine
10
85.76647
20
-5.505481
30
0
11
85.489871
21
-5.505481
31
0
39
0
210
0
220
0
230
1
0
LINE
5
F5
100
AcDbEntity
8
1
62
256
6
ByLayer
370
13
48
1
60
0
100
AcDbLine
10
60
20
19.675
30
0
11
60
21
-19.675
31
0
39
0
210
0
220
0
230
1
0
LINE
5
F6
100
AcDbEntity
8
1
62
256
6
ByLayer
370
13
48
1
60
0
100
AcDbLine
10
85.822402
20
-6.224519
30
0
11
84.7634
21
-6.224519
31
0
39
0
210
0
220
0
230
1
0
LINE
5
F7
100
AcDbEntity
8
1
62
256
6
ByLayer
370
13
48
1
60
0
100
AcDbLine
10
59.675
20
20
30
0
11
59.675
21
-20
31
0
39
0
210
0
220
0
230
1
0
LINE
5
F8
100
AcDbEntity
8
1
62
256
6
ByLayer
370
13
48
1
60
0
100
AcDbLine
10
82.836248
20
-6.224519
30
0
11
82.933653
21
-6.224519
31
0
39
0
210
0
220
0
230
1
0
LINE
5
F9
100
AcDbEntity
8
1
62
256
6
ByLayer
370
13
48
1
60
0
100
AcDbLine
10
80.533854
20
-5.505481
30
0
11
80.48841
21
-5.505481
31
0
39
0
210
0
220
0
230
1
0
LINE
5
FA
100
AcDbEntity
8
1
62
256
6
ByLayer
370
13
48
1
60
0
100
AcDbLine
10
81.353685
20
-6.224519
30
0
11
81.394369
21
-6.224519
31
0
39
0
210
0
220
0
230
1
0
LINE
5
FB
100
AcDbEntity
8
1
62
256
6
ByLayer
370
13
48
1
60
0
100
AcDbLine
10
118.296917
20
-5.505481
30
0
11
118.175778
21
-5.505481
31
0
39
0
210
0
220
0
230
1
0
LINE
5
FC
100
AcDbEntity
8
1
62
256
6
ByLayer
370
13
48
1
60
0
100
AcDbLine
10
119.049761
20
-6.149519
30
0
11
118.967828
21
-6.149519
31
0
39
0
210
0
220
0
230
1
0
LINE
5
FD
100
AcDbEntity
8
1
62
256
6
ByLayer
370
13
48
1
60
0
100
AcDbLine
10
85.822422
20
-6.224519
30
0
11
86.005327
21
-6.224519
31
0
39
0
210
0
220
0
230
1
0
LINE
5
FE
100
AcDbEntity
8
1
62
256
6
ByLayer
370
13
48
1
60
0
100
AcDbLine
10
118.83044
20
-5.505481
30
0
11
118.736306
21
-5.505481
31
0
39
0
210
0
220
0
230
1
0
LINE
5
FF
100
AcDbEntity
8
1
62
256
6
ByLayer
370
13
48
1
60
0
100
AcDbLine
10
84.429666
20
-6.149519
30
0
11
83.744648
21
-6.149519
31
0
39
0
210
0
220
0
230
1
0
LINE
5
100
100
AcDbEntity
8
1
62
256
6
ByLayer
370
13
48
1
60
0
100
AcDbLine
10
81.597297
20
-6.149519
30
0
11
81.345034
21
-6.149519
31
0
39
0
210
0
220
0
230
1
0
LINE
5
101
100
AcDbEntity
8
SK1
62
256
6
ByLayer
370
13
48
1
60
0
100
AcDbLine
10
-197.5
20
-17.5
30
0
11
0
21
-17.5
31
0
39
0
210
0
220
0
230
1
0
LINE
5
102
100
AcDbEntity
8
SK1
62
256
6
ByLayer
370
13
48
1
60
0
100
AcDbLine
10
-197.5
20
-7.599342
30
0
11
-197.5
21
-17.5
31
0
39
0
210
0
220
0
230
1
0
LINE
5
103
100
AcDbEntity
8
SK1
62
256
6
ByLayer
370
13
48
1
60
0
100
AcDbLine
10
-197.5
20
20
30
0
11
-197.5
21
7.599342
31
0
39
0
210
0
220
0
230
1
0
LINE
5
104
100
AcDbEntity
8
SK1
62
256
6
ByLayer
370
13
48
1
60
0
100
AcDbLine
10
0
20
-7.599342
30
0
11
0
21
7.599342
31
0
39
0
210
0
220
0
230
1
0
LINE
5
105
100
AcDbEntity
8
SK1
62
256
6
ByLayer
370
13
48
1
60
0
100
AcDbLine
10
0
20
20
30
0
11
0
21
7.599342
31
0
39
0
210
0
220
0
230
1
0
LINE
5
106
100
AcDbEntity
8
SK1
62
256
6
ByLayer
370
13
48
1
60
0
100
AcDbLine
10
0
20
-7.599342
30
0
11
-197.5
21
-7.599342
31
0
39
0
210
0
220
0
230
1
0
LINE
5
107
100
AcDbEntity
8
SK1
62
256
6
ByLayer
370
13
48
1
60
0
100
AcDbLine
10
0
20
-17.5
30
0
11
0
21
-7.599342
31
0
39
0
210
0
220
0
230
1
0
LINE
5
108
100
AcDbEntity
8
SK1
62
256
6
ByLayer
370
13
48
1
60
0
100
AcDbLine
10
-200
20
17.5
30
0
11
-200
21
-17.5
31
0
39
0
210
0
220
0
230
1
0
LINE
5
109
100
AcDbEntity
8
SK1
62
256
6
ByLayer
370
13
48
1
60
0
100
AcDbLine
10
-197.5
20
7.599342
30
0
11
0
21
7.599342
31
0
39
0
210
0
220
0
230
1
0
MTEXT
5
196
100
AcDbEntity
8
SK6
62
256
6
ByLayer
370
18
48
1
60
0
100
AcDbMText
10
-53.25
20
-95.25
30
0
210
0
220
0
230
1
1
\W0.7667;SL-40-40NF
40
4
41
0
44
1.084337
50
0
71
7
72
5
7
iso_b_vert
0
DIMENSION
5
1A9
100
AcDbEntity
8
SK2
62
256
6
ByLayer
370
13
48
1
60
0
100
AcDbDimension
2
DimnDraft3D1
10
-210.103125
20
-20
30
0
11
-210.103125
21
0
31
0
70
32
71
5
72
1
41
1
210
0
220
0
230
1
3
Standard
100
AcDbAlignedDimension
13
-201.5875
23
20
33
0
14
-201.5875
24
-20
34
0
50
90
100
AcDbRotatedDimension
1001
ACAD
1000
DSTYLE
1002
{
1070
    74
1070
     0
1070
   279
1070
     0
1070
   172
1070
     1
1070
   173
1070
     1
1070
   340
1005
197
1070
   271
1070
     2
1070
   272
1070
     2
1070
    77
1070
     1
1070
    73
1070
     0
1070
   171
1070
     3
1070
   274
1070
     4
1070
   177
1070
   150
1070
   176
1070
     9
1070
   178
1070
    43
1070
    78
1070
     8
1070
    48
1040
-0.005
1070
    41
1041
3.175
1070
   147
1041
2.25
1070
    42
1041
1.5875
1070
    44
1041
3.175
1070
   140
1041
4.5
1070
   343
1005
1AA
1070
   344
1005
1AA
1002
}
0
DIMENSION
5
1BE
100
AcDbEntity
8
SK2
62
256
6
ByLayer
370
13
48
1
60
0
100
AcDbDimension
2
DimnDraft3D2
10
100
20
-44.5
30
0
11
-50
21
-44.5
31
0
70
32
71
5
72
1
41
1
210
0
220
0
230
1
3
Standard
100
AcDbAlignedDimension
13
-200
23
-21.5875
33
0
14
100
24
-7.4875
34
0
50
0
100
AcDbRotatedDimension
1001
ACAD
1000
DSTYLE
1002
{
1070
   279
1070
     0
1070
   172
1070
     1
1070
   173
1070
     1
1070
   340
1005
197
1070
   271
1070
     2
1070
   272
1070
     2
1070
    77
1070
     1
1070
    73
1070
     0
1070
   171
1070
     3
1070
   274
1070
     4
1070
   177
1070
   150
1070
   176
1070
     9
1070
   178
1070
    43
1070
    78
1070
     8
1070
    48
1040
-0.005
1070
    41
1041
3.175
1070
   147
1041
2.25
1070
    42
1041
1.5875
1070
    44
1041
3.175
1070
   140
1041
4.5
1070
   343
1005
1AA
1070
   344
1005
1AA
1002
}
0
DIMENSION
5
1CE
100
AcDbEntity
8
2
62
256
6
ByLayer
370
13
48
1
60
0
100
AcDbDimension
2
DimnDraft3D3
10
120
20
-25.796875
30
0
11
130
21
-25.796875
31
0
70
32
71
5
72
1
41
1
210
0
220
0
230
1
3
Standard
100
AcDbAlignedDimension
13
80
23
-7.4875
33
0
14
120
24
-7.4875
34
0
50
0
100
AcDbRotatedDimension
1001
ACAD
1000
DSTYLE
1002
{
1070
   279
1070
     0
1070
   172
1070
     1
1070
   173
1070
     1
1070
   340
1005
197
1070
   271
1070
     1
1070
   272
1070
     2
1070
    77
1070
     1
1070
    73
1070
     0
1070
   171
1070
     3
1070
   274
1070
     4
1070
   177
1070
   150
1070
   176
1070
     9
1070
   178
1070
    43
1070
    78
1070
     8
1070
    48
1040
-0.005
1070
    41
1041
3.175
1070
   147
1041
2.25
1070
    42
1041
1.5875
1070
    44
1041
3.175
1070
   140
1041
4.5
1070
   343
1005
1AA
1070
   344
1005
1AA
1002
}
0
DIMENSION
5
1DC
100
AcDbEntity
8
2
62
256
6
ByLayer
370
13
48
1
60
0
100
AcDbDimension
2
DimnDraft3D4
10
0
20
30.5
30
0
11
50
21
30.5
31
0
70
32
71
5
72
1
41
1
210
0
220
0
230
1
3
Standard
100
AcDbAlignedDimension
13
100
23
-4.3125
33
0
14
0
24
1.5875
34
0
50
0
100
AcDbRotatedDimension
1001
ACAD
1000
DSTYLE
1002
{
1070
   279
1070
     0
1070
   172
1070
     1
1070
   173
1070
     1
1070
   340
1005
197
1070
   271
1070
     1
1070
   272
1070
     2
1070
    77
1070
     1
1070
    73
1070
     0
1070
   171
1070
     3
1070
   274
1070
     4
1070
   177
1070
   150
1070
   176
1070
     9
1070
   178
1070
    43
1070
    78
1070
     8
1070
    48
1040
-0.005
1070
    41
1041
3.175
1070
   147
1041
2.25
1070
    42
1041
1.5875
1070
    44
1041
3.175
1070
   140
1041
4.5
1070
   343
1005
1AA
1070
   344
1005
1AA
1002
}
0
ENDSEC
0
SECTION
2
OBJECTS
0
DICTIONARY
5
249
330
0
100
AcDbDictionary
280
0
281
1
3
ACAD_GROUP
350
24a
3
ACAD_GROUP
350
24b
3
ACAD_MLINESTYLE
350
24c
0
DICTIONARY
5
24a
330
0
100
AcDbDictionary
280
0
281
1
0
DICTIONARY
5
24b
330
0
100
AcDbDictionary
280
0
281
1
3
14896573331244307_1_ASS2D_2D
350
1E5
0
DICTIONARY
5
24c
330
0
100
AcDbDictionary
280
0
281
1
3
Standard
350
18
0
GROUP
5
1E5
330
24b
100
AcDbGroup
300

70
0
71
1
340
6C
340
6E
340
70
340
72
340
73
340
75
340
77
340
78
340
79
340
7A
340
7B
340
7D
340
7E
340
7F
340
80
340
81
340
82
340
83
340
84
340
85
340
86
340
87
340
88
340
89
340
8A
340
8B
340
8C
340
8D
340
8E
340
8F
340
90
340
91
340
92
340
93
340
94
340
95
340
96
340
97
340
98
340
99
340
9A
340
9B
340
9C
340
9D
340
9E
340
9F
340
A0
340
A1
340
A2
340
A3
340
A4
340
A5
340
A6
340
A7
340
A8
340
A9
340
AA
340
AB
340
AC
340
AD
340
AE
340
AF
340
B0
340
B1
340
B2
340
B3
340
B4
340
B5
340
B6
340
B7
340
B8
340
B9
340
BA
340
BB
340
BC
340
BD
340
BE
340
BF
340
C0
340
C1
340
C2
340
C3
340
C4
340
C5
340
C6
340
C7
340
C8
340
C9
340
CA
340
CB
340
CC
340
CD
340
CE
340
CF
340
D0
340
D1
340
D2
340
D3
340
D4
340
D5
340
D6
340
D7
340
D8
340
D9
340
DA
340
DB
340
DC
340
DD
340
DE
340
DF
340
E0
340
E1
340
E2
340
E3
340
E4
340
E5
340
E6
340
E7
340
E8
340
E9
340
EA
340
EB
340
EC
340
ED
340
EE
340
EF
340
F0
340
F1
340
F2
340
F3
340
F4
340
F5
340
F6
340
F7
340
F8
340
F9
340
FA
340
FB
340
FC
340
FD
340
FE
340
FF
340
100
340
101
340
102
340
103
340
104
340
105
340
106
340
107
340
108
340
109
340
10A
340
10B
340
10C
340
10D
340
10E
340
10F
340
110
340
111
340
112
340
113
340
114
340
115
340
116
340
117
340
118
340
119
340
11A
340
11B
340
11C
340
11D
340
11E
340
11F
340
120
340
121
340
122
340
123
340
124
340
125
340
126
340
127
340
128
340
129
340
12A
340
12B
340
12C
340
12D
340
12E
340
12F
340
130
340
131
340
132
340
133
340
134
340
135
340
136
340
137
340
138
340
139
340
13A
340
13B
340
13C
340
13D
340
13E
340
13F
340
140
340
141
340
142
340
143
340
144
340
145
340
146
340
147
340
148
340
149
340
14A
340
14B
340
14C
340
14D
340
14E
340
14F
340
150
340
151
340
152
340
153
340
154
340
155
340
156
340
157
340
158
340
159
340
15A
340
15B
340
15C
340
15D
340
15E
340
15F
340
160
340
161
340
162
340
163
340
164
340
165
340
166
340
167
340
168
340
169
340
16A
340
16B
340
16C
340
16D
340
16E
340
16F
340
170
340
171
340
172
340
173
340
174
340
175
340
176
340
177
340
178
340
179
340
17A
340
17B
340
17C
340
17D
340
17E
340
17F
340
180
340
181
340
182
340
183
340
184
340
185
340
186
340
187
340
188
340
189
340
18A
340
18B
340
18C
340
18D
340
18E
340
18F
340
190
340
191
340
192
340
193
340
194
340
195
340
196
340
1A9
340
1BE
340
1CE
340
1DC
0
MLINESTYLE
5
18
330
24c
100
AcDbMlineStyle
2
Standard
70
0
3

62
256
51
90
52
90
71
2
49
-0.5
62
256
6
ByLayer
49
0.5
62
256
6
ByLayer
0
RASTERVARIABLES
5
236
330

100
AcDbRasterVariables
90
0
70
1
71
1
72
1
0
ENDSEC
0
EOF
