0
SECTION
2
HEADER
9
$ACADVER
1
AC1015
9
$DWGCODEPAGE
3
ANSI_1252
9
$HANDSEED
5
1fb
9
$ANGBASE
50
0
9
$ANGDIR
70
0
9
$ATTMODE
70
1
9
$AUNITS
70
0
9
$AUPREC
70
0
9
$CECOLOR
62
256
9
$CELTSCALE
40
1
9
$CELTYPE
6
ByLayer
9
$CELWEIGHT
370
18
9
$CLAYER
8
0
9
$CMLJUST
70
0
9
$CMLSCALE
40
1
9
$CMLSTYLE
2
Standard
9
$DIMSTYLE
2
Standard
9
$TEXTSIZE
40
0.2
9
$TEXTSTYLE
7
Standard
9
$LUNITS
70
2
9
$LUPREC
70
4
9
$EXTNAMES
290
1
9
$INSUNITS
70
4
9
$LTSCALE
40
1
9
$LWDISPLAY
290
1
9
$PDMODE
70
0
9
$PDSIZE
40
0
9
$PLINEGEN
70
0
0
ENDSEC
0
SECTION
2
CLASSES
0
CLASS
1
RASTERVARIABLES
2
AcDbRasterVariables
3
ISM
90
0
280
0
281
0
0
ENDSEC
0
SECTION
2
TABLES
0
TABLE
2
VPORT
5
1f1
100
AcDbSymbolTable
0
VPORT
5
1
100
AcDbSymbolTableRecord
100
AcDbViewportTableRecord
2
*Active
70
0
10
0
20
0
11
1
21
1
12
-1
22
1
13
0
23
0
14
0.5
24
0.5
15
10
25
10
16
0
26
0
36
1
17
0
27
0
37
0
0
ENDTAB
0
TABLE
2
LTYPE
5
1f2
100
AcDbSymbolTable
0
LTYPE
5
14
100
AcDbSymbolTableRecord
100
AcDbLinetypeTableRecord
70
0
2
ByBlock
3

72
65
73
0
40
0
0
LTYPE
5
15
100
AcDbSymbolTableRecord
100
AcDbLinetypeTableRecord
70
0
2
ByLayer
3

72
65
73
0
40
0
0
LTYPE
5
16
100
AcDbSymbolTableRecord
100
AcDbLinetypeTableRecord
70
0
2
CONTINUOUS
3
Solid line
72
65
73
0
40
0
0
LTYPE
5
6A
100
AcDbSymbolTableRecord
100
AcDbLinetypeTableRecord
70
0
2
CENTER
3
____ _ ____ _ ____ _ ____
72
65
73
4
40
47.5
49
22
74
0
49
-8.5
74
0
49
8.5
74
0
49
-8.5
74
0
0
LTYPE
5
6B
100
AcDbSymbolTableRecord
100
AcDbLinetypeTableRecord
70
0
2
DASHED
3
__ __ __ __ __ __ __ __ __
72
65
73
2
40
25.72
49
12.86
74
0
49
-12.86
74
0
0
ENDTAB
0
TABLE
2
LAYER
5
1f3
100
AcDbSymbolTable
0
LAYER
5
10
100
AcDbSymbolTableRecord
100
AcDbLayerTableRecord
2
0
70
0
62
7
6
CONTINUOUS
290
1
370
-3
390
0
0
LAYER
5
6D
100
AcDbSymbolTableRecord
100
AcDbLayerTableRecord
2
80
70
0
62
-6
6
CONTINUOUS
290
1
370
-3
390
0
0
LAYER
5
6F
100
AcDbSymbolTableRecord
100
AcDbLayerTableRecord
2
81
70
0
62
-3
6
CONTINUOUS
290
1
370
-3
390
0
0
LAYER
5
72
100
AcDbSymbolTableRecord
100
AcDbLayerTableRecord
2
4
70
0
62
-2
6
CENTER
290
1
370
-3
390
0
0
LAYER
5
77
100
AcDbSymbolTableRecord
100
AcDbLayerTableRecord
2
1
70
0
62
4
6
CONTINUOUS
290
1
370
-3
390
0
0
LAYER
5
165
100
AcDbSymbolTableRecord
100
AcDbLayerTableRecord
2
2
70
0
62
7
6
CONTINUOUS
290
1
370
-3
390
0
0
LAYER
5
1dd
100
AcDbSymbolTableRecord
100
AcDbLayerTableRecord
2
SK4
70
0
62
2
6
CENTER
290
1
370
-3
390
0
0
LAYER
5
1de
100
AcDbSymbolTableRecord
100
AcDbLayerTableRecord
2
SK1
70
0
62
4
6
CONTINUOUS
290
1
370
-3
390
0
0
LAYER
5
1df
100
AcDbSymbolTableRecord
100
AcDbLayerTableRecord
2
SK6
70
0
62
5
6
CONTINUOUS
290
1
370
-3
390
0
0
LAYER
5
1e0
100
AcDbSymbolTableRecord
100
AcDbLayerTableRecord
2
SK2
70
0
62
7
6
CONTINUOUS
290
1
370
-3
390
0
0
ENDTAB
0
TABLE
2
STYLE
5
1f4
100
AcDbSymbolTable
0
STYLE
5
11
100
AcDbSymbolTableRecord
100
AcDbTextStyleTableRecord
2
Standard
3
txt
70
0
71
0
40
0
41
1
42
0
50
0
0
STYLE
5
160
100
AcDbSymbolTableRecord
100
AcDbTextStyleTableRecord
2
iso_b_vert
3
simplex.shx
70
0
71
0
40
0
41
1
42
0
50
0
0
STYLE
5
161
100
AcDbSymbolTableRecord
100
AcDbTextStyleTableRecord
2
DWGDirectTextStyle
3
simplex
70
0
71
0
40
0
41
1
42
0
50
0
0
ENDTAB
0
TABLE
2
DIMSTYLE
5
1f5
100
AcDbSymbolTable
100
AcDbDimStyleTable
0
DIMSTYLE
105
27
100
AcDbSymbolTableRecord
100
AcDbDimStyleTableRecord
2
Standard
70
0
3
<>
41
0.18
42
0.0625
44
0.18
140
0.18
147
0.09
73
0
74
0
77
1
271
2
275
0
278
52
280
0
340
11
0
ENDTAB
0
TABLE
2
VIEW
5
1f6
100
AcDbSymbolTable
0
ENDTAB
0
TABLE
2
UCS
5
1f7
100
AcDbSymbolTable
0
ENDTAB
0
TABLE
2
APPID
5
1f8
100
AcDbSymbolTable
0
APPID
5
12
100
AcDbSymbolTableRecord
100
AcDbRegAppTableRecord
2
ACAD
70
0
0
ENDTAB
0
TABLE
2
BLOCK_RECORD
5
1f9
100
AcDbSymbolTable
0
BLOCK_RECORD
5
1F
100
AcDbSymbolTableRecord
100
AcDbBlockTableRecord
2
*Model_Space
340
0
70
0
0
BLOCK_RECORD
5
1B
100
AcDbSymbolTableRecord
100
AcDbBlockTableRecord
2
*Paper_Space
340
0
70
0
0
BLOCK_RECORD
5
23
100
AcDbSymbolTableRecord
100
AcDbBlockTableRecord
2
*Paper_Space0
340
0
70
0
0
BLOCK_RECORD
5
163
100
AcDbSymbolTableRecord
100
AcDbBlockTableRecord
2
DimnDraft3D1
340
0
70
0
0
BLOCK_RECORD
5
16E
100
AcDbSymbolTableRecord
100
AcDbBlockTableRecord
2
DimnDraft3D22
340
0
70
0
0
BLOCK_RECORD
5
17A
100
AcDbSymbolTableRecord
100
AcDbBlockTableRecord
2
DimnDraft3D3
340
0
70
0
0
ENDTAB
0
ENDSEC
0
SECTION
2
BLOCKS
0
BLOCK
5
20
100
AcDbEntity
8
0
100
AcDbBlockBegin
2
*Model_Space
70
0
10
0
20
0
30
0
3
*Model_Space
0
ENDBLK
5
21
100
AcDbEntity
8
0
100
AcDbBlockEnd
0
BLOCK
5
1C
100
AcDbEntity
8
0
100
AcDbBlockBegin
2
*Paper_Space
70
0
10
0
20
0
30
0
3
*Paper_Space
0
ENDBLK
5
1D
100
AcDbEntity
8
0
100
AcDbBlockEnd
0
BLOCK
5
24
100
AcDbEntity
8
0
100
AcDbBlockBegin
2
*Paper_Space0
70
0
10
0
20
0
30
0
3
*Paper_Space0
0
ENDBLK
5
25
100
AcDbEntity
8
0
100
AcDbBlockEnd
0
BLOCK
5
16B
100
AcDbEntity
8
0
100
AcDbBlockBegin
2
DimnDraft3D1
70
0
10
0
20
0
30
0
3
DimnDraft3D1
0
MTEXT
5
164
100
AcDbEntity
8
2
62
256
6
ByLayer
370
13
48
1
60
0
100
AcDbMText
10
137.710658
20
39.317798
30
0
210
0
220
0
230
1
1
\W0.7138;280
40
3.175
41
0
44
1.084337
50
0
71
7
72
5
7
iso_b_vert
0
LINE
5
166
100
AcDbEntity
8
2
62
256
6
ByLayer
370
13
48
1
60
0
100
AcDbLine
10
0
20
1.5875
30
0
11
0
21
41.699048
31
0
39
0
210
0
220
0
230
1
0
LINE
5
167
100
AcDbEntity
8
2
62
256
6
ByLayer
370
13
48
1
60
0
100
AcDbLine
10
280
20
1.5875
30
0
11
280
21
41.699048
31
0
39
0
210
0
220
0
230
1
0
LINE
5
168
100
AcDbEntity
8
2
62
256
6
ByLayer
370
13
48
1
60
0
100
AcDbLine
10
0
20
38.524048
30
0
11
280
21
38.524048
31
0
39
0
210
0
220
0
230
1
0
SOLID
5
169
100
AcDbEntity
8
2
62
256
6
ByLayer
370
13
48
1
60
0
100
AcDbTrace
10
0
20
38.524048
30
0
11
3.174998
21
38.942045
31
0
12
3.175002
22
38.106052
32
0
13
0
23
38.524048
33
0
39
0
210
0
220
0
230
1
0
SOLID
5
16A
100
AcDbEntity
8
2
62
256
6
ByLayer
370
13
48
1
60
0
100
AcDbTrace
10
280
20
38.524048
30
0
11
276.825002
21
38.106052
31
0
12
276.824998
22
38.942045
32
0
13
280
23
38.524048
33
0
39
0
210
0
220
0
230
1
0
ENDBLK
5
16C
100
AcDbEntity
8
0
100
AcDbBlockEnd
0
BLOCK
5
16F
100
AcDbEntity
8
0
100
AcDbBlockBegin
2
DimnDraft3D22
70
0
10
0
20
0
30
0
3
DimnDraft3D22
0
LINE
5
171
100
AcDbEntity
8
SK2
62
256
6
ByLayer
370
25
48
1
60
0
100
AcDbLine
10
-101.5875
20
-12.5
30
0
11
-138.613454
21
-12.5
31
0
39
0
210
0
220
0
230
1
0
LINE
5
173
100
AcDbEntity
8
SK2
62
256
6
ByLayer
370
25
48
1
60
0
100
AcDbLine
10
-101.5875
20
12.5
30
0
11
-138.613454
21
12.5
31
0
39
0
210
0
220
0
230
1
0
LINE
5
174
100
AcDbEntity
8
SK2
62
256
6
ByLayer
370
25
48
1
60
0
100
AcDbLine
10
-135.438454
20
-12.5
30
0
11
-135.438454
21
12.5
31
0
39
0
210
0
220
0
230
1
0
SOLID
5
175
100
AcDbEntity
8
SK2
62
256
6
ByLayer
370
25
48
1
60
0
100
AcDbTrace
10
-135.438454
20
-12.5
30
0
11
-135.85645
21
-9.325002
31
0
12
-135.020457
22
-9.324998
32
0
13
-135.438454
23
-12.5
33
0
39
0
210
0
220
0
230
1
0
SOLID
5
176
100
AcDbEntity
8
SK2
62
256
6
ByLayer
370
25
48
1
60
0
100
AcDbTrace
10
-135.438454
20
12.5
30
0
11
-135.020457
21
9.325002
31
0
12
-135.85645
22
9.324998
32
0
13
-135.438454
23
12.5
33
0
39
0
210
0
220
0
230
1
0
MTEXT
5
177
100
AcDbEntity
8
SK2
62
256
6
ByLayer
370
13
48
1
60
0
100
AcDbMText
10
-137.025954
20
-4.25309
30
0
210
0
220
0
230
1
1
%%c
40
3.175
41
0
44
1.084337
50
90
71
7
72
5
7
iso_b_vert
0
MTEXT
5
178
100
AcDbEntity
8
SK2
62
256
6
ByLayer
370
13
48
1
60
0
100
AcDbMText
10
-137.025954
20
3.659605
30
0
210
0
220
0
230
1
1
\W0.6740;25
40
3.175
41
0
44
1.084337
50
90
71
7
72
5
7
iso_b_vert
0
ENDBLK
5
170
100
AcDbEntity
8
0
100
AcDbBlockEnd
0
BLOCK
5
181
100
AcDbEntity
8
0
100
AcDbBlockBegin
2
DimnDraft3D3
70
0
10
0
20
0
30
0
3
DimnDraft3D3
0
MTEXT
5
17B
100
AcDbEntity
8
SK2
62
256
6
ByLayer
370
13
48
1
60
0
100
AcDbMText
10
-51.892467
20
39.231744
30
0
210
0
220
0
230
1
1
\W0.6217;100
40
3.175
41
0
44
1.084337
50
0
71
7
72
5
7
iso_b_vert
0
LINE
5
17C
100
AcDbEntity
8
SK2
62
256
6
ByLayer
370
13
48
1
60
0
100
AcDbLine
10
-100
20
14.0875
30
0
11
-100
21
41.612994
31
0
39
0
210
0
220
0
230
1
0
LINE
5
17D
100
AcDbEntity
8
SK2
62
256
6
ByLayer
370
13
48
1
60
0
100
AcDbLine
10
0
20
1.5875
30
0
11
0
21
41.612994
31
0
39
0
210
0
220
0
230
1
0
LINE
5
17E
100
AcDbEntity
8
SK2
62
256
6
ByLayer
370
13
48
1
60
0
100
AcDbLine
10
-100
20
38.437994
30
0
11
0
21
38.437994
31
0
39
0
210
0
220
0
230
1
0
SOLID
5
17F
100
AcDbEntity
8
SK2
62
256
6
ByLayer
370
13
48
1
60
0
100
AcDbTrace
10
-100
20
38.437994
30
0
11
-96.825002
21
38.855991
31
0
12
-96.824998
22
38.019997
32
0
13
-100
23
38.437994
33
0
39
0
210
0
220
0
230
1
0
SOLID
5
180
100
AcDbEntity
8
SK2
62
256
6
ByLayer
370
13
48
1
60
0
100
AcDbTrace
10
0
20
38.437994
30
0
11
-3.174998
21
38.019997
31
0
12
-3.175002
22
38.855991
32
0
13
0
23
38.437994
33
0
39
0
210
0
220
0
230
1
0
ENDBLK
5
182
100
AcDbEntity
8
0
100
AcDbBlockEnd
0
ENDSEC
0
SECTION
2
ENTITIES
0
ARC
5
109
100
AcDbEntity
8
1
62
256
6
ByLayer
370
18
48
1
60
0
100
AcDbCircle
39
0
10
277.7
20
12.2
30
0
40
0.3
210
0
220
0
230
1
100
AcDbArc
50
0
51
90
0
ARC
5
10A
100
AcDbEntity
8
1
62
256
6
ByLayer
370
18
48
1
60
0
100
AcDbCircle
39
0
10
277.7
20
-12.2
30
0
40
0.3
210
0
220
0
230
1
100
AcDbArc
50
270
51
0
0
ARC
5
10B
100
AcDbEntity
8
1
62
256
6
ByLayer
370
18
48
1
60
0
100
AcDbCircle
39
0
10
278.2
20
-12.3
30
0
40
0.2
210
0
220
0
230
1
100
AcDbArc
50
180
51
270
0
ARC
5
10C
100
AcDbEntity
8
1
62
256
6
ByLayer
370
18
48
1
60
0
100
AcDbCircle
39
0
10
278.2
20
12.3
30
0
40
0.2
210
0
220
0
230
1
100
AcDbArc
50
90
51
180
0
CIRCLE
5
10D
100
AcDbEntity
8
1
62
256
6
ByLayer
370
18
48
1
60
0
100
AcDbCircle
10
272
20
0
30
0
40
1
39
0
210
0
220
0
230
1
0
POINT
5
6C
100
AcDbEntity
8
80
62
256
6
ByLayer
370
18
48
1
60
0
100
AcDbPoint
10
0
20
0
30
0
39
0
210
0
220
0
230
1
50
360
0
POINT
5
6E
100
AcDbEntity
8
81
62
256
6
ByLayer
370
18
48
1
60
0
100
AcDbPoint
10
280
20
0
30
0
39
0
210
0
220
0
230
1
50
360
0
SPLINE
5
10E
100
AcDbEntity
8
SK1
62
256
6
ByLayer
370
18
48
1
60
0
100
AcDbSpline
70
4
71
3
72
14
73
10
40
0
40
0
40
0
40
0
40
0.170295235256032
40
0.340516173900326
40
0.481558315203381
40
0.622596983935003
40
0.767392889434191
40
0.912227127039542
40
1
40
1
40
1
40
1
41
1
10
-117.499999999546
20
5.61449018166389
30
0
41
1
10
-117.667381010097
20
4.98974995776054
30
0
41
1
10
-117.948560990656
20
3.73162683150332
30
0
41
1
10
-118.21032350999
20
1.92281642696998
30
0
41
1
10
-118.299772920488
20
0.209743852637606
30
0
41
1
10
-118.25054905542
20
-1.4086908461898
30
0
41
1
10
-118.063101284984
20
-3.03124514510669
30
0
41
1
10
-117.793436601119
20
-4.43675191991402
30
0
41
1
10
-117.585142513015
20
-5.29280329720358
30
0
41
1
10
-117.499999999546
20
-5.61449018166387
30
0
0
SPLINE
5
10F
100
AcDbEntity
8
SK1
62
256
6
ByLayer
370
18
48
1
60
0
100
AcDbSpline
70
4
71
3
72
15
73
11
40
0
40
0
40
0
40
0
40
0.145621481026016
40
0.291880142930272
40
0.440685971852609
40
0.590622610255816
40
0.692400393033952
40
0.794186423495041
40
0.897088345156828
40
1
40
1
40
1
40
1
41
1
10
-117.499999999546
20
-6.7190343507969
30
0
41
1
10
-117.642488028243
20
-6.98603467260387
30
0
41
1
10
-117.89010074874
20
-7.52467514044048
30
0
41
1
10
-118.158813349076
20
-8.34960837521623
30
0
41
1
10
-118.292803373848
20
-9.19094321609932
30
0
41
1
10
-118.27857808269
20
-9.95074251943207
30
0
41
1
10
-118.166146512355
20
-10.6183932760845
30
0
41
1
10
-118.004309119965
20
-11.193567600576
30
0
41
1
10
-117.781743160469
20
-11.7658565931689
30
0
41
1
10
-117.599831235399
20
-12.1449122869043
30
0
41
1
10
-117.499999999546
20
-12.3335245324608
30
0
0
SPLINE
5
110
100
AcDbEntity
8
SK1
62
256
6
ByLayer
370
18
48
1
60
0
100
AcDbSpline
70
4
71
3
72
15
73
11
40
0
40
0
40
0
40
0
40
0.145621481026017
40
0.291880142930273
40
0.440685971852611
40
0.590622610255818
40
0.692400393033953
40
0.794186423495042
40
0.897088345156829
40
1
40
1
40
1
40
1
41
1
10
-117.499999999546
20
12.3335245324608
30
0
41
1
10
-117.642488028243
20
12.0665242106538
30
0
41
1
10
-117.89010074874
20
11.5278837428172
30
0
41
1
10
-118.158813349076
20
10.7029505080414
30
0
41
1
10
-118.292803373848
20
9.86161566715834
30
0
41
1
10
-118.27857808269
20
9.10181636382557
30
0
41
1
10
-118.166146512355
20
8.43416560717313
30
0
41
1
10
-118.004309119965
20
7.85899128268161
30
0
41
1
10
-117.781743160469
20
7.28670229008879
30
0
41
1
10
-117.599831235399
20
6.90764659635338
30
0
41
1
10
-117.499999999546
20
6.71903435079689
30
0
0
SPLINE
5
111
100
AcDbEntity
8
1
62
256
6
ByLayer
370
18
48
1
60
0
100
AcDbSpline
70
4
71
3
72
12
73
8
40
0
40
0
40
0
40
0
40
0.0803877123706713
40
0.28134327956995
40
0.494236421170369
40
0.829041466284856
40
1
40
1
40
1
40
1
41
1
10
279.641000000454
20
12.38
30
0
41
1
10
279.641013477335
20
12.3799861944927
30
0
41
1
10
279.641944479082
20
12.3790417650631
30
0
41
1
10
279.64961456716
20
12.3712588527912
30
0
41
1
10
279.671467139434
20
12.3491100828145
30
0
41
1
10
279.701142393663
20
12.3190958093908
30
0
41
1
10
279.724092935949
20
12.2959537688679
30
0
41
1
10
279.732250000459
20
12.2877335939083
30
0
0
SPLINE
5
112
100
AcDbEntity
8
1
62
256
6
ByLayer
370
18
48
1
60
0
100
AcDbSpline
70
4
71
3
72
10
73
6
40
0
40
0
40
0
40
0
40
0.525934623504225
40
0.824622818104736
40
1
40
1
40
1
40
1
41
1
10
279.732250000454
20
-4.5683454401687
30
0
41
1
10
279.706220798092
20
-4.67396709893657
30
0
41
1
10
279.674366906512
20
-4.83778484638593
30
0
41
1
10
279.644503168412
20
-5.03646938686783
30
0
41
1
10
279.641208193538
20
-5.12715336956575
30
0
41
1
10
279.641027593816
20
-5.16040734629456
30
0
0
SPLINE
5
113
100
AcDbEntity
8
1
62
256
6
ByLayer
370
18
48
1
60
0
100
AcDbSpline
70
4
71
1
72
4
73
2
40
0
40
0
40
1
40
1
41
1
10
279.732250000454
20
-5.28980280249555
30
0
41
1
10
280.271000000454
20
-4.67275427615121
30
0
0
SPLINE
5
114
100
AcDbEntity
8
1
62
256
6
ByLayer
370
18
48
1
60
0
100
AcDbSpline
70
4
71
2
72
6
73
3
40
0
40
0
40
0
40
1
40
1
40
1
41
1
10
280.271000000454
20
-5.33483889563079
30
0
41
1
10
280.029400440698
20
-6.13790750134478
30
0
41
1
10
279.732250000454
20
-6.91573598044248
30
0
0
SPLINE
5
115
100
AcDbEntity
8
1
62
256
6
ByLayer
370
18
48
1
60
0
100
AcDbSpline
70
4
71
2
72
6
73
3
40
0
40
0
40
0
40
1
40
1
40
1
41
1
10
279.732250000454
20
-6.91573598044249
30
0
41
1
10
279.647341251032
20
-7.12057655727495
30
0
41
1
10
279.641000519573
20
-7.29764901403886
30
0
0
SPLINE
5
116
100
AcDbEntity
8
1
62
256
6
ByLayer
370
18
48
1
60
0
100
AcDbSpline
70
4
71
1
72
4
73
2
40
0
40
0
40
1
40
1
41
1
10
279.732250000454
20
-7.35862688270121
30
0
41
1
10
280.271000000454
20
-6.87200042134734
30
0
0
SPLINE
5
117
100
AcDbEntity
8
1
62
256
6
ByLayer
370
18
48
1
60
0
100
AcDbSpline
70
4
71
2
72
6
73
3
40
0
40
0
40
0
40
1
40
1
40
1
41
1
10
280.271000000454
20
-7.28496731472603
30
0
41
1
10
280.015228579465
20
-7.88337535069872
30
0
41
1
10
279.732250000454
20
-8.46522464212636
30
0
0
SPLINE
5
118
100
AcDbEntity
8
1
62
256
6
ByLayer
370
18
48
1
60
0
100
AcDbSpline
70
4
71
3
72
10
73
6
40
0
40
0
40
0
40
0
40
0.645741552554978
40
0.977472555209754
40
1
40
1
40
1
40
1
41
1
10
279.732250000454
20
-8.46522464212637
30
0
41
1
10
279.697315858652
20
-8.53382923621456
30
0
41
1
10
279.661112964012
20
-8.63044234160289
30
0
41
1
10
279.641463525005
20
-8.72628753385639
30
0
41
1
10
279.641011252259
20
-8.7556970564151
30
0
41
1
10
279.641000449456
20
-8.75755697857319
30
0
0
SPLINE
5
119
100
AcDbEntity
8
1
62
256
6
ByLayer
370
18
48
1
60
0
100
AcDbSpline
70
4
71
1
72
4
73
2
40
0
40
0
40
1
40
1
41
1
10
279.732250000454
20
-8.78588444656179
30
0
41
1
10
280.271000000454
20
-8.33601505857005
30
0
0
SPLINE
5
11A
100
AcDbEntity
8
1
62
256
6
ByLayer
370
18
48
1
60
0
100
AcDbSpline
70
4
71
1
72
4
73
2
40
0
40
0
40
1
40
1
41
1
10
280.271000000454
20
-8.63458114276066
30
0
41
1
10
279.732250000454
20
-9.61080914034506
30
0
0
SPLINE
5
11B
100
AcDbEntity
8
1
62
256
6
ByLayer
370
18
48
1
60
0
100
AcDbSpline
70
4
71
3
72
10
73
6
40
0
40
0
40
0
40
0
40
0.545679595672303
40
0.822040952921996
40
1
40
1
40
1
40
1
41
1
10
279.732250000454
20
-9.61080914034506
30
0
41
1
10
279.704102118985
20
-9.65864874010422
30
0
41
1
10
279.671578235609
20
-9.72653713101796
30
0
41
1
10
279.645330472143
20
-9.80611535457747
30
0
41
1
10
279.641527700352
20
-9.83687106211837
30
0
41
1
10
279.641007038138
20
-9.8483593764131
30
0
0
SPLINE
5
11C
100
AcDbEntity
8
1
62
256
6
ByLayer
370
18
48
1
60
0
100
AcDbSpline
70
4
71
1
72
4
73
2
40
0
40
0
40
1
40
1
41
1
10
279.732250000454
20
-9.85439706008743
30
0
41
1
10
280.271000000454
20
-9.41429255559945
30
0
0
SPLINE
5
11D
100
AcDbEntity
8
1
62
256
6
ByLayer
370
18
48
1
60
0
100
AcDbSpline
70
4
71
1
72
4
73
2
40
0
40
0
40
1
40
1
41
1
10
280.271000000454
20
-9.63930673052837
30
0
41
1
10
279.732250000454
20
-10.4857177352157
30
0
0
SPLINE
5
11E
100
AcDbEntity
8
1
62
256
6
ByLayer
370
18
48
1
60
0
100
AcDbSpline
70
4
71
3
72
10
73
6
40
0
40
0
40
0
40
0
40
0.526917465956904
40
0.80856440796396
40
1
40
1
40
1
40
1
41
1
10
279.732250000454
20
-10.4857177352157
30
0
41
1
10
279.705076955884
20
-10.5263368124714
30
0
41
1
10
279.672737279035
20
-10.5839549418005
30
0
41
1
10
279.64546984914
20
-10.6514284861078
30
0
41
1
10
279.641483416468
20
-10.6767751808335
30
0
41
1
10
279.6410004439
20
-10.6862930857991
30
0
0
SPLINE
5
11F
100
AcDbEntity
8
1
62
256
6
ByLayer
370
18
48
1
60
0
100
AcDbSpline
70
4
71
1
72
4
73
2
40
0
40
0
40
1
40
1
41
1
10
279.732250000454
20
-10.672465381878
30
0
41
1
10
280.271000000454
20
-10.2295484547522
30
0
0
SPLINE
5
120
100
AcDbEntity
8
1
62
256
6
ByLayer
370
18
48
1
60
0
100
AcDbSpline
70
4
71
1
72
4
73
2
40
0
40
0
40
1
40
1
41
1
10
280.271000000454
20
-10.3995902313265
30
0
41
1
10
279.732250000454
20
-11.1538289619795
30
0
0
SPLINE
5
121
100
AcDbEntity
8
1
62
256
6
ByLayer
370
18
48
1
60
0
100
AcDbSpline
70
4
71
3
72
11
73
7
40
0
40
0
40
0
40
0
40
0.480609355804255
40
0.770968203727904
40
0.996743393635323
40
1
40
1
40
1
40
1
41
1
10
279.732250000454
20
-11.1538289619795
30
0
41
1
10
279.707756501672
20
-11.1868640022235
30
0
41
1
10
279.676074981126
20
-11.2356212246285
30
0
41
1
10
279.647127234731
20
-11.2935532216921
30
0
41
1
10
279.641040608093
20
-11.3172665208873
30
0
41
1
10
279.641000136368
20
-11.3252530445039
30
0
41
1
10
279.641000006753
20
-11.3253662263497
30
0
0
SPLINE
5
122
100
AcDbEntity
8
1
62
256
6
ByLayer
370
18
48
1
60
0
100
AcDbSpline
70
4
71
1
72
4
73
2
40
0
40
0
40
1
40
1
41
1
10
279.732250000454
20
-11.2946400224578
30
0
41
1
10
280.271000000454
20
-10.8412830815283
30
0
0
SPLINE
5
123
100
AcDbEntity
8
1
62
256
6
ByLayer
370
18
48
1
60
0
100
AcDbSpline
70
4
71
1
72
4
73
2
40
0
40
0
40
1
40
1
41
1
10
280.271000000454
20
-10.9663904596632
30
0
41
1
10
279.732250000454
20
-11.6507735624537
30
0
0
SPLINE
5
124
100
AcDbEntity
8
1
62
256
6
ByLayer
370
18
48
1
60
0
100
AcDbSpline
70
4
71
3
72
11
73
7
40
0
40
0
40
0
40
0
40
0.442944605750148
40
0.734057798056071
40
0.961334347078453
40
1
40
1
40
1
40
1
41
1
10
279.732250000454
20
-11.6507735624537
30
0
41
1
10
279.709952755506
20
-11.6783205754549
30
0
41
1
10
279.679343684577
20
-11.7199159520568
30
0
41
1
10
279.649582559794
20
-11.7690068420046
30
0
41
1
10
279.641519733793
20
-11.7903216832456
30
0
41
1
10
279.641013824787
20
-11.7973188971531
30
0
41
1
10
279.641000283681
20
-11.7982829874517
30
0
0
SPLINE
5
125
100
AcDbEntity
8
1
62
256
6
ByLayer
370
18
48
1
60
0
100
AcDbSpline
70
4
71
1
72
4
73
2
40
0
40
0
40
1
40
1
41
1
10
279.732250000454
20
-11.7520750995911
30
0
41
1
10
280.271000000454
20
-11.282649339563
30
0
0
SPLINE
5
126
100
AcDbEntity
8
1
62
256
6
ByLayer
370
18
48
1
60
0
100
AcDbSpline
70
4
71
1
72
4
73
2
40
0
40
0
40
1
40
1
41
1
10
280.271000000454
20
-11.3686834087366
30
0
41
1
10
279.732250000454
20
-11.9978393343988
30
0
0
SPLINE
5
127
100
AcDbEntity
8
1
62
256
6
ByLayer
370
18
48
1
60
0
100
AcDbSpline
70
4
71
3
72
11
73
7
40
0
40
0
40
0
40
0
40
0.333087953316363
40
0.644813062810247
40
0.882871267765051
40
1
40
1
40
1
40
1
41
1
10
279.732250000454
20
-11.9978393343988
30
0
41
1
10
279.715897100213
20
-12.0165880876396
30
0
41
1
10
279.687920771818
20
-12.0502576314821
30
0
41
1
10
279.656640164783
20
-12.092105413282
30
0
41
1
10
279.64293365997
20
-12.1156284907934
30
0
41
1
10
279.641099965478
20
-12.1229478471312
30
0
41
1
10
279.641000151252
20
-12.1249009548997
30
0
0
SPLINE
5
128
100
AcDbEntity
8
1
62
256
6
ByLayer
370
18
48
1
60
0
100
AcDbSpline
70
4
71
1
72
4
73
2
40
0
40
0
40
1
40
1
41
1
10
279.732250000454
20
-12.0635253991507
30
0
41
1
10
280.271000000454
20
-11.5731557228463
30
0
0
SPLINE
5
129
100
AcDbEntity
8
1
62
256
6
ByLayer
370
18
48
1
60
0
100
AcDbSpline
70
4
71
1
72
4
73
2
40
0
40
0
40
1
40
1
41
1
10
280.271000000454
20
-11.6235624996115
30
0
41
1
10
279.732250000454
20
-12.2078160530262
30
0
0
SPLINE
5
12A
100
AcDbEntity
8
1
62
256
6
ByLayer
370
18
48
1
60
0
100
AcDbSpline
70
4
71
3
72
11
73
7
40
0
40
0
40
0
40
0
40
0.349370500438237
40
0.638637293876353
40
0.869106903891298
40
1
40
1
40
1
40
1
41
1
10
279.732250000454
20
-12.2078160530262
30
0
41
1
10
279.715068446529
20
-12.2262074939963
30
0
41
1
10
279.6874766523
20
-12.2565788574195
30
0
41
1
10
279.656718127584
20
-12.2925596197082
30
0
41
1
10
279.643107492789
20
-12.3109044679547
30
0
41
1
10
279.641097697198
20
-12.3156176109689
30
0
41
1
10
279.641000066919
20
-12.3167166460803
30
0
0
SPLINE
5
12B
100
AcDbEntity
8
1
62
256
6
ByLayer
370
18
48
1
60
0
100
AcDbSpline
70
4
71
1
72
4
73
2
40
0
40
0
40
1
40
1
41
1
10
279.732250000454
20
-12.240139744524
30
0
41
1
10
280.271000000454
20
-11.7240219485873
30
0
0
SPLINE
5
12C
100
AcDbEntity
8
1
62
256
6
ByLayer
370
18
48
1
60
0
100
AcDbSpline
70
4
71
1
72
4
73
2
40
0
40
0
40
1
40
1
41
1
10
280.271000000454
20
-11.7406323473937
30
0
41
1
10
279.732250000454
20
-12.2877335939139
30
0
0
SPLINE
5
12D
100
AcDbEntity
8
1
62
256
6
ByLayer
370
18
48
1
60
0
100
AcDbSpline
70
4
71
3
72
11
73
7
40
0
40
0
40
0
40
0
40
0.363287111289908
40
0.632578006283303
40
0.855518608046189
40
1
40
1
40
1
40
1
41
1
10
279.732250000454
20
-12.2877335939139
30
0
41
1
10
279.714309345397
20
-12.305822034923
30
0
41
1
10
279.687021951824
20
-12.3333607295676
30
0
41
1
10
279.656736184882
20
-12.3640364762848
30
0
41
1
10
279.643242805302
20
-12.3777243681483
30
0
41
1
10
279.641081163079
20
-12.3799169186725
30
0
41
1
10
279.641000000454
20
-12.38
30
0
0
SPLINE
5
12E
100
AcDbEntity
8
1
62
256
6
ByLayer
370
18
48
1
60
0
100
AcDbSpline
70
4
71
1
72
4
73
2
40
0
40
0
40
1
40
1
41
1
10
279.732250000454
20
12.2877335939139
30
0
41
1
10
280.271000000454
20
11.7406323473937
30
0
0
SPLINE
5
12F
100
AcDbEntity
8
1
62
256
6
ByLayer
370
18
48
1
60
0
100
AcDbSpline
70
4
71
1
72
4
73
2
40
0
40
0
40
1
40
1
41
1
10
280.271000000454
20
11.7240219485873
30
0
41
1
10
279.732250000454
20
12.240139744524
30
0
0
SPLINE
5
130
100
AcDbEntity
8
1
62
256
6
ByLayer
370
18
48
1
60
0
100
AcDbSpline
70
4
71
3
72
10
73
6
40
0
40
0
40
0
40
0
40
0.426569557599451
40
0.712208699620344
40
1
40
1
40
1
40
1
41
1
10
279.732250000454
20
12.240139744524
30
0
41
1
10
279.713599905181
20
12.2579945218035
30
0
41
1
10
279.686670988923
20
12.2829323666806
30
0
41
1
10
279.655124269171
20
12.3101334825465
30
0
41
1
10
279.645740559575
20
12.316302034386
30
0
41
1
10
279.642737059513
20
12.3175103883151
30
0
0
SPLINE
5
131
100
AcDbEntity
8
1
62
256
6
ByLayer
370
18
48
1
60
0
100
AcDbSpline
70
4
71
1
72
4
73
2
40
0
40
0
40
1
40
1
41
1
10
279.732250000454
20
12.2078160530262
30
0
41
1
10
280.271000000454
20
11.6235624996115
30
0
0
SPLINE
5
132
100
AcDbEntity
8
1
62
256
6
ByLayer
370
18
48
1
60
0
100
AcDbSpline
70
4
71
1
72
4
73
2
40
0
40
0
40
1
40
1
41
1
10
280.271000000454
20
11.5731557228463
30
0
41
1
10
279.732250000454
20
12.0635253991507
30
0
0
SPLINE
5
133
100
AcDbEntity
8
1
62
256
6
ByLayer
370
18
48
1
60
0
100
AcDbSpline
70
4
71
3
72
12
73
8
40
0
40
0
40
0
40
0
40
0.290983322097181
40
0.547294733627023
40
0.762967008538254
40
0.979204130115359
40
1
40
1
40
1
40
1
41
1
10
279.732250000454
20
12.0635253991507
30
0
41
1
10
279.718037756244
20
12.0765081431125
30
0
41
1
10
279.693730706418
20
12.0975441788766
30
0
41
1
10
279.663921864436
20
12.1203534086868
30
0
41
1
10
279.64576286762
20
12.1301210985049
30
0
41
1
10
279.641179049923
20
12.1283485956463
30
0
41
1
10
279.640999091967
20
12.1252304965168
30
0
41
1
10
279.641000006911
20
12.1249394678571
30
0
0
SPLINE
5
134
100
AcDbEntity
8
1
62
256
6
ByLayer
370
18
48
1
60
0
100
AcDbSpline
70
4
71
1
72
4
73
2
40
0
40
0
40
1
40
1
41
1
10
279.732250000454
20
11.9978393343988
30
0
41
1
10
280.271000000454
20
11.3686834087366
30
0
0
SPLINE
5
135
100
AcDbEntity
8
1
62
256
6
ByLayer
370
18
48
1
60
0
100
AcDbSpline
70
4
71
1
72
4
73
2
40
0
40
0
40
1
40
1
41
1
10
280.271000000454
20
11.282649339563
30
0
41
1
10
279.732250000454
20
11.7520750995911
30
0
0
SPLINE
5
136
100
AcDbEntity
8
1
62
256
6
ByLayer
370
18
48
1
60
0
100
AcDbSpline
70
4
71
3
72
12
73
8
40
0
40
0
40
0
40
0
40
0.261950786946628
40
0.50682009580788
40
0.753518780295988
40
0.962397106901297
40
1
40
1
40
1
40
1
41
1
10
279.732250000454
20
11.7520750995911
30
0
41
1
10
279.719457057687
20
11.7633166138184
30
0
41
1
10
279.696605576895
20
11.781865177642
30
0
41
1
10
279.665919908157
20
11.802547568362
30
0
41
1
10
279.646386258384
20
11.809151785785
30
0
41
1
10
279.641309209418
20
11.8038910801296
30
0
41
1
10
279.640994953173
20
11.7991200467866
30
0
41
1
10
279.641000065101
20
11.7983365902929
30
0
0
SPLINE
5
137
100
AcDbEntity
8
1
62
256
6
ByLayer
370
18
48
1
60
0
100
AcDbSpline
70
4
71
1
72
4
73
2
40
0
40
0
40
1
40
1
41
1
10
279.732250000454
20
11.6507735624537
30
0
41
1
10
280.271000000454
20
10.9663904596632
30
0
0
SPLINE
5
138
100
AcDbEntity
8
1
62
256
6
ByLayer
370
18
48
1
60
0
100
AcDbSpline
70
4
71
1
72
4
73
2
40
0
40
0
40
1
40
1
41
1
10
280.271000000454
20
10.8412830815283
30
0
41
1
10
279.732250000454
20
11.2946400224578
30
0
0
SPLINE
5
139
100
AcDbEntity
8
1
62
256
6
ByLayer
370
18
48
1
60
0
100
AcDbSpline
70
4
71
3
72
12
73
8
40
0
40
0
40
0
40
0
40
0.231480102558203
40
0.462123651622502
40
0.694380869318125
40
0.893083043456558
40
1
40
1
40
1
40
1
41
1
10
279.732250000454
20
11.2946400224578
30
0
41
1
10
279.720885070898
20
11.3043276532536
30
0
41
1
10
279.699624155065
20
11.3206922624265
30
0
41
1
10
279.670008557506
20
11.3384806826822
30
0
41
1
10
279.6496125044
20
11.3428461089969
30
0
41
1
10
279.641978202424
20
11.3355180180312
30
0
41
1
10
279.640943894875
20
11.328156115494
30
0
41
1
10
279.641000909348
20
11.3251321151027
30
0
0
SPLINE
5
13A
100
AcDbEntity
8
1
62
256
6
ByLayer
370
18
48
1
60
0
100
AcDbSpline
70
4
71
1
72
4
73
2
40
0
40
0
40
1
40
1
41
1
10
279.732250000454
20
11.1538289619795
30
0
41
1
10
280.271000000454
20
10.3995902313265
30
0
0
SPLINE
5
13B
100
AcDbEntity
8
1
62
256
6
ByLayer
370
18
48
1
60
0
100
AcDbSpline
70
4
71
1
72
4
73
2
40
0
40
0
40
1
40
1
41
1
10
280.271000000454
20
10.2295484547522
30
0
41
1
10
279.732250000454
20
10.672465381878
30
0
0
SPLINE
5
13C
100
AcDbEntity
8
1
62
256
6
ByLayer
370
18
48
1
60
0
100
AcDbSpline
70
4
71
3
72
12
73
8
40
0
40
0
40
0
40
0
40
0.200181900414706
40
0.414389023711209
40
0.63002844442951
40
0.815820213355103
40
1
40
1
40
1
40
1
41
1
10
279.732250000454
20
10.6724653818778
30
0
41
1
10
279.722350770608
20
10.6807412049953
30
0
41
1
10
279.702858884963
20
10.6951744690972
30
0
41
1
10
279.674652137713
20
10.7105743498161
30
0
41
1
10
279.653651694741
20
10.7131954498675
30
0
41
1
10
279.642892486466
20
10.7035659632027
30
0
41
1
10
279.640813209382
20
10.6928448237194
30
0
41
1
10
279.641001096271
20
10.6861577308969
30
0
0
SPLINE
5
13D
100
AcDbEntity
8
1
62
256
6
ByLayer
370
18
48
1
60
0
100
AcDbSpline
70
4
71
1
72
4
73
2
40
0
40
0
40
1
40
1
41
1
10
279.732250000454
20
10.4857177352157
30
0
41
1
10
280.271000000454
20
9.63930673052837
30
0
0
SPLINE
5
13E
100
AcDbEntity
8
1
62
256
6
ByLayer
370
18
48
1
60
0
100
AcDbSpline
70
4
71
1
72
4
73
2
40
0
40
0
40
1
40
1
41
1
10
280.271000000454
20
9.41429255559945
30
0
41
1
10
279.732250000454
20
9.85439706008743
30
0
0
SPLINE
5
13F
100
AcDbEntity
8
1
62
256
6
ByLayer
370
18
48
1
60
0
100
AcDbSpline
70
4
71
3
72
13
73
9
40
0
40
0
40
0
40
0
40
0.167240470114868
40
0.362015125417949
40
0.558092142198113
40
0.727011612384529
40
0.966209183304104
40
1
40
1
40
1
40
1
41
1
10
279.732250000454
20
9.85439706008716
30
0
41
1
10
279.72388933613
20
9.8613627454527
30
0
41
1
10
279.706408324719
20
9.87407950636638
30
0
41
1
10
279.680024217743
20
9.88764270671052
30
0
41
1
10
279.658795136282
20
9.88901189296134
30
0
41
1
10
279.644693077254
20
9.87779025991197
30
0
41
1
10
279.641211388632
20
9.86196359465083
30
0
41
1
10
279.64099160392
20
9.85073318741976
30
0
41
1
10
279.641000370041
20
9.84930867733357
30
0
0
SPLINE
5
140
100
AcDbEntity
8
1
62
256
6
ByLayer
370
18
48
1
60
0
100
AcDbSpline
70
4
71
1
72
4
73
2
40
0
40
0
40
1
40
1
41
1
10
279.732250000454
20
9.61080914034506
30
0
41
1
10
280.271000000454
20
8.63458114276066
30
0
0
SPLINE
5
141
100
AcDbEntity
8
1
62
256
6
ByLayer
370
18
48
1
60
0
100
AcDbSpline
70
4
71
1
72
4
73
2
40
0
40
0
40
1
40
1
41
1
10
280.271000000454
20
8.33601505857005
30
0
41
1
10
279.732250000454
20
8.78588444656179
30
0
0
SPLINE
5
142
100
AcDbEntity
8
1
62
256
6
ByLayer
370
18
48
1
60
0
100
AcDbSpline
70
4
71
3
72
13
73
9
40
0
40
0
40
0
40
0
40
0.130307103749808
40
0.323908710135175
40
0.49481783006349
40
0.639384076730641
40
0.866836580659577
40
1
40
1
40
1
40
1
41
1
10
279.732250000456
20
8.78588444656103
30
0
41
1
10
279.725538359163
20
8.79161630959276
30
0
41
1
10
279.709210579299
20
8.80369891602728
30
0
41
1
10
279.683879740083
20
8.81617024418504
30
0
41
1
10
279.662748753253
20
8.81515089058575
30
0
41
1
10
279.647921319912
20
8.80213138192733
30
0
41
1
10
279.641901888744
20
8.78097308248884
30
0
41
1
10
279.64084211861
20
8.76353317479932
30
0
41
1
10
279.641005277866
20
8.75656778647347
30
0
0
SPLINE
5
143
100
AcDbEntity
8
1
62
256
6
ByLayer
370
18
48
1
60
0
100
AcDbSpline
70
4
71
2
72
6
73
3
40
0
40
0
40
0
40
1
40
1
40
1
41
1
10
279.732250000454
20
8.46522464212636
30
0
41
1
10
280.015228276139
20
7.88337535542267
30
0
41
1
10
280.271000000454
20
7.28496731472603
30
0
0
SPLINE
5
144
100
AcDbEntity
8
1
62
256
6
ByLayer
370
18
48
1
60
0
100
AcDbSpline
70
4
71
1
72
4
73
2
40
0
40
0
40
1
40
1
41
1
10
280.271000000454
20
6.87200042134735
30
0
41
1
10
279.732250000454
20
7.35862688270121
30
0
0
SPLINE
5
145
100
AcDbEntity
8
1
62
256
6
ByLayer
370
18
48
1
60
0
100
AcDbSpline
70
4
71
3
72
14
73
10
40
0
40
0
40
0
40
0
40
0.0907799683164565
40
0.242088607027878
40
0.355695581184157
40
0.469180356968481
40
0.632539634262372
40
0.912014528228848
40
1
40
1
40
1
40
1
41
1
10
279.73225000046
20
7.35862688269815
30
0
41
1
10
279.727395343094
20
7.36309200926984
30
0
41
1
10
279.714464662514
20
7.37348895244816
30
0
41
1
10
279.69448310568
20
7.38461738912766
30
0
41
1
10
279.675240871222
20
7.38626791884762
30
0
41
1
10
279.659631515646
20
7.37846582208443
30
0
41
1
10
279.645717173615
20
7.35534584137322
30
0
41
1
10
279.641483506396
20
7.32455555062663
30
0
41
1
10
279.640930912639
20
7.30200736902689
30
0
41
1
10
279.641004697413
20
7.29644401145867
30
0
0
SPLINE
5
146
100
AcDbEntity
8
1
62
256
6
ByLayer
370
18
48
1
60
0
100
AcDbSpline
70
4
71
2
72
6
73
3
40
0
40
0
40
0
40
1
40
1
40
1
41
1
10
279.732250000454
20
6.91573598044248
30
0
41
1
10
280.029398887922
20
6.13790803285794
30
0
41
1
10
280.271000000454
20
5.33483889563079
30
0
0
SPLINE
5
147
100
AcDbEntity
8
1
62
256
6
ByLayer
370
18
48
1
60
0
100
AcDbSpline
70
4
71
1
72
4
73
2
40
0
40
0
40
1
40
1
41
1
10
280.271000000454
20
4.67275427615121
30
0
41
1
10
279.732250000454
20
5.28980280249552
30
0
0
SPLINE
5
148
100
AcDbEntity
8
1
62
256
6
ByLayer
370
18
48
1
60
0
100
AcDbSpline
70
4
71
3
72
14
73
10
40
0
40
0
40
0
40
0
40
0.109342584805057
40
0.182599253080209
40
0.256361666700752
40
0.32328341957743
40
0.426821569309486
40
0.620067492932219
40
1
40
1
40
1
40
1
41
1
10
279.732250000477
20
5.28980280247637
30
0
41
1
10
279.725687805079
20
5.29756028275901
30
0
41
1
10
279.714353399711
20
5.30777349770062
30
0
41
1
10
279.696968508584
20
5.31729474570022
30
0
41
1
10
279.682858246842
20
5.31822483399798
30
0
41
1
10
279.669531938831
20
5.3113622573377
30
0
41
1
10
279.655485794818
20
5.29135768964445
30
0
41
1
10
279.642912628892
20
5.24024681003285
30
0
41
1
10
279.638980622351
20
5.19359825871477
30
0
41
1
10
279.641039151135
20
5.15905671087025
30
0
0
SPLINE
5
149
100
AcDbEntity
8
1
62
256
6
ByLayer
370
18
48
1
60
0
100
AcDbSpline
70
4
71
3
72
11
73
7
40
0
40
0
40
0
40
0
40
0.248186657667955
40
0.497039963561377
40
0.748107727826596
40
1
40
1
40
1
40
1
41
1
10
279.732250000454
20
4.5683454401687
30
0
41
1
10
279.805377571902
20
4.2672954994748
30
0
41
1
10
279.937905856212
20
3.66089892394094
30
0
41
1
10
280.096581764236
20
2.73682557745095
30
0
41
1
10
280.211254211528
20
1.79927606954582
30
0
41
1
10
280.25627382015
20
1.16857474579318
30
0
41
1
10
280.271000000454
20
0.851623924067246
30
0
0
SPLINE
5
14A
100
AcDbEntity
8
1
62
256
6
ByLayer
370
18
48
1
60
0
100
AcDbSpline
70
4
71
3
72
11
73
7
40
0
40
0
40
0
40
0
40
0.248044878400227
40
0.496900885465193
40
0.748091501936512
40
1
40
1
40
1
40
1
41
1
10
280.271000000454
20
-0.851623924067246
30
0
41
1
10
280.25650405861
20
-1.16372341807575
30
0
41
1
10
280.212263697942
20
-1.78685316374693
30
0
41
1
10
280.099071724597
20
-2.71989445377736
30
0
41
1
10
279.940419097779
20
-3.64892858913387
30
0
41
1
10
279.806482770834
20
-4.26277359037254
30
0
41
1
10
279.732250000454
20
-4.5683454401687
30
0
0
SPLINE
5
14B
100
AcDbEntity
8
1
62
256
6
ByLayer
370
18
48
1
60
0
100
AcDbSpline
70
4
71
3
72
14
73
10
40
0
40
0
40
0
40
0
40
0.267120466906932
40
0.5750292375936
40
0.670372036100391
40
0.743598405040129
40
0.817203495590018
40
0.884392368803715
40
1
40
1
40
1
40
1
41
1
10
279.641027593816
20
-5.16040734629456
30
0
41
1
10
279.640074209464
20
-5.18399829609844
30
0
41
1
10
279.642800757924
20
-5.23110439232335
30
0
41
1
10
279.651390927104
20
-5.28535142767698
30
0
41
1
10
279.669601020767
20
-5.31133846389613
30
0
41
1
10
279.682704965027
20
-5.31829009007507
30
0
41
1
10
279.696754376758
20
-5.31724730425012
30
0
41
1
10
279.714013526273
20
-5.30807017581151
30
0
41
1
10
279.725334918226
20
-5.29799592781707
30
0
41
1
10
279.732250000454
20
-5.28980280249556
30
0
0
SPLINE
5
14C
100
AcDbEntity
8
1
62
256
6
ByLayer
370
18
48
1
60
0
100
AcDbSpline
70
4
71
3
72
10
73
6
40
0
40
0
40
0
40
0
40
0.103288009068176
40
0.550967073567647
40
1
40
1
40
1
40
1
41
1
10
279.641039151135
20
5.15905671087025
30
0
41
1
10
279.641432470977
20
5.13946378441799
30
0
41
1
10
279.64509944372
20
5.034502508791
30
0
41
1
10
279.672470238127
20
4.83600437177487
30
0
41
1
10
279.70925683193
20
4.6582743889595
30
0
41
1
10
279.732250000454
20
4.56834544016871
30
0
0
SPLINE
5
14D
100
AcDbEntity
8
1
62
256
6
ByLayer
370
18
48
1
60
0
100
AcDbSpline
70
4
71
3
72
12
73
8
40
0
40
0
40
0
40
0
40
0.0585550559660376
40
0.505901505795126
40
0.736227137721844
40
0.928456612797247
40
1
40
1
40
1
40
1
41
1
10
279.641000519573
20
-7.29764901403886
30
0
41
1
10
279.640988669677
20
-7.30008174002103
30
0
41
1
10
279.641216042382
20
-7.32084285608796
30
0
41
1
10
279.644277687014
20
-7.34978028172715
30
0
41
1
10
279.656990697464
20
-7.37535509800583
30
0
41
1
10
279.669037494978
20
-7.38381427669772
30
0
41
1
10
279.676939943263
20
-7.38511331710665
30
0
41
1
10
279.679195816418
20
-7.38526606449689
30
0
0
SPLINE
5
14E
100
AcDbEntity
8
1
62
256
6
ByLayer
370
18
48
1
60
0
100
AcDbSpline
70
4
71
3
72
10
73
6
40
0
40
0
40
0
40
0
40
0.244570774378246
40
0.584399881961942
40
1
40
1
40
1
40
1
41
1
10
279.679195816418
20
-7.38526606449689
30
0
41
1
10
279.683149806405
20
-7.38542441980644
30
0
41
1
10
279.692843729774
20
-7.38440131055014
30
0
41
1
10
279.711317283181
20
-7.37571116166505
30
0
41
1
10
279.724776253504
20
-7.36558081082204
30
0
41
1
10
279.732250000454
20
-7.35862688270122
30
0
0
SPLINE
5
14F
100
AcDbEntity
8
1
62
256
6
ByLayer
370
18
48
1
60
0
100
AcDbSpline
70
4
71
2
72
6
73
3
40
0
40
0
40
0
40
1
40
1
40
1
41
1
10
279.641004697413
20
7.29644401145867
30
0
41
1
10
279.649760437626
20
7.11785984629923
30
0
41
1
10
279.732250000454
20
6.91573598044247
30
0
0
SPLINE
5
150
100
AcDbEntity
8
1
62
256
6
ByLayer
370
18
48
1
60
0
100
AcDbSpline
70
4
71
3
72
11
73
7
40
0
40
0
40
0
40
0
40
0.299885116516622
40
0.658561874791605
40
0.885752752629607
40
1
40
1
40
1
40
1
41
1
10
279.641000449456
20
-8.75755697857319
30
0
41
1
10
279.640670355649
20
-8.76802344691722
30
0
41
1
10
279.642849766862
20
-8.78800236210635
30
0
41
1
10
279.652707565771
20
-8.80952447083735
30
0
41
1
10
279.668663894184
20
-8.81573620781159
30
0
41
1
10
279.678173792682
20
-8.81502278081466
30
0
41
1
10
279.681575848424
20
-8.81439513288842
30
0
0
SPLINE
5
151
100
AcDbEntity
8
1
62
256
6
ByLayer
370
18
48
1
60
0
100
AcDbSpline
70
4
71
3
72
10
73
6
40
0
40
0
40
0
40
0
40
0.219670322495956
40
0.749029864082508
40
1
40
1
40
1
40
1
41
1
10
279.681575848424
20
-8.81439513288842
30
0
41
1
10
279.684993645219
20
-8.81370469227019
30
0
41
1
10
279.69684204388
20
-8.81033766198599
30
0
41
1
10
279.714500777993
20
-8.79993311773663
30
0
41
1
10
279.727901031691
20
-8.78956030944887
30
0
41
1
10
279.732250000486
20
-8.78588444655163
30
0
0
SPLINE
5
152
100
AcDbEntity
8
1
62
256
6
ByLayer
370
18
48
1
60
0
100
AcDbSpline
70
4
71
3
72
10
73
6
40
0
40
0
40
0
40
0
40
0.15807414188469
40
0.618723320980889
40
1
40
1
40
1
40
1
41
1
10
279.641005277866
20
8.75656778647347
30
0
41
1
10
279.641509505346
20
8.74313839359063
30
0
41
1
10
279.646174534279
20
8.68935801067675
30
0
41
1
10
279.677340766948
20
8.58857099215643
30
0
41
1
10
279.71293030224
20
8.5044024755659
30
0
41
1
10
279.732250000454
20
8.46522464212637
30
0
0
SPLINE
5
153
100
AcDbEntity
8
1
62
256
6
ByLayer
370
18
48
1
60
0
100
AcDbSpline
70
4
71
3
72
13
73
9
40
0
40
0
40
0
40
0
40
0.149091420999616
40
0.342542673938083
40
0.537436452174684
40
0.709329403864581
40
0.92517087012197
40
1
40
1
40
1
40
1
41
1
10
279.641007038138
20
-9.8483593764131
30
0
41
1
10
279.640811433433
20
-9.85490965216278
30
0
41
1
10
279.642105620683
20
-9.86817996442207
30
0
41
1
10
279.649602777256
20
-9.88424598499667
30
0
41
1
10
279.666558963521
20
-9.88994274271425
30
0
41
1
10
279.691484335083
20
-9.88290254486097
30
0
41
1
10
279.714287822081
20
-9.86854415598925
30
0
41
1
10
279.72854294006
20
-9.8574488747899
30
0
41
1
10
279.732250000457
20
-9.85439706008652
30
0
0
SPLINE
5
154
100
AcDbEntity
8
1
62
256
6
ByLayer
370
18
48
1
60
0
100
AcDbSpline
70
4
71
3
72
10
73
6
40
0
40
0
40
0
40
0
40
0.231487098965103
40
0.670623613354845
40
1
40
1
40
1
40
1
41
1
10
279.641000370041
20
9.84930867733357
30
0
41
1
10
279.641884898717
20
9.83403972200337
30
0
41
1
10
279.648550907621
20
9.78772811218212
30
0
41
1
10
279.682448406892
20
9.70356230246135
30
0
41
1
10
279.715730844472
20
9.63922941005738
30
0
41
1
10
279.732250000454
20
9.61080914034506
30
0
0
SPLINE
5
155
100
AcDbEntity
8
1
62
256
6
ByLayer
370
18
48
1
60
0
100
AcDbSpline
70
4
71
3
72
13
73
9
40
0
40
0
40
0
40
0
40
0.0474900768900487
40
0.262176384730786
40
0.478365749104851
40
0.665736863586167
40
0.907797407895697
40
1
40
1
40
1
40
1
41
1
10
279.6410004439
20
-10.6862930857991
30
0
41
1
10
279.640985630738
20
-10.6879440243469
30
0
41
1
10
279.641330344919
20
-10.6966292438394
30
0
41
1
10
279.645715173612
20
-10.7092414453006
30
0
41
1
10
279.661908261611
20
-10.7135427262871
30
0
41
1
10
279.687321347774
20
-10.7047460876007
30
0
41
1
10
279.711867751146
20
-10.6886761888625
30
0
41
1
10
279.727786622858
20
-10.6761589357035
30
0
41
1
10
279.732250000459
20
-10.6724653818764
30
0
0
SPLINE
5
156
100
AcDbEntity
8
1
62
256
6
ByLayer
370
18
48
1
60
0
100
AcDbSpline
70
4
71
3
72
11
73
7
40
0
40
0
40
0
40
0
40
0.0483188377386045
40
0.321676692793098
40
0.760544060736321
40
1
40
1
40
1
40
1
41
1
10
279.641001096271
20
10.6861577308969
30
0
41
1
10
279.641036469159
20
10.6838642190676
30
0
41
1
10
279.641857024204
20
10.6681603154257
30
0
41
1
10
279.655423283717
20
10.6213509600996
30
0
41
1
10
279.690032029492
20
10.5530332434686
30
0
41
1
10
279.720478739725
20
10.5035635793041
30
0
41
1
10
279.732250000449
20
10.4857177352159
30
0
0
SPLINE
5
157
100
AcDbEntity
8
1
62
256
6
ByLayer
370
18
48
1
60
0
100
AcDbSpline
70
4
71
3
72
12
73
8
40
0
40
0
40
0
40
0
40
0.213484102384085
40
0.432168674349044
40
0.628620877038977
40
0.893256422038317
40
1
40
1
40
1
40
1
41
1
10
279.641000006753
20
-11.3253662263497
30
0
41
1
10
279.640891758626
20
-11.3315613616354
30
0
41
1
10
279.643993477699
20
-11.3402431446011
30
0
41
1
10
279.658815665482
20
-11.3420594990345
30
0
41
1
10
279.683909326313
20
-11.3310850013292
30
0
41
1
10
279.709758570801
20
-11.3130368323155
30
0
41
1
10
279.727142031969
20
-11.2989573809917
30
0
41
1
10
279.73225000046
20
-11.2946400224557
30
0
0
SPLINE
5
158
100
AcDbEntity
8
1
62
256
6
ByLayer
370
18
48
1
60
0
100
AcDbSpline
70
4
71
3
72
11
73
7
40
0
40
0
40
0
40
0
40
0.114908749294147
40
0.397853912834144
40
0.828489753563219
40
1
40
1
40
1
40
1
41
1
10
279.641000909348
20
11.3251321151027
30
0
41
1
10
279.641159415256
20
11.3209561428857
30
0
41
1
10
279.643297472889
20
11.3052649910631
30
0
41
1
10
279.661986939987
20
11.260521717925
30
0
41
1
10
279.696422459642
20
11.2042674299904
30
0
41
1
10
279.723938247435
20
11.165168813805
30
0
41
1
10
279.732250000454
20
11.1538289619795
30
0
0
SPLINE
5
159
100
AcDbEntity
8
1
62
256
6
ByLayer
370
18
48
1
60
0
100
AcDbSpline
70
4
71
3
72
11
73
7
40
0
40
0
40
0
40
0
40
0.143612839063658
40
0.415788673195514
40
0.813100232698524
40
1
40
1
40
1
40
1
41
1
10
279.641000065101
20
11.7983365902929
30
0
41
1
10
279.641196935567
20
11.7945588509816
30
0
41
1
10
279.643826138696
20
11.7819032940043
30
0
41
1
10
279.663209853725
20
11.7444605532104
30
0
41
1
10
279.696704781961
20
11.6962103252866
30
0
41
1
10
279.723221038431
20
11.6620103753937
30
0
41
1
10
279.732250000454
20
11.6507735624533
30
0
0
SPLINE
5
15A
100
AcDbEntity
8
1
62
256
6
ByLayer
370
18
48
1
60
0
100
AcDbSpline
70
4
71
3
72
12
73
8
40
0
40
0
40
0
40
0
40
0.170659557561956
40
0.387451261764415
40
0.589665989295111
40
0.871605397554963
40
1
40
1
40
1
40
1
41
1
10
279.641000283681
20
-11.7982829874517
30
0
41
1
10
279.640952071596
20
-11.8019637786855
30
0
41
1
10
279.643266228006
20
-11.8076075159008
30
0
41
1
10
279.655736710862
20
-11.8068897417832
30
0
41
1
10
279.680005986764
20
-11.7938342496183
30
0
41
1
10
279.707117248476
20
-11.7734439340102
30
0
41
1
10
279.726121115771
20
-11.7574269990051
30
0
41
1
10
279.732250000464
20
-11.7520750995866
30
0
0
SPLINE
5
15B
100
AcDbEntity
8
1
62
256
6
ByLayer
370
18
48
1
60
0
100
AcDbSpline
70
4
71
3
72
12
73
8
40
0
40
0
40
0
40
0
40
0.0875404208707956
40
0.30601935428952
40
0.511065355130533
40
0.79489298515068
40
1
40
1
40
1
40
1
41
1
10
279.641000151252
20
-12.1249009548997
30
0
41
1
10
279.640988042535
20
-12.1261473956113
30
0
41
1
10
279.641964834155
20
-12.1294168157099
30
0
41
1
10
279.649924908672
20
-12.1284642409282
30
0
41
1
10
279.671321866291
20
-12.1151467098039
30
0
41
1
10
279.70022447281
20
-12.091987134192
30
0
41
1
10
279.722390423972
20
-12.0725084367706
30
0
41
1
10
279.732250000454
20
-12.0635253991507
30
0
0
SPLINE
5
15C
100
AcDbEntity
8
1
62
256
6
ByLayer
370
18
48
1
60
0
100
AcDbSpline
70
4
71
3
72
11
73
7
40
0
40
0
40
0
40
0
40
0.165252999317434
40
0.42519205311272
40
0.791705976488101
40
1
40
1
40
1
40
1
41
1
10
279.641000006911
20
12.1249394678571
30
0
41
1
10
279.641223828564
20
12.1220767441879
30
0
41
1
10
279.644217894539
20
12.1125470916562
30
0
41
1
10
279.663709176473
20
12.0817929418507
30
0
41
1
10
279.696333454844
20
12.0399776818315
30
0
41
1
10
279.722209660213
20
12.0093765331493
30
0
41
1
10
279.732250000454
20
11.997839334396
30
0
0
SPLINE
5
15D
100
AcDbEntity
8
1
62
256
6
ByLayer
370
18
48
1
60
0
100
AcDbSpline
70
4
71
3
72
12
73
8
40
0
40
0
40
0
40
0
40
0.0917271355055262
40
0.286891182087251
40
0.569760075617141
40
0.965249206079285
40
1
40
1
40
1
40
1
41
1
10
279.641000075038
20
12.3167157001201
30
0
41
1
10
279.641037100604
20
12.3159829169107
30
0
41
1
10
279.642176033975
20
12.3126941274602
30
0
41
1
10
279.651614824525
20
12.2990246027895
30
0
41
1
10
279.679234737764
20
12.2658008367054
30
0
41
1
10
279.710484090437
20
12.2312239130685
30
0
41
1
10
279.730609711452
20
12.2095761454434
30
0
41
1
10
279.732250000454
20
12.2078160530262
30
0
0
SPLINE
5
15E
100
AcDbEntity
8
1
62
256
6
ByLayer
370
18
48
1
60
0
100
AcDbSpline
70
4
71
3
72
11
73
7
40
0
40
0
40
0
40
0
40
0.234552863643601
40
0.470212001062513
40
0.827105985046975
40
1
40
1
40
1
40
1
41
1
10
279.642402908735
20
-12.3175938795946
30
0
41
1
10
279.644517090146
20
-12.3169647909606
30
0
41
1
10
279.6514261669
20
-12.3127908741979
30
0
41
1
10
279.674523856182
20
-12.2937111416799
30
0
41
1
10
279.703330478697
20
-12.2674873555943
30
0
41
1
10
279.724907148367
20
-12.2471450854789
30
0
41
1
10
279.732250000461
20
-12.2401397445188
30
0
0
INSERT
5
179
100
AcDbEntity
8
SK2
62
256
6
ByLayer
370
25
48
1
60
0
100
AcDbBlockReference
2
DimnDraft3D22
10
0
20
0
30
0
41
1
42
1
43
1
50
0
210
0
220
0
230
1
0
LINE
5
70
100
AcDbEntity
8
81
62
256
6
ByLayer
370
18
48
1
60
0
100
AcDbLine
10
280
20
0
30
0
11
308
21
0
31
0
39
0
210
0
220
0
230
1
0
LINE
5
71
100
AcDbEntity
8
4
62
256
6
ByLayer
370
18
48
0.05
60
0
100
AcDbLine
10
0
20
0
30
0
11
280
21
0
31
0
39
0
210
0
220
0
230
1
0
LINE
5
73
100
AcDbEntity
8
SK4
62
256
6
ByLayer
370
18
48
0.05
60
0
100
AcDbLine
10
-122
20
0
30
0
11
285
21
0
31
0
39
0
210
0
220
0
230
1
0
LINE
5
75
100
AcDbEntity
8
80
62
256
6
ByLayer
370
18
48
1
60
0
100
AcDbLine
10
0
20
0
30
0
11
-28
21
0
31
0
39
0
210
0
220
0
230
1
0
LINE
5
76
100
AcDbEntity
8
1
62
256
6
ByLayer
370
18
48
1
60
0
100
AcDbLine
10
277.7
20
12.5
30
0
11
125
21
12.5
31
0
39
0
210
0
220
0
230
1
0
LINE
5
78
100
AcDbEntity
8
1
62
256
6
ByLayer
370
18
48
1
60
0
100
AcDbLine
10
125
20
-12.5
30
0
11
277.7
21
-12.5
31
0
39
0
210
0
220
0
230
1
0
LINE
5
79
100
AcDbEntity
8
SK1
62
256
6
ByLayer
370
18
48
1
60
0
100
AcDbLine
10
-100
20
12.35
30
0
11
-117.5
21
12.35
31
0
39
0
210
0
220
0
230
1
0
LINE
5
7B
100
AcDbEntity
8
SK1
62
256
6
ByLayer
370
18
48
1
60
0
100
AcDbLine
10
-117.5
20
-12.35
30
0
11
-100
21
-12.35
31
0
39
0
210
0
220
0
230
1
0
LINE
5
7C
100
AcDbEntity
8
SK1
62
256
6
ByLayer
370
18
48
1
60
0
100
AcDbLine
10
-117.5
20
-12.333525
30
0
11
-104
21
-12.333525
31
0
39
0
210
0
220
0
230
1
0
LINE
5
7D
100
AcDbEntity
8
SK1
62
256
6
ByLayer
370
18
48
1
60
0
100
AcDbLine
10
-104
20
-6.719034
30
0
11
-117.5
21
-6.719034
31
0
39
0
210
0
220
0
230
1
0
LINE
5
7E
100
AcDbEntity
8
SK1
62
256
6
ByLayer
370
18
48
1
60
0
100
AcDbLine
10
-117.5
20
-5.61449
30
0
11
-104
21
-5.61449
31
0
39
0
210
0
220
0
230
1
0
LINE
5
7F
100
AcDbEntity
8
SK1
62
256
6
ByLayer
370
18
48
1
60
0
100
AcDbLine
10
-104
20
5.61449
30
0
11
-117.5
21
5.61449
31
0
39
0
210
0
220
0
230
1
0
LINE
5
80
100
AcDbEntity
8
SK1
62
256
6
ByLayer
370
18
48
1
60
0
100
AcDbLine
10
-117.5
20
6.719034
30
0
11
-104
21
6.719034
31
0
39
0
210
0
220
0
230
1
0
LINE
5
81
100
AcDbEntity
8
SK1
62
256
6
ByLayer
370
18
48
1
60
0
100
AcDbLine
10
-104
20
12.333525
30
0
11
-117.5
21
12.333525
31
0
39
0
210
0
220
0
230
1
0
LINE
5
82
100
AcDbEntity
8
SK1
62
256
6
ByLayer
370
18
48
1
60
0
100
AcDbLine
10
-117.5
20
12.35
30
0
11
-119
21
9.751924
31
0
39
0
210
0
220
0
230
1
0
LINE
5
83
100
AcDbEntity
8
SK1
62
256
6
ByLayer
370
18
48
1
60
0
100
AcDbLine
10
-119
20
-9.751924
30
0
11
-117.5
21
-12.35
31
0
39
0
210
0
220
0
230
1
0
LINE
5
84
100
AcDbEntity
8
1
62
256
6
ByLayer
370
18
48
1
60
0
100
AcDbLine
10
50
20
-12.5
30
0
11
75
21
-12.5
31
0
39
0
210
0
220
0
230
1
0
LINE
5
85
100
AcDbEntity
8
1
62
256
6
ByLayer
370
18
48
1
60
0
100
AcDbLine
10
75
20
12.5
30
0
11
50
21
12.5
31
0
39
0
210
0
220
0
230
1
0
LINE
5
86
100
AcDbEntity
8
1
62
256
6
ByLayer
370
18
48
1
60
0
100
AcDbLine
10
75
20
-12.5
30
0
11
100
21
-12.5
31
0
39
0
210
0
220
0
230
1
0
LINE
5
87
100
AcDbEntity
8
1
62
256
6
ByLayer
370
18
48
1
60
0
100
AcDbLine
10
100
20
12.5
30
0
11
75
21
12.5
31
0
39
0
210
0
220
0
230
1
0
LINE
5
88
100
AcDbEntity
8
1
62
256
6
ByLayer
370
18
48
1
60
0
100
AcDbLine
10
25
20
-12.5
30
0
11
50
21
-12.5
31
0
39
0
210
0
220
0
230
1
0
LINE
5
89
100
AcDbEntity
8
1
62
256
6
ByLayer
370
18
48
1
60
0
100
AcDbLine
10
50
20
12.5
30
0
11
25
21
12.5
31
0
39
0
210
0
220
0
230
1
0
LINE
5
8A
100
AcDbEntity
8
1
62
256
6
ByLayer
370
18
48
1
60
0
100
AcDbLine
10
279.521
20
-12.5
30
0
11
279.642492
21
-12.378508
31
0
39
0
210
0
220
0
230
1
0
LINE
5
8B
100
AcDbEntity
8
1
62
256
6
ByLayer
370
18
48
1
60
0
100
AcDbLine
10
279.642492
20
12.378508
30
0
11
279.521
21
12.5
31
0
39
0
210
0
220
0
230
1
0
LINE
5
8C
100
AcDbEntity
8
1
62
256
6
ByLayer
370
18
48
1
60
0
100
AcDbLine
10
279.521
20
12.5
30
0
11
278.2
21
12.5
31
0
39
0
210
0
220
0
230
1
0
LINE
5
8D
100
AcDbEntity
8
1
62
256
6
ByLayer
370
18
48
1
60
0
100
AcDbLine
10
278.2
20
-12.5
30
0
11
279.521
21
-12.5
31
0
39
0
210
0
220
0
230
1
0
LINE
5
8E
100
AcDbEntity
8
1
62
256
6
ByLayer
370
18
48
1
60
0
100
AcDbLine
10
279.73225
20
5.289803
30
0
11
279.73225
21
4.568345
31
0
39
0
210
0
220
0
230
1
0
LINE
5
8F
100
AcDbEntity
8
1
62
256
6
ByLayer
370
18
48
1
60
0
100
AcDbLine
10
279.73225
20
-4.568345
30
0
11
279.73225
21
-5.289803
31
0
39
0
210
0
220
0
230
1
0
LINE
5
90
100
AcDbEntity
8
1
62
256
6
ByLayer
370
18
48
1
60
0
100
AcDbLine
10
280.271
20
4.672754
30
0
11
280.271
21
0.851624
31
0
39
0
210
0
220
0
230
1
0
LINE
5
91
100
AcDbEntity
8
1
62
256
6
ByLayer
370
18
48
1
60
0
100
AcDbLine
10
280.271
20
-0.851624
30
0
11
280.271
21
-4.672754
31
0
39
0
210
0
220
0
230
1
0
LINE
5
92
100
AcDbEntity
8
1
62
256
6
ByLayer
370
18
48
1
60
0
100
AcDbLine
10
279.73225
20
7.358627
30
0
11
279.73225
21
6.915736
31
0
39
0
210
0
220
0
230
1
0
LINE
5
93
100
AcDbEntity
8
1
62
256
6
ByLayer
370
18
48
1
60
0
100
AcDbLine
10
279.73225
20
-6.915736
30
0
11
279.73225
21
-7.358627
31
0
39
0
210
0
220
0
230
1
0
LINE
5
94
100
AcDbEntity
8
1
62
256
6
ByLayer
370
18
48
1
60
0
100
AcDbLine
10
280.271
20
6.872
30
0
11
280.271
21
5.334839
31
0
39
0
210
0
220
0
230
1
0
LINE
5
95
100
AcDbEntity
8
1
62
256
6
ByLayer
370
18
48
1
60
0
100
AcDbLine
10
280.271
20
-5.334839
30
0
11
280.271
21
-6.872
31
0
39
0
210
0
220
0
230
1
0
LINE
5
96
100
AcDbEntity
8
1
62
256
6
ByLayer
370
18
48
1
60
0
100
AcDbLine
10
279.73225
20
8.785884
30
0
11
279.73225
21
8.465225
31
0
39
0
210
0
220
0
230
1
0
LINE
5
97
100
AcDbEntity
8
1
62
256
6
ByLayer
370
18
48
1
60
0
100
AcDbLine
10
279.73225
20
-8.465225
30
0
11
279.73225
21
-8.785884
31
0
39
0
210
0
220
0
230
1
0
LINE
5
98
100
AcDbEntity
8
1
62
256
6
ByLayer
370
18
48
1
60
0
100
AcDbLine
10
280.271
20
8.336015
30
0
11
280.271
21
7.284967
31
0
39
0
210
0
220
0
230
1
0
LINE
5
99
100
AcDbEntity
8
1
62
256
6
ByLayer
370
18
48
1
60
0
100
AcDbLine
10
280.271
20
-7.284967
30
0
11
280.271
21
-8.336015
31
0
39
0
210
0
220
0
230
1
0
LINE
5
9A
100
AcDbEntity
8
1
62
256
6
ByLayer
370
18
48
1
60
0
100
AcDbLine
10
279.73225
20
-9.610809
30
0
11
279.73225
21
-9.854397
31
0
39
0
210
0
220
0
230
1
0
LINE
5
9B
100
AcDbEntity
8
1
62
256
6
ByLayer
370
18
48
1
60
0
100
AcDbLine
10
279.73225
20
9.854397
30
0
11
279.73225
21
9.610809
31
0
39
0
210
0
220
0
230
1
0
LINE
5
9C
100
AcDbEntity
8
1
62
256
6
ByLayer
370
18
48
1
60
0
100
AcDbLine
10
280.271
20
9.414293
30
0
11
280.271
21
8.634581
31
0
39
0
210
0
220
0
230
1
0
LINE
5
9D
100
AcDbEntity
8
1
62
256
6
ByLayer
370
18
48
1
60
0
100
AcDbLine
10
280.271
20
-8.634581
30
0
11
280.271
21
-9.414293
31
0
39
0
210
0
220
0
230
1
0
LINE
5
9E
100
AcDbEntity
8
1
62
256
6
ByLayer
370
18
48
1
60
0
100
AcDbLine
10
279.73225
20
-10.485718
30
0
11
279.73225
21
-10.672465
31
0
39
0
210
0
220
0
230
1
0
LINE
5
9F
100
AcDbEntity
8
1
62
256
6
ByLayer
370
18
48
1
60
0
100
AcDbLine
10
279.73225
20
10.672465
30
0
11
279.73225
21
10.485718
31
0
39
0
210
0
220
0
230
1
0
LINE
5
A0
100
AcDbEntity
8
1
62
256
6
ByLayer
370
18
48
1
60
0
100
AcDbLine
10
280.271
20
-9.639307
30
0
11
280.271
21
-10.229548
31
0
39
0
210
0
220
0
230
1
0
LINE
5
A1
100
AcDbEntity
8
1
62
256
6
ByLayer
370
18
48
1
60
0
100
AcDbLine
10
280.271
20
10.229548
30
0
11
280.271
21
9.639307
31
0
39
0
210
0
220
0
230
1
0
LINE
5
A2
100
AcDbEntity
8
1
62
256
6
ByLayer
370
18
48
1
60
0
100
AcDbLine
10
279.73225
20
-11.153829
30
0
11
279.73225
21
-11.29464
31
0
39
0
210
0
220
0
230
1
0
LINE
5
A3
100
AcDbEntity
8
1
62
256
6
ByLayer
370
18
48
1
60
0
100
AcDbLine
10
279.73225
20
11.29464
30
0
11
279.73225
21
11.153829
31
0
39
0
210
0
220
0
230
1
0
LINE
5
A4
100
AcDbEntity
8
1
62
256
6
ByLayer
370
18
48
1
60
0
100
AcDbLine
10
280.271
20
-10.39959
30
0
11
280.271
21
-10.841283
31
0
39
0
210
0
220
0
230
1
0
LINE
5
A5
100
AcDbEntity
8
1
62
256
6
ByLayer
370
18
48
1
60
0
100
AcDbLine
10
280.271
20
10.841283
30
0
11
280.271
21
10.39959
31
0
39
0
210
0
220
0
230
1
0
LINE
5
A6
100
AcDbEntity
8
1
62
256
6
ByLayer
370
18
48
1
60
0
100
AcDbLine
10
279.73225
20
11.752075
30
0
11
279.73225
21
11.650774
31
0
39
0
210
0
220
0
230
1
0
LINE
5
A7
100
AcDbEntity
8
1
62
256
6
ByLayer
370
18
48
1
60
0
100
AcDbLine
10
279.73225
20
-11.650774
30
0
11
279.73225
21
-11.752075
31
0
39
0
210
0
220
0
230
1
0
LINE
5
A8
100
AcDbEntity
8
1
62
256
6
ByLayer
370
18
48
1
60
0
100
AcDbLine
10
280.271
20
11.282649
30
0
11
280.271
21
10.96639
31
0
39
0
210
0
220
0
230
1
0
LINE
5
A9
100
AcDbEntity
8
1
62
256
6
ByLayer
370
18
48
1
60
0
100
AcDbLine
10
280.271
20
-10.96639
30
0
11
280.271
21
-11.282649
31
0
39
0
210
0
220
0
230
1
0
LINE
5
AA
100
AcDbEntity
8
1
62
256
6
ByLayer
370
18
48
1
60
0
100
AcDbLine
10
279.73225
20
-11.997839
30
0
11
279.73225
21
-12.063525
31
0
39
0
210
0
220
0
230
1
0
LINE
5
AB
100
AcDbEntity
8
1
62
256
6
ByLayer
370
18
48
1
60
0
100
AcDbLine
10
279.73225
20
12.063525
30
0
11
279.73225
21
11.997839
31
0
39
0
210
0
220
0
230
1
0
LINE
5
AC
100
AcDbEntity
8
1
62
256
6
ByLayer
370
18
48
1
60
0
100
AcDbLine
10
280.271
20
-11.368683
30
0
11
280.271
21
-11.573156
31
0
39
0
210
0
220
0
230
1
0
LINE
5
AD
100
AcDbEntity
8
1
62
256
6
ByLayer
370
18
48
1
60
0
100
AcDbLine
10
280.271
20
11.573156
30
0
11
280.271
21
11.368683
31
0
39
0
210
0
220
0
230
1
0
LINE
5
AE
100
AcDbEntity
8
1
62
256
6
ByLayer
370
18
48
1
60
0
100
AcDbLine
10
279.73225
20
12.24014
30
0
11
279.73225
21
12.207816
31
0
39
0
210
0
220
0
230
1
0
LINE
5
AF
100
AcDbEntity
8
1
62
256
6
ByLayer
370
18
48
1
60
0
100
AcDbLine
10
279.73225
20
-12.207816
30
0
11
279.73225
21
-12.24014
31
0
39
0
210
0
220
0
230
1
0
LINE
5
B0
100
AcDbEntity
8
1
62
256
6
ByLayer
370
18
48
1
60
0
100
AcDbLine
10
280.271
20
11.724022
30
0
11
280.271
21
11.623562
31
0
39
0
210
0
220
0
230
1
0
LINE
5
B1
100
AcDbEntity
8
1
62
256
6
ByLayer
370
18
48
1
60
0
100
AcDbLine
10
280.271
20
-11.623562
30
0
11
280.271
21
-11.724022
31
0
39
0
210
0
220
0
230
1
0
LINE
5
B2
100
AcDbEntity
8
SK1
62
256
6
ByLayer
370
18
48
1
60
0
100
AcDbLine
10
288.271
20
-2.156854
30
0
11
284.271
21
-2.156854
31
0
39
0
210
0
220
0
230
1
0
LINE
5
B3
100
AcDbEntity
8
SK1
62
256
6
ByLayer
370
18
48
1
60
0
100
AcDbLine
10
284.271
20
-9.156854
30
0
11
288.271
21
-9.156854
31
0
39
0
210
0
220
0
230
1
0
LINE
5
B4
100
AcDbEntity
8
SK1
62
256
6
ByLayer
370
18
48
1
60
0
100
AcDbLine
10
284.271
20
-3.656854
30
0
11
280.271
21
-3.656854
31
0
39
0
210
0
220
0
230
1
0
LINE
5
B5
100
AcDbEntity
8
SK1
62
256
6
ByLayer
370
18
48
1
60
0
100
AcDbLine
10
280.271
20
-7.656854
30
0
11
284.271
21
-7.656854
31
0
39
0
210
0
220
0
230
1
0
LINE
5
B6
100
AcDbEntity
8
SK1
62
256
6
ByLayer
370
18
48
1
60
0
100
AcDbLine
10
-100
20
-12.5
30
0
11
-50
21
-12.5
31
0
39
0
210
0
220
0
230
1
0
LINE
5
B7
100
AcDbEntity
8
SK1
62
256
6
ByLayer
370
18
48
1
60
0
100
AcDbLine
10
-50
20
12.5
30
0
11
-100
21
12.5
31
0
39
0
210
0
220
0
230
1
0
LINE
5
B8
100
AcDbEntity
8
1
62
256
6
ByLayer
370
18
48
1
60
0
100
AcDbLine
10
0
20
-12.5
30
0
11
25
21
-12.5
31
0
39
0
210
0
220
0
230
1
0
LINE
5
B9
100
AcDbEntity
8
1
62
256
6
ByLayer
370
18
48
1
60
0
100
AcDbLine
10
25
20
12.5
30
0
11
0
21
12.5
31
0
39
0
210
0
220
0
230
1
0
LINE
5
BA
100
AcDbEntity
8
1
62
256
6
ByLayer
370
18
48
1
60
0
100
AcDbLine
10
100
20
-12.5
30
0
11
125
21
-12.5
31
0
39
0
210
0
220
0
230
1
0
LINE
5
BB
100
AcDbEntity
8
1
62
256
6
ByLayer
370
18
48
1
60
0
100
AcDbLine
10
125
20
12.5
30
0
11
100
21
12.5
31
0
39
0
210
0
220
0
230
1
0
LINE
5
BC
100
AcDbEntity
8
SK1
62
256
6
ByLayer
370
18
48
1
60
0
100
AcDbLine
10
-25
20
-12.5
30
0
11
0
21
-12.5
31
0
39
0
210
0
220
0
230
1
0
LINE
5
BD
100
AcDbEntity
8
SK1
62
256
6
ByLayer
370
18
48
1
60
0
100
AcDbLine
10
0
20
12.5
30
0
11
-25
21
12.5
31
0
39
0
210
0
220
0
230
1
0
LINE
5
BE
100
AcDbEntity
8
SK1
62
256
6
ByLayer
370
18
48
1
60
0
100
AcDbLine
10
288.271
20
9.156854
30
0
11
284.271
21
9.156854
31
0
39
0
210
0
220
0
230
1
0
LINE
5
BF
100
AcDbEntity
8
SK1
62
256
6
ByLayer
370
18
48
1
60
0
100
AcDbLine
10
284.271
20
2.156854
30
0
11
288.271
21
2.156854
31
0
39
0
210
0
220
0
230
1
0
LINE
5
C0
100
AcDbEntity
8
SK1
62
256
6
ByLayer
370
18
48
1
60
0
100
AcDbLine
10
284.271
20
7.656854
30
0
11
280.271
21
7.656854
31
0
39
0
210
0
220
0
230
1
0
LINE
5
C1
100
AcDbEntity
8
SK1
62
256
6
ByLayer
370
18
48
1
60
0
100
AcDbLine
10
280.271
20
3.656854
30
0
11
284.271
21
3.656854
31
0
39
0
210
0
220
0
230
1
0
LINE
5
C2
100
AcDbEntity
8
SK1
62
256
6
ByLayer
370
18
48
1
60
0
100
AcDbLine
10
-50
20
-12.5
30
0
11
-25
21
-12.5
31
0
39
0
210
0
220
0
230
1
0
LINE
5
C3
100
AcDbEntity
8
SK1
62
256
6
ByLayer
370
18
48
1
60
0
100
AcDbLine
10
-25
20
12.5
30
0
11
-50
21
12.5
31
0
39
0
210
0
220
0
230
1
0
LINE
5
C4
100
AcDbEntity
8
1
62
256
6
ByLayer
370
18
48
1
60
0
100
AcDbLine
10
277.7
20
-12.5
30
0
11
277.7
21
12.5
31
0
39
0
210
0
220
0
230
1
0
LINE
5
C5
100
AcDbEntity
8
1
62
256
6
ByLayer
370
18
48
1
60
0
100
AcDbLine
10
125
20
12.5
30
0
11
125
21
0
31
0
39
0
210
0
220
0
230
1
0
LINE
5
C6
100
AcDbEntity
8
1
62
256
6
ByLayer
370
18
48
1
60
0
100
AcDbLine
10
125
20
0
30
0
11
125
21
-12.5
31
0
39
0
210
0
220
0
230
1
0
LINE
5
C7
100
AcDbEntity
8
SK1
62
256
6
ByLayer
370
18
48
1
60
0
100
AcDbLine
10
-117.5
20
12.35
30
0
11
-117.5
21
12.333525
31
0
39
0
210
0
220
0
230
1
0
LINE
5
C8
100
AcDbEntity
8
SK1
62
256
6
ByLayer
370
18
48
1
60
0
100
AcDbLine
10
-117.5
20
-12.333525
30
0
11
-117.5
21
-12.35
31
0
39
0
210
0
220
0
230
1
0
LINE
5
C9
100
AcDbEntity
8
SK1
62
256
6
ByLayer
370
18
48
1
60
0
100
AcDbLine
10
-104
20
-6.719034
30
0
11
-104
21
-12.333525
31
0
39
0
210
0
220
0
230
1
0
LINE
5
CA
100
AcDbEntity
8
SK1
62
256
6
ByLayer
370
18
48
1
60
0
100
AcDbLine
10
-117.5
20
-5.61449
30
0
11
-117.5
21
-6.719034
31
0
39
0
210
0
220
0
230
1
0
LINE
5
CB
100
AcDbEntity
8
SK1
62
256
6
ByLayer
370
18
48
1
60
0
100
AcDbLine
10
-117.5
20
6.719034
30
0
11
-117.5
21
5.61449
31
0
39
0
210
0
220
0
230
1
0
LINE
5
CC
100
AcDbEntity
8
SK1
62
256
6
ByLayer
370
18
48
1
60
0
100
AcDbLine
10
-104
20
12.333525
30
0
11
-104
21
6.719034
31
0
39
0
210
0
220
0
230
1
0
LINE
5
CD
100
AcDbEntity
8
SK1
62
256
6
ByLayer
370
18
48
1
60
0
100
AcDbLine
10
-104
20
5.61449
30
0
11
-104
21
-5.61449
31
0
39
0
210
0
220
0
230
1
0
LINE
5
CE
100
AcDbEntity
8
SK1
62
256
6
ByLayer
370
18
48
1
60
0
100
AcDbLine
10
-119
20
-9.751924
30
0
11
-119
21
0
31
0
39
0
210
0
220
0
230
1
0
LINE
5
CF
100
AcDbEntity
8
SK1
62
256
6
ByLayer
370
18
48
1
60
0
100
AcDbLine
10
-119
20
0
30
0
11
-119
21
9.751924
31
0
39
0
210
0
220
0
230
1
0
LINE
5
D0
100
AcDbEntity
8
1
62
256
6
ByLayer
370
18
48
1
60
0
100
AcDbLine
10
75
20
-12.5
30
0
11
75
21
0
31
0
39
0
210
0
220
0
230
1
0
LINE
5
D1
100
AcDbEntity
8
1
62
256
6
ByLayer
370
18
48
1
60
0
100
AcDbLine
10
50
20
12.5
30
0
11
50
21
0
31
0
39
0
210
0
220
0
230
1
0
LINE
5
D2
100
AcDbEntity
8
1
62
256
6
ByLayer
370
18
48
1
60
0
100
AcDbLine
10
50
20
0
30
0
11
50
21
-12.5
31
0
39
0
210
0
220
0
230
1
0
LINE
5
D3
100
AcDbEntity
8
1
62
256
6
ByLayer
370
18
48
1
60
0
100
AcDbLine
10
75
20
0
30
0
11
75
21
12.5
31
0
39
0
210
0
220
0
230
1
0
LINE
5
D4
100
AcDbEntity
8
1
62
256
6
ByLayer
370
18
48
1
60
0
100
AcDbLine
10
100
20
-12.5
30
0
11
100
21
0
31
0
39
0
210
0
220
0
230
1
0
LINE
5
D5
100
AcDbEntity
8
1
62
256
6
ByLayer
370
18
48
1
60
0
100
AcDbLine
10
75
20
12.5
30
0
11
75
21
0
31
0
39
0
210
0
220
0
230
1
0
LINE
5
D6
100
AcDbEntity
8
1
62
256
6
ByLayer
370
18
48
1
60
0
100
AcDbLine
10
75
20
0
30
0
11
75
21
-12.5
31
0
39
0
210
0
220
0
230
1
0
LINE
5
D7
100
AcDbEntity
8
1
62
256
6
ByLayer
370
18
48
1
60
0
100
AcDbLine
10
100
20
0
30
0
11
100
21
12.5
31
0
39
0
210
0
220
0
230
1
0
LINE
5
D8
100
AcDbEntity
8
1
62
256
6
ByLayer
370
18
48
1
60
0
100
AcDbLine
10
50
20
-12.5
30
0
11
50
21
0
31
0
39
0
210
0
220
0
230
1
0
LINE
5
D9
100
AcDbEntity
8
1
62
256
6
ByLayer
370
18
48
1
60
0
100
AcDbLine
10
25
20
12.5
30
0
11
25
21
-0.081275
31
0
39
0
210
0
220
0
230
1
0
LINE
5
DA
100
AcDbEntity
8
1
62
256
6
ByLayer
370
18
48
1
60
0
100
AcDbLine
10
25
20
-0.081275
30
0
11
25
21
-12.5
31
0
39
0
210
0
220
0
230
1
0
LINE
5
DB
100
AcDbEntity
8
1
62
256
6
ByLayer
370
18
48
1
60
0
100
AcDbLine
10
50
20
0
30
0
11
50
21
12.5
31
0
39
0
210
0
220
0
230
1
0
LINE
5
DC
100
AcDbEntity
8
1
62
256
6
ByLayer
370
18
48
1
60
0
100
AcDbLine
10
279.521
20
12.5
30
0
11
279.521
21
-12.5
31
0
39
0
210
0
220
0
230
1
0
LINE
5
DD
100
AcDbEntity
8
1
62
256
6
ByLayer
370
18
48
1
60
0
100
AcDbLine
10
280.271
20
-4.672754
30
0
11
280.271
21
-5.334839
31
0
39
0
210
0
220
0
230
1
0
LINE
5
DE
100
AcDbEntity
8
1
62
256
6
ByLayer
370
18
48
1
60
0
100
AcDbLine
10
280.271
20
-6.872
30
0
11
280.271
21
-7.284967
31
0
39
0
210
0
220
0
230
1
0
LINE
5
DF
100
AcDbEntity
8
1
62
256
6
ByLayer
370
18
48
1
60
0
100
AcDbLine
10
280.271
20
-8.336015
30
0
11
280.271
21
-8.634581
31
0
39
0
210
0
220
0
230
1
0
LINE
5
E0
100
AcDbEntity
8
1
62
256
6
ByLayer
370
18
48
1
60
0
100
AcDbLine
10
280.271
20
-9.414293
30
0
11
280.271
21
-9.639307
31
0
39
0
210
0
220
0
230
1
0
LINE
5
E1
100
AcDbEntity
8
1
62
256
6
ByLayer
370
18
48
1
60
0
100
AcDbLine
10
280.271
20
-10.229548
30
0
11
280.271
21
-10.39959
31
0
39
0
210
0
220
0
230
1
0
LINE
5
E2
100
AcDbEntity
8
1
62
256
6
ByLayer
370
18
48
1
60
0
100
AcDbLine
10
280.271
20
-10.841283
30
0
11
280.271
21
-10.96639
31
0
39
0
210
0
220
0
230
1
0
LINE
5
E3
100
AcDbEntity
8
1
62
256
6
ByLayer
370
18
48
1
60
0
100
AcDbLine
10
280.271
20
-11.282649
30
0
11
280.271
21
-11.368683
31
0
39
0
210
0
220
0
230
1
0
LINE
5
E4
100
AcDbEntity
8
1
62
256
6
ByLayer
370
18
48
1
60
0
100
AcDbLine
10
280.271
20
-11.573156
30
0
11
280.271
21
-11.623562
31
0
39
0
210
0
220
0
230
1
0
LINE
5
E5
100
AcDbEntity
8
1
62
256
6
ByLayer
370
18
48
1
60
0
100
AcDbLine
10
280.271
20
-11.724022
30
0
11
280.271
21
-11.740632
31
0
39
0
210
0
220
0
230
1
0
LINE
5
E6
100
AcDbEntity
8
1
62
256
6
ByLayer
370
18
48
1
60
0
100
AcDbLine
10
280.271
20
11.740632
30
0
11
280.271
21
11.724022
31
0
39
0
210
0
220
0
230
1
0
LINE
5
E7
100
AcDbEntity
8
1
62
256
6
ByLayer
370
18
48
1
60
0
100
AcDbLine
10
280.271
20
11.623562
30
0
11
280.271
21
11.573156
31
0
39
0
210
0
220
0
230
1
0
LINE
5
E8
100
AcDbEntity
8
1
62
256
6
ByLayer
370
18
48
1
60
0
100
AcDbLine
10
280.271
20
11.368683
30
0
11
280.271
21
11.282649
31
0
39
0
210
0
220
0
230
1
0
LINE
5
E9
100
AcDbEntity
8
1
62
256
6
ByLayer
370
18
48
1
60
0
100
AcDbLine
10
280.271
20
10.96639
30
0
11
280.271
21
10.841283
31
0
39
0
210
0
220
0
230
1
0
LINE
5
EA
100
AcDbEntity
8
1
62
256
6
ByLayer
370
18
48
1
60
0
100
AcDbLine
10
280.271
20
10.39959
30
0
11
280.271
21
10.229548
31
0
39
0
210
0
220
0
230
1
0
LINE
5
EB
100
AcDbEntity
8
1
62
256
6
ByLayer
370
18
48
1
60
0
100
AcDbLine
10
280.271
20
9.639307
30
0
11
280.271
21
9.414293
31
0
39
0
210
0
220
0
230
1
0
LINE
5
EC
100
AcDbEntity
8
1
62
256
6
ByLayer
370
18
48
1
60
0
100
AcDbLine
10
280.271
20
8.634581
30
0
11
280.271
21
8.336015
31
0
39
0
210
0
220
0
230
1
0
LINE
5
ED
100
AcDbEntity
8
1
62
256
6
ByLayer
370
18
48
1
60
0
100
AcDbLine
10
280.271
20
7.284967
30
0
11
280.271
21
6.872
31
0
39
0
210
0
220
0
230
1
0
LINE
5
EE
100
AcDbEntity
8
1
62
256
6
ByLayer
370
18
48
1
60
0
100
AcDbLine
10
280.271
20
5.334839
30
0
11
280.271
21
4.672754
31
0
39
0
210
0
220
0
230
1
0
LINE
5
EF
100
AcDbEntity
8
1
62
256
6
ByLayer
370
18
48
1
60
0
100
AcDbLine
10
280.271
20
0.851624
30
0
11
280.271
21
-0.851624
31
0
39
0
210
0
220
0
230
1
0
LINE
5
F0
100
AcDbEntity
8
1
62
256
6
ByLayer
370
18
48
1
60
0
100
AcDbLine
10
278.2
20
12.5
30
0
11
278.2
21
0
31
0
39
0
210
0
220
0
230
1
0
LINE
5
F1
100
AcDbEntity
8
1
62
256
6
ByLayer
370
18
48
1
60
0
100
AcDbLine
10
278
20
-12.3
30
0
11
278
21
0
31
0
39
0
210
0
220
0
230
1
0
LINE
5
F2
100
AcDbEntity
8
1
62
256
6
ByLayer
370
18
48
1
60
0
100
AcDbLine
10
278.2
20
0
30
0
11
278.2
21
-12.5
31
0
39
0
210
0
220
0
230
1
0
LINE
5
F3
100
AcDbEntity
8
1
62
256
6
ByLayer
370
18
48
1
60
0
100
AcDbLine
10
278
20
0
30
0
11
278
21
12.3
31
0
39
0
210
0
220
0
230
1
0
LINE
5
F4
100
AcDbEntity
8
SK1
62
256
6
ByLayer
370
18
48
1
60
0
100
AcDbLine
10
288.271
20
-2.156854
30
0
11
288.271
21
-9.156854
31
0
39
0
210
0
220
0
230
1
0
LINE
5
F5
100
AcDbEntity
8
SK1
62
256
6
ByLayer
370
18
48
1
60
0
100
AcDbLine
10
284.271
20
-2.156854
30
0
11
284.271
21
-9.156854
31
0
39
0
210
0
220
0
230
1
0
LINE
5
F6
100
AcDbEntity
8
SK1
62
256
6
ByLayer
370
18
48
1
60
0
100
AcDbLine
10
-50
20
-12.5
30
0
11
-50
21
12.5
31
0
39
0
210
0
220
0
230
1
0
LINE
5
F7
100
AcDbEntity
8
SK1
62
256
6
ByLayer
370
18
48
1
60
0
100
AcDbLine
10
-100
20
-12.5
30
0
11
-100
21
12.5
31
0
39
0
210
0
220
0
230
1
0
LINE
5
F8
100
AcDbEntity
8
1
62
256
6
ByLayer
370
18
48
1
60
0
100
AcDbLine
10
25
20
-12.5
30
0
11
25
21
-0.081275
31
0
39
0
210
0
220
0
230
1
0
LINE
5
F9
100
AcDbEntity
8
1
62
256
6
ByLayer
370
18
48
1
60
0
100
AcDbLine
10
0
20
12.5
30
0
11
0
21
0
31
0
39
0
210
0
220
0
230
1
0
LINE
5
FA
100
AcDbEntity
8
1
62
256
6
ByLayer
370
18
48
1
60
0
100
AcDbLine
10
0
20
0
30
0
11
0
21
-12.5
31
0
39
0
210
0
220
0
230
1
0
LINE
5
FB
100
AcDbEntity
8
1
62
256
6
ByLayer
370
18
48
1
60
0
100
AcDbLine
10
25
20
-0.081275
30
0
11
25
21
12.5
31
0
39
0
210
0
220
0
230
1
0
LINE
5
FC
100
AcDbEntity
8
1
62
256
6
ByLayer
370
18
48
1
60
0
100
AcDbLine
10
125
20
-12.5
30
0
11
125
21
0
31
0
39
0
210
0
220
0
230
1
0
LINE
5
FD
100
AcDbEntity
8
1
62
256
6
ByLayer
370
18
48
1
60
0
100
AcDbLine
10
100
20
12.5
30
0
11
100
21
0
31
0
39
0
210
0
220
0
230
1
0
LINE
5
FE
100
AcDbEntity
8
1
62
256
6
ByLayer
370
18
48
1
60
0
100
AcDbLine
10
100
20
0
30
0
11
100
21
-12.5
31
0
39
0
210
0
220
0
230
1
0
LINE
5
FF
100
AcDbEntity
8
1
62
256
6
ByLayer
370
18
48
1
60
0
100
AcDbLine
10
125
20
0
30
0
11
125
21
12.5
31
0
39
0
210
0
220
0
230
1
0
LINE
5
100
100
AcDbEntity
8
1
62
256
6
ByLayer
370
18
48
1
60
0
100
AcDbLine
10
0
20
-12.5
30
0
11
0
21
0
31
0
39
0
210
0
220
0
230
1
0
LINE
5
101
100
AcDbEntity
8
SK1
62
256
6
ByLayer
370
18
48
1
60
0
100
AcDbLine
10
-25
20
12.5
30
0
11
-25
21
0
31
0
39
0
210
0
220
0
230
1
0
LINE
5
102
100
AcDbEntity
8
SK1
62
256
6
ByLayer
370
18
48
1
60
0
100
AcDbLine
10
-25
20
0
30
0
11
-25
21
-12.5
31
0
39
0
210
0
220
0
230
1
0
LINE
5
103
100
AcDbEntity
8
1
62
256
6
ByLayer
370
18
48
1
60
0
100
AcDbLine
10
0
20
0
30
0
11
0
21
12.5
31
0
39
0
210
0
220
0
230
1
0
LINE
5
104
100
AcDbEntity
8
SK1
62
256
6
ByLayer
370
18
48
1
60
0
100
AcDbLine
10
288.271
20
9.156854
30
0
11
288.271
21
2.156854
31
0
39
0
210
0
220
0
230
1
0
LINE
5
105
100
AcDbEntity
8
SK1
62
256
6
ByLayer
370
18
48
1
60
0
100
AcDbLine
10
284.271
20
9.156854
30
0
11
284.271
21
2.156854
31
0
39
0
210
0
220
0
230
1
0
LINE
5
106
100
AcDbEntity
8
SK1
62
256
6
ByLayer
370
18
48
1
60
0
100
AcDbLine
10
-25
20
-12.5
30
0
11
-25
21
0
31
0
39
0
210
0
220
0
230
1
0
LINE
5
107
100
AcDbEntity
8
SK1
62
256
6
ByLayer
370
18
48
1
60
0
100
AcDbLine
10
-50
20
12.5
30
0
11
-50
21
-12.5
31
0
39
0
210
0
220
0
230
1
0
LINE
5
108
100
AcDbEntity
8
SK1
62
256
6
ByLayer
370
18
48
1
60
0
100
AcDbLine
10
-25
20
0
30
0
11
-25
21
12.5
31
0
39
0
210
0
220
0
230
1
0
MTEXT
5
15F
100
AcDbEntity
8
SK6
62
256
6
ByLayer
370
13
48
1
60
0
100
AcDbMText
10
6.689221
20
44.544278
30
0
210
0
220
0
230
1
1
\W0.7324;SL-3C 25 380 CR
40
3.175
41
0
44
1.084337
50
0
71
7
72
5
7
iso_b_vert
0
DIMENSION
5
16D
100
AcDbEntity
8
2
62
256
6
ByLayer
370
13
48
1
60
0
100
AcDbDimension
2
DimnDraft3D1
10
280
20
38.524048
30
0
11
136.916908
21
38.524048
31
0
70
32
71
5
72
1
41
1
210
0
220
0
230
1
3
Standard
100
AcDbAlignedDimension
13
0
23
1.5875
33
0
14
280
24
1.5875
34
0
50
0
100
AcDbRotatedDimension
1001
ACAD
1000
DSTYLE
1002
{
1070
   279
1070
     0
1070
   173
1070
     1
1070
   340
1005
160
1070
   271
1070
     1
1070
   272
1070
     2
1070
    77
1070
     1
1070
    73
1070
     0
1070
   171
1070
     3
1070
   274
1070
     4
1070
   177
1070
     7
1070
   176
1070
     7
1070
   178
1070
     7
1070
    78
1070
     8
1070
    48
1040
-0.005
1070
    41
1041
3.175
1070
   147
1041
1.5875
1070
    42
1041
1.5875
1070
    44
1041
3.175
1070
   140
1041
3.175
1070
   343
1005
0
1070
   344
1005
0
1002
}
0
DIMENSION
5
183
100
AcDbEntity
8
SK2
62
256
6
ByLayer
370
13
48
1
60
0
100
AcDbDimension
2
DimnDraft3D3
10
0
20
38.437994
30
0
11
-52.686217
21
38.437994
31
0
70
32
71
5
72
1
41
1
210
0
220
0
230
1
3
Standard
100
AcDbAlignedDimension
13
-100
23
14.0875
33
0
14
0
24
1.5875
34
0
50
0
100
AcDbRotatedDimension
1001
ACAD
1000
DSTYLE
1002
{
1070
   279
1070
     0
1070
   173
1070
     1
1070
   340
1005
160
1070
   271
1070
     1
1070
   272
1070
     2
1070
    77
1070
     1
1070
    73
1070
     0
1070
   171
1070
     3
1070
   274
1070
     4
1070
   177
1070
     7
1070
   176
1070
     7
1070
   178
1070
     7
1070
    78
1070
     8
1070
    48
1040
-0.005
1070
    41
1041
3.175
1070
   147
1041
1.5875
1070
    42
1041
1.5875
1070
    44
1041
3.175
1070
   140
1041
3.175
1070
   343
1005
0
1070
   344
1005
0
1002
}
0
ENDSEC
0
SECTION
2
OBJECTS
0
DICTIONARY
5
1ee
330
0
100
AcDbDictionary
280
0
281
1
3
ACAD_GROUP
350
1ef
3
ACAD_MLINESTYLE
350
1f0
0
DICTIONARY
5
1ef
330
0
100
AcDbDictionary
280
0
281
1
0
DICTIONARY
5
1f0
330
0
100
AcDbDictionary
280
0
281
1
3
Standard
350
18
0
MLINESTYLE
5
18
330
1f0
100
AcDbMlineStyle
2
Standard
70
0
3

62
256
51
90
52
90
71
2
49
-0.5
62
256
6
ByLayer
49
0.5
62
256
6
ByLayer
0
RASTERVARIABLES
5
1dc
330

100
AcDbRasterVariables
90
0
70
1
71
1
72
1
0
ENDSEC
0
EOF
