0
SECTION
2
HEADER
9
$ACADVER
1
AC1015
9
$DWGCODEPAGE
3
ANSI_1252
9
$HANDSEED
5
138
9
$ANGBASE
50
0
9
$ANGDIR
70
0
9
$ATTMODE
70
1
9
$AUNITS
70
0
9
$AUPREC
70
0
9
$CECOLOR
62
256
9
$CELTSCALE
40
1
9
$CELTYPE
6
ByLayer
9
$CELWEIGHT
370
-1
9
$CLAYER
8
0
9
$CMLJUST
70
0
9
$CMLSCALE
40
1
9
$CMLSTYLE
2
Standard
9
$DIMSTYLE
2
Standard
9
$TEXTSIZE
40
0.2
9
$TEXTSTYLE
7
Standard
9
$LUNITS
70
2
9
$LUPREC
70
4
9
$EXTNAMES
290
1
9
$INSUNITS
70
4
9
$LTSCALE
40
1
9
$LWDISPLAY
290
0
9
$PDMODE
70
0
9
$PDSIZE
40
0
9
$PLINEGEN
70
0
0
ENDSEC
0
SECTION
2
CLASSES
0
CLASS
1
RASTERVARIABLES
2
AcDbRasterVariables
3
ISM
90
0
280
0
281
0
0
ENDSEC
0
SECTION
2
TABLES
0
TABLE
2
VPORT
5
12e
100
AcDbSymbolTable
0
VPORT
5
1
100
AcDbSymbolTableRecord
100
AcDbViewportTableRecord
2
*Active
70
0
10
0
20
0
11
1
21
1
12
-1
22
1
13
0
23
0
14
0.5
24
0.5
15
10
25
10
16
0
26
0
36
1
17
0
27
0
37
0
0
ENDTAB
0
TABLE
2
LTYPE
5
12f
100
AcDbSymbolTable
0
LTYPE
5
14
100
AcDbSymbolTableRecord
100
AcDbLinetypeTableRecord
70
0
2
ByBlock
3

72
65
73
0
40
0
0
LTYPE
5
15
100
AcDbSymbolTableRecord
100
AcDbLinetypeTableRecord
70
0
2
ByLayer
3

72
65
73
0
40
0
0
LTYPE
5
16
100
AcDbSymbolTableRecord
100
AcDbLinetypeTableRecord
70
0
2
CONTINUOUS
3
Solid line
72
65
73
0
40
0
0
LTYPE
5
3B
100
AcDbSymbolTableRecord
100
AcDbLinetypeTableRecord
70
0
2
DASHED
3
__ __ __ __ __ __ __ __ __
72
65
73
2
40
25.72
49
12.86
74
0
49
-12.86
74
0
0
LTYPE
5
3C
100
AcDbSymbolTableRecord
100
AcDbLinetypeTableRecord
70
0
2
HIDDEN
3
_ _ _ _ _ _ _ _ _ _ _ _ _ _ _
72
65
73
2
40
0.5
49
0.25
74
0
49
-0.25
74
0
0
LTYPE
5
3D
100
AcDbSymbolTableRecord
100
AcDbLinetypeTableRecord
70
0
2
PHANTOM
3
____ _ _ ____ _ _ _____ _ _ ____
72
65
73
6
40
50.5
49
18
74
0
49
-6.5
74
0
49
6.5
74
0
49
-6.5
74
0
49
6.5
74
0
49
-6.5
74
0
0
LTYPE
5
3E
100
AcDbSymbolTableRecord
100
AcDbLinetypeTableRecord
70
0
2
CENTER
3
____ _ ____ _ ____ _ ____
72
65
73
4
40
47.5
49
22
74
0
49
-8.5
74
0
49
8.5
74
0
49
-8.5
74
0
0
LTYPE
5
3F
100
AcDbSymbolTableRecord
100
AcDbLinetypeTableRecord
70
0
2
DOT
3
.........................
72
65
73
2
40
10
49
0
74
0
49
-10
74
0
0
LTYPE
5
40
100
AcDbSymbolTableRecord
100
AcDbLinetypeTableRecord
70
0
2
DASHDOT
3
_._._._._._._._._._._._._._._._.
72
65
73
4
40
70
49
31
74
0
49
-13
74
0
49
13
74
0
49
-13
74
0
0
ENDTAB
0
TABLE
2
LAYER
5
130
100
AcDbSymbolTable
0
LAYER
5
10
100
AcDbSymbolTableRecord
100
AcDbLayerTableRecord
2
0
70
0
62
7
6
CONTINUOUS
290
1
370
-3
390
0
0
LAYER
5
42
100
AcDbSymbolTableRecord
100
AcDbLayerTableRecord
2
2
70
0
62
7
6
CONTINUOUS
290
1
370
-3
390
0
0
LAYER
5
49
100
AcDbSymbolTableRecord
100
AcDbLayerTableRecord
2
81
70
0
62
-3
6
CONTINUOUS
290
1
370
-3
390
0
0
LAYER
5
4B
100
AcDbSymbolTableRecord
100
AcDbLayerTableRecord
2
80
70
0
62
-6
6
CONTINUOUS
290
1
370
-3
390
0
0
LAYER
5
4F
100
AcDbSymbolTableRecord
100
AcDbLayerTableRecord
2
1
70
0
62
4
6
CONTINUOUS
290
1
370
-3
390
0
0
LAYER
5
11b
100
AcDbSymbolTableRecord
100
AcDbLayerTableRecord
2
SK2
70
0
62
7
6
CONTINUOUS
290
1
370
-3
390
0
0
LAYER
5
11c
100
AcDbSymbolTableRecord
100
AcDbLayerTableRecord
2
SK1
70
0
62
4
6
CONTINUOUS
290
1
370
-3
390
0
0
LAYER
5
11d
100
AcDbSymbolTableRecord
100
AcDbLayerTableRecord
2
SK6
70
0
62
5
6
CONTINUOUS
290
1
370
-3
390
0
0
ENDTAB
0
TABLE
2
STYLE
5
131
100
AcDbSymbolTable
0
STYLE
5
11
100
AcDbSymbolTableRecord
100
AcDbTextStyleTableRecord
2
Standard
3
txt
70
0
71
0
40
0
41
1
42
0
50
0
0
STYLE
5
97
100
AcDbSymbolTableRecord
100
AcDbTextStyleTableRecord
2
DEFAULT
3
simplex.shx
70
0
71
0
40
0
41
1
42
0
50
0
0
STYLE
5
BA
100
AcDbSymbolTableRecord
100
AcDbTextStyleTableRecord
2
DWGDirectTextStyle
3
SIMPLEX
70
0
71
0
40
0
41
1
42
0
50
0
0
ENDTAB
0
TABLE
2
DIMSTYLE
5
132
100
AcDbSymbolTable
100
AcDbDimStyleTable
0
DIMSTYLE
105
27
100
AcDbSymbolTableRecord
100
AcDbDimStyleTableRecord
2
Standard
70
0
3
<>
41
0.18
42
0.0625
44
0.18
140
0.18
147
0.09
73
0
74
0
77
1
271
2
275
0
278
52
280
0
340
11
0
ENDTAB
0
TABLE
2
VIEW
5
133
100
AcDbSymbolTable
0
ENDTAB
0
TABLE
2
UCS
5
134
100
AcDbSymbolTable
0
ENDTAB
0
TABLE
2
APPID
5
135
100
AcDbSymbolTable
0
APPID
5
12
100
AcDbSymbolTableRecord
100
AcDbRegAppTableRecord
2
ACAD
70
0
0
ENDTAB
0
TABLE
2
BLOCK_RECORD
5
136
100
AcDbSymbolTable
0
BLOCK_RECORD
5
1F
100
AcDbSymbolTableRecord
100
AcDbBlockTableRecord
2
*Model_Space
340
0
70
0
0
BLOCK_RECORD
5
1B
100
AcDbSymbolTableRecord
100
AcDbBlockTableRecord
2
*Paper_Space
340
0
70
0
0
BLOCK_RECORD
5
23
100
AcDbSymbolTableRecord
100
AcDbBlockTableRecord
2
*Paper_Space0
340
0
70
0
0
BLOCK_RECORD
5
BC
100
AcDbSymbolTableRecord
100
AcDbBlockTableRecord
2
DimnDraft3D1
340
0
70
0
0
BLOCK_RECORD
5
CB
100
AcDbSymbolTableRecord
100
AcDbBlockTableRecord
2
_CLOSED
340
0
70
0
0
BLOCK_RECORD
5
D2
100
AcDbSymbolTableRecord
100
AcDbBlockTableRecord
2
DimnDraft3D2
340
0
70
0
0
BLOCK_RECORD
5
E0
100
AcDbSymbolTableRecord
100
AcDbBlockTableRecord
2
DimnDraft3D3
340
0
70
0
0
BLOCK_RECORD
5
EE
100
AcDbSymbolTableRecord
100
AcDbBlockTableRecord
2
DimnDraft3D4
340
0
70
0
0
ENDTAB
0
ENDSEC
0
SECTION
2
BLOCKS
0
BLOCK
5
20
100
AcDbEntity
8
0
100
AcDbBlockBegin
2
*Model_Space
70
0
10
0
20
0
30
0
3
*Model_Space
0
ENDBLK
5
21
100
AcDbEntity
8
0
100
AcDbBlockEnd
0
BLOCK
5
1C
100
AcDbEntity
8
0
100
AcDbBlockBegin
2
*Paper_Space
70
0
10
0
20
0
30
0
3
*Paper_Space
0
ENDBLK
5
1D
100
AcDbEntity
8
0
100
AcDbBlockEnd
0
BLOCK
5
24
100
AcDbEntity
8
0
100
AcDbBlockBegin
2
*Paper_Space0
70
0
10
0
20
0
30
0
3
*Paper_Space0
0
ENDBLK
5
25
100
AcDbEntity
8
0
100
AcDbBlockEnd
0
BLOCK
5
C8
100
AcDbEntity
8
0
100
AcDbBlockBegin
2
DimnDraft3D1
70
0
10
0
20
0
30
0
3
DimnDraft3D1
0
MTEXT
5
BD
100
AcDbEntity
8
2
62
256
6
ByLayer
370
-1
48
1
60
0
100
AcDbMText
10
0.234866
20
-0.76683
30
0
210
0
220
0
230
1
1
\W01.000;\fsimplex.shx,bigfont.shx;62%%d30' 
40
4.5
41
0
44
1.084337
50
292.005257277173
71
7
72
5
7
DEFAULT
0
LINE
5
BE
100
AcDbEntity
8
2
62
256
6
ByLayer
370
-1
48
1
60
0
100
AcDbLine
10
21.888795
20
2.856291
30
0
11
21.888795
21
24.236861
31
0
39
0
210
0
220
0
230
1
0
LINE
5
BF
100
AcDbEntity
8
2
62
256
6
ByLayer
370
-1
48
1
60
0
100
AcDbLine
10
18.800525
20
2.151851
30
0
11
0.873148
21
11.484253
31
0
39
0
210
0
220
0
230
1
0
ARC
5
C0
100
AcDbEntity
8
2
62
256
6
ByLayer
370
-1
48
1
60
0
100
AcDbCircle
39
0
10
21.888795
20
0.5442
30
0
40
21.6926605515172
210
0
220
0
230
1
100
AcDbArc
50
152.5
51
222.302161
0
ARC
5
C1
100
AcDbEntity
8
2
62
256
6
ByLayer
370
-1
48
1
60
0
100
AcDbCircle
39
0
10
21.888795
20
0.5442
30
0
40
21.6926605515172
210
0
220
0
230
1
100
AcDbArc
50
90
51
152.5
0
LINE
5
C2
100
AcDbEntity
8
2
62
256
6
ByLayer
370
-1
48
1
60
0
100
AcDbLine
10
21.888795
20
22.236861
30
0
11
18.731178
21
21.7032
31
0
39
0
210
0
220
0
230
1
0
LINE
5
C3
100
AcDbEntity
8
2
62
256
6
ByLayer
370
-1
48
1
60
0
100
AcDbLine
10
21.888795
20
22.236861
30
0
11
18.700647
21
22.538635
31
0
39
0
210
0
220
0
230
1
0
LINE
5
C4
100
AcDbEntity
8
2
62
256
6
ByLayer
370
-1
48
1
60
0
100
AcDbLine
10
18.731178
20
21.7032
30
0
11
18.700647
21
22.538635
31
0
39
0
210
0
220
0
230
1
0
LINE
5
C5
100
AcDbEntity
8
2
62
256
6
ByLayer
370
-1
48
1
60
0
100
AcDbLine
10
2.64717
20
10.560756
30
0
11
3.851614
21
13.528019
31
0
39
0
210
0
220
0
230
1
0
LINE
5
C6
100
AcDbEntity
8
2
62
256
6
ByLayer
370
-1
48
1
60
0
100
AcDbLine
10
2.64717
20
10.560756
30
0
11
4.578559
21
13.115182
31
0
39
0
210
0
220
0
230
1
0
LINE
5
C7
100
AcDbEntity
8
2
62
256
6
ByLayer
370
-1
48
1
60
0
100
AcDbLine
10
3.851614
20
13.528019
30
0
11
4.578559
21
13.115182
31
0
39
0
210
0
220
0
230
1
0
ENDBLK
5
C9
100
AcDbEntity
8
0
100
AcDbBlockEnd
0
BLOCK
5
CC
100
AcDbEntity
8
0
100
AcDbBlockBegin
2
_CLOSED
70
0
10
0
20
0
30
0
3
_CLOSED
0
LINE
5
CE
100
AcDbEntity
8
0
62
256
6
ByLayer
370
-2
48
1
60
0
100
AcDbLine
10
-1
20
0.166667
30
0
11
0
21
0
31
0
39
0
210
0
220
0
230
1
0
LINE
5
CF
100
AcDbEntity
8
0
62
256
6
ByLayer
370
-2
48
1
60
0
100
AcDbLine
10
0
20
0
30
0
11
-1
21
-0.166667
31
0
39
0
210
0
220
0
230
1
0
LINE
5
D0
100
AcDbEntity
8
0
62
256
6
ByLayer
370
-2
48
1
60
0
100
AcDbLine
10
-1
20
0.166667
30
0
11
-1
21
-0.166667
31
0
39
0
210
0
220
0
230
1
0
LINE
5
D1
100
AcDbEntity
8
0
62
256
6
ByLayer
370
-2
48
1
60
0
100
AcDbLine
10
0
20
0
30
0
11
-1
21
0
31
0
39
0
210
0
220
0
230
1
0
ENDBLK
5
CD
100
AcDbEntity
8
0
100
AcDbBlockEnd
0
BLOCK
5
DD
100
AcDbEntity
8
0
100
AcDbBlockBegin
2
DimnDraft3D2
70
0
10
0
20
0
30
0
3
DimnDraft3D2
0
MTEXT
5
D3
100
AcDbEntity
8
SK2
62
256
6
ByLayer
370
-1
48
1
60
0
100
AcDbMText
10
-90.336205
20
-0.941447
30
0
210
0
220
0
230
1
1
\W01.000;\fsimplex.shx,bigfont.shx;16 
40
4.5
41
0
44
1.084337
50
90
71
7
72
5
7
DEFAULT
0
LINE
5
D4
100
AcDbEntity
8
SK2
62
256
6
ByLayer
370
-1
48
1
60
0
100
AcDbLine
10
-81.461205
20
-7.9375
30
0
11
-91.211205
21
-7.9375
31
0
39
0
210
0
220
0
230
1
0
LINE
5
D5
100
AcDbEntity
8
SK2
62
256
6
ByLayer
370
-1
48
1
60
0
100
AcDbLine
10
-81.461205
20
7.9375
30
0
11
-91.211205
21
7.9375
31
0
39
0
210
0
220
0
230
1
0
LINE
5
D6
100
AcDbEntity
8
SK2
62
256
6
ByLayer
370
-1
48
1
60
0
100
AcDbLine
10
-89.211205
20
-7.9375
30
0
11
-89.211205
21
7.9375
31
0
39
0
210
0
220
0
230
1
0
LINE
5
D7
100
AcDbEntity
8
SK2
62
256
6
ByLayer
370
-1
48
1
60
0
100
AcDbLine
10
-89.211205
20
-7.9375
30
0
11
-89.629202
21
-4.762502
31
0
39
0
210
0
220
0
230
1
0
LINE
5
D8
100
AcDbEntity
8
SK2
62
256
6
ByLayer
370
-1
48
1
60
0
100
AcDbLine
10
-89.211205
20
-7.9375
30
0
11
-88.793209
21
-4.762498
31
0
39
0
210
0
220
0
230
1
0
LINE
5
D9
100
AcDbEntity
8
SK2
62
256
6
ByLayer
370
-1
48
1
60
0
100
AcDbLine
10
-89.629202
20
-4.762502
30
0
11
-88.793209
21
-4.762498
31
0
39
0
210
0
220
0
230
1
0
LINE
5
DA
100
AcDbEntity
8
SK2
62
256
6
ByLayer
370
-1
48
1
60
0
100
AcDbLine
10
-89.211205
20
7.9375
30
0
11
-88.793209
21
4.762502
31
0
39
0
210
0
220
0
230
1
0
LINE
5
DB
100
AcDbEntity
8
SK2
62
256
6
ByLayer
370
-1
48
1
60
0
100
AcDbLine
10
-89.211205
20
7.9375
30
0
11
-89.629202
21
4.762498
31
0
39
0
210
0
220
0
230
1
0
LINE
5
DC
100
AcDbEntity
8
SK2
62
256
6
ByLayer
370
-1
48
1
60
0
100
AcDbLine
10
-88.793209
20
4.762502
30
0
11
-89.629202
21
4.762498
31
0
39
0
210
0
220
0
230
1
0
ENDBLK
5
DE
100
AcDbEntity
8
0
100
AcDbBlockEnd
0
BLOCK
5
EB
100
AcDbEntity
8
0
100
AcDbBlockBegin
2
DimnDraft3D3
70
0
10
0
20
0
30
0
3
DimnDraft3D3
0
MTEXT
5
E1
100
AcDbEntity
8
2
62
256
6
ByLayer
370
-1
48
1
60
0
100
AcDbMText
10
48.013795
20
11.9242
30
0
210
0
220
0
230
1
1
\W01.000;\fsimplex.shx,bigfont.shx;8.42 
40
4.5
41
0
44
1.084337
50
90
71
7
72
5
7
DEFAULT
0
LINE
5
E2
100
AcDbEntity
8
2
62
256
6
ByLayer
370
-1
48
1
60
0
100
AcDbLine
10
2
20
-7.9375
30
0
11
51.138795
21
-7.9375
31
0
39
0
210
0
220
0
230
1
0
LINE
5
E3
100
AcDbEntity
8
2
62
256
6
ByLayer
370
-1
48
1
60
0
100
AcDbLine
10
23.888795
20
0.5442
30
0
11
51.138795
21
0.5442
31
0
39
0
210
0
220
0
230
1
0
LINE
5
E4
100
AcDbEntity
8
2
62
256
6
ByLayer
370
-1
48
1
60
0
100
AcDbLine
10
49.138795
20
-7.9375
30
0
11
49.138795
21
21.5992
31
0
39
0
210
0
220
0
230
1
0
LINE
5
E5
100
AcDbEntity
8
2
62
256
6
ByLayer
370
-1
48
1
60
0
100
AcDbLine
10
49.138795
20
-7.9375
30
0
11
48.720798
21
-4.762502
31
0
39
0
210
0
220
0
230
1
0
LINE
5
E6
100
AcDbEntity
8
2
62
256
6
ByLayer
370
-1
48
1
60
0
100
AcDbLine
10
49.138795
20
-7.9375
30
0
11
49.556791
21
-4.762498
31
0
39
0
210
0
220
0
230
1
0
LINE
5
E7
100
AcDbEntity
8
2
62
256
6
ByLayer
370
-1
48
1
60
0
100
AcDbLine
10
48.720798
20
-4.762502
30
0
11
49.556791
21
-4.762498
31
0
39
0
210
0
220
0
230
1
0
LINE
5
E8
100
AcDbEntity
8
2
62
256
6
ByLayer
370
-1
48
1
60
0
100
AcDbLine
10
49.138795
20
0.5442
30
0
11
49.556791
21
-2.630798
31
0
39
0
210
0
220
0
230
1
0
LINE
5
E9
100
AcDbEntity
8
2
62
256
6
ByLayer
370
-1
48
1
60
0
100
AcDbLine
10
49.138795
20
0.5442
30
0
11
48.720798
21
-2.630802
31
0
39
0
210
0
220
0
230
1
0
LINE
5
EA
100
AcDbEntity
8
2
62
256
6
ByLayer
370
-1
48
1
60
0
100
AcDbLine
10
49.556791
20
-2.630798
30
0
11
48.720798
21
-2.630802
31
0
39
0
210
0
220
0
230
1
0
ENDBLK
5
EC
100
AcDbEntity
8
0
100
AcDbBlockEnd
0
BLOCK
5
F9
100
AcDbEntity
8
0
100
AcDbBlockBegin
2
DimnDraft3D4
70
0
10
0
20
0
30
0
3
DimnDraft3D4
0
MTEXT
5
EF
100
AcDbEntity
8
SK2
62
256
6
ByLayer
370
-1
48
1
60
0
100
AcDbMText
10
-31.379626
20
21.731291
30
0
210
0
220
0
230
1
1
\W01.000;\fsimplex.shx,bigfont.shx;100 
40
4.5
41
0
44
1.084337
50
0
71
7
72
5
7
DEFAULT
0
LINE
5
F0
100
AcDbEntity
8
SK2
62
256
6
ByLayer
370
-1
48
1
60
0
100
AcDbLine
10
21.888795
20
2.856291
30
0
11
21.888795
21
22.606291
31
0
39
0
210
0
220
0
230
1
0
LINE
5
F1
100
AcDbEntity
8
SK2
62
256
6
ByLayer
370
-1
48
1
60
0
100
AcDbLine
10
-79.461205
20
9.9375
30
0
11
-79.461205
21
22.606291
31
0
39
0
210
0
220
0
230
1
0
LINE
5
F2
100
AcDbEntity
8
SK2
62
256
6
ByLayer
370
-1
48
1
60
0
100
AcDbLine
10
21.888795
20
20.606291
30
0
11
-79.461205
21
20.606291
31
0
39
0
210
0
220
0
230
1
0
LINE
5
F3
100
AcDbEntity
8
SK2
62
256
6
ByLayer
370
-1
48
1
60
0
100
AcDbLine
10
21.888795
20
20.606291
30
0
11
18.713796
21
20.188294
31
0
39
0
210
0
220
0
230
1
0
LINE
5
F4
100
AcDbEntity
8
SK2
62
256
6
ByLayer
370
-1
48
1
60
0
100
AcDbLine
10
21.888795
20
20.606291
30
0
11
18.713793
21
21.024287
31
0
39
0
210
0
220
0
230
1
0
LINE
5
F5
100
AcDbEntity
8
SK2
62
256
6
ByLayer
370
-1
48
1
60
0
100
AcDbLine
10
18.713796
20
20.188294
30
0
11
18.713793
21
21.024287
31
0
39
0
210
0
220
0
230
1
0
LINE
5
F6
100
AcDbEntity
8
SK2
62
256
6
ByLayer
370
-1
48
1
60
0
100
AcDbLine
10
-79.461205
20
20.606291
30
0
11
-76.286207
21
21.024287
31
0
39
0
210
0
220
0
230
1
0
LINE
5
F7
100
AcDbEntity
8
SK2
62
256
6
ByLayer
370
-1
48
1
60
0
100
AcDbLine
10
-79.461205
20
20.606291
30
0
11
-76.286204
21
20.188294
31
0
39
0
210
0
220
0
230
1
0
LINE
5
F8
100
AcDbEntity
8
SK2
62
256
6
ByLayer
370
-1
48
1
60
0
100
AcDbLine
10
-76.286207
20
21.024287
30
0
11
-76.286204
21
20.188294
31
0
39
0
210
0
220
0
230
1
0
ENDBLK
5
FA
100
AcDbEntity
8
0
100
AcDbBlockEnd
0
ENDSEC
0
SECTION
2
ENTITIES
0
ARC
5
64
100
AcDbEntity
8
1
62
256
6
ByLayer
370
-1
48
1
60
0
100
AcDbCircle
39
0
10
-18.729664
20
-10.206709
30
0
40
8.09999999999998
210
0
220
0
230
-1
100
AcDbArc
50
24.352179
51
37.744042
0
ARC
5
65
100
AcDbEntity
8
1
62
256
6
ByLayer
370
-1
48
1
60
0
100
AcDbCircle
39
0
10
3.3
20
0
30
0
40
1.5
210
0
220
0
230
1
100
AcDbArc
50
47.556829
51
270.469764
0
ARC
5
66
100
AcDbEntity
8
1
62
256
6
ByLayer
370
-1
48
1
60
0
100
AcDbCircle
39
0
10
-3.3
20
0
30
0
40
1.5
210
0
220
0
230
-1
100
AcDbArc
50
227.554899
51
259.846036
0
ARC
5
67
100
AcDbEntity
8
1
62
256
6
ByLayer
370
-1
48
1
60
0
100
AcDbCircle
39
0
10
-18.729664
20
10.206709
30
0
40
8.10000000000001
210
0
220
0
230
-1
100
AcDbArc
50
322.101231
51
335.647821
0
ARC
5
68
100
AcDbEntity
8
1
62
256
6
ByLayer
370
-1
48
1
60
0
100
AcDbCircle
39
0
10
4.987557
20
-0.692055
30
0
40
1.625
210
0
220
0
230
1
100
AcDbArc
50
208.864477
51
297.5
0
ARC
5
69
100
AcDbEntity
8
1
62
256
6
ByLayer
370
-1
48
1
60
0
100
AcDbCircle
39
0
10
4.987557
20
-0.692055
30
0
40
1.85988901006696
210
0
220
0
230
1
100
AcDbArc
50
205.745723
51
297.5
0
ARC
5
6A
100
AcDbEntity
8
1
62
256
6
ByLayer
370
-1
48
1
60
0
100
AcDbCircle
39
0
10
-12.5
20
0
30
0
40
1.67650000000001
210
0
220
0
230
-1
100
AcDbArc
50
239.840113
51
300.159887
0
ARC
5
6B
100
AcDbEntity
8
1
62
256
6
ByLayer
370
-1
48
1
60
0
100
AcDbCircle
39
0
10
12.5
20
0
30
0
40
1.2065
210
0
220
0
230
1
100
AcDbArc
50
209.920057
51
266.044721
0
ARC
5
6C
100
AcDbEntity
8
1
62
256
6
ByLayer
370
-1
48
1
60
0
100
AcDbCircle
39
0
10
-12.5
20
0
30
0
40
1.2065
210
0
220
0
230
-1
100
AcDbArc
50
266.044721
51
273.955279
0
ARC
5
6E
100
AcDbEntity
8
1
62
256
6
ByLayer
370
-1
48
1
60
0
100
AcDbCircle
39
0
10
-12.5
20
0
30
0
40
1.67650000000001
210
0
220
0
230
-1
100
AcDbArc
50
180
51
239.840113
0
ARC
5
6F
100
AcDbEntity
8
1
62
256
6
ByLayer
370
-1
48
1
60
0
100
AcDbCircle
39
0
10
-12.5
20
0
30
0
40
1.67650000000001
210
0
220
0
230
-1
100
AcDbArc
50
120.159887
51
180
0
ARC
5
70
100
AcDbEntity
8
1
62
256
6
ByLayer
370
-1
48
1
60
0
100
AcDbCircle
39
0
10
12.5
20
0
30
0
40
1.2065
210
0
220
0
230
1
100
AcDbArc
50
273.955279
51
330.079943
0
ARC
5
71
100
AcDbEntity
8
1
62
256
6
ByLayer
370
-1
48
1
60
0
100
AcDbCircle
39
0
10
-12.5
20
0
30
0
40
1.2065
210
0
220
0
230
-1
100
AcDbArc
50
86.044721
51
93.955279
0
ARC
5
72
100
AcDbEntity
8
1
62
256
6
ByLayer
370
-1
48
1
60
0
100
AcDbCircle
39
0
10
12.5
20
0
30
0
40
1.2065
210
0
220
0
230
1
100
AcDbArc
50
150.079943
51
209.920057
0
ARC
5
74
100
AcDbEntity
8
1
62
256
6
ByLayer
370
-1
48
1
60
0
100
AcDbCircle
39
0
10
-12.5
20
0
30
0
40
1.67650000000001
210
0
220
0
230
-1
100
AcDbArc
50
59.840113
51
120.159887
0
ARC
5
76
100
AcDbEntity
8
1
62
256
6
ByLayer
370
-1
48
1
60
0
100
AcDbCircle
39
0
10
-12.5
20
0
30
0
40
1.67650000000001
210
0
220
0
230
-1
100
AcDbArc
50
0
51
59.840113
0
ARC
5
78
100
AcDbEntity
8
1
62
256
6
ByLayer
370
-1
48
1
60
0
100
AcDbCircle
39
0
10
12.5
20
0
30
0
40
1.2065
210
0
220
0
230
1
100
AcDbArc
50
330.079943
51
29.920057
0
ARC
5
79
100
AcDbEntity
8
1
62
256
6
ByLayer
370
-1
48
1
60
0
100
AcDbCircle
39
0
10
-12.5
20
-4.474015
30
0
40
0.793999999999996
210
0
220
0
230
-1
100
AcDbArc
50
242.5
51
297.5
0
ARC
5
7A
100
AcDbEntity
8
1
62
256
6
ByLayer
370
-1
48
1
60
0
100
AcDbCircle
39
0
10
-12.5
20
4.474015
30
0
40
0.793999999999996
210
0
220
0
230
-1
100
AcDbArc
50
62.5
51
117.5
0
ARC
5
7B
100
AcDbEntity
8
1
62
256
6
ByLayer
370
-1
48
1
60
0
100
AcDbCircle
39
0
10
12.5
20
0
30
0
40
1.2065
210
0
220
0
230
1
100
AcDbArc
50
29.920057
51
86.044721
0
ARC
5
7C
100
AcDbEntity
8
1
62
256
6
ByLayer
370
-1
48
1
60
0
100
AcDbCircle
39
0
10
-3.905497
20
0
30
0
40
0.794000000000013
210
0
220
0
230
-1
100
AcDbArc
50
297.5
51
62.5
0
ARC
5
7D
100
AcDbEntity
8
1
62
256
6
ByLayer
370
-1
48
1
60
0
100
AcDbCircle
39
0
10
-21.094503
20
0
30
0
40
0.794000000000013
210
0
220
0
230
-1
100
AcDbArc
50
117.5
51
242.5
0
ARC
5
7E
100
AcDbEntity
8
1
62
256
6
ByLayer
370
-1
48
1
60
0
100
AcDbCircle
39
0
10
-12.5
20
0
30
0
40
1.2065
210
0
220
0
230
-1
100
AcDbArc
50
29.920057
51
86.044721
0
ARC
5
7F
100
AcDbEntity
8
1
62
256
6
ByLayer
370
-1
48
1
60
0
100
AcDbCircle
39
0
10
-12.5
20
0
30
0
40
1.67650000000001
210
0
220
0
230
-1
100
AcDbArc
50
300.159887
51
0
0
CIRCLE
5
6D
100
AcDbEntity
8
1
62
256
6
ByLayer
370
-1
48
1
60
0
100
AcDbCircle
10
-12.5
20
0
30
0
40
3.07132534818238
39
0
210
0
220
0
230
-1
0
CIRCLE
5
73
100
AcDbEntity
8
1
62
256
6
ByLayer
370
-1
48
1
60
0
100
AcDbCircle
10
-12.5
20
0
30
0
40
2.94486584643912
39
0
210
0
220
0
230
-1
0
CIRCLE
5
75
100
AcDbEntity
8
1
62
256
6
ByLayer
370
-1
48
1
60
0
100
AcDbCircle
10
-12.5
20
0
30
0
40
2.625
39
0
210
0
220
0
230
-1
0
CIRCLE
5
77
100
AcDbEntity
8
1
62
256
6
ByLayer
370
-1
48
1
60
0
100
AcDbCircle
10
-12.5
20
0
30
0
40
2.99999999999999
39
0
210
0
220
0
230
-1
0
CIRCLE
5
80
100
AcDbEntity
8
1
62
256
6
ByLayer
370
-1
48
1
60
0
100
AcDbCircle
10
-12.5
20
0
30
0
40
1.8
39
0
210
0
220
0
230
-1
0
POINT
5
41
100
AcDbEntity
8
2
62
256
6
ByLayer
370
-1
48
1
60
0
100
AcDbPoint
10
21.888795
20
0.481659
30
0
39
0
210
0
220
0
230
1
50
360
0
POINT
5
43
100
AcDbEntity
8
SK2
62
256
6
ByLayer
370
-1
48
1
60
0
100
AcDbPoint
10
21.888795
20
0.481659
30
0
39
0
210
0
220
0
230
1
50
360
0
POINT
5
45
100
AcDbEntity
8
SK2
62
256
6
ByLayer
370
-1
48
1
60
0
100
AcDbPoint
10
21.888795
20
0.481659
30
0
39
0
210
0
220
0
230
1
50
360
0
POINT
5
46
100
AcDbEntity
8
SK2
62
256
6
ByLayer
370
-1
48
1
60
0
100
AcDbPoint
10
21.888795
20
0.481659
30
0
39
0
210
0
220
0
230
1
50
360
0
POINT
5
47
100
AcDbEntity
8
SK2
62
256
6
ByLayer
370
-1
48
1
60
0
100
AcDbPoint
10
21.888795
20
0.481659
30
0
39
0
210
0
220
0
230
1
50
360
0
POINT
5
48
100
AcDbEntity
8
81
62
256
6
ByLayer
370
-1
48
1
60
0
100
AcDbPoint
10
21.888795
20
0.481659
30
0
39
0
210
0
220
0
230
1
50
360
0
POINT
5
4A
100
AcDbEntity
8
80
62
256
6
ByLayer
370
-1
48
1
60
0
100
AcDbPoint
10
0
20
0
30
0
39
0
210
0
220
0
230
1
50
360
0
SPLINE
5
81
100
AcDbEntity
8
1
62
256
6
ByLayer
370
-1
48
1
60
0
100
AcDbSpline
70
4
71
3
72
8
73
4
40
0
40
0
40
0
40
0
40
1
40
1
40
1
40
1
41
1
10
3.56444084040214
20
-1.47650636365782
30
0
41
1
10
3.48304699984072
20
-1.49108392060671
30
0
41
1
10
3.39884937703917
20
-1.4992399406506
30
0
41
1
10
3.3122982626852
20
-1.49994958339579
30
0
0
SPLINE
5
82
100
AcDbEntity
8
1
62
256
6
ByLayer
370
-1
48
1
60
0
100
AcDbSpline
70
4
71
3
72
14
73
10
40
0
40
0
40
0
40
0
40
0.28396174903668
40
0.28396174903668
40
0.570285189258996
40
0.570285189258996
40
0.829451094335634
40
0.829451094335634
40
1
40
1
40
1
40
1
41
1
10
13.4776444677088
20
1.12150404177777
30
0
41
1
10
13.4863213284041
20
1.15388811303046
30
0
41
1
10
13.4895538598036
20
1.18882554196082
30
0
41
1
10
13.4832063654842
20
1.25850421461593
30
0
41
1
10
13.4733590177569
20
1.29431482284386
30
0
41
1
10
13.4422145913697
20
1.35690846987219
30
0
41
1
10
13.4215677486005
20
1.38514373353519
30
0
41
1
10
13.3804021593367
20
1.42427613243368
30
0
41
1
10
13.3619509507641
20
1.43812706135532
30
0
41
1
10
13.3422983036603
20
1.44954676283882
30
0
0
SPLINE
5
83
100
AcDbEntity
8
1
62
256
6
ByLayer
370
-1
48
1
60
0
100
AcDbSpline
70
4
71
3
72
12
73
8
40
0
40
0
40
0
40
0
40
0.495785575728967
40
0.495785575728967
40
0.900238279923961
40
0.900238279923961
40
1
40
1
40
1
40
1
41
1
10
12.987910977364
20
-1.40233678764818
30
0
41
1
10
12.9377736049687
20
-1.3516080129547
30
0
41
1
10
12.8779290117279
20
-1.30712335145117
30
0
41
1
10
12.7560162887577
20
-1.2451607311732
30
0
41
1
10
12.6949462341845
20
-1.22366365063343
30
0
41
1
10
12.6155172566204
20
-1.20816202596299
30
0
41
1
10
12.5994242804516
20
-1.20560657989171
30
0
41
1
10
12.5832217365173
20
-1.20362635089401
30
0
0
SPLINE
5
84
100
AcDbEntity
8
1
62
256
6
ByLayer
370
-1
48
1
60
0
100
AcDbSpline
70
4
71
3
72
16
73
12
40
0
40
0
40
0
40
0
40
0.0624450082613716
40
0.0624450082613716
40
0.283207995985763
40
0.283207995985763
40
0.506745688833511
40
0.506745688833511
40
0.744607284736933
40
0.744607284736933
40
1
40
1
40
1
40
1
41
1
10
13.3422983036603
20
1.44954676283882
30
0
41
1
10
13.3350063168155
20
1.45378396877604
30
0
41
1
10
13.3275219054686
20
1.45770925194756
30
0
41
1
10
13.29311937228
20
1.47389408653788
30
0
41
1
10
13.2641051359831
20
1.48241558863055
30
0
41
1
10
13.2059936615192
20
1.49038000158336
30
0
41
1
10
13.1761635434263
20
1.48983232118104
30
0
41
1
10
13.1178527076446
20
1.48018142672004
30
0
41
1
10
13.0888454989234
20
1.47044293260569
30
0
41
1
10
13.034675357999
20
1.44276136963637
30
0
41
1
10
13.0092846144057
20
1.42396254038033
30
0
41
1
10
12.987910977364
20
1.40233678765202
30
0
0
SPLINE
5
85
100
AcDbEntity
8
1
62
256
6
ByLayer
370
-1
48
1
60
0
100
AcDbSpline
70
4
71
3
72
18
73
14
40
0
40
0
40
0
40
0
40
0.212491695755307
40
0.212491695755307
40
0.386618276853806
40
0.386618276853806
40
0.562426360907938
40
0.562426360907938
40
0.715388416645923
40
0.715388416645923
40
0.91824920868984
40
0.91824920868984
40
1
40
1
40
1
40
1
41
1
10
13.4776444677088
20
1.12150404177777
30
0
41
1
10
13.4592760761901
20
1.05294891330075
30
0
41
1
10
13.4510911091532
20
0.979185025513488
30
0
41
1
10
13.458961000854
20
0.843022153374733
30
0
41
1
10
13.4711557594437
20
0.779448760083
30
0
41
1
10
13.513830571623
20
0.656905539533085
30
0
41
1
10
13.5452976683393
20
0.596232464323975
30
0
41
1
10
13.6173032363391
20
0.496295746405622
30
0
41
1
10
13.6569188988895
20
0.454031777747133
30
0
41
1
10
13.7554059624805
20
0.371396705693513
30
0
41
1
10
13.817893587529
20
0.334518098060471
30
0
41
1
10
13.9077767319181
20
0.297950670802806
30
0
41
1
10
13.9342260360797
20
0.289055491737884
30
0
41
1
10
13.9608653921853
20
0.281837412132347
30
0
0
SPLINE
5
86
100
AcDbEntity
8
1
62
256
6
ByLayer
370
-1
48
1
60
0
100
AcDbSpline
70
4
71
3
72
18
73
14
40
0
40
0
40
0
40
0
40
0.212491592102403
40
0.212491592102403
40
0.386618191488461
40
0.386618191488461
40
0.562426295050804
40
0.562426295050804
40
0.715388354469443
40
0.715388354469443
40
0.918249128147134
40
0.918249128147134
40
1
40
1
40
1
40
1
41
1
10
13.9608653921853
20
-0.28183741212851
30
0
41
1
10
13.8923622765155
20
-0.300398706934999
30
0
41
1
10
13.8244718307195
20
-0.330381808908669
30
0
41
1
10
13.7106957340067
20
-0.405596523649706
30
0
41
1
10
13.6618552932208
20
-0.448080643416176
30
0
41
1
10
13.57734157867
20
-0.546545944410553
30
0
41
1
10
13.5406915357823
20
-0.604236286891449
30
0
41
1
10
13.4904602172058
20
-0.716703910710663
30
0
41
1
10
13.4738211448525
20
-0.772190714035531
30
0
41
1
10
13.4518539899322
20
-0.898862337756981
30
0
41
1
10
13.4513624544236
20
-0.971419161558458
30
0
41
1
10
13.4649038860688
20
-1.06750657274262
30
0
41
1
10
13.4705014003798
20
-1.09484444569753
30
0
41
1
10
13.4776444677088
20
-1.12150404177393
30
0
0
SPLINE
5
87
100
AcDbEntity
8
1
62
256
6
ByLayer
370
-1
48
1
60
0
100
AcDbSpline
70
4
71
3
72
16
73
12
40
0
40
0
40
0
40
0
40
0.0630415689509861
40
0.0630415689509861
40
0.285914332025032
40
0.285914332025032
40
0.511588305408989
40
0.511588305408989
40
0.751723061839473
40
0.751723061839473
40
1
40
1
40
1
40
1
41
1
10
14.1765
20
1.9043E-12
30
0
41
1
10
14.1765
20
0.0084336538348282
30
0
41
1
10
14.1761336287486
20
0.0168769683523635
30
0
41
1
10
14.1728431434152
20
0.0547537924334449
30
0
41
1
10
14.165633890411
20
0.0841216087724774
30
0
41
1
10
14.143324088693
20
0.138367789845262
30
0
41
1
10
14.12786346592
20
0.163884549645758
30
0
41
1
10
14.0902228348199
20
0.209452916503722
30
0
41
1
10
14.0672290297802
20
0.229640568255121
30
0
41
1
10
14.0170396182035
20
0.261951448649569
30
0
41
1
10
13.9891787135168
20
0.274165762470204
30
0
41
1
10
13.9608653921853
20
0.281837412132347
30
0
0
SPLINE
5
88
100
AcDbEntity
8
1
62
256
6
ByLayer
370
-1
48
1
60
0
100
AcDbSpline
70
4
71
3
72
14
73
10
40
0
40
0
40
0
40
0
40
0.282169922576047
40
0.282169922576047
40
0.566902245317903
40
0.566902245317903
40
0.824523972080226
40
0.824523972080226
40
1
40
1
40
1
40
1
41
1
10
12.0120890226361
20
1.40233678765199
30
0
41
1
10
11.9884755428678
20
1.42622880348105
30
0
41
1
10
11.9598973715973
20
1.44669095398683
30
0
41
1
10
11.8964034073027
20
1.47642759952311
30
0
41
1
10
11.8604207832103
20
1.48600316007469
30
0
41
1
10
11.7904842322966
20
1.49063981766224
30
0
41
1
10
11.755601295172
20
1.4870048681754
30
0
41
1
10
11.7001581578494
20
1.47083834363079
30
0
41
1
10
11.678107891115
20
1.46140433355271
30
0
41
1
10
11.6577016963397
20
1.44954676283882
30
0
0
SPLINE
5
89
100
AcDbEntity
8
1
62
256
6
ByLayer
370
-1
48
1
60
0
100
AcDbSpline
70
4
71
3
72
18
73
14
40
0
40
0
40
0
40
0
40
0.212491695755302
40
0.212491695755302
40
0.386618276853809
40
0.386618276853809
40
0.562426360907941
40
0.562426360907941
40
0.715388416645955
40
0.715388416645955
40
0.91824920868988
40
0.91824920868988
40
1
40
1
40
1
40
1
41
1
10
11.5223555322912
20
-1.12150404177393
30
0
41
1
10
11.5407239238099
20
-1.05294891329692
30
0
41
1
10
11.5489088908469
20
-0.979185025509651
30
0
41
1
10
11.5410389991461
20
-0.843022153370896
30
0
41
1
10
11.5288442405563
20
-0.779448760079163
30
0
41
1
10
11.4861694283771
20
-0.656905539529248
30
0
41
1
10
11.4547023316607
20
-0.596232464320138
30
0
41
1
10
11.3826967636609
20
-0.496295746401785
30
0
41
1
10
11.3430811011105
20
-0.454031777743296
30
0
41
1
10
11.2445940375196
20
-0.371396705689676
30
0
41
1
10
11.182106412471
20
-0.334518098056634
30
0
41
1
10
11.092223268082
20
-0.297950670798968
30
0
41
1
10
11.0657739639204
20
-0.289055491734047
30
0
41
1
10
11.0391346078147
20
-0.28183741212851
30
0
0
SPLINE
5
8A
100
AcDbEntity
8
1
62
256
6
ByLayer
370
-1
48
1
60
0
100
AcDbSpline
70
4
71
3
72
12
73
8
40
0
40
0
40
0
40
0
40
0.42211864122984
40
0.42211864122984
40
0.843213633747344
40
0.843213633747344
40
1
40
1
40
1
40
1
41
1
10
12.4167782634827
20
-1.20362635089401
30
0
41
1
10
12.3493307984488
20
-1.211869588908
30
0
41
1
10
12.2833416408563
20
-1.23046260793939
30
0
41
1
10
12.1647272181067
20
-1.2825690802793
30
0
41
1
10
12.1103575887118
20
-1.3166093590408
30
0
41
1
10
12.0450730005586
20
-1.37058295421198
30
0
41
1
10
12.0281183540982
20
-1.38611837999372
30
0
41
1
10
12.0120890226361
20
-1.40233678764818
30
0
0
SPLINE
5
8B
100
AcDbEntity
8
1
62
256
6
ByLayer
370
-1
48
1
60
0
100
AcDbSpline
70
4
71
3
72
16
73
12
40
0
40
0
40
0
40
0
40
0.0569446172825248
40
0.0569446172825248
40
0.279906644834102
40
0.279906644834102
40
0.50532196730667
40
0.50532196730667
40
0.744915047128795
40
0.744915047128795
40
1
40
1
40
1
40
1
41
1
10
13.3422983036603
20
-1.44954676283501
30
0
41
1
10
13.3488895614923
20
-1.44571673441976
30
0
41
1
10
13.3553366747187
20
-1.44162442621922
30
0
41
1
10
13.3859636168391
20
-1.42045865074718
30
0
41
1
10
13.4079276670062
20
-1.39963106375964
30
0
41
1
10
13.4440076363933
20
-1.35336102380162
30
0
41
1
10
13.4585125540833
20
-1.32729536171368
30
0
41
1
10
13.4794368822212
20
-1.27206196334089
30
0
41
1
10
13.4855822003864
20
-1.24212170469124
30
0
41
1
10
13.4888529009895
20
-1.18170391695185
30
0
41
1
10
13.4854405212243
20
-1.15060073485273
30
0
41
1
10
13.4776444677088
20
-1.12150404177393
30
0
0
SPLINE
5
8C
100
AcDbEntity
8
1
62
256
6
ByLayer
370
-1
48
1
60
0
100
AcDbSpline
70
4
71
3
72
16
73
12
40
0
40
0
40
0
40
0
40
0.0630415689509719
40
0.0630415689509719
40
0.285914332025007
40
0.285914332025007
40
0.51158830540891
40
0.51158830540891
40
0.751723061839368
40
0.751723061839368
40
1
40
1
40
1
40
1
41
1
10
10.8235
20
1.9043E-12
30
0
41
1
10
10.8235
20
-0.0084336538309913
30
0
41
1
10
10.8238663712514
20
-0.0168769683485266
30
0
41
1
10
10.8271568565848
20
-0.054753792429608
30
0
41
1
10
10.834366109589
20
-0.0841216087686405
30
0
41
1
10
10.8566759113071
20
-0.138367789841425
30
0
41
1
10
10.87213653408
20
-0.163884549641921
30
0
41
1
10
10.9097771651802
20
-0.209452916499885
30
0
41
1
10
10.9327709702199
20
-0.229640568251256
30
0
41
1
10
10.9829603817966
20
-0.261951448645732
30
0
41
1
10
11.0108212864832
20
-0.274165762466367
30
0
41
1
10
11.0391346078147
20
-0.28183741212851
30
0
0
SPLINE
5
8D
100
AcDbEntity
8
1
62
256
6
ByLayer
370
-1
48
1
60
0
100
AcDbSpline
70
4
71
3
72
12
73
8
40
0
40
0
40
0
40
0
40
0.422118641229878
40
0.422118641229878
40
0.843213633747396
40
0.843213633747396
40
1
40
1
40
1
40
1
41
1
10
12.5832217365173
20
1.20362635089785
30
0
41
1
10
12.6506692015512
20
1.21186958891184
30
0
41
1
10
12.7166583591438
20
1.23046260794322
30
0
41
1
10
12.8352727818934
20
1.28256908028314
30
0
41
1
10
12.8896424112882
20
1.31660935904463
30
0
41
1
10
12.9549269994415
20
1.37058295421582
30
0
41
1
10
12.9718816459019
20
1.38611837999755
30
0
41
1
10
12.987910977364
20
1.40233678765199
30
0
0
SPLINE
5
8E
100
AcDbEntity
8
1
62
256
6
ByLayer
370
-1
48
1
60
0
100
AcDbSpline
70
4
71
3
72
14
73
10
40
0
40
0
40
0
40
0
40
0.282169922576096
40
0.282169922576096
40
0.566902245317967
40
0.566902245317967
40
0.824523972080316
40
0.824523972080316
40
1
40
1
40
1
40
1
41
1
10
12.987910977364
20
-1.40233678764818
30
0
41
1
10
13.0115244571323
20
-1.42622880347724
30
0
41
1
10
13.0401026284028
20
-1.44669095398302
30
0
41
1
10
13.1035965926973
20
-1.4764275995193
30
0
41
1
10
13.1395792167897
20
-1.48600316007085
30
0
41
1
10
13.2095157677035
20
-1.49063981765841
30
0
41
1
10
13.244398704828
20
-1.48700486817157
30
0
41
1
10
13.2998418421506
20
-1.47083834362695
30
0
41
1
10
13.321892108885
20
-1.46140433354887
30
0
41
1
10
13.3422983036603
20
-1.44954676283501
30
0
0
SPLINE
5
8F
100
AcDbEntity
8
1
62
256
6
ByLayer
370
-1
48
1
60
0
100
AcDbSpline
70
4
71
3
72
18
73
14
40
0
40
0
40
0
40
0
40
0.212491592102398
40
0.212491592102398
40
0.386618191488459
40
0.386618191488459
40
0.562426295050801
40
0.562426295050801
40
0.715388354469449
40
0.715388354469449
40
0.918249128147148
40
0.918249128147148
40
1
40
1
40
1
40
1
41
1
10
11.0391346078147
20
0.281837412132347
30
0
41
1
10
11.1076377234846
20
0.300398706938836
30
0
41
1
10
11.1755281692806
20
0.330381808912534
30
0
41
1
10
11.2893042659934
20
0.405596523653543
30
0
41
1
10
11.3381447067793
20
0.448080643420013
30
0
41
1
10
11.4226584213301
20
0.54654594441439
30
0
41
1
10
11.4593084642177
20
0.604236286895315
30
0
41
1
10
11.5095397827943
20
0.7167039107145
30
0
41
1
10
11.5261788551476
20
0.772190714039368
30
0
41
1
10
11.5481460100679
20
0.898862337760818
30
0
41
1
10
11.5486375455765
20
0.971419161562295
30
0
41
1
10
11.5350961139312
20
1.06750657274645
30
0
41
1
10
11.5294985996203
20
1.09484444570137
30
0
41
1
10
11.5223555322912
20
1.12150404177777
30
0
0
SPLINE
5
90
100
AcDbEntity
8
1
62
256
6
ByLayer
370
-1
48
1
60
0
100
AcDbSpline
70
4
71
3
72
14
73
10
40
0
40
0
40
0
40
0
40
0.283961749036702
40
0.283961749036702
40
0.57028518925902
40
0.57028518925902
40
0.829451094335669
40
0.829451094335669
40
1
40
1
40
1
40
1
41
1
10
11.5223555322912
20
-1.12150404177393
30
0
41
1
10
11.513678671596
20
-1.15388811302662
30
0
41
1
10
11.5104461401964
20
-1.18882554195699
30
0
41
1
10
11.5167936345159
20
-1.25850421461209
30
0
41
1
10
11.5266409822431
20
-1.29431482284002
30
0
41
1
10
11.5577854086303
20
-1.35690846986839
30
0
41
1
10
11.5784322513996
20
-1.38514373353135
30
0
41
1
10
11.6195978406633
20
-1.42427613242984
30
0
41
1
10
11.6380490492359
20
-1.43812706135148
30
0
41
1
10
11.6577016963397
20
-1.44954676283498
30
0
0
SPLINE
5
91
100
AcDbEntity
8
1
62
256
6
ByLayer
370
-1
48
1
60
0
100
AcDbSpline
70
4
71
3
72
14
73
10
40
0
40
0
40
0
40
0
40
0.283961457856629
40
0.283961457856629
40
0.570284934646691
40
0.570284934646691
40
0.82945086906051
40
0.82945086906051
40
1
40
1
40
1
40
1
41
1
10
11.0391346078147
20
0.281837412132347
30
0
41
1
10
11.006775123635
20
0.273069432460602
30
0
41
1
10
10.9749432487877
20
0.258311308211063
30
0
41
1
10
10.9178862914263
20
0.217815543955567
30
0
41
1
10
10.8918709220879
20
0.191309493311678
30
0
41
1
10
10.853398175478
20
0.132933226218
30
0
41
1
10
10.8393584772187
20
0.100895602612269
30
0
41
1
10
10.826205731979
20
0.0456420108802149
30
0
41
1
10
10.8235
20
0.0227296607974949
30
0
41
1
10
10.8235
20
1.9043E-12
30
0
0
SPLINE
5
92
100
AcDbEntity
8
1
62
256
6
ByLayer
370
-1
48
1
60
0
100
AcDbSpline
70
4
71
3
72
12
73
8
40
0
40
0
40
0
40
0
40
0.495785575728971
40
0.495785575728971
40
0.900238279923962
40
0.900238279923962
40
1
40
1
40
1
40
1
41
1
10
12.0120890226361
20
1.40233678765202
30
0
41
1
10
12.0622263950314
20
1.35160801295854
30
0
41
1
10
12.1220709882722
20
1.307123351455
30
0
41
1
10
12.2439837112424
20
1.24516073117704
30
0
41
1
10
12.3050537658156
20
1.22366365063726
30
0
41
1
10
12.3844827433796
20
1.20816202596683
30
0
41
1
10
12.4005757195485
20
1.20560657989554
30
0
41
1
10
12.4167782634827
20
1.20362635089785
30
0
0
SPLINE
5
93
100
AcDbEntity
8
1
62
256
6
ByLayer
370
-1
48
1
60
0
100
AcDbSpline
70
4
71
3
72
16
73
12
40
0
40
0
40
0
40
0
40
0.0569446172824469
40
0.0569446172824469
40
0.279906644834012
40
0.279906644834012
40
0.505321967306621
40
0.505321967306621
40
0.744915047128713
40
0.744915047128713
40
1
40
1
40
1
40
1
41
1
10
11.6577016963397
20
1.44954676283882
30
0
41
1
10
11.6511104385077
20
1.4457167344236
30
0
41
1
10
11.6446633252813
20
1.44162442622306
30
0
41
1
10
11.614036383161
20
1.42045865075102
30
0
41
1
10
11.5920723329939
20
1.39963106376351
30
0
41
1
10
11.5559923636067
20
1.35336102380546
30
0
41
1
10
11.5414874459168
20
1.32729536171752
30
0
41
1
10
11.5205631177788
20
1.27206196334473
30
0
41
1
10
11.5144177996136
20
1.24212170469511
30
0
41
1
10
11.5111470990106
20
1.18170391695568
30
0
41
1
10
11.5145594787757
20
1.15060073485657
30
0
41
1
10
11.5223555322912
20
1.12150404177777
30
0
0
SPLINE
5
94
100
AcDbEntity
8
1
62
256
6
ByLayer
370
-1
48
1
60
0
100
AcDbSpline
70
4
71
3
72
14
73
10
40
0
40
0
40
0
40
0
40
0.283961457856612
40
0.283961457856612
40
0.570284934646654
40
0.570284934646654
40
0.829450869060502
40
0.829450869060502
40
1
40
1
40
1
40
1
41
1
10
13.9608653921853
20
-0.28183741212851
30
0
41
1
10
13.993224876365
20
-0.273069432456765
30
0
41
1
10
14.0250567512124
20
-0.258311308207226
30
0
41
1
10
14.0821137085737
20
-0.21781554395173
30
0
41
1
10
14.1081290779121
20
-0.191309493307841
30
0
41
1
10
14.1466018245221
20
-0.132933226214163
30
0
41
1
10
14.1606415227813
20
-0.100895602608432
30
0
41
1
10
14.173794268021
20
-0.045642010876378
30
0
41
1
10
14.1765
20
-0.022729660793658
30
0
41
1
10
14.1765
20
1.9043E-12
30
0
0
SPLINE
5
95
100
AcDbEntity
8
1
62
256
6
ByLayer
370
-1
48
1
60
0
100
AcDbSpline
70
4
71
3
72
16
73
12
40
0
40
0
40
0
40
0
40
0.0624450082614038
40
0.0624450082614038
40
0.28320799598574
40
0.28320799598574
40
0.50674568883347
40
0.50674568883347
40
0.744607284736867
40
0.744607284736867
40
1
40
1
40
1
40
1
41
1
10
11.6577016963397
20
-1.44954676283498
30
0
41
1
10
11.6649936831845
20
-1.4537839687722
30
0
41
1
10
11.6724780945314
20
-1.45770925194373
30
0
41
1
10
11.70688062772
20
-1.47389408653405
30
0
41
1
10
11.7358948640169
20
-1.48241558862671
30
0
41
1
10
11.7940063384808
20
-1.49038000157952
30
0
41
1
10
11.8238364565737
20
-1.4898323211772
30
0
41
1
10
11.8821472923554
20
-1.4801814267162
30
0
41
1
10
11.9111545010766
20
-1.47044293260188
30
0
41
1
10
11.965324642001
20
-1.44276136963253
30
0
41
1
10
11.9907153855944
20
-1.42396254037649
30
0
41
1
10
12.0120890226361
20
-1.40233678764815
30
0
0
LINE
5
4C
100
AcDbEntity
8
80
62
256
6
ByLayer
370
-1
48
1
60
0
100
AcDbLine
10
0
20
0
30
0
11
-5
21
0
31
0
39
0
210
0
220
0
230
1
0
LINE
5
4D
100
AcDbEntity
8
81
62
256
6
ByLayer
370
-1
48
1
60
0
100
AcDbLine
10
21.888795
20
0.481659
30
0
11
31.888795
21
0.481659
31
0
39
0
210
0
220
0
230
1
0
LINE
5
4E
100
AcDbEntity
8
1
62
256
6
ByLayer
370
-1
48
1
60
0
100
AcDbLine
10
9.295702
20
-7.936296
30
0
11
11.350336
21
-6.866721
31
0
39
0
210
0
220
0
230
1
0
LINE
5
50
100
AcDbEntity
8
1
62
256
6
ByLayer
370
-1
48
1
60
0
100
AcDbLine
10
0
20
7.9375
30
0
11
0
21
-7.936296
31
0
39
0
210
0
220
0
230
1
0
LINE
5
51
100
AcDbEntity
8
1
62
256
6
ByLayer
370
-1
48
1
60
0
100
AcDbLine
10
5.737899
20
-2.133447
30
0
11
6.011081
21
-1.991237
31
0
39
0
210
0
220
0
230
1
0
LINE
5
52
100
AcDbEntity
8
1
62
256
6
ByLayer
370
-1
48
1
60
0
100
AcDbLine
10
0
20
-7.936296
30
0
11
9.295702
21
-7.936296
31
0
39
0
210
0
220
0
230
1
0
LINE
5
53
100
AcDbEntity
8
1
62
256
6
ByLayer
370
-1
48
1
60
0
100
AcDbLine
10
9.293388
20
7.9375
30
0
11
0
21
7.9375
31
0
39
0
210
0
220
0
230
1
0
LINE
5
54
100
AcDbEntity
8
1
62
256
6
ByLayer
370
-1
48
1
60
0
100
AcDbLine
10
5.846358
20
-2.341796
30
0
11
6.265421
21
-2.123646
31
0
39
0
210
0
220
0
230
1
0
LINE
5
55
100
AcDbEntity
8
1
62
256
6
ByLayer
370
-1
48
1
60
0
100
AcDbLine
10
11.350336
20
6.866721
30
0
11
9.293388
21
7.9375
31
0
39
0
210
0
220
0
230
1
0
LINE
5
56
100
AcDbEntity
8
1
62
256
6
ByLayer
370
-1
48
1
60
0
100
AcDbLine
10
5.846358
20
-2.341796
30
0
11
5.737899
21
-2.133447
31
0
39
0
210
0
220
0
230
1
0
LINE
5
57
100
AcDbEntity
8
SK1
62
256
6
ByLayer
370
-1
48
1
60
0
100
AcDbLine
10
-79.461205
20
7.9375
30
0
11
-79.461205
21
-7.9375
31
0
39
0
210
0
220
0
230
1
0
LINE
5
59
100
AcDbEntity
8
SK1
62
256
6
ByLayer
370
-1
48
1
60
0
100
AcDbLine
10
0
20
7.9375
30
0
11
-0.15
21
7.9375
31
0
39
0
210
0
220
0
230
1
0
LINE
5
5A
100
AcDbEntity
8
SK1
62
256
6
ByLayer
370
-1
48
1
60
0
100
AcDbLine
10
-0.15
20
-7.93695
30
0
11
0
21
-7.936296
31
0
39
0
210
0
220
0
230
1
0
LINE
5
5B
100
AcDbEntity
8
1
62
256
6
ByLayer
370
-1
48
1
60
0
100
AcDbLine
10
3.538868
20
-0.704287
30
0
11
12.133372
21
-5.178302
31
0
39
0
210
0
220
0
230
1
0
LINE
5
5C
100
AcDbEntity
8
1
62
256
6
ByLayer
370
-1
48
1
60
0
100
AcDbLine
10
21.461132
20
0.704287
30
0
11
12.866628
21
5.178302
31
0
39
0
210
0
220
0
230
1
0
LINE
5
5D
100
AcDbEntity
8
1
62
256
6
ByLayer
370
-1
48
1
60
0
100
AcDbLine
10
12.866628
20
-5.178302
30
0
11
21.461132
21
-0.704287
31
0
39
0
210
0
220
0
230
1
0
LINE
5
5E
100
AcDbEntity
8
1
62
256
6
ByLayer
370
-1
48
1
60
0
100
AcDbLine
10
12.133372
20
5.178302
30
0
11
3.538868
21
0.704287
31
0
39
0
210
0
220
0
230
1
0
LINE
5
5F
100
AcDbEntity
8
SK1
62
256
6
ByLayer
370
-1
48
1
60
0
100
AcDbLine
10
-79.461205
20
-7.9375
30
0
11
-0.15
21
-7.9375
31
0
39
0
210
0
220
0
230
1
0
LINE
5
60
100
AcDbEntity
8
SK1
62
256
6
ByLayer
370
-1
48
1
60
0
100
AcDbLine
10
-0.15
20
7.9375
30
0
11
-79.461205
21
7.9375
31
0
39
0
210
0
220
0
230
1
0
LINE
5
61
100
AcDbEntity
8
SK1
62
256
6
ByLayer
370
-1
48
1
60
0
100
AcDbLine
10
0
20
7.9375
30
0
11
0
21
-7.936296
31
0
39
0
210
0
220
0
230
1
0
LINE
5
62
100
AcDbEntity
8
SK1
62
256
6
ByLayer
370
-1
48
1
60
0
100
AcDbLine
10
-0.15
20
7.9375
30
0
11
-0.15
21
-7.9375
31
0
39
0
210
0
220
0
230
1
0
LINE
5
63
100
AcDbEntity
8
2
62
256
6
ByLayer
370
-1
48
1
60
1
100
AcDbLine
10
21.888795
20
0.5442
30
0
11
21.889682
21
0.543738
31
0
39
0
210
0
220
0
230
1
0
MTEXT
5
96
100
AcDbEntity
8
SK6
62
256
6
ByLayer
370
-1
48
1
60
0
100
AcDbMText
10
-44.293599
20
-16.412993
30
0
210
0
220
0
230
1
1
\W00.688;\fsimplex.shx,bigfont.shx;SDNCN 1616H 11 
40
3.5
41
0
44
1.084337
50
0
71
7
72
5
7
DEFAULT
0
DIMENSION
5
CA
100
AcDbEntity
8
2
62
256
6
ByLayer
370
-3
48
1
60
0
100
AcDbDimension
2
DimnDraft3D1
10
0.873148
20
11.484253
30
0
11
0.856381
21
0.697742
31
0
70
34
71
5
72
1
41
1
210
0
220
0
230
1
3
Standard
100
AcDb2LineAngularDimension
13
21.888795
23
2.856291
33
0
14
21.888795
24
24.236861
34
0
15
18.800525
25
2.151851
35
0
16
5.948629
26
-5.897747
36
0
40
0
0
DIMENSION
5
DF
100
AcDbEntity
8
SK2
62
256
6
ByLayer
370
-3
48
1
60
0
100
AcDbDimension
2
DimnDraft3D2
10
-89.211205
20
7.9375
30
0
11
-89.211205
21
-2.066447
31
0
70
32
71
5
72
1
41
1
210
0
220
0
230
1
3
Standard
100
AcDbAlignedDimension
13
-81.461205
23
-7.9375
33
0
14
-81.461205
24
7.9375
34
0
50
90
100
AcDbRotatedDimension
1001
ACAD
1000
DSTYLE
1002
{
1070
    74
1070
     0
1070
   279
1070
     0
1070
   172
1070
     1
1070
   173
1070
     1
1070
   340
1005
97
1070
    77
1070
     1
1070
    73
1070
     0
1070
   171
1070
     3
1070
   274
1070
     4
1070
   177
1070
     2
1070
   176
1070
     2
1070
   178
1070
     7
1070
    78
1070
     8
1070
    41
1041
3.175
1070
   147
1041
2.25
1070
    42
1041
2.0
1070
    44
1041
2.0
1070
   140
1041
4.5
1070
   343
1005
CB
1070
   344
1005
CB
1002
}
0
DIMENSION
5
ED
100
AcDbEntity
8
2
62
256
6
ByLayer
370
-3
48
1
60
0
100
AcDbDimension
2
DimnDraft3D3
10
49.138795
20
0.5442
30
0
11
49.138795
21
10.7992
31
0
70
32
71
5
72
1
41
1
210
0
220
0
230
1
3
Standard
100
AcDbAlignedDimension
13
2
23
-7.9375
33
0
14
23.888795
24
0.5442
34
0
50
90
100
AcDbRotatedDimension
1001
ACAD
1000
DSTYLE
1002
{
1070
    74
1070
     0
1070
   279
1070
     0
1070
   172
1070
     1
1070
   173
1070
     1
1070
   340
1005
97
1070
    77
1070
     1
1070
    73
1070
     0
1070
   171
1070
     3
1070
   274
1070
     4
1070
   177
1070
     2
1070
   176
1070
     2
1070
   178
1070
     7
1070
    78
1070
     8
1070
    41
1041
3.175
1070
   147
1041
2.25
1070
    42
1041
2.0
1070
    44
1041
2.0
1070
   140
1041
4.5
1070
   343
1005
CB
1070
   344
1005
CB
1002
}
0
DIMENSION
5
FB
100
AcDbEntity
8
SK2
62
256
6
ByLayer
370
-3
48
1
60
0
100
AcDbDimension
2
DimnDraft3D4
10
-79.461205
20
20.606291
30
0
11
-32.504626
21
20.606291
31
0
70
32
71
5
72
1
41
1
210
0
220
0
230
1
3
Standard
100
AcDbAlignedDimension
13
21.888795
23
2.856291
33
0
14
-79.461205
24
9.9375
34
0
50
0
100
AcDbRotatedDimension
1001
ACAD
1000
DSTYLE
1002
{
1070
   279
1070
     0
1070
   172
1070
     1
1070
   173
1070
     1
1070
   340
1005
97
1070
    77
1070
     1
1070
    73
1070
     0
1070
   171
1070
     3
1070
   274
1070
     4
1070
   177
1070
     2
1070
   176
1070
     2
1070
   178
1070
     7
1070
    78
1070
     8
1070
    41
1041
3.175
1070
   147
1041
2.25
1070
    42
1041
2.0
1070
    44
1041
2.0
1070
   140
1041
4.5
1070
   343
1005
CB
1070
   344
1005
CB
1002
}
0
ENDSEC
0
SECTION
2
OBJECTS
0
DICTIONARY
5
12b
330
0
100
AcDbDictionary
280
0
281
1
3
ACAD_GROUP
350
12c
3
ACAD_MLINESTYLE
350
12d
0
DICTIONARY
5
12c
330
0
100
AcDbDictionary
280
0
281
1
0
DICTIONARY
5
12d
330
0
100
AcDbDictionary
280
0
281
1
3
Standard
350
18
0
MLINESTYLE
5
18
330
12d
100
AcDbMlineStyle
2
Standard
70
0
3

62
256
51
90
52
90
71
2
49
-0.5
62
256
6
ByLayer
49
0.5
62
256
6
ByLayer
0
RASTERVARIABLES
5
11a
330

100
AcDbRasterVariables
90
0
70
1
71
1
72
1
0
ENDSEC
0
EOF
