0
SECTION
2
HEADER
9
$ACADVER
1
AC1015
9
$DWGCODEPAGE
3
ANSI_1252
9
$HANDSEED
5
139
9
$ANGBASE
50
0
9
$ANGDIR
70
0
9
$ATTMODE
70
1
9
$AUNITS
70
0
9
$AUPREC
70
0
9
$CECOLOR
62
256
9
$CELTSCALE
40
1
9
$CELTYPE
6
ByLayer
9
$CELWEIGHT
370
-1
9
$CLAYER
8
0
9
$CMLJUST
70
0
9
$CMLSCALE
40
1
9
$CMLSTYLE
2
Standard
9
$DIMSTYLE
2
Standard
9
$TEXTSIZE
40
0.2
9
$TEXTSTYLE
7
Standard
9
$LUNITS
70
2
9
$LUPREC
70
4
9
$EXTNAMES
290
1
9
$INSUNITS
70
4
9
$LTSCALE
40
1
9
$LWDISPLAY
290
0
9
$PDMODE
70
0
9
$PDSIZE
40
0
9
$PLINEGEN
70
0
0
ENDSEC
0
SECTION
2
CLASSES
0
CLASS
1
RASTERVARIABLES
2
AcDbRasterVariables
3
ISM
90
0
280
0
281
0
0
ENDSEC
0
SECTION
2
TABLES
0
TABLE
2
VPORT
5
12f
100
AcDbSymbolTable
0
VPORT
5
1
100
AcDbSymbolTableRecord
100
AcDbViewportTableRecord
2
*Active
70
0
10
0
20
0
11
1
21
1
12
-1
22
1
13
0
23
0
14
0.5
24
0.5
15
10
25
10
16
0
26
0
36
1
17
0
27
0
37
0
0
ENDTAB
0
TABLE
2
LTYPE
5
130
100
AcDbSymbolTable
0
LTYPE
5
14
100
AcDbSymbolTableRecord
100
AcDbLinetypeTableRecord
70
0
2
ByBlock
3

72
65
73
0
40
0
0
LTYPE
5
15
100
AcDbSymbolTableRecord
100
AcDbLinetypeTableRecord
70
0
2
ByLayer
3

72
65
73
0
40
0
0
LTYPE
5
16
100
AcDbSymbolTableRecord
100
AcDbLinetypeTableRecord
70
0
2
CONTINUOUS
3
Solid line
72
65
73
0
40
0
0
LTYPE
5
3B
100
AcDbSymbolTableRecord
100
AcDbLinetypeTableRecord
70
0
2
DASHED
3
__ __ __ __ __ __ __ __ __
72
65
73
2
40
25.72
49
12.86
74
0
49
-12.86
74
0
0
LTYPE
5
3C
100
AcDbSymbolTableRecord
100
AcDbLinetypeTableRecord
70
0
2
HIDDEN
3
_ _ _ _ _ _ _ _ _ _ _ _ _ _ _
72
65
73
2
40
0.5
49
0.25
74
0
49
-0.25
74
0
0
LTYPE
5
3D
100
AcDbSymbolTableRecord
100
AcDbLinetypeTableRecord
70
0
2
PHANTOM
3
____ _ _ ____ _ _ _____ _ _ ____
72
65
73
6
40
50.5
49
18
74
0
49
-6.5
74
0
49
6.5
74
0
49
-6.5
74
0
49
6.5
74
0
49
-6.5
74
0
0
LTYPE
5
3E
100
AcDbSymbolTableRecord
100
AcDbLinetypeTableRecord
70
0
2
CENTER
3
____ _ ____ _ ____ _ ____
72
65
73
4
40
47.5
49
22
74
0
49
-8.5
74
0
49
8.5
74
0
49
-8.5
74
0
0
LTYPE
5
3F
100
AcDbSymbolTableRecord
100
AcDbLinetypeTableRecord
70
0
2
DOT
3
.........................
72
65
73
2
40
10
49
0
74
0
49
-10
74
0
0
LTYPE
5
40
100
AcDbSymbolTableRecord
100
AcDbLinetypeTableRecord
70
0
2
DASHDOT
3
_._._._._._._._._._._._._._._._.
72
65
73
4
40
70
49
31
74
0
49
-13
74
0
49
13
74
0
49
-13
74
0
0
ENDTAB
0
TABLE
2
LAYER
5
131
100
AcDbSymbolTable
0
LAYER
5
10
100
AcDbSymbolTableRecord
100
AcDbLayerTableRecord
2
0
70
0
62
7
6
CONTINUOUS
290
1
370
-3
390
0
0
LAYER
5
44
100
AcDbSymbolTableRecord
100
AcDbLayerTableRecord
2
2
70
0
62
7
6
CONTINUOUS
290
1
370
-3
390
0
0
LAYER
5
48
100
AcDbSymbolTableRecord
100
AcDbLayerTableRecord
2
80
70
0
62
-6
6
CONTINUOUS
290
1
370
-3
390
0
0
LAYER
5
4A
100
AcDbSymbolTableRecord
100
AcDbLayerTableRecord
2
81
70
0
62
-3
6
CONTINUOUS
290
1
370
-3
390
0
0
LAYER
5
4F
100
AcDbSymbolTableRecord
100
AcDbLayerTableRecord
2
1
70
0
62
4
6
CONTINUOUS
290
1
370
-3
390
0
0
LAYER
5
11c
100
AcDbSymbolTableRecord
100
AcDbLayerTableRecord
2
SK2
70
0
62
7
6
CONTINUOUS
290
1
370
-3
390
0
0
LAYER
5
11d
100
AcDbSymbolTableRecord
100
AcDbLayerTableRecord
2
SK1
70
0
62
4
6
CONTINUOUS
290
1
370
-3
390
0
0
LAYER
5
11e
100
AcDbSymbolTableRecord
100
AcDbLayerTableRecord
2
SK6
70
0
62
5
6
CONTINUOUS
290
1
370
-3
390
0
0
ENDTAB
0
TABLE
2
STYLE
5
132
100
AcDbSymbolTable
0
STYLE
5
11
100
AcDbSymbolTableRecord
100
AcDbTextStyleTableRecord
2
Standard
3
txt
70
0
71
0
40
0
41
1
42
0
50
0
0
STYLE
5
99
100
AcDbSymbolTableRecord
100
AcDbTextStyleTableRecord
2
DEFAULT
3
simplex.shx
70
0
71
0
40
0
41
1
42
0
50
0
0
STYLE
5
BC
100
AcDbSymbolTableRecord
100
AcDbTextStyleTableRecord
2
DWGDirectTextStyle
3
SIMPLEX
70
0
71
0
40
0
41
1
42
0
50
0
0
ENDTAB
0
TABLE
2
DIMSTYLE
5
133
100
AcDbSymbolTable
100
AcDbDimStyleTable
0
DIMSTYLE
105
27
100
AcDbSymbolTableRecord
100
AcDbDimStyleTableRecord
2
Standard
70
0
3
<>
41
0.18
42
0.0625
44
0.18
140
0.18
147
0.09
73
0
74
0
77
1
271
2
275
0
278
52
280
0
340
11
0
ENDTAB
0
TABLE
2
VIEW
5
134
100
AcDbSymbolTable
0
ENDTAB
0
TABLE
2
UCS
5
135
100
AcDbSymbolTable
0
ENDTAB
0
TABLE
2
APPID
5
136
100
AcDbSymbolTable
0
APPID
5
12
100
AcDbSymbolTableRecord
100
AcDbRegAppTableRecord
2
ACAD
70
0
0
ENDTAB
0
TABLE
2
BLOCK_RECORD
5
137
100
AcDbSymbolTable
0
BLOCK_RECORD
5
1F
100
AcDbSymbolTableRecord
100
AcDbBlockTableRecord
2
*Model_Space
340
0
70
0
0
BLOCK_RECORD
5
1B
100
AcDbSymbolTableRecord
100
AcDbBlockTableRecord
2
*Paper_Space
340
0
70
0
0
BLOCK_RECORD
5
23
100
AcDbSymbolTableRecord
100
AcDbBlockTableRecord
2
*Paper_Space0
340
0
70
0
0
BLOCK_RECORD
5
BE
100
AcDbSymbolTableRecord
100
AcDbBlockTableRecord
2
DimnDraft3D1
340
0
70
0
0
BLOCK_RECORD
5
CC
100
AcDbSymbolTableRecord
100
AcDbBlockTableRecord
2
_CLOSED
340
0
70
0
0
BLOCK_RECORD
5
D3
100
AcDbSymbolTableRecord
100
AcDbBlockTableRecord
2
DimnDraft3D2
340
0
70
0
0
BLOCK_RECORD
5
E1
100
AcDbSymbolTableRecord
100
AcDbBlockTableRecord
2
DimnDraft3D3
340
0
70
0
0
BLOCK_RECORD
5
EF
100
AcDbSymbolTableRecord
100
AcDbBlockTableRecord
2
DimnDraft3D4
340
0
70
0
0
ENDTAB
0
ENDSEC
0
SECTION
2
BLOCKS
0
BLOCK
5
20
100
AcDbEntity
8
0
100
AcDbBlockBegin
2
*Model_Space
70
0
10
0
20
0
30
0
3
*Model_Space
0
ENDBLK
5
21
100
AcDbEntity
8
0
100
AcDbBlockEnd
0
BLOCK
5
1C
100
AcDbEntity
8
0
100
AcDbBlockBegin
2
*Paper_Space
70
0
10
0
20
0
30
0
3
*Paper_Space
0
ENDBLK
5
1D
100
AcDbEntity
8
0
100
AcDbBlockEnd
0
BLOCK
5
24
100
AcDbEntity
8
0
100
AcDbBlockBegin
2
*Paper_Space0
70
0
10
0
20
0
30
0
3
*Paper_Space0
0
ENDBLK
5
25
100
AcDbEntity
8
0
100
AcDbBlockEnd
0
BLOCK
5
C9
100
AcDbEntity
8
0
100
AcDbBlockBegin
2
DimnDraft3D1
70
0
10
0
20
0
30
0
3
DimnDraft3D1
0
MTEXT
5
BF
100
AcDbEntity
8
2
62
256
6
ByLayer
370
-1
48
1
60
0
100
AcDbMText
10
8.14996
20
20.767639
30
0
210
0
220
0
230
1
1
\W01.000;\fsimplex.shx,bigfont.shx;95%%d0' 
40
4.5
41
0
44
1.084337
50
47.5
71
7
72
5
7
DEFAULT
0
LINE
5
C0
100
AcDbEntity
8
2
62
256
6
ByLayer
370
-1
48
1
60
0
100
AcDbLine
10
21.680115
20
17.4125
30
0
11
21.680115
21
29.904368
31
0
39
0
210
0
220
0
230
1
0
LINE
5
C1
100
AcDbEntity
8
2
62
256
6
ByLayer
370
-1
48
1
60
0
100
AcDbLine
10
17.828601
20
15.148012
30
0
11
7.315593
21
14.228243
31
0
39
0
210
0
220
0
230
1
0
ARC
5
C2
100
AcDbEntity
8
2
62
256
6
ByLayer
370
-1
48
1
60
0
100
AcDbCircle
39
0
10
21.680115
20
15.484976
30
0
40
12.4193920050033
210
0
220
0
230
1
100
AcDbArc
50
90
51
185
0
LINE
5
C3
100
AcDbEntity
8
2
62
256
6
ByLayer
370
-1
48
1
60
0
100
AcDbLine
10
21.680115
20
27.904368
30
0
11
18.538082
21
27.285525
31
0
39
0
210
0
220
0
230
1
0
LINE
5
C4
100
AcDbEntity
8
2
62
256
6
ByLayer
370
-1
48
1
60
0
100
AcDbLine
10
21.680115
20
27.904368
30
0
11
18.484973
21
28.11983
31
0
39
0
210
0
220
0
230
1
0
LINE
5
C5
100
AcDbEntity
8
2
62
256
6
ByLayer
370
-1
48
1
60
0
100
AcDbLine
10
18.538082
20
27.285525
30
0
11
18.484973
21
28.11983
31
0
39
0
210
0
220
0
230
1
0
LINE
5
C6
100
AcDbEntity
8
2
62
256
6
ByLayer
370
-1
48
1
60
0
100
AcDbLine
10
9.307983
20
14.402555
30
0
11
8.814866
21
17.566756
31
0
39
0
210
0
220
0
230
1
0
LINE
5
C7
100
AcDbEntity
8
2
62
256
6
ByLayer
370
-1
48
1
60
0
100
AcDbLine
10
9.307983
20
14.402555
30
0
11
9.650625
21
17.58657
31
0
39
0
210
0
220
0
230
1
0
LINE
5
C8
100
AcDbEntity
8
2
62
256
6
ByLayer
370
-1
48
1
60
0
100
AcDbLine
10
8.814866
20
17.566756
30
0
11
9.650625
21
17.58657
31
0
39
0
210
0
220
0
230
1
0
ENDBLK
5
CA
100
AcDbEntity
8
0
100
AcDbBlockEnd
0
BLOCK
5
CD
100
AcDbEntity
8
0
100
AcDbBlockBegin
2
_CLOSED
70
0
10
0
20
0
30
0
3
_CLOSED
0
LINE
5
CF
100
AcDbEntity
8
0
62
256
6
ByLayer
370
-2
48
1
60
0
100
AcDbLine
10
-1
20
0.166667
30
0
11
0
21
0
31
0
39
0
210
0
220
0
230
1
0
LINE
5
D0
100
AcDbEntity
8
0
62
256
6
ByLayer
370
-2
48
1
60
0
100
AcDbLine
10
0
20
0
30
0
11
-1
21
-0.166667
31
0
39
0
210
0
220
0
230
1
0
LINE
5
D1
100
AcDbEntity
8
0
62
256
6
ByLayer
370
-2
48
1
60
0
100
AcDbLine
10
-1
20
0.166667
30
0
11
-1
21
-0.166667
31
0
39
0
210
0
220
0
230
1
0
LINE
5
D2
100
AcDbEntity
8
0
62
256
6
ByLayer
370
-2
48
1
60
0
100
AcDbLine
10
0
20
0
30
0
11
-1
21
0
31
0
39
0
210
0
220
0
230
1
0
ENDBLK
5
CE
100
AcDbEntity
8
0
100
AcDbBlockEnd
0
BLOCK
5
DE
100
AcDbEntity
8
0
100
AcDbBlockBegin
2
DimnDraft3D2
70
0
10
0
20
0
30
0
3
DimnDraft3D2
0
MTEXT
5
D4
100
AcDbEntity
8
SK2
62
256
6
ByLayer
370
-1
48
1
60
0
100
AcDbMText
10
-115.544885
20
-1.503947
30
0
210
0
220
0
230
1
1
\W01.000;\fsimplex.shx,bigfont.shx;20 
40
4.5
41
0
44
1.084337
50
90
71
7
72
5
7
DEFAULT
0
LINE
5
D5
100
AcDbEntity
8
SK2
62
256
6
ByLayer
370
-1
48
1
60
0
100
AcDbLine
10
-106.669885
20
-9.9375
30
0
11
-116.419885
21
-9.9375
31
0
39
0
210
0
220
0
230
1
0
LINE
5
D6
100
AcDbEntity
8
SK2
62
256
6
ByLayer
370
-1
48
1
60
0
100
AcDbLine
10
-106.669885
20
9.9375
30
0
11
-116.419885
21
9.9375
31
0
39
0
210
0
220
0
230
1
0
LINE
5
D7
100
AcDbEntity
8
SK2
62
256
6
ByLayer
370
-1
48
1
60
0
100
AcDbLine
10
-114.419885
20
-9.9375
30
0
11
-114.419885
21
9.9375
31
0
39
0
210
0
220
0
230
1
0
LINE
5
D8
100
AcDbEntity
8
SK2
62
256
6
ByLayer
370
-1
48
1
60
0
100
AcDbLine
10
-114.419885
20
-9.9375
30
0
11
-114.837881
21
-6.762502
31
0
39
0
210
0
220
0
230
1
0
LINE
5
D9
100
AcDbEntity
8
SK2
62
256
6
ByLayer
370
-1
48
1
60
0
100
AcDbLine
10
-114.419885
20
-9.9375
30
0
11
-114.001888
21
-6.762498
31
0
39
0
210
0
220
0
230
1
0
LINE
5
DA
100
AcDbEntity
8
SK2
62
256
6
ByLayer
370
-1
48
1
60
0
100
AcDbLine
10
-114.837881
20
-6.762502
30
0
11
-114.001888
21
-6.762498
31
0
39
0
210
0
220
0
230
1
0
LINE
5
DB
100
AcDbEntity
8
SK2
62
256
6
ByLayer
370
-1
48
1
60
0
100
AcDbLine
10
-114.419885
20
9.9375
30
0
11
-114.001888
21
6.762502
31
0
39
0
210
0
220
0
230
1
0
LINE
5
DC
100
AcDbEntity
8
SK2
62
256
6
ByLayer
370
-1
48
1
60
0
100
AcDbLine
10
-114.419885
20
9.9375
30
0
11
-114.837881
21
6.762498
31
0
39
0
210
0
220
0
230
1
0
LINE
5
DD
100
AcDbEntity
8
SK2
62
256
6
ByLayer
370
-1
48
1
60
0
100
AcDbLine
10
-114.001888
20
6.762502
30
0
11
-114.837881
21
6.762498
31
0
39
0
210
0
220
0
230
1
0
ENDBLK
5
DF
100
AcDbEntity
8
0
100
AcDbBlockEnd
0
BLOCK
5
EC
100
AcDbEntity
8
0
100
AcDbBlockBegin
2
DimnDraft3D3
70
0
10
0
20
0
30
0
3
DimnDraft3D3
0
MTEXT
5
E2
100
AcDbEntity
8
2
62
256
6
ByLayer
370
-1
48
1
60
0
100
AcDbMText
10
47.805115
20
1.233553
30
0
210
0
220
0
230
1
1
\W01.000;\fsimplex.shx,bigfont.shx;25 
40
4.5
41
0
44
1.084337
50
90
71
7
72
5
7
DEFAULT
0
LINE
5
E3
100
AcDbEntity
8
2
62
256
6
ByLayer
370
-1
48
1
60
0
100
AcDbLine
10
2
20
-9.9375
30
0
11
50.930115
21
-9.9375
31
0
39
0
210
0
220
0
230
1
0
LINE
5
E4
100
AcDbEntity
8
2
62
256
6
ByLayer
370
-1
48
1
60
0
100
AcDbLine
10
23.680115
20
15.4125
30
0
11
50.930115
21
15.4125
31
0
39
0
210
0
220
0
230
1
0
LINE
5
E5
100
AcDbEntity
8
2
62
256
6
ByLayer
370
-1
48
1
60
0
100
AcDbLine
10
48.930115
20
-9.9375
30
0
11
48.930115
21
15.4125
31
0
39
0
210
0
220
0
230
1
0
LINE
5
E6
100
AcDbEntity
8
2
62
256
6
ByLayer
370
-1
48
1
60
0
100
AcDbLine
10
48.930115
20
-9.9375
30
0
11
48.512119
21
-6.762502
31
0
39
0
210
0
220
0
230
1
0
LINE
5
E7
100
AcDbEntity
8
2
62
256
6
ByLayer
370
-1
48
1
60
0
100
AcDbLine
10
48.930115
20
-9.9375
30
0
11
49.348112
21
-6.762498
31
0
39
0
210
0
220
0
230
1
0
LINE
5
E8
100
AcDbEntity
8
2
62
256
6
ByLayer
370
-1
48
1
60
0
100
AcDbLine
10
48.512119
20
-6.762502
30
0
11
49.348112
21
-6.762498
31
0
39
0
210
0
220
0
230
1
0
LINE
5
E9
100
AcDbEntity
8
2
62
256
6
ByLayer
370
-1
48
1
60
0
100
AcDbLine
10
48.930115
20
15.4125
30
0
11
49.348112
21
12.237502
31
0
39
0
210
0
220
0
230
1
0
LINE
5
EA
100
AcDbEntity
8
2
62
256
6
ByLayer
370
-1
48
1
60
0
100
AcDbLine
10
48.930115
20
15.4125
30
0
11
48.512119
21
12.237498
31
0
39
0
210
0
220
0
230
1
0
LINE
5
EB
100
AcDbEntity
8
2
62
256
6
ByLayer
370
-1
48
1
60
0
100
AcDbLine
10
49.348112
20
12.237502
30
0
11
48.512119
21
12.237498
31
0
39
0
210
0
220
0
230
1
0
ENDBLK
5
ED
100
AcDbEntity
8
0
100
AcDbBlockEnd
0
BLOCK
5
FA
100
AcDbEntity
8
0
100
AcDbBlockBegin
2
DimnDraft3D4
70
0
10
0
20
0
30
0
3
DimnDraft3D4
0
MTEXT
5
F0
100
AcDbEntity
8
SK2
62
256
6
ByLayer
370
-1
48
1
60
0
100
AcDbMText
10
-44.088306
20
36.2875
30
0
210
0
220
0
230
1
1
\W01.000;\fsimplex.shx,bigfont.shx;125 
40
4.5
41
0
44
1.084337
50
0
71
7
72
5
7
DEFAULT
0
LINE
5
F1
100
AcDbEntity
8
SK2
62
256
6
ByLayer
370
-1
48
1
60
0
100
AcDbLine
10
21.680115
20
17.4125
30
0
11
21.680115
21
37.1625
31
0
39
0
210
0
220
0
230
1
0
LINE
5
F2
100
AcDbEntity
8
SK2
62
256
6
ByLayer
370
-1
48
1
60
0
100
AcDbLine
10
-104.669885
20
11.9375
30
0
11
-104.669885
21
37.1625
31
0
39
0
210
0
220
0
230
1
0
LINE
5
F3
100
AcDbEntity
8
SK2
62
256
6
ByLayer
370
-1
48
1
60
0
100
AcDbLine
10
21.680115
20
35.1625
30
0
11
-104.669885
21
35.1625
31
0
39
0
210
0
220
0
230
1
0
LINE
5
F4
100
AcDbEntity
8
SK2
62
256
6
ByLayer
370
-1
48
1
60
0
100
AcDbLine
10
21.680115
20
35.1625
30
0
11
18.505117
21
34.744503
31
0
39
0
210
0
220
0
230
1
0
LINE
5
F5
100
AcDbEntity
8
SK2
62
256
6
ByLayer
370
-1
48
1
60
0
100
AcDbLine
10
21.680115
20
35.1625
30
0
11
18.505114
21
35.580497
31
0
39
0
210
0
220
0
230
1
0
LINE
5
F6
100
AcDbEntity
8
SK2
62
256
6
ByLayer
370
-1
48
1
60
0
100
AcDbLine
10
18.505117
20
34.744503
30
0
11
18.505114
21
35.580497
31
0
39
0
210
0
220
0
230
1
0
LINE
5
F7
100
AcDbEntity
8
SK2
62
256
6
ByLayer
370
-1
48
1
60
0
100
AcDbLine
10
-104.669885
20
35.1625
30
0
11
-101.494886
21
35.580497
31
0
39
0
210
0
220
0
230
1
0
LINE
5
F8
100
AcDbEntity
8
SK2
62
256
6
ByLayer
370
-1
48
1
60
0
100
AcDbLine
10
-104.669885
20
35.1625
30
0
11
-101.494883
21
34.744503
31
0
39
0
210
0
220
0
230
1
0
LINE
5
F9
100
AcDbEntity
8
SK2
62
256
6
ByLayer
370
-1
48
1
60
0
100
AcDbLine
10
-101.494886
20
35.580497
30
0
11
-101.494883
21
34.744503
31
0
39
0
210
0
220
0
230
1
0
ENDBLK
5
FB
100
AcDbEntity
8
0
100
AcDbBlockEnd
0
ENDSEC
0
SECTION
2
ENTITIES
0
ARC
5
66
100
AcDbEntity
8
1
62
256
6
ByLayer
370
-1
48
1
60
0
100
AcDbCircle
39
0
10
9.724356
20
2.418924
30
0
40
1.5
210
0
220
0
230
1
100
AcDbArc
50
267.547698
51
275.25
0
ARC
5
67
100
AcDbEntity
8
1
62
256
6
ByLayer
370
-1
48
1
60
0
100
AcDbCircle
39
0
10
9.933032
20
2.438099
30
0
40
1.78188901006696
210
0
220
0
230
1
100
AcDbArc
50
275.25
51
340.935246
0
ARC
5
68
100
AcDbEntity
8
1
62
256
6
ByLayer
370
-1
48
1
60
0
100
AcDbCircle
39
0
10
-8.480891
20
2.213275
30
0
40
1.74999999999999
210
0
220
0
230
-1
100
AcDbArc
50
196.070774
51
227.633054
0
ARC
5
69
100
AcDbEntity
8
1
62
256
6
ByLayer
370
-1
48
1
60
0
100
AcDbCircle
39
0
10
8.480891
20
2.213275
30
0
40
1.74999999999999
210
0
220
0
230
1
100
AcDbArc
50
106.073565
51
298.93715
0
ARC
5
6A
100
AcDbEntity
8
1
62
256
6
ByLayer
370
-1
48
1
60
0
100
AcDbCircle
39
0
10
9.724356
20
2.418924
30
0
40
1.78188901006696
210
0
220
0
230
1
100
AcDbArc
50
257.135602
51
275.25
0
ARC
5
6B
100
AcDbEntity
8
1
62
256
6
ByLayer
370
-1
48
1
60
0
100
AcDbCircle
39
0
10
9.933032
20
2.438099
30
0
40
1.5
210
0
220
0
230
1
100
AcDbArc
50
275.25
51
336.026651
0
ARC
5
6C
100
AcDbEntity
8
1
62
256
6
ByLayer
370
-1
48
1
60
0
100
AcDbCircle
39
0
10
14.774141
20
8.506526
30
0
40
1.2065
210
0
220
0
230
1
100
AcDbArc
50
195.079943
51
254.920057
0
ARC
5
6D
100
AcDbEntity
8
1
62
256
6
ByLayer
370
-1
48
1
60
0
100
AcDbCircle
39
0
10
-14.774141
20
8.506526
30
0
40
1.67649999999999
210
0
220
0
230
-1
100
AcDbArc
50
135
51
194.840113
0
ARC
5
6E
100
AcDbEntity
8
1
62
256
6
ByLayer
370
-1
48
1
60
0
100
AcDbCircle
39
0
10
14.774141
20
8.506526
30
0
40
1.2065
210
0
220
0
230
1
100
AcDbArc
50
74.920057
51
131.044721
0
ARC
5
71
100
AcDbEntity
8
1
62
256
6
ByLayer
370
-1
48
1
60
0
100
AcDbCircle
39
0
10
-19.902675
20
3.377991
30
0
40
0.794000000000017
210
0
220
0
230
-1
100
AcDbArc
50
185
51
265
0
ARC
5
72
100
AcDbEntity
8
1
62
256
6
ByLayer
370
-1
48
1
60
0
100
AcDbCircle
39
0
10
-9.645607
20
13.63506
30
0
40
0.794000000000041
210
0
220
0
230
-1
100
AcDbArc
50
5
51
85
0
ARC
5
73
100
AcDbEntity
8
1
62
256
6
ByLayer
370
-1
48
1
60
0
100
AcDbCircle
39
0
10
-8.662192
20
2.394576
30
0
40
0.793999999999998
210
0
220
0
230
-1
100
AcDbArc
50
265
51
5
0
ARC
5
76
100
AcDbEntity
8
1
62
256
6
ByLayer
370
-1
48
1
60
0
100
AcDbCircle
39
0
10
14.774141
20
8.506526
30
0
40
1.2065
210
0
220
0
230
1
100
AcDbArc
50
254.920057
51
311.044721
0
ARC
5
77
100
AcDbEntity
8
1
62
256
6
ByLayer
370
-1
48
1
60
0
100
AcDbCircle
39
0
10
-14.774141
20
8.506526
30
0
40
1.67649999999999
210
0
220
0
230
-1
100
AcDbArc
50
75.159887
51
135
0
ARC
5
78
100
AcDbEntity
8
1
62
256
6
ByLayer
370
-1
48
1
60
0
100
AcDbCircle
39
0
10
-14.774141
20
8.506526
30
0
40
1.2065
210
0
220
0
230
-1
100
AcDbArc
50
41.044721
51
48.955279
0
ARC
5
79
100
AcDbEntity
8
1
62
256
6
ByLayer
370
-1
48
1
60
0
100
AcDbCircle
39
0
10
-14.774141
20
8.506526
30
0
40
1.67649999999999
210
0
220
0
230
-1
100
AcDbArc
50
255.159887
51
315
0
ARC
5
7B
100
AcDbEntity
8
1
62
256
6
ByLayer
370
-1
48
1
60
0
100
AcDbCircle
39
0
10
14.774141
20
8.506526
30
0
40
1.2065
210
0
220
0
230
1
100
AcDbArc
50
138.955279
51
195.079943
0
ARC
5
7C
100
AcDbEntity
8
1
62
256
6
ByLayer
370
-1
48
1
60
0
100
AcDbCircle
39
0
10
-14.774141
20
8.506526
30
0
40
1.2065
210
0
220
0
230
-1
100
AcDbArc
50
221.044721
51
228.955279
0
ARC
5
7D
100
AcDbEntity
8
1
62
256
6
ByLayer
370
-1
48
1
60
0
100
AcDbCircle
39
0
10
14.774141
20
8.506526
30
0
40
1.2065
210
0
220
0
230
1
100
AcDbArc
50
318.955279
51
15.079943
0
ARC
5
7E
100
AcDbEntity
8
1
62
256
6
ByLayer
370
-1
48
1
60
0
100
AcDbCircle
39
0
10
-14.774141
20
8.506526
30
0
40
1.67649999999999
210
0
220
0
230
-1
100
AcDbArc
50
315
51
14.840113
0
ARC
5
7F
100
AcDbEntity
8
1
62
256
6
ByLayer
370
-1
48
1
60
0
100
AcDbCircle
39
0
10
-14.774141
20
8.506526
30
0
40
1.67649999999999
210
0
220
0
230
-1
100
AcDbArc
50
194.840113
51
255.159887
0
ARC
5
80
100
AcDbEntity
8
1
62
256
6
ByLayer
370
-1
48
1
60
0
100
AcDbCircle
39
0
10
-14.774141
20
8.506526
30
0
40
1.67649999999999
210
0
220
0
230
-1
100
AcDbArc
50
14.840113
51
75.159887
0
ARC
5
81
100
AcDbEntity
8
1
62
256
6
ByLayer
370
-1
48
1
60
0
100
AcDbCircle
39
0
10
14.774141
20
8.506526
30
0
40
1.2065
210
0
220
0
230
1
100
AcDbArc
50
15.079943
51
74.920057
0
ARC
5
82
100
AcDbEntity
8
1
62
256
6
ByLayer
370
-1
48
1
60
0
100
AcDbCircle
39
0
10
-20.88609
20
14.618475
30
0
40
0.794000000000035
210
0
220
0
230
-1
100
AcDbArc
50
85
51
185
0
CIRCLE
5
6F
100
AcDbEntity
8
1
62
256
6
ByLayer
370
-1
48
1
60
0
100
AcDbCircle
10
-14.774141
20
8.506526
30
0
40
3.425
39
0
210
0
220
0
230
-1
0
CIRCLE
5
70
100
AcDbEntity
8
1
62
256
6
ByLayer
370
-1
48
1
60
0
100
AcDbCircle
10
-14.774141
20
8.506526
30
0
40
2.4
39
0
210
0
220
0
230
-1
0
CIRCLE
5
74
100
AcDbEntity
8
1
62
256
6
ByLayer
370
-1
48
1
60
0
100
AcDbCircle
10
-14.774141
20
8.506526
30
0
40
4.00697067753277
39
0
210
0
220
0
230
-1
0
CIRCLE
5
75
100
AcDbEntity
8
1
62
256
6
ByLayer
370
-1
48
1
60
0
100
AcDbCircle
10
-14.774141
20
8.506526
30
0
40
4.07132534818238
39
0
210
0
220
0
230
-1
0
CIRCLE
5
7A
100
AcDbEntity
8
1
62
256
6
ByLayer
370
-1
48
1
60
0
100
AcDbCircle
10
14.774141
20
8.506526
30
0
40
3.93651081363663
39
0
210
0
220
0
230
1
0
POINT
5
41
100
AcDbEntity
8
SK2
62
256
6
ByLayer
370
-1
48
1
60
0
100
AcDbPoint
10
21.680115
20
15.4125
30
0
39
0
210
0
220
0
230
1
50
360
0
POINT
5
43
100
AcDbEntity
8
2
62
256
6
ByLayer
370
-1
48
1
60
0
100
AcDbPoint
10
21.680115
20
15.4125
30
0
39
0
210
0
220
0
230
1
50
360
0
POINT
5
45
100
AcDbEntity
8
SK2
62
256
6
ByLayer
370
-1
48
1
60
0
100
AcDbPoint
10
21.680115
20
15.4125
30
0
39
0
210
0
220
0
230
1
50
360
0
POINT
5
46
100
AcDbEntity
8
SK2
62
256
6
ByLayer
370
-1
48
1
60
0
100
AcDbPoint
10
21.680115
20
15.4125
30
0
39
0
210
0
220
0
230
1
50
360
0
POINT
5
47
100
AcDbEntity
8
80
62
256
6
ByLayer
370
-1
48
1
60
0
100
AcDbPoint
10
0
20
0
30
0
39
0
210
0
220
0
230
1
50
360
0
POINT
5
49
100
AcDbEntity
8
81
62
256
6
ByLayer
370
-1
48
1
60
0
100
AcDbPoint
10
21.680115
20
15.4125
30
0
39
0
210
0
220
0
230
1
50
360
0
POINT
5
4B
100
AcDbEntity
8
SK2
62
256
6
ByLayer
370
-1
48
1
60
0
100
AcDbPoint
10
21.680115
20
15.4125
30
0
39
0
210
0
220
0
230
1
50
360
0
SPLINE
5
83
100
AcDbEntity
8
1
62
256
6
ByLayer
370
-1
48
1
60
0
100
AcDbSpline
70
4
71
3
72
8
73
4
40
0
40
0
40
0
40
0
40
1
40
1
40
1
40
1
41
1
10
9.66017400426546
20
0.92029794412872
30
0
41
1
10
9.56162614154232
20
0.830415581139562
30
0
41
1
10
9.45089098711651
20
0.749910295595441
30
0
41
1
10
9.32762793329903
20
0.681761117691792
30
0
0
SPLINE
5
84
100
AcDbEntity
8
1
62
256
6
ByLayer
370
-1
48
1
60
0
100
AcDbSpline
70
4
71
3
72
16
73
12
40
0
40
0
40
0
40
0
40
0.0629997311900649
40
0.0629997311900649
40
0.285872777163764
40
0.285872777163764
40
0.511544652680481
40
0.511544652680481
40
0.751675359283802
40
0.751675359283802
40
1
40
1
40
1
40
1
41
1
10
15.9596054253084
20
9.69199021040961
30
0
41
1
10
15.9536458538267
20
9.69794978189128
30
0
41
1
10
15.9474207426288
20
9.70365744908636
30
0
41
1
10
15.918316596816
20
9.72811186154186
30
0
41
1
10
15.8924534216196
20
9.74378189716921
30
0
41
1
10
15.8383212950186
20
9.76636736516804
30
0
41
1
10
15.809346345527
20
9.77347973432401
30
0
41
1
10
15.7505092894806
20
9.77908874184584
30
0
41
1
10
15.719975509332
20
9.77710624934065
30
0
41
1
10
15.6616327979049
20
9.7644664275756
30
0
41
1
10
15.6332894975501
20
9.75340122084739
30
0
41
1
10
15.6078395865546
20
9.73880266227485
30
0
0
SPLINE
5
85
100
AcDbEntity
8
1
62
256
6
ByLayer
370
-1
48
1
60
0
100
AcDbSpline
70
4
71
3
72
18
73
14
40
0
40
0
40
0
40
0
40
0.212474032872467
40
0.212474032872467
40
0.386603697879174
40
0.386603697879174
40
0.562415073202714
40
0.562415073202714
40
0.715377731647726
40
0.715377731647726
40
0.91823536877949
40
0.91823536877949
40
1
40
1
40
1
40
1
41
1
10
14.6724168262876
20
9.99084783752457
30
0
41
1
10
14.7079012568602
20
9.92938873901866
30
0
41
1
10
14.7542676998283
20
9.8714467629157
30
0
41
1
10
14.8561073390597
20
9.78073103150518
30
0
41
1
10
14.9096832314441
20
9.74439899134947
30
0
41
1
10
15.0265104083428
20
9.68791985379278
30
0
41
1
10
15.0916641119418
20
9.66726628221087
30
0
41
1
10
15.2132469063242
20
9.64751342611078
30
0
41
1
10
15.2711449636694
20
9.64563972413353
30
0
41
1
10
15.3992174001504
20
9.65684654271428
30
0
41
1
10
15.4694794894143
20
9.67495331229867
30
0
41
1
10
15.5588980231191
20
9.71265292513652
30
0
41
1
10
15.5838947365775
20
9.72506743565796
30
0
41
1
10
15.6078395865546
20
9.73880266227485
30
0
0
SPLINE
5
86
100
AcDbEntity
8
1
62
256
6
ByLayer
370
-1
48
1
60
0
100
AcDbSpline
70
4
71
3
72
14
73
10
40
0
40
0
40
0
40
0
40
0.283903408666408
40
0.283903408666408
40
0.570234175542268
40
0.570234175542268
40
0.829405958796925
40
0.829405958796925
40
1
40
1
40
1
40
1
41
1
10
16.0064178771736
20
9.34022437165584
30
0
41
1
10
16.0230961896507
20
9.36929995237057
30
0
41
1
10
16.0351676282493
20
9.40223641087755
30
0
41
1
10
16.0468821263464
20
9.47120899055957
30
0
41
1
10
16.046537805029
20
9.5083479212698
30
0
41
1
10
16.0324682767741
20
9.57683265139809
30
0
41
1
10
16.0197437172326
20
9.60941566087263
30
0
41
1
10
15.9899734682122
20
9.65779363888072
30
0
41
1
10
15.9756819390188
20
9.67591369669918
30
0
41
1
10
15.9596054253084
20
9.69199021040961
30
0
0
SPLINE
5
87
100
AcDbEntity
8
1
62
256
6
ByLayer
370
-1
48
1
60
0
100
AcDbSpline
70
4
71
3
72
14
73
10
40
0
40
0
40
0
40
0
40
0.283482543589507
40
0.283482543589507
40
0.569866164960777
40
0.569866164960777
40
0.829080366665775
40
0.829080366665775
40
1
40
1
40
1
40
1
41
1
10
14.8758649870105
20
7.02220354597611
30
0
41
1
10
14.8926003084548
20
6.99321793869501
30
0
41
1
10
14.9149708315237
20
6.96627030873219
30
0
41
1
10
14.9686586882657
20
6.921491692529
30
0
41
1
10
15.000937613311
20
6.90311122010056
30
0
41
1
10
15.0672174821684
20
6.88083309905906
30
0
41
1
10
15.1017846394983
20
6.87544784390121
30
0
41
1
10
15.1586185391001
20
6.87685808728134
30
0
41
1
10
15.1815113607101
20
6.88011232506548
30
0
41
1
10
15.2035304099979
20
6.88594650380122
30
0
0
SPLINE
5
88
100
AcDbEntity
8
1
62
256
6
ByLayer
370
-1
48
1
60
0
100
AcDbSpline
70
4
71
3
72
14
73
10
40
0
40
0
40
0
40
0
40
0.283903408666466
40
0.283903408666466
40
0.570234175542329
40
0.570234175542329
40
0.829405958797001
40
0.829405958797001
40
1
40
1
40
1
40
1
41
1
10
13.5418639361246
20
7.67282701184487
30
0
41
1
10
13.5251856236476
20
7.64375143113014
30
0
41
1
10
13.5131141850489
20
7.61081497262313
30
0
41
1
10
13.5013996869518
20
7.54184239294111
30
0
41
1
10
13.5017440082692
20
7.50470346223088
30
0
41
1
10
13.5158135365241
20
7.43621873210262
30
0
41
1
10
13.5285380960656
20
7.40363572262805
30
0
41
1
10
13.5583083450861
20
7.35525774461999
30
0
41
1
10
13.5725998742794
20
7.33713768680153
30
0
41
1
10
13.5886763879898
20
7.32106117309109
30
0
0
SPLINE
5
89
100
AcDbEntity
8
1
62
256
6
ByLayer
370
-1
48
1
60
0
100
AcDbSpline
70
4
71
3
72
12
73
8
40
0
40
0
40
0
40
0
40
0.495924969245257
40
0.495924969245257
40
0.900362445266645
40
0.900362445266645
40
1
40
1
40
1
40
1
41
1
10
13.437533893885
20
9.15312238309568
30
0
41
1
10
13.5088771108777
20
9.15270408078408
30
0
41
1
10
13.5826709140985
20
9.16357155306113
30
0
41
1
10
13.7127067812573
20
9.20598152858855
30
0
41
1
10
13.7710869143188
20
9.23396870664979
30
0
41
1
10
13.8381910846696
20
9.27916600705916
30
0
41
1
10
13.851360705824
20
9.28872718857173
30
0
41
1
10
13.8642018976823
20
9.29877139225022
30
0
0
SPLINE
5
8A
100
AcDbEntity
8
1
62
256
6
ByLayer
370
-1
48
1
60
0
100
AcDbSpline
70
4
71
3
72
12
73
8
40
0
40
0
40
0
40
0
40
0.495924969245326
40
0.495924969245326
40
0.900362445241132
40
0.900362445241132
40
1
40
1
40
1
40
1
41
1
10
16.1107479194133
20
7.85992900040503
30
0
41
1
10
16.0394047024205
20
7.8603473027166
30
0
41
1
10
15.9656108991998
20
7.84947983043958
30
0
41
1
10
15.8355750320446
20
7.80706985491332
30
0
41
1
10
15.7771948989867
20
7.77908267685444
30
0
41
1
10
15.7100907286352
20
7.73388537644638
30
0
41
1
10
15.6969211074774
20
7.72432419493154
30
0
41
1
10
15.684079915616
20
7.71427999125055
30
0
0
SPLINE
5
8B
100
AcDbEntity
8
1
62
256
6
ByLayer
370
-1
48
1
60
0
100
AcDbSpline
70
4
71
3
72
16
73
12
40
0
40
0
40
0
40
0
40
0.0621039197212472
40
0.0621039197212472
40
0.282872737560688
40
0.282872737560688
40
0.506396836331509
40
0.506396836331509
40
0.744229103370204
40
0.744229103370204
40
1
40
1
40
1
40
1
41
1
10
15.2035304099979
20
6.88594650380122
30
0
41
1
10
15.2116385190716
20
6.88809483259266
30
0
41
1
10
15.2196629982649
20
6.89059590339903
30
0
41
1
10
15.2553976877013
20
6.90344581057698
30
0
41
1
10
15.2819476529733
20
6.91792474075714
30
0
41
1
10
15.3286873603462
20
6.95336341838347
30
0
41
1
10
15.3494028281322
20
6.97483399363776
30
0
41
1
10
15.3838313577503
20
7.02287249086967
30
0
41
1
10
15.3974684369546
20
7.05026168830111
30
0
41
1
10
15.4162406945496
20
7.10817448795973
30
0
41
1
10
15.420916132087
20
7.13946893927712
30
0
41
1
10
15.4207375979944
20
7.16991867898622
30
0
0
SPLINE
5
8C
100
AcDbEntity
8
1
62
256
6
ByLayer
370
-1
48
1
60
0
100
AcDbSpline
70
4
71
3
72
14
73
10
40
0
40
0
40
0
40
0
40
0.28237798804793
40
0.28237798804793
40
0.567084253766332
40
0.567084253766332
40
0.824684854618519
40
0.824684854618519
40
1
40
1
40
1
40
1
41
1
10
16.1107479194133
20
7.859929000405
30
0
41
1
10
16.1443640799509
20
7.85973190083126
30
0
41
1
10
16.1790675825524
20
7.86547962343812
30
0
41
1
10
16.2450084371877
20
7.88937573208727
30
0
41
1
10
16.277216099611
20
7.90805547626817
30
0
41
1
10
16.329932757717
20
7.95423949941036
30
0
41
1
10
16.3520205426706
20
7.9814791874692
30
0
41
1
10
16.3797707102731
20
8.0321003326103
30
0
41
1
10
16.3886808273068
20
8.05434310471733
30
0
41
1
10
16.3947200945982
20
8.07713618840148
30
0
0
SPLINE
5
8D
100
AcDbEntity
8
1
62
256
6
ByLayer
370
-1
48
1
60
0
100
AcDbSpline
70
4
71
3
72
16
73
12
40
0
40
0
40
0
40
0
40
0.0570946626181035
40
0.0570946626181035
40
0.280051745717093
40
0.280051745717093
40
0.505470715177391
40
0.505470715177391
40
0.745074291066772
40
0.745074291066772
40
1
40
1
40
1
40
1
41
1
10
16.3947200945982
20
8.07713618840148
30
0
41
1
10
16.3966777124386
20
8.08452452627492
30
0
41
1
10
16.3983464329627
20
8.09199685717925
30
0
41
1
10
16.4050324524054
20
8.12864044380945
30
0
41
1
10
16.4058298506121
20
8.15889813096197
30
0
41
1
10
16.3986128444391
20
8.21712644119563
30
0
41
1
10
16.3904323576417
20
8.24581264737918
30
0
41
1
10
16.3661609635188
20
8.29966030498136
30
0
41
1
10
16.3493296954234
20
8.32517389190718
30
0
41
1
10
16.3089246350044
20
8.37018498796832
30
0
41
1
10
16.2845333074294
20
8.38974951696738
30
0
41
1
10
16.2584630524233
20
8.4048016113889
30
0
0
SPLINE
5
8E
100
AcDbEntity
8
1
62
256
6
ByLayer
370
-1
48
1
60
0
100
AcDbSpline
70
4
71
3
72
16
73
12
40
0
40
0
40
0
40
0
40
0.0629997311901095
40
0.0629997311901095
40
0.285872777163779
40
0.285872777163779
40
0.511544652680478
40
0.511544652680478
40
0.751675359283821
40
0.751675359283821
40
1
40
1
40
1
40
1
41
1
10
13.5886763879898
20
7.32106117309109
30
0
41
1
10
13.5946359594715
20
7.3151016016094
30
0
41
1
10
13.6008610706695
20
7.30939393441435
30
0
41
1
10
13.6299652164822
20
7.28493952195882
30
0
41
1
10
13.6558283916787
20
7.26926948633147
30
0
41
1
10
13.7099605182797
20
7.24668401833267
30
0
41
1
10
13.7389354677712
20
7.23957164917667
30
0
41
1
10
13.7977725238176
20
7.23396264165487
30
0
41
1
10
13.8283063039663
20
7.23594513416006
30
0
41
1
10
13.8866490153934
20
7.24858495592511
30
0
41
1
10
13.9149923157481
20
7.25965016265329
30
0
41
1
10
13.9404422267436
20
7.27424872122586
30
0
0
SPLINE
5
8F
100
AcDbEntity
8
1
62
256
6
ByLayer
370
-1
48
1
60
0
100
AcDbSpline
70
4
71
3
72
12
73
8
40
0
40
0
40
0
40
0
40
0.422118814263966
40
0.422118814263966
40
0.843213979141474
40
0.843213979141474
40
1
40
1
40
1
40
1
41
1
10
15.5663866071489
20
7.59658668278348
30
0
41
1
10
15.5245228967173
20
7.54306527334603
30
0
41
1
10
15.4910087657203
20
7.48325664263854
30
0
41
1
10
15.4439805429899
20
7.3625387399731
30
0
41
1
10
15.4296055213127
20
7.30002349438283
30
0
41
1
10
15.4216074414979
20
7.21569522428914
30
0
41
1
10
15.420603900937
20
7.19272127393992
30
0
41
1
10
15.4207375979944
20
7.16991867898622
30
0
0
SPLINE
5
90
100
AcDbEntity
8
1
62
256
6
ByLayer
370
-1
48
1
60
0
100
AcDbSpline
70
4
71
3
72
14
73
10
40
0
40
0
40
0
40
0
40
0.282377988047937
40
0.282377988047937
40
0.567084253766298
40
0.567084253766298
40
0.8246848546185
40
0.8246848546185
40
1
40
1
40
1
40
1
41
1
10
13.437533893885
20
9.15312238309568
30
0
41
1
10
13.4039177333473
20
9.15331948266942
30
0
41
1
10
13.3692142307458
20
9.14757176006256
30
0
41
1
10
13.3032733761105
20
9.12367565141341
30
0
41
1
10
13.2710657136871
20
9.10499590723254
30
0
41
1
10
13.2183490555812
20
9.05881188409032
30
0
41
1
10
13.1962612706276
20
9.03157219603148
30
0
41
1
10
13.1685111030251
20
8.98095105089038
30
0
41
1
10
13.1596009859914
20
8.95870827878335
30
0
41
1
10
13.1535617187
20
8.93591519509917
30
0
0
SPLINE
5
91
100
AcDbEntity
8
1
62
256
6
ByLayer
370
-1
48
1
60
0
100
AcDbSpline
70
4
71
3
72
14
73
10
40
0
40
0
40
0
40
0
40
0.283482543589196
40
0.283482543589196
40
0.569866164960503
40
0.569866164960503
40
0.829080366665494
40
0.829080366665494
40
1
40
1
40
1
40
1
41
1
10
14.6724168262876
20
9.99084783752457
30
0
41
1
10
14.6556815048434
20
10.0198334448056
30
0
41
1
10
14.6333109817745
20
10.0467810747684
30
0
41
1
10
14.5796231250326
20
10.0915596909716
30
0
41
1
10
14.5473441999872
20
10.1099401634001
30
0
41
1
10
14.4810643311299
20
10.1322182844416
30
0
41
1
10
14.4464971738
20
10.1376035395994
30
0
41
1
10
14.3896632741981
20
10.1361932962193
30
0
41
1
10
14.3667704525882
20
10.1329390584352
30
0
41
1
10
14.3447514033003
20
10.1271048796995
30
0
0
SPLINE
5
92
100
AcDbEntity
8
1
62
256
6
ByLayer
370
-1
48
1
60
0
100
AcDbSpline
70
4
71
3
72
16
73
12
40
0
40
0
40
0
40
0
40
0.0570946626180783
40
0.0570946626180783
40
0.280051745717009
40
0.280051745717009
40
0.505470715177295
40
0.505470715177295
40
0.745074291066615
40
0.745074291066615
40
1
40
1
40
1
40
1
41
1
10
13.1535617187
20
8.93591519509917
30
0
41
1
10
13.1516041008596
20
8.92852685722576
30
0
41
1
10
13.1499353803355
20
8.92105452632146
30
0
41
1
10
13.1432493608927
20
8.88441093969124
30
0
41
1
10
13.1424519626861
20
8.85415325253874
30
0
41
1
10
13.149668968859
20
8.79592494230505
30
0
41
1
10
13.1578494556565
20
8.7672387361215
30
0
41
1
10
13.1821208497794
20
8.71339107851932
30
0
41
1
10
13.1989521178747
20
8.6878774915935
30
0
41
1
10
13.2393571782938
20
8.64286639553234
30
0
41
1
10
13.2637485058688
20
8.6233018665333
30
0
41
1
10
13.2898187608749
20
8.60824977211175
30
0
0
SPLINE
5
93
100
AcDbEntity
8
1
62
256
6
ByLayer
370
-1
48
1
60
0
100
AcDbSpline
70
4
71
3
72
12
73
8
40
0
40
0
40
0
40
0
40
0.422118813951615
40
0.422118813951615
40
0.843213978772195
40
0.843213978772195
40
1
40
1
40
1
40
1
41
1
10
13.9818952061493
20
9.41646470071714
30
0
41
1
10
14.0237589165499
20
9.46998611011506
30
0
41
1
10
14.0572730475286
20
9.52979474077333
30
0
41
1
10
14.1043012702661
20
9.65051264338132
30
0
41
1
10
14.118676291956
20
9.71302788896273
30
0
41
1
10
14.1266743717956
20
9.79735615910343
30
0
41
1
10
14.1276779123615
20
9.82033010950718
30
0
41
1
10
14.1275442153038
20
9.84313270451449
30
0
0
SPLINE
5
94
100
AcDbEntity
8
1
62
256
6
ByLayer
370
-1
48
1
60
0
100
AcDbSpline
70
4
71
3
72
18
73
14
40
0
40
0
40
0
40
0
40
0.212474276129482
40
0.212474276129482
40
0.386603898215961
40
0.386603898215961
40
0.562415227754646
40
0.562415227754646
40
0.715377877558419
40
0.715377877558419
40
0.918235557790069
40
0.918235557790069
40
1
40
1
40
1
40
1
41
1
10
16.0064178771736
20
9.34022437165584
30
0
41
1
10
15.9711065562385
20
9.27866555607389
30
0
41
1
10
15.9443035359633
20
9.20946489621386
30
0
41
1
10
15.9170340571122
20
9.07583460871118
30
0
41
1
10
15.9125377448749
20
9.01125771566652
30
0
41
1
10
15.9224001071287
20
8.88186989116593
30
0
41
1
10
15.9372766736929
20
8.81515961859844
30
0
41
1
10
15.9812828350231
20
8.70011178752469
30
0
41
1
10
16.0087516291567
20
8.64911021466435
30
0
41
1
10
16.0827868520502
20
8.54400584212283
30
0
41
1
10
16.1337431800212
20
8.49235247272787
30
0
41
1
10
16.2112644355073
20
8.43397971210172
30
0
41
1
10
16.234557017956
20
8.41860415716235
30
0
41
1
10
16.2584630524233
20
8.4048016113889
30
0
0
SPLINE
5
95
100
AcDbEntity
8
1
62
256
6
ByLayer
370
-1
48
1
60
0
100
AcDbSpline
70
4
71
3
72
18
73
14
40
0
40
0
40
0
40
0
40
0.212474276129475
40
0.212474276129475
40
0.386603898215961
40
0.386603898215961
40
0.562415227754654
40
0.562415227754654
40
0.715377877558433
40
0.715377877558433
40
0.918235557790109
40
0.918235557790109
40
1
40
1
40
1
40
1
41
1
10
13.5418639361246
20
7.67282701184487
30
0
41
1
10
13.5771752570597
20
7.73438582742685
30
0
41
1
10
13.603978277335
20
7.80358648728685
30
0
41
1
10
13.631247756186
20
7.93721677478953
30
0
41
1
10
13.6357440684233
20
8.00179366783416
30
0
41
1
10
13.6258817061695
20
8.13118149233478
30
0
41
1
10
13.6110051396053
20
8.19789176490227
30
0
41
1
10
13.5669989782751
20
8.31293959597599
30
0
41
1
10
13.5395301841415
20
8.36394116883636
30
0
41
1
10
13.465494961248
20
8.46904554137788
30
0
41
1
10
13.414538633277
20
8.52069891077284
30
0
41
1
10
13.337017377791
20
8.57907167139896
30
0
41
1
10
13.3137247953422
20
8.59444722633833
30
0
41
1
10
13.2898187608749
20
8.60824977211175
30
0
0
SPLINE
5
96
100
AcDbEntity
8
1
62
256
6
ByLayer
370
-1
48
1
60
0
100
AcDbSpline
70
4
71
3
72
18
73
14
40
0
40
0
40
0
40
0
40
0.21247403287249
40
0.21247403287249
40
0.386603697879207
40
0.386603697879207
40
0.562415073202769
40
0.562415073202769
40
0.715377731647782
40
0.715377731647782
40
0.918235368779586
40
0.918235368779586
40
1
40
1
40
1
40
1
41
1
10
14.8758649870105
20
7.02220354597611
30
0
41
1
10
14.840380556438
20
7.08366264448205
30
0
41
1
10
14.7940141134698
20
7.14160462058501
30
0
41
1
10
14.6921744742384
20
7.2323203519955
30
0
41
1
10
14.638598581854
20
7.26865239215121
30
0
41
1
10
14.5217714049553
20
7.3251315297079
30
0
41
1
10
14.4566177013563
20
7.34578510128981
30
0
41
1
10
14.3350349069739
20
7.36553795738988
30
0
41
1
10
14.2771368496288
20
7.36741165936715
30
0
41
1
10
14.1490644131477
20
7.3562048407864
30
0
41
1
10
14.0788023238838
20
7.33809807120198
30
0
41
1
10
13.989383790179
20
7.30039845836416
30
0
41
1
10
13.9643870767207
20
7.28798394784272
30
0
41
1
10
13.9404422267436
20
7.27424872122586
30
0
0
SPLINE
5
97
100
AcDbEntity
8
1
62
256
6
ByLayer
370
-1
48
1
60
0
100
AcDbSpline
70
4
71
3
72
16
73
12
40
0
40
0
40
0
40
0
40
0.0621039197210712
40
0.0621039197210712
40
0.282872737560527
40
0.282872737560527
40
0.506396836331291
40
0.506396836331291
40
0.744229103369997
40
0.744229103369997
40
1
40
1
40
1
40
1
41
1
10
14.3447514033003
20
10.1271048796995
30
0
41
1
10
14.3366432942265
20
10.124956550908
30
0
41
1
10
14.3286188150333
20
10.1224554801016
30
0
41
1
10
14.2928841255969
20
10.1096055729237
30
0
41
1
10
14.2663341603249
20
10.0951266427436
30
0
41
1
10
14.219594452952
20
10.0596879651172
30
0
41
1
10
14.1988789851661
20
10.038217389863
30
0
41
1
10
14.1644504555479
20
9.99017889263106
30
0
41
1
10
14.1508133763436
20
9.96278969519966
30
0
41
1
10
14.1320411187486
20
9.90487689554101
30
0
41
1
10
14.1273656812112
20
9.87358244422362
30
0
41
1
10
14.1275442153038
20
9.84313270451449
30
0
0
LINE
5
4C
100
AcDbEntity
8
80
62
256
6
ByLayer
370
-1
48
1
60
0
100
AcDbLine
10
0
20
0
30
0
11
-5
21
0
31
0
39
0
210
0
220
0
230
1
0
LINE
5
4D
100
AcDbEntity
8
81
62
256
6
ByLayer
370
-1
48
1
60
0
100
AcDbLine
10
21.680115
20
15.4125
30
0
11
31.680115
21
15.4125
31
0
39
0
210
0
220
0
230
1
0
LINE
5
4E
100
AcDbEntity
8
1
62
256
6
ByLayer
370
-1
48
1
60
0
100
AcDbLine
10
10.096078
20
0.663685
30
0
11
9.887401
21
0.64451
31
0
39
0
210
0
220
0
230
1
0
LINE
5
50
100
AcDbEntity
8
1
62
256
6
ByLayer
370
-1
48
1
60
0
100
AcDbLine
10
18.926644
20
-2.546087
30
0
11
19.371129
21
2.534399
31
0
39
0
210
0
220
0
230
1
0
LINE
5
51
100
AcDbEntity
8
1
62
256
6
ByLayer
370
-1
48
1
60
0
100
AcDbLine
10
10.070285
20
0.944392
30
0
11
9.861608
21
0.925217
31
0
39
0
210
0
220
0
230
1
0
LINE
5
52
100
AcDbEntity
8
1
62
256
6
ByLayer
370
-1
48
1
60
0
100
AcDbLine
10
0
20
9.9375
30
0
11
0
21
-9.935598
31
0
39
0
210
0
220
0
230
1
0
LINE
5
53
100
AcDbEntity
8
1
62
256
6
ByLayer
370
-1
48
1
60
0
100
AcDbLine
10
1
20
9.9375
30
0
11
0
21
9.9375
31
0
39
0
210
0
220
0
230
1
0
LINE
5
54
100
AcDbEntity
8
1
62
256
6
ByLayer
370
-1
48
1
60
0
100
AcDbLine
10
9.887401
20
0.64451
30
0
11
9.861608
21
0.925217
31
0
39
0
210
0
220
0
230
1
0
LINE
5
55
100
AcDbEntity
8
1
62
256
6
ByLayer
370
-1
48
1
60
0
100
AcDbLine
10
3.721529
20
12.659029
30
0
11
1
21
9.9375
31
0
39
0
210
0
220
0
230
1
0
LINE
5
56
100
AcDbEntity
8
1
62
256
6
ByLayer
370
-1
48
1
60
0
100
AcDbLine
10
10.096078
20
0.663685
30
0
11
10.070285
21
0.944392
31
0
39
0
210
0
220
0
230
1
0
LINE
5
57
100
AcDbEntity
8
1
62
256
6
ByLayer
370
-1
48
1
60
0
100
AcDbLine
10
0
20
-9.935598
30
0
11
5.003584
21
-9.935598
31
0
39
0
210
0
220
0
230
1
0
LINE
5
58
100
AcDbEntity
8
1
62
256
6
ByLayer
370
-1
48
1
60
0
100
AcDbLine
10
5.003584
20
-9.935598
30
0
11
18.926644
21
-2.546087
31
0
39
0
210
0
220
0
230
1
0
LINE
5
59
100
AcDbEntity
8
1
62
256
6
ByLayer
370
-1
48
1
60
0
100
AcDbLine
10
8.802014
20
13.103513
30
0
11
3.721529
21
12.659029
31
0
39
0
210
0
220
0
230
1
0
LINE
5
5A
100
AcDbEntity
8
1
62
256
6
ByLayer
370
-1
48
1
60
0
100
AcDbLine
10
20.693654
20
3.30879
30
0
11
21.677069
21
14.549273
31
0
39
0
210
0
220
0
230
1
0
LINE
5
5B
100
AcDbEntity
8
1
62
256
6
ByLayer
370
-1
48
1
60
0
100
AcDbLine
10
8.731393
20
1.603598
30
0
11
19.971877
21
2.587013
31
0
39
0
210
0
220
0
230
1
0
LINE
5
5C
100
AcDbEntity
8
1
62
256
6
ByLayer
370
-1
48
1
60
0
100
AcDbLine
10
8.854628
20
13.704262
30
0
11
7.871213
21
2.463778
31
0
39
0
210
0
220
0
230
1
0
LINE
5
5D
100
AcDbEntity
8
SK1
62
256
6
ByLayer
370
-1
48
1
60
0
100
AcDbLine
10
-104.669885
20
-9.9375
30
0
11
-0.15
21
-9.9375
31
0
39
0
210
0
220
0
230
1
0
LINE
5
5F
100
AcDbEntity
8
SK1
62
256
6
ByLayer
370
-1
48
1
60
0
100
AcDbLine
10
-0.15
20
-9.936252
30
0
11
0
21
-9.935598
31
0
39
0
210
0
220
0
230
1
0
LINE
5
60
100
AcDbEntity
8
SK1
62
256
6
ByLayer
370
-1
48
1
60
0
100
AcDbLine
10
-104.669885
20
9.9375
30
0
11
-104.669885
21
-9.9375
31
0
39
0
210
0
220
0
230
1
0
LINE
5
61
100
AcDbEntity
8
SK1
62
256
6
ByLayer
370
-1
48
1
60
0
100
AcDbLine
10
-0.15
20
9.9375
30
0
11
-104.669885
21
9.9375
31
0
39
0
210
0
220
0
230
1
0
LINE
5
62
100
AcDbEntity
8
SK1
62
256
6
ByLayer
370
-1
48
1
60
0
100
AcDbLine
10
0
20
9.9375
30
0
11
-0.15
21
9.9375
31
0
39
0
210
0
220
0
230
1
0
LINE
5
63
100
AcDbEntity
8
SK1
62
256
6
ByLayer
370
-1
48
1
60
0
100
AcDbLine
10
-0.15
20
9.9375
30
0
11
-0.15
21
-9.9375
31
0
39
0
210
0
220
0
230
1
0
LINE
5
64
100
AcDbEntity
8
SK1
62
256
6
ByLayer
370
-1
48
1
60
0
100
AcDbLine
10
0
20
9.9375
30
0
11
0
21
-9.935598
31
0
39
0
210
0
220
0
230
1
0
LINE
5
65
100
AcDbEntity
8
1
62
256
6
ByLayer
370
-1
48
1
60
0
100
AcDbLine
10
20.816889
20
15.409454
30
0
11
9.576405
21
14.426039
31
0
39
0
210
0
220
0
230
1
0
MTEXT
5
98
100
AcDbEntity
8
SK6
62
256
6
ByLayer
370
-1
48
1
60
0
100
AcDbMText
10
-61.168945
20
-18.412993
30
0
210
0
220
0
230
1
1
\W00.731;\fsimplex.shx,bigfont.shx;SCLCR 2020K 12 
40
3.5
41
0
44
1.084337
50
0
71
7
72
5
7
DEFAULT
0
DIMENSION
5
CB
100
AcDbEntity
8
2
62
256
6
ByLayer
370
-3
48
1
60
0
100
AcDbDimension
2
DimnDraft3D1
10
7.315593
20
14.228243
30
0
11
6.560484
21
20.698241
31
0
70
34
71
5
72
1
41
1
210
0
220
0
230
1
3
Standard
100
AcDb2LineAngularDimension
13
21.680115
23
17.4125
33
0
14
21.680115
24
29.904368
34
0
15
17.828601
25
15.148012
35
0
16
9.205831
26
26.915552
36
0
40
0
0
DIMENSION
5
E0
100
AcDbEntity
8
SK2
62
256
6
ByLayer
370
-3
48
1
60
0
100
AcDbDimension
2
DimnDraft3D2
10
-114.419885
20
9.9375
30
0
11
-114.419885
21
-2.628947
31
0
70
32
71
5
72
1
41
1
210
0
220
0
230
1
3
Standard
100
AcDbAlignedDimension
13
-106.669885
23
-9.9375
33
0
14
-106.669885
24
9.9375
34
0
50
90
100
AcDbRotatedDimension
1001
ACAD
1000
DSTYLE
1002
{
1070
    74
1070
     0
1070
   279
1070
     0
1070
   172
1070
     1
1070
   173
1070
     1
1070
   340
1005
99
1070
    77
1070
     1
1070
    73
1070
     0
1070
   171
1070
     3
1070
   274
1070
     4
1070
   177
1070
     2
1070
   176
1070
     2
1070
   178
1070
     7
1070
    78
1070
     8
1070
    41
1041
3.175
1070
   147
1041
2.25
1070
    42
1041
2.0
1070
    44
1041
2.0
1070
   140
1041
4.5
1070
   343
1005
CC
1070
   344
1005
CC
1002
}
0
DIMENSION
5
EE
100
AcDbEntity
8
2
62
256
6
ByLayer
370
-3
48
1
60
0
100
AcDbDimension
2
DimnDraft3D3
10
48.930115
20
15.4125
30
0
11
48.930115
21
0.108553
31
0
70
32
71
5
72
1
41
1
210
0
220
0
230
1
3
Standard
100
AcDbAlignedDimension
13
2
23
-9.9375
33
0
14
23.680115
24
15.4125
34
0
50
90
100
AcDbRotatedDimension
1001
ACAD
1000
DSTYLE
1002
{
1070
    74
1070
     0
1070
   279
1070
     0
1070
   172
1070
     1
1070
   173
1070
     1
1070
   340
1005
99
1070
    77
1070
     1
1070
    73
1070
     0
1070
   171
1070
     3
1070
   274
1070
     4
1070
   177
1070
     2
1070
   176
1070
     2
1070
   178
1070
     7
1070
    78
1070
     8
1070
    41
1041
3.175
1070
   147
1041
2.25
1070
    42
1041
2.0
1070
    44
1041
2.0
1070
   140
1041
4.5
1070
   343
1005
CC
1070
   344
1005
CC
1002
}
0
DIMENSION
5
FC
100
AcDbEntity
8
SK2
62
256
6
ByLayer
370
-3
48
1
60
0
100
AcDbDimension
2
DimnDraft3D4
10
-104.669885
20
35.1625
30
0
11
-45.213306
21
35.1625
31
0
70
32
71
5
72
1
41
1
210
0
220
0
230
1
3
Standard
100
AcDbAlignedDimension
13
21.680115
23
17.4125
33
0
14
-104.669885
24
11.9375
34
0
50
0
100
AcDbRotatedDimension
1001
ACAD
1000
DSTYLE
1002
{
1070
   279
1070
     0
1070
   172
1070
     1
1070
   173
1070
     1
1070
   340
1005
99
1070
    77
1070
     1
1070
    73
1070
     0
1070
   171
1070
     3
1070
   274
1070
     4
1070
   177
1070
     2
1070
   176
1070
     2
1070
   178
1070
     7
1070
    78
1070
     8
1070
    41
1041
3.175
1070
   147
1041
2.25
1070
    42
1041
2.0
1070
    44
1041
2.0
1070
   140
1041
4.5
1070
   343
1005
CC
1070
   344
1005
CC
1002
}
0
ENDSEC
0
SECTION
2
OBJECTS
0
DICTIONARY
5
12c
330
0
100
AcDbDictionary
280
0
281
1
3
ACAD_GROUP
350
12d
3
ACAD_MLINESTYLE
350
12e
0
DICTIONARY
5
12d
330
0
100
AcDbDictionary
280
0
281
1
0
DICTIONARY
5
12e
330
0
100
AcDbDictionary
280
0
281
1
3
Standard
350
18
0
MLINESTYLE
5
18
330
12e
100
AcDbMlineStyle
2
Standard
70
0
3

62
256
51
90
52
90
71
2
49
-0.5
62
256
6
ByLayer
49
0.5
62
256
6
ByLayer
0
RASTERVARIABLES
5
11b
330

100
AcDbRasterVariables
90
0
70
1
71
1
72
1
0
ENDSEC
0
EOF
