0
SECTION
2
HEADER
9
$ACADVER
1
AC1015
9
$DWGCODEPAGE
3
ANSI_1252
9
$HANDSEED
5
13a
9
$ANGBASE
50
0
9
$ANGDIR
70
0
9
$ATTMODE
70
1
9
$AUNITS
70
0
9
$AUPREC
70
0
9
$CECOLOR
62
256
9
$CELTSCALE
40
1
9
$CELTYPE
6
ByLayer
9
$CELWEIGHT
370
-1
9
$CLAYER
8
0
9
$CMLJUST
70
0
9
$CMLSCALE
40
1
9
$CMLSTYLE
2
Standard
9
$DIMSTYLE
2
Standard
9
$TEXTSIZE
40
0.2
9
$TEXTSTYLE
7
Standard
9
$LUNITS
70
2
9
$LUPREC
70
4
9
$EXTNAMES
290
1
9
$INSUNITS
70
4
9
$LTSCALE
40
1
9
$LWDISPLAY
290
0
9
$PDMODE
70
0
9
$PDSIZE
40
0
9
$PLINEGEN
70
0
0
ENDSEC
0
SECTION
2
CLASSES
0
CLASS
1
RASTERVARIABLES
2
AcDbRasterVariables
3
ISM
90
0
280
0
281
0
0
ENDSEC
0
SECTION
2
TABLES
0
TABLE
2
VPORT
5
130
100
AcDbSymbolTable
0
VPORT
5
1
100
AcDbSymbolTableRecord
100
AcDbViewportTableRecord
2
*Active
70
0
10
0
20
0
11
1
21
1
12
-1
22
1
13
0
23
0
14
0.5
24
0.5
15
10
25
10
16
0
26
0
36
1
17
0
27
0
37
0
0
ENDTAB
0
TABLE
2
LTYPE
5
131
100
AcDbSymbolTable
0
LTYPE
5
14
100
AcDbSymbolTableRecord
100
AcDbLinetypeTableRecord
70
0
2
ByBlock
3

72
65
73
0
40
0
0
LTYPE
5
15
100
AcDbSymbolTableRecord
100
AcDbLinetypeTableRecord
70
0
2
ByLayer
3

72
65
73
0
40
0
0
LTYPE
5
16
100
AcDbSymbolTableRecord
100
AcDbLinetypeTableRecord
70
0
2
CONTINUOUS
3
Solid line
72
65
73
0
40
0
0
LTYPE
5
3B
100
AcDbSymbolTableRecord
100
AcDbLinetypeTableRecord
70
0
2
DASHED
3
__ __ __ __ __ __ __ __ __
72
65
73
2
40
25.72
49
12.86
74
0
49
-12.86
74
0
0
LTYPE
5
3C
100
AcDbSymbolTableRecord
100
AcDbLinetypeTableRecord
70
0
2
HIDDEN
3
_ _ _ _ _ _ _ _ _ _ _ _ _ _ _
72
65
73
2
40
0.5
49
0.25
74
0
49
-0.25
74
0
0
LTYPE
5
3D
100
AcDbSymbolTableRecord
100
AcDbLinetypeTableRecord
70
0
2
PHANTOM
3
____ _ _ ____ _ _ _____ _ _ ____
72
65
73
6
40
50.5
49
18
74
0
49
-6.5
74
0
49
6.5
74
0
49
-6.5
74
0
49
6.5
74
0
49
-6.5
74
0
0
LTYPE
5
3E
100
AcDbSymbolTableRecord
100
AcDbLinetypeTableRecord
70
0
2
CENTER
3
____ _ ____ _ ____ _ ____
72
65
73
4
40
47.5
49
22
74
0
49
-8.5
74
0
49
8.5
74
0
49
-8.5
74
0
0
LTYPE
5
3F
100
AcDbSymbolTableRecord
100
AcDbLinetypeTableRecord
70
0
2
DOT
3
.........................
72
65
73
2
40
10
49
0
74
0
49
-10
74
0
0
LTYPE
5
40
100
AcDbSymbolTableRecord
100
AcDbLinetypeTableRecord
70
0
2
DASHDOT
3
_._._._._._._._._._._._._._._._.
72
65
73
4
40
70
49
31
74
0
49
-13
74
0
49
13
74
0
49
-13
74
0
0
ENDTAB
0
TABLE
2
LAYER
5
132
100
AcDbSymbolTable
0
LAYER
5
10
100
AcDbSymbolTableRecord
100
AcDbLayerTableRecord
2
0
70
0
62
7
6
CONTINUOUS
290
1
370
-3
390
0
0
LAYER
5
45
100
AcDbSymbolTableRecord
100
AcDbLayerTableRecord
2
80
70
0
62
-6
6
CONTINUOUS
290
1
370
-3
390
0
0
LAYER
5
47
100
AcDbSymbolTableRecord
100
AcDbLayerTableRecord
2
2
70
0
62
7
6
CONTINUOUS
290
1
370
-3
390
0
0
LAYER
5
4B
100
AcDbSymbolTableRecord
100
AcDbLayerTableRecord
2
81
70
0
62
-3
6
CONTINUOUS
290
1
370
-3
390
0
0
LAYER
5
4F
100
AcDbSymbolTableRecord
100
AcDbLayerTableRecord
2
1
70
0
62
4
6
CONTINUOUS
290
1
370
-3
390
0
0
LAYER
5
11d
100
AcDbSymbolTableRecord
100
AcDbLayerTableRecord
2
SK2
70
0
62
7
6
CONTINUOUS
290
1
370
-3
390
0
0
LAYER
5
11e
100
AcDbSymbolTableRecord
100
AcDbLayerTableRecord
2
SK1
70
0
62
4
6
CONTINUOUS
290
1
370
-3
390
0
0
LAYER
5
11f
100
AcDbSymbolTableRecord
100
AcDbLayerTableRecord
2
SK6
70
0
62
5
6
CONTINUOUS
290
1
370
-3
390
0
0
ENDTAB
0
TABLE
2
STYLE
5
133
100
AcDbSymbolTable
0
STYLE
5
11
100
AcDbSymbolTableRecord
100
AcDbTextStyleTableRecord
2
Standard
3
txt
70
0
71
0
40
0
41
1
42
0
50
0
0
STYLE
5
9A
100
AcDbSymbolTableRecord
100
AcDbTextStyleTableRecord
2
DEFAULT
3
simplex.shx
70
0
71
0
40
0
41
1
42
0
50
0
0
STYLE
5
BD
100
AcDbSymbolTableRecord
100
AcDbTextStyleTableRecord
2
DWGDirectTextStyle
3
SIMPLEX
70
0
71
0
40
0
41
1
42
0
50
0
0
ENDTAB
0
TABLE
2
DIMSTYLE
5
134
100
AcDbSymbolTable
100
AcDbDimStyleTable
0
DIMSTYLE
105
27
100
AcDbSymbolTableRecord
100
AcDbDimStyleTableRecord
2
Standard
70
0
3
<>
41
0.18
42
0.0625
44
0.18
140
0.18
147
0.09
73
0
74
0
77
1
271
2
275
0
278
52
280
0
340
11
0
ENDTAB
0
TABLE
2
VIEW
5
135
100
AcDbSymbolTable
0
ENDTAB
0
TABLE
2
UCS
5
136
100
AcDbSymbolTable
0
ENDTAB
0
TABLE
2
APPID
5
137
100
AcDbSymbolTable
0
APPID
5
12
100
AcDbSymbolTableRecord
100
AcDbRegAppTableRecord
2
ACAD
70
0
0
ENDTAB
0
TABLE
2
BLOCK_RECORD
5
138
100
AcDbSymbolTable
0
BLOCK_RECORD
5
1F
100
AcDbSymbolTableRecord
100
AcDbBlockTableRecord
2
*Model_Space
340
0
70
0
0
BLOCK_RECORD
5
1B
100
AcDbSymbolTableRecord
100
AcDbBlockTableRecord
2
*Paper_Space
340
0
70
0
0
BLOCK_RECORD
5
23
100
AcDbSymbolTableRecord
100
AcDbBlockTableRecord
2
*Paper_Space0
340
0
70
0
0
BLOCK_RECORD
5
BF
100
AcDbSymbolTableRecord
100
AcDbBlockTableRecord
2
DimnDraft3D1
340
0
70
0
0
BLOCK_RECORD
5
CD
100
AcDbSymbolTableRecord
100
AcDbBlockTableRecord
2
_CLOSED
340
0
70
0
0
BLOCK_RECORD
5
D4
100
AcDbSymbolTableRecord
100
AcDbBlockTableRecord
2
DimnDraft3D2
340
0
70
0
0
BLOCK_RECORD
5
E2
100
AcDbSymbolTableRecord
100
AcDbBlockTableRecord
2
DimnDraft3D3
340
0
70
0
0
BLOCK_RECORD
5
F0
100
AcDbSymbolTableRecord
100
AcDbBlockTableRecord
2
DimnDraft3D4
340
0
70
0
0
ENDTAB
0
ENDSEC
0
SECTION
2
BLOCKS
0
BLOCK
5
20
100
AcDbEntity
8
0
100
AcDbBlockBegin
2
*Model_Space
70
0
10
0
20
0
30
0
3
*Model_Space
0
ENDBLK
5
21
100
AcDbEntity
8
0
100
AcDbBlockEnd
0
BLOCK
5
1C
100
AcDbEntity
8
0
100
AcDbBlockBegin
2
*Paper_Space
70
0
10
0
20
0
30
0
3
*Paper_Space
0
ENDBLK
5
1D
100
AcDbEntity
8
0
100
AcDbBlockEnd
0
BLOCK
5
24
100
AcDbEntity
8
0
100
AcDbBlockBegin
2
*Paper_Space0
70
0
10
0
20
0
30
0
3
*Paper_Space0
0
ENDBLK
5
25
100
AcDbEntity
8
0
100
AcDbBlockEnd
0
BLOCK
5
CA
100
AcDbEntity
8
0
100
AcDbBlockBegin
2
DimnDraft3D1
70
0
10
0
20
0
30
0
3
DimnDraft3D1
0
MTEXT
5
C0
100
AcDbEntity
8
2
62
256
6
ByLayer
370
-1
48
1
60
0
100
AcDbMText
10
2.103664
20
15.767639
30
0
210
0
220
0
230
1
1
\W01.000;\fsimplex.shx,bigfont.shx;95%%d0' 
40
4.5
41
0
44
1.084337
50
47.5
71
7
72
5
7
DEFAULT
0
LINE
5
C1
100
AcDbEntity
8
2
62
256
6
ByLayer
370
-1
48
1
60
0
100
AcDbLine
10
15.633819
20
12.4125
30
0
11
15.633819
21
24.904368
31
0
39
0
210
0
220
0
230
1
0
LINE
5
C2
100
AcDbEntity
8
2
62
256
6
ByLayer
370
-1
48
1
60
0
100
AcDbLine
10
11.782305
20
10.148012
30
0
11
1.269297
21
9.228243
31
0
39
0
210
0
220
0
230
1
0
ARC
5
C3
100
AcDbEntity
8
2
62
256
6
ByLayer
370
-1
48
1
60
0
100
AcDbCircle
39
0
10
15.633819
20
10.484976
30
0
40
12.4193920050033
210
0
220
0
230
1
100
AcDbArc
50
90
51
185
0
LINE
5
C4
100
AcDbEntity
8
2
62
256
6
ByLayer
370
-1
48
1
60
0
100
AcDbLine
10
15.633819
20
22.904368
30
0
11
12.491786
21
22.285525
31
0
39
0
210
0
220
0
230
1
0
LINE
5
C5
100
AcDbEntity
8
2
62
256
6
ByLayer
370
-1
48
1
60
0
100
AcDbLine
10
15.633819
20
22.904368
30
0
11
12.438677
21
23.11983
31
0
39
0
210
0
220
0
230
1
0
LINE
5
C6
100
AcDbEntity
8
2
62
256
6
ByLayer
370
-1
48
1
60
0
100
AcDbLine
10
12.491786
20
22.285525
30
0
11
12.438677
21
23.11983
31
0
39
0
210
0
220
0
230
1
0
LINE
5
C7
100
AcDbEntity
8
2
62
256
6
ByLayer
370
-1
48
1
60
0
100
AcDbLine
10
3.261687
20
9.402555
30
0
11
2.76857
21
12.566756
31
0
39
0
210
0
220
0
230
1
0
LINE
5
C8
100
AcDbEntity
8
2
62
256
6
ByLayer
370
-1
48
1
60
0
100
AcDbLine
10
3.261687
20
9.402555
30
0
11
3.604329
21
12.58657
31
0
39
0
210
0
220
0
230
1
0
LINE
5
C9
100
AcDbEntity
8
2
62
256
6
ByLayer
370
-1
48
1
60
0
100
AcDbLine
10
2.76857
20
12.566756
30
0
11
3.604329
21
12.58657
31
0
39
0
210
0
220
0
230
1
0
ENDBLK
5
CB
100
AcDbEntity
8
0
100
AcDbBlockEnd
0
BLOCK
5
CE
100
AcDbEntity
8
0
100
AcDbBlockBegin
2
_CLOSED
70
0
10
0
20
0
30
0
3
_CLOSED
0
LINE
5
D0
100
AcDbEntity
8
0
62
256
6
ByLayer
370
-2
48
1
60
0
100
AcDbLine
10
-1
20
0.166667
30
0
11
0
21
0
31
0
39
0
210
0
220
0
230
1
0
LINE
5
D1
100
AcDbEntity
8
0
62
256
6
ByLayer
370
-2
48
1
60
0
100
AcDbLine
10
0
20
0
30
0
11
-1
21
-0.166667
31
0
39
0
210
0
220
0
230
1
0
LINE
5
D2
100
AcDbEntity
8
0
62
256
6
ByLayer
370
-2
48
1
60
0
100
AcDbLine
10
-1
20
0.166667
30
0
11
-1
21
-0.166667
31
0
39
0
210
0
220
0
230
1
0
LINE
5
D3
100
AcDbEntity
8
0
62
256
6
ByLayer
370
-2
48
1
60
0
100
AcDbLine
10
0
20
0
30
0
11
-1
21
0
31
0
39
0
210
0
220
0
230
1
0
ENDBLK
5
CF
100
AcDbEntity
8
0
100
AcDbBlockEnd
0
BLOCK
5
DF
100
AcDbEntity
8
0
100
AcDbBlockBegin
2
DimnDraft3D2
70
0
10
0
20
0
30
0
3
DimnDraft3D2
0
MTEXT
5
D5
100
AcDbEntity
8
SK2
62
256
6
ByLayer
370
-1
48
1
60
0
100
AcDbMText
10
-76.591181
20
-0.941447
30
0
210
0
220
0
230
1
1
\W01.000;\fsimplex.shx,bigfont.shx;12 
40
4.5
41
0
44
1.084337
50
90
71
7
72
5
7
DEFAULT
0
LINE
5
D6
100
AcDbEntity
8
SK2
62
256
6
ByLayer
370
-1
48
1
60
0
100
AcDbLine
10
-67.716181
20
-5.9375
30
0
11
-77.466181
21
-5.9375
31
0
39
0
210
0
220
0
230
1
0
LINE
5
D7
100
AcDbEntity
8
SK2
62
256
6
ByLayer
370
-1
48
1
60
0
100
AcDbLine
10
-67.716181
20
5.9375
30
0
11
-77.466181
21
5.9375
31
0
39
0
210
0
220
0
230
1
0
LINE
5
D8
100
AcDbEntity
8
SK2
62
256
6
ByLayer
370
-1
48
1
60
0
100
AcDbLine
10
-75.466181
20
-17.1875
30
0
11
-75.466181
21
17.1875
31
0
39
0
210
0
220
0
230
1
0
LINE
5
D9
100
AcDbEntity
8
SK2
62
256
6
ByLayer
370
-1
48
1
60
0
100
AcDbLine
10
-75.466181
20
-5.9375
30
0
11
-75.048184
21
-9.112498
31
0
39
0
210
0
220
0
230
1
0
LINE
5
DA
100
AcDbEntity
8
SK2
62
256
6
ByLayer
370
-1
48
1
60
0
100
AcDbLine
10
-75.466181
20
-5.9375
30
0
11
-75.884177
21
-9.112502
31
0
39
0
210
0
220
0
230
1
0
LINE
5
DB
100
AcDbEntity
8
SK2
62
256
6
ByLayer
370
-1
48
1
60
0
100
AcDbLine
10
-75.048184
20
-9.112498
30
0
11
-75.884177
21
-9.112502
31
0
39
0
210
0
220
0
230
1
0
LINE
5
DC
100
AcDbEntity
8
SK2
62
256
6
ByLayer
370
-1
48
1
60
0
100
AcDbLine
10
-75.466181
20
5.9375
30
0
11
-75.884177
21
9.112498
31
0
39
0
210
0
220
0
230
1
0
LINE
5
DD
100
AcDbEntity
8
SK2
62
256
6
ByLayer
370
-1
48
1
60
0
100
AcDbLine
10
-75.466181
20
5.9375
30
0
11
-75.048184
21
9.112502
31
0
39
0
210
0
220
0
230
1
0
LINE
5
DE
100
AcDbEntity
8
SK2
62
256
6
ByLayer
370
-1
48
1
60
0
100
AcDbLine
10
-75.884177
20
9.112498
30
0
11
-75.048184
21
9.112502
31
0
39
0
210
0
220
0
230
1
0
ENDBLK
5
E0
100
AcDbEntity
8
0
100
AcDbBlockEnd
0
BLOCK
5
ED
100
AcDbEntity
8
0
100
AcDbBlockBegin
2
DimnDraft3D3
70
0
10
0
20
0
30
0
3
DimnDraft3D3
0
MTEXT
5
E3
100
AcDbEntity
8
2
62
256
6
ByLayer
370
-1
48
1
60
0
100
AcDbMText
10
41.758819
20
1.296053
30
0
210
0
220
0
230
1
1
\W01.000;\fsimplex.shx,bigfont.shx;16 
40
4.5
41
0
44
1.084337
50
90
71
7
72
5
7
DEFAULT
0
LINE
5
E4
100
AcDbEntity
8
2
62
256
6
ByLayer
370
-1
48
1
60
0
100
AcDbLine
10
2
20
-5.9375
30
0
11
44.883819
21
-5.9375
31
0
39
0
210
0
220
0
230
1
0
LINE
5
E5
100
AcDbEntity
8
2
62
256
6
ByLayer
370
-1
48
1
60
0
100
AcDbLine
10
17.633819
20
10.4125
30
0
11
44.883819
21
10.4125
31
0
39
0
210
0
220
0
230
1
0
LINE
5
E6
100
AcDbEntity
8
2
62
256
6
ByLayer
370
-1
48
1
60
0
100
AcDbLine
10
42.883819
20
-5.9375
30
0
11
42.883819
21
10.4125
31
0
39
0
210
0
220
0
230
1
0
LINE
5
E7
100
AcDbEntity
8
2
62
256
6
ByLayer
370
-1
48
1
60
0
100
AcDbLine
10
42.883819
20
-5.9375
30
0
11
42.465823
21
-2.762502
31
0
39
0
210
0
220
0
230
1
0
LINE
5
E8
100
AcDbEntity
8
2
62
256
6
ByLayer
370
-1
48
1
60
0
100
AcDbLine
10
42.883819
20
-5.9375
30
0
11
43.301816
21
-2.762498
31
0
39
0
210
0
220
0
230
1
0
LINE
5
E9
100
AcDbEntity
8
2
62
256
6
ByLayer
370
-1
48
1
60
0
100
AcDbLine
10
42.465823
20
-2.762502
30
0
11
43.301816
21
-2.762498
31
0
39
0
210
0
220
0
230
1
0
LINE
5
EA
100
AcDbEntity
8
2
62
256
6
ByLayer
370
-1
48
1
60
0
100
AcDbLine
10
42.883819
20
10.4125
30
0
11
43.301816
21
7.237502
31
0
39
0
210
0
220
0
230
1
0
LINE
5
EB
100
AcDbEntity
8
2
62
256
6
ByLayer
370
-1
48
1
60
0
100
AcDbLine
10
42.883819
20
10.4125
30
0
11
42.465823
21
7.237498
31
0
39
0
210
0
220
0
230
1
0
LINE
5
EC
100
AcDbEntity
8
2
62
256
6
ByLayer
370
-1
48
1
60
0
100
AcDbLine
10
43.301816
20
7.237502
30
0
11
42.465823
21
7.237498
31
0
39
0
210
0
220
0
230
1
0
ENDBLK
5
EE
100
AcDbEntity
8
0
100
AcDbBlockEnd
0
BLOCK
5
FB
100
AcDbEntity
8
0
100
AcDbBlockBegin
2
DimnDraft3D4
70
0
10
0
20
0
30
0
3
DimnDraft3D4
0
MTEXT
5
F1
100
AcDbEntity
8
SK2
62
256
6
ByLayer
370
-1
48
1
60
0
100
AcDbMText
10
-26.545128
20
31.2875
30
0
210
0
220
0
230
1
1
\W01.000;\fsimplex.shx,bigfont.shx;80 
40
4.5
41
0
44
1.084337
50
0
71
7
72
5
7
DEFAULT
0
LINE
5
F2
100
AcDbEntity
8
SK2
62
256
6
ByLayer
370
-1
48
1
60
0
100
AcDbLine
10
15.633819
20
12.4125
30
0
11
15.633819
21
32.1625
31
0
39
0
210
0
220
0
230
1
0
LINE
5
F3
100
AcDbEntity
8
SK2
62
256
6
ByLayer
370
-1
48
1
60
0
100
AcDbLine
10
-65.716181
20
7.9375
30
0
11
-65.716181
21
32.1625
31
0
39
0
210
0
220
0
230
1
0
LINE
5
F4
100
AcDbEntity
8
SK2
62
256
6
ByLayer
370
-1
48
1
60
0
100
AcDbLine
10
15.633819
20
30.1625
30
0
11
-65.716181
21
30.1625
31
0
39
0
210
0
220
0
230
1
0
LINE
5
F5
100
AcDbEntity
8
SK2
62
256
6
ByLayer
370
-1
48
1
60
0
100
AcDbLine
10
15.633819
20
30.1625
30
0
11
12.458821
21
29.744503
31
0
39
0
210
0
220
0
230
1
0
LINE
5
F6
100
AcDbEntity
8
SK2
62
256
6
ByLayer
370
-1
48
1
60
0
100
AcDbLine
10
15.633819
20
30.1625
30
0
11
12.458818
21
30.580497
31
0
39
0
210
0
220
0
230
1
0
LINE
5
F7
100
AcDbEntity
8
SK2
62
256
6
ByLayer
370
-1
48
1
60
0
100
AcDbLine
10
12.458821
20
29.744503
30
0
11
12.458818
21
30.580497
31
0
39
0
210
0
220
0
230
1
0
LINE
5
F8
100
AcDbEntity
8
SK2
62
256
6
ByLayer
370
-1
48
1
60
0
100
AcDbLine
10
-65.716181
20
30.1625
30
0
11
-62.541182
21
30.580497
31
0
39
0
210
0
220
0
230
1
0
LINE
5
F9
100
AcDbEntity
8
SK2
62
256
6
ByLayer
370
-1
48
1
60
0
100
AcDbLine
10
-65.716181
20
30.1625
30
0
11
-62.541179
21
29.744503
31
0
39
0
210
0
220
0
230
1
0
LINE
5
FA
100
AcDbEntity
8
SK2
62
256
6
ByLayer
370
-1
48
1
60
0
100
AcDbLine
10
-62.541182
20
30.580497
30
0
11
-62.541179
21
29.744503
31
0
39
0
210
0
220
0
230
1
0
ENDBLK
5
FC
100
AcDbEntity
8
0
100
AcDbBlockEnd
0
ENDSEC
0
SECTION
2
ENTITIES
0
ARC
5
67
100
AcDbEntity
8
1
62
256
6
ByLayer
370
-1
48
1
60
0
100
AcDbCircle
39
0
10
-5.878001
20
0.656681
30
0
40
1.49999999999999
210
0
220
0
230
-1
100
AcDbArc
50
197.92862
51
231.917661
0
ARC
5
68
100
AcDbEntity
8
1
62
256
6
ByLayer
370
-1
48
1
60
0
100
AcDbCircle
39
0
10
7.269974
20
0.981602
30
0
40
1.64972541967137
210
0
220
0
230
1
100
AcDbArc
50
275.25
51
336.516989
0
ARC
5
69
100
AcDbEntity
8
1
62
256
6
ByLayer
370
-1
48
1
60
0
100
AcDbCircle
39
0
10
5.878001
20
0.656681
30
0
40
1.49999999999999
210
0
220
0
230
1
100
AcDbArc
50
107.931011
51
300.041736
0
ARC
5
6A
100
AcDbEntity
8
1
62
256
6
ByLayer
370
-1
48
1
60
0
100
AcDbCircle
39
0
10
7.026698
20
0.959248
30
0
40
1.64972541967137
210
0
220
0
230
1
100
AcDbArc
50
256.048434
51
275.25
0
ARC
5
6B
100
AcDbEntity
8
1
62
256
6
ByLayer
370
-1
48
1
60
0
100
AcDbCircle
39
0
10
7.269974
20
0.981602
30
0
40
1.5
210
0
220
0
230
1
100
AcDbArc
50
275.25
51
333.364956
0
ARC
5
6C
100
AcDbEntity
8
1
62
256
6
ByLayer
370
-1
48
1
60
0
100
AcDbCircle
39
0
10
7.026698
20
0.959248
30
0
40
1.5
210
0
220
0
230
1
100
AcDbArc
50
261.430729
51
275.25
0
ARC
5
6D
100
AcDbEntity
8
1
62
256
6
ByLayer
370
-1
48
1
60
0
100
AcDbCircle
39
0
10
-10.474195
20
5.252875
30
0
40
1.2065
210
0
220
0
230
-1
100
AcDbArc
50
41.044721
51
48.955279
0
ARC
5
6F
100
AcDbEntity
8
1
62
256
6
ByLayer
370
-1
48
1
60
0
100
AcDbCircle
39
0
10
-14.839794
20
9.618475
30
0
40
0.794000000000009
210
0
220
0
230
-1
100
AcDbArc
50
85
51
185
0
ARC
5
70
100
AcDbEntity
8
1
62
256
6
ByLayer
370
-1
48
1
60
0
100
AcDbCircle
39
0
10
-6.811022
20
8.916048
30
0
40
0.794000000000002
210
0
220
0
230
-1
100
AcDbArc
50
5
51
85
0
ARC
5
71
100
AcDbEntity
8
1
62
256
6
ByLayer
370
-1
48
1
60
0
100
AcDbCircle
39
0
10
-10.474195
20
5.252875
30
0
40
1.6765
210
0
220
0
230
-1
100
AcDbArc
50
75.159887
51
135
0
ARC
5
72
100
AcDbEntity
8
1
62
256
6
ByLayer
370
-1
48
1
60
0
100
AcDbCircle
39
0
10
-10.474195
20
5.252875
30
0
40
1.6765
210
0
220
0
230
-1
100
AcDbArc
50
315
51
14.840113
0
ARC
5
73
100
AcDbEntity
8
1
62
256
6
ByLayer
370
-1
48
1
60
0
100
AcDbCircle
39
0
10
-10.474195
20
5.252875
30
0
40
1.6765
210
0
220
0
230
-1
100
AcDbArc
50
255.159887
51
315
0
ARC
5
74
100
AcDbEntity
8
1
62
256
6
ByLayer
370
-1
48
1
60
0
100
AcDbCircle
39
0
10
10.474195
20
5.252875
30
0
40
1.2065
210
0
220
0
230
1
100
AcDbArc
50
74.920057
51
131.044721
0
ARC
5
75
100
AcDbEntity
8
1
62
256
6
ByLayer
370
-1
48
1
60
0
100
AcDbCircle
39
0
10
10.474195
20
5.252875
30
0
40
1.2065
210
0
220
0
230
1
100
AcDbArc
50
15.079943
51
74.920057
0
ARC
5
77
100
AcDbEntity
8
1
62
256
6
ByLayer
370
-1
48
1
60
0
100
AcDbCircle
39
0
10
10.474195
20
5.252875
30
0
40
1.2065
210
0
220
0
230
1
100
AcDbArc
50
254.920057
51
311.044721
0
ARC
5
7A
100
AcDbEntity
8
1
62
256
6
ByLayer
370
-1
48
1
60
0
100
AcDbCircle
39
0
10
10.474195
20
5.252875
30
0
40
1.2065
210
0
220
0
230
1
100
AcDbArc
50
318.955279
51
15.079943
0
ARC
5
7B
100
AcDbEntity
8
1
62
256
6
ByLayer
370
-1
48
1
60
0
100
AcDbCircle
39
0
10
-10.474195
20
5.252875
30
0
40
1.6765
210
0
220
0
230
-1
100
AcDbArc
50
135
51
194.840113
0
ARC
5
7D
100
AcDbEntity
8
1
62
256
6
ByLayer
370
-1
48
1
60
0
100
AcDbCircle
39
0
10
10.474195
20
5.252875
30
0
40
1.2065
210
0
220
0
230
1
100
AcDbArc
50
138.955279
51
195.079943
0
ARC
5
7E
100
AcDbEntity
8
1
62
256
6
ByLayer
370
-1
48
1
60
0
100
AcDbCircle
39
0
10
-10.474195
20
5.252875
30
0
40
1.6765
210
0
220
0
230
-1
100
AcDbArc
50
194.840113
51
255.159887
0
ARC
5
7F
100
AcDbEntity
8
1
62
256
6
ByLayer
370
-1
48
1
60
0
100
AcDbCircle
39
0
10
-14.137368
20
1.589703
30
0
40
0.793999999999989
210
0
220
0
230
-1
100
AcDbArc
50
185
51
265
0
ARC
5
80
100
AcDbEntity
8
1
62
256
6
ByLayer
370
-1
48
1
60
0
100
AcDbCircle
39
0
10
-10.474195
20
5.252875
30
0
40
1.6765
210
0
220
0
230
-1
100
AcDbArc
50
14.840113
51
75.159887
0
ARC
5
81
100
AcDbEntity
8
1
62
256
6
ByLayer
370
-1
48
1
60
0
100
AcDbCircle
39
0
10
-6.108595
20
0.887276
30
0
40
0.794000000000001
210
0
220
0
230
-1
100
AcDbArc
50
265
51
5
0
ARC
5
82
100
AcDbEntity
8
1
62
256
6
ByLayer
370
-1
48
1
60
0
100
AcDbCircle
39
0
10
-10.474195
20
5.252875
30
0
40
1.2065
210
0
220
0
230
-1
100
AcDbArc
50
221.044721
51
228.955279
0
ARC
5
83
100
AcDbEntity
8
1
62
256
6
ByLayer
370
-1
48
1
60
0
100
AcDbCircle
39
0
10
10.474195
20
5.252875
30
0
40
1.2065
210
0
220
0
230
1
100
AcDbArc
50
195.079943
51
254.920057
0
CIRCLE
5
6E
100
AcDbEntity
8
1
62
256
6
ByLayer
370
-1
48
1
60
0
100
AcDbCircle
10
-10.474195
20
5.252875
30
0
40
3.006052073342
39
0
210
0
220
0
230
-1
0
CIRCLE
5
76
100
AcDbEntity
8
1
62
256
6
ByLayer
370
-1
48
1
60
0
100
AcDbCircle
10
10.474195
20
5.252875
30
0
40
2.9504956821061
39
0
210
0
220
0
230
1
0
CIRCLE
5
78
100
AcDbEntity
8
1
62
256
6
ByLayer
370
-1
48
1
60
0
100
AcDbCircle
10
-10.474195
20
5.252875
30
0
40
2.625
39
0
210
0
220
0
230
-1
0
CIRCLE
5
79
100
AcDbEntity
8
1
62
256
6
ByLayer
370
-1
48
1
60
0
100
AcDbCircle
10
-10.474195
20
5.252875
30
0
40
1.80000000000002
39
0
210
0
220
0
230
-1
0
CIRCLE
5
7C
100
AcDbEntity
8
1
62
256
6
ByLayer
370
-1
48
1
60
0
100
AcDbCircle
10
-10.474195
20
5.252875
30
0
40
3.07132534818238
39
0
210
0
220
0
230
-1
0
POINT
5
41
100
AcDbEntity
8
SK2
62
256
6
ByLayer
370
-1
48
1
60
0
100
AcDbPoint
10
15.633819
20
10.4125
30
0
39
0
210
0
220
0
230
1
50
360
0
POINT
5
43
100
AcDbEntity
8
SK2
62
256
6
ByLayer
370
-1
48
1
60
0
100
AcDbPoint
10
15.633819
20
10.4125
30
0
39
0
210
0
220
0
230
1
50
360
0
POINT
5
44
100
AcDbEntity
8
80
62
256
6
ByLayer
370
-1
48
1
60
0
100
AcDbPoint
10
0
20
0
30
0
39
0
210
0
220
0
230
1
50
360
0
POINT
5
46
100
AcDbEntity
8
2
62
256
6
ByLayer
370
-1
48
1
60
0
100
AcDbPoint
10
15.633819
20
10.4125
30
0
39
0
210
0
220
0
230
1
50
360
0
POINT
5
48
100
AcDbEntity
8
SK2
62
256
6
ByLayer
370
-1
48
1
60
0
100
AcDbPoint
10
15.633819
20
10.4125
30
0
39
0
210
0
220
0
230
1
50
360
0
POINT
5
49
100
AcDbEntity
8
SK2
62
256
6
ByLayer
370
-1
48
1
60
0
100
AcDbPoint
10
15.633819
20
10.4125
30
0
39
0
210
0
220
0
230
1
50
360
0
POINT
5
4A
100
AcDbEntity
8
81
62
256
6
ByLayer
370
-1
48
1
60
0
100
AcDbPoint
10
15.633819
20
10.4125
30
0
39
0
210
0
220
0
230
1
50
360
0
SPLINE
5
84
100
AcDbEntity
8
1
62
256
6
ByLayer
370
-1
48
1
60
0
100
AcDbSpline
70
4
71
3
72
8
73
4
40
0
40
0
40
0
40
0
40
1
40
1
40
1
40
1
41
1
10
6.8031905317643
20
-0.524006353252133
30
0
41
1
10
6.74914206532134
20
-0.566358868204986
30
0
41
1
10
6.69111136836457
20
-0.605858814862046
30
0
41
1
10
6.62894666243952
20
-0.641810026363203
30
0
0
SPLINE
5
85
100
AcDbEntity
8
1
62
256
6
ByLayer
370
-1
48
1
60
0
100
AcDbSpline
70
4
71
3
72
14
73
10
40
0
40
0
40
0
40
0
40
0.283482543589452
40
0.283482543589452
40
0.569866164960737
40
0.569866164960737
40
0.829080366665721
40
0.829080366665721
40
1
40
1
40
1
40
1
41
1
10
10.5759187684671
20
3.76855334833317
30
0
41
1
10
10.5926540899113
20
3.7395677410521
30
0
41
1
10
10.6150246129803
20
3.71262011108928
30
0
41
1
10
10.6687124697223
20
3.66784149488606
30
0
41
1
10
10.7009913947676
20
3.64946102245761
30
0
41
1
10
10.7672712636249
20
3.62718290141612
30
0
41
1
10
10.8018384209548
20
3.62179764625827
30
0
41
1
10
10.8586723205567
20
3.62320788963839
30
0
41
1
10
10.8815651421666
20
3.62646212742251
30
0
41
1
10
10.9035841914545
20
3.63229630615825
30
0
0
SPLINE
5
86
100
AcDbEntity
8
1
62
256
6
ByLayer
370
-1
48
1
60
0
100
AcDbSpline
70
4
71
3
72
12
73
8
40
0
40
0
40
0
40
0
40
0.495924969245338
40
0.495924969245338
40
0.900362445266877
40
0.900362445266877
40
1
40
1
40
1
40
1
41
1
10
9.13758767534154
20
5.89947218545271
30
0
41
1
10
9.20893089233425
20
5.89905388314111
30
0
41
1
10
9.28272469555503
20
5.90992135541816
30
0
41
1
10
9.41276056271386
20
5.95233133094558
30
0
41
1
10
9.47114069577538
20
5.98031850900682
30
0
41
1
10
9.53824486612621
20
6.02551580941616
30
0
41
1
10
9.55141448728062
20
6.03507699092873
30
0
41
1
10
9.5642556791388
20
6.04512119460716
30
0
0
SPLINE
5
87
100
AcDbEntity
8
1
62
256
6
ByLayer
370
-1
48
1
60
0
100
AcDbSpline
70
4
71
3
72
16
73
12
40
0
40
0
40
0
40
0
40
0.0621039197211774
40
0.0621039197211774
40
0.282872737560648
40
0.282872737560648
40
0.506396836331457
40
0.506396836331457
40
0.744229103370124
40
0.744229103370124
40
1
40
1
40
1
40
1
41
1
10
10.9035841914545
20
3.63229630615825
30
0
41
1
10
10.9116923005282
20
3.63444463494969
30
0
41
1
10
10.9197167797214
20
3.63694570575606
30
0
41
1
10
10.9554514691579
20
3.64979561293401
30
0
41
1
10
10.9820014344299
20
3.66427454311418
30
0
41
1
10
11.0287411418028
20
3.69971322074051
30
0
41
1
10
11.0494566095888
20
3.72118379599479
30
0
41
1
10
11.0838851392069
20
3.7692222932267
30
0
41
1
10
11.0975222184112
20
3.79661149065811
30
0
41
1
10
11.1162944760062
20
3.85452429031673
30
0
41
1
10
11.1209699135436
20
3.88581874163413
30
0
41
1
10
11.120791379451
20
3.91626848134325
30
0
0
SPLINE
5
88
100
AcDbEntity
8
1
62
256
6
ByLayer
370
-1
48
1
60
0
100
AcDbSpline
70
4
71
3
72
12
73
8
40
0
40
0
40
0
40
0
40
0.495924969245406
40
0.495924969245406
40
0.900362445241252
40
0.900362445241252
40
1
40
1
40
1
40
1
41
1
10
11.8108017008698
20
4.60627880276206
30
0
41
1
10
11.7394584838771
20
4.60669710507366
30
0
41
1
10
11.6656646806563
20
4.59582963279661
30
0
41
1
10
11.5356288135011
20
4.55341965727035
30
0
41
1
10
11.4772486804433
20
4.52543247921147
30
0
41
1
10
11.4101445100918
20
4.48023517880341
30
0
41
1
10
11.396974888934
20
4.4706739972886
30
0
41
1
10
11.3841336970726
20
4.46062979360761
30
0
0
SPLINE
5
89
100
AcDbEntity
8
1
62
256
6
ByLayer
370
-1
48
1
60
0
100
AcDbSpline
70
4
71
3
72
16
73
12
40
0
40
0
40
0
40
0
40
0.062999731190102
40
0.062999731190102
40
0.285872777163766
40
0.285872777163766
40
0.511544652680519
40
0.511544652680519
40
0.751675359283847
40
0.751675359283847
40
1
40
1
40
1
40
1
41
1
10
11.6596592067649
20
6.43834001276662
30
0
41
1
10
11.6536996352832
20
6.44429958424831
30
0
41
1
10
11.6474745240853
20
6.45000725144337
30
0
41
1
10
11.6183703782725
20
6.47446166389889
30
0
41
1
10
11.5925072030761
20
6.49013169952624
30
0
41
1
10
11.5383750764751
20
6.51271716752504
30
0
41
1
10
11.5094001269836
20
6.51982953668104
30
0
41
1
10
11.4505630709371
20
6.52543854420287
30
0
41
1
10
11.4200292907885
20
6.52345605169768
30
0
41
1
10
11.3616865793614
20
6.5108162299326
30
0
41
1
10
11.3333432790066
20
6.49975102320442
30
0
41
1
10
11.3078933680112
20
6.48515246463188
30
0
0
SPLINE
5
8A
100
AcDbEntity
8
1
62
256
6
ByLayer
370
-1
48
1
60
0
100
AcDbSpline
70
4
71
3
72
16
73
12
40
0
40
0
40
0
40
0
40
0.0570946626180793
40
0.0570946626180793
40
0.280051745717053
40
0.280051745717053
40
0.50547071517735
40
0.50547071517735
40
0.745074291066681
40
0.745074291066681
40
1
40
1
40
1
40
1
41
1
10
12.0947738760548
20
4.82348599075854
30
0
41
1
10
12.0967314938952
20
4.83087432863195
30
0
41
1
10
12.0984002144193
20
4.83834665953628
30
0
41
1
10
12.105086233862
20
4.87499024616648
30
0
41
1
10
12.1058836320687
20
4.905247933319
30
0
41
1
10
12.0986666258957
20
4.96347624355266
30
0
41
1
10
12.0904861390983
20
4.99216244973621
30
0
41
1
10
12.0662147449753
20
5.04601010733842
30
0
41
1
10
12.04938347688
20
5.07152369426422
30
0
41
1
10
12.008978416461
20
5.11653479032537
30
0
41
1
10
11.984587088886
20
5.13609931932442
30
0
41
1
10
11.9585168338799
20
5.15115141374594
30
0
0
SPLINE
5
8B
100
AcDbEntity
8
1
62
256
6
ByLayer
370
-1
48
1
60
0
100
AcDbSpline
70
4
71
3
72
18
73
14
40
0
40
0
40
0
40
0
40
0.212474276129479
40
0.212474276129479
40
0.386603898215957
40
0.386603898215957
40
0.562415227754639
40
0.562415227754639
40
0.715377877558414
40
0.715377877558414
40
0.918235557790067
40
0.918235557790067
40
1
40
1
40
1
40
1
41
1
10
11.7064716586302
20
6.08657417401287
30
0
41
1
10
11.671160337695
20
6.02501535843089
30
0
41
1
10
11.6443573174198
20
5.95581469857089
30
0
41
1
10
11.6170878385688
20
5.82218441106821
30
0
41
1
10
11.6125915263314
20
5.75760751802355
30
0
41
1
10
11.6224538885853
20
5.62821969352296
30
0
41
1
10
11.6373304551495
20
5.56150942095547
30
0
41
1
10
11.6813366164796
20
5.44646158988175
30
0
41
1
10
11.7088054106133
20
5.39546001702138
30
0
41
1
10
11.7828406335068
20
5.29035564447986
30
0
41
1
10
11.8337969614778
20
5.2387022750849
30
0
41
1
10
11.9113182169638
20
5.18032951445875
30
0
41
1
10
11.9346107994125
20
5.16495395951938
30
0
41
1
10
11.9585168338799
20
5.15115141374594
30
0
0
SPLINE
5
8C
100
AcDbEntity
8
1
62
256
6
ByLayer
370
-1
48
1
60
0
100
AcDbSpline
70
4
71
3
72
12
73
8
40
0
40
0
40
0
40
0
40
0.42211881426401
40
0.42211881426401
40
0.843213979141587
40
0.843213979141587
40
1
40
1
40
1
40
1
41
1
10
11.2664403886054
20
4.34293648514048
30
0
41
1
10
11.2245766781738
20
4.289415075703
30
0
41
1
10
11.1910625471768
20
4.22960644499554
30
0
41
1
10
11.1440343244464
20
4.10888854233008
30
0
41
1
10
11.1296593027693
20
4.0463732967398
30
0
41
1
10
11.1216612229544
20
3.96204502664614
30
0
41
1
10
11.1206576823935
20
3.93907107629693
30
0
41
1
10
11.120791379451
20
3.91626848134325
30
0
0
SPLINE
5
8D
100
AcDbEntity
8
1
62
256
6
ByLayer
370
-1
48
1
60
0
100
AcDbSpline
70
4
71
3
72
18
73
14
40
0
40
0
40
0
40
0
40
0.212474032872501
40
0.212474032872501
40
0.386603697879216
40
0.386603697879216
40
0.562415073202775
40
0.562415073202775
40
0.715377731647785
40
0.715377731647785
40
0.918235368779588
40
0.918235368779588
40
1
40
1
40
1
40
1
41
1
10
10.3724706077442
20
6.73719763988163
30
0
41
1
10
10.4079550383168
20
6.67573854137569
30
0
41
1
10
10.4543214812849
20
6.61779656527273
30
0
41
1
10
10.5561611205164
20
6.52708083386221
30
0
41
1
10
10.6097370129007
20
6.49074879370653
30
0
41
1
10
10.7265641897995
20
6.43426965614984
30
0
41
1
10
10.7917178933985
20
6.41361608456791
30
0
41
1
10
10.9133006877809
20
6.39386322846784
30
0
41
1
10
10.971198745126
20
6.39198952649059
30
0
41
1
10
11.0992711816071
20
6.40319634507134
30
0
41
1
10
11.169533270871
20
6.42130311465573
30
0
41
1
10
11.2589518045757
20
6.45900272749358
30
0
41
1
10
11.2839485180341
20
6.47141723801499
30
0
41
1
10
11.3078933680112
20
6.48515246463188
30
0
0
SPLINE
5
8E
100
AcDbEntity
8
1
62
256
6
ByLayer
370
-1
48
1
60
0
100
AcDbSpline
70
4
71
3
72
14
73
10
40
0
40
0
40
0
40
0
40
0.282377988047944
40
0.282377988047944
40
0.567084253766316
40
0.567084253766316
40
0.824684854618486
40
0.824684854618486
40
1
40
1
40
1
40
1
41
1
10
11.8108017008698
20
4.60627880276206
30
0
41
1
10
11.8444178614075
20
4.60608170318829
30
0
41
1
10
11.8791213640089
20
4.61182942579515
30
0
41
1
10
11.9450622186442
20
4.6357255344443
30
0
41
1
10
11.9772698810676
20
4.65440527862521
30
0
41
1
10
12.0299865391736
20
4.70058930176739
30
0
41
1
10
12.0520743241271
20
4.72782898982624
30
0
41
1
10
12.0798244917297
20
4.77845013496733
30
0
41
1
10
12.0887346087634
20
4.80069290707436
30
0
41
1
10
12.0947738760548
20
4.82348599075854
30
0
0
SPLINE
5
8F
100
AcDbEntity
8
1
62
256
6
ByLayer
370
-1
48
1
60
0
100
AcDbSpline
70
4
71
3
72
12
73
8
40
0
40
0
40
0
40
0
40
0.422118813951747
40
0.422118813951747
40
0.843213978772452
40
0.843213978772452
40
1
40
1
40
1
40
1
41
1
10
9.68194898760589
20
6.16281450307426
30
0
41
1
10
9.72381269800655
20
6.21633591247218
30
0
41
1
10
9.75732682898519
20
6.27614454313047
30
0
41
1
10
9.80435505172269
20
6.39686244573846
30
0
41
1
10
9.81873007341267
20
6.45937769131987
30
0
41
1
10
9.82672815325222
20
6.54370596146057
30
0
41
1
10
9.82773169381809
20
6.56667991186424
30
0
41
1
10
9.82759799676035
20
6.58948250687152
30
0
0
SPLINE
5
90
100
AcDbEntity
8
1
62
256
6
ByLayer
370
-1
48
1
60
0
100
AcDbSpline
70
4
71
3
72
16
73
12
40
0
40
0
40
0
40
0
40
0.062999731190099
40
0.062999731190099
40
0.285872777163774
40
0.285872777163774
40
0.511544652680473
40
0.511544652680473
40
0.751675359283817
40
0.751675359283817
40
1
40
1
40
1
40
1
41
1
10
9.28873016944641
20
4.06741097544813
30
0
41
1
10
9.29468974092811
20
4.06145140396646
30
0
41
1
10
9.30091485212603
20
4.05574373677138
30
0
41
1
10
9.33001899793879
20
4.03128932431588
30
0
41
1
10
9.35588217313523
20
4.0156192886885
30
0
41
1
10
9.41001429973625
20
3.9930338206897
30
0
41
1
10
9.4389892492278
20
3.98592145153373
30
0
41
1
10
9.4978263052742
20
3.9803124440119
30
0
41
1
10
9.52836008542283
20
3.98229493651709
30
0
41
1
10
9.58670279684995
20
3.99493475828214
30
0
41
1
10
9.61504609720475
20
4.00599996501035
30
0
41
1
10
9.64049600820022
20
4.02059852358289
30
0
0
SPLINE
5
91
100
AcDbEntity
8
1
62
256
6
ByLayer
370
-1
48
1
60
0
100
AcDbSpline
70
4
71
3
72
14
73
10
40
0
40
0
40
0
40
0
40
0.283903408666439
40
0.283903408666439
40
0.570234175542302
40
0.570234175542302
40
0.829405958796961
40
0.829405958796961
40
1
40
1
40
1
40
1
41
1
10
9.2419177175812
20
4.4191768142019
30
0
41
1
10
9.22523940510413
20
4.39010123348717
30
0
41
1
10
9.21316796650547
20
4.35716477498019
30
0
41
1
10
9.20145346840837
20
4.28819219529817
30
0
41
1
10
9.20179778972579
20
4.25105326458794
30
0
41
1
10
9.21586731798067
20
4.18256853445965
30
0
41
1
10
9.22859187752215
20
4.14998552498508
30
0
41
1
10
9.25836212654264
20
4.10160754697702
30
0
41
1
10
9.27265365573601
20
4.08348748915856
30
0
41
1
10
9.28873016944641
20
4.06741097544813
30
0
0
SPLINE
5
92
100
AcDbEntity
8
1
62
256
6
ByLayer
370
-1
48
1
60
0
100
AcDbSpline
70
4
71
3
72
14
73
10
40
0
40
0
40
0
40
0
40
0.283482543589446
40
0.283482543589446
40
0.569866164960734
40
0.569866164960734
40
0.829080366665739
40
0.829080366665739
40
1
40
1
40
1
40
1
41
1
10
10.3724706077442
20
6.73719763988163
30
0
41
1
10
10.3557352863
20
6.7661832471627
30
0
41
1
10
10.3333647632311
20
6.79313087712552
30
0
41
1
10
10.2796769064891
20
6.83790949332871
30
0
41
1
10
10.2473979814438
20
6.85628996575716
30
0
41
1
10
10.1811181125864
20
6.87856808679865
30
0
41
1
10
10.1465509552565
20
6.8839533419565
30
0
41
1
10
10.0897170556547
20
6.88254309857638
30
0
41
1
10
10.0668242340447
20
6.87928886079226
30
0
41
1
10
10.0448051847569
20
6.87345468205652
30
0
0
SPLINE
5
93
100
AcDbEntity
8
1
62
256
6
ByLayer
370
-1
48
1
60
0
100
AcDbSpline
70
4
71
3
72
18
73
14
40
0
40
0
40
0
40
0
40
0.212474032872487
40
0.212474032872487
40
0.386603697879202
40
0.386603697879202
40
0.562415073202766
40
0.562415073202766
40
0.715377731647767
40
0.715377731647767
40
0.918235368779573
40
0.918235368779573
40
1
40
1
40
1
40
1
41
1
10
10.5759187684671
20
3.76855334833317
30
0
41
1
10
10.5404343378946
20
3.83001244683908
30
0
41
1
10
10.4940678949265
20
3.88795442294205
30
0
41
1
10
10.392228255695
20
3.97867015435256
30
0
41
1
10
10.3386523633106
20
4.01500219450827
30
0
41
1
10
10.2218251864119
20
4.07148133206493
30
0
41
1
10
10.1566714828129
20
4.09213490364686
30
0
41
1
10
10.0350886884305
20
4.11188775974694
30
0
41
1
10
9.97719063108536
20
4.11376146172418
30
0
41
1
10
9.8491181946043
20
4.10255464314344
30
0
41
1
10
9.77885610534037
20
4.08444787355904
30
0
41
1
10
9.68943757163564
20
4.04674826072122
30
0
41
1
10
9.66444085817733
20
4.03433375019978
30
0
41
1
10
9.64049600820022
20
4.02059852358289
30
0
0
SPLINE
5
94
100
AcDbEntity
8
1
62
256
6
ByLayer
370
-1
48
1
60
0
100
AcDbSpline
70
4
71
3
72
16
73
12
40
0
40
0
40
0
40
0
40
0.062103919721214
40
0.062103919721214
40
0.282872737560693
40
0.282872737560693
40
0.506396836331521
40
0.506396836331521
40
0.744229103370201
40
0.744229103370201
40
1
40
1
40
1
40
1
41
1
10
10.0448051847569
20
6.87345468205652
30
0
41
1
10
10.0366970756832
20
6.87130635326508
30
0
41
1
10
10.0286725964899
20
6.86880528245868
30
0
41
1
10
9.99293790705349
20
6.85595537528076
30
0
41
1
10
9.96638794178148
20
6.8414764451006
30
0
41
1
10
9.91964823440858
20
6.80603776747424
30
0
41
1
10
9.89893276662261
20
6.78456719221995
30
0
41
1
10
9.86450423700447
20
6.73652869498804
30
0
41
1
10
9.85086715780017
20
6.70913949755664
30
0
41
1
10
9.83209490020519
20
6.65122669789801
30
0
41
1
10
9.82741946266779
20
6.61993224658062
30
0
41
1
10
9.82759799676037
20
6.58948250687152
30
0
0
SPLINE
5
95
100
AcDbEntity
8
1
62
256
6
ByLayer
370
-1
48
1
60
0
100
AcDbSpline
70
4
71
3
72
16
73
12
40
0
40
0
40
0
40
0
40
0.0570946626180744
40
0.0570946626180744
40
0.280051745717045
40
0.280051745717045
40
0.505470715177339
40
0.505470715177339
40
0.745074291066667
40
0.745074291066667
40
1
40
1
40
1
40
1
41
1
10
8.85361550015654
20
5.68226499745623
30
0
41
1
10
8.8516578823162
20
5.67487665958282
30
0
41
1
10
8.84998916179211
20
5.66740432867849
30
0
41
1
10
8.84330314234933
20
5.6307607420483
30
0
41
1
10
8.84250574414267
20
5.60050305489577
30
0
41
1
10
8.84972275031561
20
5.54227474466211
30
0
41
1
10
8.85790323711302
20
5.51358853847856
30
0
41
1
10
8.88217463123601
20
5.45974088087635
30
0
41
1
10
8.89900589933134
20
5.43422729395056
30
0
41
1
10
8.93941095975038
20
5.3892161978894
30
0
41
1
10
8.96380228732536
20
5.36965166889033
30
0
41
1
10
8.98987254233145
20
5.35459957446881
30
0
0
SPLINE
5
96
100
AcDbEntity
8
1
62
256
6
ByLayer
370
-1
48
1
60
0
100
AcDbSpline
70
4
71
3
72
18
73
14
40
0
40
0
40
0
40
0
40
0.212474276129477
40
0.212474276129477
40
0.386603898215956
40
0.386603898215956
40
0.562415227754643
40
0.562415227754643
40
0.715377877558421
40
0.715377877558421
40
0.91823555779008
40
0.91823555779008
40
1
40
1
40
1
40
1
41
1
10
9.2419177175812
20
4.4191768142019
30
0
41
1
10
9.27722903851634
20
4.48073562978388
30
0
41
1
10
9.30403205879153
20
4.54993628964388
30
0
41
1
10
9.33130153764262
20
4.68356657714656
30
0
41
1
10
9.33579784987992
20
4.7481434701912
30
0
41
1
10
9.32593548762611
20
4.87753129469181
30
0
41
1
10
9.31105892106189
20
4.9442415672593
30
0
41
1
10
9.26705275973171
20
5.05928939833302
30
0
41
1
10
9.23958396559811
20
5.11029097119339
30
0
41
1
10
9.16554874270457
20
5.21539534373491
30
0
41
1
10
9.11459241473358
20
5.26704871312987
30
0
41
1
10
9.03707115924755
20
5.32542147375599
30
0
41
1
10
9.01377857679881
20
5.34079702869539
30
0
41
1
10
8.98987254233145
20
5.35459957446881
30
0
0
SPLINE
5
97
100
AcDbEntity
8
1
62
256
6
ByLayer
370
-1
48
1
60
0
100
AcDbSpline
70
4
71
3
72
14
73
10
40
0
40
0
40
0
40
0
40
0.283903408666408
40
0.283903408666408
40
0.570234175542264
40
0.570234175542264
40
0.829405958796945
40
0.829405958796945
40
1
40
1
40
1
40
1
41
1
10
11.7064716586302
20
6.08657417401287
30
0
41
1
10
11.7231499711072
20
6.1156497547276
30
0
41
1
10
11.7352214097059
20
6.14858621323458
30
0
41
1
10
11.746935907803
20
6.21755879291661
30
0
41
1
10
11.7465915864856
20
6.25469772362683
30
0
41
1
10
11.7325220582307
20
6.32318245375509
30
0
41
1
10
11.7197974986892
20
6.35576546322966
30
0
41
1
10
11.6900272496687
20
6.40414344123772
30
0
41
1
10
11.6757357204753
20
6.42226349905619
30
0
41
1
10
11.6596592067649
20
6.43834001276662
30
0
0
SPLINE
5
98
100
AcDbEntity
8
1
62
256
6
ByLayer
370
-1
48
1
60
0
100
AcDbSpline
70
4
71
3
72
14
73
10
40
0
40
0
40
0
40
0
40
0.282377988047944
40
0.282377988047944
40
0.567084253766315
40
0.567084253766315
40
0.824684854618484
40
0.824684854618484
40
1
40
1
40
1
40
1
41
1
10
9.13758767534154
20
5.89947218545271
30
0
41
1
10
9.10397151480387
20
5.89966928502648
30
0
41
1
10
9.0692680122024
20
5.89392156241959
30
0
41
1
10
9.00332715756713
20
5.87002545377047
30
0
41
1
10
8.97111949514371
20
5.85134570958957
30
0
41
1
10
8.91840283703777
20
5.80516168644738
30
0
41
1
10
8.89631505208422
20
5.77792199838853
30
0
41
1
10
8.86856488448166
20
5.72730085324744
30
0
41
1
10
8.85965476744798
20
5.70505808114041
30
0
41
1
10
8.85361550015654
20
5.68226499745623
30
0
0
LINE
5
4C
100
AcDbEntity
8
80
62
256
6
ByLayer
370
-1
48
1
60
0
100
AcDbLine
10
0
20
0
30
0
11
-5
21
0
31
0
39
0
210
0
220
0
230
1
0
LINE
5
4D
100
AcDbEntity
8
81
62
256
6
ByLayer
370
-1
48
1
60
0
100
AcDbLine
10
15.633819
20
10.4125
30
0
11
25.633819
21
10.4125
31
0
39
0
210
0
220
0
230
1
0
LINE
5
4E
100
AcDbEntity
8
1
62
256
6
ByLayer
370
-1
48
1
60
0
100
AcDbLine
10
0
20
-5.936208
30
0
11
5.005892
21
-5.936208
31
0
39
0
210
0
220
0
230
1
0
LINE
5
50
100
AcDbEntity
8
1
62
256
6
ByLayer
370
-1
48
1
60
0
100
AcDbLine
10
7.420926
20
-0.661203
30
0
11
7.177651
21
-0.683556
31
0
39
0
210
0
220
0
230
1
0
LINE
5
51
100
AcDbEntity
8
1
62
256
6
ByLayer
370
-1
48
1
60
0
100
AcDbLine
10
0
20
5.9375
30
0
11
0
21
-5.936208
31
0
39
0
210
0
220
0
230
1
0
LINE
5
52
100
AcDbEntity
8
1
62
256
6
ByLayer
370
-1
48
1
60
0
100
AcDbLine
10
5.005892
20
-5.936208
30
0
11
13.635902
21
-4.044544
31
0
39
0
210
0
220
0
230
1
0
LINE
5
53
100
AcDbEntity
8
1
62
256
6
ByLayer
370
-1
48
1
60
0
100
AcDbLine
10
6.007049
20
8.837177
30
0
11
2.050234
21
8.491001
31
0
39
0
210
0
220
0
230
1
0
LINE
5
54
100
AcDbEntity
8
1
62
256
6
ByLayer
370
-1
48
1
60
0
100
AcDbLine
10
7.407226
20
-0.512105
30
0
11
7.16395
21
-0.534459
31
0
39
0
210
0
220
0
230
1
0
LINE
5
55
100
AcDbEntity
8
1
62
256
6
ByLayer
370
-1
48
1
60
0
100
AcDbLine
10
7.420926
20
-0.661203
30
0
11
7.407226
21
-0.512105
31
0
39
0
210
0
220
0
230
1
0
LINE
5
56
100
AcDbEntity
8
1
62
256
6
ByLayer
370
-1
48
1
60
0
100
AcDbLine
10
1
20
5.9375
30
0
11
1.5
21
6.4375
31
0
39
0
210
0
220
0
230
1
0
LINE
5
57
100
AcDbEntity
8
1
62
256
6
ByLayer
370
-1
48
1
60
0
100
AcDbLine
10
2.050234
20
8.491001
30
0
11
1.5
21
6.4375
31
0
39
0
210
0
220
0
230
1
0
LINE
5
58
100
AcDbEntity
8
1
62
256
6
ByLayer
370
-1
48
1
60
0
100
AcDbLine
10
1
20
5.9375
30
0
11
0
21
5.9375
31
0
39
0
210
0
220
0
230
1
0
LINE
5
59
100
AcDbEntity
8
1
62
256
6
ByLayer
370
-1
48
1
60
0
100
AcDbLine
10
7.177651
20
-0.683556
30
0
11
7.16395
21
-0.534459
31
0
39
0
210
0
220
0
230
1
0
LINE
5
5A
100
AcDbEntity
8
1
62
256
6
ByLayer
370
-1
48
1
60
0
100
AcDbLine
10
13.635902
20
-4.044544
30
0
11
14.058494
21
0.785695
31
0
39
0
210
0
220
0
230
1
0
LINE
5
5B
100
AcDbEntity
8
SK1
62
256
6
ByLayer
370
-1
48
1
60
0
100
AcDbLine
10
-0.15
20
5.9375
30
0
11
-65.716181
21
5.9375
31
0
39
0
210
0
220
0
230
1
0
LINE
5
5D
100
AcDbEntity
8
SK1
62
256
6
ByLayer
370
-1
48
1
60
0
100
AcDbLine
10
-65.716181
20
5.9375
30
0
11
-65.716181
21
-5.9375
31
0
39
0
210
0
220
0
230
1
0
LINE
5
5E
100
AcDbEntity
8
1
62
256
6
ByLayer
370
-1
48
1
60
0
100
AcDbLine
10
6.020043
20
8.98525
30
0
11
5.317617
21
0.956478
31
0
39
0
210
0
220
0
230
1
0
LINE
5
5F
100
AcDbEntity
8
SK1
62
256
6
ByLayer
370
-1
48
1
60
0
100
AcDbLine
10
-65.716181
20
-5.9375
30
0
11
-0.15
21
-5.9375
31
0
39
0
210
0
220
0
230
1
0
LINE
5
60
100
AcDbEntity
8
1
62
256
6
ByLayer
370
-1
48
1
60
0
100
AcDbLine
10
14.928346
20
1.520501
30
0
11
15.630773
21
9.549273
31
0
39
0
210
0
220
0
230
1
0
LINE
5
61
100
AcDbEntity
8
SK1
62
256
6
ByLayer
370
-1
48
1
60
0
100
AcDbLine
10
-0.15
20
5.9375
30
0
11
-0.15
21
-5.9375
31
0
39
0
210
0
220
0
230
1
0
LINE
5
62
100
AcDbEntity
8
SK1
62
256
6
ByLayer
370
-1
48
1
60
0
100
AcDbLine
10
-0.15
20
-5.936863
30
0
11
0
21
-5.936208
31
0
39
0
210
0
220
0
230
1
0
LINE
5
63
100
AcDbEntity
8
1
62
256
6
ByLayer
370
-1
48
1
60
0
100
AcDbLine
10
14.770593
20
10.409454
30
0
11
6.74182
21
9.707027
31
0
39
0
210
0
220
0
230
1
0
LINE
5
64
100
AcDbEntity
8
SK1
62
256
6
ByLayer
370
-1
48
1
60
0
100
AcDbLine
10
0
20
5.9375
30
0
11
0
21
-5.936208
31
0
39
0
210
0
220
0
230
1
0
LINE
5
65
100
AcDbEntity
8
SK1
62
256
6
ByLayer
370
-1
48
1
60
0
100
AcDbLine
10
0
20
5.9375
30
0
11
-0.15
21
5.9375
31
0
39
0
210
0
220
0
230
1
0
LINE
5
66
100
AcDbEntity
8
1
62
256
6
ByLayer
370
-1
48
1
60
0
100
AcDbLine
10
6.177797
20
0.096297
30
0
11
14.206569
21
0.798724
31
0
39
0
210
0
220
0
230
1
0
MTEXT
5
99
100
AcDbEntity
8
SK6
62
256
6
ByLayer
370
-1
48
1
60
0
100
AcDbMText
10
-37.215241
20
-14.412993
30
0
210
0
220
0
230
1
1
\W00.714;\fsimplex.shx,bigfont.shx;SCLCR 1212F 09-M 
40
3.5
41
0
44
1.084337
50
0
71
7
72
5
7
DEFAULT
0
DIMENSION
5
CC
100
AcDbEntity
8
2
62
256
6
ByLayer
370
-3
48
1
60
0
100
AcDbDimension
2
DimnDraft3D1
10
1.269297
20
9.228243
30
0
11
0.514188
21
15.698241
31
0
70
34
71
5
72
1
41
1
210
0
220
0
230
1
3
Standard
100
AcDb2LineAngularDimension
13
15.633819
23
12.4125
33
0
14
15.633819
24
24.904368
34
0
15
11.782305
25
10.148012
35
0
16
3.159535
26
21.915552
36
0
40
0
0
DIMENSION
5
E1
100
AcDbEntity
8
SK2
62
256
6
ByLayer
370
-3
48
1
60
0
100
AcDbDimension
2
DimnDraft3D2
10
-75.466181
20
5.9375
30
0
11
-75.466181
21
-2.066447
31
0
70
32
71
5
72
1
41
1
210
0
220
0
230
1
3
Standard
100
AcDbAlignedDimension
13
-67.716181
23
-5.9375
33
0
14
-67.716181
24
5.9375
34
0
50
90
100
AcDbRotatedDimension
1001
ACAD
1000
DSTYLE
1002
{
1070
    74
1070
     0
1070
   279
1070
     0
1070
   172
1070
     1
1070
   173
1070
     1
1070
   340
1005
9A
1070
    77
1070
     1
1070
    73
1070
     0
1070
   171
1070
     3
1070
   274
1070
     4
1070
   177
1070
     2
1070
   176
1070
     2
1070
   178
1070
     7
1070
    78
1070
     8
1070
    41
1041
3.175
1070
   147
1041
2.25
1070
    42
1041
2.0
1070
    44
1041
2.0
1070
   140
1041
4.5
1070
   343
1005
CD
1070
   344
1005
CD
1002
}
0
DIMENSION
5
EF
100
AcDbEntity
8
2
62
256
6
ByLayer
370
-3
48
1
60
0
100
AcDbDimension
2
DimnDraft3D3
10
42.883819
20
10.4125
30
0
11
42.883819
21
0.171053
31
0
70
32
71
5
72
1
41
1
210
0
220
0
230
1
3
Standard
100
AcDbAlignedDimension
13
2
23
-5.9375
33
0
14
17.633819
24
10.4125
34
0
50
90
100
AcDbRotatedDimension
1001
ACAD
1000
DSTYLE
1002
{
1070
    74
1070
     0
1070
   279
1070
     0
1070
   172
1070
     1
1070
   173
1070
     1
1070
   340
1005
9A
1070
    77
1070
     1
1070
    73
1070
     0
1070
   171
1070
     3
1070
   274
1070
     4
1070
   177
1070
     2
1070
   176
1070
     2
1070
   178
1070
     7
1070
    78
1070
     8
1070
    41
1041
3.175
1070
   147
1041
2.25
1070
    42
1041
2.0
1070
    44
1041
2.0
1070
   140
1041
4.5
1070
   343
1005
CD
1070
   344
1005
CD
1002
}
0
DIMENSION
5
FD
100
AcDbEntity
8
SK2
62
256
6
ByLayer
370
-3
48
1
60
0
100
AcDbDimension
2
DimnDraft3D4
10
-65.716181
20
30.1625
30
0
11
-27.670128
21
30.1625
31
0
70
32
71
5
72
1
41
1
210
0
220
0
230
1
3
Standard
100
AcDbAlignedDimension
13
15.633819
23
12.4125
33
0
14
-65.716181
24
7.9375
34
0
50
0
100
AcDbRotatedDimension
1001
ACAD
1000
DSTYLE
1002
{
1070
   279
1070
     0
1070
   172
1070
     1
1070
   173
1070
     1
1070
   340
1005
9A
1070
    77
1070
     1
1070
    73
1070
     0
1070
   171
1070
     3
1070
   274
1070
     4
1070
   177
1070
     2
1070
   176
1070
     2
1070
   178
1070
     7
1070
    78
1070
     8
1070
    41
1041
3.175
1070
   147
1041
2.25
1070
    42
1041
2.0
1070
    44
1041
2.0
1070
   140
1041
4.5
1070
   343
1005
CD
1070
   344
1005
CD
1002
}
0
ENDSEC
0
SECTION
2
OBJECTS
0
DICTIONARY
5
12d
330
0
100
AcDbDictionary
280
0
281
1
3
ACAD_GROUP
350
12e
3
ACAD_MLINESTYLE
350
12f
0
DICTIONARY
5
12e
330
0
100
AcDbDictionary
280
0
281
1
0
DICTIONARY
5
12f
330
0
100
AcDbDictionary
280
0
281
1
3
Standard
350
18
0
MLINESTYLE
5
18
330
12f
100
AcDbMlineStyle
2
Standard
70
0
3

62
256
51
90
52
90
71
2
49
-0.5
62
256
6
ByLayer
49
0.5
62
256
6
ByLayer
0
RASTERVARIABLES
5
11c
330

100
AcDbRasterVariables
90
0
70
1
71
1
72
1
0
ENDSEC
0
EOF
