0
SECTION
2
HEADER
9
$ACADVER
1
AC1015
9
$DWGCODEPAGE
3
ANSI_1252
9
$HANDSEED
5
177
9
$ANGBASE
50
0
9
$ANGDIR
70
0
9
$ATTMODE
70
1
9
$AUNITS
70
0
9
$AUPREC
70
0
9
$CECOLOR
62
256
9
$CELTSCALE
40
1
9
$CELTYPE
6
ByLayer
9
$CELWEIGHT
370
18
9
$CLAYER
8
0
9
$CMLJUST
70
0
9
$CMLSCALE
40
1
9
$CMLSTYLE
2
Standard
9
$DIMSTYLE
2
Standard
9
$TEXTSIZE
40
0.2
9
$TEXTSTYLE
7
Standard
9
$LUNITS
70
2
9
$LUPREC
70
4
9
$EXTNAMES
290
1
9
$INSUNITS
70
4
9
$LTSCALE
40
1
9
$LWDISPLAY
290
1
9
$PDMODE
70
0
9
$PDSIZE
40
0
9
$PLINEGEN
70
0
0
ENDSEC
0
SECTION
2
CLASSES
0
CLASS
1
RASTERVARIABLES
2
AcDbRasterVariables
3
ISM
90
0
280
0
281
0
0
ENDSEC
0
SECTION
2
TABLES
0
TABLE
2
VPORT
5
16d
100
AcDbSymbolTable
0
VPORT
5
1
100
AcDbSymbolTableRecord
100
AcDbViewportTableRecord
2
*Active
70
0
10
0
20
0
11
1
21
1
12
-1
22
1
13
0
23
0
14
0.5
24
0.5
15
10
25
10
16
0
26
0
36
1
17
0
27
0
37
0
0
ENDTAB
0
TABLE
2
LTYPE
5
16e
100
AcDbSymbolTable
0
LTYPE
5
14
100
AcDbSymbolTableRecord
100
AcDbLinetypeTableRecord
70
0
2
ByBlock
3

72
65
73
0
40
0
0
LTYPE
5
15
100
AcDbSymbolTableRecord
100
AcDbLinetypeTableRecord
70
0
2
ByLayer
3

72
65
73
0
40
0
0
LTYPE
5
16
100
AcDbSymbolTableRecord
100
AcDbLinetypeTableRecord
70
0
2
CONTINUOUS
3
Solid line
72
65
73
0
40
0
0
LTYPE
5
6A
100
AcDbSymbolTableRecord
100
AcDbLinetypeTableRecord
70
0
2
CENTER
3
____ _ ____ _ ____ _ ____
72
65
73
4
40
47.5
49
22
74
0
49
-8.5
74
0
49
8.5
74
0
49
-8.5
74
0
0
LTYPE
5
6B
100
AcDbSymbolTableRecord
100
AcDbLinetypeTableRecord
70
0
2
DASHED
3
__ __ __ __ __ __ __ __ __
72
65
73
2
40
25.72
49
12.86
74
0
49
-12.86
74
0
0
ENDTAB
0
TABLE
2
LAYER
5
16f
100
AcDbSymbolTable
0
LAYER
5
10
100
AcDbSymbolTableRecord
100
AcDbLayerTableRecord
2
0
70
0
62
7
6
CONTINUOUS
290
1
370
-3
390
0
0
LAYER
5
6D
100
AcDbSymbolTableRecord
100
AcDbLayerTableRecord
2
81
70
0
62
-3
6
CONTINUOUS
290
1
370
-3
390
0
0
LAYER
5
6F
100
AcDbSymbolTableRecord
100
AcDbLayerTableRecord
2
80
70
0
62
-6
6
CONTINUOUS
290
1
370
-3
390
0
0
LAYER
5
73
100
AcDbSymbolTableRecord
100
AcDbLayerTableRecord
2
1
70
0
62
4
6
CONTINUOUS
290
1
370
-3
390
0
0
LAYER
5
9D
100
AcDbSymbolTableRecord
100
AcDbLayerTableRecord
2
4
70
0
62
-2
6
CENTER
290
1
370
-3
390
0
0
LAYER
5
D7
100
AcDbSymbolTableRecord
100
AcDbLayerTableRecord
2
2
70
0
62
7
6
CONTINUOUS
290
1
370
-3
390
0
0
LAYER
5
159
100
AcDbSymbolTableRecord
100
AcDbLayerTableRecord
2
SK1
70
0
62
4
6
CONTINUOUS
290
1
370
-3
390
0
0
LAYER
5
15a
100
AcDbSymbolTableRecord
100
AcDbLayerTableRecord
2
SK4
70
0
62
2
6
CENTER
290
1
370
-3
390
0
0
LAYER
5
15b
100
AcDbSymbolTableRecord
100
AcDbLayerTableRecord
2
SK6
70
0
62
5
6
CONTINUOUS
290
1
370
-3
390
0
0
LAYER
5
15c
100
AcDbSymbolTableRecord
100
AcDbLayerTableRecord
2
SK2
70
0
62
7
6
CONTINUOUS
290
1
370
-3
390
0
0
ENDTAB
0
TABLE
2
STYLE
5
170
100
AcDbSymbolTable
0
STYLE
5
11
100
AcDbSymbolTableRecord
100
AcDbTextStyleTableRecord
2
Standard
3
txt
70
0
71
0
40
0
41
1
42
0
50
0
0
STYLE
5
AE
100
AcDbSymbolTableRecord
100
AcDbTextStyleTableRecord
2
iso_b_vert
3
simplex.shx
70
0
71
0
40
0
41
1
42
0
50
0
0
STYLE
5
AF
100
AcDbSymbolTableRecord
100
AcDbTextStyleTableRecord
2
DWGDirectTextStyle
3
simplex
70
0
71
0
40
0
41
1
42
0
50
0
0
ENDTAB
0
TABLE
2
DIMSTYLE
5
171
100
AcDbSymbolTable
100
AcDbDimStyleTable
0
DIMSTYLE
105
27
100
AcDbSymbolTableRecord
100
AcDbDimStyleTableRecord
2
Standard
70
0
3
<>
41
0.18
42
0.0625
44
0.18
140
0.18
147
0.09
73
0
74
0
77
1
271
2
275
0
278
52
280
0
340
11
0
ENDTAB
0
TABLE
2
VIEW
5
172
100
AcDbSymbolTable
0
ENDTAB
0
TABLE
2
UCS
5
173
100
AcDbSymbolTable
0
ENDTAB
0
TABLE
2
APPID
5
174
100
AcDbSymbolTable
0
APPID
5
12
100
AcDbSymbolTableRecord
100
AcDbRegAppTableRecord
2
ACAD
70
0
0
ENDTAB
0
TABLE
2
BLOCK_RECORD
5
175
100
AcDbSymbolTable
0
BLOCK_RECORD
5
1F
100
AcDbSymbolTableRecord
100
AcDbBlockTableRecord
2
*Model_Space
340
0
70
0
0
BLOCK_RECORD
5
1B
100
AcDbSymbolTableRecord
100
AcDbBlockTableRecord
2
*Paper_Space
340
0
70
0
0
BLOCK_RECORD
5
23
100
AcDbSymbolTableRecord
100
AcDbBlockTableRecord
2
*Paper_Space0
340
0
70
0
0
BLOCK_RECORD
5
B1
100
AcDbSymbolTableRecord
100
AcDbBlockTableRecord
2
DimnDraft3D1
340
0
70
0
0
BLOCK_RECORD
5
C0
100
AcDbSymbolTableRecord
100
AcDbBlockTableRecord
2
_CLOSED
340
0
70
0
0
BLOCK_RECORD
5
C7
100
AcDbSymbolTableRecord
100
AcDbBlockTableRecord
2
DimnDraft3D2
340
0
70
0
0
BLOCK_RECORD
5
D5
100
AcDbSymbolTableRecord
100
AcDbBlockTableRecord
2
DimnDraft3D3
340
0
70
0
0
BLOCK_RECORD
5
E4
100
AcDbSymbolTableRecord
100
AcDbBlockTableRecord
2
DimnDraft3D4
340
0
70
0
0
BLOCK_RECORD
5
F2
100
AcDbSymbolTableRecord
100
AcDbBlockTableRecord
2
DimnDraft3D5
340
0
70
0
0
ENDTAB
0
ENDSEC
0
SECTION
2
BLOCKS
0
BLOCK
5
20
100
AcDbEntity
8
0
100
AcDbBlockBegin
2
*Model_Space
70
0
10
0
20
0
30
0
3
*Model_Space
0
ENDBLK
5
21
100
AcDbEntity
8
0
100
AcDbBlockEnd
0
BLOCK
5
1C
100
AcDbEntity
8
0
100
AcDbBlockBegin
2
*Paper_Space
70
0
10
0
20
0
30
0
3
*Paper_Space
0
ENDBLK
5
1D
100
AcDbEntity
8
0
100
AcDbBlockEnd
0
BLOCK
5
24
100
AcDbEntity
8
0
100
AcDbBlockBegin
2
*Paper_Space0
70
0
10
0
20
0
30
0
3
*Paper_Space0
0
ENDBLK
5
25
100
AcDbEntity
8
0
100
AcDbBlockEnd
0
BLOCK
5
BD
100
AcDbEntity
8
0
100
AcDbBlockBegin
2
DimnDraft3D1
70
0
10
0
20
0
30
0
3
DimnDraft3D1
0
MTEXT
5
B2
100
AcDbEntity
8
SK2
62
256
6
ByLayer
370
18
48
1
60
0
100
AcDbMText
10
129.278933
20
43.723007
30
0
210
0
220
0
230
1
1
\W0.7493;49.5
40
3
41
0
44
1.084337
50
0
71
7
72
5
7
iso_b_vert
0
LINE
5
B4
100
AcDbEntity
8
SK2
62
256
6
ByLayer
370
13
48
1
60
0
100
AcDbLine
10
159.829979
20
29.111591
30
0
11
159.829979
21
44.973007
31
0
39
0
210
0
220
0
230
1
0
LINE
5
B5
100
AcDbEntity
8
SK2
62
256
6
ByLayer
370
13
48
1
60
0
100
AcDbLine
10
104.427887
20
18.605
30
0
11
104.427887
21
44.973007
31
0
39
0
210
0
220
0
230
1
0
LINE
5
B6
100
AcDbEntity
8
SK2
62
256
6
ByLayer
370
13
48
1
60
0
100
AcDbLine
10
159.829979
20
42.973007
30
0
11
104.427887
21
42.973007
31
0
39
0
210
0
220
0
230
1
0
LINE
5
B7
100
AcDbEntity
8
SK2
62
256
6
ByLayer
370
13
48
1
60
0
100
AcDbLine
10
159.829979
20
42.973007
30
0
11
156.654981
21
42.55501
31
0
39
0
210
0
220
0
230
1
0
LINE
5
B8
100
AcDbEntity
8
SK2
62
256
6
ByLayer
370
13
48
1
60
0
100
AcDbLine
10
159.829979
20
42.973007
30
0
11
156.654978
21
43.391004
31
0
39
0
210
0
220
0
230
1
0
LINE
5
B9
100
AcDbEntity
8
SK2
62
256
6
ByLayer
370
13
48
1
60
0
100
AcDbLine
10
156.654981
20
42.55501
30
0
11
156.654978
21
43.391004
31
0
39
0
210
0
220
0
230
1
0
LINE
5
BA
100
AcDbEntity
8
SK2
62
256
6
ByLayer
370
13
48
1
60
0
100
AcDbLine
10
104.427887
20
42.973007
30
0
11
107.602886
21
43.391004
31
0
39
0
210
0
220
0
230
1
0
LINE
5
BB
100
AcDbEntity
8
SK2
62
256
6
ByLayer
370
13
48
1
60
0
100
AcDbLine
10
104.427887
20
42.973007
30
0
11
107.602889
21
42.55501
31
0
39
0
210
0
220
0
230
1
0
LINE
5
BC
100
AcDbEntity
8
SK2
62
256
6
ByLayer
370
13
48
1
60
0
100
AcDbLine
10
107.602886
20
43.391004
30
0
11
107.602889
21
42.55501
31
0
39
0
210
0
220
0
230
1
0
ENDBLK
5
BE
100
AcDbEntity
8
0
100
AcDbBlockEnd
0
BLOCK
5
C1
100
AcDbEntity
8
0
100
AcDbBlockBegin
2
_CLOSED
70
0
10
0
20
0
30
0
3
_CLOSED
0
LINE
5
C3
100
AcDbEntity
8
0
62
256
6
ByLayer
370
-2
48
1
60
0
100
AcDbLine
10
-1
20
0.166667
30
0
11
0
21
0
31
0
39
0
210
0
220
0
230
1
0
LINE
5
C4
100
AcDbEntity
8
0
62
256
6
ByLayer
370
-2
48
1
60
0
100
AcDbLine
10
0
20
0
30
0
11
-1
21
-0.166667
31
0
39
0
210
0
220
0
230
1
0
LINE
5
C5
100
AcDbEntity
8
0
62
256
6
ByLayer
370
-2
48
1
60
0
100
AcDbLine
10
-1
20
0.166667
30
0
11
-1
21
-0.166667
31
0
39
0
210
0
220
0
230
1
0
LINE
5
C6
100
AcDbEntity
8
0
62
256
6
ByLayer
370
-2
48
1
60
0
100
AcDbLine
10
0
20
0
30
0
11
-1
21
0
31
0
39
0
210
0
220
0
230
1
0
ENDBLK
5
C2
100
AcDbEntity
8
0
100
AcDbBlockEnd
0
BLOCK
5
D2
100
AcDbEntity
8
0
100
AcDbBlockBegin
2
DimnDraft3D2
70
0
10
0
20
0
30
0
3
DimnDraft3D2
0
MTEXT
5
C8
100
AcDbEntity
8
SK2
62
256
6
ByLayer
370
18
48
1
60
0
100
AcDbMText
10
-42.346853
20
74.648726
30
0
210
0
220
0
230
1
1
\W0.7368;400
40
3
41
0
44
1.084337
50
0
71
7
72
5
7
iso_b_vert
0
LINE
5
C9
100
AcDbEntity
8
SK2
62
256
6
ByLayer
370
13
48
1
60
0
100
AcDbLine
10
159.829979
20
29.111591
30
0
11
159.829979
21
75.898726
31
0
39
0
210
0
220
0
230
1
0
LINE
5
CA
100
AcDbEntity
8
SK2
62
256
6
ByLayer
370
13
48
1
60
0
100
AcDbLine
10
-240
20
18.605
30
0
11
-240
21
75.898726
31
0
39
0
210
0
220
0
230
1
0
LINE
5
CB
100
AcDbEntity
8
SK2
62
256
6
ByLayer
370
13
48
1
60
0
100
AcDbLine
10
159.829979
20
73.898726
30
0
11
-240
21
73.898726
31
0
39
0
210
0
220
0
230
1
0
LINE
5
CC
100
AcDbEntity
8
SK2
62
256
6
ByLayer
370
13
48
1
60
0
100
AcDbLine
10
159.829979
20
73.898726
30
0
11
156.654981
21
73.480729
31
0
39
0
210
0
220
0
230
1
0
LINE
5
CD
100
AcDbEntity
8
SK2
62
256
6
ByLayer
370
13
48
1
60
0
100
AcDbLine
10
159.829979
20
73.898726
30
0
11
156.654978
21
74.316722
31
0
39
0
210
0
220
0
230
1
0
LINE
5
CE
100
AcDbEntity
8
SK2
62
256
6
ByLayer
370
13
48
1
60
0
100
AcDbLine
10
156.654981
20
73.480729
30
0
11
156.654978
21
74.316722
31
0
39
0
210
0
220
0
230
1
0
LINE
5
CF
100
AcDbEntity
8
SK2
62
256
6
ByLayer
370
13
48
1
60
0
100
AcDbLine
10
-240
20
73.898726
30
0
11
-236.825002
21
74.316722
31
0
39
0
210
0
220
0
230
1
0
LINE
5
D0
100
AcDbEntity
8
SK2
62
256
6
ByLayer
370
13
48
1
60
0
100
AcDbLine
10
-240
20
73.898726
30
0
11
-236.824998
21
73.480729
31
0
39
0
210
0
220
0
230
1
0
LINE
5
D1
100
AcDbEntity
8
SK2
62
256
6
ByLayer
370
13
48
1
60
0
100
AcDbLine
10
-236.825002
20
74.316722
30
0
11
-236.824998
21
73.480729
31
0
39
0
210
0
220
0
230
1
0
ENDBLK
5
D3
100
AcDbEntity
8
0
100
AcDbBlockEnd
0
BLOCK
5
E1
100
AcDbEntity
8
0
100
AcDbBlockBegin
2
DimnDraft3D3
70
0
10
0
20
0
30
0
3
DimnDraft3D3
0
MTEXT
5
D6
100
AcDbEntity
8
2
62
256
6
ByLayer
370
18
48
1
60
0
100
AcDbMText
10
205.66064
20
12.553164
30
0
210
0
220
0
230
1
1
\W0.6562;27
40
3
41
0
44
1.084337
50
90
71
7
72
5
7
iso_b_vert
0
LINE
5
D8
100
AcDbEntity
8
2
62
256
6
ByLayer
370
13
48
1
60
0
100
AcDbLine
10
161.829979
20
27.111591
30
0
11
208.41064
21
27.111591
31
0
39
0
210
0
220
0
230
1
0
LINE
5
D9
100
AcDbEntity
8
2
62
256
6
ByLayer
370
13
48
1
60
0
100
AcDbLine
10
172
20
0
30
0
11
208.41064
21
0
31
0
39
0
210
0
220
0
230
1
0
LINE
5
DA
100
AcDbEntity
8
2
62
256
6
ByLayer
370
13
48
1
60
0
100
AcDbLine
10
206.41064
20
27.111591
30
0
11
206.41064
21
0
31
0
39
0
210
0
220
0
230
1
0
LINE
5
DB
100
AcDbEntity
8
2
62
256
6
ByLayer
370
13
48
1
60
0
100
AcDbLine
10
206.41064
20
27.111591
30
0
11
206.828636
21
23.936592
31
0
39
0
210
0
220
0
230
1
0
LINE
5
DC
100
AcDbEntity
8
2
62
256
6
ByLayer
370
13
48
1
60
0
100
AcDbLine
10
206.41064
20
27.111591
30
0
11
205.992643
21
23.936589
31
0
39
0
210
0
220
0
230
1
0
LINE
5
DD
100
AcDbEntity
8
2
62
256
6
ByLayer
370
13
48
1
60
0
100
AcDbLine
10
206.828636
20
23.936592
30
0
11
205.992643
21
23.936589
31
0
39
0
210
0
220
0
230
1
0
LINE
5
DE
100
AcDbEntity
8
2
62
256
6
ByLayer
370
13
48
1
60
0
100
AcDbLine
10
206.41064
20
0
30
0
11
205.992643
21
3.174998
31
0
39
0
210
0
220
0
230
1
0
LINE
5
DF
100
AcDbEntity
8
2
62
256
6
ByLayer
370
13
48
1
60
0
100
AcDbLine
10
206.41064
20
0
30
0
11
206.828636
21
3.175002
31
0
39
0
210
0
220
0
230
1
0
LINE
5
E0
100
AcDbEntity
8
2
62
256
6
ByLayer
370
13
48
1
60
0
100
AcDbLine
10
205.992643
20
3.174998
30
0
11
206.828636
21
3.175002
31
0
39
0
210
0
220
0
230
1
0
ENDBLK
5
E2
100
AcDbEntity
8
0
100
AcDbBlockEnd
0
BLOCK
5
EF
100
AcDbEntity
8
0
100
AcDbBlockBegin
2
DimnDraft3D4
70
0
10
0
20
0
30
0
3
DimnDraft3D4
0
MTEXT
5
E5
100
AcDbEntity
8
SK2
62
256
6
ByLayer
370
18
48
1
60
0
100
AcDbMText
10
220.246157
20
2.713164
30
0
210
0
220
0
230
1
1
\W0.6562;50
40
3
41
0
44
1.084337
50
90
71
7
72
5
7
iso_b_vert
0
LINE
5
E6
100
AcDbEntity
8
SK2
62
256
6
ByLayer
370
13
48
1
60
0
100
AcDbLine
10
161.829979
20
27.111591
30
0
11
222.996157
21
27.111591
31
0
39
0
210
0
220
0
230
1
0
LINE
5
E7
100
AcDbEntity
8
SK2
62
256
6
ByLayer
370
13
48
1
60
0
100
AcDbLine
10
2
20
-19.68
30
0
11
222.996157
21
-19.68
31
0
39
0
210
0
220
0
230
1
0
LINE
5
E8
100
AcDbEntity
8
SK2
62
256
6
ByLayer
370
13
48
1
60
0
100
AcDbLine
10
220.996157
20
27.111591
30
0
11
220.996157
21
-19.68
31
0
39
0
210
0
220
0
230
1
0
LINE
5
E9
100
AcDbEntity
8
SK2
62
256
6
ByLayer
370
13
48
1
60
0
100
AcDbLine
10
220.996157
20
27.111591
30
0
11
221.414154
21
23.936592
31
0
39
0
210
0
220
0
230
1
0
LINE
5
EA
100
AcDbEntity
8
SK2
62
256
6
ByLayer
370
13
48
1
60
0
100
AcDbLine
10
220.996157
20
27.111591
30
0
11
220.57816
21
23.936589
31
0
39
0
210
0
220
0
230
1
0
LINE
5
EB
100
AcDbEntity
8
SK2
62
256
6
ByLayer
370
13
48
1
60
0
100
AcDbLine
10
221.414154
20
23.936592
30
0
11
220.57816
21
23.936589
31
0
39
0
210
0
220
0
230
1
0
LINE
5
EC
100
AcDbEntity
8
SK2
62
256
6
ByLayer
370
13
48
1
60
0
100
AcDbLine
10
220.996157
20
-19.68
30
0
11
220.57816
21
-16.505002
31
0
39
0
210
0
220
0
230
1
0
LINE
5
ED
100
AcDbEntity
8
SK2
62
256
6
ByLayer
370
13
48
1
60
0
100
AcDbLine
10
220.996157
20
-19.68
30
0
11
221.414154
21
-16.504998
31
0
39
0
210
0
220
0
230
1
0
LINE
5
EE
100
AcDbEntity
8
SK2
62
256
6
ByLayer
370
13
48
1
60
0
100
AcDbLine
10
220.57816
20
-16.505002
30
0
11
221.414154
21
-16.504998
31
0
39
0
210
0
220
0
230
1
0
ENDBLK
5
F0
100
AcDbEntity
8
0
100
AcDbBlockEnd
0
BLOCK
5
FD
100
AcDbEntity
8
0
100
AcDbBlockBegin
2
DimnDraft3D5
70
0
10
0
20
0
30
0
3
DimnDraft3D5
0
MTEXT
5
F3
100
AcDbEntity
8
2
62
256
6
ByLayer
370
18
48
1
60
0
100
AcDbMText
10
78.186042
20
62.582405
30
0
210
0
220
0
230
1
1
\W0.6044;160
40
3
41
0
44
1.084337
50
0
71
7
72
5
7
iso_b_vert
0
LINE
5
F4
100
AcDbEntity
8
2
62
256
6
ByLayer
370
13
48
1
60
0
100
AcDbLine
10
0
20
2
30
0
11
0
21
63.832405
31
0
39
0
210
0
220
0
230
1
0
LINE
5
F5
100
AcDbEntity
8
2
62
256
6
ByLayer
370
13
48
1
60
0
100
AcDbLine
10
159.829979
20
29.111591
30
0
11
159.829979
21
63.832405
31
0
39
0
210
0
220
0
230
1
0
LINE
5
F6
100
AcDbEntity
8
2
62
256
6
ByLayer
370
13
48
1
60
0
100
AcDbLine
10
0
20
61.832405
30
0
11
159.829979
21
61.832405
31
0
39
0
210
0
220
0
230
1
0
LINE
5
F7
100
AcDbEntity
8
2
62
256
6
ByLayer
370
13
48
1
60
0
100
AcDbLine
10
0
20
61.832405
30
0
11
3.174998
21
62.250402
31
0
39
0
210
0
220
0
230
1
0
LINE
5
F8
100
AcDbEntity
8
2
62
256
6
ByLayer
370
13
48
1
60
0
100
AcDbLine
10
0
20
61.832405
30
0
11
3.175002
21
61.414408
31
0
39
0
210
0
220
0
230
1
0
LINE
5
F9
100
AcDbEntity
8
2
62
256
6
ByLayer
370
13
48
1
60
0
100
AcDbLine
10
3.174998
20
62.250402
30
0
11
3.175002
21
61.414408
31
0
39
0
210
0
220
0
230
1
0
LINE
5
FA
100
AcDbEntity
8
2
62
256
6
ByLayer
370
13
48
1
60
0
100
AcDbLine
10
159.829979
20
61.832405
30
0
11
156.654981
21
61.414408
31
0
39
0
210
0
220
0
230
1
0
LINE
5
FB
100
AcDbEntity
8
2
62
256
6
ByLayer
370
13
48
1
60
0
100
AcDbLine
10
159.829979
20
61.832405
30
0
11
156.654978
21
62.250402
31
0
39
0
210
0
220
0
230
1
0
LINE
5
FC
100
AcDbEntity
8
2
62
256
6
ByLayer
370
13
48
1
60
0
100
AcDbLine
10
156.654981
20
61.414408
30
0
11
156.654978
21
62.250402
31
0
39
0
210
0
220
0
230
1
0
ENDBLK
5
FE
100
AcDbEntity
8
0
100
AcDbBlockEnd
0
ENDSEC
0
SECTION
2
ENTITIES
0
CIRCLE
5
A5
100
AcDbEntity
8
1
62
256
6
ByLayer
370
18
48
1
60
0
100
AcDbCircle
10
154.148852
20
17.271591
30
0
40
3.8745
39
0
210
0
220
0
230
1
0
CIRCLE
5
A6
100
AcDbEntity
8
1
62
256
6
ByLayer
370
18
48
1
60
0
100
AcDbCircle
10
147.814352
20
6.299915
30
0
40
6.519
39
0
210
0
220
0
230
1
0
POINT
5
6C
100
AcDbEntity
8
81
62
256
6
ByLayer
370
18
48
1
60
0
100
AcDbPoint
10
159.829979
20
27.111591
30
0
39
0
210
0
220
0
230
1
50
360
0
POINT
5
6E
100
AcDbEntity
8
80
62
256
6
ByLayer
370
18
48
1
60
0
100
AcDbPoint
10
0
20
0
30
0
39
0
210
0
220
0
230
1
50
360
0
SPLINE
5
A7
100
AcDbEntity
8
1
62
256
6
ByLayer
370
18
48
1
60
0
100
AcDbSpline
70
4
71
3
72
12
73
8
40
0
40
0
40
0
40
0
40
0.346093115040275
40
0.346093115040275
40
0.724258881063607
40
0.724258881063607
40
1
40
1
40
1
40
1
41
1
10
123.325222209959
20
16.6049999999968
30
0
41
1
10
122.029811300324
20
15.9281115559717
30
0
41
1
10
120.858632319039
20
15.0520305290725
30
0
41
1
10
118.736075749943
20
12.659563868029
30
0
41
1
10
118.072977964181
20
11.5817187515733
30
0
41
1
10
116.916705243523
20
8.2808284562429
30
0
41
1
10
116.620406190842
20
6.94511198111558
30
0
41
1
10
116.48947885305
20
5.59692237416424
30
0
0
SPLINE
5
A8
100
AcDbEntity
8
1
62
256
6
ByLayer
370
18
48
1
60
0
100
AcDbSpline
70
4
71
3
72
42
73
38
40
0
40
0
40
0
40
0
40
0.0022231916896714
40
0.0311526300989045
40
0.0600598834517422
40
0.089015052180345
40
0.118089009943573
40
0.147353313408535
40
0.176880097383995
40
0.206741959396423
40
0.236797304260801
40
0.266560964857258
40
0.296053279617877
40
0.32532270851448
40
0.354419403020598
40
0.383395199607093
40
0.41230358332225
40
0.441199620576372
40
0.470139861504367
40
0.499182213634269
40
0.52838578994104
40
0.557810735598153
40
0.58751803874196
40
0.617568369718248
40
0.647522767910572
40
0.677039059464312
40
0.70620485249467
40
0.735111255974553
40
0.76385273776797
40
0.792526867633113
40
0.821233949230811
40
0.85007655423188
40
0.879158980138868
40
0.908586660090493
40
0.938465556606885
40
0.96890157138883
40
1
40
1
40
1
40
1
41
1
10
139.121263151499
20
-16.8411629462655
30
0
41
1
10
139.116046984666
20
-16.8441745015887
30
0
41
1
10
139.042993909741
20
-16.886351714031
30
0
41
1
10
138.903167595847
20
-16.9670804739312
30
0
41
1
10
138.704020447148
20
-17.0820581337376
30
0
41
1
10
138.507617603219
20
-17.1954513684448
30
0
41
1
10
138.313640006481
20
-17.3074443860405
30
0
41
1
10
138.121768855597
20
-17.4182212465699
30
0
41
1
10
137.931679943457
20
-17.5279691311043
30
0
41
1
10
137.743521414718
20
-17.6366025082926
30
0
41
1
10
137.558473480493
20
-17.7434399829387
30
0
41
1
10
137.377876002394
20
-17.8477079855609
30
0
41
1
10
137.202898134731
20
-17.9487315046045
30
0
41
1
10
137.033536452987
20
-18.0465125172098
30
0
41
1
10
136.869753592017
20
-18.1410725961505
30
0
41
1
10
136.71150716567
20
-18.2324362130786
30
0
41
1
10
136.558756219353
20
-18.3206270131361
30
0
41
1
10
136.411459502213
20
-18.4056688125104
30
0
41
1
10
136.269575721485
20
-18.4875854515873
30
0
41
1
10
136.133063942255
20
-18.5664005641457
30
0
41
1
10
136.001881402299
20
-18.6421388389653
30
0
41
1
10
135.875991604934
20
-18.7148213474112
30
0
41
1
10
135.755334791609
20
-18.7844825910966
30
0
41
1
10
135.64058382172
20
-18.8507340944592
30
0
41
1
10
135.532386616164
20
-18.9132017802109
30
0
41
1
10
135.431925592613
20
-18.9712029792013
30
0
41
1
10
135.339842902479
20
-19.024366945138
30
0
41
1
10
135.256197735236
20
-19.072659504962
30
0
41
1
10
135.181067121456
20
-19.1160361850524
30
0
41
1
10
135.114523128158
20
-19.1544553774959
30
0
41
1
10
135.056638440245
20
-19.1878751176443
30
0
41
1
10
135.007484939167
20
-19.2162539047233
30
0
41
1
10
134.967132399611
20
-19.2395514542984
30
0
41
1
10
134.9356540863
20
-19.2577254669625
30
0
41
1
10
134.913104670019
20
-19.270744378522
30
0
41
1
10
134.899604842818
20
-19.2785385073909
30
0
41
1
10
134.896582073044
20
-19.2802837043337
30
0
41
1
10
134.896640450656
20
-19.2802500000032
30
0
0
SPLINE
5
A9
100
AcDbEntity
8
1
62
256
6
ByLayer
370
18
48
1
60
0
100
AcDbSpline
70
4
71
3
72
16
73
12
40
0
40
0
40
0
40
0
40
0.0548032917390374
40
0.172774103595404
40
0.290789909326643
40
0.408853843880731
40
0.526968965778771
40
0.645138260282651
40
0.763364642574575
40
0.881650960946804
40
1
40
1
40
1
40
1
41
1
10
139.121263151499
20
-16.8411629462655
30
0
41
1
10
139.164833721698
20
-16.8160074659125
30
0
41
1
10
139.302278218019
20
-16.7366538491696
30
0
41
1
10
139.534057317116
20
-16.6028361237723
30
0
41
1
10
139.816963922511
20
-16.439499919038
30
0
41
1
10
140.100657279343
20
-16.2757094830915
30
0
41
1
10
140.385108791676
20
-16.111481325878
30
0
41
1
10
140.670291060641
20
-15.9468312661216
30
0
41
1
10
140.956175199356
20
-15.7817759816777
30
0
41
1
10
141.242737079367
20
-15.6163294031141
30
0
41
1
10
141.434150166102
20
-15.5058170059613
30
0
41
1
10
141.52996552743
20
-15.4504979813061
30
0
0
SPLINE
5
AA
100
AcDbEntity
8
1
62
256
6
ByLayer
370
18
48
1
60
0
100
AcDbSpline
70
4
71
3
72
101
73
97
40
0
40
0
40
0
40
0
40
0.0006237547851492
40
0.0116692120501468
40
0.0226907881657607
40
0.0336904228701873
40
0.0446699428009228
40
0.0556310629509917
40
0.0665753883192735
40
0.0775044157418742
40
0.0884195358913655
40
0.0993220354307326
40
0.110213099309021
40
0.121093813185928
40
0.131965165972947
40
0.142828052479111
40
0.153683276149914
40
0.164531551888539
40
0.175373508949182
40
0.186209693892874
40
0.197040573596934
40
0.207866538309849
40
0.218687904744096
40
0.229504919200131
40
0.240317760715448
40
0.251126544233313
40
0.261931323786432
40
0.27273209569145
40
0.283528801750806
40
0.294321332459056
40
0.305109530211318
40
0.315893192512048
40
0.326673348115643
40
0.33745227962285
40
0.348230837206302
40
0.359009802637116
40
0.369789905230058
40
0.380571823533326
40
0.391356187050631
40
0.402143577991595
40
0.412934533046755
40
0.423729545183715
40
0.434529065461206
40
0.445333504858085
40
0.45614323611454
40
0.466958595582989
40
0.47777988508641
40
0.488607373782044
40
0.49944130002864
40
0.510281873255585
40
0.521129275832497
40
0.531983664937991
40
0.542845174426533
40
0.553713916692437
40
0.564589984530207
40
0.575473452990561
40
0.586364381231599
40
0.597262814364672
40
0.608168785294626
40
0.619082316554166
40
0.630003422132156
40
0.640932109295749
40
0.65186838040628
40
0.662812234728889
40
0.673715855110956
40
0.684535606062282
40
0.695290634720704
40
0.706000214232636
40
0.716683644522555
40
0.727360241437014
40
0.738049325468357
40
0.748770210358798
40
0.759542191891576
40
0.770384537166141
40
0.781316474629771
40
0.792349570117716
40
0.803382585966987
40
0.814380082701038
40
0.825344276783733
40
0.836277390935525
40
0.84718165346473
40
0.85805929757781
40
0.868912560670432
40
0.879743683601168
40
0.890554909949829
40
0.901348485262546
40
0.912126656285792
40
0.922891670191609
40
0.93364577379641
40
0.94439121277573
40
0.955130230877385
40
0.965865069135477
40
0.97659796508772
40
0.987331151998539
40
0.998066858090354
40
1
40
1
40
1
40
1
41
1
10
118.582044187862
20
-5.59692237426626
30
0
41
1
10
118.584369184599
20
-5.60166605945693
30
0
41
1
10
118.627898219076
20
-5.69038583018813
30
0
41
1
10
118.713739708273
20
-5.86198484368719
30
0
41
1
10
118.842100117964
20
-6.10946742601276
30
0
41
1
10
118.973426708835
20
-6.35382266694378
30
0
41
1
10
119.107688574332
20
-6.59505161551659
30
0
41
1
10
119.244855509136
20
-6.83315486333818
30
0
41
1
10
119.38489712451
20
-7.0681331288771
30
0
41
1
10
119.527783084776
20
-7.29998710073351
30
0
41
1
10
119.673483044178
20
-7.52871747893203
30
0
41
1
10
119.82196666379
20
-7.7543249633084
30
0
41
1
10
119.973203606993
20
-7.97681025606426
30
0
41
1
10
120.127163540656
20
-8.19617406056152
30
0
41
1
10
120.283816134771
20
-8.41241708115329
30
0
41
1
10
120.443131062474
20
-8.62554002277023
30
0
41
1
10
120.605077999949
20
-8.83554359060688
30
0
41
1
10
120.769626626351
20
-9.04242848981533
30
0
41
1
10
120.936746623708
20
-9.24619542523298
30
0
41
1
10
121.106407676823
20
-9.44684510113443
30
0
41
1
10
121.278579473167
20
-9.64437822101412
30
0
41
1
10
121.453231702779
20
-9.8387954873811
30
0
41
1
10
121.630334058141
20
-10.0300976016288
30
0
41
1
10
121.809856234124
20
-10.2182852637378
30
0
41
1
10
121.991767927698
20
-10.4033591727111
30
0
41
1
10
122.176038838514
20
-10.5853200243755
30
0
41
1
10
122.362638666249
20
-10.7641685191033
30
0
41
1
10
122.551537120062
20
-10.9399053326147
30
0
41
1
10
122.742703882891
20
-11.1125312245668
30
0
41
1
10
122.936108744194
20
-11.2820466332793
30
0
41
1
10
123.1317211045
20
-11.4484531871653
30
0
41
1
10
123.329519605588
20
-11.6117544926202
30
0
41
1
10
123.529493713062
20
-11.7719829068381
30
0
41
1
10
123.731622097262
20
-11.929198347359
30
0
41
1
10
123.935894354205
20
-12.0834267455652
30
0
41
1
10
124.142288638888
20
-12.2346957047145
30
0
41
1
10
124.350783781231
20
-12.3830304619401
30
0
41
1
10
124.561358408342
20
-12.5284568687945
30
0
41
1
10
124.773991203578
20
-12.6710006111133
30
0
41
1
10
124.988660837033
20
-12.8106874179924
30
0
41
1
10
125.205345984092
20
-12.9475430057073
30
0
41
1
10
125.424025320374
20
-13.0815930926823
30
0
41
1
10
125.644677523008
20
-13.2128633954278
30
0
41
1
10
125.867281270214
20
-13.3413796295891
30
0
41
1
10
126.09181524134
20
-13.4671675096346
30
0
41
1
10
126.318258116772
20
-13.5902527489176
30
0
41
1
10
126.546588577891
20
-13.7106610596462
30
0
41
1
10
126.776785307018
20
-13.8284181528846
30
0
41
1
10
127.008826987356
20
-13.9435497385532
30
0
41
1
10
127.242692302946
20
-14.0560815254339
30
0
41
1
10
127.478359938622
20
-14.1660392211814
30
0
41
1
10
127.715808579965
20
-14.2734485323304
30
0
41
1
10
127.95501691325
20
-14.3783351643338
30
0
41
1
10
128.195963625463
20
-14.4807248215
30
0
41
1
10
128.438627404054
20
-14.580643207316
30
0
41
1
10
128.682986937686
20
-14.6781160233429
30
0
41
1
10
128.929020913279
20
-14.7731689734531
30
0
41
1
10
129.17670802691
20
-14.8658277481144
30
0
41
1
10
129.426026942938
20
-14.9561180832271
30
0
41
1
10
129.676956446583
20
-15.0440655404366
30
0
41
1
10
129.929474873778
20
-15.1296963280036
30
0
41
1
10
130.183562241096
20
-15.2130342342139
30
0
41
1
10
130.439192288347
20
-15.294112084099
30
0
41
1
10
130.695987670515
20
-15.3728141509627
30
0
41
1
10
130.953131646489
20
-15.4490633259919
30
0
41
1
10
131.209968092796
20
-15.5228047366378
30
0
41
1
10
131.466468166065
20
-15.5939969624695
30
0
41
1
10
131.723067552681
20
-15.6627890195967
30
0
41
1
10
131.980210552378
20
-15.7293185679242
30
0
41
1
10
132.238339315758
20
-15.7937263988689
30
0
41
1
10
132.497896543584
20
-15.8561525137134
30
0
41
1
10
132.759324712604
20
-15.9167372258396
30
0
41
1
10
133.023066523302
20
-15.975620654561
30
0
41
1
10
133.289563916174
20
-16.0329436457417
30
0
41
1
10
133.559199050418
20
-16.0888315740764
30
0
41
1
10
133.831349815903
20
-16.1432229168951
30
0
41
1
10
134.104975444098
20
-16.1959598533872
30
0
41
1
10
134.378952067188
20
-16.2468174373311
30
0
41
1
10
134.652995404944
20
-16.2957646205108
30
0
41
1
10
134.927135078985
20
-16.3428265788868
30
0
41
1
10
135.201400088904
20
-16.3880295098865
30
0
41
1
10
135.475819599343
20
-16.4313993386318
30
0
41
1
10
135.750422729673
20
-16.4729620659516
30
0
41
1
10
136.025238611598
20
-16.5127436650289
30
0
41
1
10
136.300296368566
20
-16.5507701480712
30
0
41
1
10
136.575625140962
20
-16.5870674031196
30
0
41
1
10
136.85125400637
20
-16.621661778996
30
0
41
1
10
137.127212273143
20
-16.6545779128317
30
0
41
1
10
137.403528387969
20
-16.685846822015
30
0
41
1
10
137.680234007071
20
-16.7154757485873
30
0
41
1
10
137.957348819836
20
-16.7435605741583
30
0
41
1
10
138.23493714178
20
-16.7698666248727
30
0
41
1
10
138.512896813866
20
-16.7953923375016
30
0
41
1
10
138.791746888969
20
-16.816534706377
30
0
41
1
10
138.993687631433
20
-16.8385727440748
30
0
41
1
10
139.104360884447
20
-16.8409052308482
30
0
41
1
10
139.121263151499
20
-16.8411629462655
30
0
0
SPLINE
5
AB
100
AcDbEntity
8
SK1
62
256
6
ByLayer
370
18
48
1
60
0
100
AcDbSpline
70
4
71
3
72
28
73
24
40
0
40
0
40
0
40
0
40
0.0572807433951565
40
0.0572807433951565
40
0.114442310463587
40
0.114442310463587
40
0.190569449793828
40
0.190569449793828
40
0.291954146133102
40
0.291954146133102
40
0.426906050651898
40
0.426906050651898
40
0.516802759564037
40
0.516802759564037
40
0.606738605144721
40
0.606738605144721
40
0.687289490951116
40
0.687289490951116
40
0.768167471961139
40
0.768167471961139
40
0.911879492158255
40
0.911879492158255
40
1
40
1
40
1
40
1
41
1
10
-236.925
20
6.84835016627928
30
0
41
1
10
-237.012734738826
20
6.5962281780382
30
0
41
1
10
-237.096661917491
20
6.34281167156123
30
0
41
1
10
-237.256125240784
20
5.83392804317045
30
0
41
1
10
-237.331678066482
20
5.57846607585549
30
0
41
1
10
-237.497583461153
20
4.97983794426117
30
0
41
1
10
-237.584439353566
20
4.6360527193312
30
0
41
1
10
-237.767298268096
20
3.82861222365955
30
0
41
1
10
-237.856280120103
20
3.36533217408057
30
0
41
1
10
-238.025429187301
20
2.27511866599255
30
0
41
1
10
-238.091905813218
20
1.6516961097839
30
0
41
1
10
-238.149951031253
20
0.60168835560545
30
0
41
1
10
-238.158840685538
20
0.184176065916616
30
0
41
1
10
-238.148165489665
20
-0.65423272863092
30
0
41
1
10
-238.128745181763
20
-1.07018182378998
30
0
41
1
10
-238.064521491269
20
-1.86758272149212
30
0
41
1
10
-238.023382921257
20
-2.23820855449022
30
0
41
1
10
-237.918989030474
20
-2.98348681962883
30
0
41
1
10
-237.856200967665
20
-3.35370702935985
30
0
41
1
10
-237.652215876349
20
-4.38446309801083
30
0
41
1
10
-237.491167892663
20
-5.03140881688322
30
0
41
1
10
-237.185670694578
20
-6.07044865909378
30
0
41
1
10
-237.060256415828
20
-6.45966585562573
30
0
41
1
10
-236.925
20
-6.84835016627926
30
0
0
SPLINE
5
AC
100
AcDbEntity
8
SK1
62
256
6
ByLayer
370
18
48
1
60
0
100
AcDbSpline
70
4
71
3
72
28
73
24
40
0
40
0
40
0
40
0
40
0.024585689602197
40
0.024585689602197
40
0.0817468136329301
40
0.0817468136329301
40
0.157870302922524
40
0.157870302922524
40
0.259238157039755
40
0.259238157039755
40
0.394138326559969
40
0.394138326559969
40
0.483998268570241
40
0.483998268570241
40
0.573820987665436
40
0.573820987665436
40
0.654326932705498
40
0.654326932705498
40
0.735108081707181
40
0.735108081707181
40
0.878745408053804
40
0.878745408053804
40
1
40
1
40
1
40
1
41
1
10
-236.925
20
6.84835016628736
30
0
41
1
10
-236.96265279964
20
6.74014788706209
30
0
41
1
10
-236.999605256651
20
6.63170438107525
30
0
41
1
10
-237.120062905839
20
6.27032943053328
30
0
41
1
10
-237.20037745561
20
6.01633288134426
30
0
41
1
10
-237.377805772216
20
5.42105328713907
30
0
41
1
10
-237.471564065219
20
5.07909748431317
30
0
41
1
10
-237.671232362388
20
4.27580682485485
30
0
41
1
10
-237.770354028761
20
3.81463229424339
30
0
41
1
10
-237.964239730856
20
2.728994836228
30
0
41
1
10
-238.045604947988
20
2.10749830103809
30
0
41
1
10
-238.129304737169
20
1.05978973900903
30
0
41
1
10
-238.148560813711
20
0.642752161294479
30
0
41
1
10
-238.15872211612
20
-0.194949536067389
30
0
41
1
10
-238.149676110615
20
-0.610742147516533
30
0
41
1
10
-238.105131079481
20
-1.40870698674927
30
0
41
1
10
-238.073031022292
20
-1.78002648945019
30
0
41
1
10
-237.986467114382
20
-2.52692025966235
30
0
41
1
10
-237.932385531041
20
-2.89800872075399
30
0
41
1
10
-237.751840520185
20
-3.93244490709008
30
0
41
1
10
-237.604705055272
20
-4.58221999824107
30
0
41
1
10
-237.279082687229
20
-5.77625326925873
30
0
41
1
10
-237.111251639111
20
-6.3131216597854
30
0
41
1
10
-236.925
20
-6.84835016985375
30
0
0
LINE
5
70
100
AcDbEntity
8
SK1
62
256
6
ByLayer
370
18
48
1
60
0
100
AcDbLine
10
-236.925
20
-19.68
30
0
11
-240
21
-16.605
31
0
39
0
210
0
220
0
230
1
0
LINE
5
72
100
AcDbEntity
8
1
62
256
6
ByLayer
370
18
48
1
60
0
100
AcDbLine
10
116.489479
20
5.596922
30
0
11
118.582044
21
-5.596922
31
0
39
0
210
0
220
0
230
1
0
LINE
5
74
100
AcDbEntity
8
SK1
62
256
6
ByLayer
370
18
48
1
60
0
100
AcDbLine
10
-240
20
-16.605
30
0
11
-240
21
16.605
31
0
39
0
210
0
220
0
230
1
0
LINE
5
75
100
AcDbEntity
8
SK1
62
256
6
ByLayer
370
18
48
1
60
0
100
AcDbLine
10
-236.925
20
-19.68
30
0
11
-236.925
21
-6.84835
31
0
39
0
210
0
220
0
230
1
0
LINE
5
76
100
AcDbEntity
8
SK1
62
256
6
ByLayer
370
18
48
1
60
0
100
AcDbLine
10
-236.925
20
6.84835
30
0
11
-236.925
21
16.605
31
0
39
0
210
0
220
0
230
1
0
LINE
5
77
100
AcDbEntity
8
1
62
256
6
ByLayer
370
18
48
1
60
0
100
AcDbLine
10
116.489479
20
5.596922
30
0
11
113.145
21
5.596922
31
0
39
0
210
0
220
0
230
1
0
LINE
5
78
100
AcDbEntity
8
1
62
256
6
ByLayer
370
18
48
1
60
0
100
AcDbLine
10
118.582044
20
-5.596922
30
0
11
113.145
21
-5.596922
31
0
39
0
210
0
220
0
230
1
0
LINE
5
79
100
AcDbEntity
8
SK1
62
256
6
ByLayer
370
18
48
1
60
0
100
AcDbLine
10
-18.728724
20
16.605
30
0
11
-240
21
16.605
31
0
39
0
210
0
220
0
230
1
0
LINE
5
7A
100
AcDbEntity
8
SK1
62
256
6
ByLayer
370
18
48
1
60
0
100
AcDbLine
10
-18.728724
20
-19.68
30
0
11
-236.925
21
-19.68
31
0
39
0
210
0
220
0
230
1
0
LINE
5
7B
100
AcDbEntity
8
SK1
62
256
6
ByLayer
370
18
48
1
60
0
100
AcDbLine
10
-18.728724
20
-6.84835
30
0
11
-236.925
21
-6.84835
31
0
39
0
210
0
220
0
230
1
0
LINE
5
7C
100
AcDbEntity
8
SK1
62
256
6
ByLayer
370
18
48
1
60
0
100
AcDbLine
10
-18.728724
20
6.84835
30
0
11
-236.925
21
6.84835
31
0
39
0
210
0
220
0
230
1
0
LINE
5
7D
100
AcDbEntity
8
1
62
256
6
ByLayer
370
18
48
1
60
0
100
AcDbLine
10
159.829979
20
27.111591
30
0
11
159.829979
21
7.431591
31
0
39
0
210
0
220
0
230
1
0
LINE
5
7E
100
AcDbEntity
8
1
62
256
6
ByLayer
370
18
48
1
60
0
100
AcDbLine
10
159.829979
20
27.111591
30
0
11
142.786599
21
17.271591
31
0
39
0
210
0
220
0
230
1
0
LINE
5
7F
100
AcDbEntity
8
1
62
256
6
ByLayer
370
18
48
1
60
0
100
AcDbLine
10
142.786599
20
17.271591
30
0
11
159.829979
21
7.431591
31
0
39
0
210
0
220
0
230
1
0
LINE
5
80
100
AcDbEntity
8
1
62
256
6
ByLayer
370
18
48
1
60
0
100
AcDbLine
10
159.829979
20
7.431591
30
0
11
159.829979
21
-4.88498
31
0
39
0
210
0
220
0
230
1
0
LINE
5
81
100
AcDbEntity
8
1
62
256
6
ByLayer
370
18
48
1
60
0
100
AcDbLine
10
141.529966
20
-15.450498
30
0
11
159.829979
21
-4.88498
31
0
39
0
210
0
220
0
230
1
0
LINE
5
82
100
AcDbEntity
8
1
62
256
6
ByLayer
370
18
48
1
60
0
100
AcDbLine
10
133.317
20
16.605
30
0
11
141.63203
21
16.605
31
0
39
0
210
0
220
0
230
1
0
LINE
5
83
100
AcDbEntity
8
1
62
256
6
ByLayer
370
18
48
1
60
0
100
AcDbLine
10
142.786599
20
17.271591
30
0
11
141.63203
21
16.605
31
0
39
0
210
0
220
0
230
1
0
LINE
5
84
100
AcDbEntity
8
1
62
256
6
ByLayer
370
18
48
1
60
0
100
AcDbLine
10
134.89664
20
-19.28025
30
0
11
113.145
21
-19.28025
31
0
39
0
210
0
220
0
230
1
0
LINE
5
85
100
AcDbEntity
8
1
62
256
6
ByLayer
370
18
48
1
60
0
100
AcDbLine
10
151.688852
20
17.271591
30
0
11
151.688852
21
18.501591
31
0
39
0
210
0
220
0
230
1
0
LINE
5
86
100
AcDbEntity
8
1
62
256
6
ByLayer
370
18
48
1
60
0
100
AcDbLine
10
151.688852
20
18.501591
30
0
11
153.819275
21
19.731591
31
0
39
0
210
0
220
0
230
1
0
LINE
5
87
100
AcDbEntity
8
1
62
256
6
ByLayer
370
18
48
1
60
0
100
AcDbLine
10
153.819275
20
19.731591
30
0
11
155.949697
21
18.501591
31
0
39
0
210
0
220
0
230
1
0
LINE
5
88
100
AcDbEntity
8
1
62
256
6
ByLayer
370
18
48
1
60
0
100
AcDbLine
10
155.949697
20
18.501591
30
0
11
155.949697
21
16.041591
31
0
39
0
210
0
220
0
230
1
0
LINE
5
89
100
AcDbEntity
8
1
62
256
6
ByLayer
370
18
48
1
60
0
100
AcDbLine
10
155.949697
20
16.041591
30
0
11
153.819275
21
14.811591
31
0
39
0
210
0
220
0
230
1
0
LINE
5
8A
100
AcDbEntity
8
1
62
256
6
ByLayer
370
18
48
1
60
0
100
AcDbLine
10
153.819275
20
14.811591
30
0
11
151.688852
21
16.041591
31
0
39
0
210
0
220
0
230
1
0
LINE
5
8B
100
AcDbEntity
8
1
62
256
6
ByLayer
370
18
48
1
60
0
100
AcDbLine
10
151.688852
20
16.041591
30
0
11
151.688852
21
17.271591
31
0
39
0
210
0
220
0
230
1
0
LINE
5
8C
100
AcDbEntity
8
1
62
256
6
ByLayer
370
18
48
1
60
0
100
AcDbLine
10
144.124352
20
6.299915
30
0
11
144.124352
21
8.144915
31
0
39
0
210
0
220
0
230
1
0
LINE
5
8D
100
AcDbEntity
8
1
62
256
6
ByLayer
370
18
48
1
60
0
100
AcDbLine
10
144.124352
20
8.144915
30
0
11
147.319986
21
9.989915
31
0
39
0
210
0
220
0
230
1
0
LINE
5
8E
100
AcDbEntity
8
1
62
256
6
ByLayer
370
18
48
1
60
0
100
AcDbLine
10
147.319986
20
9.989915
30
0
11
150.51562
21
8.144915
31
0
39
0
210
0
220
0
230
1
0
LINE
5
8F
100
AcDbEntity
8
1
62
256
6
ByLayer
370
18
48
1
60
0
100
AcDbLine
10
150.51562
20
8.144915
30
0
11
150.51562
21
4.454915
31
0
39
0
210
0
220
0
230
1
0
LINE
5
90
100
AcDbEntity
8
1
62
256
6
ByLayer
370
18
48
1
60
0
100
AcDbLine
10
150.51562
20
4.454915
30
0
11
147.319986
21
2.609915
31
0
39
0
210
0
220
0
230
1
0
LINE
5
91
100
AcDbEntity
8
1
62
256
6
ByLayer
370
18
48
1
60
0
100
AcDbLine
10
147.319986
20
2.609915
30
0
11
144.124352
21
4.454915
31
0
39
0
210
0
220
0
230
1
0
LINE
5
92
100
AcDbEntity
8
1
62
256
6
ByLayer
370
18
48
1
60
0
100
AcDbLine
10
144.124352
20
4.454915
30
0
11
144.124352
21
6.299915
31
0
39
0
210
0
220
0
230
1
0
LINE
5
93
100
AcDbEntity
8
1
62
256
6
ByLayer
370
18
48
1
60
0
100
AcDbLine
10
104.427887
20
16.605
30
0
11
104.427887
21
-19.68
31
0
39
0
210
0
220
0
230
1
0
LINE
5
94
100
AcDbEntity
8
1
62
256
6
ByLayer
370
18
48
1
60
0
100
AcDbLine
10
113.145
20
5.596922
30
0
11
104.427887
21
5.596922
31
0
39
0
210
0
220
0
230
1
0
LINE
5
95
100
AcDbEntity
8
1
62
256
6
ByLayer
370
18
48
1
60
0
100
AcDbLine
10
113.145
20
-5.596922
30
0
11
104.427887
21
-5.596922
31
0
39
0
210
0
220
0
230
1
0
LINE
5
96
100
AcDbEntity
8
1
62
256
6
ByLayer
370
18
48
1
60
0
100
AcDbLine
10
113.145
20
-19.28025
30
0
11
104.427887
21
-19.28025
31
0
39
0
210
0
220
0
230
1
0
LINE
5
97
100
AcDbEntity
8
SK1
62
256
6
ByLayer
370
18
48
1
60
0
100
AcDbLine
10
-18.728724
20
16.605
30
0
11
0
21
16.605
31
0
39
0
210
0
220
0
230
1
0
LINE
5
98
100
AcDbEntity
8
SK1
62
256
6
ByLayer
370
18
48
1
60
0
100
AcDbLine
10
-18.728724
20
6.84835
30
0
11
0
21
6.84835
31
0
39
0
210
0
220
0
230
1
0
LINE
5
99
100
AcDbEntity
8
SK1
62
256
6
ByLayer
370
18
48
1
60
0
100
AcDbLine
10
-18.728724
20
-6.84835
30
0
11
0
21
-6.84835
31
0
39
0
210
0
220
0
230
1
0
LINE
5
9A
100
AcDbEntity
8
SK1
62
256
6
ByLayer
370
18
48
1
60
0
100
AcDbLine
10
-18.728724
20
-19.68
30
0
11
0
21
-19.68
31
0
39
0
210
0
220
0
230
1
0
LINE
5
9B
100
AcDbEntity
8
80
62
256
6
ByLayer
370
18
48
1
60
0
100
AcDbLine
10
0
20
0
30
0
11
-24.304057
21
0
31
0
39
0
210
0
220
0
230
1
0
LINE
5
9C
100
AcDbEntity
8
4
62
256
6
ByLayer
370
13
48
0.05
60
0
100
AcDbLine
10
-240
20
0
30
0
11
160
21
0
31
0
39
0
210
0
220
0
230
1
0
LINE
5
9E
100
AcDbEntity
8
SK4
62
256
6
ByLayer
370
13
48
0.05
60
0
100
AcDbLine
10
-250
20
0
30
0
11
170
21
0
31
0
39
0
210
0
220
0
230
1
0
LINE
5
A0
100
AcDbEntity
8
81
62
256
6
ByLayer
370
18
48
1
60
0
100
AcDbLine
10
184.134036
20
27.111591
30
0
11
159.829979
21
27.111591
31
0
39
0
210
0
220
0
230
1
0
LINE
5
A1
100
AcDbEntity
8
1
62
256
6
ByLayer
370
18
48
1
60
0
100
AcDbLine
10
0
20
16.605
30
0
11
133.317
21
16.605
31
0
39
0
210
0
220
0
230
1
0
LINE
5
A2
100
AcDbEntity
8
1
62
256
6
ByLayer
370
18
48
1
60
0
100
AcDbLine
10
0
20
6.84835
30
0
11
104.427887
21
6.84835
31
0
39
0
210
0
220
0
230
1
0
LINE
5
A3
100
AcDbEntity
8
1
62
256
6
ByLayer
370
18
48
1
60
0
100
AcDbLine
10
0
20
-6.84835
30
0
11
104.427887
21
-6.84835
31
0
39
0
210
0
220
0
230
1
0
LINE
5
A4
100
AcDbEntity
8
1
62
256
6
ByLayer
370
18
48
1
60
0
100
AcDbLine
10
0
20
-19.68
30
0
11
104.427887
21
-19.68
31
0
39
0
210
0
220
0
230
1
0
MTEXT
5
AD
100
AcDbEntity
8
SK6
62
256
6
ByLayer
370
18
48
1
60
0
100
AcDbMText
10
-56.840817
20
-49.852839
30
0
210
0
220
0
230
1
1
\W0.7988;S40V-PTFNR16-W
40
3
41
0
44
1.084337
50
0
71
7
72
5
7
iso_b_vert
0
DIMENSION
5
BF
100
AcDbEntity
8
SK2
62
256
6
ByLayer
370
13
48
1
60
0
100
AcDbDimension
2
DimnDraft3D1
10
-42.973007
20
104.427887
30
0
11
-42.973007
21
128.528933
31
0
70
32
71
5
72
1
41
1
210
0
220
0
230
1
3
Standard
100
AcDbAlignedDimension
13
-29.111591
23
159.829979
33
0
14
-18.605
24
104.427887
34
0
50
90
100
AcDbRotatedDimension
1001
ACAD
1000
DSTYLE
1002
{
1070
    74
1070
     0
1070
   279
1070
     0
1070
   172
1070
     1
1070
   173
1070
     1
1070
   340
1005
AE
1070
    77
1070
     1
1070
    73
1070
     0
1070
   171
1070
     3
1070
   274
1070
     4
1070
   177
1070
     7
1070
   176
1070
     7
1070
   178
1070
     7
1070
    78
1070
     8
1070
    41
1041
3.175
1070
   147
1041
1.5
1070
    42
1041
2.0
1070
    44
1041
2.0
1070
   140
1041
3.0
1070
   343
1005
C0
1070
   344
1005
C0
1002
}
0
DIMENSION
5
D4
100
AcDbEntity
8
SK2
62
256
6
ByLayer
370
13
48
1
60
0
100
AcDbDimension
2
DimnDraft3D2
10
-73.898726
20
-240
30
0
11
-73.898726
21
-43.096853
31
0
70
32
71
5
72
1
41
1
210
0
220
0
230
1
3
Standard
100
AcDbAlignedDimension
13
-29.111591
23
159.829979
33
0
14
-18.605
24
-240
34
0
50
90
100
AcDbRotatedDimension
1001
ACAD
1000
DSTYLE
1002
{
1070
    74
1070
     0
1070
   279
1070
     0
1070
   172
1070
     1
1070
   173
1070
     1
1070
   340
1005
AE
1070
    77
1070
     1
1070
    73
1070
     0
1070
   171
1070
     3
1070
   274
1070
     4
1070
   177
1070
     7
1070
   176
1070
     7
1070
   178
1070
     7
1070
    78
1070
     8
1070
    41
1041
3.175
1070
   147
1041
1.5
1070
    42
1041
2.0
1070
    44
1041
2.0
1070
   140
1041
3.0
1070
   343
1005
C0
1070
   344
1005
C0
1002
}
0
DIMENSION
5
E3
100
AcDbEntity
8
2
62
256
6
ByLayer
370
13
48
1
60
0
100
AcDbDimension
2
DimnDraft3D3
10
0
20
-206.41064
30
0
11
11.803164
21
-206.41064
31
0
70
32
71
5
72
1
41
1
210
0
220
0
230
1
3
Standard
100
AcDbAlignedDimension
13
27.111591
23
-161.829979
33
0
14
0
24
-172
34
0
50
0
100
AcDbRotatedDimension
1001
ACAD
1000
DSTYLE
1002
{
1070
   279
1070
     0
1070
   172
1070
     1
1070
   173
1070
     1
1070
   340
1005
AE
1070
    77
1070
     1
1070
    73
1070
     0
1070
   171
1070
     3
1070
   274
1070
     4
1070
   177
1070
     7
1070
   176
1070
     7
1070
   178
1070
     7
1070
    78
1070
     8
1070
    41
1041
3.175
1070
   147
1041
1.5
1070
    42
1041
2.0
1070
    44
1041
2.0
1070
   140
1041
3.0
1070
   343
1005
C0
1070
   344
1005
C0
1002
}
0
DIMENSION
5
F1
100
AcDbEntity
8
SK2
62
256
6
ByLayer
370
13
48
1
60
0
100
AcDbDimension
2
DimnDraft3D4
10
-19.68
20
-220.996157
30
0
11
1.963164
21
-220.996157
31
0
70
32
71
5
72
1
41
1
210
0
220
0
230
1
3
Standard
100
AcDbAlignedDimension
13
27.111591
23
-161.829979
33
0
14
-19.68
24
-2
34
0
50
0
100
AcDbRotatedDimension
1001
ACAD
1000
DSTYLE
1002
{
1070
   279
1070
     0
1070
   172
1070
     1
1070
   173
1070
     1
1070
   340
1005
AE
1070
    77
1070
     1
1070
    73
1070
     0
1070
   171
1070
     3
1070
   274
1070
     4
1070
   177
1070
     7
1070
   176
1070
     7
1070
   178
1070
     7
1070
    78
1070
     8
1070
    41
1041
3.175
1070
   147
1041
1.5
1070
    42
1041
2.0
1070
    44
1041
2.0
1070
   140
1041
3.0
1070
   343
1005
C0
1070
   344
1005
C0
1002
}
0
DIMENSION
5
FF
100
AcDbEntity
8
2
62
256
6
ByLayer
370
13
48
1
60
0
100
AcDbDimension
2
DimnDraft3D5
10
159.829979
20
61.832405
30
0
11
77.436042
21
61.832405
31
0
70
32
71
5
72
1
41
1
210
0
220
0
230
1
3
Standard
100
AcDbAlignedDimension
13
0
23
2
33
0
14
159.829979
24
29.111591
34
0
50
0
100
AcDbRotatedDimension
1001
ACAD
1000
DSTYLE
1002
{
1070
   279
1070
     0
1070
   172
1070
     1
1070
   173
1070
     1
1070
   340
1005
AE
1070
   271
1070
     0
1070
    77
1070
     1
1070
    73
1070
     0
1070
   171
1070
     3
1070
   274
1070
     4
1070
   177
1070
     7
1070
   176
1070
     7
1070
   178
1070
     7
1070
    78
1070
     8
1070
    41
1041
3.175
1070
   147
1041
1.5
1070
    42
1041
2.0
1070
    44
1041
2.0
1070
   140
1041
3.0
1070
   343
1005
C0
1070
   344
1005
C0
1002
}
0
ENDSEC
0
SECTION
2
OBJECTS
0
DICTIONARY
5
16a
330
0
100
AcDbDictionary
280
0
281
1
3
ACAD_GROUP
350
16b
3
ACAD_MLINESTYLE
350
16c
0
DICTIONARY
5
16b
330
0
100
AcDbDictionary
280
0
281
1
0
DICTIONARY
5
16c
330
0
100
AcDbDictionary
280
0
281
1
3
Standard
350
18
0
MLINESTYLE
5
18
330
16c
100
AcDbMlineStyle
2
Standard
70
0
3

62
256
51
90
52
90
71
2
49
-0.5
62
256
6
ByLayer
49
0.5
62
256
6
ByLayer
0
RASTERVARIABLES
5
158
330

100
AcDbRasterVariables
90
0
70
1
71
1
72
1
0
ENDSEC
0
EOF
