0
SECTION
2
HEADER
9
$ACADVER
1
AC1015
9
$DWGCODEPAGE
3
ANSI_1252
9
$HANDSEED
5
1e5
9
$ANGBASE
50
0
9
$ANGDIR
70
0
9
$ATTMODE
70
1
9
$AUNITS
70
0
9
$AUPREC
70
0
9
$CECOLOR
62
256
9
$CELTSCALE
40
1
9
$CELTYPE
6
ByLayer
9
$CELWEIGHT
370
18
9
$CLAYER
8
0
9
$CMLJUST
70
0
9
$CMLSCALE
40
1
9
$CMLSTYLE
2
Standard
9
$DIMSTYLE
2
Standard
9
$TEXTSIZE
40
0.2
9
$TEXTSTYLE
7
Standard
9
$LUNITS
70
2
9
$LUPREC
70
4
9
$EXTNAMES
290
1
9
$INSUNITS
70
4
9
$LTSCALE
40
1
9
$LWDISPLAY
290
1
9
$PDMODE
70
0
9
$PDSIZE
40
0
9
$PLINEGEN
70
0
0
ENDSEC
0
SECTION
2
CLASSES
0
CLASS
1
RASTERVARIABLES
2
AcDbRasterVariables
3
ISM
90
0
280
0
281
0
0
ENDSEC
0
SECTION
2
TABLES
0
TABLE
2
VPORT
5
1db
100
AcDbSymbolTable
0
VPORT
5
1
100
AcDbSymbolTableRecord
100
AcDbViewportTableRecord
2
*Active
70
0
10
0
20
0
11
1
21
1
12
-1
22
1
13
0
23
0
14
0.5
24
0.5
15
10
25
10
16
0
26
0
36
1
17
0
27
0
37
0
0
ENDTAB
0
TABLE
2
LTYPE
5
1dc
100
AcDbSymbolTable
0
LTYPE
5
14
100
AcDbSymbolTableRecord
100
AcDbLinetypeTableRecord
70
0
2
ByBlock
3

72
65
73
0
40
0
0
LTYPE
5
15
100
AcDbSymbolTableRecord
100
AcDbLinetypeTableRecord
70
0
2
ByLayer
3

72
65
73
0
40
0
0
LTYPE
5
16
100
AcDbSymbolTableRecord
100
AcDbLinetypeTableRecord
70
0
2
CONTINUOUS
3
Solid line
72
65
73
0
40
0
0
LTYPE
5
6A
100
AcDbSymbolTableRecord
100
AcDbLinetypeTableRecord
70
0
2
CENTER
3
____ _ ____ _ ____ _ ____
72
65
73
4
40
47.5
49
22
74
0
49
-8.5
74
0
49
8.5
74
0
49
-8.5
74
0
0
LTYPE
5
6B
100
AcDbSymbolTableRecord
100
AcDbLinetypeTableRecord
70
0
2
DASHED
3
__ __ __ __ __ __ __ __ __
72
65
73
2
40
25.72
49
12.86
74
0
49
-12.86
74
0
0
ENDTAB
0
TABLE
2
LAYER
5
1dd
100
AcDbSymbolTable
0
LAYER
5
10
100
AcDbSymbolTableRecord
100
AcDbLayerTableRecord
2
0
70
0
62
7
6
CONTINUOUS
290
1
370
-3
390
0
0
LAYER
5
6D
100
AcDbSymbolTableRecord
100
AcDbLayerTableRecord
2
81
70
0
62
-3
6
CONTINUOUS
290
1
370
-3
390
0
0
LAYER
5
6F
100
AcDbSymbolTableRecord
100
AcDbLayerTableRecord
2
80
70
0
62
-6
6
CONTINUOUS
290
1
370
-3
390
0
0
LAYER
5
74
100
AcDbSymbolTableRecord
100
AcDbLayerTableRecord
2
1
70
0
62
4
6
CONTINUOUS
290
1
370
-3
390
0
0
LAYER
5
147
100
AcDbSymbolTableRecord
100
AcDbLayerTableRecord
2
4
70
0
62
-2
6
CENTER
290
1
370
-3
390
0
0
LAYER
5
165
100
AcDbSymbolTableRecord
100
AcDbLayerTableRecord
2
2
70
0
62
7
6
CONTINUOUS
290
1
370
-3
390
0
0
LAYER
5
1c7
100
AcDbSymbolTableRecord
100
AcDbLayerTableRecord
2
SK1
70
0
62
4
6
CONTINUOUS
290
1
370
-3
390
0
0
LAYER
5
1c8
100
AcDbSymbolTableRecord
100
AcDbLayerTableRecord
2
SK4
70
0
62
2
6
CENTER
290
1
370
-3
390
0
0
LAYER
5
1c9
100
AcDbSymbolTableRecord
100
AcDbLayerTableRecord
2
SK6
70
0
62
5
6
CONTINUOUS
290
1
370
-3
390
0
0
LAYER
5
1ca
100
AcDbSymbolTableRecord
100
AcDbLayerTableRecord
2
SK2
70
0
62
7
6
CONTINUOUS
290
1
370
-3
390
0
0
ENDTAB
0
TABLE
2
STYLE
5
1de
100
AcDbSymbolTable
0
STYLE
5
11
100
AcDbSymbolTableRecord
100
AcDbTextStyleTableRecord
2
Standard
3
txt
70
0
71
0
40
0
41
1
42
0
50
0
0
STYLE
5
14A
100
AcDbSymbolTableRecord
100
AcDbTextStyleTableRecord
2
iso_b_vert
3
simplex.shx
70
0
71
0
40
0
41
1
42
0
50
0
0
STYLE
5
14B
100
AcDbSymbolTableRecord
100
AcDbTextStyleTableRecord
2
DWGDirectTextStyle
3
simplex
70
0
71
0
40
0
41
1
42
0
50
0
0
ENDTAB
0
TABLE
2
DIMSTYLE
5
1df
100
AcDbSymbolTable
100
AcDbDimStyleTable
0
DIMSTYLE
105
27
100
AcDbSymbolTableRecord
100
AcDbDimStyleTableRecord
2
Standard
70
0
3
<>
41
0.18
42
0.0625
44
0.18
140
0.18
147
0.09
73
0
74
0
77
1
271
2
275
0
278
52
280
0
340
11
0
ENDTAB
0
TABLE
2
VIEW
5
1e0
100
AcDbSymbolTable
0
ENDTAB
0
TABLE
2
UCS
5
1e1
100
AcDbSymbolTable
0
ENDTAB
0
TABLE
2
APPID
5
1e2
100
AcDbSymbolTable
0
APPID
5
12
100
AcDbSymbolTableRecord
100
AcDbRegAppTableRecord
2
ACAD
70
0
0
ENDTAB
0
TABLE
2
BLOCK_RECORD
5
1e3
100
AcDbSymbolTable
0
BLOCK_RECORD
5
1F
100
AcDbSymbolTableRecord
100
AcDbBlockTableRecord
2
*Model_Space
340
0
70
0
0
BLOCK_RECORD
5
1B
100
AcDbSymbolTableRecord
100
AcDbBlockTableRecord
2
*Paper_Space
340
0
70
0
0
BLOCK_RECORD
5
23
100
AcDbSymbolTableRecord
100
AcDbBlockTableRecord
2
*Paper_Space0
340
0
70
0
0
BLOCK_RECORD
5
14D
100
AcDbSymbolTableRecord
100
AcDbBlockTableRecord
2
DimnDraft3D1
340
0
70
0
0
BLOCK_RECORD
5
159
100
AcDbSymbolTableRecord
100
AcDbBlockTableRecord
2
DimnDraft3D2
340
0
70
0
0
BLOCK_RECORD
5
163
100
AcDbSymbolTableRecord
100
AcDbBlockTableRecord
2
DimnDraft3D3
340
0
70
0
0
ENDTAB
0
ENDSEC
0
SECTION
2
BLOCKS
0
BLOCK
5
20
100
AcDbEntity
8
0
100
AcDbBlockBegin
2
*Model_Space
70
0
10
0
20
0
30
0
3
*Model_Space
0
ENDBLK
5
21
100
AcDbEntity
8
0
100
AcDbBlockEnd
0
BLOCK
5
1C
100
AcDbEntity
8
0
100
AcDbBlockBegin
2
*Paper_Space
70
0
10
0
20
0
30
0
3
*Paper_Space
0
ENDBLK
5
1D
100
AcDbEntity
8
0
100
AcDbBlockEnd
0
BLOCK
5
24
100
AcDbEntity
8
0
100
AcDbBlockBegin
2
*Paper_Space0
70
0
10
0
20
0
30
0
3
*Paper_Space0
0
ENDBLK
5
25
100
AcDbEntity
8
0
100
AcDbBlockEnd
0
BLOCK
5
156
100
AcDbEntity
8
0
100
AcDbBlockBegin
2
DimnDraft3D1
70
0
10
0
20
0
30
0
3
DimnDraft3D1
0
MTEXT
5
14E
100
AcDbEntity
8
SK2
62
256
6
ByLayer
370
13
48
1
60
0
100
AcDbMText
10
-185.642808
20
1.542336
30
0
210
0
220
0
230
1
1
\W0.6367;18,5
40
3.5
41
0
44
1.084337
50
90
71
7
72
5
7
iso_b_vert
0
MTEXT
5
150
100
AcDbEntity
8
SK2
62
256
6
ByLayer
370
13
48
1
60
0
100
AcDbMText
10
-185.642808
20
-3.680321
30
0
210
0
220
0
230
1
1
%%c
40
3.5
41
0
44
1.084337
50
90
71
7
72
5
7
iso_b_vert
0
LINE
5
151
100
AcDbEntity
8
SK2
62
256
6
ByLayer
370
13
48
1
60
0
100
AcDbLine
10
-170.8875
20
10
30
0
11
-185.892808
21
10
31
0
39
0
210
0
220
0
230
1
0
LINE
5
152
100
AcDbEntity
8
SK2
62
256
6
ByLayer
370
13
48
1
60
0
100
AcDbLine
10
-170.8875
20
-8.50875
30
0
11
-185.892808
21
-8.50875
31
0
39
0
210
0
220
0
230
1
0
LINE
5
153
100
AcDbEntity
8
SK2
62
256
6
ByLayer
370
13
48
1
60
0
100
AcDbLine
10
-183.892808
20
10
30
0
11
-183.892808
21
-8.50875
31
0
39
0
210
0
220
0
230
1
0
SOLID
5
154
100
AcDbEntity
8
SK2
62
256
6
ByLayer
370
13
48
1
60
0
100
AcDbTrace
10
-183.892808
20
10
30
0
11
-183.432025
21
6.500002
31
0
12
-184.353592
22
6.499998
32
0
13
-183.892808
23
10
33
0
39
0
210
0
220
0
230
1
0
SOLID
5
155
100
AcDbEntity
8
SK2
62
256
6
ByLayer
370
13
48
1
60
0
100
AcDbTrace
10
-183.892808
20
-8.50875
30
0
11
-184.353592
21
-5.008752
31
0
12
-183.432025
22
-5.008748
32
0
13
-183.892808
23
-8.50875
33
0
39
0
210
0
220
0
230
1
0
ENDBLK
5
157
100
AcDbEntity
8
0
100
AcDbBlockEnd
0
BLOCK
5
160
100
AcDbEntity
8
0
100
AcDbBlockBegin
2
DimnDraft3D2
70
0
10
0
20
0
30
0
3
DimnDraft3D2
0
MTEXT
5
15A
100
AcDbEntity
8
SK2
62
256
6
ByLayer
370
13
48
1
60
0
100
AcDbMText
10
-48.188684
20
-29.890176
30
0
210
0
220
0
230
1
1
\W0.7138;250
40
3.5
41
0
44
1.084337
50
0
71
7
72
5
7
iso_b_vert
0
LINE
5
15B
100
AcDbEntity
8
SK2
62
256
6
ByLayer
370
13
48
1
60
0
100
AcDbLine
10
-171.3
20
-9.5875
30
0
11
-171.3
21
-32.765176
31
0
39
0
210
0
220
0
230
1
0
LINE
5
15C
100
AcDbEntity
8
SK2
62
256
6
ByLayer
370
13
48
1
60
0
100
AcDbLine
10
79.97
20
-14.1775
30
0
11
79.97
21
-32.765176
31
0
39
0
210
0
220
0
230
1
0
LINE
5
15D
100
AcDbEntity
8
SK2
62
256
6
ByLayer
370
13
48
1
60
0
100
AcDbLine
10
-171.3
20
-30.765176
30
0
11
79.97
21
-30.765176
31
0
39
0
210
0
220
0
230
1
0
SOLID
5
15E
100
AcDbEntity
8
SK2
62
256
6
ByLayer
370
13
48
1
60
0
100
AcDbTrace
10
-171.3
20
-30.765176
30
0
11
-167.800002
21
-30.304393
31
0
12
-167.799998
22
-31.22596
32
0
13
-171.3
23
-30.765176
33
0
39
0
210
0
220
0
230
1
0
SOLID
5
15F
100
AcDbEntity
8
SK2
62
256
6
ByLayer
370
13
48
1
60
0
100
AcDbTrace
10
79.97
20
-30.765176
30
0
11
76.470002
21
-31.22596
31
0
12
76.469998
22
-30.304393
32
0
13
79.97
23
-30.765176
33
0
39
0
210
0
220
0
230
1
0
ENDBLK
5
161
100
AcDbEntity
8
0
100
AcDbBlockEnd
0
BLOCK
5
16B
100
AcDbEntity
8
0
100
AcDbBlockBegin
2
DimnDraft3D3
70
0
10
0
20
0
30
0
3
DimnDraft3D3
0
MTEXT
5
164
100
AcDbEntity
8
2
62
256
6
ByLayer
370
13
48
1
60
0
100
AcDbMText
10
87.389776
20
-7.073289
30
0
210
0
220
0
230
1
1
\W0.5321;13
40
3.5
41
0
44
1.084337
50
90
71
7
72
5
7
iso_b_vert
0
LINE
5
166
100
AcDbEntity
8
2
62
256
6
ByLayer
370
13
48
1
60
0
100
AcDbLine
10
62.948762
20
0
30
0
11
90.264776
21
0
31
0
39
0
210
0
220
0
230
1
0
LINE
5
167
100
AcDbEntity
8
2
62
256
6
ByLayer
370
13
48
1
60
0
100
AcDbLine
10
81.5575
20
-12.59
30
0
11
90.264776
21
-12.59
31
0
39
0
210
0
220
0
230
1
0
LINE
5
168
100
AcDbEntity
8
2
62
256
6
ByLayer
370
13
48
1
60
0
100
AcDbLine
10
88.264776
20
0
30
0
11
88.264776
21
-12.59
31
0
39
0
210
0
220
0
230
1
0
SOLID
5
169
100
AcDbEntity
8
2
62
256
6
ByLayer
370
13
48
1
60
0
100
AcDbTrace
10
88.264776
20
0
30
0
11
88.725559
21
-3.499998
31
0
12
87.803992
22
-3.500001
32
0
13
88.264776
23
0
33
0
39
0
210
0
220
0
230
1
0
SOLID
5
16A
100
AcDbEntity
8
2
62
256
6
ByLayer
370
13
48
1
60
0
100
AcDbTrace
10
88.264776
20
-12.59
30
0
11
87.803992
21
-9.090002
31
0
12
88.725559
22
-9.089998
32
0
13
88.264776
23
-12.59
33
0
39
0
210
0
220
0
230
1
0
ENDBLK
5
16C
100
AcDbEntity
8
0
100
AcDbBlockEnd
0
ENDSEC
0
SECTION
2
ENTITIES
0
ELLIPSE
5
D8
100
AcDbEntity
8
1
62
256
6
ByLayer
370
18
48
1
60
0
100
AcDbEllipse
10
71.37804
20
0
30
0
11
-114.189959570103
21
0.022257646648497
31
0
210
0
220
0
230
-1
40
0.105088
41
-1.62412301169181
42
-1.5941811739321
0
ELLIPSE
5
D9
100
AcDbEntity
8
1
62
256
6
ByLayer
370
13
48
1
60
0
100
AcDbEllipse
10
72.572128
20
-8.525019
30
0
11
0.0191976470810193
21
-1.09983246467203
31
0
210
0
220
0
230
1
40
0.994522
41
-1.28346751300401
42
0.523598775598317
0
ELLIPSE
5
DA
100
AcDbEntity
8
1
62
256
6
ByLayer
370
18
48
1
60
0
100
AcDbEllipse
10
68.038843
20
-0.751539
30
0
11
-0.0698096257491196
21
3.99939078062556
31
0
210
0
220
0
230
1
40
0.994522
41
0.0787744143621083
42
2.36492113645232
0
ELLIPSE
5
DB
100
AcDbEntity
8
1
62
256
6
ByLayer
370
18
48
1
60
0
100
AcDbEllipse
10
71.503904
20
-7.805303
30
0
11
-0.0183250267591439
21
1.04984007991421
31
0
210
0
220
0
230
1
40
0.994522
41
-3.135488562614
42
-2.63634900321684
0
ELLIPSE
5
DC
100
AcDbEntity
8
1
62
256
6
ByLayer
370
18
48
1
60
0
100
AcDbEllipse
10
72.556451
20
-8.525293
30
0
11
-0.0218155080465999
21
1.24980961894549
31
0
210
0
220
0
230
1
40
0.994522
41
1.81373327521148
42
3.08059326299754
0
ELLIPSE
5
DD
100
AcDbEntity
8
1
62
256
6
ByLayer
370
18
48
1
60
0
100
AcDbEllipse
10
67.104732
20
0.678001
30
0
11
-0.0268330748973179
21
1.53726583130295
31
0
210
0
220
0
230
1
40
0.994522
41
0.182201464198481
42
0.614121164325901
0
ELLIPSE
5
DE
100
AcDbEntity
8
1
62
256
6
ByLayer
370
18
48
1
60
0
100
AcDbEllipse
10
55.044071
20
0
30
0
11
-23.5722464542522
21
11.7274923930992
31
0
210
0
220
0
230
-1
40
0.107873
41
-2.92807407927016
42
-2.87660055736495
0
ELLIPSE
5
DF
100
AcDbEntity
8
1
62
256
6
ByLayer
370
18
48
1
60
0
100
AcDbEllipse
10
71.540483
20
-7.804665
30
0
11
0.0183250267591547
21
-1.04984007991421
31
0
210
0
220
0
230
1
40
0.994522
41
-2.61790957796418
42
0
0
ELLIPSE
5
E0
100
AcDbEntity
8
1
62
256
6
ByLayer
370
18
48
1
60
0
100
AcDbEllipse
10
66.550816
20
0.668333
30
0
11
-0.0268330748973179
21
1.53726583130295
31
0
210
0
220
0
230
1
40
0.994522
41
-0.776671517137483
42
2.13607582797489
0
ELLIPSE
5
E1
100
AcDbEntity
8
1
62
256
6
ByLayer
370
18
48
1
60
0
100
AcDbEllipse
10
71.080628
20
-7.812691
30
0
11
0.0183250267591547
21
-1.04984007991421
31
0
210
0
220
0
230
1
40
0.994522
41
-2.82496205158312
42
-1.13552784161656
0
ELLIPSE
5
E2
100
AcDbEntity
8
1
62
256
6
ByLayer
370
18
48
1
60
0
100
AcDbEllipse
10
72.404907
20
-8.527938
30
0
11
-0.0218155080465999
21
1.24980961894549
31
0
210
0
220
0
230
1
40
0.994522
41
1.81373327521148
42
-2.61799387799151
0
ELLIPSE
5
E3
100
AcDbEntity
8
1
62
256
6
ByLayer
370
18
48
1
60
0
100
AcDbEllipse
10
69.481778
20
-2.128385
30
0
11
-0.0610834225304797
21
3.49946693304737
31
0
210
0
220
0
230
1
40
0.994522
41
-1.38081153844555
42
0.229414770576751
0
ELLIPSE
5
E4
100
AcDbEntity
8
1
62
256
6
ByLayer
370
13
48
1
60
0
100
AcDbEllipse
10
73.11998
20
-9.46823
30
0
11
0.0775617410259108
21
-0.128390717456635
31
0
210
0
220
0
230
1
40
0.090524
41
1.05718840177763
42
1.51829250732244
0
ELLIPSE
5
E5
100
AcDbEntity
8
1
62
256
6
ByLayer
370
18
48
1
60
0
100
AcDbEllipse
10
61.361262
20
0
30
0
11
-12.7656037033496
21
11.9828238159077
31
0
210
0
220
0
230
-1
40
0.050278
41
-3.06655156003384
42
-3.00221013700077
0
ELLIPSE
5
E6
100
AcDbEntity
8
1
62
256
6
ByLayer
370
18
48
1
60
0
100
AcDbEllipse
10
72.148852
20
-8.532408
30
0
11
-0.0298690296667428
21
1.71119556355606
31
0
210
0
220
0
230
1
40
0.994522
41
1.62226120432719
42
-3.12484934963953
0
ELLIPSE
5
E7
100
AcDbEntity
8
1
62
256
6
ByLayer
370
18
48
1
60
0
100
AcDbEllipse
10
72.148852
20
-8.532408
30
0
11
-0.0298690296667428
21
1.71119556355606
31
0
210
0
220
0
230
1
40
0.994522
41
-3.12484934963953
42
-2.61799387799151
0
ELLIPSE
5
E8
100
AcDbEntity
8
1
62
256
6
ByLayer
370
18
48
1
60
0
100
AcDbEllipse
10
70.035695
20
-2.118716
30
0
11
-0.0610834225304797
21
3.49946693304737
31
0
210
0
220
0
230
1
40
0.994522
41
0.0796263088066948
42
0.207332642090192
0
ELLIPSE
5
E9
100
AcDbEntity
8
1
62
256
6
ByLayer
370
18
48
1
60
0
100
AcDbEllipse
10
69.193101
20
-2.133424
30
0
11
0.0226881283684773
21
-1.29980200370331
31
0
210
0
220
0
230
1
40
0.994522
41
-2.11076051534631
42
-1.53697762132189
0
ELLIPSE
5
EA
100
AcDbEntity
8
1
62
256
6
ByLayer
370
18
48
1
60
0
100
AcDbEllipse
10
69.193101
20
-2.133424
30
0
11
0.0226881283684773
21
-1.29980200370331
31
0
210
0
220
0
230
1
40
0.994522
41
-1.06356296414966
42
-0.489780070125311
0
ELLIPSE
5
EB
100
AcDbEntity
8
1
62
256
6
ByLayer
370
18
48
1
60
0
100
AcDbEllipse
10
69.193101
20
-2.133424
30
0
11
0.0226881283684773
21
-1.29980200370331
31
0
210
0
220
0
230
1
40
0.994522
41
-0.0163654129530738
42
0.210143963986865
0
ELLIPSE
5
EC
100
AcDbEntity
8
1
62
256
6
ByLayer
370
18
48
1
60
0
100
AcDbEllipse
10
69.193101
20
-2.133424
30
0
11
0.0226881283684773
21
-1.29980200370331
31
0
210
0
220
0
230
1
40
0.994522
41
-2.94474409662131
42
-2.58417517251841
0
ELLIPSE
5
ED
100
AcDbEntity
8
1
62
256
6
ByLayer
370
18
48
1
60
0
100
AcDbEllipse
10
69.30284
20
-2.131508
30
0
11
-0.0226881283684639
21
1.29980200370331
31
0
210
0
220
0
230
1
40
0.994522
41
0.275006930230164
42
1.55343898824532
0
ELLIPSE
5
EE
100
AcDbEntity
8
1
62
256
6
ByLayer
370
18
48
1
60
0
100
AcDbEllipse
10
69.30284
20
-2.131508
30
0
11
-0.0226881283684639
21
1.29980200370331
31
0
210
0
220
0
230
1
40
0.994522
41
1.55343898824532
42
3.09920106607437
0
ELLIPSE
5
EF
100
AcDbEntity
8
1
62
256
6
ByLayer
370
18
48
1
60
0
100
AcDbEllipse
10
68.921369
20
-2.138167
30
0
11
-0.0226881283684639
21
1.29980200370331
31
0
210
0
220
0
230
1
40
0.994522
41
2.65181258346449
42
3.12522724063672
0
ELLIPSE
5
F0
100
AcDbEntity
8
1
62
256
6
ByLayer
370
18
48
1
60
0
100
AcDbEllipse
10
68.921369
20
-2.138167
30
0
11
-0.0226881283684639
21
1.29980200370331
31
0
210
0
220
0
230
1
40
0.994522
41
1.60461503226791
42
2.07802968944016
0
ELLIPSE
5
F1
100
AcDbEntity
8
1
62
256
6
ByLayer
370
18
48
1
60
0
100
AcDbEllipse
10
68.921369
20
-2.138167
30
0
11
-0.0226881283684639
21
1.29980200370331
31
0
210
0
220
0
230
1
40
0.994522
41
0.557417481071405
42
1.03083213824348
0
ELLIPSE
5
F2
100
AcDbEntity
8
1
62
256
6
ByLayer
370
18
48
1
60
0
100
AcDbEllipse
10
68.921369
20
-2.138167
30
0
11
-0.0226881283684639
21
1.29980200370331
31
0
210
0
220
0
230
1
40
0.994522
41
-0.48978007012529
42
-0.0163654129530515
0
ELLIPSE
5
F3
100
AcDbEntity
8
1
62
256
6
ByLayer
370
18
48
1
60
0
100
AcDbEllipse
10
68.921369
20
-2.138167
30
0
11
-0.0226881283684639
21
1.29980200370331
31
0
210
0
220
0
230
1
40
0.994522
41
-1.53697762132192
42
-1.06356296414963
0
ELLIPSE
5
F4
100
AcDbEntity
8
1
62
256
6
ByLayer
370
18
48
1
60
0
100
AcDbEllipse
10
68.921369
20
-2.138167
30
0
11
-0.0226881283684639
21
1.29980200370331
31
0
210
0
220
0
230
1
40
0.994522
41
-2.58417517251852
42
-2.11076051534623
0
ELLIPSE
5
F5
100
AcDbEntity
8
1
62
256
6
ByLayer
370
18
48
1
60
0
100
AcDbEllipse
10
68.900466
20
-2.138532
30
0
11
-0.0261786096559199
21
1.49977154273459
31
0
210
0
220
0
230
1
40
0.994522
41
0
42
6.28318530717959
0
ELLIPSE
5
F6
100
AcDbEntity
8
1
62
256
6
ByLayer
370
13
48
1
60
0
100
AcDbEllipse
10
68.983395
20
-2.137084
30
0
11
-0.0552385128274285
21
3.16461228042424
31
0
210
0
220
0
230
1
40
0.994522
41
0
42
6.28318530717959
0
ELLIPSE
5
F7
100
AcDbEntity
8
1
62
256
6
ByLayer
370
18
48
1
60
0
100
AcDbEllipse
10
69.00049
20
-2.136786
30
0
11
-0.0567203209211597
21
3.24950500925827
31
0
210
0
220
0
230
1
40
0.994522
41
-3.14157343432284
42
-2.74790972547655E-16
0
ELLIPSE
5
F8
100
AcDbEntity
8
1
62
256
6
ByLayer
370
18
48
1
60
0
100
AcDbEllipse
10
69.012322
20
-2.136579
30
0
11
-0.0567203209211597
21
3.24950500925827
31
0
210
0
220
0
230
1
40
0.994522
41
-3.14157343432284
42
-2.74790972547655E-16
0
ELLIPSE
5
F9
100
AcDbEntity
8
1
62
256
6
ByLayer
370
18
48
1
60
0
100
AcDbEllipse
10
79.036634
20
-3.548616
30
0
11
0.0138528476095992
21
-0.793629108030387
31
0
210
0
220
0
230
1
40
0.994522
41
1.5707963267949
42
-2.61799387799148
0
ELLIPSE
5
FA
100
AcDbEntity
8
1
62
256
6
ByLayer
370
18
48
1
60
0
100
AcDbEllipse
10
79.180597
20
-11.796251
30
0
11
0.0138528476095992
21
-0.793629108030387
31
0
210
0
220
0
230
1
40
0.994522
41
-0.523598775598343
42
1.5707963267949
0
ELLIPSE
5
FB
100
AcDbEntity
8
1
62
256
6
ByLayer
370
18
48
1
60
0
100
AcDbEllipse
10
66.921497
20
0.560888
30
0
11
-0.0244333690121919
21
1.39978677321895
31
0
210
0
220
0
230
1
40
0.994522
41
-0.533591001056285
42
3.81973677343003E-05
0
ELLIPSE
5
FC
100
AcDbEntity
8
1
62
256
6
ByLayer
370
18
48
1
60
0
100
AcDbEllipse
10
65.967986
20
-0.192053
30
0
11
-6.61720529156455
21
-6.93483735420594
31
0
210
0
220
0
230
1
40
0.074555
41
1.4451728817176
42
1.46603529892541
0
ELLIPSE
5
FD
100
AcDbEntity
8
1
62
256
6
ByLayer
370
18
48
1
60
0
100
AcDbEllipse
10
65.967986
20
-0.192053
30
0
11
-6.61720529156456
21
-6.93483735420595
31
0
210
0
220
0
230
1
40
0.074555
41
1.82262874830986
42
1.84349116551768
0
ELLIPSE
5
FE
100
AcDbEntity
8
1
62
256
6
ByLayer
370
18
48
1
60
0
100
AcDbEllipse
10
66.439873
20
0.552481
30
0
11
-0.486458469843135
21
-1.3249342932552
31
0
210
0
220
0
230
-1
40
0.936149
41
0.429013820760845
42
-2.71257883282901
0
ELLIPSE
5
FF
100
AcDbEntity
8
1
62
256
6
ByLayer
370
18
48
1
60
0
100
AcDbEllipse
10
74.920666
20
-4.801544
30
0
11
-0.518192487571541
21
0.907368282136419
31
0
210
0
220
0
230
-1
40
0.087822
41
-2.72527932946972
42
-1.6099581679128
0
ELLIPSE
5
100
100
AcDbEntity
8
1
62
256
6
ByLayer
370
18
48
1
60
0
100
AcDbEllipse
10
68.987957
20
-2.137004
30
0
11
-0.067407113420503
21
3.86175094150166
31
0
210
0
220
0
230
1
40
0.994522
41
-3.13105444055633
42
-2.78408683566596
0
ELLIPSE
5
101
100
AcDbEntity
8
1
62
256
6
ByLayer
370
18
48
1
60
0
100
AcDbEllipse
10
66.497968
20
-5.215614
30
0
11
8.40870854665644
21
-4.19082278047962
31
0
210
0
220
0
230
1
40
0.04846
41
1.3244927830353
42
1.47793767950953
0
ELLIPSE
5
102
100
AcDbEntity
8
1
62
256
6
ByLayer
370
18
48
1
60
0
100
AcDbEllipse
10
69.005846
20
-2.136692
30
0
11
-0.0597744920476837
21
3.42447835591064
31
0
210
0
220
0
230
1
40
0.994522
41
2.65952703146041
42
-1.07127741214555
0
ELLIPSE
5
103
100
AcDbEntity
8
1
62
256
6
ByLayer
370
18
48
1
60
0
100
AcDbEllipse
10
68.987957
20
-2.137004
30
0
11
-0.067407113420503
21
3.86175094150166
31
0
210
0
220
0
230
1
40
0.994522
41
-1.91084885219877
42
-1.56387450230277
0
ELLIPSE
5
104
100
AcDbEntity
8
1
62
256
6
ByLayer
370
18
48
1
60
0
100
AcDbEllipse
10
70.984884
20
-0.461312
30
0
11
-4.66244972968874
21
8.15664989552239
31
0
210
0
220
0
230
1
40
0.091756
41
-1.77454602672081
42
-1.62109913013143
0
ELLIPSE
5
105
100
AcDbEntity
8
1
62
256
6
ByLayer
370
18
48
1
60
0
100
AcDbEllipse
10
69.005922
20
-2.136691
30
0
11
-0.0597398513954417
21
3.42249379427283
31
0
210
0
220
0
230
1
40
0.994522
41
0.372393493446301
42
1.21585612586855
0
ELLIPSE
5
106
100
AcDbEntity
8
1
62
256
6
ByLayer
370
18
48
1
60
0
100
AcDbEllipse
10
69.005922
20
-2.136691
30
0
11
-0.0597398513954417
21
3.42249379427283
31
0
210
0
220
0
230
1
40
0.994522
41
1.38131043617079
42
0.206939183144068
0
ELLIPSE
5
107
100
AcDbEntity
8
1
62
256
6
ByLayer
370
18
48
1
60
0
100
AcDbEllipse
10
69.008859
20
-2.136639
30
0
11
0.0597744920477191
21
-3.42447835591064
31
0
210
0
220
0
230
1
40
0.994522
41
-0.482065622129395
42
2.07031524144425
0
ELLIPSE
5
108
100
AcDbEntity
8
1
62
256
6
ByLayer
370
18
48
1
60
0
100
AcDbEllipse
10
69.008859
20
-2.136639
30
0
11
0.0597744920477191
21
-3.42447835591064
31
0
210
0
220
0
230
1
40
0.994522
41
2.07031524144425
42
-2.93552372564092
0
ELLIPSE
5
109
100
AcDbEntity
8
1
62
256
6
ByLayer
370
18
48
1
60
0
100
AcDbEllipse
10
69.008859
20
-2.136639
30
0
11
0.0597744920477191
21
-3.42447835591064
31
0
210
0
220
0
230
1
40
0.994522
41
-2.76887757374376
42
-1.92605811412099
0
ELLIPSE
5
10A
100
AcDbEntity
8
1
62
256
6
ByLayer
370
18
48
1
60
0
100
AcDbEllipse
10
69.008859
20
-2.136639
30
0
11
0.0597744920477191
21
-3.42447835591064
31
0
210
0
220
0
230
1
40
0.994522
41
-1.75941196222324
42
-0.482065622129395
0
ELLIPSE
5
10B
100
AcDbEntity
8
1
62
256
6
ByLayer
370
18
48
1
60
0
100
AcDbEllipse
10
69.735221
20
-2.123961
30
0
11
-0.0597744920476837
21
3.42447835591064
31
0
210
0
220
0
230
1
40
0.994522
41
-0.263382952813409
42
-4.95800169759615E-05
0
POINT
5
6C
100
AcDbEntity
8
81
62
256
6
ByLayer
370
18
48
1
60
0
100
AcDbPoint
10
79.97
20
-12.59
30
0
39
0
210
0
220
0
230
1
50
360
0
POINT
5
6E
100
AcDbEntity
8
80
62
256
6
ByLayer
370
18
48
1
60
0
100
AcDbPoint
10
0
20
0
30
0
39
0
210
0
220
0
230
1
50
360
0
POINT
5
70
100
AcDbEntity
8
81
62
256
6
ByLayer
370
18
48
1
60
0
100
AcDbPoint
10
79.97
20
-12.59
30
0
39
0
210
0
220
0
230
1
50
360
0
SPLINE
5
10C
100
AcDbEntity
8
1
62
256
6
ByLayer
370
18
48
1
60
0
100
AcDbSpline
70
4
71
3
72
8
73
4
40
0
40
0
40
0
40
0
40
1
40
1
40
1
40
1
41
1
10
72.6
20
-11.9461480622638
30
0
41
1
10
71.4295407915871
20
-11.6196078422679
30
0
41
1
10
70.2716942434381
20
-11.2880419959421
30
0
41
1
10
69.1298966527853
20
-10.9386466527739
30
0
0
SPLINE
5
10D
100
AcDbEntity
8
1
62
256
6
ByLayer
370
18
48
1
60
0
100
AcDbSpline
70
4
71
3
72
8
73
4
40
0
40
0
40
0
40
0
40
1
40
1
40
1
40
1
41
1
10
66.7173205080758
20
9.38694818820875
30
0
41
1
10
67.1034055302976
20
9.41759502212437
30
0
41
1
10
67.4922027390707
20
9.44382012676587
30
0
41
1
10
67.8836606311603
20
9.46654295136798
30
0
0
SPLINE
5
10E
100
AcDbEntity
8
1
62
256
6
ByLayer
370
18
48
1
60
0
100
AcDbSpline
70
4
71
3
72
8
73
4
40
0
40
0
40
0
40
0
40
1
40
1
40
1
40
1
41
1
10
73.9193627578122
20
-11.9557837279444
30
0
41
1
10
73.479071793511
20
-11.9535678686937
30
0
41
1
10
73.0392831669638
20
-11.950444554216
30
0
41
1
10
72.6
20
-11.9461480622638
30
0
0
SPLINE
5
10F
100
AcDbEntity
8
1
62
256
6
ByLayer
370
18
48
1
60
0
100
AcDbSpline
70
4
71
3
72
8
73
4
40
0
40
0
40
0
40
0
40
1
40
1
40
1
40
1
41
1
10
66.7000000000001
20
9.37525563294312
30
0
41
1
10
66.7057724619582
20
9.3791541075837
30
0
41
1
10
66.711545965721
20
9.38305162406701
30
0
41
1
10
66.7173205080758
20
9.38694818820869
30
0
0
SPLINE
5
110
100
AcDbEntity
8
1
62
256
6
ByLayer
370
18
48
1
60
0
100
AcDbSpline
70
4
71
3
72
8
73
4
40
0
40
0
40
0
40
0
40
1
40
1
40
1
40
1
41
1
10
50.0000000000001
20
-8.50875000000002
30
0
41
1
10
50.1126151291741
20
-8.50875000000002
30
0
41
1
10
50.2211704392429
20
-8.50875000000002
30
0
41
1
10
50.325
20
-8.50875000000002
30
0
0
SPLINE
5
111
100
AcDbEntity
8
1
62
256
6
ByLayer
370
18
48
1
60
0
100
AcDbSpline
70
4
71
3
72
8
73
4
40
0
40
0
40
0
40
0
40
1
40
1
40
1
40
1
41
1
10
66.7000000000001
20
-8.50874999999999
30
0
41
1
10
67.50526089654
20
-9.31401089653983
30
0
41
1
10
68.3152775709795
20
-10.1240275709795
30
0
41
1
10
69.1298966527828
20
-10.9386466527828
30
0
0
SPLINE
5
112
100
AcDbEntity
8
SK1
62
256
6
ByLayer
370
18
48
1
60
0
100
AcDbSpline
70
4
71
3
72
16
73
12
40
0
40
0
40
0
40
0
40
0.24981046487162
40
0.24981046487162
40
0.374842054059684
40
0.374842054059684
40
0.499873643247747
40
0.499873643247747
40
0.749936821623874
40
0.749936821623874
40
1
40
1
40
1
40
1
41
1
10
-170.791243000027
20
-8.50875000000005
30
0
41
1
10
-170.790655834498
20
-8.50875000000005
30
0
41
1
10
-170.752968352738
20
-8.50874999999999
30
0
41
1
10
-170.644161442074
20
-8.50874999999999
30
0
41
1
10
-170.599045263156
20
-8.50874999999999
30
0
41
1
10
-170.493055654857
20
-8.50874999999999
30
0
41
1
10
-170.432565706166
20
-8.50874999999999
30
0
41
1
10
-170.231534603798
20
-8.50874999999999
30
0
41
1
10
-170.071542411138
20
-8.50874999999999
30
0
41
1
10
-169.712591133387
20
-8.50874999999999
30
0
41
1
10
-169.513614066142
20
-8.50874999999999
30
0
41
1
10
-169.3
20
-8.50874999999999
30
0
0
SPLINE
5
113
100
AcDbEntity
8
1
62
256
6
ByLayer
370
18
48
1
60
0
100
AcDbSpline
70
4
71
3
72
8
73
4
40
0
40
0
40
0
40
0
40
1
40
1
40
1
40
1
41
1
10
50.3250000000001
20
3.55044011356338
30
0
41
1
10
50.2248121269602
20
3.82345349800488
30
0
41
1
10
50.1160162228408
20
4.09273947450163
30
0
41
1
10
50
20
4.35889894354065
30
0
0
SPLINE
5
114
100
AcDbEntity
8
1
62
256
6
ByLayer
370
18
48
1
60
0
100
AcDbSpline
70
4
71
3
72
14
73
10
40
0
40
0
40
0
40
0
40
0.5
40
0.5
40
0.75
40
0.75
40
0.875
40
0.875
40
1
40
1
40
1
40
1
41
1
10
75.6700000000001
20
4.94685095120079
30
0
41
1
10
74.3575865810604
20
5.70866008249166
30
0
41
1
10
73.0518991954745
20
6.46656499156686
30
0
41
1
10
71.1034064762126
20
7.59759544612189
30
0
41
1
10
70.4555872833323
20
7.97363135785491
30
0
41
1
10
69.4864189554344
20
8.53619896901742
30
0
41
1
10
69.163830675752
20
8.72344994768235
30
0
41
1
10
68.5218096291095
20
9.09612024254136
30
0
41
1
10
68.2020895229818
20
9.28170634886308
30
0
41
1
10
67.8836606311593
20
9.46654295138208
30
0
0
SPLINE
5
115
100
AcDbEntity
8
1
62
256
6
ByLayer
370
18
48
1
60
0
100
AcDbSpline
70
4
71
3
72
8
73
4
40
0
40
0
40
0
40
0
40
1
40
1
40
1
40
1
41
1
10
73.9193627578122
20
-11.9557837279444
30
0
41
1
10
73.3087643850997
20
-11.3832373064839
30
0
41
1
10
72.6985533226956
20
-10.8129445727187
30
0
41
1
10
72.0887344740037
20
-10.2449340586573
30
0
0
SPLINE
5
116
100
AcDbEntity
8
1
62
256
6
ByLayer
370
18
48
1
60
0
100
AcDbSpline
70
4
71
3
72
10
73
6
40
0
40
0
40
0
40
0
40
0.5
40
0.5
40
1
40
1
40
1
40
1
41
1
10
70.2842733022365
20
-8.65300845987355
30
0
41
1
10
70.2177408850675
20
-8.60395920517109
30
0
41
1
10
70.1559078223227
20
-8.54622981954932
30
0
41
1
10
70.0490832133882
20
-8.41982053694329
30
0
41
1
10
70.002893119113
20
-8.35011800722211
30
0
41
1
10
69.9653553680528
20
-8.27496259698785
30
0
0
SPLINE
5
117
100
AcDbEntity
8
1
62
256
6
ByLayer
370
18
48
1
60
0
100
AcDbSpline
70
4
71
3
72
22
73
18
40
0
40
0
40
0
40
0
40
0.249999999999997
40
0.249999999999997
40
0.499999999999993
40
0.499999999999993
40
0.562499999999995
40
0.562499999999995
40
0.624999999999998
40
0.624999999999998
40
0.749999999999996
40
0.749999999999996
40
0.812499999999998
40
0.812499999999998
40
0.875
40
0.875
40
1
40
1
40
1
40
1
41
1
10
61.3825195732574
20
-8.50875000000002
30
0
41
1
10
60.7217374795341
20
-8.31486077726086
30
0
41
1
10
60.0902451653566
20
-8.08327129126758
30
0
41
1
10
58.8905005128732
20
-7.51885068922846
30
0
41
1
10
58.3221376823079
20
-7.18643766065046
30
0
41
1
10
57.6563338130821
20
-6.68293576813247
30
0
41
1
10
57.5251083886008
20
-6.57748407316649
30
0
41
1
10
57.2701832569578
20
-6.35927903411991
30
0
41
1
10
57.1462097762664
20
-6.24634997339373
30
0
41
1
10
56.7848589998279
20
-5.89548468143087
30
0
41
1
10
56.5580238983848
20
-5.6455144539292
30
0
41
1
10
56.2396755443873
20
-5.24344316601864
30
0
41
1
10
56.1372161955363
20
-5.10489038965625
30
0
41
1
10
55.939843515092
20
-4.81806442726236
30
0
41
1
10
55.8447065311479
20
-4.66940837402021
30
0
41
1
10
55.5727446027145
20
-4.21045684428628
30
0
41
1
10
55.4101808312792
20
-3.88895393664217
30
0
41
1
10
55.2668993979539
20
-3.55044011356333
30
0
0
SPLINE
5
118
100
AcDbEntity
8
1
62
256
6
ByLayer
370
18
48
1
60
0
100
AcDbSpline
70
4
71
3
72
58
73
54
40
0
40
0
40
0
40
0
40
0.0624999999999945
40
0.0624999999999945
40
0.0937499999999891
40
0.0937499999999891
40
0.124999999999984
40
0.124999999999984
40
0.187499999999979
40
0.187499999999979
40
0.218749999999976
40
0.218749999999976
40
0.249999999999974
40
0.249999999999974
40
0.312499999999969
40
0.312499999999969
40
0.343749999999969
40
0.343749999999969
40
0.37499999999997
40
0.37499999999997
40
0.437499999999971
40
0.437499999999971
40
0.468749999999971
40
0.468749999999971
40
0.499999999999972
40
0.499999999999972
40
0.562499999999973
40
0.562499999999973
40
0.593749999999974
40
0.593749999999974
40
0.624999999999974
40
0.624999999999974
40
0.656249999999975
40
0.656249999999975
40
0.671874999999976
40
0.671874999999976
40
0.687499999999977
40
0.687499999999977
40
0.749999999999984
40
0.749999999999984
40
0.781249999999987
40
0.781249999999987
40
0.81249999999999
40
0.81249999999999
40
0.843749999999993
40
0.843749999999993
40
0.874999999999996
40
0.874999999999996
40
0.9375
40
0.9375
40
0.96875
40
0.96875
40
1
40
1
40
1
40
1
41
1
10
70.6201943182308
20
2.1469549145333
30
0
41
1
10
70.4193625144226
20
2.33299311997891
30
0
41
1
10
70.2038104971757
20
2.49504383644685
30
0
41
1
10
69.860238536151
20
2.70462313693227
30
0
41
1
10
69.7423134420045
20
2.76885686988547
30
0
41
1
10
69.4996692379103
20
2.88600686375213
30
0
41
1
10
69.3745791115102
20
2.93898617142113
30
0
41
1
10
68.9971385279988
20
3.07777380587547
30
0
41
1
10
68.740248660754
20
3.14493433256933
30
0
41
1
10
68.3475946405286
20
3.2093650906917
30
0
41
1
10
68.2150272088216
20
3.22477592203657
30
0
41
1
10
67.9494807584256
20
3.2430791662961
30
0
41
1
10
67.8174408525341
20
3.24595480543803
30
0
41
1
10
67.4234427833305
20
3.23656934507542
30
0
41
1
10
67.1635942607881
20
3.20645394015122
30
0
41
1
10
66.7779701427331
20
3.12569412122772
30
0
41
1
10
66.6498528108039
20
3.09266042351948
30
0
41
1
10
66.3997106825362
20
3.01584520442518
30
0
41
1
10
66.2771030888264
20
2.97197224979658
30
0
41
1
10
65.9164778905676
20
2.82422777483245
30
0
41
1
10
65.6855908194917
20
2.70439999962463
30
0
41
1
10
65.3539590617974
20
2.49082923439659
30
0
41
1
10
65.2464116407903
20
2.41422191911565
30
0
41
1
10
65.0405534458929
20
2.25253007533746
30
0
41
1
10
64.9417382962721
20
2.16713046890925
30
0
41
1
10
64.6576378096337
20
1.89709927743326
30
0
41
1
10
64.4845442043395
20
1.69881545672217
30
0
41
1
10
64.2518121655143
20
1.37048555140444
30
0
41
1
10
64.1798458233246
20
1.25730951696875
30
0
41
1
10
64.048241172687
20
1.02530208574126
30
0
41
1
10
63.9883992757603
20
0.906186185458608
30
0
41
1
10
63.8808456022709
20
0.661567452855195
30
0
41
1
10
63.8331318065265
20
0.536065732027311
30
0
41
1
10
63.771117824695
20
0.342746279945715
30
0
41
1
10
63.7520426155467
20
0.277460269069877
30
0
41
1
10
63.7172067967997
20
0.145126045867329
30
0
41
1
10
63.7014470254325
20
0.0780038512412204
30
0
41
1
10
63.632218671409
20
-0.257144273653353
30
0
41
1
10
63.60606971843
20
-0.527603619364328
30
0
41
1
10
63.6105718226925
20
-0.936806322705564
30
0
41
1
10
63.6195083680496
20
-1.07451126232664
30
0
41
1
10
63.6523130845124
20
-1.34782596318772
30
0
41
1
10
63.675949841434
20
-1.48223841800962
30
0
41
1
10
63.7370241877373
20
-1.74679563469883
30
0
41
1
10
63.7744638841778
20
-1.87693974405002
30
0
41
1
10
63.8629394579322
20
-2.13304631659165
30
0
41
1
10
63.9143234411774
20
-2.25970352724846
30
0
41
1
10
64.0863391971362
20
-2.62752261451243
30
0
41
1
10
64.2239463692363
20
-2.85616658203395
30
0
41
1
10
64.4623278245629
20
-3.17648716091875
30
0
41
1
10
64.5474890034512
20
-3.2797860627291
30
0
41
1
10
64.7267277695655
20
-3.47670290209595
30
0
41
1
10
64.8207800998895
20
-3.57038492742746
30
0
41
1
10
64.9191914463379
20
-3.65942923835087
30
0
0
SPLINE
5
119
100
AcDbEntity
8
1
62
256
6
ByLayer
370
18
48
1
60
0
100
AcDbSpline
70
4
71
3
72
10
73
6
40
0
40
0
40
0
40
0
40
0.5
40
0.5
40
1
40
1
40
1
40
1
41
1
10
61.3825195732574
20
-8.50875000000002
30
0
41
1
10
62.2307529918694
20
-8.50875000000002
30
0
41
1
10
63.0980455953706
20
-8.50875000000002
30
0
41
1
10
64.8704592449553
20
-8.50875000000002
30
0
41
1
10
65.7755791717019
20
-8.50875000000002
30
0
41
1
10
66.7000000000001
20
-8.50875000000002
30
0
0
SPLINE
5
11A
100
AcDbEntity
8
1
62
256
6
ByLayer
370
18
48
1
60
0
100
AcDbSpline
70
4
71
3
72
8
73
4
40
0
40
0
40
0
40
0
40
1
40
1
40
1
40
1
41
1
10
55.2668993979538
20
-3.55044011356333
30
0
41
1
10
55.2715795977742
20
-1.18348003192398
30
0
41
1
10
55.2762627938318
20
1.18348004379283
30
0
41
1
10
55.2809489923248
20
3.55044011356338
30
0
0
SPLINE
5
11B
100
AcDbEntity
8
1
62
256
6
ByLayer
370
18
48
1
60
0
100
AcDbSpline
70
4
71
3
72
10
73
6
40
0
40
0
40
0
40
0
40
0.5
40
0.5
40
1
40
1
40
1
40
1
41
1
10
71.203691034413
20
-8.84964430651391
30
0
41
1
10
71.0784878517589
20
-8.83974653991177
30
0
41
1
10
70.9520603485351
20
-8.81973266331255
30
0
41
1
10
70.6997747522494
20
-8.75512174762918
30
0
41
1
10
70.5737585662075
20
-8.71056521579678
30
0
41
1
10
70.4508200636038
20
-8.65010137534651
30
0
0
SPLINE
5
11C
100
AcDbEntity
8
1
62
256
6
ByLayer
370
18
48
1
60
0
100
AcDbSpline
70
4
71
3
72
28
73
24
40
0
40
0
40
0
40
0
40
0.124999999999988
40
0.124999999999988
40
0.187499999999978
40
0.187499999999978
40
0.249999999999968
40
0.249999999999968
40
0.374999999999948
40
0.374999999999948
40
0.437499999999947
40
0.437499999999947
40
0.499999999999946
40
0.499999999999946
40
0.624999999999945
40
0.624999999999945
40
0.749999999999944
40
0.749999999999944
40
0.812499999999958
40
0.812499999999958
40
0.874999999999972
40
0.874999999999972
40
1
40
1
40
1
40
1
41
1
10
70.2842733022456
20
-8.65300845988014
30
0
41
1
10
70.2922283610383
20
-8.76526421674552
30
0
41
1
10
70.3112777734599
20
-8.8747244474612
30
0
41
1
10
70.3556653226632
20
-9.03493452800618
30
0
41
1
10
70.3731164637426
20
-9.08766959011987
30
0
41
1
10
70.4134218894831
20
-9.19178115293587
30
0
41
1
10
70.4363423377035
20
-9.24320786138409
30
0
41
1
10
70.5116686788784
20
-9.39205006136044
30
0
41
1
10
70.5709845312107
20
-9.48526417506685
30
0
41
1
10
70.6733013294994
20
-9.61629409159536
30
0
41
1
10
70.709844827859
20
-9.65869579946283
30
0
41
1
10
70.7865165526403
20
-9.73939979071852
30
0
41
1
10
70.8265181991243
20
-9.77761669256819
30
0
41
1
10
70.9513528733127
20
-9.88609076769114
30
0
41
1
10
71.0409718391292
20
-9.95022738238632
30
0
41
1
10
71.2332143126747
20
-10.0619394978777
30
0
41
1
10
71.3339641648416
20
-10.1083026575396
30
0
41
1
10
71.4894675054838
20
-10.1631257453941
30
0
41
1
10
71.5421581271778
20
-10.1790001151739
30
0
41
1
10
71.6492759749852
20
-10.2058903552144
30
0
41
1
10
71.7039712280236
20
-10.2169430784695
30
0
41
1
10
71.8687059187078
20
-10.2422284965856
30
0
41
1
10
71.9786568332713
20
-10.2486665368425
30
0
41
1
10
72.0887344740037
20
-10.2449340586573
30
0
0
SPLINE
5
11D
100
AcDbEntity
8
SK1
62
256
6
ByLayer
370
18
48
1
60
0
100
AcDbSpline
70
4
71
3
72
20
73
16
40
0
40
0
40
0
40
0
40
0.25
40
0.25
40
0.375
40
0.375
40
0.4375
40
0.4375
40
0.5
40
0.5
40
0.75
40
0.75
40
0.875
40
0.875
40
1
40
1
40
1
40
1
41
1
10
-169.3
20
4.35889894354065
30
0
41
1
10
-169.602027668308
20
3.66599995180059
30
0
41
1
10
-169.851886706467
20
2.96001717507627
30
0
41
1
10
-170.113947659788
20
1.87277115912346
30
0
41
1
10
-170.182423902156
20
1.50562140524454
30
0
41
1
10
-170.252239888446
20
0.946645929172746
30
0
41
1
10
-170.270029974928
20
0.75894591900979
30
0
41
1
10
-170.293933743736
20
0.380617480572084
30
0
41
1
10
-170.299966594547
20
0.190238619674659
30
0
41
1
10
-170.300132922212
20
-0.753019487228585
30
0
41
1
10
-170.204440237228
20
-1.49252665498227
30
0
41
1
10
-169.943260348108
20
-2.58325066877282
30
0
41
1
10
-169.836762865345
20
-2.94376255893869
30
0
41
1
10
-169.590257284012
20
-3.65950605237538
30
0
41
1
10
-169.451311794325
20
-4.01176588015653
30
0
41
1
10
-169.3
20
-4.35889894354071
30
0
0
SPLINE
5
11E
100
AcDbEntity
8
1
62
256
6
ByLayer
370
18
48
1
60
0
100
AcDbSpline
70
4
71
3
72
8
73
4
40
0
40
0
40
0
40
0
40
1
40
1
40
1
40
1
41
1
10
50
20
-4.35889894354065
30
0
41
1
10
50.1163154294963
20
-4.09205304735701
30
0
41
1
10
50.225084621186
20
-3.82271094734909
30
0
41
1
10
50.325
20
-3.55044011356344
30
0
0
SPLINE
5
11F
100
AcDbEntity
8
1
62
256
6
ByLayer
370
18
48
1
60
0
100
AcDbSpline
70
4
71
3
72
30
73
26
40
0
40
0
40
0
40
0
40
0.125000000000007
40
0.125000000000007
40
0.187500000000009
40
0.187500000000009
40
0.218750000000008
40
0.218750000000008
40
0.250000000000008
40
0.250000000000008
40
0.375000000000009
40
0.375000000000009
40
0.437500000000008
40
0.437500000000008
40
0.500000000000006
40
0.500000000000006
40
0.625000000000004
40
0.625000000000004
40
0.750000000000001
40
0.750000000000001
40
0.812500000000002
40
0.812500000000002
40
0.875000000000003
40
0.875000000000003
40
1
40
1
40
1
40
1
41
1
10
55.2809489923249
20
3.55044011356338
30
0
41
1
10
55.5168332282187
20
4.10187001600067
30
0
41
1
10
55.8002036952307
20
4.60081381304462
30
0
41
1
10
56.2901742620231
20
5.28496180015395
30
0
41
1
10
56.4644205687561
20
5.50217954152922
30
0
41
1
10
56.7420548980207
20
5.81281125106671
30
0
41
1
10
56.8375845123624
20
5.91408408015354
30
0
41
1
10
57.0325945291052
20
6.11022540633988
30
0
41
1
10
57.1319850588451
20
6.20504115510309
30
0
41
1
10
57.6380610107852
20
6.66396723943964
30
0
41
1
10
58.0719761424806
20
6.98301469132099
30
0
41
1
10
58.7626681903734
20
7.40518842642425
30
0
41
1
10
58.99956310182
20
7.53643531177943
30
0
41
1
10
59.4862938891764
20
7.78191097064152
30
0
41
1
10
59.7367585343308
20
7.89634300131419
30
0
41
1
10
60.4972409297176
20
8.21281285408139
30
0
41
1
10
61.0189808356421
20
8.38979022063737
30
0
41
1
10
62.0894269813299
20
8.6931660208634
30
0
41
1
10
62.6381470376821
20
8.81946836307745
30
0
41
1
10
63.4801929749909
20
8.98020172459948
30
0
41
1
10
63.7640411058661
20
9.0289632748152
30
0
41
1
10
64.3379103032701
20
9.11812260437651
30
0
41
1
10
64.6282171740592
20
9.15855424502448
30
0
41
1
10
65.506150186185
20
9.26873547953261
30
0
41
1
10
66.0992998094299
20
9.32730380449718
30
0
41
1
10
66.7000000000001
20
9.37525563294315
30
0
0
SPLINE
5
120
100
AcDbEntity
8
1
62
256
6
ByLayer
370
18
48
1
60
0
100
AcDbSpline
70
4
71
3
72
10
73
6
40
0
40
0
40
0
40
0
40
0.5
40
0.5
40
1
40
1
40
1
40
1
41
1
10
64.9191914463378
20
-3.65942923835092
30
0
41
1
10
65.7519463009433
20
-4.41292042481064
30
0
41
1
10
66.5889908824015
20
-5.17458630284733
30
0
41
1
10
68.2711707398091
20
-6.71333604108588
30
0
41
1
10
69.116307568558
20
-7.49042286037036
30
0
41
1
10
69.9653553680528
20
-8.27496259698782
30
0
0
SPLINE
5
121
100
AcDbEntity
8
1
62
256
6
ByLayer
370
18
48
1
60
0
100
AcDbSpline
70
4
71
3
72
10
73
6
40
0
40
0
40
0
40
0
40
0.5
40
0.5
40
1
40
1
40
1
40
1
41
1
10
71.3552342218737
20
-8.84699911033735
30
0
41
1
10
71.3594952302788
20
-8.84692473415899
30
0
41
1
10
71.3821264153047
20
-8.84950037119827
30
0
41
1
10
71.4465853051992
20
-8.85424397272095
30
0
41
1
10
71.4881213620271
20
-8.85596755946969
30
0
41
1
10
71.5286019376184
20
-8.85501240478135
30
0
0
SPLINE
5
122
100
AcDbEntity
8
1
62
256
6
ByLayer
370
18
48
1
60
0
100
AcDbSpline
70
4
71
3
72
8
73
4
40
0
40
0
40
0
40
0
40
1
40
1
40
1
40
1
41
1
10
75.6699999999999
20
-2.574731244026
30
0
41
1
10
73.9873351147565
20
-0.986994939114084
30
0
41
1
10
72.3040757353163
20
0.587110950192624
30
0
41
1
10
70.6201943182307
20
2.14695491453327
30
0
0
SPLINE
5
123
100
AcDbEntity
8
1
62
256
6
ByLayer
370
18
48
1
60
0
100
AcDbSpline
70
4
71
3
72
8
73
4
40
0
40
0
40
0
40
0
40
1
40
1
40
1
40
1
41
1
10
67.8024675100659
20
-2.78928239533065
30
0
41
1
10
67.8404470103261
20
-2.93047087330388
30
0
41
1
10
67.8748197048063
20
-3.06757112397352
30
0
41
1
10
67.9058437307861
20
-3.19686396871228
30
0
0
SPLINE
5
124
100
AcDbEntity
8
1
62
256
6
ByLayer
370
18
48
1
60
0
100
AcDbSpline
70
4
71
3
72
10
73
6
40
0
40
0
40
0
40
0
40
0.5
40
0.5
40
1
40
1
40
1
40
1
41
1
10
67.905843730786
20
-3.19686396871225
30
0
41
1
10
67.9748572835053
20
-3.21261395769051
30
0
41
1
10
68.0447625982457
20
-3.22865725485187
30
0
41
1
10
68.1870417110774
20
-3.26155575453663
30
0
41
1
10
68.2599044610126
20
-3.27852611265342
30
0
41
1
10
68.3332711058562
20
-3.29577392259267
30
0
0
SPLINE
5
125
100
AcDbEntity
8
1
62
256
6
ByLayer
370
18
48
1
60
0
100
AcDbSpline
70
4
71
3
72
8
73
4
40
0
40
0
40
0
40
0
40
1
40
1
40
1
40
1
41
1
10
68.9228995863045
20
-3.4381638453315
30
0
41
1
10
69.0616279809845
20
-3.4725995705146
30
0
41
1
10
69.1938012225657
20
-3.50607111451168
30
0
41
1
10
69.3170391300107
20
-3.53765484046968
30
0
0
SPLINE
5
126
100
AcDbEntity
8
1
62
256
6
ByLayer
370
18
48
1
60
0
100
AcDbSpline
70
4
71
3
72
10
73
6
40
0
40
0
40
0
40
0
40
0.5
40
0.5
40
1
40
1
40
1
40
1
41
1
10
69.3170391300107
20
-3.53765484046968
30
0
41
1
10
69.3670931129148
20
-3.48831774673673
30
0
41
1
10
69.4180622312336
20
-3.43771767990043
30
0
41
1
10
69.520502287419
20
-3.33504657522374
30
0
41
1
10
69.5721753395799
20
-3.28277675796448
30
0
41
1
10
69.6244463686787
20
-3.22927374159741
30
0
0
SPLINE
5
127
100
AcDbEntity
8
1
62
256
6
ByLayer
370
18
48
1
60
0
100
AcDbSpline
70
4
71
3
72
10
73
6
40
0
40
0
40
0
40
0
40
0.5
40
0.5
40
1
40
1
40
1
40
1
41
1
10
70.0418008954596
20
-2.7870480985282
30
0
41
1
10
70.0907436708742
20
-2.73329470226594
30
0
41
1
10
70.1382685900961
20
-2.6804146893864
30
0
41
1
10
70.2293210677426
20
-2.57805666550826
30
0
41
1
10
70.2732090128528
20
-2.5281834343273
30
0
41
1
10
70.3159203027636
20
-2.47924804091369
30
0
0
SPLINE
5
128
100
AcDbEntity
8
1
62
256
6
ByLayer
370
18
48
1
60
0
100
AcDbSpline
70
4
71
3
72
10
73
6
40
0
40
0
40
0
40
0
40
0.5
40
0.5
40
1
40
1
40
1
40
1
41
1
10
70.3159203027636
20
-2.47924804091375
30
0
41
1
10
70.3003280976203
20
-2.41426741718556
30
0
41
1
10
70.284086333806
20
-2.3481093771058
30
0
41
1
10
70.2498047650776
20
-2.21253409483609
30
0
41
1
10
70.2316366816159
20
-2.14264304846961
30
0
41
1
10
70.2125440820434
20
-2.07166646753211
30
0
0
SPLINE
5
129
100
AcDbEntity
8
1
62
256
6
ByLayer
370
18
48
1
60
0
100
AcDbSpline
70
4
71
3
72
8
73
4
40
0
40
0
40
0
40
0
40
1
40
1
40
1
40
1
41
1
10
70.0402701283759
20
-1.48705090172407
30
0
41
1
10
69.9950761669599
20
-1.34598835263876
30
0
41
1
10
69.9487094140936
20
-1.209097459037
30
0
41
1
10
69.9036060762918
20
-1.08005036960026
30
0
0
SPLINE
5
12A
100
AcDbEntity
8
1
62
256
6
ByLayer
370
18
48
1
60
0
100
AcDbSpline
70
4
71
3
72
10
73
6
40
0
40
0
40
0
40
0
40
0.5
40
0.5
40
1
40
1
40
1
40
1
41
1
10
69.9036060762918
20
-1.08005036960029
30
0
41
1
10
69.8416685722565
20
-1.06417686773281
30
0
41
1
10
69.7782372056875
20
-1.04802056738578
30
0
41
1
10
69.647239316862
20
-1.01492515320351
30
0
41
1
10
69.5792064099089
20
-0.997870489863885
30
0
41
1
10
69.5094665325855
20
-0.980559374462075
30
0
0
SPLINE
5
12B
100
AcDbEntity
8
1
62
256
6
ByLayer
370
18
48
1
60
0
100
AcDbSpline
70
4
71
3
72
8
73
4
40
0
40
0
40
0
40
0
40
1
40
1
40
1
40
1
41
1
10
68.9198380521373
20
-0.838169451723246
30
0
41
1
10
68.7738951963015
20
-0.803859655428028
30
0
41
1
10
68.6297278963342
20
-0.770597468498835
30
0
41
1
10
68.492410677067
20
-0.739259497842824
30
0
0
SPLINE
5
12C
100
AcDbEntity
8
1
62
256
6
ByLayer
370
18
48
1
60
0
100
AcDbSpline
70
4
71
3
72
10
73
6
40
0
40
0
40
0
40
0
40
0.5
40
0.5
40
1
40
1
40
1
40
1
41
1
10
68.492410677067
20
-0.739259497842824
30
0
41
1
10
68.4494569512608
20
-0.788472656127169
30
0
41
1
10
68.4050252032065
20
-0.838958612741038
30
0
41
1
10
68.3138573478398
20
-0.941432960420599
30
0
41
1
10
68.2669486412158
20
-0.993619615719183
30
0
41
1
10
68.218291269763
20
-1.04705955545745
30
0
0
SPLINE
5
12D
100
AcDbEntity
8
1
62
256
6
ByLayer
370
18
48
1
60
0
100
AcDbSpline
70
4
71
3
72
10
73
6
40
0
40
0
40
0
40
0
40
0.5
40
0.5
40
1
40
1
40
1
40
1
41
1
10
67.4935295043142
20
-1.79766629739876
30
0
41
1
10
67.5161977581414
20
-1.86252340823776
30
0
41
1
10
67.5389134701272
20
-1.92856844513187
30
0
41
1
10
67.5844762628619
20
-2.06394681290411
30
0
41
1
10
67.6074741893057
20
-2.13375355404776
30
0
41
1
10
67.6301935563984
20
-2.20466682952269
30
0
0
SPLINE
5
12E
100
AcDbEntity
8
1
62
256
6
ByLayer
370
18
48
1
60
0
100
AcDbSpline
70
4
71
3
72
10
73
6
40
0
40
0
40
0
40
0
40
0.5
40
0.5
40
1
40
1
40
1
40
1
41
1
10
67.8009367429822
20
-1.48928519852649
30
0
41
1
10
67.7483591137044
20
-1.54310204139892
30
0
41
1
10
67.6959922709538
20
-1.59606657036807
30
0
41
1
10
67.5936562129077
20
-1.69862154987473
30
0
41
1
10
67.5433009766343
20
-1.74860766804287
30
0
41
1
10
67.4935295043142
20
-1.79766629739885
30
0
0
SPLINE
5
12F
100
AcDbEntity
8
1
62
256
6
ByLayer
370
18
48
1
60
0
100
AcDbSpline
70
4
71
3
72
10
73
6
40
0
40
0
40
0
40
0
40
0.5
40
0.5
40
1
40
1
40
1
40
1
41
1
10
75.0189843925081
20
-8.70163048742174
30
0
41
1
10
75.0011610750374
20
-8.70007190587137
30
0
41
1
10
74.9814447540384
20
-8.69671125264432
30
0
41
1
10
74.9354407651872
20
-8.68359702441677
30
0
41
1
10
74.9091724451233
20
-8.67386816748831
30
0
41
1
10
74.8788504727089
20
-8.66020303961261
30
0
0
SPLINE
5
130
100
AcDbEntity
8
1
62
256
6
ByLayer
370
18
48
1
60
0
100
AcDbSpline
70
4
71
3
72
8
73
4
40
0
40
0
40
0
40
0
40
1
40
1
40
1
40
1
41
1
10
74.878850472709
20
-8.66020303961261
30
0
41
1
10
74.8286327770097
20
-8.64948238298322
30
0
41
1
10
74.7805673163377
20
-8.63264966297473
30
0
41
1
10
74.7346015081304
20
-8.60985420712382
30
0
0
SPLINE
5
131
100
AcDbEntity
8
1
62
256
6
ByLayer
370
18
48
1
60
0
100
AcDbSpline
70
4
71
3
72
8
73
4
40
0
40
0
40
0
40
0
40
1
40
1
40
1
40
1
41
1
10
76.2478599885933
20
-7.20956822482432
30
0
41
1
10
76.2339661486922
20
-7.16034359509334
30
0
41
1
10
76.2140741262098
20
-7.11364055168619
30
0
41
1
10
76.1883317665213
20
-7.06939694163054
30
0
0
SPLINE
5
132
100
AcDbEntity
8
1
62
256
6
ByLayer
370
18
48
1
60
0
100
AcDbSpline
70
4
71
3
72
10
73
6
40
0
40
0
40
0
40
0
40
0.5
40
0.5
40
1
40
1
40
1
40
1
41
1
10
76.3880179926484
20
-7.25101818089979
30
0
41
1
10
76.370198899872
20
-7.24946379489023
30
0
41
1
10
76.350485133654
20
-7.24610577426765
30
0
41
1
10
76.3044666875958
20
-7.2329778233715
30
0
41
1
10
76.2781834313541
20
-7.22323462127795
30
0
41
1
10
76.2478599885933
20
-7.20956822482432
30
0
0
SPLINE
5
133
100
AcDbEntity
8
1
62
256
6
ByLayer
370
18
48
1
60
0
100
AcDbSpline
70
4
71
3
72
23
73
19
40
0
40
0
40
0
40
0
40
0.261198762927189
40
0.49981844829945
40
0.635030319409258
40
0.749865035710003
40
0.782744873902777
40
0.813300275515308
40
0.841547303341888
40
0.867506973213146
40
0.891207164742458
40
0.912685449030287
40
0.931993377716343
40
0.949203137299767
40
0.964418039673795
40
0.977789052683152
40
0.989539846108979
40
1
40
1
40
1
40
1
41
1
10
72.8279939512819
20
-2.04323796027361
30
0
41
1
10
72.8626677119914
20
-2.11196965852554
30
0
41
1
10
72.9290178932874
20
-2.24349160902898
30
0
41
1
10
73.005250158255
20
-2.41456186607186
30
0
41
1
10
73.0572242622439
20
-2.54896880200454
30
0
41
1
10
73.0829895815863
20
-2.62839348927449
30
0
41
1
10
73.0965273072192
20
-2.67920070403861
30
0
41
1
10
73.1027327500536
20
-2.70552348746892
30
0
41
1
10
73.107675746423
20
-2.73003590587402
30
0
41
1
10
73.1113728635274
20
-2.75272317617825
30
0
41
1
10
73.1138452630223
20
-2.77356997507013
30
0
41
1
10
73.1151146035386
20
-2.79256080535782
30
0
41
1
10
73.1152069431267
20
-2.80968393371043
30
0
41
1
10
73.1141398954802
20
-2.82492177457505
30
0
41
1
10
73.1119574630602
20
-2.83828588624476
30
0
41
1
10
73.1086105614651
20
-2.84971238443225
30
0
41
1
10
73.1043046435842
20
-2.85938296087534
30
0
41
1
10
73.100175068341
20
-2.8644817570881
30
0
41
1
10
73.0982302619384
20
-2.86688301410266
30
0
0
SPLINE
5
134
100
AcDbEntity
8
1
62
256
6
ByLayer
370
18
48
1
60
0
100
AcDbSpline
70
4
71
3
72
12
73
8
40
0
40
0
40
0
40
0
40
0.250363360295749
40
0.500090471990777
40
0.688566317221115
40
0.855262115349167
40
1
40
1
40
1
40
1
41
1
10
72.6612418128997
20
-1.69279121115534
30
0
41
1
10
72.6765973266154
20
-1.7213022028273
30
0
41
1
10
72.7072693310678
20
-1.77825173116608
30
0
41
1
10
72.7469375092681
20
-1.85800157062548
30
0
41
1
10
72.7799869968138
20
-1.92898913760285
30
0
41
1
10
72.8059523956488
20
-1.98832393723245
30
0
41
1
10
72.8210004243624
20
-2.02581438524143
30
0
41
1
10
72.8279939512819
20
-2.04323796027356
30
0
0
SPLINE
5
135
100
AcDbEntity
8
1
62
256
6
ByLayer
370
13
48
1
60
0
100
AcDbSpline
70
4
71
3
72
18
73
14
40
0
40
0
40
0
40
0
40
0.0923720659201872
40
0.0923720659201872
40
0.282731557801436
40
0.282731557801436
40
0.473091049682686
40
0.473091049682686
40
0.663450541563935
40
0.663450541563935
40
0.853810033445185
40
0.853810033445185
40
1
40
1
40
1
40
1
41
1
10
76.1883317665249
20
-7.06939694171163
30
0
41
1
10
76.1317205603623
20
-7.01299437172088
30
0
41
1
10
76.0681342410022
20
-6.94365094632258
30
0
41
1
10
75.8533287250484
20
-6.69287181387747
30
0
41
1
10
75.6807226895085
20
-6.47058676005278
30
0
41
1
10
75.2896074538117
20
-5.93179811183194
30
0
41
1
10
75.0711245566055
20
-5.61533230141762
30
0
41
1
10
74.6010278197323
20
-4.90645343491195
30
0
41
1
10
74.3494435029709
20
-4.51408644554897
30
0
41
1
10
73.8277427633162
20
-3.67596497931021
30
0
41
1
10
73.5576563177125
20
-3.23026040100427
30
0
41
1
10
73.0774905347078
20
-2.41751915306776
30
0
41
1
10
72.8680447100569
20
-2.05625338130477
30
0
41
1
10
72.6612418128993
20
-1.69279121115457
30
0
0
SPLINE
5
136
100
AcDbEntity
8
1
62
256
6
ByLayer
370
18
48
1
60
0
100
AcDbSpline
70
4
71
3
72
8
73
4
40
0
40
0
40
0
40
0
40
1
40
1
40
1
40
1
41
1
10
76.3894675809977
20
-7.25386962468284
30
0
41
1
10
76.3889851760752
20
-7.25291436678285
30
0
41
1
10
76.3885006035969
20
-7.25196120636954
30
0
41
1
10
76.388013885812
20
-7.2510101560195
30
0
0
SPLINE
5
137
100
AcDbEntity
8
1
62
256
6
ByLayer
370
18
48
1
60
0
100
AcDbSpline
70
4
71
3
72
20
73
16
40
0
40
0
40
0
40
0
40
0.023137020993243
40
0.0465817951166515
40
0.0711789297280556
40
0.0976499161241685
40
0.126562192985861
40
0.184352346023457
40
0.252538210020386
40
0.366939499063073
40
0.501656570249171
40
0.622097625995954
40
0.750551615074563
40
0.873700491185254
40
1
40
1
40
1
40
1
41
1
10
75.9718658759134
20
-7.53299153879672
30
0
41
1
10
75.9806237565567
20
-7.52380111491075
30
0
41
1
10
75.9982560092956
20
-7.50529802228635
30
0
41
1
10
76.0250566083127
20
-7.47833505804783
30
0
41
1
10
76.0514323441039
20
-7.45261642616725
30
0
41
1
10
76.0772743850736
20
-7.4283188101636
30
0
41
1
10
76.1099353197688
20
-7.39880809852835
30
0
41
1
10
76.1473384709208
20
-7.36716130279933
30
0
41
1
10
76.1935790655708
20
-7.33151262114163
30
0
41
1
10
76.2398210662012
20
-7.30073953809332
30
0
41
1
10
76.2803290154908
20
-7.27982091576791
30
0
41
1
10
76.3140470249981
20
-7.2667124340731
30
0
41
1
10
76.3417361563371
20
-7.25961605456172
30
0
41
1
10
76.3667256917923
20
-7.25557095183072
30
0
41
1
10
76.3818233879521
20
-7.25444148892132
30
0
41
1
10
76.3894675809975
20
-7.25386962468284
30
0
0
SPLINE
5
138
100
AcDbEntity
8
1
62
256
6
ByLayer
370
13
48
1
60
0
100
AcDbSpline
70
4
71
3
72
18
73
14
40
0
40
0
40
0
40
0
40
0.0046559888856343
40
0.0046559888856343
40
0.240993179458435
40
0.240993179458435
40
0.477330370031236
40
0.477330370031236
40
0.713667560604036
40
0.713667560604036
40
0.950004751176836
40
0.950004751176836
40
1
40
1
40
1
40
1
41
1
10
73.0982310948495
20
-2.866884548972
30
0
41
1
10
73.1034244552134
20
-2.87645475376692
30
0
41
1
10
73.1086189359043
20
-2.88602108989298
30
0
41
1
10
73.3775392276472
20
-3.38096735263858
30
0
41
1
10
73.643968271443
20
-3.85606555287103
30
0
41
1
10
74.1655487042819
20
-4.75884823741964
30
0
41
1
10
74.4206671109851
20
-5.18647865261107
30
0
41
1
10
74.9028538537767
20
-5.96937724795603
30
0
41
1
10
75.1298866069901
20
-6.32459244760534
30
0
41
1
10
75.540139130707
20
-6.94133285806831
30
0
41
1
10
75.7233237216212
20
-7.20281098441711
30
0
41
1
10
75.9104316570613
20
-7.45304166410207
30
0
41
1
10
75.9418138889572
20
-7.49427313104792
30
0
41
1
10
75.9718585018137
20
-7.53299852357799
30
0
0
SPLINE
5
139
100
AcDbEntity
8
1
62
256
6
ByLayer
370
18
48
1
60
0
100
AcDbSpline
70
4
71
3
72
24
73
20
40
0
40
0
40
0
40
0
40
0.126571291535033
40
0.249919738883378
40
0.378900494236907
40
0.499673313628844
40
0.634818510279423
40
0.749516358703115
40
0.817114691118051
40
0.874430293913473
40
0.890655627203223
40
0.90608022108579
40
0.920783032157471
40
0.934856791477617
40
0.948408732625871
40
0.961560373023836
40
0.974445970615157
40
0.987209457003108
40
1
40
1
40
1
40
1
41
1
10
75.021938187785
20
-8.70289324015448
30
0
41
1
10
75.0151286688572
20
-8.7025615956631
30
0
41
1
10
75.001683019597
20
-8.7019067512376
30
0
41
1
10
74.9835291210697
20
-8.69865495823186
30
0
41
1
10
74.9686082118012
20
-8.69215532199607
30
0
41
1
10
74.9587984283262
20
-8.67985309065321
30
0
41
1
10
74.9573811719701
20
-8.65928662632226
30
0
41
1
10
74.9687631293468
20
-8.62900232181539
30
0
41
1
10
74.9896783059877
20
-8.59355316771484
30
0
41
1
10
75.0100394121174
20
-8.56472265551051
30
0
41
1
10
75.0273657081634
20
-8.54228632010143
30
0
41
1
10
75.0375509899252
20
-8.52952206605744
30
0
41
1
10
75.0483983982996
20
-8.51631116001741
30
0
41
1
10
75.0598883133894
20
-8.50267403891658
30
0
41
1
10
75.0719965988012
20
-8.48863711076561
30
0
41
1
10
75.0846951721262
20
-8.47423081069107
30
0
41
1
10
75.097961322213
20
-8.45949083363021
30
0
41
1
10
75.1117391381617
20
-8.44445717781292
30
0
41
1
10
75.1212552985491
20
-8.43431940037152
30
0
41
1
10
75.1260184165986
20
-8.42924514471093
30
0
0
SPLINE
5
13A
100
AcDbEntity
8
1
62
256
6
ByLayer
370
18
48
1
60
0
100
AcDbSpline
70
4
71
3
72
8
73
4
40
0
40
0
40
0
40
0
40
1
40
1
40
1
40
1
41
1
10
75.0189760779164
20
-8.70162690650778
30
0
41
1
10
75.019961459881
20
-8.70205129922581
30
0
41
1
10
75.0209488342831
20
-8.70247341781621
30
0
41
1
10
75.0219381877851
20
-8.70289324015448
30
0
0
SPLINE
5
13B
100
AcDbEntity
8
1
62
256
6
ByLayer
370
18
48
1
60
0
100
AcDbSpline
70
4
71
3
72
20
73
16
40
0
40
0
40
0
40
0
40
0.117178371232354
40
0.117178371232354
40
0.293030328928087
40
0.293030328928087
40
0.46888228662382
40
0.46888228662382
40
0.644734244319553
40
0.644734244319553
40
0.820586202015286
40
0.820586202015286
40
0.996438159711019
40
0.996438159711019
40
1
40
1
40
1
40
1
41
1
10
68.7451456573847
20
-5.8422310390032
30
0
41
1
10
69.0441292079035
20
-5.99240713659563
30
0
41
1
10
69.3441847201926
20
-6.14183581408523
30
0
41
1
10
70.0891433168888
20
-6.5096320572662
30
0
41
1
10
70.5313122931231
20
-6.72503761088859
30
0
41
1
10
71.3843584558561
20
-7.13479692438261
30
0
41
1
10
71.7952003094718
20
-7.32913334535505
30
0
41
1
10
72.5653576904184
20
-7.68723227445099
30
0
41
1
10
72.9246383013578
20
-7.85097821541933
30
0
41
1
10
73.5738440122087
20
-8.13982282121515
30
0
41
1
10
73.8637376433851
20
-8.26490715922094
30
0
41
1
10
74.3597526681973
20
-8.47027278110585
30
0
41
1
10
74.565848252547
20
-8.55054300051154
30
0
41
1
10
74.7282126132619
20
-8.60761798236001
30
0
41
1
10
74.7314167054059
20
-8.60874108849816
30
0
41
1
10
74.7346015046486
20
-8.60985420559277
30
0
0
SPLINE
5
13C
100
AcDbEntity
8
1
62
256
6
ByLayer
370
18
48
1
60
0
100
AcDbSpline
70
4
71
3
72
11
73
7
40
0
40
0
40
0
40
0
40
0.241023383243691
40
0.500095694707017
40
0.75075012759322
40
1
40
1
40
1
40
1
41
1
10
69.0958323051069
20
-5.99783441943197
30
0
41
1
10
69.0669390285301
20
-5.98702361715445
30
0
41
1
10
69.0069888152868
20
-5.96459245050761
30
0
41
1
10
68.9188047641872
20
-5.92645477265864
30
0
41
1
10
68.8307315248494
20
-5.88551921416826
30
0
41
1
10
68.7736207926512
20
-5.8566333776109
30
0
41
1
10
68.7451456573848
20
-5.84223103900322
30
0
0
SPLINE
5
13D
100
AcDbEntity
8
1
62
256
6
ByLayer
370
18
48
1
60
0
100
AcDbSpline
70
4
71
3
72
20
73
16
40
0
40
0
40
0
40
0
40
0.0161668412238547
40
0.0356419709552808
40
0.0592839211172826
40
0.0875698338197508
40
0.120773179111738
40
0.159058620044159
40
0.202530050740415
40
0.25125567580771
40
0.365680697418842
40
0.500413567225154
40
0.656946878239492
40
0.823407243888092
40
1
40
1
40
1
40
1
41
1
10
69.9279048351744
20
-6.2260601213568
30
0
41
1
10
69.9242490322564
20
-6.22914946909674
30
0
41
1
10
69.9161893241403
20
-6.23596035075838
30
0
41
1
10
69.8994971315156
20
-6.24184641506116
30
0
41
1
10
69.8789334711468
20
-6.24581195189569
30
0
41
1
10
69.8539206560773
20
-6.24726621751566
30
0
41
1
10
69.824646542137
20
-6.24632651800556
30
0
41
1
10
69.7910726460442
20
-6.2428383356426
30
0
41
1
10
69.7532588543922
20
-6.2367488237627
30
0
41
1
10
69.6938889852153
20
-6.22434746220216
30
0
41
1
10
69.6094519565288
20
-6.20140447889449
30
0
41
1
10
69.4963720676577
20
-6.16391595935539
30
0
41
1
10
69.3706523204401
20
-6.11638581700049
30
0
41
1
10
69.2351041119542
20
-6.06023647989829
30
0
41
1
10
69.1431614445596
20
-6.01904069146079
30
0
41
1
10
69.0958323051069
20
-5.99783441943197
30
0
0
SPLINE
5
13E
100
AcDbEntity
8
1
62
256
6
ByLayer
370
13
48
1
60
0
100
AcDbSpline
70
4
71
3
72
16
73
12
40
0
40
0
40
0
40
0
40
0.15804648261738
40
0.15804648261738
40
0.376374079091771
40
0.376374079091771
40
0.59470167556616
40
0.59470167556616
40
0.81302927204055
40
0.81302927204055
40
1
40
1
40
1
40
1
41
1
10
75.1259906450113
20
-8.4292261105044
30
0
41
1
10
74.9653514925418
20
-8.37627996329192
30
0
41
1
10
74.7803071802946
20
-8.31001926518408
30
0
41
1
10
74.2874072082396
20
-8.12350506992968
30
0
41
1
10
73.9596618835992
20
-7.99231538656599
30
0
41
1
10
73.2375141343925
20
-7.6926713600526
30
0
41
1
10
72.8431484615678
20
-7.52423703058614
30
0
41
1
10
72.007735355953
20
-7.1604124016315
30
0
41
1
10
71.5667262980212
20
-6.96504277612439
30
0
41
1
10
70.7249138078705
20
-6.58777342183333
30
0
41
1
10
70.3274599186431
20
-6.40798356173758
30
0
41
1
10
69.927904912583
20
-6.2260601566021
30
0
0
SPLINE
5
13F
100
AcDbEntity
8
1
62
256
6
ByLayer
370
18
48
1
60
0
100
AcDbSpline
70
4
71
3
72
14
73
10
40
0
40
0
40
0
40
0
40
0.25
40
0.25
40
0.5
40
0.5
40
0.75
40
0.75
40
1
40
1
40
1
40
1
41
1
10
72.3352004352991
20
-0.437741816952638
30
0
41
1
10
72.3935244857802
20
-0.545650681830637
30
0
41
1
10
72.4520854453295
20
-0.654032588447819
30
0
41
1
10
72.5695813561037
20
-0.870825343815255
30
0
41
1
10
72.6286405979519
20
-0.979470478521705
30
0
41
1
10
72.7482049947524
20
-1.19791621430977
30
0
41
1
10
72.8087809161531
20
-1.30785211032989
30
0
41
1
10
72.9314059705488
20
-1.52777912682842
30
0
41
1
10
72.9935099947361
20
-1.63792317925538
30
0
41
1
10
73.0571130425908
20
-1.74840916601553
30
0
0
SPLINE
5
140
100
AcDbEntity
8
1
62
256
6
ByLayer
370
18
48
1
60
0
100
AcDbSpline
70
4
71
3
72
14
73
10
40
0
40
0
40
0
40
0
40
0.25
40
0.25
40
0.5
40
0.5
40
0.75
40
0.75
40
1
40
1
40
1
40
1
41
1
10
65.7935796837776
20
-1.00296604979548
30
0
41
1
10
65.8185355395668
20
-1.03002209417966
30
0
41
1
10
65.838355791971
20
-1.06111876949535
30
0
41
1
10
65.8659118300522
20
-1.13002254780966
30
0
41
1
10
65.8731634307641
20
-1.16693138881678
30
0
41
1
10
65.8731708158141
20
-1.24177809152448
30
0
41
1
10
65.8657940790304
20
-1.27935595463191
30
0
41
1
10
65.8374689438467
20
-1.34874521576109
30
0
41
1
10
65.8164819768647
20
-1.38077291597301
30
0
41
1
10
65.7902205842986
20
-1.40786642775055
30
0
0
SPLINE
5
141
100
AcDbEntity
8
1
62
256
6
ByLayer
370
18
48
1
60
0
100
AcDbSpline
70
4
71
3
72
14
73
10
40
0
40
0
40
0
40
0
40
0.25
40
0.25
40
0.5
40
0.5
40
0.75
40
0.75
40
1
40
1
40
1
40
1
41
1
10
68.1175733053939
20
1.05817859558672
30
0
41
1
10
68.0927421959661
20
1.03113558834303
30
0
41
1
10
68.0627901230608
20
1.00902668543728
30
0
41
1
10
67.995508919343
20
0.97715018305874
30
0
41
1
10
67.9584673481052
20
0.967687582574939
30
0
41
1
10
67.8837348571943
20
0.962961250584073
30
0
41
1
10
67.8456155387889
20
0.967708176261311
30
0
41
1
10
67.7746626982682
20
0.989774173771821
30
0
41
1
10
67.7411651091456
20
1.00719400761122
30
0
41
1
10
67.7118376909185
20
1.02960536454526
30
0
0
SPLINE
5
142
100
AcDbEntity
8
1
62
256
6
ByLayer
370
18
48
1
60
0
100
AcDbSpline
70
4
71
3
72
16
73
12
40
0
40
0
40
0
40
0
40
0.250000000000005
40
0.250000000000005
40
0.500000000000009
40
0.500000000000009
40
0.625000000000012
40
0.625000000000012
40
0.750000000000015
40
0.750000000000015
40
1
40
1
40
1
40
1
41
1
10
72.6311117982961
20
-3.36184060030854
30
0
41
1
10
72.5129316359932
20
-3.61337567671191
30
0
41
1
10
72.3741657839958
20
-3.85047698767835
30
0
41
1
10
72.0623405067346
20
-4.30099674189771
30
0
41
1
10
71.8891843324259
20
-4.51434285585682
30
0
41
1
10
71.6039403367494
20
-4.8168325612109
30
0
41
1
10
71.5046950174364
20
-4.91450453817578
30
0
41
1
10
71.3005532848633
20
-5.10087779875306
30
0
41
1
10
71.1953078224936
20
-5.18996187677507
30
0
41
1
10
70.869835123522
20
-5.44460161318474
30
0
41
1
10
70.6400639151992
20
-5.59780453187045
30
0
41
1
10
70.3950754728607
20
-5.73112747391426
30
0
0
SPLINE
5
143
100
AcDbEntity
8
1
62
256
6
ByLayer
370
18
48
1
60
0
100
AcDbSpline
70
4
71
3
72
8
73
4
40
0
40
0
40
0
40
0
40
1
40
1
40
1
40
1
41
1
10
67.7130117405398
20
1.03107398089517
30
0
41
1
10
67.7120293732684
20
1.03105683361065
30
0
41
1
10
67.7116311833212
20
1.03056025171116
30
0
41
1
10
67.7118376909144
20
1.0296053645485
30
0
0
SPLINE
5
144
100
AcDbEntity
8
1
62
256
6
ByLayer
370
18
48
1
60
0
100
AcDbSpline
70
4
71
3
72
10
73
6
40
0
40
0
40
0
40
0
40
0.5
40
0.5
40
1
40
1
40
1
40
1
41
1
10
68.248104694824
20
1.20057479863309
30
0
41
1
10
68.2493914916093
20
1.20143753489415
30
0
41
1
10
68.2504901598411
20
1.20209552840538
30
0
41
1
10
68.2522958545497
20
1.20298528661616
30
0
41
1
10
68.2530021634464
20
1.20321433453722
30
0
41
1
10
68.2534930145443
20
1.20322290237502
30
0
0
SPLINE
5
146
100
AcDbEntity
8
SK4
62
256
6
ByLayer
370
13
48
0.05
60
0
100
AcDbSpline
70
4
71
1
72
5
73
3
40
0
40
0
40
0.991277802006106
40
1
40
1
41
1
10
29
20
1.11E-14
30
0
41
1
10
-84.6500000000001
20
-3.1E-15
30
0
41
1
10
-85.6500000000001
20
-3.1E-15
30
0
0
SPLINE
5
148
100
AcDbEntity
8
4
62
256
6
ByLayer
370
13
48
0.05
60
0
100
AcDbSpline
70
4
71
1
72
5
73
3
40
0
40
0
40
0.267539970581169
40
1
40
1
41
1
10
46.3250000000001
20
1.42E-14
30
0
41
1
10
55.2739241951394
20
1.42E-14
30
0
41
1
10
79.7739241951394
20
1.42E-14
30
0
0
LINE
5
71
100
AcDbEntity
8
SK1
62
256
6
ByLayer
370
13
48
1
60
0
100
AcDbLine
10
-171.3
20
-8
30
0
11
-170.79125
21
-8.50875
31
0
39
0
210
0
220
0
230
1
0
LINE
5
73
100
AcDbEntity
8
1
62
256
6
ByLayer
370
13
48
1
60
0
100
AcDbLine
10
66.7
20
9.675
30
0
11
50.325
21
9.675
31
0
39
0
210
0
220
0
230
1
0
LINE
5
75
100
AcDbEntity
8
SK1
62
256
6
ByLayer
370
13
48
1
60
0
100
AcDbLine
10
-169.3
20
10
30
0
11
-171.3
21
8
31
0
39
0
210
0
220
0
230
1
0
LINE
5
76
100
AcDbEntity
8
1
62
256
6
ByLayer
370
13
48
1
60
0
100
AcDbLine
10
50
20
10
30
0
11
0
21
10
31
0
39
0
210
0
220
0
230
1
0
LINE
5
77
100
AcDbEntity
8
1
62
256
6
ByLayer
370
13
48
1
60
0
100
AcDbLine
10
66.717321
20
9.685
30
0
11
66.7
21
9.675
31
0
39
0
210
0
220
0
230
1
0
LINE
5
78
100
AcDbEntity
8
1
62
256
6
ByLayer
370
13
48
1
60
0
100
AcDbLine
10
50.325
20
9.675
30
0
11
50
21
10
31
0
39
0
210
0
220
0
230
1
0
LINE
5
79
100
AcDbEntity
8
1
62
256
6
ByLayer
370
13
48
1
60
0
100
AcDbLine
10
67.507312
20
9.685
30
0
11
66.717321
21
9.685
31
0
39
0
210
0
220
0
230
1
0
LINE
5
7A
100
AcDbEntity
8
1
62
256
6
ByLayer
370
13
48
1
60
0
100
AcDbLine
10
72.6
20
-12
30
0
11
77.812943
21
-12
31
0
39
0
210
0
220
0
230
1
0
LINE
5
7B
100
AcDbEntity
8
1
62
256
6
ByLayer
370
13
48
1
60
0
100
AcDbLine
10
69.309586
20
-11.118336
30
0
11
72.6
21
-12
31
0
39
0
210
0
220
0
230
1
0
LINE
5
7C
100
AcDbEntity
8
1
62
256
6
ByLayer
370
18
48
1
60
0
100
AcDbLine
10
50
20
-4.358899
30
0
11
0
21
-4.358899
31
0
39
0
210
0
220
0
230
1
0
LINE
5
7D
100
AcDbEntity
8
1
62
256
6
ByLayer
370
13
48
1
60
0
100
AcDbLine
10
69.05721
20
-5.386291
30
0
11
69.069042
21
-5.386084
31
0
39
0
210
0
220
0
230
1
0
LINE
5
7E
100
AcDbEntity
8
1
62
256
6
ByLayer
370
13
48
1
60
0
100
AcDbLine
10
68.955602
20
1.112926
30
0
11
68.943769
21
1.112719
31
0
39
0
210
0
220
0
230
1
0
LINE
5
7F
100
AcDbEntity
8
1
62
256
6
ByLayer
370
13
48
1
60
0
100
AcDbLine
10
69.675447
20
1.300518
30
0
11
68.949085
21
1.287839
31
0
39
0
210
0
220
0
230
1
0
LINE
5
80
100
AcDbEntity
8
1
62
256
6
ByLayer
370
13
48
1
60
0
100
AcDbLine
10
66.897064
20
1.960675
30
0
11
66.47465
21
1.953302
31
0
39
0
210
0
220
0
230
1
0
LINE
5
81
100
AcDbEntity
8
1
62
256
6
ByLayer
370
18
48
1
60
0
100
AcDbLine
10
72.6
20
-12
30
0
11
72.6
21
-11.946148
31
0
39
0
210
0
220
0
230
1
0
LINE
5
82
100
AcDbEntity
8
1
62
256
6
ByLayer
370
18
48
1
60
0
100
AcDbLine
10
71.203691
20
-8.849644
30
0
11
71.355234
21
-8.846999
31
0
39
0
210
0
220
0
230
1
0
LINE
5
83
100
AcDbEntity
8
1
62
256
6
ByLayer
370
18
48
1
60
0
100
AcDbLine
10
77.46219
20
-11.984107
30
0
11
73.439532
21
-9.749453
31
0
39
0
210
0
220
0
230
1
0
LINE
5
84
100
AcDbEntity
8
1
62
256
6
ByLayer
370
18
48
1
60
0
100
AcDbLine
10
76.966292
20
-3.600237
30
0
11
76.815659
21
4.281837
31
0
39
0
210
0
220
0
230
1
0
LINE
5
85
100
AcDbEntity
8
1
62
256
6
ByLayer
370
18
48
1
60
0
100
AcDbLine
10
76.842845
20
4.266056
30
0
11
76.991525
21
-3.599796
31
0
39
0
210
0
220
0
230
1
0
LINE
5
86
100
AcDbEntity
8
1
62
256
6
ByLayer
370
18
48
1
60
0
100
AcDbLine
10
79.47475
20
-2.427624
30
0
11
78.918217
21
-2.76383
31
0
39
0
210
0
220
0
230
1
0
LINE
5
87
100
AcDbEntity
8
1
62
256
6
ByLayer
370
18
48
1
60
0
100
AcDbLine
10
50.325
20
-8.50875
30
0
11
61.38252
21
-8.50875
31
0
39
0
210
0
220
0
230
1
0
LINE
5
88
100
AcDbEntity
8
1
62
256
6
ByLayer
370
18
48
1
60
0
100
AcDbLine
10
66.717321
20
9.685
30
0
11
66.717321
21
9.386948
31
0
39
0
210
0
220
0
230
1
0
LINE
5
89
100
AcDbEntity
8
1
62
256
6
ByLayer
370
18
48
1
60
0
100
AcDbLine
10
73.439532
20
-9.749453
30
0
11
73.529389
21
-9.553598
31
0
39
0
210
0
220
0
230
1
0
LINE
5
8A
100
AcDbEntity
8
1
62
256
6
ByLayer
370
18
48
1
60
0
100
AcDbLine
10
77.105173
20
-3.541505
30
0
11
76.991525
21
-3.599796
31
0
39
0
210
0
220
0
230
1
0
LINE
5
8B
100
AcDbEntity
8
1
62
256
6
ByLayer
370
13
48
1
60
0
100
AcDbLine
10
75.67
20
4.946851
30
0
11
75.67
21
-2.574731
31
0
39
0
210
0
220
0
230
1
0
LINE
5
8C
100
AcDbEntity
8
1
62
256
6
ByLayer
370
18
48
1
60
0
100
AcDbLine
10
76.882352
20
-3.676113
30
0
11
77.105173
21
-3.541505
31
0
39
0
210
0
220
0
230
1
0
LINE
5
8D
100
AcDbEntity
8
1
62
256
6
ByLayer
370
18
48
1
60
0
100
AcDbLine
10
76.842845
20
4.266056
30
0
11
76.815659
21
4.281837
31
0
39
0
210
0
220
0
230
1
0
LINE
5
8E
100
AcDbEntity
8
1
62
256
6
ByLayer
370
18
48
1
60
0
100
AcDbLine
10
67.603258
20
1.783493
30
0
11
68.232272
21
1.183289
31
0
39
0
210
0
220
0
230
1
0
LINE
5
8F
100
AcDbEntity
8
1
62
256
6
ByLayer
370
18
48
1
60
0
100
AcDbLine
10
70.284273
20
-8.653008
30
0
11
70.45082
21
-8.650101
31
0
39
0
210
0
220
0
230
1
0
LINE
5
90
100
AcDbEntity
8
1
62
256
6
ByLayer
370
18
48
1
60
0
100
AcDbLine
10
76.966292
20
-3.600237
30
0
11
76.838051
21
-3.676886
31
0
39
0
210
0
220
0
230
1
0
LINE
5
91
100
AcDbEntity
8
SK1
62
256
6
ByLayer
370
18
48
1
60
0
100
AcDbLine
10
-169.3
20
10
30
0
11
-169.3
21
4.358899
31
0
39
0
210
0
220
0
230
1
0
LINE
5
92
100
AcDbEntity
8
1
62
256
6
ByLayer
370
13
48
1
60
0
100
AcDbLine
10
73.02563
20
-9.999494
30
0
11
73.045282
21
-9.599457
31
0
39
0
210
0
220
0
230
1
0
LINE
5
93
100
AcDbEntity
8
1
62
256
6
ByLayer
370
18
48
1
60
0
100
AcDbLine
10
67.883661
20
9.466543
30
0
11
67.507312
21
9.685
31
0
39
0
210
0
220
0
230
1
0
LINE
5
94
100
AcDbEntity
8
1
62
256
6
ByLayer
370
18
48
1
60
0
100
AcDbLine
10
50.325
20
-3.55044
30
0
11
55.266899
21
-3.55044
31
0
39
0
210
0
220
0
230
1
0
LINE
5
95
100
AcDbEntity
8
1
62
256
6
ByLayer
370
18
48
1
60
0
100
AcDbLine
10
76.815659
20
4.281837
30
0
11
75.67
21
4.946851
31
0
39
0
210
0
220
0
230
1
0
LINE
5
96
100
AcDbEntity
8
1
62
256
6
ByLayer
370
18
48
1
60
0
100
AcDbLine
10
70.14162
20
-8.271886
30
0
11
69.965355
21
-8.274963
31
0
39
0
210
0
220
0
230
1
0
LINE
5
97
100
AcDbEntity
8
SK1
62
256
6
ByLayer
370
18
48
1
60
0
100
AcDbLine
10
-169.3
20
-8.50875
30
0
11
-169.3
21
-4.358899
31
0
39
0
210
0
220
0
230
1
0
LINE
5
98
100
AcDbEntity
8
1
62
256
6
ByLayer
370
18
48
1
60
0
100
AcDbLine
10
73.317087
20
-9.435258
30
0
11
73.045282
21
-9.599457
31
0
39
0
210
0
220
0
230
1
0
LINE
5
99
100
AcDbEntity
8
1
62
256
6
ByLayer
370
18
48
1
60
0
100
AcDbLine
10
77.734463
20
3.748504
30
0
11
77.86823
21
-3.328344
31
0
39
0
210
0
220
0
230
1
0
LINE
5
9A
100
AcDbEntity
8
1
62
256
6
ByLayer
370
18
48
1
60
0
100
AcDbLine
10
50
20
4.358899
30
0
11
50
21
10
31
0
39
0
210
0
220
0
230
1
0
LINE
5
9B
100
AcDbEntity
8
1
62
256
6
ByLayer
370
18
48
1
60
0
100
AcDbLine
10
69.309586
20
-11.118336
30
0
11
69.129897
21
-10.938647
31
0
39
0
210
0
220
0
230
1
0
LINE
5
9C
100
AcDbEntity
8
1
62
256
6
ByLayer
370
18
48
1
60
0
100
AcDbLine
10
74.045773
20
-11.997219
30
0
11
72.207209
21
-10.242866
31
0
39
0
210
0
220
0
230
1
0
LINE
5
9D
100
AcDbEntity
8
1
62
256
6
ByLayer
370
18
48
1
60
0
100
AcDbLine
10
50
20
-8.50875
30
0
11
0
21
-8.50875
31
0
39
0
210
0
220
0
230
1
0
LINE
5
9E
100
AcDbEntity
8
1
62
256
6
ByLayer
370
18
48
1
60
0
100
AcDbLine
10
70.14162
20
-8.271886
30
0
11
65.300781
21
-3.652769
31
0
39
0
210
0
220
0
230
1
0
LINE
5
9F
100
AcDbEntity
8
1
62
256
6
ByLayer
370
18
48
1
60
0
100
AcDbLine
10
76.991525
20
-3.599796
30
0
11
76.966292
21
-3.600237
31
0
39
0
210
0
220
0
230
1
0
LINE
5
A0
100
AcDbEntity
8
1
62
256
6
ByLayer
370
18
48
1
60
0
100
AcDbLine
10
74.867515
20
-4.89329
30
0
11
76.882352
21
-3.676113
31
0
39
0
210
0
220
0
230
1
0
LINE
5
A1
100
AcDbEntity
8
1
62
256
6
ByLayer
370
18
48
1
60
0
100
AcDbLine
10
79.47475
20
-2.427624
30
0
11
79.383149
21
2.791501
31
0
39
0
210
0
220
0
230
1
0
LINE
5
A2
100
AcDbEntity
8
1
62
256
6
ByLayer
370
18
48
1
60
0
100
AcDbLine
10
79.383149
20
2.791501
30
0
11
77.734463
21
3.748504
31
0
39
0
210
0
220
0
230
1
0
LINE
5
A3
100
AcDbEntity
8
SK1
62
256
6
ByLayer
370
18
48
1
60
0
100
AcDbLine
10
-169.3
20
4.358899
30
0
11
0
21
4.358899
31
0
39
0
210
0
220
0
230
1
0
LINE
5
A4
100
AcDbEntity
8
1
62
256
6
ByLayer
370
18
48
1
60
0
100
AcDbLine
10
50.325
20
3.55044
30
0
11
50.325
21
9.675
31
0
39
0
210
0
220
0
230
1
0
LINE
5
A5
100
AcDbEntity
8
1
62
256
6
ByLayer
370
18
48
1
60
0
100
AcDbLine
10
50
20
-4.358899
30
0
11
50
21
-8.50875
31
0
39
0
210
0
220
0
230
1
0
LINE
5
A6
100
AcDbEntity
8
1
62
256
6
ByLayer
370
18
48
1
60
0
100
AcDbLine
10
50.325
20
-3.55044
30
0
11
50.325
21
-8.50875
31
0
39
0
210
0
220
0
230
1
0
LINE
5
A7
100
AcDbEntity
8
1
62
256
6
ByLayer
370
18
48
1
60
0
100
AcDbLine
10
76.838051
20
-3.676886
30
0
11
75.67
21
-2.574731
31
0
39
0
210
0
220
0
230
1
0
LINE
5
A8
100
AcDbEntity
8
1
62
256
6
ByLayer
370
18
48
1
60
0
100
AcDbLine
10
72.207209
20
-10.242866
30
0
11
72.088734
21
-10.244934
31
0
39
0
210
0
220
0
230
1
0
LINE
5
A9
100
AcDbEntity
8
1
62
256
6
ByLayer
370
18
48
1
60
0
100
AcDbLine
10
55.280949
20
3.55044
30
0
11
50.325
21
3.55044
31
0
39
0
210
0
220
0
230
1
0
LINE
5
AA
100
AcDbEntity
8
1
62
256
6
ByLayer
370
18
48
1
60
0
100
AcDbLine
10
76.882352
20
-3.676113
30
0
11
76.838051
21
-3.676886
31
0
39
0
210
0
220
0
230
1
0
LINE
5
AB
100
AcDbEntity
8
1
62
256
6
ByLayer
370
18
48
1
60
0
100
AcDbLine
10
73.439532
20
-9.749453
30
0
11
73.02563
21
-9.999494
31
0
39
0
210
0
220
0
230
1
0
LINE
5
AC
100
AcDbEntity
8
1
62
256
6
ByLayer
370
13
48
1
60
0
100
AcDbLine
10
73.135657
20
-9.467956
30
0
11
73.250875
21
-9.398352
31
0
39
0
210
0
220
0
230
1
0
LINE
5
AD
100
AcDbEntity
8
1
62
256
6
ByLayer
370
18
48
1
60
0
100
AcDbLine
10
79.47475
20
-2.427624
30
0
11
79.373694
21
-2.830925
31
0
39
0
210
0
220
0
230
1
0
LINE
5
AE
100
AcDbEntity
8
1
62
256
6
ByLayer
370
18
48
1
60
0
100
AcDbLine
10
66.7
20
9.375256
30
0
11
66.7
21
9.675
31
0
39
0
210
0
220
0
230
1
0
LINE
5
AF
100
AcDbEntity
8
1
62
256
6
ByLayer
370
18
48
1
60
0
100
AcDbLine
10
77.701673
20
-3.429005
30
0
11
77.105173
21
-3.541505
31
0
39
0
210
0
220
0
230
1
0
LINE
5
B0
100
AcDbEntity
8
SK1
62
256
6
ByLayer
370
18
48
1
60
0
100
AcDbLine
10
-171.3
20
8
30
0
11
-171.3
21
-8
31
0
39
0
210
0
220
0
230
1
0
LINE
5
B1
100
AcDbEntity
8
1
62
256
6
ByLayer
370
18
48
1
60
0
100
AcDbLine
10
77.734463
20
3.748504
30
0
11
76.842845
21
4.266056
31
0
39
0
210
0
220
0
230
1
0
LINE
5
B2
100
AcDbEntity
8
1
62
256
6
ByLayer
370
13
48
1
60
0
100
AcDbLine
10
64.919191
20
-3.659429
30
0
11
65.300781
21
-3.652769
31
0
39
0
210
0
220
0
230
1
0
LINE
5
B3
100
AcDbEntity
8
1
62
256
6
ByLayer
370
18
48
1
60
0
100
AcDbLine
10
67.630194
20
-2.204667
30
0
11
67.901926
21
-2.199924
31
0
39
0
210
0
220
0
230
1
0
LINE
5
B4
100
AcDbEntity
8
1
62
256
6
ByLayer
370
18
48
1
60
0
100
AcDbLine
10
68.0742
20
-2.784539
30
0
11
67.802468
21
-2.789282
31
0
39
0
210
0
220
0
230
1
0
LINE
5
B5
100
AcDbEntity
8
1
62
256
6
ByLayer
370
18
48
1
60
0
100
AcDbLine
10
68.333271
20
-3.295774
30
0
11
68.605004
21
-3.291031
31
0
39
0
210
0
220
0
230
1
0
LINE
5
B6
100
AcDbEntity
8
1
62
256
6
ByLayer
370
18
48
1
60
0
100
AcDbLine
10
69.194632
20
-3.433421
30
0
11
68.9229
21
-3.438164
31
0
39
0
210
0
220
0
230
1
0
LINE
5
B7
100
AcDbEntity
8
1
62
256
6
ByLayer
370
18
48
1
60
0
100
AcDbLine
10
68.218291
20
-1.04706
30
0
11
68.490024
21
-1.042316
31
0
39
0
210
0
220
0
230
1
0
LINE
5
B8
100
AcDbEntity
8
1
62
256
6
ByLayer
370
18
48
1
60
0
100
AcDbLine
10
68.072669
20
-1.484542
30
0
11
67.800937
21
-1.489285
31
0
39
0
210
0
220
0
230
1
0
LINE
5
B9
100
AcDbEntity
8
1
62
256
6
ByLayer
370
18
48
1
60
0
100
AcDbLine
10
68.19422
20
-3.19183
30
0
11
67.905844
21
-3.196864
31
0
39
0
210
0
220
0
230
1
0
LINE
5
BA
100
AcDbEntity
8
1
62
256
6
ByLayer
370
18
48
1
60
0
100
AcDbLine
10
67.781906
20
-1.792633
30
0
11
67.49353
21
-1.797666
31
0
39
0
210
0
220
0
230
1
0
LINE
5
BB
100
AcDbEntity
8
1
62
256
6
ByLayer
370
18
48
1
60
0
100
AcDbLine
10
68.725438
20
-0.792874
30
0
11
68.490024
21
-1.042316
31
0
39
0
210
0
220
0
230
1
0
LINE
5
BC
100
AcDbEntity
8
1
62
256
6
ByLayer
370
18
48
1
60
0
100
AcDbLine
10
68.072669
20
-1.484542
30
0
11
67.781906
21
-1.792633
31
0
39
0
210
0
220
0
230
1
0
LINE
5
BD
100
AcDbEntity
8
1
62
256
6
ByLayer
370
18
48
1
60
0
100
AcDbLine
10
68.19422
20
-3.19183
30
0
11
68.605004
21
-3.291031
31
0
39
0
210
0
220
0
230
1
0
LINE
5
BE
100
AcDbEntity
8
1
62
256
6
ByLayer
370
18
48
1
60
0
100
AcDbLine
10
69.194632
20
-3.433421
30
0
11
69.377566
21
-3.477597
31
0
39
0
210
0
220
0
230
1
0
LINE
5
BF
100
AcDbEntity
8
1
62
256
6
ByLayer
370
18
48
1
60
0
100
AcDbLine
10
67.781906
20
-1.792633
30
0
11
67.901926
21
-2.199924
31
0
39
0
210
0
220
0
230
1
0
LINE
5
C0
100
AcDbEntity
8
1
62
256
6
ByLayer
370
18
48
1
60
0
100
AcDbLine
10
68.0742
20
-2.784539
30
0
11
68.19422
21
-3.19183
31
0
39
0
210
0
220
0
230
1
0
LINE
5
C1
100
AcDbEntity
8
1
62
256
6
ByLayer
370
18
48
1
60
0
100
AcDbLine
10
74.975237
20
-5.076067
30
0
11
78.629996
21
-2.868201
31
0
39
0
210
0
220
0
230
1
0
LINE
5
C2
100
AcDbEntity
8
1
62
256
6
ByLayer
370
18
48
1
60
0
100
AcDbLine
10
78.797953
20
-12.490443
30
0
11
77.915028
21
-11.998277
31
0
39
0
210
0
220
0
230
1
0
LINE
5
C3
100
AcDbEntity
8
1
62
256
6
ByLayer
370
18
48
1
60
0
100
AcDbLine
10
79.825915
20
-3.534839
30
0
11
79.969878
21
-11.782474
31
0
39
0
210
0
220
0
230
1
0
LINE
5
C4
100
AcDbEntity
8
1
62
256
6
ByLayer
370
18
48
1
60
0
100
AcDbLine
10
76.388004
20
-7.251005
30
0
11
76.198395
21
-7.073756
31
0
39
0
210
0
220
0
230
1
0
LINE
5
C5
100
AcDbEntity
8
1
62
256
6
ByLayer
370
18
48
1
60
0
100
AcDbLine
10
76.188334
20
-7.069401
30
0
11
75.362372
21
-5.649814
31
0
39
0
210
0
220
0
230
1
0
LINE
5
C6
100
AcDbEntity
8
1
62
256
6
ByLayer
370
18
48
1
60
0
100
AcDbLine
10
69.927955
20
-6.226084
30
0
11
70.395075
21
-5.731127
31
0
39
0
210
0
220
0
230
1
0
LINE
5
C7
100
AcDbEntity
8
1
62
256
6
ByLayer
370
18
48
1
60
0
100
AcDbLine
10
72.631112
20
-3.361841
30
0
11
73.098231
21
-2.866885
31
0
39
0
210
0
220
0
230
1
0
LINE
5
C8
100
AcDbEntity
8
1
62
256
6
ByLayer
370
18
48
1
60
0
100
AcDbLine
10
75.12601
20
-8.429245
30
0
11
75.971857
21
-7.532992
31
0
39
0
210
0
220
0
230
1
0
LINE
5
C9
100
AcDbEntity
8
1
62
256
6
ByLayer
370
18
48
1
60
0
100
AcDbLine
10
75.021938
20
-8.702893
30
0
11
76.389468
21
-7.25387
31
0
39
0
210
0
220
0
230
1
0
LINE
5
CA
100
AcDbEntity
8
1
62
256
6
ByLayer
370
18
48
1
60
0
100
AcDbLine
10
67.909664
20
1.034511
30
0
11
67.398195
21
1.567912
31
0
39
0
210
0
220
0
230
1
0
LINE
5
CB
100
AcDbEntity
8
1
62
256
6
ByLayer
370
18
48
1
60
0
100
AcDbLine
10
65.481551
20
-0.462949
30
0
11
65.851543
21
-0.848806
31
0
39
0
210
0
220
0
230
1
0
LINE
5
CC
100
AcDbEntity
8
1
62
256
6
ByLayer
370
18
48
1
60
0
100
AcDbLine
10
74.861328
20
-4.882543
30
0
11
73.057113
21
-1.748409
31
0
39
0
210
0
220
0
230
1
0
LINE
5
CD
100
AcDbEntity
8
1
62
256
6
ByLayer
370
18
48
1
60
0
100
AcDbLine
10
67.479882
20
-5.198474
30
0
11
67.482895
21
-5.198422
31
0
39
0
210
0
220
0
230
1
0
LINE
5
CE
100
AcDbEntity
8
1
62
256
6
ByLayer
370
18
48
1
60
0
100
AcDbLine
10
71.966798
20
-0.444172
30
0
11
71.969812
21
-0.44412
31
0
39
0
210
0
220
0
230
1
0
LINE
5
CF
100
AcDbEntity
8
1
62
256
6
ByLayer
370
13
48
1
60
0
100
AcDbLine
10
67.398195
20
1.567912
30
0
11
67.821445
21
1.575299
31
0
39
0
210
0
220
0
230
1
0
LINE
5
D0
100
AcDbEntity
8
1
62
256
6
ByLayer
370
18
48
1
60
0
100
AcDbLine
10
68.091344
20
1.037678
30
0
11
67.713012
21
1.031074
31
0
39
0
210
0
220
0
230
1
0
LINE
5
D1
100
AcDbEntity
8
1
62
256
6
ByLayer
370
13
48
1
60
0
100
AcDbLine
10
72.3352
20
-0.437742
30
0
11
71.969812
21
-0.44412
31
0
39
0
210
0
220
0
230
1
0
LINE
5
D2
100
AcDbEntity
8
80
62
256
6
ByLayer
370
18
48
1
60
0
100
AcDbLine
10
0
20
0
30
0
11
-5
21
0
31
0
39
0
210
0
220
0
230
1
0
LINE
5
D3
100
AcDbEntity
8
81
62
256
6
ByLayer
370
18
48
1
60
0
100
AcDbLine
10
79.97
20
-12.59
30
0
11
84.97
21
-12.59
31
0
39
0
210
0
220
0
230
1
0
LINE
5
D4
100
AcDbEntity
8
SK1
62
256
6
ByLayer
370
13
48
1
60
0
100
AcDbLine
10
0
20
10
30
0
11
-169.3
21
10
31
0
39
0
210
0
220
0
230
1
0
LINE
5
D5
100
AcDbEntity
8
1
62
256
6
ByLayer
370
18
48
1
60
0
100
AcDbLine
10
0
20
4.358899
30
0
11
50
21
4.358899
31
0
39
0
210
0
220
0
230
1
0
LINE
5
D6
100
AcDbEntity
8
SK1
62
256
6
ByLayer
370
18
48
1
60
0
100
AcDbLine
10
0
20
-4.358899
30
0
11
-169.3
21
-4.358899
31
0
39
0
210
0
220
0
230
1
0
LINE
5
D7
100
AcDbEntity
8
SK1
62
256
6
ByLayer
370
18
48
1
60
0
100
AcDbLine
10
0
20
-8.50875
30
0
11
-169.3
21
-8.50875
31
0
39
0
210
0
220
0
230
1
0
MTEXT
5
149
100
AcDbEntity
8
SK6
62
256
6
ByLayer
370
13
48
1
60
0
100
AcDbMText
10
-64.891375
20
-53.74775
30
0
210
0
220
0
230
1
1
\W0.7690;S20S-CTFPL11
40
5
41
0
44
1.084337
50
0
71
7
72
5
7
iso_b_vert
0
DIMENSION
5
158
100
AcDbEntity
8
SK2
62
256
6
ByLayer
370
13
48
1
60
0
100
AcDbDimension
2
DimnDraft3D1
10
-185.892808
20
-8.50875
30
0
11
-186.517808
21
0.667336
31
0
70
33
71
5
72
1
41
1
210
0
220
0
230
1
3
Standard
100
AcDbAlignedDimension
13
-170.8875
23
10
33
0
14
-170.8875
24
-8.50875
34
0
1001
ACAD
1000
DSTYLE
1002
{
1070
   279
1070
     0
1070
    74
1070
     0
1070
   173
1070
     1
1070
   340
1005
14A
1070
   271
1070
     1
1070
   272
1070
     2
1070
    77
1070
     1
1070
    73
1070
     0
1070
   171
1070
     3
1070
   274
1070
     4
1070
   177
1070
     7
1070
   176
1070
     7
1070
   178
1070
     7
1070
    78
1070
     8
1070
    48
1040
-0.005
1070
    41
1041
3.5
1070
   147
1041
1.75
1070
    42
1041
1.5875
1070
    44
1041
2.0
1070
   140
1041
3.5
1070
   343
1005
0
1070
   344
1005
0
1002
}
0
DIMENSION
5
162
100
AcDbEntity
8
SK2
62
256
6
ByLayer
370
13
48
1
60
0
100
AcDbDimension
2
DimnDraft3D2
10
79.97
20
-30.765176
30
0
11
-49.063684
21
-30.765176
31
0
70
32
71
5
72
1
41
1
210
0
220
0
230
1
3
Standard
100
AcDbAlignedDimension
13
-171.3
23
-9.5875
33
0
14
79.97
24
-14.1775
34
0
50
0
100
AcDbRotatedDimension
1001
ACAD
1000
DSTYLE
1002
{
1070
   279
1070
     0
1070
   172
1070
     1
1070
   173
1070
     1
1070
   340
1005
14A
1070
   271
1070
     1
1070
   272
1070
     2
1070
    77
1070
     1
1070
    73
1070
     0
1070
   171
1070
     3
1070
   274
1070
     4
1070
   177
1070
     7
1070
   176
1070
     7
1070
   178
1070
     7
1070
    78
1070
     8
1070
    48
1040
-0.005
1070
    41
1041
3.5
1070
   147
1041
1.75
1070
    42
1041
1.5875
1070
    44
1041
2.0
1070
   140
1041
3.5
1070
   343
1005
0
1070
   344
1005
0
1002
}
0
DIMENSION
5
16D
100
AcDbEntity
8
2
62
256
6
ByLayer
370
13
48
1
60
0
100
AcDbDimension
2
DimnDraft3D3
10
88.264776
20
-12.59
30
0
11
88.264776
21
-7.948289
31
0
70
32
71
5
72
1
41
1
210
0
220
0
230
1
3
Standard
100
AcDbAlignedDimension
13
62.948762
23
0
33
0
14
81.5575
24
-12.59
34
0
50
90
100
AcDbRotatedDimension
1001
ACAD
1000
DSTYLE
1002
{
1070
    74
1070
     0
1070
   279
1070
     0
1070
   172
1070
     1
1070
   173
1070
     1
1070
   340
1005
14A
1070
   271
1070
     1
1070
   272
1070
     2
1070
    77
1070
     1
1070
    73
1070
     0
1070
   171
1070
     3
1070
   274
1070
     4
1070
   177
1070
     7
1070
   176
1070
     7
1070
   178
1070
     7
1070
    78
1070
     8
1070
    48
1040
-0.005
1070
    41
1041
3.5
1070
   147
1041
1.75
1070
    42
1041
1.5875
1070
    44
1041
2.0
1070
   140
1041
3.5
1070
   343
1005
0
1070
   344
1005
0
1002
}
0
ENDSEC
0
SECTION
2
OBJECTS
0
DICTIONARY
5
1d8
330
0
100
AcDbDictionary
280
0
281
1
3
ACAD_GROUP
350
1d9
3
ACAD_MLINESTYLE
350
1da
0
DICTIONARY
5
1d9
330
0
100
AcDbDictionary
280
0
281
1
0
DICTIONARY
5
1da
330
0
100
AcDbDictionary
280
0
281
1
3
Standard
350
18
0
MLINESTYLE
5
18
330
1da
100
AcDbMlineStyle
2
Standard
70
0
3

62
256
51
90
52
90
71
2
49
-0.5
62
256
6
ByLayer
49
0.5
62
256
6
ByLayer
0
RASTERVARIABLES
5
1c6
330

100
AcDbRasterVariables
90
0
70
1
71
1
72
1
0
ENDSEC
0
EOF
