0
SECTION
2
HEADER
9
$ACADVER
1
AC1015
9
$DWGCODEPAGE
3
ANSI_1252
9
$HANDSEED
5
1c8
9
$ANGBASE
50
0
9
$ANGDIR
70
0
9
$ATTMODE
70
1
9
$AUNITS
70
0
9
$AUPREC
70
0
9
$CECOLOR
62
256
9
$CELTSCALE
40
1
9
$CELTYPE
6
ByLayer
9
$CELWEIGHT
370
18
9
$CLAYER
8
0
9
$CMLJUST
70
0
9
$CMLSCALE
40
1
9
$CMLSTYLE
2
Standard
9
$DIMSTYLE
2
Standard
9
$TEXTSIZE
40
0.2
9
$TEXTSTYLE
7
Standard
9
$LUNITS
70
2
9
$LUPREC
70
4
9
$EXTNAMES
290
1
9
$INSUNITS
70
4
9
$LTSCALE
40
1
9
$LWDISPLAY
290
1
9
$PDMODE
70
0
9
$PDSIZE
40
0
9
$PLINEGEN
70
0
0
ENDSEC
0
SECTION
2
CLASSES
0
CLASS
1
RASTERVARIABLES
2
AcDbRasterVariables
3
ISM
90
0
280
0
281
0
0
ENDSEC
0
SECTION
2
TABLES
0
TABLE
2
VPORT
5
1be
100
AcDbSymbolTable
0
VPORT
5
1
100
AcDbSymbolTableRecord
100
AcDbViewportTableRecord
2
*Active
70
0
10
0
20
0
11
1
21
1
12
-1
22
1
13
0
23
0
14
0.5
24
0.5
15
10
25
10
16
0
26
0
36
1
17
0
27
0
37
0
0
ENDTAB
0
TABLE
2
LTYPE
5
1bf
100
AcDbSymbolTable
0
LTYPE
5
14
100
AcDbSymbolTableRecord
100
AcDbLinetypeTableRecord
70
0
2
ByBlock
3

72
65
73
0
40
0
0
LTYPE
5
15
100
AcDbSymbolTableRecord
100
AcDbLinetypeTableRecord
70
0
2
ByLayer
3

72
65
73
0
40
0
0
LTYPE
5
16
100
AcDbSymbolTableRecord
100
AcDbLinetypeTableRecord
70
0
2
CONTINUOUS
3
Solid line
72
65
73
0
40
0
0
LTYPE
5
6A
100
AcDbSymbolTableRecord
100
AcDbLinetypeTableRecord
70
0
2
CENTER
3
____ _ ____ _ ____ _ ____
72
65
73
4
40
47.5
49
22
74
0
49
-8.5
74
0
49
8.5
74
0
49
-8.5
74
0
0
LTYPE
5
6B
100
AcDbSymbolTableRecord
100
AcDbLinetypeTableRecord
70
0
2
DASHED
3
__ __ __ __ __ __ __ __ __
72
65
73
2
40
25.72
49
12.86
74
0
49
-12.86
74
0
0
ENDTAB
0
TABLE
2
LAYER
5
1c0
100
AcDbSymbolTable
0
LAYER
5
10
100
AcDbSymbolTableRecord
100
AcDbLayerTableRecord
2
0
70
0
62
7
6
CONTINUOUS
290
1
370
-3
390
0
0
LAYER
5
6D
100
AcDbSymbolTableRecord
100
AcDbLayerTableRecord
2
80
70
0
62
-6
6
CONTINUOUS
290
1
370
-3
390
0
0
LAYER
5
6F
100
AcDbSymbolTableRecord
100
AcDbLayerTableRecord
2
2
70
0
62
7
6
CONTINUOUS
290
1
370
-3
390
0
0
LAYER
5
71
100
AcDbSymbolTableRecord
100
AcDbLayerTableRecord
2
81
70
0
62
-3
6
CONTINUOUS
290
1
370
-3
390
0
0
LAYER
5
75
100
AcDbSymbolTableRecord
100
AcDbLayerTableRecord
2
1
70
0
62
4
6
CONTINUOUS
290
1
370
-3
390
0
0
LAYER
5
1ab
100
AcDbSymbolTableRecord
100
AcDbLayerTableRecord
2
SK1
70
0
62
4
6
CONTINUOUS
290
1
370
-3
390
0
0
LAYER
5
1ac
100
AcDbSymbolTableRecord
100
AcDbLayerTableRecord
2
SK6
70
0
62
5
6
CONTINUOUS
290
1
370
-3
390
0
0
LAYER
5
1ad
100
AcDbSymbolTableRecord
100
AcDbLayerTableRecord
2
SK2
70
0
62
7
6
CONTINUOUS
290
1
370
-3
390
0
0
ENDTAB
0
TABLE
2
STYLE
5
1c1
100
AcDbSymbolTable
0
STYLE
5
11
100
AcDbSymbolTableRecord
100
AcDbTextStyleTableRecord
2
Standard
3
txt
70
0
71
0
40
0
41
1
42
0
50
0
0
STYLE
5
F3
100
AcDbSymbolTableRecord
100
AcDbTextStyleTableRecord
2
iso_b_vert
3
simplex.shx
70
0
71
0
40
0
41
1
42
0
50
0
0
STYLE
5
F4
100
AcDbSymbolTableRecord
100
AcDbTextStyleTableRecord
2
DWGDirectTextStyle
3
simplex
70
0
71
0
40
0
41
1
42
0
50
0
0
ENDTAB
0
TABLE
2
DIMSTYLE
5
1c2
100
AcDbSymbolTable
100
AcDbDimStyleTable
0
DIMSTYLE
105
27
100
AcDbSymbolTableRecord
100
AcDbDimStyleTableRecord
2
Standard
70
0
3
<>
41
0.18
42
0.0625
44
0.18
140
0.18
147
0.09
73
0
74
0
77
1
271
2
275
0
278
52
280
0
340
11
0
ENDTAB
0
TABLE
2
VIEW
5
1c3
100
AcDbSymbolTable
0
ENDTAB
0
TABLE
2
UCS
5
1c4
100
AcDbSymbolTable
0
ENDTAB
0
TABLE
2
APPID
5
1c5
100
AcDbSymbolTable
0
APPID
5
12
100
AcDbSymbolTableRecord
100
AcDbRegAppTableRecord
2
ACAD
70
0
0
ENDTAB
0
TABLE
2
BLOCK_RECORD
5
1c6
100
AcDbSymbolTable
0
BLOCK_RECORD
5
1F
100
AcDbSymbolTableRecord
100
AcDbBlockTableRecord
2
*Model_Space
340
0
70
0
0
BLOCK_RECORD
5
1B
100
AcDbSymbolTableRecord
100
AcDbBlockTableRecord
2
*Paper_Space
340
0
70
0
0
BLOCK_RECORD
5
23
100
AcDbSymbolTableRecord
100
AcDbBlockTableRecord
2
*Paper_Space0
340
0
70
0
0
BLOCK_RECORD
5
F6
100
AcDbSymbolTableRecord
100
AcDbBlockTableRecord
2
DimnDraft3D1
340
0
70
0
0
BLOCK_RECORD
5
104
100
AcDbSymbolTableRecord
100
AcDbBlockTableRecord
2
_CLOSED
340
0
70
0
0
BLOCK_RECORD
5
10B
100
AcDbSymbolTableRecord
100
AcDbBlockTableRecord
2
DimnDraft3D2
340
0
70
0
0
BLOCK_RECORD
5
119
100
AcDbSymbolTableRecord
100
AcDbBlockTableRecord
2
DimnDraft3D3
340
0
70
0
0
BLOCK_RECORD
5
128
100
AcDbSymbolTableRecord
100
AcDbBlockTableRecord
2
DimnDraft3D4
340
0
70
0
0
BLOCK_RECORD
5
136
100
AcDbSymbolTableRecord
100
AcDbBlockTableRecord
2
DimnDraft3D5
340
0
70
0
0
BLOCK_RECORD
5
144
100
AcDbSymbolTableRecord
100
AcDbBlockTableRecord
2
DimnDraft3D6
340
0
70
0
0
ENDTAB
0
ENDSEC
0
SECTION
2
BLOCKS
0
BLOCK
5
20
100
AcDbEntity
8
0
100
AcDbBlockBegin
2
*Model_Space
70
0
10
0
20
0
30
0
3
*Model_Space
0
ENDBLK
5
21
100
AcDbEntity
8
0
100
AcDbBlockEnd
0
BLOCK
5
1C
100
AcDbEntity
8
0
100
AcDbBlockBegin
2
*Paper_Space
70
0
10
0
20
0
30
0
3
*Paper_Space
0
ENDBLK
5
1D
100
AcDbEntity
8
0
100
AcDbBlockEnd
0
BLOCK
5
24
100
AcDbEntity
8
0
100
AcDbBlockBegin
2
*Paper_Space0
70
0
10
0
20
0
30
0
3
*Paper_Space0
0
ENDBLK
5
25
100
AcDbEntity
8
0
100
AcDbBlockEnd
0
BLOCK
5
101
100
AcDbEntity
8
0
100
AcDbBlockBegin
2
DimnDraft3D1
70
0
10
0
20
0
30
0
3
DimnDraft3D1
0
MTEXT
5
F7
100
AcDbEntity
8
2
62
256
6
ByLayer
370
18
48
1
60
0
100
AcDbMText
10
52.125
20
10.680921
30
0
210
0
220
0
230
1
1
\W0.5404;6
40
4.5
41
0
44
1.084337
50
90
71
7
72
5
7
iso_b_vert
0
LINE
5
F8
100
AcDbEntity
8
2
62
256
6
ByLayer
370
13
48
1
60
0
100
AcDbLine
10
40.5
20
7.5625
30
0
11
56.25
21
7.5625
31
0
39
0
210
0
220
0
230
1
0
LINE
5
F9
100
AcDbEntity
8
2
62
256
6
ByLayer
370
13
48
1
60
0
100
AcDbLine
10
40.5
20
13.5625
30
0
11
56.25
21
13.5625
31
0
39
0
210
0
220
0
230
1
0
LINE
5
FA
100
AcDbEntity
8
2
62
256
6
ByLayer
370
13
48
1
60
0
100
AcDbLine
10
53.25
20
-3.6875
30
0
11
53.25
21
24.8125
31
0
39
0
210
0
220
0
230
1
0
LINE
5
FB
100
AcDbEntity
8
2
62
256
6
ByLayer
370
13
48
1
60
0
100
AcDbLine
10
53.25
20
7.5625
30
0
11
53.644957
21
4.562501
31
0
39
0
210
0
220
0
230
1
0
LINE
5
FC
100
AcDbEntity
8
2
62
256
6
ByLayer
370
13
48
1
60
0
100
AcDbLine
10
53.25
20
7.5625
30
0
11
52.855043
21
4.562499
31
0
39
0
210
0
220
0
230
1
0
LINE
5
FD
100
AcDbEntity
8
2
62
256
6
ByLayer
370
13
48
1
60
0
100
AcDbLine
10
53.644957
20
4.562501
30
0
11
52.855043
21
4.562499
31
0
39
0
210
0
220
0
230
1
0
LINE
5
FE
100
AcDbEntity
8
2
62
256
6
ByLayer
370
13
48
1
60
0
100
AcDbLine
10
53.25
20
13.5625
30
0
11
52.855043
21
16.562499
31
0
39
0
210
0
220
0
230
1
0
LINE
5
FF
100
AcDbEntity
8
2
62
256
6
ByLayer
370
13
48
1
60
0
100
AcDbLine
10
53.25
20
13.5625
30
0
11
53.644957
21
16.562501
31
0
39
0
210
0
220
0
230
1
0
LINE
5
100
100
AcDbEntity
8
2
62
256
6
ByLayer
370
13
48
1
60
0
100
AcDbLine
10
52.855043
20
16.562499
30
0
11
53.644957
21
16.562501
31
0
39
0
210
0
220
0
230
1
0
ENDBLK
5
102
100
AcDbEntity
8
0
100
AcDbBlockEnd
0
BLOCK
5
105
100
AcDbEntity
8
0
100
AcDbBlockBegin
2
_CLOSED
70
0
10
0
20
0
30
0
3
_CLOSED
0
LINE
5
107
100
AcDbEntity
8
0
62
256
6
ByLayer
370
-2
48
1
60
0
100
AcDbLine
10
-1
20
0.166667
30
0
11
0
21
0
31
0
39
0
210
0
220
0
230
1
0
LINE
5
108
100
AcDbEntity
8
0
62
256
6
ByLayer
370
-2
48
1
60
0
100
AcDbLine
10
0
20
0
30
0
11
-1
21
-0.166667
31
0
39
0
210
0
220
0
230
1
0
LINE
5
109
100
AcDbEntity
8
0
62
256
6
ByLayer
370
-2
48
1
60
0
100
AcDbLine
10
-1
20
0.166667
30
0
11
-1
21
-0.166667
31
0
39
0
210
0
220
0
230
1
0
LINE
5
10A
100
AcDbEntity
8
0
62
256
6
ByLayer
370
-2
48
1
60
0
100
AcDbLine
10
0
20
0
30
0
11
-1
21
0
31
0
39
0
210
0
220
0
230
1
0
ENDBLK
5
106
100
AcDbEntity
8
0
100
AcDbBlockEnd
0
BLOCK
5
116
100
AcDbEntity
8
0
100
AcDbBlockBegin
2
DimnDraft3D2
70
0
10
0
20
0
30
0
3
DimnDraft3D2
0
MTEXT
5
10C
100
AcDbEntity
8
2
62
256
6
ByLayer
370
18
48
1
60
0
100
AcDbMText
10
62.125
20
-1.000658
30
0
210
0
220
0
230
1
1
\W0.6740;26
40
4.5
41
0
44
1.084337
50
90
71
7
72
5
7
iso_b_vert
0
LINE
5
10D
100
AcDbEntity
8
2
62
256
6
ByLayer
370
13
48
1
60
0
100
AcDbLine
10
40.5
20
13.5625
30
0
11
66.25
21
13.5625
31
0
39
0
210
0
220
0
230
1
0
LINE
5
10E
100
AcDbEntity
8
2
62
256
6
ByLayer
370
13
48
1
60
0
100
AcDbLine
10
-3.5
20
-12.4375
30
0
11
66.25
21
-12.4375
31
0
39
0
210
0
220
0
230
1
0
LINE
5
10F
100
AcDbEntity
8
2
62
256
6
ByLayer
370
13
48
1
60
0
100
AcDbLine
10
63.25
20
13.5625
30
0
11
63.25
21
-12.4375
31
0
39
0
210
0
220
0
230
1
0
LINE
5
110
100
AcDbEntity
8
2
62
256
6
ByLayer
370
13
48
1
60
0
100
AcDbLine
10
63.25
20
13.5625
30
0
11
63.644957
21
10.562501
31
0
39
0
210
0
220
0
230
1
0
LINE
5
111
100
AcDbEntity
8
2
62
256
6
ByLayer
370
13
48
1
60
0
100
AcDbLine
10
63.25
20
13.5625
30
0
11
62.855043
21
10.562499
31
0
39
0
210
0
220
0
230
1
0
LINE
5
112
100
AcDbEntity
8
2
62
256
6
ByLayer
370
13
48
1
60
0
100
AcDbLine
10
63.644957
20
10.562501
30
0
11
62.855043
21
10.562499
31
0
39
0
210
0
220
0
230
1
0
LINE
5
113
100
AcDbEntity
8
2
62
256
6
ByLayer
370
13
48
1
60
0
100
AcDbLine
10
63.25
20
-12.4375
30
0
11
62.855043
21
-9.437501
31
0
39
0
210
0
220
0
230
1
0
LINE
5
114
100
AcDbEntity
8
2
62
256
6
ByLayer
370
13
48
1
60
0
100
AcDbLine
10
63.25
20
-12.4375
30
0
11
63.644957
21
-9.437499
31
0
39
0
210
0
220
0
230
1
0
LINE
5
115
100
AcDbEntity
8
2
62
256
6
ByLayer
370
13
48
1
60
0
100
AcDbLine
10
62.855043
20
-9.437501
30
0
11
63.644957
21
-9.437499
31
0
39
0
210
0
220
0
230
1
0
ENDBLK
5
117
100
AcDbEntity
8
0
100
AcDbBlockEnd
0
BLOCK
5
125
100
AcDbEntity
8
0
100
AcDbBlockBegin
2
DimnDraft3D3
70
0
10
0
20
0
30
0
3
DimnDraft3D3
0
MTEXT
5
11A
100
AcDbEntity
8
SK2
62
256
6
ByLayer
370
18
48
1
60
0
100
AcDbMText
10
-143.225
20
-1.563158
30
0
210
0
220
0
230
1
1
\W0.6740;25
40
4.5
41
0
44
1.084337
50
90
71
7
72
5
7
iso_b_vert
0
LINE
5
11C
100
AcDbEntity
8
SK2
62
256
6
ByLayer
370
13
48
1
60
0
100
AcDbLine
10
-133.85
20
12.4375
30
0
11
-145.1
21
12.4375
31
0
39
0
210
0
220
0
230
1
0
LINE
5
11D
100
AcDbEntity
8
SK2
62
256
6
ByLayer
370
13
48
1
60
0
100
AcDbLine
10
-133.85
20
-12.4375
30
0
11
-145.1
21
-12.4375
31
0
39
0
210
0
220
0
230
1
0
LINE
5
11E
100
AcDbEntity
8
SK2
62
256
6
ByLayer
370
13
48
1
60
0
100
AcDbLine
10
-142.1
20
12.4375
30
0
11
-142.1
21
-12.4375
31
0
39
0
210
0
220
0
230
1
0
LINE
5
11F
100
AcDbEntity
8
SK2
62
256
6
ByLayer
370
13
48
1
60
0
100
AcDbLine
10
-142.1
20
12.4375
30
0
11
-141.705043
21
9.437501
31
0
39
0
210
0
220
0
230
1
0
LINE
5
120
100
AcDbEntity
8
SK2
62
256
6
ByLayer
370
13
48
1
60
0
100
AcDbLine
10
-142.1
20
12.4375
30
0
11
-142.494957
21
9.437499
31
0
39
0
210
0
220
0
230
1
0
LINE
5
121
100
AcDbEntity
8
SK2
62
256
6
ByLayer
370
13
48
1
60
0
100
AcDbLine
10
-141.705043
20
9.437501
30
0
11
-142.494957
21
9.437499
31
0
39
0
210
0
220
0
230
1
0
LINE
5
122
100
AcDbEntity
8
SK2
62
256
6
ByLayer
370
13
48
1
60
0
100
AcDbLine
10
-142.1
20
-12.4375
30
0
11
-142.494957
21
-9.437501
31
0
39
0
210
0
220
0
230
1
0
LINE
5
123
100
AcDbEntity
8
SK2
62
256
6
ByLayer
370
13
48
1
60
0
100
AcDbLine
10
-142.1
20
-12.4375
30
0
11
-141.705043
21
-9.437499
31
0
39
0
210
0
220
0
230
1
0
LINE
5
124
100
AcDbEntity
8
SK2
62
256
6
ByLayer
370
13
48
1
60
0
100
AcDbLine
10
-142.494957
20
-9.437501
30
0
11
-141.705043
21
-9.437499
31
0
39
0
210
0
220
0
230
1
0
ENDBLK
5
126
100
AcDbEntity
8
0
100
AcDbBlockEnd
0
BLOCK
5
133
100
AcDbEntity
8
0
100
AcDbBlockBegin
2
DimnDraft3D4
70
0
10
0
20
0
30
0
3
DimnDraft3D4
0
MTEXT
5
129
100
AcDbEntity
8
2
62
256
6
ByLayer
370
18
48
1
60
0
100
AcDbMText
10
17.936842
20
24.4375
30
0
210
0
220
0
230
1
1
\W0.6927;39
40
4.5
41
0
44
1.084337
50
0
71
7
72
5
7
iso_b_vert
0
LINE
5
12A
100
AcDbEntity
8
2
62
256
6
ByLayer
370
13
48
1
60
0
100
AcDbLine
10
39
20
15.0625
30
0
11
39
21
26.3125
31
0
39
0
210
0
220
0
230
1
0
LINE
5
12B
100
AcDbEntity
8
2
62
256
6
ByLayer
370
13
48
1
60
0
100
AcDbLine
10
0
20
13.9375
30
0
11
0
21
26.3125
31
0
39
0
210
0
220
0
230
1
0
LINE
5
12C
100
AcDbEntity
8
2
62
256
6
ByLayer
370
13
48
1
60
0
100
AcDbLine
10
39
20
23.3125
30
0
11
0
21
23.3125
31
0
39
0
210
0
220
0
230
1
0
LINE
5
12D
100
AcDbEntity
8
2
62
256
6
ByLayer
370
13
48
1
60
0
100
AcDbLine
10
39
20
23.3125
30
0
11
36.000001
21
22.917543
31
0
39
0
210
0
220
0
230
1
0
LINE
5
12E
100
AcDbEntity
8
2
62
256
6
ByLayer
370
13
48
1
60
0
100
AcDbLine
10
39
20
23.3125
30
0
11
35.999999
21
23.707457
31
0
39
0
210
0
220
0
230
1
0
LINE
5
12F
100
AcDbEntity
8
2
62
256
6
ByLayer
370
13
48
1
60
0
100
AcDbLine
10
36.000001
20
22.917543
30
0
11
35.999999
21
23.707457
31
0
39
0
210
0
220
0
230
1
0
LINE
5
130
100
AcDbEntity
8
2
62
256
6
ByLayer
370
13
48
1
60
0
100
AcDbLine
10
0
20
23.3125
30
0
11
2.999999
21
23.707457
31
0
39
0
210
0
220
0
230
1
0
LINE
5
131
100
AcDbEntity
8
2
62
256
6
ByLayer
370
13
48
1
60
0
100
AcDbLine
10
0
20
23.3125
30
0
11
3.000001
21
22.917543
31
0
39
0
210
0
220
0
230
1
0
LINE
5
132
100
AcDbEntity
8
2
62
256
6
ByLayer
370
13
48
1
60
0
100
AcDbLine
10
2.999999
20
23.707457
30
0
11
3.000001
21
22.917543
31
0
39
0
210
0
220
0
230
1
0
ENDBLK
5
134
100
AcDbEntity
8
0
100
AcDbBlockEnd
0
BLOCK
5
141
100
AcDbEntity
8
0
100
AcDbBlockBegin
2
DimnDraft3D5
70
0
10
0
20
0
30
0
3
DimnDraft3D5
0
MTEXT
5
137
100
AcDbEntity
8
SK2
62
256
6
ByLayer
370
18
48
1
60
0
100
AcDbMText
10
-49.357237
20
34.4375
30
0
210
0
220
0
230
1
1
\W0.6217;170
40
4.5
41
0
44
1.084337
50
0
71
7
72
5
7
iso_b_vert
0
LINE
5
138
100
AcDbEntity
8
SK2
62
256
6
ByLayer
370
13
48
1
60
0
100
AcDbLine
10
39
20
15.0625
30
0
11
39
21
36.3125
31
0
39
0
210
0
220
0
230
1
0
LINE
5
139
100
AcDbEntity
8
SK2
62
256
6
ByLayer
370
13
48
1
60
0
100
AcDbLine
10
-132.35
20
13.9375
30
0
11
-132.35
21
36.3125
31
0
39
0
210
0
220
0
230
1
0
LINE
5
13A
100
AcDbEntity
8
SK2
62
256
6
ByLayer
370
13
48
1
60
0
100
AcDbLine
10
39
20
33.3125
30
0
11
-132.35
21
33.3125
31
0
39
0
210
0
220
0
230
1
0
LINE
5
13B
100
AcDbEntity
8
SK2
62
256
6
ByLayer
370
13
48
1
60
0
100
AcDbLine
10
39
20
33.3125
30
0
11
36.000001
21
32.917543
31
0
39
0
210
0
220
0
230
1
0
LINE
5
13C
100
AcDbEntity
8
SK2
62
256
6
ByLayer
370
13
48
1
60
0
100
AcDbLine
10
39
20
33.3125
30
0
11
35.999999
21
33.707457
31
0
39
0
210
0
220
0
230
1
0
LINE
5
13D
100
AcDbEntity
8
SK2
62
256
6
ByLayer
370
13
48
1
60
0
100
AcDbLine
10
36.000001
20
32.917543
30
0
11
35.999999
21
33.707457
31
0
39
0
210
0
220
0
230
1
0
LINE
5
13E
100
AcDbEntity
8
SK2
62
256
6
ByLayer
370
13
48
1
60
0
100
AcDbLine
10
-132.35
20
33.3125
30
0
11
-129.350001
21
33.707457
31
0
39
0
210
0
220
0
230
1
0
LINE
5
13F
100
AcDbEntity
8
SK2
62
256
6
ByLayer
370
13
48
1
60
0
100
AcDbLine
10
-132.35
20
33.3125
30
0
11
-129.349999
21
32.917543
31
0
39
0
210
0
220
0
230
1
0
LINE
5
140
100
AcDbEntity
8
SK2
62
256
6
ByLayer
370
13
48
1
60
0
100
AcDbLine
10
-129.350001
20
33.707457
30
0
11
-129.349999
21
32.917543
31
0
39
0
210
0
220
0
230
1
0
ENDBLK
5
142
100
AcDbEntity
8
0
100
AcDbBlockEnd
0
BLOCK
5
14F
100
AcDbEntity
8
0
100
AcDbBlockBegin
2
DimnDraft3D6
70
0
10
0
20
0
30
0
3
DimnDraft3D6
0
MTEXT
5
145
100
AcDbEntity
8
2
62
256
6
ByLayer
370
18
48
1
60
0
100
AcDbMText
10
29.999342
20
-25.5625
30
0
210
0
220
0
230
1
1
\W0.5321;16
40
4.5
41
0
44
1.084337
50
0
71
7
72
5
7
iso_b_vert
0
LINE
5
146
100
AcDbEntity
8
2
62
256
6
ByLayer
370
13
48
1
60
0
100
AcDbLine
10
23
20
5.0625
30
0
11
23
21
-29.6875
31
0
39
0
210
0
220
0
230
1
0
LINE
5
147
100
AcDbEntity
8
2
62
256
6
ByLayer
370
13
48
1
60
0
100
AcDbLine
10
39
20
6.0625
30
0
11
39
21
-29.6875
31
0
39
0
210
0
220
0
230
1
0
LINE
5
148
100
AcDbEntity
8
2
62
256
6
ByLayer
370
13
48
1
60
0
100
AcDbLine
10
23
20
-26.6875
30
0
11
39
21
-26.6875
31
0
39
0
210
0
220
0
230
1
0
LINE
5
149
100
AcDbEntity
8
2
62
256
6
ByLayer
370
13
48
1
60
0
100
AcDbLine
10
23
20
-26.6875
30
0
11
25.999999
21
-26.292543
31
0
39
0
210
0
220
0
230
1
0
LINE
5
14A
100
AcDbEntity
8
2
62
256
6
ByLayer
370
13
48
1
60
0
100
AcDbLine
10
23
20
-26.6875
30
0
11
26.000001
21
-27.082457
31
0
39
0
210
0
220
0
230
1
0
LINE
5
14B
100
AcDbEntity
8
2
62
256
6
ByLayer
370
13
48
1
60
0
100
AcDbLine
10
25.999999
20
-26.292543
30
0
11
26.000001
21
-27.082457
31
0
39
0
210
0
220
0
230
1
0
LINE
5
14C
100
AcDbEntity
8
2
62
256
6
ByLayer
370
13
48
1
60
0
100
AcDbLine
10
39
20
-26.6875
30
0
11
36.000001
21
-27.082457
31
0
39
0
210
0
220
0
230
1
0
LINE
5
14D
100
AcDbEntity
8
2
62
256
6
ByLayer
370
13
48
1
60
0
100
AcDbLine
10
39
20
-26.6875
30
0
11
35.999999
21
-26.292543
31
0
39
0
210
0
220
0
230
1
0
LINE
5
14E
100
AcDbEntity
8
2
62
256
6
ByLayer
370
13
48
1
60
0
100
AcDbLine
10
36.000001
20
-27.082457
30
0
11
35.999999
21
-26.292543
31
0
39
0
210
0
220
0
230
1
0
ENDBLK
5
150
100
AcDbEntity
8
0
100
AcDbBlockEnd
0
ENDSEC
0
SECTION
2
ENTITIES
0
ARC
5
B5
100
AcDbEntity
8
1
62
256
6
ByLayer
370
18
48
1
60
0
100
AcDbCircle
39
0
10
23.1
20
6.2875
30
0
40
1.59999999999944
210
0
220
0
230
1
100
AcDbArc
50
90
51
180
0
ARC
5
B7
100
AcDbEntity
8
1
62
256
6
ByLayer
370
18
48
1
60
0
100
AcDbCircle
39
0
10
14.35
20
-0.7375
30
0
40
2.0135
210
0
220
0
230
1
100
AcDbArc
50
268.140164
51
271.859836
0
ARC
5
B9
100
AcDbEntity
8
1
62
256
6
ByLayer
370
18
48
1
60
0
100
AcDbCircle
39
0
10
14.35
20
-0.7375
30
0
40
2.0135
210
0
220
0
230
1
100
AcDbArc
50
88.140164
51
91.859836
0
ARC
5
BA
100
AcDbEntity
8
1
62
256
6
ByLayer
370
18
48
1
60
0
100
AcDbCircle
39
0
10
14.35
20
-0.7375
30
0
40
2.807
210
0
220
0
230
1
100
AcDbArc
50
360
51
59.965127
0
ARC
5
BB
100
AcDbEntity
8
1
62
256
6
ByLayer
370
18
48
1
60
0
100
AcDbCircle
39
0
10
14.35
20
-0.7375
30
0
40
2.807
210
0
220
0
230
1
100
AcDbArc
50
120.034873
51
180
0
ARC
5
BC
100
AcDbEntity
8
1
62
256
6
ByLayer
370
18
48
1
60
0
100
AcDbCircle
39
0
10
14.35
20
-0.7375
30
0
40
2.807
210
0
220
0
230
1
100
AcDbArc
50
180
51
239.965127
0
ARC
5
BF
100
AcDbEntity
8
1
62
256
6
ByLayer
370
18
48
1
60
0
100
AcDbCircle
39
0
10
14.35
20
-0.7375
30
0
40
2.807
210
0
220
0
230
1
100
AcDbArc
50
300.034873
51
360
0
ARC
5
C0
100
AcDbEntity
8
1
62
256
6
ByLayer
370
18
48
1
60
0
100
AcDbCircle
39
0
10
14.35
20
-0.7375
30
0
40
2.807
210
0
220
0
230
1
100
AcDbArc
50
59.965127
51
120.034873
0
ARC
5
C1
100
AcDbEntity
8
1
62
256
6
ByLayer
370
18
48
1
60
0
100
AcDbCircle
39
0
10
14.35
20
-0.7375
30
0
40
2.807
210
0
220
0
230
1
100
AcDbArc
50
239.965127
51
300.034873
0
ARC
5
C2
100
AcDbEntity
8
1
62
256
6
ByLayer
370
18
48
1
60
0
100
AcDbCircle
39
0
10
-14.8
20
12.7875
30
0
40
0.8
210
0
220
0
230
-1
100
AcDbArc
50
34.229661
51
95
0
ARC
5
C3
100
AcDbEntity
8
1
62
256
6
ByLayer
370
18
48
1
60
0
100
AcDbCircle
39
0
10
-38.2
20
8.3375
30
0
40
0.8
210
0
220
0
230
-1
100
AcDbArc
50
180
51
275
0
ARC
5
C4
100
AcDbEntity
8
1
62
256
6
ByLayer
370
18
48
1
60
0
100
AcDbCircle
39
0
10
38.2
20
12.7875
30
0
40
0.8
210
0
220
0
230
1
100
AcDbArc
50
360
51
95
0
CIRCLE
5
B6
100
AcDbEntity
8
1
62
256
6
ByLayer
370
18
48
1
60
0
100
AcDbCircle
10
-14.35
20
-0.7375
30
0
40
6.15
39
0
210
0
220
0
230
-1
0
CIRCLE
5
B8
100
AcDbEntity
8
1
62
256
6
ByLayer
370
18
48
1
60
0
100
AcDbCircle
10
-14.35
20
-0.7375
30
0
40
5.93
39
0
210
0
220
0
230
-1
0
CIRCLE
5
BD
100
AcDbEntity
8
1
62
256
6
ByLayer
370
18
48
1
60
0
100
AcDbCircle
10
14.35
20
-0.7375
30
0
40
5.13
39
0
210
0
220
0
230
1
0
CIRCLE
5
BE
100
AcDbEntity
8
1
62
256
6
ByLayer
370
18
48
1
60
0
100
AcDbCircle
10
-14.35
20
-0.7375
30
0
40
3
39
0
210
0
220
0
230
-1
0
POINT
5
6C
100
AcDbEntity
8
80
62
256
6
ByLayer
370
18
48
1
60
0
100
AcDbPoint
10
0
20
0
30
0
39
0
210
0
220
0
230
1
50
360
0
POINT
5
6E
100
AcDbEntity
8
2
62
256
6
ByLayer
370
18
48
1
60
0
100
AcDbPoint
10
39
20
13.5625
30
0
39
0
210
0
220
0
230
1
50
360
0
POINT
5
70
100
AcDbEntity
8
81
62
256
6
ByLayer
370
18
48
1
60
0
100
AcDbPoint
10
39
20
13.5625
30
0
39
0
210
0
220
0
230
1
50
360
0
SPLINE
5
C5
100
AcDbEntity
8
1
62
256
6
ByLayer
370
18
48
1
60
0
100
AcDbSpline
70
4
71
3
72
14
73
10
40
0
40
0
40
0
40
0
40
0.27333558630843
40
0.27333558630843
40
0.549864884753968
40
0.549864884753968
40
0.826242595229008
40
0.826242595229008
40
1
40
1
40
1
40
1
41
1
10
31.2283156668965
20
10.1465461068821
30
0
41
1
10
31.2411000042653
20
10.1522218697633
30
0
41
1
10
31.2532642576506
20
10.1606344671603
30
0
41
1
10
31.2745054552684
20
10.1816974924646
30
0
41
1
10
31.283836751431
20
10.1946884838198
30
0
41
1
10
31.2982441671546
20
10.223308011158
30
0
41
1
10
31.3035213092883
20
10.239330006648
30
0
41
1
10
31.3082833172109
20
10.2661457275076
30
0
41
1
10
31.309223134994
20
10.2768528161222
30
0
41
1
10
31.3092231349941
20
10.2874999999981
30
0
0
SPLINE
5
C6
100
AcDbEntity
8
1
62
256
6
ByLayer
370
18
48
1
60
0
100
AcDbSpline
70
4
71
3
72
14
73
10
40
0
40
0
40
0
40
0
40
0.318825335745341
40
0.318825335745341
40
0.641378913519545
40
0.641378913519545
40
0.963672388635809
40
0.963672388635809
40
1
40
1
40
1
40
1
41
1
10
31.1195868846333
20
11.0267185456528
30
0
41
1
10
31.106793014013
20
11.032396797587
30
0
41
1
10
31.0946194073437
20
11.0408136973169
30
0
41
1
10
31.0733610363011
20
11.0618885821227
30
0
41
1
10
31.064021619688
20
11.0748876111589
30
0
41
1
10
31.049605342509
20
11.1035233263036
30
0
41
1
10
31.0443262529217
20
11.1195534661562
30
0
41
1
10
31.0410810594113
20
11.1378488581191
30
0
41
1
10
31.0407776400381
20
11.1397339976231
30
0
41
1
10
31.0405040733832
20
11.1416252121207
30
0
0
SPLINE
5
C7
100
AcDbEntity
8
1
62
256
6
ByLayer
370
18
48
1
60
0
100
AcDbSpline
70
4
71
3
72
14
73
10
40
0
40
0
40
0
40
0
40
0.32064828308787
40
0.32064828308787
40
0.642556656032454
40
0.642556656032454
40
0.964767987534551
40
0.964767987534551
40
1
40
1
40
1
40
1
41
1
10
31.0405040733832
20
9.98337478787923
30
0
41
1
10
31.0428848120555
20
9.99983325389164
30
0
41
1
10
31.0476180403295
20
10.0160167196511
30
0
41
1
10
31.061033197455
20
10.0452320241537
30
0
41
1
10
31.0699156352927
20
10.0586536819563
30
0
41
1
10
31.090540376174
20
10.0808637034432
30
0
41
1
10
31.1025693737439
20
10.0899539171941
30
0
41
1
10
31.1167287638944
20
10.0969760997766
30
0
41
1
10
31.1181531019785
20
10.0976451043814
30
0
41
1
10
31.1195868846333
20
10.0982814543472
30
0
0
SPLINE
5
C8
100
AcDbEntity
8
1
62
256
6
ByLayer
370
18
48
1
60
0
100
AcDbSpline
70
4
71
3
72
8
73
4
40
0
40
0
40
0
40
0
40
1
40
1
40
1
40
1
41
1
10
31.1195868846333
20
10.0982814543471
30
0
41
1
10
31.1558305132186
20
10.1143673176659
30
0
41
1
10
31.1920733375391
20
10.1304558816509
30
0
41
1
10
31.2283156668965
20
10.1465461068821
30
0
0
SPLINE
5
C9
100
AcDbEntity
8
1
62
256
6
ByLayer
370
18
48
1
60
0
100
AcDbSpline
70
4
71
3
72
10
73
6
40
0
40
0
40
0
40
0
40
0.5381834618575
40
0.5381834618575
40
1
40
1
40
1
40
1
41
1
10
31.0405040733832
20
11.1416252121207
30
0
41
1
10
30.9861138835951
20
11.5176341796139
30
0
41
1
10
30.9317047975817
20
11.8936390798677
30
0
41
1
10
30.8304950652549
20
12.5922704935592
30
0
41
1
10
30.7837218772884
20
12.9149029849353
30
0
41
1
10
30.7367850269737
20
13.2374999999999
30
0
0
SPLINE
5
CA
100
AcDbEntity
8
1
62
256
6
ByLayer
370
18
48
1
60
0
100
AcDbSpline
70
4
71
3
72
8
73
4
40
0
40
0
40
0
40
0
40
1
40
1
40
1
40
1
41
1
10
31.2283156668965
20
10.9784538931178
30
0
41
1
10
31.1920733240275
20
10.9945441243476
30
0
41
1
10
31.1558304974701
20
11.0106326893236
30
0
41
1
10
31.1195868846334
20
11.0267185456528
30
0
0
SPLINE
5
CB
100
AcDbEntity
8
1
62
256
6
ByLayer
370
18
48
1
60
0
100
AcDbSpline
70
4
71
3
72
14
73
10
40
0
40
0
40
0
40
0
40
0.275104320463929
40
0.275104320463929
40
0.55128589222228
40
0.55128589222228
40
0.827540816329077
40
0.827540816329077
40
1
40
1
40
1
40
1
41
1
10
31.3092231349798
20
10.8375
30
0
41
1
10
31.3092231349798
20
10.8542141719495
30
0
41
1
10
31.3068686319537
20
10.8711570737924
30
0
41
1
10
31.2978207623995
20
10.9027773389955
30
0
41
1
10
31.2909852714478
20
10.9178813158534
30
0
41
1
10
31.2738400953992
20
10.9441198763753
30
0
41
1
10
31.2632933134876
20
10.9556150508633
30
0
41
1
10
31.2443144629828
20
10.970151104695
30
0
41
1
10
31.2364504363819
20
10.9748423627459
30
0
41
1
10
31.2283156668965
20
10.9784538931178
30
0
0
SPLINE
5
CC
100
AcDbEntity
8
1
62
256
6
ByLayer
370
18
48
1
60
0
100
AcDbSpline
70
4
71
3
72
10
73
6
40
0
40
0
40
0
40
0
40
0.769030243434038
40
0.769030243434038
40
1
40
1
40
1
40
1
41
1
10
30.7367850269737
20
7.88749999999996
30
0
41
1
10
30.8149456230661
20
8.4246978483007
30
0
41
1
10
30.8927075006083
20
8.96198207867673
30
0
41
1
10
30.9938151396796
20
9.66063551314943
30
0
41
1
10
31.0171616792932
20
9.82200470377396
30
0
41
1
10
31.0405040733832
20
9.98337478787923
30
0
0
SPLINE
5
CD
100
AcDbEntity
8
1
62
256
6
ByLayer
370
18
48
1
60
0
100
AcDbSpline
70
4
71
3
72
14
73
10
40
0
40
0
40
0
40
0
40
0.219116464512382
40
0.219116464512382
40
0.512971212475581
40
0.512971212475581
40
0.778318620253419
40
0.778318620253419
40
1
40
1
40
1
40
1
41
1
10
15.979464140656
20
-2.62330115626978
30
0
41
1
10
15.9906856982874
20
-2.66478022666195
30
0
41
1
10
15.9965313764369
20
-2.70865699190185
30
0
41
1
10
15.9957856818418
20
-2.8120700582767
30
0
41
1
10
15.9840791649931
20
-2.87362818189934
30
0
41
1
10
15.9397280800638
20
-2.98293056745177
30
0
41
1
10
15.9084392425724
20
-3.03306908424059
30
0
41
1
10
15.8365423753279
20
-3.11152313228504
30
0
41
1
10
15.7974070376034
20
-3.14304852466023
30
0
41
1
10
15.7549793192102
20
-3.16757862271817
30
0
0
SPLINE
5
CE
100
AcDbEntity
8
1
62
256
6
ByLayer
370
18
48
1
60
0
100
AcDbSpline
70
4
71
3
72
12
73
8
40
0
40
0
40
0
40
0
40
0.368706056448697
40
0.368706056448697
40
0.737980850848005
40
0.737980850848005
40
1
40
1
40
1
40
1
41
1
10
14.4153472699774
20
-2.74993931195616
30
0
41
1
10
14.524490121534
20
-2.75611890558375
30
0
41
1
10
14.6333517440413
20
-2.77842679306161
30
0
41
1
10
14.8325096312106
20
-2.84828731098858
30
0
41
1
10
14.9255727775012
20
-2.89655397434299
30
0
41
1
10
15.0670109423506
20
-2.994495033297
30
0
41
1
10
15.1213385199131
20
-3.04024529788356
30
0
41
1
10
15.1704318716301
20
-3.08970299943175
30
0
0
SPLINE
5
CF
100
AcDbEntity
8
1
62
256
6
ByLayer
370
18
48
1
60
0
100
AcDbSpline
70
4
71
3
72
14
73
10
40
0
40
0
40
0
40
0
40
0.220792708734966
40
0.220792708734966
40
0.514440208322327
40
0.514440208322327
40
0.779604980836353
40
0.779604980836353
40
1
40
1
40
1
40
1
41
1
10
16.7981683275969
20
-0.270733220523027
30
0
41
1
10
16.8400107170796
20
-0.281864045922674
30
0
41
1
10
16.881231568975
20
-0.298940754323724
30
0
41
1
10
16.9705520592615
20
-0.351699624641668
30
0
41
1
10
17.0178802128891
20
-0.392723991251444
30
0
41
1
10
17.0900923702314
20
-0.485926188192508
30
0
41
1
10
17.1177254137801
20
-0.538134622890141
30
0
41
1
10
17.1493875756904
20
-0.639408877903918
30
0
41
1
10
17.157
20
-0.688774610124369
30
0
41
1
10
17.157
20
-0.73750000000004
30
0
0
SPLINE
5
D0
100
AcDbEntity
8
1
62
256
6
ByLayer
370
18
48
1
60
0
100
AcDbSpline
70
4
71
3
72
14
73
10
40
0
40
0
40
0
40
0
40
0.222411655270648
40
0.222411655270648
40
0.515858824453701
40
0.515858824453701
40
0.780847480391327
40
0.780847480391327
40
1
40
1
40
1
40
1
41
1
10
12.7205358593442
20
1.14830115626981
30
0
41
1
10
12.7091462249202
20
1.19040150129621
30
0
41
1
10
12.7032956435497
20
1.23497914714304
30
0
41
1
10
12.7044780289879
20
1.33902248713011
30
0
41
1
10
12.7164205388668
20
1.40047934843315
30
0
41
1
10
12.7611484449685
20
1.50951278894468
30
0
41
1
10
12.7925904447841
20
1.55948549228452
30
0
41
1
10
12.8643498449848
20
1.637246056355
30
0
41
1
10
12.9030748695198
20
1.66832714508649
30
0
41
1
10
12.9450206807898
20
1.69257862271809
30
0
0
SPLINE
5
D1
100
AcDbEntity
8
1
62
256
6
ByLayer
370
18
48
1
60
0
100
AcDbSpline
70
4
71
3
72
18
73
14
40
0
40
0
40
0
40
0
40
0.181347322288265
40
0.181347322288265
40
0.360491893295299
40
0.360491893295299
40
0.54170121550288
40
0.54170121550288
40
0.695189055143497
40
0.695189055143497
40
0.89152626545883
40
0.89152626545883
40
1
40
1
40
1
40
1
41
1
10
12.7205358593456
20
1.14830115627021
30
0
41
1
10
12.7473131816822
20
1.04932216649027
30
0
41
1
10
12.7614899989259
20
0.944147343695391
30
0
41
1
10
12.7597428781364
20
0.730936587575655
30
0
41
1
10
12.7438614825797
20
0.620408292696169
30
0
41
1
10
12.6790625518664
20
0.405175692156092
30
0
41
1
10
12.6283565316106
20
0.297275672520158
30
0
41
1
10
12.509722370224
20
0.120624168423746
30
0
41
1
10
12.4442832783194
20
0.0462205577069881
30
0
41
1
10
12.2834431085831
20
-0.0970683332407134
30
0
41
1
10
12.1823244174428
20
-0.161342227174288
30
0
41
1
10
12.0207935514181
20
-0.233941876704392
30
0
41
1
10
11.961563034439
20
-0.254843607864046
30
0
41
1
10
11.9018316724036
20
-0.270733220525273
30
0
0
SPLINE
5
D2
100
AcDbEntity
8
1
62
256
6
ByLayer
370
18
48
1
60
0
100
AcDbSpline
70
4
71
3
72
14
73
10
40
0
40
0
40
0
40
0
40
0.220170037959098
40
0.220170037959098
40
0.513894544314518
40
0.513894544314518
40
0.779127126142475
40
0.779127126142475
40
1
40
1
40
1
40
1
41
1
10
11.901831672403
20
-1.20426677947708
30
0
41
1
10
11.860106814132
20
-1.19316721948584
30
0
41
1
10
11.8190010815935
20
-1.17615595144491
30
0
41
1
10
11.7297424597143
20
-1.12352806441652
30
0
41
1
10
11.6823754340564
20
-1.0825327446089
30
0
41
1
10
11.6100836522094
20
-0.989366789372838
30
0
41
1
10
11.5824089980939
20
-0.937167743062247
30
0
41
1
10
11.5506463360883
20
-0.835805457527073
30
0
41
1
10
11.543
20
-0.786330574958896
30
0
41
1
10
11.543
20
-0.737500000000011
30
0
0
SPLINE
5
D3
100
AcDbEntity
8
1
62
256
6
ByLayer
370
18
48
1
60
0
100
AcDbSpline
70
4
71
3
72
18
73
14
40
0
40
0
40
0
40
0
40
0.0162289153285304
40
0.0162289153285304
40
0.239234459040959
40
0.239234459040959
40
0.462328698874884
40
0.462328698874884
40
0.697692042263402
40
0.697692042263402
40
0.955005672045978
40
0.955005672045978
40
1
40
1
40
1
40
1
41
1
10
17.157
20
-0.73750000000004
30
0
41
1
10
17.157
20
-0.741124276689618
30
0
41
1
10
17.1569591993612
20
-0.744748835303085
30
0
41
1
10
17.1557702435971
20
-0.797556136626326
30
0
41
1
10
17.1468881961842
20
-0.847178410930553
30
0
41
1
10
17.1155222788132
20
-0.939285050358023
30
0
41
1
10
17.0926649850556
20
-0.982956840930854
30
0
41
1
10
17.0355148789301
20
-1.06167654838649
30
0
41
1
10
16.999986827069
20
-1.09713523175591
30
0
41
1
10
16.9190294001722
20
-1.15704151022928
30
0
41
1
10
16.8720050535463
20
-1.18095266341229
30
0
41
1
10
16.8153304916667
20
-1.19944669661604
30
0
41
1
10
16.8067684906715
20
-1.2019789819864
30
0
41
1
10
16.7981683275965
20
-1.20426677947546
30
0
0
SPLINE
5
D4
100
AcDbEntity
8
1
62
256
6
ByLayer
370
18
48
1
60
0
100
AcDbSpline
70
4
71
3
72
18
73
14
40
0
40
0
40
0
40
0
40
0.0150229386922739
40
0.0150229386922739
40
0.237604440562213
40
0.237604440562213
40
0.460204731428108
40
0.460204731428108
40
0.694992075280039
40
0.694992075280039
40
0.951641525778782
40
0.951641525778782
40
1
40
1
40
1
40
1
41
1
10
15.7549793192102
20
-3.16757862271817
30
0
41
1
10
15.7520684199845
20
-3.16926159427894
30
0
41
1
10
15.7491397490837
20
-3.17091427740775
30
0
41
1
10
15.7030920682664
20
-3.19626927600066
30
0
41
1
10
15.6557039074632
20
-3.21349741410899
30
0
41
1
10
15.5602851564218
20
-3.2325960858195
30
0
41
1
10
15.5110399513397
20
-3.23474434006005
30
0
41
1
10
15.4142792924752
20
-3.22482177643704
30
0
41
1
10
15.3657874551504
20
-3.2118922232514
30
0
41
1
10
15.2733624353174
20
-3.17195027104472
30
0
41
1
10
15.2290914112967
20
-3.14329166347045
30
0
41
1
10
15.1841477224758
20
-3.10311616080784
30
0
41
1
10
15.1771780297028
20
-3.09649922460051
30
0
41
1
10
15.1704318716301
20
-3.08970299943178
30
0
0
SPLINE
5
D5
100
AcDbEntity
8
1
62
256
6
ByLayer
370
18
48
1
60
0
100
AcDbSpline
70
4
71
3
72
16
73
12
40
0
40
0
40
0
40
0
40
0.191930281182738
40
0.191930281182738
40
0.488707775608022
40
0.488707775608022
40
0.756688906725715
40
0.756688906725715
40
0.994950483060319
40
0.994950483060319
40
1
40
1
40
1
40
1
41
1
10
15.1704318716269
20
1.61470299943465
30
0
41
1
10
15.1970101552166
20
1.64147853566252
30
0
41
1
10
15.22722378362
20
1.66557521254353
30
0
41
1
10
15.3109482684759
20
1.71706857952523
30
0
41
1
10
15.3698143864776
20
1.73986126801637
30
0
41
1
10
15.486965618469
20
1.76001132996163
30
0
41
1
10
15.5465803486937
20
1.75981589322697
30
0
41
1
10
15.6551819835097
20
1.73903482404893
30
0
41
1
10
15.7061620099742
20
1.72035900850534
30
0
41
1
10
15.7530102361109
20
1.69371244172831
30
0
41
1
10
15.7539957845871
20
1.69314726514483
30
0
41
1
10
15.7549793192102
20
1.69257862271809
30
0
0
SPLINE
5
D6
100
AcDbEntity
8
1
62
256
6
ByLayer
370
18
48
1
60
0
100
AcDbSpline
70
4
71
3
72
12
73
8
40
0
40
0
40
0
40
0
40
0.368706056538509
40
0.368706056538509
40
0.737980850952364
40
0.737980850952364
40
1
40
1
40
1
40
1
41
1
10
14.2846527300225
20
1.2749393119561
30
0
41
1
10
14.1755098784395
20
1.28111890558517
30
0
41
1
10
14.0666482559057
20
1.30342679307265
30
0
41
1
10
13.8674903687157
20
1.3732873110219
30
0
41
1
10
13.7744272224264
20
1.42155397438401
30
0
41
1
10
13.6329890576063
20
1.51949503333327
30
0
41
1
10
13.5786614800674
20
1.56524529790309
30
0
41
1
10
13.5295681283699
20
1.61470299943167
30
0
0
SPLINE
5
D7
100
AcDbEntity
8
1
62
256
6
ByLayer
370
18
48
1
60
0
100
AcDbSpline
70
4
71
3
72
16
73
12
40
0
40
0
40
0
40
0
40
0.218557773056327
40
0.218557773056327
40
0.441067473679259
40
0.441067473679259
40
0.674801337484701
40
0.674801337484701
40
0.929688497508493
40
0.929688497508493
40
1
40
1
40
1
40
1
41
1
10
12.9450206807897
20
-3.16757862271814
30
0
41
1
10
12.9032797321598
20
-3.14344558889729
30
0
41
1
10
12.8647293704485
20
-3.11255271493349
30
0
41
1
10
12.7992576027249
20
-3.04181526405307
30
0
41
1
10
12.771704634642
20
-3.00092765533793
30
0
41
1
10
12.729722748499
20
-2.91335034464754
30
0
41
1
10
12.7154539696446
20
-2.86539412670265
30
0
41
1
10
12.7012404187867
20
-2.76614597406598
30
0
41
1
10
12.7024729202592
20
-2.71370939041057
30
0
41
1
10
12.7138408712732
20
-2.6503470541123
30
0
41
1
10
12.7169074392227
20
-2.63671315294968
30
0
41
1
10
12.7205358593456
20
-2.62330115627026
30
0
0
SPLINE
5
D8
100
AcDbEntity
8
1
62
256
6
ByLayer
370
18
48
1
60
0
100
AcDbSpline
70
4
71
3
72
18
73
14
40
0
40
0
40
0
40
0
40
0.181612675763439
40
0.181612675763439
40
0.360704962161449
40
0.360704962161449
40
0.541858957768577
40
0.541858957768577
40
0.695330353238805
40
0.695330353238805
40
0.891708592215001
40
0.891708592215001
40
1
40
1
40
1
40
1
41
1
10
11.9018316724034
20
-1.20426677947546
30
0
41
1
10
12.0010678212246
20
-1.2306653733302
30
0
41
1
10
12.0993599974145
20
-1.27111577534703
30
0
41
1
10
12.283146016433
20
-1.37949477659589
30
0
41
1
10
12.3708390147032
20
-1.44858584381444
30
0
41
1
10
12.5246433194004
20
-1.61242921541555
30
0
41
1
10
12.5926240182454
20
-1.71032719766538
30
0
41
1
10
12.6861034266653
20
-1.90143345870598
30
0
41
1
10
12.7177334532225
20
-1.99532048911806
30
0
41
1
10
12.7612284804202
20
-2.20629952004526
30
0
41
1
10
12.7662285845804
20
-2.32603091949255
30
0
41
1
10
12.7481886242894
20
-2.50211127081241
30
0
41
1
10
12.7366492612541
20
-2.56374000139846
30
0
41
1
10
12.7205358593463
20
-2.62330115627054
30
0
0
SPLINE
5
D9
100
AcDbEntity
8
1
62
256
6
ByLayer
370
18
48
1
60
0
100
AcDbSpline
70
4
71
3
72
18
73
14
40
0
40
0
40
0
40
0
40
0.18175277145018
40
0.18175277145018
40
0.360818406833419
40
0.360818406833419
40
0.541944163041265
40
0.541944163041265
40
0.695407615755982
40
0.695407615755982
40
0.891808268956468
40
0.891808268956468
40
1
40
1
40
1
40
1
41
1
10
16.7981683275965
20
-0.27073322052459
30
0
41
1
10
16.6988559553603
20
-0.244314349875566
30
0
41
1
10
16.6004880467831
20
-0.203821539352049
30
0
41
1
10
16.4166603201379
20
-0.095364406260245
30
0
41
1
10
16.3289907291675
20
-0.0262629402269283
30
0
41
1
10
16.1752354772816
20
0.137588746915355
30
0
41
1
10
16.1072814826209
20
0.23548349509295
30
0
41
1
10
16.0138398120849
20
0.426581015524761
30
0
41
1
10
15.9822248539707
20
0.520464915961924
30
0
41
1
10
15.938755204354
20
0.731452555656091
30
0
41
1
10
15.9337711326442
20
0.851194465813506
30
0
41
1
10
15.9518323112012
20
1.02722313725545
30
0
41
1
10
15.9633653362174
20
1.08879395910793
30
0
41
1
10
15.9794641406537
20
1.14830115627046
30
0
0
SPLINE
5
DA
100
AcDbEntity
8
1
62
256
6
ByLayer
370
18
48
1
60
0
100
AcDbSpline
70
4
71
3
72
16
73
12
40
0
40
0
40
0
40
0
40
0.19183682466908
40
0.19183682466908
40
0.488625600663341
40
0.488625600663341
40
0.756617127620166
40
0.756617127620166
40
0.994885626449979
40
0.994885626449979
40
1
40
1
40
1
40
1
41
1
10
13.5295681283731
20
-3.08970299943471
30
0
41
1
10
13.5030027275395
20
-3.11646555729612
30
0
41
1
10
13.4728056370948
20
-3.14055178945975
30
0
41
1
10
13.3891024511948
20
-3.1920455835097
30
0
41
1
10
13.3302375601686
20
-3.21484546133056
30
0
41
1
10
13.2130856505552
20
-3.23500871675165
30
0
41
1
10
13.1534692409385
20
-3.23481951312468
30
0
41
1
10
13.0448627470954
20
-3.21404861020372
30
0
41
1
10
12.9938796455354
20
-3.19537720174844
30
0
41
1
10
12.9470150634089
20
-3.16872694932954
30
0
41
1
10
12.9460168391091
20
-3.16815456368738
30
0
41
1
10
12.9450206807897
20
-3.16757862271814
30
0
0
SPLINE
5
DB
100
AcDbEntity
8
1
62
256
6
ByLayer
370
18
48
1
60
0
100
AcDbSpline
70
4
71
3
72
18
73
14
40
0
40
0
40
0
40
0
40
0.181666908878582
40
0.181666908878582
40
0.360750617017816
40
0.360750617017816
40
0.541895453074693
40
0.541895453074693
40
0.695365105948643
40
0.695365105948643
40
0.891753383060548
40
0.891753383060548
40
1
40
1
40
1
40
1
41
1
10
15.9794641406544
20
-2.62330115627026
30
0
41
1
10
15.9526398265003
20
-2.5241484671725
30
0
41
1
10
15.9384602459352
20
-2.4187756755243
30
0
41
1
10
15.9403139531035
20
-2.20539333467693
30
0
41
1
10
15.9562426230037
20
-2.09489939684903
30
0
41
1
10
16.0211140051548
20
-1.87975418313479
30
0
41
1
10
16.0718441395717
20
-1.77191060048747
30
0
41
1
10
16.1905041217909
20
-1.59534362558287
30
0
41
1
10
16.2559542246232
20
-1.52097335760729
30
0
41
1
10
16.4168403373044
20
-1.3777247488768
30
0
41
1
10
16.5179980746868
20
-1.31347049930852
30
0
41
1
10
16.6794511603026
20
-1.24097175513927
30
0
41
1
10
16.7385601350611
20
-1.22012362684188
30
0
41
1
10
16.7981683275964
20
-1.20426677947481
30
0
0
SPLINE
5
DC
100
AcDbEntity
8
1
62
256
6
ByLayer
370
18
48
1
60
0
100
AcDbSpline
70
4
71
3
72
18
73
14
40
0
40
0
40
0
40
0
40
0.017328594490354
40
0.017328594490354
40
0.239841647765368
40
0.239841647765368
40
0.46251052775395
40
0.46251052775395
40
0.69747807977674
40
0.69747807977674
40
0.954392202348397
40
0.954392202348397
40
1
40
1
40
1
40
1
41
1
10
12.9450206807898
20
1.69257862271809
30
0
41
1
10
12.9483773076036
20
1.69451929706975
30
0
41
1
10
12.9517576061861
20
1.69641971787769
30
0
41
1
10
12.9983242480798
20
1.72186674076994
30
0
41
1
10
13.0457449432696
20
1.73893715921946
30
0
41
1
10
13.1412016837082
20
1.75773904687563
30
0
41
1
10
13.1904528627447
20
1.75973514125206
30
0
41
1
10
13.2872012098167
20
1.74951338812053
30
0
41
1
10
13.3356698281874
20
1.73642690855974
30
0
41
1
10
13.4280129849237
20
1.69617054638388
30
0
41
1
10
13.4722176447067
20
1.66734837860486
30
0
41
1
10
13.5166419676245
20
1.62736519693129
30
0
41
1
10
13.5232044293722
20
1.62111392707791
30
0
41
1
10
13.5295681283699
20
1.6147029994317
30
0
0
SPLINE
5
DD
100
AcDbEntity
8
1
62
256
6
ByLayer
370
18
48
1
60
0
100
AcDbSpline
70
4
71
3
72
12
73
8
40
0
40
0
40
0
40
0
40
0.455353062346787
40
0.455353062346787
40
0.827333545905707
40
0.827333545905707
40
1
40
1
40
1
40
1
41
1
10
15.1704318716302
20
1.6147029994317
30
0
41
1
10
15.0858278731655
20
1.52947110632388
30
0
41
1
10
14.9849078459312
20
1.45477181937443
30
0
41
1
10
14.7792931745274
20
1.35076419992239
30
0
41
1
10
14.6762317035148
20
1.31471835810527
30
0
41
1
10
14.5187586027533
20
1.28432915672514
30
0
41
1
10
14.467139749605
20
1.27787176673897
30
0
41
1
10
14.4153472699774
20
1.2749393119561
30
0
0
SPLINE
5
DE
100
AcDbEntity
8
1
62
256
6
ByLayer
370
18
48
1
60
0
100
AcDbSpline
70
4
71
3
72
12
73
8
40
0
40
0
40
0
40
0
40
0.455353062347087
40
0.455353062347087
40
0.827333545906254
40
0.827333545906254
40
1
40
1
40
1
40
1
41
1
10
13.5295681283698
20
-3.08970299943175
30
0
41
1
10
13.6141721268344
20
-3.00447110632393
30
0
41
1
10
13.7150921540688
20
-2.92977181937448
30
0
41
1
10
13.9207068254726
20
-2.82576419992245
30
0
41
1
10
14.0237682964852
20
-2.78971835810532
30
0
41
1
10
14.1812413972466
20
-2.75932915672519
30
0
41
1
10
14.2328602503949
20
-2.75287176673902
30
0
41
1
10
14.2846527300225
20
-2.74993931195616
30
0
0
SPLINE
5
DF
100
AcDbEntity
8
1
62
256
6
ByLayer
370
18
48
1
60
0
100
AcDbSpline
70
4
71
3
72
18
73
14
40
0
40
0
40
0
40
0
40
0.0157923844670974
40
0.0157923844670974
40
0.23881109546187
40
0.23881109546187
40
0.461892552251096
40
0.461892552251096
40
0.697221985203071
40
0.697221985203071
40
0.954485725072622
40
0.954485725072622
40
1
40
1
40
1
40
1
41
1
10
11.543
20
-0.737500000000011
30
0
41
1
10
11.543
20
-0.733973009604313
30
0
41
1
10
11.5430386392404
20
-0.730445759378654
30
0
41
1
10
11.5441936182627
20
-0.677732061718615
30
0
41
1
10
11.5530467858234
20
-0.628100196753707
30
0
41
1
10
11.584360559074
20
-0.535971710242592
30
0
41
1
10
11.607192396469
20
-0.492286510468432
30
0
41
1
10
11.6642947244229
20
-0.413536503190358
30
0
41
1
10
11.6997993013223
20
-0.378059186577389
30
0
41
1
10
11.7807130359746
20
-0.318109796580018
30
0
41
1
10
11.8277169007501
20
-0.294172327517885
30
0
41
1
10
11.8844720689919
20
-0.275611733985301
30
0
41
1
10
11.8931323638086
20
-0.273047392498626
30
0
41
1
10
11.9018316724035
20
-0.27073322052459
30
0
0
SPLINE
5
E0
100
AcDbEntity
8
1
62
256
6
ByLayer
370
18
48
1
60
0
100
AcDbSpline
70
4
71
3
72
16
73
12
40
0
40
0
40
0
40
0
40
0.218620732637228
40
0.218620732637228
40
0.441132096326281
40
0.441132096326281
40
0.674870839126923
40
0.674870839126923
40
0.929765351321892
40
0.929765351321892
40
1
40
1
40
1
40
1
41
1
10
15.7549793192102
20
1.69257862271809
30
0
41
1
10
15.7967322838594
20
1.66843864169058
30
0
41
1
10
15.8352928941211
20
1.63753473906291
30
0
41
1
10
15.9007677451595
20
1.56678167800939
30
0
41
1
10
15.9283171189502
20
1.52589172849633
30
0
41
1
10
15.9702916326037
20
1.43831040406985
30
0
41
1
10
15.9845563198091
20
1.39035248027656
30
0
41
1
10
15.9987611977979
20
1.29110173634047
30
0
41
1
10
15.9975238514805
20
1.23866436115145
30
0
41
1
10
15.9861524490117
20
1.17531735403247
30
0
41
1
10
15.9830886103785
20
1.16169855079946
30
0
41
1
10
15.9794641406544
20
1.14830115627018
30
0
0
SPLINE
5
E1
100
AcDbEntity
8
1
62
256
6
ByLayer
370
18
48
1
60
0
100
AcDbSpline
70
4
71
1
72
4
73
2
40
0
40
0
40
1
40
1
41
1
10
31.3091929675629
20
10.5425173322104
30
0
41
1
10
31.9378609675626
20
10.5425167515346
30
0
0
SPLINE
5
E2
100
AcDbEntity
8
1
62
256
6
ByLayer
370
18
48
1
60
0
100
AcDbSpline
70
4
71
1
72
4
73
2
40
0
40
0
40
1
40
1
41
1
10
31.30919295953
20
10.5825000006976
30
0
41
1
10
31.93786095953
20
10.5825000006976
30
0
0
SPLINE
5
E3
100
AcDbEntity
8
1
62
256
6
ByLayer
370
18
48
1
60
0
100
AcDbSpline
70
4
71
1
72
4
73
2
40
0
40
0
40
1
40
1
41
1
10
31.938795726169
20
10.5624782250306
30
0
41
1
10
31.3091697261693
20
10.5624788065912
30
0
0
SPLINE
5
E4
100
AcDbEntity
8
1
62
256
6
ByLayer
370
18
48
1
60
0
100
AcDbSpline
70
4
71
3
72
9
73
5
40
0
40
0
40
0
40
0
40
0.508401852135509
40
1
40
1
40
1
40
1
41
1
10
31.74894541544
20
10.1347674762619
30
0
41
1
10
31.7914845492581
20
10.1517963411387
30
0
41
1
10
31.8751568129201
20
10.1852912326409
30
0
41
1
10
31.9112183917287
20
10.2968984913556
30
0
41
1
10
31.92894619708
20
10.351764413028
30
0
0
SPLINE
5
E5
100
AcDbEntity
8
1
62
256
6
ByLayer
370
18
48
1
60
0
100
AcDbSpline
70
4
71
1
72
4
73
2
40
0
40
0
40
1
40
1
41
1
10
31.93786096756
20
10.5425167515348
30
0
41
1
10
31.9387947927897
20
10.5624988196874
30
0
0
SPLINE
5
E6
100
AcDbEntity
8
1
62
256
6
ByLayer
370
18
48
1
60
0
100
AcDbSpline
70
4
71
3
72
9
73
5
40
0
40
0
40
0
40
0
40
0.500000000003078
40
1
40
1
40
1
40
1
41
1
10
31.9289461971197
20
10.3517644130239
30
0
41
1
10
31.9304319908543
20
10.3835016225931
30
0
41
1
10
31.9334035783235
20
10.446976041731
30
0
41
1
10
31.9363751657928
20
10.510658680112
30
0
41
1
10
31.9378609595274
20
10.5424999993024
30
0
0
SPLINE
5
E7
100
AcDbEntity
8
1
62
256
6
ByLayer
370
18
48
1
60
0
100
AcDbSpline
70
4
71
3
72
9
73
5
40
0
40
0
40
0
40
0
40
0.500000000004192
40
1
40
1
40
1
40
1
41
1
10
31.7489454154515
20
10.9902325237019
30
0
41
1
10
31.722474285945
20
10.9983440346986
30
0
41
1
10
31.6695320269324
20
11.0145670566918
30
0
41
1
10
31.6165897679186
20
11.0352459201178
30
0
41
1
10
31.5901186384119
20
11.0455853518307
30
0
0
SPLINE
5
E8
100
AcDbEntity
8
1
62
256
6
ByLayer
370
18
48
1
60
0
100
AcDbSpline
70
4
71
3
72
9
73
5
40
0
40
0
40
0
40
0
40
0.500000000005507
40
1
40
1
40
1
40
1
41
1
10
31.5901186384086
20
11.0455853518237
30
0
41
1
10
31.5833526361321
20
11.0494044025522
30
0
41
1
10
31.5698206315792
20
11.0570425040092
30
0
41
1
10
31.5562886270259
20
11.0699392134353
30
0
41
1
10
31.5495226247493
20
11.0763875681483
30
0
0
SPLINE
5
E9
100
AcDbEntity
8
1
62
256
6
ByLayer
370
18
48
1
60
0
100
AcDbSpline
70
4
71
3
72
9
73
5
40
0
40
0
40
0
40
0
40
0.500000000002822
40
1
40
1
40
1
40
1
41
1
10
31.4579588007406
20
9.91256616623519
30
0
41
1
10
31.4612475631714
20
9.92055111242826
30
0
41
1
10
31.467825088033
20
9.9365210048143
30
0
41
1
10
31.4744026128948
20
9.95006374335375
30
0
41
1
10
31.4776913753256
20
9.95683511262342
30
0
0
SPLINE
5
EA
100
AcDbEntity
8
1
62
256
6
ByLayer
370
18
48
1
60
0
100
AcDbSpline
70
4
71
1
72
4
73
2
40
0
40
0
40
1
40
1
41
1
10
31.7489454156121
20
10.1347674762954
30
0
41
1
10
31.5901186385837
20
10.0794146481677
30
0
0
SPLINE
5
EB
100
AcDbEntity
8
1
62
256
6
ByLayer
370
18
48
1
60
0
100
AcDbSpline
70
4
71
1
72
4
73
2
40
0
40
0
40
1
40
1
41
1
10
31.5901186385804
20
10.0794146481776
30
0
41
1
10
31.5495226249244
20
10.0486124318527
30
0
0
SPLINE
5
EC
100
AcDbEntity
8
1
62
256
6
ByLayer
370
18
48
1
60
0
100
AcDbSpline
70
4
71
1
72
4
73
2
40
0
40
0
40
1
40
1
41
1
10
31.4579588008955
20
11.2124338337644
30
0
41
1
10
31.4776913754804
20
11.1681648873745
30
0
0
SPLINE
5
ED
100
AcDbEntity
8
1
62
256
6
ByLayer
370
18
48
1
60
0
100
AcDbSpline
70
4
71
2
72
10
73
7
40
0
40
0
40
0
40
0.5
40
0.5
40
0.75
40
0.75
40
1
40
1
40
1
41
1
10
31.7489454155826
20
10.9902325237379
30
0
41
1
10
31.8169715460756
20
10.9703580902116
30
0
41
1
10
31.8642406803685
20
10.9189549670098
30
0
41
1
10
31.8902924738664
20
10.8906247771124
30
0
41
1
10
31.9069308141758
20
10.854831796724
30
0
41
1
10
31.9248324859036
20
10.8163210935437
30
0
41
1
10
31.9289461972167
20
10.773235586972
30
0
0
SPLINE
5
EE
100
AcDbEntity
8
1
62
256
6
ByLayer
370
18
48
1
60
0
100
AcDbSpline
70
4
71
1
72
4
73
2
40
0
40
0
40
1
40
1
41
1
10
31.9289461972559
20
10.7732355869756
30
0
41
1
10
31.9378609596677
20
10.5825000006975
30
0
0
SPLINE
5
EF
100
AcDbEntity
8
1
62
256
6
ByLayer
370
18
48
1
60
0
100
AcDbSpline
70
4
71
1
72
4
73
2
40
0
40
0
40
1
40
1
41
1
10
31.9378609596677
20
10.5825000006975
30
0
41
1
10
31.9387947837193
20
10.5625203905035
30
0
0
SPLINE
5
F0
100
AcDbEntity
8
1
62
256
6
ByLayer
370
18
48
1
60
0
100
AcDbSpline
70
4
71
1
72
4
73
2
40
0
40
0
40
1
40
1
41
1
10
31.157990177235
20
12.921213653767
30
0
41
1
10
31.1595104889495
20
12.9038490263303
30
0
0
SPLINE
5
F1
100
AcDbEntity
8
1
62
256
6
ByLayer
370
18
48
1
60
0
100
AcDbSpline
70
4
71
3
72
8
73
4
40
0
40
0
40
0
40
0
40
1
40
1
40
1
40
1
41
1
10
31.1579901775982
20
8.2037862755638
30
0
41
1
10
31.1584969480697
20
8.2095922455951
30
0
41
1
10
31.1590037185413
20
8.21539794855059
30
0
41
1
10
31.1595104890128
20
8.2211157156182
30
0
0
LINE
5
72
100
AcDbEntity
8
80
62
256
6
ByLayer
370
18
48
1
60
0
100
AcDbLine
10
0
20
0
30
0
11
-5
21
0
31
0
39
0
210
0
220
0
230
1
0
LINE
5
73
100
AcDbEntity
8
81
62
256
6
ByLayer
370
18
48
1
60
0
100
AcDbLine
10
39
20
13.5625
30
0
11
44
21
13.5625
31
0
39
0
210
0
220
0
230
1
0
LINE
5
74
100
AcDbEntity
8
1
62
256
6
ByLayer
370
18
48
1
60
0
100
AcDbLine
10
31.96175
20
7.8875
30
0
11
33.646988
21
7.8875
31
0
39
0
210
0
220
0
230
1
0
LINE
5
76
100
AcDbEntity
8
1
62
256
6
ByLayer
370
18
48
1
60
0
100
AcDbLine
10
0
20
-12.4375
30
0
11
0
21
12.4375
31
0
39
0
210
0
220
0
230
1
0
LINE
5
77
100
AcDbEntity
8
1
62
256
6
ByLayer
370
18
48
1
60
0
100
AcDbLine
10
21.5
20
6.2875
30
0
11
21.5
21
-6.8875
31
0
39
0
210
0
220
0
230
1
0
LINE
5
78
100
AcDbEntity
8
1
62
256
6
ByLayer
370
18
48
1
60
0
100
AcDbLine
10
23.1
20
7.8875
30
0
11
30.736785
21
7.8875
31
0
39
0
210
0
220
0
230
1
0
LINE
5
79
100
AcDbEntity
8
1
62
256
6
ByLayer
370
18
48
1
60
0
100
AcDbLine
10
2.710581
20
-12.475679
30
0
11
11.820989
21
-12.475679
31
0
39
0
210
0
220
0
230
1
0
LINE
5
7A
100
AcDbEntity
8
1
62
256
6
ByLayer
370
18
48
1
60
0
100
AcDbLine
10
20.927364
20
13.2375
30
0
11
30.736785
21
13.2375
31
0
39
0
210
0
220
0
230
1
0
LINE
5
7B
100
AcDbEntity
8
1
62
256
6
ByLayer
370
18
48
1
60
0
100
AcDbLine
10
2.710581
20
13.2375
30
0
11
2.710581
21
-12.475679
31
0
39
0
210
0
220
0
230
1
0
LINE
5
7C
100
AcDbEntity
8
1
62
256
6
ByLayer
370
18
48
1
60
0
100
AcDbLine
10
11.820989
20
-12.475679
30
0
11
21.5
21
-6.8875
31
0
39
0
210
0
220
0
230
1
0
LINE
5
7D
100
AcDbEntity
8
1
62
256
6
ByLayer
370
18
48
1
60
0
100
AcDbLine
10
31.961527
20
7.962526
30
0
11
31.96175
21
7.8875
31
0
39
0
210
0
220
0
230
1
0
LINE
5
7E
100
AcDbEntity
8
1
62
256
6
ByLayer
370
18
48
1
60
0
100
AcDbLine
10
0.580385
20
13.2375
30
0
11
0.5
21
12.9375
31
0
39
0
210
0
220
0
230
1
0
LINE
5
7F
100
AcDbEntity
8
1
62
256
6
ByLayer
370
18
48
1
60
0
100
AcDbLine
10
0.580385
20
13.2375
30
0
11
2.710581
21
13.2375
31
0
39
0
210
0
220
0
230
1
0
LINE
5
80
100
AcDbEntity
8
1
62
256
6
ByLayer
370
18
48
1
60
0
100
AcDbLine
10
0.5
20
-12.439682
30
0
11
0
21
-12.4375
31
0
39
0
210
0
220
0
230
1
0
LINE
5
81
100
AcDbEntity
8
1
62
256
6
ByLayer
370
18
48
1
60
0
100
AcDbLine
10
20.927364
20
6.2875
30
0
11
20.927364
21
13.2375
31
0
39
0
210
0
220
0
230
1
0
LINE
5
82
100
AcDbEntity
8
1
62
256
6
ByLayer
370
18
48
1
60
0
100
AcDbLine
10
0.5
20
12.9375
30
0
11
0.5
21
-12.439682
31
0
39
0
210
0
220
0
230
1
0
LINE
5
83
100
AcDbEntity
8
1
62
256
6
ByLayer
370
18
48
1
60
0
100
AcDbLine
10
31.309223
20
10.2875
30
0
11
31.309223
21
10.8375
31
0
39
0
210
0
220
0
230
1
0
LINE
5
84
100
AcDbEntity
8
1
62
256
6
ByLayer
370
18
48
1
60
0
100
AcDbLine
10
30.736764
20
13.2375
30
0
11
31.96175
21
13.2375
31
0
39
0
210
0
220
0
230
1
0
LINE
5
85
100
AcDbEntity
8
1
62
256
6
ByLayer
370
18
48
1
60
0
100
AcDbLine
10
31.96175
20
13.2375
30
0
11
33.646988
21
13.2375
31
0
39
0
210
0
220
0
230
1
0
LINE
5
86
100
AcDbEntity
8
1
62
256
6
ByLayer
370
18
48
1
60
0
100
AcDbLine
10
21.5
20
6.2875
30
0
11
20.927364
21
6.2875
31
0
39
0
210
0
220
0
230
1
0
LINE
5
87
100
AcDbEntity
8
1
62
256
6
ByLayer
370
18
48
1
60
0
100
AcDbLine
10
30.736764
20
7.8875
30
0
11
31.96175
21
7.8875
31
0
39
0
210
0
220
0
230
1
0
LINE
5
88
100
AcDbEntity
8
1
62
256
6
ByLayer
370
18
48
1
60
0
100
AcDbLine
10
0.5
20
-12.439682
30
0
11
2.710581
21
-12.475679
31
0
39
0
210
0
220
0
230
1
0
LINE
5
89
100
AcDbEntity
8
1
62
256
6
ByLayer
370
18
48
1
60
0
100
AcDbLine
10
20.927364
20
13.2375
30
0
11
2.710581
21
13.2375
31
0
39
0
210
0
220
0
230
1
0
LINE
5
8A
100
AcDbEntity
8
1
62
256
6
ByLayer
370
18
48
1
60
0
100
AcDbLine
10
0.5
20
12.9375
30
0
11
0
21
12.4375
31
0
39
0
210
0
220
0
230
1
0
LINE
5
8B
100
AcDbEntity
8
1
62
256
6
ByLayer
370
18
48
1
60
0
100
AcDbLine
10
31.96175
20
13.2375
30
0
11
31.961527
21
13.162474
31
0
39
0
210
0
220
0
230
1
0
LINE
5
8C
100
AcDbEntity
8
SK1
62
256
6
ByLayer
370
18
48
1
60
0
100
AcDbLine
10
-132.35
20
12.4375
30
0
11
-132.35
21
-12.4375
31
0
39
0
210
0
220
0
230
1
0
LINE
5
8E
100
AcDbEntity
8
SK1
62
256
6
ByLayer
370
18
48
1
60
0
100
AcDbLine
10
0
20
12.4375
30
0
11
-132.35
21
12.4375
31
0
39
0
210
0
220
0
230
1
0
LINE
5
8F
100
AcDbEntity
8
SK1
62
256
6
ByLayer
370
18
48
1
60
0
100
AcDbLine
10
0
20
12.4375
30
0
11
0
21
-12.4375
31
0
39
0
210
0
220
0
230
1
0
LINE
5
90
100
AcDbEntity
8
SK1
62
256
6
ByLayer
370
18
48
1
60
0
100
AcDbLine
10
-132.35
20
-12.4375
30
0
11
0
21
-12.4375
31
0
39
0
210
0
220
0
230
1
0
LINE
5
91
100
AcDbEntity
8
1
62
256
6
ByLayer
370
18
48
1
60
0
100
AcDbLine
10
30.785041
20
8.221116
30
0
11
31.15971
21
8.221116
31
0
39
0
210
0
220
0
230
1
0
LINE
5
92
100
AcDbEntity
8
1
62
256
6
ByLayer
370
18
48
1
60
0
100
AcDbLine
10
30.782625
20
8.203751
30
0
11
31.158191
21
8.203751
31
0
39
0
210
0
220
0
230
1
0
LINE
5
93
100
AcDbEntity
8
1
62
256
6
ByLayer
370
18
48
1
60
0
100
AcDbLine
10
30.785186
20
12.903884
30
0
11
31.15971
21
12.903884
31
0
39
0
210
0
220
0
230
1
0
LINE
5
94
100
AcDbEntity
8
1
62
256
6
ByLayer
370
18
48
1
60
0
100
AcDbLine
10
30.782625
20
12.921249
30
0
11
31.158191
21
12.921249
31
0
39
0
210
0
220
0
230
1
0
LINE
5
95
100
AcDbEntity
8
1
62
256
6
ByLayer
370
18
48
1
60
0
100
AcDbLine
10
30.747543
20
13.1625
30
0
11
31.158191
21
13.1625
31
0
39
0
210
0
220
0
230
1
0
LINE
5
96
100
AcDbEntity
8
1
62
256
6
ByLayer
370
18
48
1
60
0
100
AcDbLine
10
30.747543
20
7.9625
30
0
11
31.158191
21
7.9625
31
0
39
0
210
0
220
0
230
1
0
LINE
5
97
100
AcDbEntity
8
1
62
256
6
ByLayer
370
18
48
1
60
0
100
AcDbLine
10
31.03018
20
9.912566
30
0
11
31.457959
21
9.912566
31
0
39
0
210
0
220
0
230
1
0
LINE
5
98
100
AcDbEntity
8
1
62
256
6
ByLayer
370
18
48
1
60
0
100
AcDbLine
10
31.03018
20
11.212434
30
0
11
31.457959
21
11.212434
31
0
39
0
210
0
220
0
230
1
0
LINE
5
99
100
AcDbEntity
8
1
62
256
6
ByLayer
370
18
48
1
60
0
100
AcDbLine
10
31.036543
20
9.956835
30
0
11
31.477691
21
9.956835
31
0
39
0
210
0
220
0
230
1
0
LINE
5
9A
100
AcDbEntity
8
1
62
256
6
ByLayer
370
18
48
1
60
0
100
AcDbLine
10
31.036543
20
11.168165
30
0
11
31.477691
21
11.168165
31
0
39
0
210
0
220
0
230
1
0
LINE
5
9B
100
AcDbEntity
8
1
62
256
6
ByLayer
370
18
48
1
60
0
100
AcDbLine
10
31.065952
20
11.076388
30
0
11
31.549523
21
11.076388
31
0
39
0
210
0
220
0
230
1
0
LINE
5
9C
100
AcDbEntity
8
1
62
256
6
ByLayer
370
18
48
1
60
0
100
AcDbLine
10
31.066189
20
10.048612
30
0
11
31.549523
21
10.048612
31
0
39
0
210
0
220
0
230
1
0
LINE
5
9D
100
AcDbEntity
8
1
62
256
6
ByLayer
370
18
48
1
60
0
100
AcDbLine
10
31.092957
20
10.079415
30
0
11
31.590119
21
10.079415
31
0
39
0
210
0
220
0
230
1
0
LINE
5
9E
100
AcDbEntity
8
1
62
256
6
ByLayer
370
18
48
1
60
0
100
AcDbLine
10
31.092241
20
11.045585
30
0
11
31.590119
21
11.045585
31
0
39
0
210
0
220
0
230
1
0
LINE
5
9F
100
AcDbEntity
8
1
62
256
6
ByLayer
370
18
48
1
60
0
100
AcDbLine
10
31.224051
20
10.990233
30
0
11
31.748945
21
10.990233
31
0
39
0
210
0
220
0
230
1
0
LINE
5
A0
100
AcDbEntity
8
1
62
256
6
ByLayer
370
18
48
1
60
0
100
AcDbLine
10
31.309198
20
10.773236
30
0
11
31.928946
21
10.773236
31
0
39
0
210
0
220
0
230
1
0
LINE
5
A1
100
AcDbEntity
8
1
62
256
6
ByLayer
370
18
48
1
60
0
100
AcDbLine
10
31.309198
20
10.351764
30
0
11
31.928946
21
10.351764
31
0
39
0
210
0
220
0
230
1
0
LINE
5
A2
100
AcDbEntity
8
1
62
256
6
ByLayer
370
18
48
1
60
0
100
AcDbLine
10
19.353047
20
13.237504
30
0
11
19.069725
21
13.40108
31
0
39
0
210
0
220
0
230
1
0
LINE
5
A3
100
AcDbEntity
8
1
62
256
6
ByLayer
370
18
48
1
60
0
100
AcDbLine
10
31.224789
20
10.134767
30
0
11
31.748945
21
10.134767
31
0
39
0
210
0
220
0
230
1
0
LINE
5
A4
100
AcDbEntity
8
1
62
256
6
ByLayer
370
18
48
1
60
0
100
AcDbLine
10
19.069725
20
13.40108
30
0
11
14.869725
21
13.584456
31
0
39
0
210
0
220
0
230
1
0
LINE
5
A5
100
AcDbEntity
8
1
62
256
6
ByLayer
370
18
48
1
60
0
100
AcDbLine
10
31.477691
20
9.956835
30
0
11
31.549523
21
10.048612
31
0
39
0
210
0
220
0
230
1
0
LINE
5
A6
100
AcDbEntity
8
1
62
256
6
ByLayer
370
18
48
1
60
0
100
AcDbLine
10
31.158191
20
7.9625
30
0
11
31.158191
21
8.203751
31
0
39
0
210
0
220
0
230
1
0
LINE
5
A7
100
AcDbEntity
8
1
62
256
6
ByLayer
370
18
48
1
60
0
100
AcDbLine
10
31.158191
20
7.9625
30
0
11
32.63
21
7.9625
31
0
39
0
210
0
220
0
230
1
0
LINE
5
A8
100
AcDbEntity
8
1
62
256
6
ByLayer
370
18
48
1
60
0
100
AcDbLine
10
32.63
20
7.9625
30
0
11
33.517043
21
7.9625
31
0
39
0
210
0
220
0
230
1
0
LINE
5
A9
100
AcDbEntity
8
1
62
256
6
ByLayer
370
18
48
1
60
0
100
AcDbLine
10
33.517043
20
7.9625
30
0
11
33.930275
21
7.72392
31
0
39
0
210
0
220
0
230
1
0
LINE
5
AA
100
AcDbEntity
8
1
62
256
6
ByLayer
370
18
48
1
60
0
100
AcDbLine
10
33.930275
20
7.72392
30
0
11
38.130275
21
7.540544
31
0
39
0
210
0
220
0
230
1
0
LINE
5
AB
100
AcDbEntity
8
1
62
256
6
ByLayer
370
18
48
1
60
0
100
AcDbLine
10
31.158191
20
13.1625
30
0
11
32.63
21
13.1625
31
0
39
0
210
0
220
0
230
1
0
LINE
5
AC
100
AcDbEntity
8
1
62
256
6
ByLayer
370
18
48
1
60
0
100
AcDbLine
10
32.63
20
13.1625
30
0
11
33.517043
21
13.1625
31
0
39
0
210
0
220
0
230
1
0
LINE
5
AD
100
AcDbEntity
8
1
62
256
6
ByLayer
370
18
48
1
60
0
100
AcDbLine
10
33.930275
20
13.40108
30
0
11
38.130275
21
13.584456
31
0
39
0
210
0
220
0
230
1
0
LINE
5
AE
100
AcDbEntity
8
1
62
256
6
ByLayer
370
18
48
1
60
0
100
AcDbLine
10
31.15971
20
12.903884
30
0
11
31.457959
21
11.212434
31
0
39
0
210
0
220
0
230
1
0
LINE
5
AF
100
AcDbEntity
8
1
62
256
6
ByLayer
370
18
48
1
60
0
100
AcDbLine
10
31.477691
20
11.168165
30
0
11
31.549523
21
11.076388
31
0
39
0
210
0
220
0
230
1
0
LINE
5
B0
100
AcDbEntity
8
1
62
256
6
ByLayer
370
18
48
1
60
0
100
AcDbLine
10
31.158191
20
13.1625
30
0
11
31.158191
21
12.921249
31
0
39
0
210
0
220
0
230
1
0
LINE
5
B1
100
AcDbEntity
8
1
62
256
6
ByLayer
370
18
48
1
60
0
100
AcDbLine
10
39
20
8.3375
30
0
11
39
21
12.7875
31
0
39
0
210
0
220
0
230
1
0
LINE
5
B2
100
AcDbEntity
8
1
62
256
6
ByLayer
370
18
48
1
60
0
100
AcDbLine
10
32.63
20
13.1625
30
0
11
32.63
21
7.9625
31
0
39
0
210
0
220
0
230
1
0
LINE
5
B3
100
AcDbEntity
8
1
62
256
6
ByLayer
370
18
48
1
60
0
100
AcDbLine
10
33.517043
20
13.1625
30
0
11
33.930275
21
13.40108
31
0
39
0
210
0
220
0
230
1
0
LINE
5
B4
100
AcDbEntity
8
1
62
256
6
ByLayer
370
18
48
1
60
0
100
AcDbLine
10
31.15971
20
8.221116
30
0
11
31.457959
21
9.912566
31
0
39
0
210
0
220
0
230
1
0
MTEXT
5
F2
100
AcDbEntity
8
SK6
62
256
6
ByLayer
370
18
48
1
60
0
100
AcDbMText
10
-75.8
20
-23.31909
30
0
210
0
220
0
230
1
1
\W0.7482;RF123K16-3225BM
40
3.5
41
0
44
1.084337
50
0
71
7
72
5
7
iso_b_vert
0
DIMENSION
5
103
100
AcDbEntity
8
2
62
256
6
ByLayer
370
13
48
1
60
0
100
AcDbDimension
2
DimnDraft3D1
10
53.25
20
13.5625
30
0
11
53.25
21
9.555921
31
0
70
32
71
5
72
1
41
1
210
0
220
0
230
1
3
Standard
100
AcDbAlignedDimension
13
40.5
23
7.5625
33
0
14
40.5
24
13.5625
34
0
50
90
100
AcDbRotatedDimension
1001
ACAD
1000
DSTYLE
1002
{
1070
    74
1070
     0
1070
   279
1070
     0
1070
   172
1070
     1
1070
   173
1070
     1
1070
   340
1005
F3
1070
   271
1070
     3
1070
   272
1070
     3
1070
    77
1070
     1
1070
    73
1070
     0
1070
   171
1070
     4
1070
   274
1070
     4
1070
   177
1070
     2
1070
   176
1070
     2
1070
   178
1070
     7
1070
    78
1070
     8
1070
    41
1041
3.0
1070
   147
1041
2.25
1070
    42
1041
1.5
1070
    44
1041
3.0
1070
   140
1041
4.5
1070
   343
1005
104
1070
   344
1005
104
1002
}
0
DIMENSION
5
118
100
AcDbEntity
8
2
62
256
6
ByLayer
370
13
48
1
60
0
100
AcDbDimension
2
DimnDraft3D2
10
63.25
20
-12.4375
30
0
11
63.25
21
-2.125658
31
0
70
32
71
5
72
1
41
1
210
0
220
0
230
1
3
Standard
100
AcDbAlignedDimension
13
40.5
23
13.5625
33
0
14
-3.5
24
-12.4375
34
0
50
90
100
AcDbRotatedDimension
1001
ACAD
1000
DSTYLE
1002
{
1070
    74
1070
     0
1070
   279
1070
     0
1070
   172
1070
     1
1070
   173
1070
     1
1070
   340
1005
F3
1070
   271
1070
     3
1070
   272
1070
     3
1070
    77
1070
     1
1070
    73
1070
     0
1070
   171
1070
     4
1070
   274
1070
     4
1070
   177
1070
     2
1070
   176
1070
     2
1070
   178
1070
     7
1070
    78
1070
     8
1070
    41
1041
3.0
1070
   147
1041
2.25
1070
    42
1041
1.5
1070
    44
1041
3.0
1070
   140
1041
4.5
1070
   343
1005
104
1070
   344
1005
104
1002
}
0
DIMENSION
5
127
100
AcDbEntity
8
SK2
62
256
6
ByLayer
370
13
48
1
60
0
100
AcDbDimension
2
DimnDraft3D3
10
-142.1
20
-12.4375
30
0
11
-142.1
21
-2.688158
31
0
70
32
71
5
72
1
41
1
210
0
220
0
230
1
3
Standard
100
AcDbAlignedDimension
13
-133.85
23
12.4375
33
0
14
-133.85
24
-12.4375
34
0
50
90
100
AcDbRotatedDimension
1001
ACAD
1000
DSTYLE
1002
{
1070
    74
1070
     0
1070
   279
1070
     0
1070
   172
1070
     1
1070
   173
1070
     1
1070
   340
1005
F3
1070
   271
1070
     3
1070
   272
1070
     3
1070
    77
1070
     1
1070
    73
1070
     0
1070
   171
1070
     4
1070
   274
1070
     4
1070
   177
1070
     2
1070
   176
1070
     2
1070
   178
1070
     7
1070
    78
1070
     8
1070
    41
1041
3.0
1070
   147
1041
2.25
1070
    42
1041
1.5
1070
    44
1041
3.0
1070
   140
1041
4.5
1070
   343
1005
104
1070
   344
1005
104
1002
}
0
DIMENSION
5
135
100
AcDbEntity
8
2
62
256
6
ByLayer
370
13
48
1
60
0
100
AcDbDimension
2
DimnDraft3D4
10
0
20
23.3125
30
0
11
16.811842
21
23.3125
31
0
70
32
71
5
72
1
41
1
210
0
220
0
230
1
3
Standard
100
AcDbAlignedDimension
13
39
23
15.0625
33
0
14
0
24
13.9375
34
0
50
0
100
AcDbRotatedDimension
1001
ACAD
1000
DSTYLE
1002
{
1070
   279
1070
     0
1070
   172
1070
     1
1070
   173
1070
     1
1070
   340
1005
F3
1070
   271
1070
     3
1070
   272
1070
     3
1070
    77
1070
     1
1070
    73
1070
     0
1070
   171
1070
     4
1070
   274
1070
     4
1070
   177
1070
     2
1070
   176
1070
     2
1070
   178
1070
     7
1070
    78
1070
     8
1070
    41
1041
3.0
1070
   147
1041
2.25
1070
    42
1041
1.5
1070
    44
1041
3.0
1070
   140
1041
4.5
1070
   343
1005
104
1070
   344
1005
104
1002
}
0
DIMENSION
5
143
100
AcDbEntity
8
SK2
62
256
6
ByLayer
370
13
48
1
60
0
100
AcDbDimension
2
DimnDraft3D5
10
-132.35
20
33.3125
30
0
11
-50.482237
21
33.3125
31
0
70
32
71
5
72
1
41
1
210
0
220
0
230
1
3
Standard
100
AcDbAlignedDimension
13
39
23
15.0625
33
0
14
-132.35
24
13.9375
34
0
50
0
100
AcDbRotatedDimension
1001
ACAD
1000
DSTYLE
1002
{
1070
   279
1070
     0
1070
   172
1070
     1
1070
   173
1070
     1
1070
   340
1005
F3
1070
   271
1070
     3
1070
   272
1070
     3
1070
    77
1070
     1
1070
    73
1070
     0
1070
   171
1070
     4
1070
   274
1070
     4
1070
   177
1070
     2
1070
   176
1070
     2
1070
   178
1070
     7
1070
    78
1070
     8
1070
    41
1041
3.0
1070
   147
1041
2.25
1070
    42
1041
1.5
1070
    44
1041
3.0
1070
   140
1041
4.5
1070
   343
1005
104
1070
   344
1005
104
1002
}
0
DIMENSION
5
151
100
AcDbEntity
8
2
62
256
6
ByLayer
370
13
48
1
60
0
100
AcDbDimension
2
DimnDraft3D6
10
39
20
-26.6875
30
0
11
28.874342
21
-26.6875
31
0
70
32
71
5
72
1
41
1
210
0
220
0
230
1
3
Standard
100
AcDbAlignedDimension
13
23
23
5.0625
33
0
14
39
24
6.0625
34
0
50
0
100
AcDbRotatedDimension
1001
ACAD
1000
DSTYLE
1002
{
1070
   279
1070
     0
1070
   172
1070
     1
1070
   173
1070
     1
1070
   340
1005
F3
1070
   271
1070
     3
1070
   272
1070
     3
1070
    77
1070
     1
1070
    73
1070
     0
1070
   171
1070
     4
1070
   274
1070
     4
1070
   177
1070
     2
1070
   176
1070
     2
1070
   178
1070
     7
1070
    78
1070
     8
1070
    41
1041
3.0
1070
   147
1041
2.25
1070
    42
1041
1.5
1070
    44
1041
3.0
1070
   140
1041
4.5
1070
   343
1005
104
1070
   344
1005
104
1002
}
0
ENDSEC
0
SECTION
2
OBJECTS
0
DICTIONARY
5
1bb
330
0
100
AcDbDictionary
280
0
281
1
3
ACAD_GROUP
350
1bc
3
ACAD_MLINESTYLE
350
1bd
0
DICTIONARY
5
1bc
330
0
100
AcDbDictionary
280
0
281
1
0
DICTIONARY
5
1bd
330
0
100
AcDbDictionary
280
0
281
1
3
Standard
350
18
0
MLINESTYLE
5
18
330
1bd
100
AcDbMlineStyle
2
Standard
70
0
3

62
256
51
90
52
90
71
2
49
-0.5
62
256
6
ByLayer
49
0.5
62
256
6
ByLayer
0
RASTERVARIABLES
5
1aa
330

100
AcDbRasterVariables
90
0
70
1
71
1
72
1
0
ENDSEC
0
EOF
