0
SECTION
2
HEADER
9
$ACADVER
1
AC1015
9
$DWGCODEPAGE
3
ANSI_1252
9
$HANDSEED
5
1d7
9
$ANGBASE
50
0
9
$ANGDIR
70
0
9
$ATTMODE
70
1
9
$AUNITS
70
0
9
$AUPREC
70
0
9
$CECOLOR
62
256
9
$CELTSCALE
40
1
9
$CELTYPE
6
ByLayer
9
$CELWEIGHT
370
18
9
$CLAYER
8
0
9
$CMLJUST
70
0
9
$CMLSCALE
40
1
9
$CMLSTYLE
2
Standard
9
$DIMSTYLE
2
Standard
9
$TEXTSIZE
40
0.2
9
$TEXTSTYLE
7
Standard
9
$LUNITS
70
2
9
$LUPREC
70
4
9
$EXTNAMES
290
1
9
$INSUNITS
70
4
9
$LTSCALE
40
1
9
$LWDISPLAY
290
1
9
$PDMODE
70
0
9
$PDSIZE
40
0
9
$PLINEGEN
70
0
0
ENDSEC
0
SECTION
2
CLASSES
0
CLASS
1
RASTERVARIABLES
2
AcDbRasterVariables
3
ISM
90
0
280
0
281
0
0
ENDSEC
0
SECTION
2
TABLES
0
TABLE
2
VPORT
5
1cd
100
AcDbSymbolTable
0
VPORT
5
1
100
AcDbSymbolTableRecord
100
AcDbViewportTableRecord
2
*Active
70
0
10
0
20
0
11
1
21
1
12
-1
22
1
13
0
23
0
14
0.5
24
0.5
15
10
25
10
16
0
26
0
36
1
17
0
27
0
37
0
0
ENDTAB
0
TABLE
2
LTYPE
5
1ce
100
AcDbSymbolTable
0
LTYPE
5
14
100
AcDbSymbolTableRecord
100
AcDbLinetypeTableRecord
70
0
2
ByBlock
3

72
65
73
0
40
0
0
LTYPE
5
15
100
AcDbSymbolTableRecord
100
AcDbLinetypeTableRecord
70
0
2
ByLayer
3

72
65
73
0
40
0
0
LTYPE
5
16
100
AcDbSymbolTableRecord
100
AcDbLinetypeTableRecord
70
0
2
CONTINUOUS
3
Solid line
72
65
73
0
40
0
0
LTYPE
5
6A
100
AcDbSymbolTableRecord
100
AcDbLinetypeTableRecord
70
0
2
CENTER
3
____ _ ____ _ ____ _ ____
72
65
73
4
40
47.5
49
22
74
0
49
-8.5
74
0
49
8.5
74
0
49
-8.5
74
0
0
LTYPE
5
6B
100
AcDbSymbolTableRecord
100
AcDbLinetypeTableRecord
70
0
2
DASHED
3
__ __ __ __ __ __ __ __ __
72
65
73
2
40
25.72
49
12.86
74
0
49
-12.86
74
0
0
ENDTAB
0
TABLE
2
LAYER
5
1cf
100
AcDbSymbolTable
0
LAYER
5
10
100
AcDbSymbolTableRecord
100
AcDbLayerTableRecord
2
0
70
0
62
7
6
CONTINUOUS
290
1
370
-3
390
0
0
LAYER
5
6D
100
AcDbSymbolTableRecord
100
AcDbLayerTableRecord
2
80
70
0
62
-6
6
CONTINUOUS
290
1
370
-3
390
0
0
LAYER
5
6F
100
AcDbSymbolTableRecord
100
AcDbLayerTableRecord
2
2
70
0
62
7
6
CONTINUOUS
290
1
370
-3
390
0
0
LAYER
5
71
100
AcDbSymbolTableRecord
100
AcDbLayerTableRecord
2
81
70
0
62
-3
6
CONTINUOUS
290
1
370
-3
390
0
0
LAYER
5
75
100
AcDbSymbolTableRecord
100
AcDbLayerTableRecord
2
1
70
0
62
4
6
CONTINUOUS
290
1
370
-3
390
0
0
LAYER
5
1ba
100
AcDbSymbolTableRecord
100
AcDbLayerTableRecord
2
SK1
70
0
62
4
6
CONTINUOUS
290
1
370
-3
390
0
0
LAYER
5
1bb
100
AcDbSymbolTableRecord
100
AcDbLayerTableRecord
2
SK6
70
0
62
5
6
CONTINUOUS
290
1
370
-3
390
0
0
LAYER
5
1bc
100
AcDbSymbolTableRecord
100
AcDbLayerTableRecord
2
SK2
70
0
62
7
6
CONTINUOUS
290
1
370
-3
390
0
0
ENDTAB
0
TABLE
2
STYLE
5
1d0
100
AcDbSymbolTable
0
STYLE
5
11
100
AcDbSymbolTableRecord
100
AcDbTextStyleTableRecord
2
Standard
3
txt
70
0
71
0
40
0
41
1
42
0
50
0
0
STYLE
5
102
100
AcDbSymbolTableRecord
100
AcDbTextStyleTableRecord
2
iso_b_vert
3
simplex.shx
70
0
71
0
40
0
41
1
42
0
50
0
0
STYLE
5
103
100
AcDbSymbolTableRecord
100
AcDbTextStyleTableRecord
2
DWGDirectTextStyle
3
simplex
70
0
71
0
40
0
41
1
42
0
50
0
0
ENDTAB
0
TABLE
2
DIMSTYLE
5
1d1
100
AcDbSymbolTable
100
AcDbDimStyleTable
0
DIMSTYLE
105
27
100
AcDbSymbolTableRecord
100
AcDbDimStyleTableRecord
2
Standard
70
0
3
<>
41
0.18
42
0.0625
44
0.18
140
0.18
147
0.09
73
0
74
0
77
1
271
2
275
0
278
52
280
0
340
11
0
ENDTAB
0
TABLE
2
VIEW
5
1d2
100
AcDbSymbolTable
0
ENDTAB
0
TABLE
2
UCS
5
1d3
100
AcDbSymbolTable
0
ENDTAB
0
TABLE
2
APPID
5
1d4
100
AcDbSymbolTable
0
APPID
5
12
100
AcDbSymbolTableRecord
100
AcDbRegAppTableRecord
2
ACAD
70
0
0
ENDTAB
0
TABLE
2
BLOCK_RECORD
5
1d5
100
AcDbSymbolTable
0
BLOCK_RECORD
5
1F
100
AcDbSymbolTableRecord
100
AcDbBlockTableRecord
2
*Model_Space
340
0
70
0
0
BLOCK_RECORD
5
1B
100
AcDbSymbolTableRecord
100
AcDbBlockTableRecord
2
*Paper_Space
340
0
70
0
0
BLOCK_RECORD
5
23
100
AcDbSymbolTableRecord
100
AcDbBlockTableRecord
2
*Paper_Space0
340
0
70
0
0
BLOCK_RECORD
5
105
100
AcDbSymbolTableRecord
100
AcDbBlockTableRecord
2
DimnDraft3D1
340
0
70
0
0
BLOCK_RECORD
5
113
100
AcDbSymbolTableRecord
100
AcDbBlockTableRecord
2
_CLOSED
340
0
70
0
0
BLOCK_RECORD
5
11A
100
AcDbSymbolTableRecord
100
AcDbBlockTableRecord
2
DimnDraft3D2
340
0
70
0
0
BLOCK_RECORD
5
128
100
AcDbSymbolTableRecord
100
AcDbBlockTableRecord
2
DimnDraft3D3
340
0
70
0
0
BLOCK_RECORD
5
137
100
AcDbSymbolTableRecord
100
AcDbBlockTableRecord
2
DimnDraft3D4
340
0
70
0
0
BLOCK_RECORD
5
145
100
AcDbSymbolTableRecord
100
AcDbBlockTableRecord
2
DimnDraft3D5
340
0
70
0
0
BLOCK_RECORD
5
153
100
AcDbSymbolTableRecord
100
AcDbBlockTableRecord
2
DimnDraft3D6
340
0
70
0
0
ENDTAB
0
ENDSEC
0
SECTION
2
BLOCKS
0
BLOCK
5
20
100
AcDbEntity
8
0
100
AcDbBlockBegin
2
*Model_Space
70
0
10
0
20
0
30
0
3
*Model_Space
0
ENDBLK
5
21
100
AcDbEntity
8
0
100
AcDbBlockEnd
0
BLOCK
5
1C
100
AcDbEntity
8
0
100
AcDbBlockBegin
2
*Paper_Space
70
0
10
0
20
0
30
0
3
*Paper_Space
0
ENDBLK
5
1D
100
AcDbEntity
8
0
100
AcDbBlockEnd
0
BLOCK
5
24
100
AcDbEntity
8
0
100
AcDbBlockBegin
2
*Paper_Space0
70
0
10
0
20
0
30
0
3
*Paper_Space0
0
ENDBLK
5
25
100
AcDbEntity
8
0
100
AcDbBlockEnd
0
BLOCK
5
110
100
AcDbEntity
8
0
100
AcDbBlockBegin
2
DimnDraft3D1
70
0
10
0
20
0
30
0
3
DimnDraft3D1
0
MTEXT
5
106
100
AcDbEntity
8
2
62
256
6
ByLayer
370
18
48
1
60
0
100
AcDbMText
10
48.125
20
10.680921
30
0
210
0
220
0
230
1
1
\W0.5404;6
40
4.5
41
0
44
1.084337
50
90
71
7
72
5
7
iso_b_vert
0
LINE
5
107
100
AcDbEntity
8
2
62
256
6
ByLayer
370
13
48
1
60
0
100
AcDbLine
10
36.5
20
7.5625
30
0
11
52.25
21
7.5625
31
0
39
0
210
0
220
0
230
1
0
LINE
5
108
100
AcDbEntity
8
2
62
256
6
ByLayer
370
13
48
1
60
0
100
AcDbLine
10
36.5
20
13.5625
30
0
11
52.25
21
13.5625
31
0
39
0
210
0
220
0
230
1
0
LINE
5
109
100
AcDbEntity
8
2
62
256
6
ByLayer
370
13
48
1
60
0
100
AcDbLine
10
49.25
20
-3.6875
30
0
11
49.25
21
24.8125
31
0
39
0
210
0
220
0
230
1
0
LINE
5
10A
100
AcDbEntity
8
2
62
256
6
ByLayer
370
13
48
1
60
0
100
AcDbLine
10
49.25
20
7.5625
30
0
11
49.644957
21
4.562501
31
0
39
0
210
0
220
0
230
1
0
LINE
5
10B
100
AcDbEntity
8
2
62
256
6
ByLayer
370
13
48
1
60
0
100
AcDbLine
10
49.25
20
7.5625
30
0
11
48.855043
21
4.562499
31
0
39
0
210
0
220
0
230
1
0
LINE
5
10C
100
AcDbEntity
8
2
62
256
6
ByLayer
370
13
48
1
60
0
100
AcDbLine
10
49.644957
20
4.562501
30
0
11
48.855043
21
4.562499
31
0
39
0
210
0
220
0
230
1
0
LINE
5
10D
100
AcDbEntity
8
2
62
256
6
ByLayer
370
13
48
1
60
0
100
AcDbLine
10
49.25
20
13.5625
30
0
11
48.855043
21
16.562499
31
0
39
0
210
0
220
0
230
1
0
LINE
5
10E
100
AcDbEntity
8
2
62
256
6
ByLayer
370
13
48
1
60
0
100
AcDbLine
10
49.25
20
13.5625
30
0
11
49.644957
21
16.562501
31
0
39
0
210
0
220
0
230
1
0
LINE
5
10F
100
AcDbEntity
8
2
62
256
6
ByLayer
370
13
48
1
60
0
100
AcDbLine
10
48.855043
20
16.562499
30
0
11
49.644957
21
16.562501
31
0
39
0
210
0
220
0
230
1
0
ENDBLK
5
111
100
AcDbEntity
8
0
100
AcDbBlockEnd
0
BLOCK
5
114
100
AcDbEntity
8
0
100
AcDbBlockBegin
2
_CLOSED
70
0
10
0
20
0
30
0
3
_CLOSED
0
LINE
5
116
100
AcDbEntity
8
0
62
256
6
ByLayer
370
-2
48
1
60
0
100
AcDbLine
10
-1
20
0.166667
30
0
11
0
21
0
31
0
39
0
210
0
220
0
230
1
0
LINE
5
117
100
AcDbEntity
8
0
62
256
6
ByLayer
370
-2
48
1
60
0
100
AcDbLine
10
0
20
0
30
0
11
-1
21
-0.166667
31
0
39
0
210
0
220
0
230
1
0
LINE
5
118
100
AcDbEntity
8
0
62
256
6
ByLayer
370
-2
48
1
60
0
100
AcDbLine
10
-1
20
0.166667
30
0
11
-1
21
-0.166667
31
0
39
0
210
0
220
0
230
1
0
LINE
5
119
100
AcDbEntity
8
0
62
256
6
ByLayer
370
-2
48
1
60
0
100
AcDbLine
10
0
20
0
30
0
11
-1
21
0
31
0
39
0
210
0
220
0
230
1
0
ENDBLK
5
115
100
AcDbEntity
8
0
100
AcDbBlockEnd
0
BLOCK
5
125
100
AcDbEntity
8
0
100
AcDbBlockBegin
2
DimnDraft3D2
70
0
10
0
20
0
30
0
3
DimnDraft3D2
0
MTEXT
5
11B
100
AcDbEntity
8
2
62
256
6
ByLayer
370
18
48
1
60
0
100
AcDbMText
10
58.125
20
-1.000658
30
0
210
0
220
0
230
1
1
\W0.6740;26
40
4.5
41
0
44
1.084337
50
90
71
7
72
5
7
iso_b_vert
0
LINE
5
11C
100
AcDbEntity
8
2
62
256
6
ByLayer
370
13
48
1
60
0
100
AcDbLine
10
36.5
20
13.5625
30
0
11
62.25
21
13.5625
31
0
39
0
210
0
220
0
230
1
0
LINE
5
11D
100
AcDbEntity
8
2
62
256
6
ByLayer
370
13
48
1
60
0
100
AcDbLine
10
-3.5
20
-12.4375
30
0
11
62.25
21
-12.4375
31
0
39
0
210
0
220
0
230
1
0
LINE
5
11E
100
AcDbEntity
8
2
62
256
6
ByLayer
370
13
48
1
60
0
100
AcDbLine
10
59.25
20
13.5625
30
0
11
59.25
21
-12.4375
31
0
39
0
210
0
220
0
230
1
0
LINE
5
11F
100
AcDbEntity
8
2
62
256
6
ByLayer
370
13
48
1
60
0
100
AcDbLine
10
59.25
20
13.5625
30
0
11
59.644957
21
10.562501
31
0
39
0
210
0
220
0
230
1
0
LINE
5
120
100
AcDbEntity
8
2
62
256
6
ByLayer
370
13
48
1
60
0
100
AcDbLine
10
59.25
20
13.5625
30
0
11
58.855043
21
10.562499
31
0
39
0
210
0
220
0
230
1
0
LINE
5
121
100
AcDbEntity
8
2
62
256
6
ByLayer
370
13
48
1
60
0
100
AcDbLine
10
59.644957
20
10.562501
30
0
11
58.855043
21
10.562499
31
0
39
0
210
0
220
0
230
1
0
LINE
5
122
100
AcDbEntity
8
2
62
256
6
ByLayer
370
13
48
1
60
0
100
AcDbLine
10
59.25
20
-12.4375
30
0
11
58.855043
21
-9.437501
31
0
39
0
210
0
220
0
230
1
0
LINE
5
123
100
AcDbEntity
8
2
62
256
6
ByLayer
370
13
48
1
60
0
100
AcDbLine
10
59.25
20
-12.4375
30
0
11
59.644957
21
-9.437499
31
0
39
0
210
0
220
0
230
1
0
LINE
5
124
100
AcDbEntity
8
2
62
256
6
ByLayer
370
13
48
1
60
0
100
AcDbLine
10
58.855043
20
-9.437501
30
0
11
59.644957
21
-9.437499
31
0
39
0
210
0
220
0
230
1
0
ENDBLK
5
126
100
AcDbEntity
8
0
100
AcDbBlockEnd
0
BLOCK
5
134
100
AcDbEntity
8
0
100
AcDbBlockBegin
2
DimnDraft3D3
70
0
10
0
20
0
30
0
3
DimnDraft3D3
0
MTEXT
5
129
100
AcDbEntity
8
SK2
62
256
6
ByLayer
370
18
48
1
60
0
100
AcDbMText
10
-127.225
20
-1.563158
30
0
210
0
220
0
230
1
1
\W0.6740;25
40
4.5
41
0
44
1.084337
50
90
71
7
72
5
7
iso_b_vert
0
LINE
5
12B
100
AcDbEntity
8
SK2
62
256
6
ByLayer
370
13
48
1
60
0
100
AcDbLine
10
-117.85
20
12.4375
30
0
11
-129.1
21
12.4375
31
0
39
0
210
0
220
0
230
1
0
LINE
5
12C
100
AcDbEntity
8
SK2
62
256
6
ByLayer
370
13
48
1
60
0
100
AcDbLine
10
-117.85
20
-12.4375
30
0
11
-129.1
21
-12.4375
31
0
39
0
210
0
220
0
230
1
0
LINE
5
12D
100
AcDbEntity
8
SK2
62
256
6
ByLayer
370
13
48
1
60
0
100
AcDbLine
10
-126.1
20
12.4375
30
0
11
-126.1
21
-12.4375
31
0
39
0
210
0
220
0
230
1
0
LINE
5
12E
100
AcDbEntity
8
SK2
62
256
6
ByLayer
370
13
48
1
60
0
100
AcDbLine
10
-126.1
20
12.4375
30
0
11
-125.705043
21
9.437501
31
0
39
0
210
0
220
0
230
1
0
LINE
5
12F
100
AcDbEntity
8
SK2
62
256
6
ByLayer
370
13
48
1
60
0
100
AcDbLine
10
-126.1
20
12.4375
30
0
11
-126.494957
21
9.437499
31
0
39
0
210
0
220
0
230
1
0
LINE
5
130
100
AcDbEntity
8
SK2
62
256
6
ByLayer
370
13
48
1
60
0
100
AcDbLine
10
-125.705043
20
9.437501
30
0
11
-126.494957
21
9.437499
31
0
39
0
210
0
220
0
230
1
0
LINE
5
131
100
AcDbEntity
8
SK2
62
256
6
ByLayer
370
13
48
1
60
0
100
AcDbLine
10
-126.1
20
-12.4375
30
0
11
-126.494957
21
-9.437501
31
0
39
0
210
0
220
0
230
1
0
LINE
5
132
100
AcDbEntity
8
SK2
62
256
6
ByLayer
370
13
48
1
60
0
100
AcDbLine
10
-126.1
20
-12.4375
30
0
11
-125.705043
21
-9.437499
31
0
39
0
210
0
220
0
230
1
0
LINE
5
133
100
AcDbEntity
8
SK2
62
256
6
ByLayer
370
13
48
1
60
0
100
AcDbLine
10
-126.494957
20
-9.437501
30
0
11
-125.705043
21
-9.437499
31
0
39
0
210
0
220
0
230
1
0
ENDBLK
5
135
100
AcDbEntity
8
0
100
AcDbBlockEnd
0
BLOCK
5
142
100
AcDbEntity
8
0
100
AcDbBlockBegin
2
DimnDraft3D4
70
0
10
0
20
0
30
0
3
DimnDraft3D4
0
MTEXT
5
138
100
AcDbEntity
8
2
62
256
6
ByLayer
370
18
48
1
60
0
100
AcDbMText
10
15.936842
20
29.409274
30
0
210
0
220
0
230
1
1
\W0.6740;35
40
4.5
41
0
44
1.084337
50
0
71
7
72
5
7
iso_b_vert
0
LINE
5
139
100
AcDbEntity
8
2
62
256
6
ByLayer
370
13
48
1
60
0
100
AcDbLine
10
35
20
15.0625
30
0
11
35
21
31.284274
31
0
39
0
210
0
220
0
230
1
0
LINE
5
13A
100
AcDbEntity
8
2
62
256
6
ByLayer
370
13
48
1
60
0
100
AcDbLine
10
0
20
13.9375
30
0
11
0
21
31.284274
31
0
39
0
210
0
220
0
230
1
0
LINE
5
13B
100
AcDbEntity
8
2
62
256
6
ByLayer
370
13
48
1
60
0
100
AcDbLine
10
35
20
28.284274
30
0
11
0
21
28.284274
31
0
39
0
210
0
220
0
230
1
0
LINE
5
13C
100
AcDbEntity
8
2
62
256
6
ByLayer
370
13
48
1
60
0
100
AcDbLine
10
35
20
28.284274
30
0
11
32.000001
21
27.889317
31
0
39
0
210
0
220
0
230
1
0
LINE
5
13D
100
AcDbEntity
8
2
62
256
6
ByLayer
370
13
48
1
60
0
100
AcDbLine
10
35
20
28.284274
30
0
11
31.999999
21
28.679232
31
0
39
0
210
0
220
0
230
1
0
LINE
5
13E
100
AcDbEntity
8
2
62
256
6
ByLayer
370
13
48
1
60
0
100
AcDbLine
10
32.000001
20
27.889317
30
0
11
31.999999
21
28.679232
31
0
39
0
210
0
220
0
230
1
0
LINE
5
13F
100
AcDbEntity
8
2
62
256
6
ByLayer
370
13
48
1
60
0
100
AcDbLine
10
0
20
28.284274
30
0
11
2.999999
21
28.679232
31
0
39
0
210
0
220
0
230
1
0
LINE
5
140
100
AcDbEntity
8
2
62
256
6
ByLayer
370
13
48
1
60
0
100
AcDbLine
10
0
20
28.284274
30
0
11
3.000001
21
27.889317
31
0
39
0
210
0
220
0
230
1
0
LINE
5
141
100
AcDbEntity
8
2
62
256
6
ByLayer
370
13
48
1
60
0
100
AcDbLine
10
2.999999
20
28.679232
30
0
11
3.000001
21
27.889317
31
0
39
0
210
0
220
0
230
1
0
ENDBLK
5
143
100
AcDbEntity
8
0
100
AcDbBlockEnd
0
BLOCK
5
150
100
AcDbEntity
8
0
100
AcDbBlockBegin
2
DimnDraft3D5
70
0
10
0
20
0
30
0
3
DimnDraft3D5
0
MTEXT
5
146
100
AcDbEntity
8
SK2
62
256
6
ByLayer
370
18
48
1
60
0
100
AcDbMText
10
-43.357237
20
39.409274
30
0
210
0
220
0
230
1
1
\W0.6217;150
40
4.5
41
0
44
1.084337
50
0
71
7
72
5
7
iso_b_vert
0
LINE
5
147
100
AcDbEntity
8
SK2
62
256
6
ByLayer
370
13
48
1
60
0
100
AcDbLine
10
35
20
15.0625
30
0
11
35
21
41.284274
31
0
39
0
210
0
220
0
230
1
0
LINE
5
148
100
AcDbEntity
8
SK2
62
256
6
ByLayer
370
13
48
1
60
0
100
AcDbLine
10
-116.35
20
13.9375
30
0
11
-116.35
21
41.284274
31
0
39
0
210
0
220
0
230
1
0
LINE
5
149
100
AcDbEntity
8
SK2
62
256
6
ByLayer
370
13
48
1
60
0
100
AcDbLine
10
35
20
38.284274
30
0
11
-116.35
21
38.284274
31
0
39
0
210
0
220
0
230
1
0
LINE
5
14A
100
AcDbEntity
8
SK2
62
256
6
ByLayer
370
13
48
1
60
0
100
AcDbLine
10
35
20
38.284274
30
0
11
32.000001
21
37.889317
31
0
39
0
210
0
220
0
230
1
0
LINE
5
14B
100
AcDbEntity
8
SK2
62
256
6
ByLayer
370
13
48
1
60
0
100
AcDbLine
10
35
20
38.284274
30
0
11
31.999999
21
38.679232
31
0
39
0
210
0
220
0
230
1
0
LINE
5
14C
100
AcDbEntity
8
SK2
62
256
6
ByLayer
370
13
48
1
60
0
100
AcDbLine
10
32.000001
20
37.889317
30
0
11
31.999999
21
38.679232
31
0
39
0
210
0
220
0
230
1
0
LINE
5
14D
100
AcDbEntity
8
SK2
62
256
6
ByLayer
370
13
48
1
60
0
100
AcDbLine
10
-116.35
20
38.284274
30
0
11
-113.350001
21
38.679232
31
0
39
0
210
0
220
0
230
1
0
LINE
5
14E
100
AcDbEntity
8
SK2
62
256
6
ByLayer
370
13
48
1
60
0
100
AcDbLine
10
-116.35
20
38.284274
30
0
11
-113.349999
21
37.889317
31
0
39
0
210
0
220
0
230
1
0
LINE
5
14F
100
AcDbEntity
8
SK2
62
256
6
ByLayer
370
13
48
1
60
0
100
AcDbLine
10
-113.350001
20
38.679232
30
0
11
-113.349999
21
37.889317
31
0
39
0
210
0
220
0
230
1
0
ENDBLK
5
151
100
AcDbEntity
8
0
100
AcDbBlockEnd
0
BLOCK
5
15E
100
AcDbEntity
8
0
100
AcDbBlockBegin
2
DimnDraft3D6
70
0
10
0
20
0
30
0
3
DimnDraft3D6
0
MTEXT
5
154
100
AcDbEntity
8
2
62
256
6
ByLayer
370
18
48
1
60
0
100
AcDbMText
10
27.499342
20
-25.5625
30
0
210
0
220
0
230
1
1
\W0.5321;13
40
4.5
41
0
44
1.084337
50
0
71
7
72
5
7
iso_b_vert
0
LINE
5
155
100
AcDbEntity
8
2
62
256
6
ByLayer
370
13
48
1
60
0
100
AcDbLine
10
22
20
5.0625
30
0
11
22
21
-29.6875
31
0
39
0
210
0
220
0
230
1
0
LINE
5
156
100
AcDbEntity
8
2
62
256
6
ByLayer
370
13
48
1
60
0
100
AcDbLine
10
35
20
6.0625
30
0
11
35
21
-29.6875
31
0
39
0
210
0
220
0
230
1
0
LINE
5
157
100
AcDbEntity
8
2
62
256
6
ByLayer
370
13
48
1
60
0
100
AcDbLine
10
10.75
20
-26.6875
30
0
11
46.25
21
-26.6875
31
0
39
0
210
0
220
0
230
1
0
LINE
5
158
100
AcDbEntity
8
2
62
256
6
ByLayer
370
13
48
1
60
0
100
AcDbLine
10
22
20
-26.6875
30
0
11
19.000001
21
-27.082457
31
0
39
0
210
0
220
0
230
1
0
LINE
5
159
100
AcDbEntity
8
2
62
256
6
ByLayer
370
13
48
1
60
0
100
AcDbLine
10
22
20
-26.6875
30
0
11
18.999999
21
-26.292543
31
0
39
0
210
0
220
0
230
1
0
LINE
5
15A
100
AcDbEntity
8
2
62
256
6
ByLayer
370
13
48
1
60
0
100
AcDbLine
10
19.000001
20
-27.082457
30
0
11
18.999999
21
-26.292543
31
0
39
0
210
0
220
0
230
1
0
LINE
5
15B
100
AcDbEntity
8
2
62
256
6
ByLayer
370
13
48
1
60
0
100
AcDbLine
10
35
20
-26.6875
30
0
11
37.999999
21
-26.292543
31
0
39
0
210
0
220
0
230
1
0
LINE
5
15C
100
AcDbEntity
8
2
62
256
6
ByLayer
370
13
48
1
60
0
100
AcDbLine
10
35
20
-26.6875
30
0
11
38.000001
21
-27.082457
31
0
39
0
210
0
220
0
230
1
0
LINE
5
15D
100
AcDbEntity
8
2
62
256
6
ByLayer
370
13
48
1
60
0
100
AcDbLine
10
37.999999
20
-26.292543
30
0
11
38.000001
21
-27.082457
31
0
39
0
210
0
220
0
230
1
0
ENDBLK
5
15F
100
AcDbEntity
8
0
100
AcDbBlockEnd
0
ENDSEC
0
SECTION
2
ENTITIES
0
ARC
5
C0
100
AcDbEntity
8
1
62
256
6
ByLayer
370
18
48
1
60
0
100
AcDbCircle
39
0
10
-22.1
20
6.2875
30
0
40
1.6
210
0
220
0
230
-1
100
AcDbArc
50
0
51
4.439759
0
ARC
5
C2
100
AcDbEntity
8
1
62
256
6
ByLayer
370
18
48
1
60
0
100
AcDbCircle
39
0
10
13.35
20
-0.7375
30
0
40
2.0135
210
0
220
0
230
1
100
AcDbArc
50
268.140164
51
271.859836
0
ARC
5
C3
100
AcDbEntity
8
1
62
256
6
ByLayer
370
18
48
1
60
0
100
AcDbCircle
39
0
10
13.35
20
-0.7375
30
0
40
2.807
210
0
220
0
230
1
100
AcDbArc
50
120.034873
51
180
0
ARC
5
C4
100
AcDbEntity
8
1
62
256
6
ByLayer
370
18
48
1
60
0
100
AcDbCircle
39
0
10
13.35
20
-0.7375
30
0
40
2.807
210
0
220
0
230
1
100
AcDbArc
50
180
51
239.965127
0
ARC
5
C5
100
AcDbEntity
8
1
62
256
6
ByLayer
370
18
48
1
60
0
100
AcDbCircle
39
0
10
13.35
20
-0.7375
30
0
40
2.807
210
0
220
0
230
1
100
AcDbArc
50
59.965127
51
120.034873
0
ARC
5
C7
100
AcDbEntity
8
1
62
256
6
ByLayer
370
18
48
1
60
0
100
AcDbCircle
39
0
10
13.35
20
-0.7375
30
0
40
2.0135
210
0
220
0
230
1
100
AcDbArc
50
88.140164
51
91.859836
0
ARC
5
C8
100
AcDbEntity
8
1
62
256
6
ByLayer
370
18
48
1
60
0
100
AcDbCircle
39
0
10
13.35
20
-0.7375
30
0
40
2.807
210
0
220
0
230
1
100
AcDbArc
50
300.034873
51
360
0
ARC
5
C9
100
AcDbEntity
8
1
62
256
6
ByLayer
370
18
48
1
60
0
100
AcDbCircle
39
0
10
13.35
20
-0.7375
30
0
40
2.807
210
0
220
0
230
1
100
AcDbArc
50
360
51
59.965127
0
ARC
5
CA
100
AcDbEntity
8
1
62
256
6
ByLayer
370
18
48
1
60
0
100
AcDbCircle
39
0
10
13.35
20
-0.7375
30
0
40
2.807
210
0
220
0
230
1
100
AcDbArc
50
239.965127
51
300.034873
0
ARC
5
CD
100
AcDbEntity
8
1
62
256
6
ByLayer
370
18
48
1
60
0
100
AcDbCircle
39
0
10
34.6
20
7.945626
30
0
40
0.4
210
0
220
0
230
1
100
AcDbArc
50
266.667001
51
360
0
ARC
5
CE
100
AcDbEntity
8
1
62
256
6
ByLayer
370
18
48
1
60
0
100
AcDbCircle
39
0
10
-34.6
20
13.179374
30
0
40
0.4
210
0
220
0
230
-1
100
AcDbArc
50
86.667001
51
180
0
ARC
5
CF
100
AcDbEntity
8
1
62
256
6
ByLayer
370
18
48
1
60
0
100
AcDbCircle
39
0
10
10.4
20
13.179374
30
0
40
0.4
210
0
220
0
230
1
100
AcDbArc
50
86.667001
51
180
0
CIRCLE
5
C1
100
AcDbEntity
8
1
62
256
6
ByLayer
370
18
48
1
60
0
100
AcDbCircle
10
-13.35
20
-0.7375
30
0
40
6.15
39
0
210
0
220
0
230
-1
0
CIRCLE
5
C6
100
AcDbEntity
8
1
62
256
6
ByLayer
370
18
48
1
60
0
100
AcDbCircle
10
-13.35
20
-0.7375
30
0
40
5.93
39
0
210
0
220
0
230
-1
0
CIRCLE
5
CB
100
AcDbEntity
8
1
62
256
6
ByLayer
370
18
48
1
60
0
100
AcDbCircle
10
13.35
20
-0.7375
30
0
40
5.13
39
0
210
0
220
0
230
1
0
CIRCLE
5
CC
100
AcDbEntity
8
1
62
256
6
ByLayer
370
18
48
1
60
0
100
AcDbCircle
10
-13.35
20
-0.7375
30
0
40
3
39
0
210
0
220
0
230
-1
0
ELLIPSE
5
D0
100
AcDbEntity
8
1
62
256
6
ByLayer
370
18
48
1
60
0
100
AcDbEllipse
10
400.59224
20
57.679125
30
0
11
-1339.77927446077
21
-7.71417820241355
31
0
210
0
220
0
230
1
40
0.032667
41
1.28649412153127
42
1.28876389112646
0
ELLIPSE
5
D1
100
AcDbEntity
8
1
62
256
6
ByLayer
370
18
48
1
60
0
100
AcDbEllipse
10
39.216244
20
57.7625
30
0
11
5.21589600663686E-14
21
44.524999999775
31
0
210
0
220
0
230
1
40
0.57735
41
2.5454166004538
42
2.9372584942956
0
ELLIPSE
5
D2
100
AcDbEntity
8
1
62
256
6
ByLayer
370
18
48
1
60
0
100
AcDbEllipse
10
-364.899365
20
42.758387
30
0
11
-3065.27701271088
21
6.06402486405989
31
0
210
0
220
0
230
1
40
0.011203
41
1.6974089798274
42
1.69885874197976
0
ELLIPSE
5
D3
100
AcDbEntity
8
1
62
256
6
ByLayer
370
18
48
1
60
0
100
AcDbEllipse
10
29.209437
20
42.5625
30
0
11
-49.5210321607683
21
1.16023157279368E-13
31
0
210
0
220
0
230
1
40
0.700208
41
1.42673455122185
42
1.52097077821671
0
ELLIPSE
5
D4
100
AcDbEntity
8
1
62
256
6
ByLayer
370
18
48
1
60
0
100
AcDbEllipse
10
29.209437
20
57.7625
30
0
11
-63.5882899952053
21
1.4898142969412E-13
31
0
210
0
220
0
230
1
40
0.700208
41
1.38785737067459
42
1.53182375813918
0
ELLIPSE
5
D5
100
AcDbEntity
8
1
62
256
6
ByLayer
370
18
48
1
60
0
100
AcDbEllipse
10
28.044631
20
8.203751
30
0
11
-0.433147579371059
21
-1.77327518313218E-10
31
0
210
0
220
0
230
1
40
0.230868
41
-0.174552578021711
42
0
0
ELLIPSE
5
D6
100
AcDbEntity
8
1
62
256
6
ByLayer
370
18
48
1
60
0
100
AcDbEllipse
10
28.044631
20
12.921249
30
0
11
-0.433147579371059
21
1.77328970893437E-10
31
0
210
0
220
0
230
1
40
0.230868
41
0
42
0.174552578021711
0
ELLIPSE
5
D7
100
AcDbEntity
8
1
62
256
6
ByLayer
370
18
48
1
60
0
100
AcDbEllipse
10
29.336487
20
11.229799
30
0
11
-0.433147587468858
21
1.01482437811325E-15
31
0
210
0
220
0
230
1
40
0.230868
41
0.174532925189029
42
0.6640834710878
0
ELLIPSE
5
D8
100
AcDbEntity
8
1
62
256
6
ByLayer
370
18
48
1
60
0
100
AcDbEllipse
10
29.336487
20
9.895201
30
0
11
-0.433147587468858
21
1.01482437811325E-15
31
0
210
0
220
0
230
1
40
0.230868
41
-0.6640834710878
42
-0.174532925189012
0
POINT
5
6C
100
AcDbEntity
8
80
62
256
6
ByLayer
370
18
48
1
60
0
100
AcDbPoint
10
0
20
0
30
0
39
0
210
0
220
0
230
1
50
360
0
POINT
5
6E
100
AcDbEntity
8
2
62
256
6
ByLayer
370
18
48
1
60
0
100
AcDbPoint
10
35
20
13.5625
30
0
39
0
210
0
220
0
230
1
50
360
0
POINT
5
70
100
AcDbEntity
8
81
62
256
6
ByLayer
370
18
48
1
60
0
100
AcDbPoint
10
35
20
13.5625
30
0
39
0
210
0
220
0
230
1
50
360
0
SPLINE
5
D9
100
AcDbEntity
8
1
62
256
6
ByLayer
370
18
48
1
60
0
100
AcDbSpline
70
4
71
3
72
10
73
6
40
0
40
0
40
0
40
0
40
0.529638525462523
40
0.529638525462523
40
1
40
1
40
1
40
1
41
1
10
27.0405040733833
20
11.1416252121207
30
0
41
1
10
26.9861138835951
20
11.517634179614
30
0
41
1
10
26.9317047975817
20
11.8936390798677
30
0
41
1
10
26.8288622047312
20
12.6035418172732
30
0
41
1
10
26.7804557786571
20
12.9374455612416
30
0
41
1
10
26.7318651437874
20
13.2713093657676
30
0
0
SPLINE
5
DA
100
AcDbEntity
8
1
62
256
6
ByLayer
370
18
48
1
60
0
100
AcDbSpline
70
4
71
3
72
14
73
10
40
0
40
0
40
0
40
0
40
0.320648283087855
40
0.320648283087855
40
0.642556656032447
40
0.642556656032447
40
0.964767987534561
40
0.964767987534561
40
1
40
1
40
1
40
1
41
1
10
27.0405040733833
20
9.98337478787926
30
0
41
1
10
27.0428848120556
20
9.99983325389167
30
0
41
1
10
27.0476180403295
20
10.0160167196511
30
0
41
1
10
27.061033197455
20
10.0452320241538
30
0
41
1
10
27.0699156352927
20
10.0586536819563
30
0
41
1
10
27.090540376174
20
10.0808637034432
30
0
41
1
10
27.1025693737439
20
10.0899539171941
30
0
41
1
10
27.1167287638944
20
10.0969760997766
30
0
41
1
10
27.1181531019785
20
10.0976451043814
30
0
41
1
10
27.1195868846333
20
10.0982814543473
30
0
0
SPLINE
5
DB
100
AcDbEntity
8
1
62
256
6
ByLayer
370
18
48
1
60
0
100
AcDbSpline
70
4
71
3
72
8
73
4
40
0
40
0
40
0
40
0
40
1
40
1
40
1
40
1
41
1
10
27.2283156668965
20
10.9784538931179
30
0
41
1
10
27.1920733240275
20
10.9945441243477
30
0
41
1
10
27.1558304974702
20
11.0106326893237
30
0
41
1
10
27.1195868846334
20
11.0267185456528
30
0
0
SPLINE
5
DC
100
AcDbEntity
8
1
62
256
6
ByLayer
370
18
48
1
60
0
100
AcDbSpline
70
4
71
3
72
14
73
10
40
0
40
0
40
0
40
0
40
0.318825335738284
40
0.318825335738284
40
0.641378913519861
40
0.641378913519861
40
0.963672388640557
40
0.963672388640557
40
1
40
1
40
1
40
1
41
1
10
27.1195868846333
20
11.0267185456528
30
0
41
1
10
27.1067930140129
20
11.0323967975871
30
0
41
1
10
27.0946194073435
20
11.0408136973171
30
0
41
1
10
27.0733610363008
20
11.0618885821231
30
0
41
1
10
27.0640216196877
20
11.0748876111595
30
0
41
1
10
27.0496053425088
20
11.1035233263044
30
0
41
1
10
27.0443262529215
20
11.119553466157
30
0
41
1
10
27.0410810594112
20
11.1378488581196
30
0
41
1
10
27.0407776400381
20
11.1397339976234
30
0
41
1
10
27.0405040733832
20
11.1416252121207
30
0
0
SPLINE
5
DD
100
AcDbEntity
8
1
62
256
6
ByLayer
370
18
48
1
60
0
100
AcDbSpline
70
4
71
3
72
8
73
4
40
0
40
0
40
0
40
0
40
1
40
1
40
1
40
1
41
1
10
24.95
20
13.5054899579809
30
0
41
1
10
24.9808280506967
20
13.5054899579809
30
0
41
1
10
25.0116607061545
20
13.5054315487065
30
0
41
1
10
25.0424703326885
20
13.5053148426702
30
0
0
SPLINE
5
DE
100
AcDbEntity
8
1
62
256
6
ByLayer
370
18
48
1
60
0
100
AcDbSpline
70
4
71
3
72
14
73
10
40
0
40
0
40
0
40
0
40
0.0345190212089015
40
0.0345190212089015
40
0.434261710007339
40
0.434261710007339
40
0.833177459001541
40
0.833177459001541
40
1
40
1
40
1
40
1
41
1
10
26.7430450557672
20
7.93053291868372
30
0
41
1
10
26.7409938274057
20
7.93041978722513
30
0
41
1
10
26.7389090130386
20
7.93030836713857
30
0
41
1
10
26.7125669236712
20
7.92894396455981
30
0
41
1
10
26.683633482454
20
7.92790744207903
30
0
41
1
10
26.6212124648913
20
7.92639582446907
30
0
41
1
10
26.5868724563154
20
7.92589772380188
30
0
41
1
10
26.5375660915856
20
7.92559299629588
30
0
41
1
10
26.52273567623
20
7.92555147173763
30
0
41
1
10
26.5079546141088
20
7.92555939064462
30
0
0
SPLINE
5
DF
100
AcDbEntity
8
1
62
256
6
ByLayer
370
18
48
1
60
0
100
AcDbSpline
70
4
71
3
72
14
73
10
40
0
40
0
40
0
40
0
40
0.275104320463935
40
0.275104320463935
40
0.551285892222269
40
0.551285892222269
40
0.827540816329082
40
0.827540816329082
40
1
40
1
40
1
40
1
41
1
10
27.3092231349798
20
10.8375
30
0
41
1
10
27.3092231349798
20
10.8542141719495
30
0
41
1
10
27.3068686319537
20
10.8711570737924
30
0
41
1
10
27.2978207623995
20
10.9027773389955
30
0
41
1
10
27.2909852714479
20
10.9178813158535
30
0
41
1
10
27.2738400953992
20
10.9441198763753
30
0
41
1
10
27.2632933134876
20
10.9556150508633
30
0
41
1
10
27.2443144629828
20
10.9701511046951
30
0
41
1
10
27.2364504363819
20
10.9748423627459
30
0
41
1
10
27.2283156668965
20
10.9784538931179
30
0
0
SPLINE
5
E0
100
AcDbEntity
8
1
62
256
6
ByLayer
370
18
48
1
60
0
100
AcDbSpline
70
4
71
3
72
8
73
4
40
0
40
0
40
0
40
0
40
1
40
1
40
1
40
1
41
1
10
27.1195868846333
20
10.0982814543471
30
0
41
1
10
27.1558305132186
20
10.1143673176659
30
0
41
1
10
27.1920733375391
20
10.1304558816509
30
0
41
1
10
27.2283156668965
20
10.1465461068821
30
0
0
SPLINE
5
E1
100
AcDbEntity
8
1
62
256
6
ByLayer
370
18
48
1
60
0
100
AcDbSpline
70
4
71
3
72
14
73
10
40
0
40
0
40
0
40
0
40
0.273335586308423
40
0.273335586308423
40
0.549864884753971
40
0.549864884753971
40
0.826242595228991
40
0.826242595228991
40
1
40
1
40
1
40
1
41
1
10
27.2283156668965
20
10.1465461068821
30
0
41
1
10
27.2411000042653
20
10.1522218697633
30
0
41
1
10
27.2532642576506
20
10.1606344671603
30
0
41
1
10
27.2745054552684
20
10.1816974924646
30
0
41
1
10
27.283836751431
20
10.1946884838198
30
0
41
1
10
27.2982441671546
20
10.2233080111581
30
0
41
1
10
27.3035213092883
20
10.239330006648
30
0
41
1
10
27.3082833172109
20
10.2661457275076
30
0
41
1
10
27.309223134994
20
10.2768528161223
30
0
41
1
10
27.3092231349941
20
10.2874999999981
30
0
0
SPLINE
5
E2
100
AcDbEntity
8
1
62
256
6
ByLayer
370
18
48
1
60
0
100
AcDbSpline
70
4
71
3
72
16
73
12
40
0
40
0
40
0
40
0
40
0.223320519439371
40
0.223320519439371
40
0.446758182938749
40
0.446758182938749
40
0.669604947717928
40
0.669604947717928
40
0.890866685230357
40
0.890866685230357
40
1
40
1
40
1
40
1
41
1
10
20.5016160863
20
6.41249999999997
30
0
41
1
10
20.5097117688842
20
6.59103750441531
30
0
41
1
10
20.5491661265726
20
6.7705989874315
30
0
41
1
10
20.6843688667597
20
7.10215575219965
30
0
41
1
10
20.7820284598401
20
7.25872707291416
30
0
41
1
10
21.0211337913233
20
7.52676089151001
30
0
41
1
10
21.1658025877089
20
7.64205739692309
30
0
41
1
10
21.4805728314923
20
7.81522903448408
30
0
41
1
10
21.6548657615863
20
7.87589329822589
30
0
41
1
10
21.9203825971818
20
7.92052143334308
30
0
41
1
10
22.010345363666
20
7.92800683608505
30
0
41
1
10
22.0999999999999
20
7.92795732392142
30
0
0
SPLINE
5
E3
100
AcDbEntity
8
1
62
256
6
ByLayer
370
18
48
1
60
0
100
AcDbSpline
70
4
71
3
72
16
73
12
40
0
40
0
40
0
40
0
40
0.299498472137468
40
0.299498472137468
40
0.515607055610291
40
0.515607055610291
40
0.69543181556832
40
0.69543181556832
40
0.876564033214104
40
0.876564033214104
40
1
40
1
40
1
40
1
41
1
10
22.1
20
8.24669705399961
30
0
41
1
10
21.8789851411233
20
8.26914703986031
30
0
41
1
10
21.6506999329849
20
8.24636947965669
30
0
41
1
10
21.2828571229319
20
8.11771644256228
30
0
41
1
10
21.1323565635965
20
8.03475143270529
30
0
41
1
10
20.8897456641992
20
7.83011845313899
30
0
41
1
10
20.7896282403328
20
7.71468151305689
30
0
41
1
10
20.6304224290226
20
7.45052853819044
30
0
41
1
10
20.5695850667207
20
7.2974459622188
30
0
41
1
10
20.5117861598793
20
7.02975288707526
30
0
41
1
10
20.5
20
6.91629542609215
30
0
41
1
10
20.5
20
6.80379504871635
30
0
0
SPLINE
5
E4
100
AcDbEntity
8
1
62
256
6
ByLayer
370
18
48
1
60
0
100
AcDbSpline
70
4
71
3
72
10
73
6
40
0
40
0
40
0
40
0
40
0.764187935715065
40
0.764187935715065
40
1
40
1
40
1
40
1
41
1
10
26.7430450557672
20
7.9305329186837
30
0
41
1
10
26.8190924288909
20
8.4533922184927
30
0
41
1
10
26.8947837054142
20
8.97632864666724
30
0
41
1
10
26.9938151396845
20
9.66063551318308
30
0
41
1
10
27.0171616792957
20
9.82200470379078
30
0
41
1
10
27.0405040733833
20
9.98337478787926
30
0
0
SPLINE
5
E5
100
AcDbEntity
8
1
62
256
6
ByLayer
370
18
48
1
60
0
100
AcDbSpline
70
4
71
3
72
12
73
8
40
0
40
0
40
0
40
0
40
0.455353062346786
40
0.455353062346786
40
0.827333545905708
40
0.827333545905708
40
1
40
1
40
1
40
1
41
1
10
14.1704318716302
20
1.61470299943173
30
0
41
1
10
14.0858278731656
20
1.52947110632391
30
0
41
1
10
13.9849078459312
20
1.45477181937446
30
0
41
1
10
13.7792931745274
20
1.35076419992242
30
0
41
1
10
13.6762317035148
20
1.3147183581053
30
0
41
1
10
13.5187586027534
20
1.28432915672516
30
0
41
1
10
13.467139749605
20
1.277871766739
30
0
41
1
10
13.4153472699775
20
1.27493931195613
30
0
0
SPLINE
5
E6
100
AcDbEntity
8
1
62
256
6
ByLayer
370
18
48
1
60
0
100
AcDbSpline
70
4
71
3
72
18
73
14
40
0
40
0
40
0
40
0
40
0.181347322288266
40
0.181347322288266
40
0.360491893295299
40
0.360491893295299
40
0.54170121550288
40
0.54170121550288
40
0.695189055143496
40
0.695189055143496
40
0.891526265458829
40
0.891526265458829
40
1
40
1
40
1
40
1
41
1
10
11.7205358593456
20
1.14830115627024
30
0
41
1
10
11.7473131816822
20
1.0493221664903
30
0
41
1
10
11.7614899989259
20
0.94414734369542
30
0
41
1
10
11.7597428781364
20
0.730936587575684
30
0
41
1
10
11.7438614825797
20
0.620408292696197
30
0
41
1
10
11.6790625518665
20
0.405175692156121
30
0
41
1
10
11.6283565316106
20
0.297275672520186
30
0
41
1
10
11.509722370224
20
0.120624168423774
30
0
41
1
10
11.4442832783194
20
0.0462205577069881
30
0
41
1
10
11.2834431085831
20
-0.0970683332407134
30
0
41
1
10
11.1823244174428
20
-0.161342227174259
30
0
41
1
10
11.0207935514181
20
-0.233941876704392
30
0
41
1
10
10.961563034439
20
-0.254843607864018
30
0
41
1
10
10.9018316724036
20
-0.270733220525273
30
0
0
SPLINE
5
E7
100
AcDbEntity
8
1
62
256
6
ByLayer
370
18
48
1
60
0
100
AcDbSpline
70
4
71
3
72
18
73
14
40
0
40
0
40
0
40
0
40
0.0173285944903534
40
0.0173285944903534
40
0.239841647765361
40
0.239841647765361
40
0.462510527753937
40
0.462510527753937
40
0.697478079776721
40
0.697478079776721
40
0.954392202348371
40
0.954392202348371
40
1
40
1
40
1
40
1
41
1
10
11.9450206807898
20
1.69257862271812
30
0
41
1
10
11.9483773076036
20
1.69451929706978
30
0
41
1
10
11.9517576061862
20
1.69641971787772
30
0
41
1
10
11.9983242480798
20
1.72186674076997
30
0
41
1
10
12.0457449432696
20
1.73893715921949
30
0
41
1
10
12.1412016837082
20
1.75773904687563
30
0
41
1
10
12.1904528627447
20
1.75973514125206
30
0
41
1
10
12.2872012098167
20
1.74951338812056
30
0
41
1
10
12.3356698281874
20
1.73642690855976
30
0
41
1
10
12.4280129849237
20
1.69617054638391
30
0
41
1
10
12.4722176447067
20
1.66734837860489
30
0
41
1
10
12.5166419676245
20
1.62736519693132
30
0
41
1
10
12.5232044293723
20
1.62111392707791
30
0
41
1
10
12.5295681283699
20
1.6147029994317
30
0
0
SPLINE
5
E8
100
AcDbEntity
8
1
62
256
6
ByLayer
370
18
48
1
60
0
100
AcDbSpline
70
4
71
3
72
18
73
14
40
0
40
0
40
0
40
0
40
0.181612675763437
40
0.181612675763437
40
0.360704962161447
40
0.360704962161447
40
0.541858957768575
40
0.541858957768575
40
0.695330353238803
40
0.695330353238803
40
0.891708592214999
40
0.891708592214999
40
1
40
1
40
1
40
1
41
1
10
10.9018316724035
20
-1.20426677947546
30
0
41
1
10
11.0010678212246
20
-1.23066537333017
30
0
41
1
10
11.0993599974145
20
-1.271115775347
30
0
41
1
10
11.2831460164331
20
-1.37949477659586
30
0
41
1
10
11.3708390147032
20
-1.44858584381441
30
0
41
1
10
11.5246433194004
20
-1.61242921541552
30
0
41
1
10
11.5926240182454
20
-1.71032719766538
30
0
41
1
10
11.6861034266653
20
-1.90143345870595
30
0
41
1
10
11.7177334532225
20
-1.99532048911803
30
0
41
1
10
11.7612284804202
20
-2.20629952004523
30
0
41
1
10
11.7662285845804
20
-2.32603091949252
30
0
41
1
10
11.7481886242894
20
-2.50211127081238
30
0
41
1
10
11.7366492612541
20
-2.56374000139843
30
0
41
1
10
11.7205358593463
20
-2.62330115627051
30
0
0
SPLINE
5
E9
100
AcDbEntity
8
1
62
256
6
ByLayer
370
18
48
1
60
0
100
AcDbSpline
70
4
71
3
72
12
73
8
40
0
40
0
40
0
40
0
40
0.455353062347087
40
0.455353062347087
40
0.827333545906255
40
0.827333545906255
40
1
40
1
40
1
40
1
41
1
10
12.5295681283698
20
-3.08970299943172
30
0
41
1
10
12.6141721268345
20
-3.0044711063239
30
0
41
1
10
12.7150921540688
20
-2.92977181937445
30
0
41
1
10
12.9207068254726
20
-2.82576419992245
30
0
41
1
10
13.0237682964852
20
-2.78971835810532
30
0
41
1
10
13.1812413972466
20
-2.75932915672516
30
0
41
1
10
13.232860250395
20
-2.75287176673902
30
0
41
1
10
13.2846527300225
20
-2.74993931195616
30
0
0
SPLINE
5
EA
100
AcDbEntity
8
1
62
256
6
ByLayer
370
18
48
1
60
0
100
AcDbSpline
70
4
71
3
72
18
73
14
40
0
40
0
40
0
40
0
40
0.0157923844670974
40
0.0157923844670974
40
0.238811095461871
40
0.238811095461871
40
0.461892552251098
40
0.461892552251098
40
0.697221985203075
40
0.697221985203075
40
0.954485725072622
40
0.954485725072622
40
1
40
1
40
1
40
1
41
1
10
10.543
20
-0.737500000000011
30
0
41
1
10
10.543
20
-0.733973009604313
30
0
41
1
10
10.5430386392405
20
-0.730445759378625
30
0
41
1
10
10.5441936182627
20
-0.677732061718586
30
0
41
1
10
10.5530467858234
20
-0.628100196753707
30
0
41
1
10
10.584360559074
20
-0.535971710242592
30
0
41
1
10
10.6071923964691
20
-0.492286510468403
30
0
41
1
10
10.6642947244229
20
-0.413536503190329
30
0
41
1
10
10.6997993013223
20
-0.37805918657736
30
0
41
1
10
10.7807130359747
20
-0.318109796580018
30
0
41
1
10
10.8277169007502
20
-0.294172327517856
30
0
41
1
10
10.8844720689919
20
-0.275611733985272
30
0
41
1
10
10.8931323638085
20
-0.273047392498626
30
0
41
1
10
10.9018316724035
20
-0.270733220524562
30
0
0
SPLINE
5
EB
100
AcDbEntity
8
1
62
256
6
ByLayer
370
18
48
1
60
0
100
AcDbSpline
70
4
71
3
72
14
73
10
40
0
40
0
40
0
40
0
40
0.21911646451238
40
0.21911646451238
40
0.51297121247558
40
0.51297121247558
40
0.77831862025342
40
0.77831862025342
40
1
40
1
40
1
40
1
41
1
10
14.9794641406561
20
-2.62330115626975
30
0
41
1
10
14.9906856982875
20
-2.66478022666192
30
0
41
1
10
14.9965313764369
20
-2.70865699190185
30
0
41
1
10
14.9957856818418
20
-2.81207005827667
30
0
41
1
10
14.9840791649931
20
-2.87362818189931
30
0
41
1
10
14.9397280800638
20
-2.98293056745175
30
0
41
1
10
14.9084392425725
20
-3.03306908424059
30
0
41
1
10
14.8365423753279
20
-3.11152313228502
30
0
41
1
10
14.7974070376035
20
-3.1430485246602
30
0
41
1
10
14.7549793192102
20
-3.16757862271814
30
0
0
SPLINE
5
EC
100
AcDbEntity
8
1
62
256
6
ByLayer
370
18
48
1
60
0
100
AcDbSpline
70
4
71
3
72
16
73
12
40
0
40
0
40
0
40
0
40
0.191836824669075
40
0.191836824669075
40
0.488625600663344
40
0.488625600663344
40
0.756617127620166
40
0.756617127620166
40
0.994885626449979
40
0.994885626449979
40
1
40
1
40
1
40
1
41
1
10
12.5295681283731
20
-3.08970299943468
30
0
41
1
10
12.5030027275395
20
-3.11646555729609
30
0
41
1
10
12.4728056370948
20
-3.14055178945972
30
0
41
1
10
12.3891024511949
20
-3.19204558350967
30
0
41
1
10
12.3302375601686
20
-3.21484546133053
30
0
41
1
10
12.2130856505552
20
-3.23500871675162
30
0
41
1
10
12.1534692409385
20
-3.23481951312465
30
0
41
1
10
12.0448627470954
20
-3.21404861020369
30
0
41
1
10
11.9938796455354
20
-3.19537720174841
30
0
41
1
10
11.9470150634089
20
-3.16872694932951
30
0
41
1
10
11.9460168391091
20
-3.16815456368735
30
0
41
1
10
11.9450206807898
20
-3.16757862271814
30
0
0
SPLINE
5
ED
100
AcDbEntity
8
1
62
256
6
ByLayer
370
18
48
1
60
0
100
AcDbSpline
70
4
71
3
72
18
73
14
40
0
40
0
40
0
40
0
40
0.0162289153285311
40
0.0162289153285311
40
0.239234459040962
40
0.239234459040962
40
0.462328698874886
40
0.462328698874886
40
0.69769204226341
40
0.69769204226341
40
0.955005672045977
40
0.955005672045977
40
1
40
1
40
1
40
1
41
1
10
16.157
20
-0.737500000000011
30
0
41
1
10
16.157
20
-0.74112427668959
30
0
41
1
10
16.1569591993612
20
-0.744748835303056
30
0
41
1
10
16.1557702435972
20
-0.797556136626298
30
0
41
1
10
16.1468881961843
20
-0.847178410930525
30
0
41
1
10
16.1155222788132
20
-0.939285050358023
30
0
41
1
10
16.0926649850557
20
-0.982956840930825
30
0
41
1
10
16.0355148789301
20
-1.06167654838646
30
0
41
1
10
15.999986827069
20
-1.09713523175591
30
0
41
1
10
15.9190294001722
20
-1.15704151022925
30
0
41
1
10
15.8720050535463
20
-1.18095266341226
30
0
41
1
10
15.8153304916667
20
-1.19944669661604
30
0
41
1
10
15.8067684906715
20
-1.20197898198637
30
0
41
1
10
15.7981683275966
20
-1.20426677947546
30
0
0
SPLINE
5
EE
100
AcDbEntity
8
1
62
256
6
ByLayer
370
18
48
1
60
0
100
AcDbSpline
70
4
71
3
72
14
73
10
40
0
40
0
40
0
40
0
40
0.220792708734965
40
0.220792708734965
40
0.514440208322327
40
0.514440208322327
40
0.779604980836353
40
0.779604980836353
40
1
40
1
40
1
40
1
41
1
10
15.7981683275969
20
-0.270733220522999
30
0
41
1
10
15.8400107170796
20
-0.281864045922646
30
0
41
1
10
15.881231568975
20
-0.298940754323724
30
0
41
1
10
15.9705520592615
20
-0.35169962464164
30
0
41
1
10
16.0178802128891
20
-0.392723991251415
30
0
41
1
10
16.0900923702315
20
-0.485926188192508
30
0
41
1
10
16.1177254137801
20
-0.538134622890112
30
0
41
1
10
16.1493875756904
20
-0.639408877903918
30
0
41
1
10
16.157
20
-0.688774610124341
30
0
41
1
10
16.157
20
-0.737500000000011
30
0
0
SPLINE
5
EF
100
AcDbEntity
8
1
62
256
6
ByLayer
370
18
48
1
60
0
100
AcDbSpline
70
4
71
3
72
14
73
10
40
0
40
0
40
0
40
0
40
0.22241165527065
40
0.22241165527065
40
0.5158588244537
40
0.5158588244537
40
0.780847480391327
40
0.780847480391327
40
1
40
1
40
1
40
1
41
1
10
11.7205358593442
20
1.14830115626984
30
0
41
1
10
11.7091462249202
20
1.19040150129624
30
0
41
1
10
11.7032956435497
20
1.23497914714304
30
0
41
1
10
11.7044780289879
20
1.33902248713014
30
0
41
1
10
11.7164205388668
20
1.40047934843318
30
0
41
1
10
11.7611484449685
20
1.5095127889447
30
0
41
1
10
11.7925904447841
20
1.55948549228455
30
0
41
1
10
11.8643498449848
20
1.63724605635503
30
0
41
1
10
11.9030748695198
20
1.66832714508652
30
0
41
1
10
11.9450206807898
20
1.69257862271812
30
0
0
SPLINE
5
F0
100
AcDbEntity
8
1
62
256
6
ByLayer
370
18
48
1
60
0
100
AcDbSpline
70
4
71
3
72
18
73
14
40
0
40
0
40
0
40
0
40
0.18175277145018
40
0.18175277145018
40
0.360818406833419
40
0.360818406833419
40
0.541944163041264
40
0.541944163041264
40
0.695407615755981
40
0.695407615755981
40
0.891808268956465
40
0.891808268956465
40
1
40
1
40
1
40
1
41
1
10
15.7981683275966
20
-0.270733220524562
30
0
41
1
10
15.6988559553603
20
-0.244314349875566
30
0
41
1
10
15.6004880467831
20
-0.20382153935202
30
0
41
1
10
15.416660320138
20
-0.095364406260245
30
0
41
1
10
15.3289907291675
20
-0.0262629402269283
30
0
41
1
10
15.1752354772816
20
0.137588746915355
30
0
41
1
10
15.1072814826209
20
0.23548349509295
30
0
41
1
10
15.0138398120849
20
0.426581015524789
30
0
41
1
10
14.9822248539708
20
0.520464915961952
30
0
41
1
10
14.938755204354
20
0.731452555656091
30
0
41
1
10
14.9337711326442
20
0.851194465813535
30
0
41
1
10
14.9518323112013
20
1.02722313725548
30
0
41
1
10
14.9633653362174
20
1.08879395910796
30
0
41
1
10
14.9794641406537
20
1.14830115627049
30
0
0
SPLINE
5
F1
100
AcDbEntity
8
1
62
256
6
ByLayer
370
18
48
1
60
0
100
AcDbSpline
70
4
71
3
72
18
73
14
40
0
40
0
40
0
40
0
40
0.181666908878583
40
0.181666908878583
40
0.360750617017816
40
0.360750617017816
40
0.541895453074694
40
0.541895453074694
40
0.695365105948643
40
0.695365105948643
40
0.891753383060548
40
0.891753383060548
40
1
40
1
40
1
40
1
41
1
10
14.9794641406544
20
-2.62330115627026
30
0
41
1
10
14.9526398265003
20
-2.5241484671725
30
0
41
1
10
14.9384602459352
20
-2.4187756755243
30
0
41
1
10
14.9403139531035
20
-2.20539333467693
30
0
41
1
10
14.9562426230037
20
-2.09489939684903
30
0
41
1
10
15.0211140051548
20
-1.87975418313476
30
0
41
1
10
15.0718441395718
20
-1.77191060048744
30
0
41
1
10
15.1905041217909
20
-1.59534362558284
30
0
41
1
10
15.2559542246233
20
-1.52097335760726
30
0
41
1
10
15.4168403373044
20
-1.37772474887677
30
0
41
1
10
15.5179980746868
20
-1.31347049930849
30
0
41
1
10
15.6794511603026
20
-1.24097175513927
30
0
41
1
10
15.7385601350611
20
-1.22012362684185
30
0
41
1
10
15.7981683275964
20
-1.20426677947478
30
0
0
SPLINE
5
F2
100
AcDbEntity
8
1
62
256
6
ByLayer
370
18
48
1
60
0
100
AcDbSpline
70
4
71
3
72
16
73
12
40
0
40
0
40
0
40
0
40
0.218620732637229
40
0.218620732637229
40
0.441132096326283
40
0.441132096326283
40
0.674870839126926
40
0.674870839126926
40
0.929765351321896
40
0.929765351321896
40
1
40
1
40
1
40
1
41
1
10
14.7549793192102
20
1.69257862271812
30
0
41
1
10
14.7967322838594
20
1.66843864169061
30
0
41
1
10
14.8352928941211
20
1.63753473906294
30
0
41
1
10
14.9007677451595
20
1.56678167800942
30
0
41
1
10
14.9283171189502
20
1.52589172849636
30
0
41
1
10
14.9702916326038
20
1.43831040406988
30
0
41
1
10
14.9845563198091
20
1.39035248027656
30
0
41
1
10
14.9987611977979
20
1.29110173634047
30
0
41
1
10
14.9975238514805
20
1.23866436115145
30
0
41
1
10
14.9861524490117
20
1.17531735403247
30
0
41
1
10
14.9830886103785
20
1.16169855079949
30
0
41
1
10
14.9794641406544
20
1.14830115627021
30
0
0
SPLINE
5
F3
100
AcDbEntity
8
1
62
256
6
ByLayer
370
18
48
1
60
0
100
AcDbSpline
70
4
71
3
72
16
73
12
40
0
40
0
40
0
40
0
40
0.191930281182739
40
0.191930281182739
40
0.488707775608025
40
0.488707775608025
40
0.756688906725717
40
0.756688906725717
40
0.994950483060319
40
0.994950483060319
40
1
40
1
40
1
40
1
41
1
10
14.1704318716269
20
1.61470299943465
30
0
41
1
10
14.1970101552167
20
1.64147853566254
30
0
41
1
10
14.22722378362
20
1.66557521254356
30
0
41
1
10
14.310948268476
20
1.71706857952526
30
0
41
1
10
14.3698143864777
20
1.7398612680164
30
0
41
1
10
14.486965618469
20
1.76001132996166
30
0
41
1
10
14.5465803486937
20
1.759815893227
30
0
41
1
10
14.6551819835097
20
1.73903482404896
30
0
41
1
10
14.7061620099742
20
1.72035900850537
30
0
41
1
10
14.7530102361109
20
1.69371244172831
30
0
41
1
10
14.7539957845871
20
1.69314726514486
30
0
41
1
10
14.7549793192102
20
1.69257862271812
30
0
0
SPLINE
5
F4
100
AcDbEntity
8
1
62
256
6
ByLayer
370
18
48
1
60
0
100
AcDbSpline
70
4
71
3
72
16
73
12
40
0
40
0
40
0
40
0
40
0.218557773056328
40
0.218557773056328
40
0.44106747367926
40
0.44106747367926
40
0.674801337484702
40
0.674801337484702
40
0.929688497508495
40
0.929688497508495
40
1
40
1
40
1
40
1
41
1
10
11.9450206807898
20
-3.16757862271814
30
0
41
1
10
11.9032797321598
20
-3.14344558889729
30
0
41
1
10
11.8647293704485
20
-3.11255271493346
30
0
41
1
10
11.7992576027249
20
-3.04181526405304
30
0
41
1
10
11.771704634642
20
-3.0009276553379
30
0
41
1
10
11.7297227484991
20
-2.91335034464751
30
0
41
1
10
11.7154539696446
20
-2.86539412670263
30
0
41
1
10
11.7012404187867
20
-2.76614597406598
30
0
41
1
10
11.7024729202592
20
-2.71370939041057
30
0
41
1
10
11.7138408712732
20
-2.65034705411227
30
0
41
1
10
11.7169074392227
20
-2.63671315294965
30
0
41
1
10
11.7205358593456
20
-2.62330115627023
30
0
0
SPLINE
5
F5
100
AcDbEntity
8
1
62
256
6
ByLayer
370
18
48
1
60
0
100
AcDbSpline
70
4
71
3
72
12
73
8
40
0
40
0
40
0
40
0
40
0.368706056448697
40
0.368706056448697
40
0.737980850848006
40
0.737980850848006
40
1
40
1
40
1
40
1
41
1
10
13.4153472699775
20
-2.74993931195616
30
0
41
1
10
13.5244901215341
20
-2.75611890558372
30
0
41
1
10
13.6333517440413
20
-2.77842679306161
30
0
41
1
10
13.8325096312106
20
-2.84828731098858
30
0
41
1
10
13.9255727775012
20
-2.89655397434296
30
0
41
1
10
14.0670109423506
20
-2.994495033297
30
0
41
1
10
14.1213385199131
20
-3.04024529788353
30
0
41
1
10
14.1704318716301
20
-3.08970299943172
30
0
0
SPLINE
5
F6
100
AcDbEntity
8
1
62
256
6
ByLayer
370
18
48
1
60
0
100
AcDbSpline
70
4
71
3
72
18
73
14
40
0
40
0
40
0
40
0
40
0.0150229386922736
40
0.0150229386922736
40
0.237604440562207
40
0.237604440562207
40
0.460204731428097
40
0.460204731428097
40
0.694992075280023
40
0.694992075280023
40
0.951641525778754
40
0.951641525778754
40
1
40
1
40
1
40
1
41
1
10
14.7549793192102
20
-3.16757862271814
30
0
41
1
10
14.7520684199845
20
-3.16926159427891
30
0
41
1
10
14.7491397490837
20
-3.17091427740775
30
0
41
1
10
14.7030920682664
20
-3.19626927600063
30
0
41
1
10
14.6557039074632
20
-3.21349741410896
30
0
41
1
10
14.5602851564218
20
-3.2325960858195
30
0
41
1
10
14.5110399513397
20
-3.23474434006005
30
0
41
1
10
14.4142792924752
20
-3.22482177643704
30
0
41
1
10
14.3657874551504
20
-3.21189222325137
30
0
41
1
10
14.2733624353174
20
-3.17195027104472
30
0
41
1
10
14.2290914112967
20
-3.14329166347045
30
0
41
1
10
14.1841477224758
20
-3.10311616080782
30
0
41
1
10
14.1771780297028
20
-3.09649922460048
30
0
41
1
10
14.1704318716301
20
-3.08970299943172
30
0
0
SPLINE
5
F7
100
AcDbEntity
8
1
62
256
6
ByLayer
370
18
48
1
60
0
100
AcDbSpline
70
4
71
3
72
12
73
8
40
0
40
0
40
0
40
0
40
0.368706056538511
40
0.368706056538511
40
0.73798085095237
40
0.73798085095237
40
1
40
1
40
1
40
1
41
1
10
13.2846527300226
20
1.27493931195613
30
0
41
1
10
13.1755098784395
20
1.2811189055852
30
0
41
1
10
13.0666482559057
20
1.30342679307265
30
0
41
1
10
12.8674903687158
20
1.37328731102193
30
0
41
1
10
12.7744272224264
20
1.42155397438404
30
0
41
1
10
12.6329890576063
20
1.51949503333327
30
0
41
1
10
12.5786614800674
20
1.56524529790309
30
0
41
1
10
12.5295681283699
20
1.6147029994317
30
0
0
SPLINE
5
F8
100
AcDbEntity
8
1
62
256
6
ByLayer
370
18
48
1
60
0
100
AcDbSpline
70
4
71
3
72
14
73
10
40
0
40
0
40
0
40
0
40
0.220170037959094
40
0.220170037959094
40
0.513894544314518
40
0.513894544314518
40
0.779127126142474
40
0.779127126142474
40
1
40
1
40
1
40
1
41
1
10
10.901831672403
20
-1.20426677947708
30
0
41
1
10
10.8601068141321
20
-1.19316721948581
30
0
41
1
10
10.8190010815936
20
-1.17615595144491
30
0
41
1
10
10.7297424597143
20
-1.12352806441649
30
0
41
1
10
10.6823754340564
20
-1.0825327446089
30
0
41
1
10
10.6100836522094
20
-0.989366789372838
30
0
41
1
10
10.5824089980939
20
-0.937167743062219
30
0
41
1
10
10.5506463360883
20
-0.835805457527073
30
0
41
1
10
10.543
20
-0.786330574958896
30
0
41
1
10
10.543
20
-0.737500000000011
30
0
0
SPLINE
5
F9
100
AcDbEntity
8
1
62
256
6
ByLayer
370
18
48
1
60
0
100
AcDbSpline
70
4
71
2
72
6
73
3
40
0
40
0
40
0
40
1
40
1
40
1
41
1
10
30.1702887043921
20
10.1347653261425
30
0
41
1
10
29.819552783945
20
10.1115374694324
30
0
41
1
10
29.4823668305908
20
10.07941464817
30
0
0
SPLINE
5
FA
100
AcDbEntity
8
1
62
256
6
ByLayer
370
18
48
1
60
0
100
AcDbSpline
70
4
71
2
72
6
73
3
40
0
40
0
40
0
40
1
40
1
40
1
41
1
10
29.4823668306204
20
10.079414648178
30
0
41
1
10
29.3769907517283
20
10.0693233680093
30
0
41
1
10
29.3065261768005
20
10.048612431844
30
0
0
SPLINE
5
FB
100
AcDbEntity
8
1
62
256
6
ByLayer
370
18
48
1
60
0
100
AcDbSpline
70
4
71
2
72
10
73
7
40
0
40
0
40
0
40
0.5
40
0.5
40
0.75
40
0.75
40
1
40
1
40
1
41
1
10
30.1703211835005
20
10.990232523738
30
0
41
1
10
30.4005090492969
20
10.9749656263185
30
0
41
1
10
30.5813994958524
20
10.938758356737
30
0
41
1
10
30.6977168199744
20
10.9154761282298
30
0
41
1
10
30.7815407125726
20
10.8855189485082
30
0
41
1
10
30.9246417322624
20
10.8343771698064
30
0
41
1
10
30.9499902265208
20
10.773235586972
30
0
0
SPLINE
5
FC
100
AcDbEntity
8
1
62
256
6
ByLayer
370
18
48
1
60
0
100
AcDbSpline
70
4
71
2
72
6
73
3
40
0
40
0
40
0
40
1
40
1
40
1
41
1
10
30.9499902266708
20
10.773235587058
30
0
41
1
10
30.9884919085573
20
10.6780912650914
30
0
41
1
10
30.9886043049807
20
10.5825000006976
30
0
0
SPLINE
5
FD
100
AcDbEntity
8
1
62
256
6
ByLayer
370
18
48
1
60
0
100
AcDbSpline
70
4
71
3
72
8
73
4
40
0
40
0
40
0
40
0
40
1
40
1
40
1
40
1
41
1
10
30.94999022667
20
10.351764412942
30
0
41
1
10
30.9628615861067
20
10.4153429417288
30
0
41
1
10
30.9757329455433
20
10.4789214705156
30
0
41
1
10
30.98860430498
20
10.5424999993024
30
0
0
SPLINE
5
FE
100
AcDbEntity
8
1
62
256
6
ByLayer
370
18
48
1
60
0
100
AcDbSpline
70
4
71
3
72
11
73
7
40
0
40
0
40
0
40
0
40
0.501938488684683
40
0.752534241960593
40
0.905625170993485
40
1
40
1
40
1
40
1
41
1
10
30.1703211835
20
10.134767476262
30
0
41
1
10
30.3086304670973
20
10.1467104111043
30
0
41
1
10
30.5159914769309
20
10.1646159266625
30
0
41
1
10
30.755123575888
20
10.2284695407915
30
0
41
1
10
30.8887853803522
20
10.2768188069408
30
0
41
1
10
30.9330928857409
20
10.3310735441631
30
0
41
1
10
30.94999022652
20
10.351764413028
30
0
0
SPLINE
5
FF
100
AcDbEntity
8
1
62
256
6
ByLayer
370
18
48
1
60
0
100
AcDbSpline
70
4
71
3
72
8
73
4
40
0
40
0
40
0
40
0
40
1
40
1
40
1
40
1
41
1
10
30.1702887043916
20
10.9902346738549
30
0
41
1
10
29.9409814131244
20
11.0086848998466
30
0
41
1
10
29.7116741218572
20
11.0271351258383
30
0
41
1
10
29.48236683059
20
11.04558535183
30
0
0
SPLINE
5
100
100
AcDbEntity
8
1
62
256
6
ByLayer
370
18
48
1
60
0
100
AcDbSpline
70
4
71
3
72
8
73
4
40
0
40
0
40
0
40
0
40
1
40
1
40
1
40
1
41
1
10
29.48236683062
20
11.0455853518219
30
0
41
1
10
29.4237532793467
20
11.0558527572665
30
0
41
1
10
29.3651397280734
20
11.0661201627112
30
0
41
1
10
29.3065261768
20
11.0763875681559
30
0
0
LINE
5
72
100
AcDbEntity
8
80
62
256
6
ByLayer
370
18
48
1
60
0
100
AcDbLine
10
0
20
0
30
0
11
-5
21
0
31
0
39
0
210
0
220
0
230
1
0
LINE
5
73
100
AcDbEntity
8
81
62
256
6
ByLayer
370
18
48
1
60
0
100
AcDbLine
10
35
20
13.5625
30
0
11
40
21
13.5625
31
0
39
0
210
0
220
0
230
1
0
LINE
5
74
100
AcDbEntity
8
1
62
256
6
ByLayer
370
18
48
1
60
0
100
AcDbLine
10
27.962513
20
13.494371
30
0
11
27.961527
21
13.162487
31
0
39
0
210
0
220
0
230
1
0
LINE
5
76
100
AcDbEntity
8
1
62
256
6
ByLayer
370
18
48
1
60
0
100
AcDbLine
10
20.5
20
6.2875
30
0
11
20.5
21
6.803795
31
0
39
0
210
0
220
0
230
1
0
LINE
5
77
100
AcDbEntity
8
1
62
256
6
ByLayer
370
18
48
1
60
0
100
AcDbLine
10
11
20
12.4375
30
0
11
11.5
21
12.9375
31
0
39
0
210
0
220
0
230
1
0
LINE
5
78
100
AcDbEntity
8
1
62
256
6
ByLayer
370
18
48
1
60
0
100
AcDbLine
10
27.962513
20
13.494371
30
0
11
33.128715
21
13.494371
31
0
39
0
210
0
220
0
230
1
0
LINE
5
79
100
AcDbEntity
8
1
62
256
6
ByLayer
370
18
48
1
60
0
100
AcDbLine
10
20.5
20
6.2875
30
0
11
20.5
21
-6.8875
31
0
39
0
210
0
220
0
230
1
0
LINE
5
7A
100
AcDbEntity
8
1
62
256
6
ByLayer
370
18
48
1
60
0
100
AcDbLine
10
2.569908
20
12.4375
30
0
11
0.5
21
12.4375
31
0
39
0
210
0
220
0
230
1
0
LINE
5
7B
100
AcDbEntity
8
1
62
256
6
ByLayer
370
18
48
1
60
0
100
AcDbLine
10
11
20
12.4375
30
0
11
2.569908
21
12.4375
31
0
39
0
210
0
220
0
230
1
0
LINE
5
7C
100
AcDbEntity
8
1
62
256
6
ByLayer
370
18
48
1
60
0
100
AcDbLine
10
20.5
20
6.2875
30
0
11
17.641438
21
6.2875
31
0
39
0
210
0
220
0
230
1
0
LINE
5
7D
100
AcDbEntity
8
1
62
256
6
ByLayer
370
18
48
1
60
0
100
AcDbLine
10
34
20
13.545116
30
0
11
34
21
14.163784
31
0
39
0
210
0
220
0
230
1
0
LINE
5
7E
100
AcDbEntity
8
1
62
256
6
ByLayer
370
18
48
1
60
0
100
AcDbLine
10
0
20
12.4375
30
0
11
0
21
-12.4375
31
0
39
0
210
0
220
0
230
1
0
LINE
5
7F
100
AcDbEntity
8
1
62
256
6
ByLayer
370
18
48
1
60
0
100
AcDbLine
10
0
20
12.4375
30
0
11
0.5
21
12.4375
31
0
39
0
210
0
220
0
230
1
0
LINE
5
80
100
AcDbEntity
8
1
62
256
6
ByLayer
370
18
48
1
60
0
100
AcDbLine
10
0.5
20
12.4375
30
0
11
0.5
21
-12.439682
31
0
39
0
210
0
220
0
230
1
0
LINE
5
81
100
AcDbEntity
8
1
62
256
6
ByLayer
370
18
48
1
60
0
100
AcDbLine
10
27.309223
20
10.2875
30
0
11
27.309223
21
10.8375
31
0
39
0
210
0
220
0
230
1
0
LINE
5
82
100
AcDbEntity
8
1
62
256
6
ByLayer
370
18
48
1
60
0
100
AcDbLine
10
11.779477
20
13.980522
30
0
11
13.63852
21
20.918564
31
0
39
0
210
0
220
0
230
1
0
LINE
5
83
100
AcDbEntity
8
1
62
256
6
ByLayer
370
18
48
1
60
0
100
AcDbLine
10
20.501616
20
6.4125
30
0
11
20.504877
21
6.4125
31
0
39
0
210
0
220
0
230
1
0
LINE
5
84
100
AcDbEntity
8
1
62
256
6
ByLayer
370
18
48
1
60
0
100
AcDbLine
10
24.95
20
13.337471
30
0
11
24.95
21
13.50549
31
0
39
0
210
0
220
0
230
1
0
LINE
5
85
100
AcDbEntity
8
1
62
256
6
ByLayer
370
18
48
1
60
0
100
AcDbLine
10
22.1
20
7.927957
30
0
11
22.1
21
8.246697
31
0
39
0
210
0
220
0
230
1
0
LINE
5
86
100
AcDbEntity
8
1
62
256
6
ByLayer
370
18
48
1
60
0
100
AcDbLine
10
0.5
20
-12.439682
30
0
11
2.569908
21
-12.473389
31
0
39
0
210
0
220
0
230
1
0
LINE
5
87
100
AcDbEntity
8
1
62
256
6
ByLayer
370
18
48
1
60
0
100
AcDbLine
10
11.779465
20
13.980476
30
0
11
11.5
21
12.9375
31
0
39
0
210
0
220
0
230
1
0
LINE
5
88
100
AcDbEntity
8
1
62
256
6
ByLayer
370
18
48
1
60
0
100
AcDbLine
10
14.914111
20
-12.473389
30
0
11
20.5
21
-6.8875
31
0
39
0
210
0
220
0
230
1
0
LINE
5
89
100
AcDbEntity
8
1
62
256
6
ByLayer
370
18
48
1
60
0
100
AcDbLine
10
17.641438
20
13.980476
30
0
11
11.779465
21
13.980476
31
0
39
0
210
0
220
0
230
1
0
LINE
5
8A
100
AcDbEntity
8
1
62
256
6
ByLayer
370
18
48
1
60
0
100
AcDbLine
10
25.04247
20
13.505315
30
0
11
25.041448
21
13.333246
31
0
39
0
210
0
220
0
230
1
0
LINE
5
8B
100
AcDbEntity
8
1
62
256
6
ByLayer
370
18
48
1
60
0
100
AcDbLine
10
2.569908
20
12.4375
30
0
11
2.569908
21
-12.473389
31
0
39
0
210
0
220
0
230
1
0
LINE
5
8C
100
AcDbEntity
8
1
62
256
6
ByLayer
370
18
48
1
60
0
100
AcDbLine
10
22.243275
20
13.50549
30
0
11
24.95
21
13.50549
31
0
39
0
210
0
220
0
230
1
0
LINE
5
8D
100
AcDbEntity
8
1
62
256
6
ByLayer
370
18
48
1
60
0
100
AcDbLine
10
24.782487
20
20.918564
30
0
11
13.63852
21
20.918564
31
0
39
0
210
0
220
0
230
1
0
LINE
5
8E
100
AcDbEntity
8
1
62
256
6
ByLayer
370
18
48
1
60
0
100
AcDbLine
10
2.569908
20
-12.473389
30
0
11
14.914111
21
-12.473389
31
0
39
0
210
0
220
0
230
1
0
LINE
5
8F
100
AcDbEntity
8
1
62
256
6
ByLayer
370
18
48
1
60
0
100
AcDbLine
10
17.641438
20
6.2875
30
0
11
17.641438
21
13.980476
31
0
39
0
210
0
220
0
230
1
0
LINE
5
90
100
AcDbEntity
8
1
62
256
6
ByLayer
370
18
48
1
60
0
100
AcDbLine
10
0.5
20
-12.439682
30
0
11
0
21
-12.4375
31
0
39
0
210
0
220
0
230
1
0
LINE
5
91
100
AcDbEntity
8
SK1
62
256
6
ByLayer
370
18
48
1
60
0
100
AcDbLine
10
-116.35
20
-12.4375
30
0
11
0
21
-12.4375
31
0
39
0
210
0
220
0
230
1
0
LINE
5
93
100
AcDbEntity
8
SK1
62
256
6
ByLayer
370
18
48
1
60
0
100
AcDbLine
10
0
20
12.4375
30
0
11
-116.35
21
12.4375
31
0
39
0
210
0
220
0
230
1
0
LINE
5
94
100
AcDbEntity
8
SK1
62
256
6
ByLayer
370
18
48
1
60
0
100
AcDbLine
10
0
20
12.4375
30
0
11
0
21
-12.4375
31
0
39
0
210
0
220
0
230
1
0
LINE
5
95
100
AcDbEntity
8
SK1
62
256
6
ByLayer
370
18
48
1
60
0
100
AcDbLine
10
-116.35
20
12.4375
30
0
11
-116.35
21
-12.4375
31
0
39
0
210
0
220
0
230
1
0
LINE
5
96
100
AcDbEntity
8
1
62
256
6
ByLayer
370
18
48
1
60
0
100
AcDbLine
10
27.611484
20
12.921249
30
0
11
26.782625
21
12.921249
31
0
39
0
210
0
220
0
230
1
0
LINE
5
97
100
AcDbEntity
8
1
62
256
6
ByLayer
370
18
48
1
60
0
100
AcDbLine
10
27.618068
20
12.903884
30
0
11
26.785103
21
12.903884
31
0
39
0
210
0
220
0
230
1
0
LINE
5
98
100
AcDbEntity
8
1
62
256
6
ByLayer
370
18
48
1
60
0
100
AcDbLine
10
27.618068
20
8.221116
30
0
11
26.785103
21
8.221116
31
0
39
0
210
0
220
0
230
1
0
LINE
5
99
100
AcDbEntity
8
1
62
256
6
ByLayer
370
18
48
1
60
0
100
AcDbLine
10
27.611484
20
8.203751
30
0
11
26.782625
21
8.203751
31
0
39
0
210
0
220
0
230
1
0
LINE
5
9A
100
AcDbEntity
8
1
62
256
6
ByLayer
370
18
48
1
60
0
100
AcDbLine
10
27.611484
20
13.1625
30
0
11
26.747643
21
13.1625
31
0
39
0
210
0
220
0
230
1
0
LINE
5
9B
100
AcDbEntity
8
1
62
256
6
ByLayer
370
18
48
1
60
0
100
AcDbLine
10
27.611484
20
7.9625
30
0
11
26.747643
21
7.9625
31
0
39
0
210
0
220
0
230
1
0
LINE
5
9C
100
AcDbEntity
8
1
62
256
6
ByLayer
370
18
48
1
60
0
100
AcDbLine
10
28.90992
20
9.912566
30
0
11
27.030211
21
9.912566
31
0
39
0
210
0
220
0
230
1
0
LINE
5
9D
100
AcDbEntity
8
1
62
256
6
ByLayer
370
18
48
1
60
0
100
AcDbLine
10
28.90992
20
11.212434
30
0
11
27.030211
21
11.212434
31
0
39
0
210
0
220
0
230
1
0
LINE
5
9E
100
AcDbEntity
8
1
62
256
6
ByLayer
370
18
48
1
60
0
100
AcDbLine
10
28.995391
20
9.956835
30
0
11
27.036625
21
9.956835
31
0
39
0
210
0
220
0
230
1
0
LINE
5
9F
100
AcDbEntity
8
1
62
256
6
ByLayer
370
18
48
1
60
0
100
AcDbLine
10
28.995391
20
11.168165
30
0
11
27.036625
21
11.168165
31
0
39
0
210
0
220
0
230
1
0
LINE
5
A0
100
AcDbEntity
8
1
62
256
6
ByLayer
370
18
48
1
60
0
100
AcDbLine
10
27.066222
20
10.048612
30
0
11
29.306526
21
10.048612
31
0
39
0
210
0
220
0
230
1
0
LINE
5
A1
100
AcDbEntity
8
1
62
256
6
ByLayer
370
18
48
1
60
0
100
AcDbLine
10
27.066009
20
11.076388
30
0
11
29.306526
21
11.076388
31
0
39
0
210
0
220
0
230
1
0
LINE
5
A2
100
AcDbEntity
8
1
62
256
6
ByLayer
370
18
48
1
60
0
100
AcDbLine
10
29.482367
20
11.045585
30
0
11
27.092215
21
11.045585
31
0
39
0
210
0
220
0
230
1
0
LINE
5
A3
100
AcDbEntity
8
1
62
256
6
ByLayer
370
18
48
1
60
0
100
AcDbLine
10
29.482367
20
10.079415
30
0
11
27.092979
21
10.079415
31
0
39
0
210
0
220
0
230
1
0
LINE
5
A4
100
AcDbEntity
8
1
62
256
6
ByLayer
370
18
48
1
60
0
100
AcDbLine
10
30.170287
20
10.990233
30
0
11
27.201766
21
10.990233
31
0
39
0
210
0
220
0
230
1
0
LINE
5
A5
100
AcDbEntity
8
1
62
256
6
ByLayer
370
18
48
1
60
0
100
AcDbLine
10
30.170287
20
10.134767
30
0
11
27.201766
21
10.134767
31
0
39
0
210
0
220
0
230
1
0
LINE
5
A6
100
AcDbEntity
8
1
62
256
6
ByLayer
370
18
48
1
60
0
100
AcDbLine
10
27.309101
20
10.773236
30
0
11
30.94999
21
10.773236
31
0
39
0
210
0
220
0
230
1
0
LINE
5
A7
100
AcDbEntity
8
1
62
256
6
ByLayer
370
18
48
1
60
0
100
AcDbLine
10
27.309101
20
10.351764
30
0
11
30.94999
21
10.351764
31
0
39
0
210
0
220
0
230
1
0
LINE
5
A8
100
AcDbEntity
8
1
62
256
6
ByLayer
370
18
48
1
60
0
100
AcDbLine
10
27.309192
20
10.5825
30
0
11
30.988604
21
10.5825
31
0
39
0
210
0
220
0
230
1
0
LINE
5
A9
100
AcDbEntity
8
1
62
256
6
ByLayer
370
18
48
1
60
0
100
AcDbLine
10
27.309192
20
10.5425
30
0
11
30.988604
21
10.5425
31
0
39
0
210
0
220
0
230
1
0
LINE
5
AA
100
AcDbEntity
8
1
62
256
6
ByLayer
370
18
48
1
60
0
100
AcDbLine
10
10
20
13.179374
30
0
11
10
21
12.43749
31
0
39
0
210
0
220
0
230
1
0
LINE
5
AB
100
AcDbEntity
8
1
62
256
6
ByLayer
370
18
48
1
60
0
100
AcDbLine
10
10.423256
20
13.578697
30
0
11
11.652598
21
13.507103
31
0
39
0
210
0
220
0
230
1
0
LINE
5
AC
100
AcDbEntity
8
1
62
256
6
ByLayer
370
18
48
1
60
0
100
AcDbLine
10
29.039855
20
7.9625
30
0
11
27.611484
21
7.9625
31
0
39
0
210
0
220
0
230
1
0
LINE
5
AD
100
AcDbEntity
8
1
62
256
6
ByLayer
370
18
48
1
60
0
100
AcDbLine
10
27.611484
20
8.203751
30
0
11
27.611484
21
7.9625
31
0
39
0
210
0
220
0
230
1
0
LINE
5
AE
100
AcDbEntity
8
1
62
256
6
ByLayer
370
18
48
1
60
0
100
AcDbLine
10
29.467511
20
7.729591
30
0
11
32.143073
21
7.641422
31
0
39
0
210
0
220
0
230
1
0
LINE
5
AF
100
AcDbEntity
8
1
62
256
6
ByLayer
370
18
48
1
60
0
100
AcDbLine
10
29.306526
20
10.048612
30
0
11
28.995391
21
9.956835
31
0
39
0
210
0
220
0
230
1
0
LINE
5
B0
100
AcDbEntity
8
1
62
256
6
ByLayer
370
18
48
1
60
0
100
AcDbLine
10
28.90992
20
9.912566
30
0
11
27.618066
21
8.221118
31
0
39
0
210
0
220
0
230
1
0
LINE
5
B1
100
AcDbEntity
8
1
62
256
6
ByLayer
370
18
48
1
60
0
100
AcDbLine
10
29.467511
20
7.729591
30
0
11
29.039855
21
7.9625
31
0
39
0
210
0
220
0
230
1
0
LINE
5
B2
100
AcDbEntity
8
1
62
256
6
ByLayer
370
18
48
1
60
0
100
AcDbLine
10
34.576744
20
7.546303
30
0
11
32.568682
21
7.663247
31
0
39
0
210
0
220
0
230
1
0
LINE
5
B3
100
AcDbEntity
8
1
62
256
6
ByLayer
370
18
48
1
60
0
100
AcDbLine
10
32.568682
20
7.663247
30
0
11
32.143073
21
7.641422
31
0
39
0
210
0
220
0
230
1
0
LINE
5
B4
100
AcDbEntity
8
1
62
256
6
ByLayer
370
18
48
1
60
0
100
AcDbLine
10
27.611484
20
12.921249
30
0
11
27.611484
21
13.1625
31
0
39
0
210
0
220
0
230
1
0
LINE
5
B5
100
AcDbEntity
8
1
62
256
6
ByLayer
370
18
48
1
60
0
100
AcDbLine
10
35
20
13.179374
30
0
11
35
21
7.945626
31
0
39
0
210
0
220
0
230
1
0
LINE
5
B6
100
AcDbEntity
8
1
62
256
6
ByLayer
370
18
48
1
60
0
100
AcDbLine
10
30.988604
20
10.5825
30
0
11
30.988604
21
10.5425
31
0
39
0
210
0
220
0
230
1
0
LINE
5
B7
100
AcDbEntity
8
1
62
256
6
ByLayer
370
18
48
1
60
0
100
AcDbLine
10
32.143073
20
7.641422
30
0
11
32.143073
21
13.483578
31
0
39
0
210
0
220
0
230
1
0
LINE
5
B8
100
AcDbEntity
8
1
62
256
6
ByLayer
370
18
48
1
60
0
100
AcDbLine
10
29.467511
20
13.395409
30
0
11
29.039855
21
13.1625
31
0
39
0
210
0
220
0
230
1
0
LINE
5
B9
100
AcDbEntity
8
1
62
256
6
ByLayer
370
18
48
1
60
0
100
AcDbLine
10
29.039855
20
13.1625
30
0
11
27.611484
21
13.1625
31
0
39
0
210
0
220
0
230
1
0
LINE
5
BA
100
AcDbEntity
8
1
62
256
6
ByLayer
370
18
48
1
60
0
100
AcDbLine
10
32.568682
20
13.461753
30
0
11
32.143073
21
13.483578
31
0
39
0
210
0
220
0
230
1
0
LINE
5
BB
100
AcDbEntity
8
1
62
256
6
ByLayer
370
18
48
1
60
0
100
AcDbLine
10
32.568682
20
13.461753
30
0
11
32.568682
21
7.663247
31
0
39
0
210
0
220
0
230
1
0
LINE
5
BC
100
AcDbEntity
8
1
62
256
6
ByLayer
370
18
48
1
60
0
100
AcDbLine
10
34.576744
20
13.578697
30
0
11
32.568682
21
13.461753
31
0
39
0
210
0
220
0
230
1
0
LINE
5
BD
100
AcDbEntity
8
1
62
256
6
ByLayer
370
18
48
1
60
0
100
AcDbLine
10
29.467511
20
13.395409
30
0
11
32.143073
21
13.483578
31
0
39
0
210
0
220
0
230
1
0
LINE
5
BE
100
AcDbEntity
8
1
62
256
6
ByLayer
370
18
48
1
60
0
100
AcDbLine
10
29.306526
20
11.076388
30
0
11
28.995391
21
11.168165
31
0
39
0
210
0
220
0
230
1
0
LINE
5
BF
100
AcDbEntity
8
1
62
256
6
ByLayer
370
18
48
1
60
0
100
AcDbLine
10
28.90992
20
11.212434
30
0
11
27.618066
21
12.903882
31
0
39
0
210
0
220
0
230
1
0
MTEXT
5
101
100
AcDbEntity
8
SK6
62
256
6
ByLayer
370
18
48
1
60
0
100
AcDbMText
10
-69.799987
20
-19.652412
30
0
210
0
220
0
230
1
1
\W0.7498;RF123K13-2525B-058BM
40
3.5
41
0
44
1.084337
50
0
71
7
72
5
7
iso_b_vert
0
DIMENSION
5
112
100
AcDbEntity
8
2
62
256
6
ByLayer
370
13
48
1
60
0
100
AcDbDimension
2
DimnDraft3D1
10
49.25
20
13.5625
30
0
11
49.25
21
9.555921
31
0
70
32
71
5
72
1
41
1
210
0
220
0
230
1
3
Standard
100
AcDbAlignedDimension
13
36.5
23
7.5625
33
0
14
36.5
24
13.5625
34
0
50
90
100
AcDbRotatedDimension
1001
ACAD
1000
DSTYLE
1002
{
1070
    74
1070
     0
1070
   279
1070
     0
1070
   172
1070
     1
1070
   173
1070
     1
1070
   340
1005
102
1070
   271
1070
     3
1070
   272
1070
     3
1070
    77
1070
     1
1070
    73
1070
     0
1070
   171
1070
     4
1070
   274
1070
     4
1070
   177
1070
     2
1070
   176
1070
     2
1070
   178
1070
     7
1070
    78
1070
     8
1070
    41
1041
3.0
1070
   147
1041
2.25
1070
    42
1041
1.5
1070
    44
1041
3.0
1070
   140
1041
4.5
1070
   343
1005
113
1070
   344
1005
113
1002
}
0
DIMENSION
5
127
100
AcDbEntity
8
2
62
256
6
ByLayer
370
13
48
1
60
0
100
AcDbDimension
2
DimnDraft3D2
10
59.25
20
-12.4375
30
0
11
59.25
21
-2.125658
31
0
70
32
71
5
72
1
41
1
210
0
220
0
230
1
3
Standard
100
AcDbAlignedDimension
13
36.5
23
13.5625
33
0
14
-3.5
24
-12.4375
34
0
50
90
100
AcDbRotatedDimension
1001
ACAD
1000
DSTYLE
1002
{
1070
    74
1070
     0
1070
   279
1070
     0
1070
   172
1070
     1
1070
   173
1070
     1
1070
   340
1005
102
1070
   271
1070
     3
1070
   272
1070
     3
1070
    77
1070
     1
1070
    73
1070
     0
1070
   171
1070
     4
1070
   274
1070
     4
1070
   177
1070
     2
1070
   176
1070
     2
1070
   178
1070
     7
1070
    78
1070
     8
1070
    41
1041
3.0
1070
   147
1041
2.25
1070
    42
1041
1.5
1070
    44
1041
3.0
1070
   140
1041
4.5
1070
   343
1005
113
1070
   344
1005
113
1002
}
0
DIMENSION
5
136
100
AcDbEntity
8
SK2
62
256
6
ByLayer
370
13
48
1
60
0
100
AcDbDimension
2
DimnDraft3D3
10
-126.1
20
-12.4375
30
0
11
-126.1
21
-2.688158
31
0
70
32
71
5
72
1
41
1
210
0
220
0
230
1
3
Standard
100
AcDbAlignedDimension
13
-117.85
23
12.4375
33
0
14
-117.85
24
-12.4375
34
0
50
90
100
AcDbRotatedDimension
1001
ACAD
1000
DSTYLE
1002
{
1070
    74
1070
     0
1070
   279
1070
     0
1070
   172
1070
     1
1070
   173
1070
     1
1070
   340
1005
102
1070
   271
1070
     3
1070
   272
1070
     3
1070
    77
1070
     1
1070
    73
1070
     0
1070
   171
1070
     4
1070
   274
1070
     4
1070
   177
1070
     2
1070
   176
1070
     2
1070
   178
1070
     7
1070
    78
1070
     8
1070
    41
1041
3.0
1070
   147
1041
2.25
1070
    42
1041
1.5
1070
    44
1041
3.0
1070
   140
1041
4.5
1070
   343
1005
113
1070
   344
1005
113
1002
}
0
DIMENSION
5
144
100
AcDbEntity
8
2
62
256
6
ByLayer
370
13
48
1
60
0
100
AcDbDimension
2
DimnDraft3D4
10
0
20
28.284274
30
0
11
14.811842
21
28.284274
31
0
70
32
71
5
72
1
41
1
210
0
220
0
230
1
3
Standard
100
AcDbAlignedDimension
13
35
23
15.0625
33
0
14
0
24
13.9375
34
0
50
0
100
AcDbRotatedDimension
1001
ACAD
1000
DSTYLE
1002
{
1070
   279
1070
     0
1070
   172
1070
     1
1070
   173
1070
     1
1070
   340
1005
102
1070
   271
1070
     3
1070
   272
1070
     3
1070
    77
1070
     1
1070
    73
1070
     0
1070
   171
1070
     4
1070
   274
1070
     4
1070
   177
1070
     2
1070
   176
1070
     2
1070
   178
1070
     7
1070
    78
1070
     8
1070
    41
1041
3.0
1070
   147
1041
2.25
1070
    42
1041
1.5
1070
    44
1041
3.0
1070
   140
1041
4.5
1070
   343
1005
113
1070
   344
1005
113
1002
}
0
DIMENSION
5
152
100
AcDbEntity
8
SK2
62
256
6
ByLayer
370
13
48
1
60
0
100
AcDbDimension
2
DimnDraft3D5
10
-116.35
20
38.284274
30
0
11
-44.482237
21
38.284274
31
0
70
32
71
5
72
1
41
1
210
0
220
0
230
1
3
Standard
100
AcDbAlignedDimension
13
35
23
15.0625
33
0
14
-116.35
24
13.9375
34
0
50
0
100
AcDbRotatedDimension
1001
ACAD
1000
DSTYLE
1002
{
1070
   279
1070
     0
1070
   172
1070
     1
1070
   173
1070
     1
1070
   340
1005
102
1070
   271
1070
     3
1070
   272
1070
     3
1070
    77
1070
     1
1070
    73
1070
     0
1070
   171
1070
     4
1070
   274
1070
     4
1070
   177
1070
     2
1070
   176
1070
     2
1070
   178
1070
     7
1070
    78
1070
     8
1070
    41
1041
3.0
1070
   147
1041
2.25
1070
    42
1041
1.5
1070
    44
1041
3.0
1070
   140
1041
4.5
1070
   343
1005
113
1070
   344
1005
113
1002
}
0
DIMENSION
5
160
100
AcDbEntity
8
2
62
256
6
ByLayer
370
13
48
1
60
0
100
AcDbDimension
2
DimnDraft3D6
10
35
20
-26.6875
30
0
11
26.374342
21
-26.6875
31
0
70
32
71
5
72
1
41
1
210
0
220
0
230
1
3
Standard
100
AcDbAlignedDimension
13
22
23
5.0625
33
0
14
35
24
6.0625
34
0
50
0
100
AcDbRotatedDimension
1001
ACAD
1000
DSTYLE
1002
{
1070
   279
1070
     0
1070
   172
1070
     1
1070
   173
1070
     1
1070
   340
1005
102
1070
   271
1070
     3
1070
   272
1070
     3
1070
    77
1070
     1
1070
    73
1070
     0
1070
   171
1070
     4
1070
   274
1070
     4
1070
   177
1070
     2
1070
   176
1070
     2
1070
   178
1070
     7
1070
    78
1070
     8
1070
    41
1041
3.0
1070
   147
1041
2.25
1070
    42
1041
1.5
1070
    44
1041
3.0
1070
   140
1041
4.5
1070
   343
1005
113
1070
   344
1005
113
1002
}
0
ENDSEC
0
SECTION
2
OBJECTS
0
DICTIONARY
5
1ca
330
0
100
AcDbDictionary
280
0
281
1
3
ACAD_GROUP
350
1cb
3
ACAD_MLINESTYLE
350
1cc
0
DICTIONARY
5
1cb
330
0
100
AcDbDictionary
280
0
281
1
0
DICTIONARY
5
1cc
330
0
100
AcDbDictionary
280
0
281
1
3
Standard
350
18
0
MLINESTYLE
5
18
330
1cc
100
AcDbMlineStyle
2
Standard
70
0
3

62
256
51
90
52
90
71
2
49
-0.5
62
256
6
ByLayer
49
0.5
62
256
6
ByLayer
0
RASTERVARIABLES
5
1b9
330

100
AcDbRasterVariables
90
0
70
1
71
1
72
1
0
ENDSEC
0
EOF
