0
SECTION
2
HEADER
9
$ACADVER
1
AC1015
9
$DWGCODEPAGE
3
ANSI_1252
9
$HANDSEED
5
1d4
9
$ANGBASE
50
0
9
$ANGDIR
70
0
9
$ATTMODE
70
1
9
$AUNITS
70
0
9
$AUPREC
70
0
9
$CECOLOR
62
256
9
$CELTSCALE
40
1
9
$CELTYPE
6
ByLayer
9
$CELWEIGHT
370
18
9
$CLAYER
8
0
9
$CMLJUST
70
0
9
$CMLSCALE
40
1
9
$CMLSTYLE
2
Standard
9
$DIMSTYLE
2
Standard
9
$TEXTSIZE
40
0.2
9
$TEXTSTYLE
7
Standard
9
$LUNITS
70
2
9
$LUPREC
70
4
9
$EXTNAMES
290
1
9
$INSUNITS
70
4
9
$LTSCALE
40
1
9
$LWDISPLAY
290
1
9
$PDMODE
70
0
9
$PDSIZE
40
0
9
$PLINEGEN
70
0
0
ENDSEC
0
SECTION
2
CLASSES
0
CLASS
1
RASTERVARIABLES
2
AcDbRasterVariables
3
ISM
90
0
280
0
281
0
0
ENDSEC
0
SECTION
2
TABLES
0
TABLE
2
VPORT
5
1ca
100
AcDbSymbolTable
0
VPORT
5
1
100
AcDbSymbolTableRecord
100
AcDbViewportTableRecord
2
*Active
70
0
10
0
20
0
11
1
21
1
12
-1
22
1
13
0
23
0
14
0.5
24
0.5
15
10
25
10
16
0
26
0
36
1
17
0
27
0
37
0
0
ENDTAB
0
TABLE
2
LTYPE
5
1cb
100
AcDbSymbolTable
0
LTYPE
5
14
100
AcDbSymbolTableRecord
100
AcDbLinetypeTableRecord
70
0
2
ByBlock
3

72
65
73
0
40
0
0
LTYPE
5
15
100
AcDbSymbolTableRecord
100
AcDbLinetypeTableRecord
70
0
2
ByLayer
3

72
65
73
0
40
0
0
LTYPE
5
16
100
AcDbSymbolTableRecord
100
AcDbLinetypeTableRecord
70
0
2
CONTINUOUS
3
Solid line
72
65
73
0
40
0
0
LTYPE
5
6A
100
AcDbSymbolTableRecord
100
AcDbLinetypeTableRecord
70
0
2
CENTER
3
____ _ ____ _ ____ _ ____
72
65
73
4
40
47.5
49
22
74
0
49
-8.5
74
0
49
8.5
74
0
49
-8.5
74
0
0
LTYPE
5
6B
100
AcDbSymbolTableRecord
100
AcDbLinetypeTableRecord
70
0
2
DASHED
3
__ __ __ __ __ __ __ __ __
72
65
73
2
40
25.72
49
12.86
74
0
49
-12.86
74
0
0
ENDTAB
0
TABLE
2
LAYER
5
1cc
100
AcDbSymbolTable
0
LAYER
5
10
100
AcDbSymbolTableRecord
100
AcDbLayerTableRecord
2
0
70
0
62
7
6
CONTINUOUS
290
1
370
-3
390
0
0
LAYER
5
6D
100
AcDbSymbolTableRecord
100
AcDbLayerTableRecord
2
80
70
0
62
-6
6
CONTINUOUS
290
1
370
-3
390
0
0
LAYER
5
6F
100
AcDbSymbolTableRecord
100
AcDbLayerTableRecord
2
2
70
0
62
7
6
CONTINUOUS
290
1
370
-3
390
0
0
LAYER
5
71
100
AcDbSymbolTableRecord
100
AcDbLayerTableRecord
2
81
70
0
62
-3
6
CONTINUOUS
290
1
370
-3
390
0
0
LAYER
5
75
100
AcDbSymbolTableRecord
100
AcDbLayerTableRecord
2
1
70
0
62
4
6
CONTINUOUS
290
1
370
-3
390
0
0
LAYER
5
1b7
100
AcDbSymbolTableRecord
100
AcDbLayerTableRecord
2
SK1
70
0
62
4
6
CONTINUOUS
290
1
370
-3
390
0
0
LAYER
5
1b8
100
AcDbSymbolTableRecord
100
AcDbLayerTableRecord
2
SK6
70
0
62
5
6
CONTINUOUS
290
1
370
-3
390
0
0
LAYER
5
1b9
100
AcDbSymbolTableRecord
100
AcDbLayerTableRecord
2
SK2
70
0
62
7
6
CONTINUOUS
290
1
370
-3
390
0
0
ENDTAB
0
TABLE
2
STYLE
5
1cd
100
AcDbSymbolTable
0
STYLE
5
11
100
AcDbSymbolTableRecord
100
AcDbTextStyleTableRecord
2
Standard
3
txt
70
0
71
0
40
0
41
1
42
0
50
0
0
STYLE
5
FF
100
AcDbSymbolTableRecord
100
AcDbTextStyleTableRecord
2
iso_b_vert
3
simplex.shx
70
0
71
0
40
0
41
1
42
0
50
0
0
STYLE
5
100
100
AcDbSymbolTableRecord
100
AcDbTextStyleTableRecord
2
DWGDirectTextStyle
3
simplex
70
0
71
0
40
0
41
1
42
0
50
0
0
ENDTAB
0
TABLE
2
DIMSTYLE
5
1ce
100
AcDbSymbolTable
100
AcDbDimStyleTable
0
DIMSTYLE
105
27
100
AcDbSymbolTableRecord
100
AcDbDimStyleTableRecord
2
Standard
70
0
3
<>
41
0.18
42
0.0625
44
0.18
140
0.18
147
0.09
73
0
74
0
77
1
271
2
275
0
278
52
280
0
340
11
0
ENDTAB
0
TABLE
2
VIEW
5
1cf
100
AcDbSymbolTable
0
ENDTAB
0
TABLE
2
UCS
5
1d0
100
AcDbSymbolTable
0
ENDTAB
0
TABLE
2
APPID
5
1d1
100
AcDbSymbolTable
0
APPID
5
12
100
AcDbSymbolTableRecord
100
AcDbRegAppTableRecord
2
ACAD
70
0
0
ENDTAB
0
TABLE
2
BLOCK_RECORD
5
1d2
100
AcDbSymbolTable
0
BLOCK_RECORD
5
1F
100
AcDbSymbolTableRecord
100
AcDbBlockTableRecord
2
*Model_Space
340
0
70
0
0
BLOCK_RECORD
5
1B
100
AcDbSymbolTableRecord
100
AcDbBlockTableRecord
2
*Paper_Space
340
0
70
0
0
BLOCK_RECORD
5
23
100
AcDbSymbolTableRecord
100
AcDbBlockTableRecord
2
*Paper_Space0
340
0
70
0
0
BLOCK_RECORD
5
102
100
AcDbSymbolTableRecord
100
AcDbBlockTableRecord
2
DimnDraft3D1
340
0
70
0
0
BLOCK_RECORD
5
110
100
AcDbSymbolTableRecord
100
AcDbBlockTableRecord
2
_CLOSED
340
0
70
0
0
BLOCK_RECORD
5
117
100
AcDbSymbolTableRecord
100
AcDbBlockTableRecord
2
DimnDraft3D2
340
0
70
0
0
BLOCK_RECORD
5
125
100
AcDbSymbolTableRecord
100
AcDbBlockTableRecord
2
DimnDraft3D3
340
0
70
0
0
BLOCK_RECORD
5
134
100
AcDbSymbolTableRecord
100
AcDbBlockTableRecord
2
DimnDraft3D4
340
0
70
0
0
BLOCK_RECORD
5
142
100
AcDbSymbolTableRecord
100
AcDbBlockTableRecord
2
DimnDraft3D5
340
0
70
0
0
BLOCK_RECORD
5
150
100
AcDbSymbolTableRecord
100
AcDbBlockTableRecord
2
DimnDraft3D6
340
0
70
0
0
ENDTAB
0
ENDSEC
0
SECTION
2
BLOCKS
0
BLOCK
5
20
100
AcDbEntity
8
0
100
AcDbBlockBegin
2
*Model_Space
70
0
10
0
20
0
30
0
3
*Model_Space
0
ENDBLK
5
21
100
AcDbEntity
8
0
100
AcDbBlockEnd
0
BLOCK
5
1C
100
AcDbEntity
8
0
100
AcDbBlockBegin
2
*Paper_Space
70
0
10
0
20
0
30
0
3
*Paper_Space
0
ENDBLK
5
1D
100
AcDbEntity
8
0
100
AcDbBlockEnd
0
BLOCK
5
24
100
AcDbEntity
8
0
100
AcDbBlockBegin
2
*Paper_Space0
70
0
10
0
20
0
30
0
3
*Paper_Space0
0
ENDBLK
5
25
100
AcDbEntity
8
0
100
AcDbBlockEnd
0
BLOCK
5
10D
100
AcDbEntity
8
0
100
AcDbBlockBegin
2
DimnDraft3D1
70
0
10
0
20
0
30
0
3
DimnDraft3D1
0
MTEXT
5
103
100
AcDbEntity
8
2
62
256
6
ByLayer
370
18
48
1
60
0
100
AcDbMText
10
70.125
20
22.7
30
0
210
0
220
0
230
1
1
\W0.5404;5
40
4.5
41
0
44
1.084337
50
90
71
7
72
5
7
iso_b_vert
0
LINE
5
104
100
AcDbEntity
8
2
62
256
6
ByLayer
370
13
48
1
60
0
100
AcDbLine
10
58.5
20
12.075
30
0
11
74.25
21
12.075
31
0
39
0
210
0
220
0
230
1
0
LINE
5
105
100
AcDbEntity
8
2
62
256
6
ByLayer
370
13
48
1
60
0
100
AcDbLine
10
58.5
20
17.075
30
0
11
74.25
21
17.075
31
0
39
0
210
0
220
0
230
1
0
LINE
5
106
100
AcDbEntity
8
2
62
256
6
ByLayer
370
13
48
1
60
0
100
AcDbLine
10
71.25
20
23.588158
30
0
11
71.25
21
0.825
31
0
39
0
210
0
220
0
230
1
0
LINE
5
107
100
AcDbEntity
8
2
62
256
6
ByLayer
370
13
48
1
60
0
100
AcDbLine
10
71.25
20
12.075
30
0
11
71.644957
21
9.075001
31
0
39
0
210
0
220
0
230
1
0
LINE
5
108
100
AcDbEntity
8
2
62
256
6
ByLayer
370
13
48
1
60
0
100
AcDbLine
10
71.25
20
12.075
30
0
11
70.855043
21
9.074999
31
0
39
0
210
0
220
0
230
1
0
LINE
5
109
100
AcDbEntity
8
2
62
256
6
ByLayer
370
13
48
1
60
0
100
AcDbLine
10
71.644957
20
9.075001
30
0
11
70.855043
21
9.074999
31
0
39
0
210
0
220
0
230
1
0
LINE
5
10A
100
AcDbEntity
8
2
62
256
6
ByLayer
370
13
48
1
60
0
100
AcDbLine
10
71.25
20
17.075
30
0
11
70.855043
21
20.074999
31
0
39
0
210
0
220
0
230
1
0
LINE
5
10B
100
AcDbEntity
8
2
62
256
6
ByLayer
370
13
48
1
60
0
100
AcDbLine
10
71.25
20
17.075
30
0
11
71.644957
21
20.075001
31
0
39
0
210
0
220
0
230
1
0
LINE
5
10C
100
AcDbEntity
8
2
62
256
6
ByLayer
370
13
48
1
60
0
100
AcDbLine
10
70.855043
20
20.074999
30
0
11
71.644957
21
20.075001
31
0
39
0
210
0
220
0
230
1
0
ENDBLK
5
10E
100
AcDbEntity
8
0
100
AcDbBlockEnd
0
BLOCK
5
111
100
AcDbEntity
8
0
100
AcDbBlockBegin
2
_CLOSED
70
0
10
0
20
0
30
0
3
_CLOSED
0
LINE
5
113
100
AcDbEntity
8
0
62
256
6
ByLayer
370
-2
48
1
60
0
100
AcDbLine
10
-1
20
0.166667
30
0
11
0
21
0
31
0
39
0
210
0
220
0
230
1
0
LINE
5
114
100
AcDbEntity
8
0
62
256
6
ByLayer
370
-2
48
1
60
0
100
AcDbLine
10
0
20
0
30
0
11
-1
21
-0.166667
31
0
39
0
210
0
220
0
230
1
0
LINE
5
115
100
AcDbEntity
8
0
62
256
6
ByLayer
370
-2
48
1
60
0
100
AcDbLine
10
-1
20
0.166667
30
0
11
-1
21
-0.166667
31
0
39
0
210
0
220
0
230
1
0
LINE
5
116
100
AcDbEntity
8
0
62
256
6
ByLayer
370
-2
48
1
60
0
100
AcDbLine
10
0
20
0
30
0
11
-1
21
0
31
0
39
0
210
0
220
0
230
1
0
ENDBLK
5
112
100
AcDbEntity
8
0
100
AcDbBlockEnd
0
BLOCK
5
122
100
AcDbEntity
8
0
100
AcDbBlockBegin
2
DimnDraft3D2
70
0
10
0
20
0
30
0
3
DimnDraft3D2
0
MTEXT
5
118
100
AcDbEntity
8
2
62
256
6
ByLayer
370
18
48
1
60
0
100
AcDbMText
10
80.125
20
-0.988158
30
0
210
0
220
0
230
1
1
\W0.6740;33
40
4.5
41
0
44
1.084337
50
90
71
7
72
5
7
iso_b_vert
0
LINE
5
119
100
AcDbEntity
8
2
62
256
6
ByLayer
370
13
48
1
60
0
100
AcDbLine
10
58.5
20
17.075
30
0
11
84.25
21
17.075
31
0
39
0
210
0
220
0
230
1
0
LINE
5
11A
100
AcDbEntity
8
2
62
256
6
ByLayer
370
13
48
1
60
0
100
AcDbLine
10
-3.5
20
-15.925
30
0
11
84.25
21
-15.925
31
0
39
0
210
0
220
0
230
1
0
LINE
5
11B
100
AcDbEntity
8
2
62
256
6
ByLayer
370
13
48
1
60
0
100
AcDbLine
10
81.25
20
17.075
30
0
11
81.25
21
-15.925
31
0
39
0
210
0
220
0
230
1
0
LINE
5
11C
100
AcDbEntity
8
2
62
256
6
ByLayer
370
13
48
1
60
0
100
AcDbLine
10
81.25
20
17.075
30
0
11
81.644957
21
14.075001
31
0
39
0
210
0
220
0
230
1
0
LINE
5
11D
100
AcDbEntity
8
2
62
256
6
ByLayer
370
13
48
1
60
0
100
AcDbLine
10
81.25
20
17.075
30
0
11
80.855043
21
14.074999
31
0
39
0
210
0
220
0
230
1
0
LINE
5
11E
100
AcDbEntity
8
2
62
256
6
ByLayer
370
13
48
1
60
0
100
AcDbLine
10
81.644957
20
14.075001
30
0
11
80.855043
21
14.074999
31
0
39
0
210
0
220
0
230
1
0
LINE
5
11F
100
AcDbEntity
8
2
62
256
6
ByLayer
370
13
48
1
60
0
100
AcDbLine
10
81.25
20
-15.925
30
0
11
80.855043
21
-12.925001
31
0
39
0
210
0
220
0
230
1
0
LINE
5
120
100
AcDbEntity
8
2
62
256
6
ByLayer
370
13
48
1
60
0
100
AcDbLine
10
81.25
20
-15.925
30
0
11
81.644957
21
-12.924999
31
0
39
0
210
0
220
0
230
1
0
LINE
5
121
100
AcDbEntity
8
2
62
256
6
ByLayer
370
13
48
1
60
0
100
AcDbLine
10
80.855043
20
-12.925001
30
0
11
81.644957
21
-12.924999
31
0
39
0
210
0
220
0
230
1
0
ENDBLK
5
123
100
AcDbEntity
8
0
100
AcDbBlockEnd
0
BLOCK
5
131
100
AcDbEntity
8
0
100
AcDbBlockBegin
2
DimnDraft3D3
70
0
10
0
20
0
30
0
3
DimnDraft3D3
0
MTEXT
5
126
100
AcDbEntity
8
SK2
62
256
6
ByLayer
370
18
48
1
60
0
100
AcDbMText
10
-125.225
20
-1.563158
30
0
210
0
220
0
230
1
1
\W0.6740;32
40
4.5
41
0
44
1.084337
50
90
71
7
72
5
7
iso_b_vert
0
LINE
5
128
100
AcDbEntity
8
SK2
62
256
6
ByLayer
370
13
48
1
60
0
100
AcDbLine
10
-115.85
20
15.925
30
0
11
-127.1
21
15.925
31
0
39
0
210
0
220
0
230
1
0
LINE
5
129
100
AcDbEntity
8
SK2
62
256
6
ByLayer
370
13
48
1
60
0
100
AcDbLine
10
-115.85
20
-15.925
30
0
11
-127.1
21
-15.925
31
0
39
0
210
0
220
0
230
1
0
LINE
5
12A
100
AcDbEntity
8
SK2
62
256
6
ByLayer
370
13
48
1
60
0
100
AcDbLine
10
-124.1
20
15.925
30
0
11
-124.1
21
-15.925
31
0
39
0
210
0
220
0
230
1
0
LINE
5
12B
100
AcDbEntity
8
SK2
62
256
6
ByLayer
370
13
48
1
60
0
100
AcDbLine
10
-124.1
20
15.925
30
0
11
-123.705043
21
12.925001
31
0
39
0
210
0
220
0
230
1
0
LINE
5
12C
100
AcDbEntity
8
SK2
62
256
6
ByLayer
370
13
48
1
60
0
100
AcDbLine
10
-124.1
20
15.925
30
0
11
-124.494957
21
12.924999
31
0
39
0
210
0
220
0
230
1
0
LINE
5
12D
100
AcDbEntity
8
SK2
62
256
6
ByLayer
370
13
48
1
60
0
100
AcDbLine
10
-123.705043
20
12.925001
30
0
11
-124.494957
21
12.924999
31
0
39
0
210
0
220
0
230
1
0
LINE
5
12E
100
AcDbEntity
8
SK2
62
256
6
ByLayer
370
13
48
1
60
0
100
AcDbLine
10
-124.1
20
-15.925
30
0
11
-124.494957
21
-12.925001
31
0
39
0
210
0
220
0
230
1
0
LINE
5
12F
100
AcDbEntity
8
SK2
62
256
6
ByLayer
370
13
48
1
60
0
100
AcDbLine
10
-124.1
20
-15.925
30
0
11
-123.705043
21
-12.924999
31
0
39
0
210
0
220
0
230
1
0
LINE
5
130
100
AcDbEntity
8
SK2
62
256
6
ByLayer
370
13
48
1
60
0
100
AcDbLine
10
-124.494957
20
-12.925001
30
0
11
-123.705043
21
-12.924999
31
0
39
0
210
0
220
0
230
1
0
ENDBLK
5
132
100
AcDbEntity
8
0
100
AcDbBlockEnd
0
BLOCK
5
13F
100
AcDbEntity
8
0
100
AcDbBlockBegin
2
DimnDraft3D4
70
0
10
0
20
0
30
0
3
DimnDraft3D4
0
MTEXT
5
135
100
AcDbEntity
8
2
62
256
6
ByLayer
370
18
48
1
60
0
100
AcDbMText
10
26.936842
20
27.95
30
0
210
0
220
0
230
1
1
\W0.6740;57
40
4.5
41
0
44
1.084337
50
0
71
7
72
5
7
iso_b_vert
0
LINE
5
136
100
AcDbEntity
8
2
62
256
6
ByLayer
370
13
48
1
60
0
100
AcDbLine
10
57
20
18.575
30
0
11
57
21
29.825
31
0
39
0
210
0
220
0
230
1
0
LINE
5
137
100
AcDbEntity
8
2
62
256
6
ByLayer
370
13
48
1
60
0
100
AcDbLine
10
0
20
17.425
30
0
11
0
21
29.825
31
0
39
0
210
0
220
0
230
1
0
LINE
5
138
100
AcDbEntity
8
2
62
256
6
ByLayer
370
13
48
1
60
0
100
AcDbLine
10
57
20
26.825
30
0
11
0
21
26.825
31
0
39
0
210
0
220
0
230
1
0
LINE
5
139
100
AcDbEntity
8
2
62
256
6
ByLayer
370
13
48
1
60
0
100
AcDbLine
10
57
20
26.825
30
0
11
54.000001
21
26.430043
31
0
39
0
210
0
220
0
230
1
0
LINE
5
13A
100
AcDbEntity
8
2
62
256
6
ByLayer
370
13
48
1
60
0
100
AcDbLine
10
57
20
26.825
30
0
11
53.999999
21
27.219957
31
0
39
0
210
0
220
0
230
1
0
LINE
5
13B
100
AcDbEntity
8
2
62
256
6
ByLayer
370
13
48
1
60
0
100
AcDbLine
10
54.000001
20
26.430043
30
0
11
53.999999
21
27.219957
31
0
39
0
210
0
220
0
230
1
0
LINE
5
13C
100
AcDbEntity
8
2
62
256
6
ByLayer
370
13
48
1
60
0
100
AcDbLine
10
0
20
26.825
30
0
11
2.999999
21
27.219957
31
0
39
0
210
0
220
0
230
1
0
LINE
5
13D
100
AcDbEntity
8
2
62
256
6
ByLayer
370
13
48
1
60
0
100
AcDbLine
10
0
20
26.825
30
0
11
3.000001
21
26.430043
31
0
39
0
210
0
220
0
230
1
0
LINE
5
13E
100
AcDbEntity
8
2
62
256
6
ByLayer
370
13
48
1
60
0
100
AcDbLine
10
2.999999
20
27.219957
30
0
11
3.000001
21
26.430043
31
0
39
0
210
0
220
0
230
1
0
ENDBLK
5
140
100
AcDbEntity
8
0
100
AcDbBlockEnd
0
BLOCK
5
14D
100
AcDbEntity
8
0
100
AcDbBlockBegin
2
DimnDraft3D5
70
0
10
0
20
0
30
0
3
DimnDraft3D5
0
MTEXT
5
143
100
AcDbEntity
8
SK2
62
256
6
ByLayer
370
18
48
1
60
0
100
AcDbMText
10
-31.357237
20
37.95
30
0
210
0
220
0
230
1
1
\W0.6217;170
40
4.5
41
0
44
1.084337
50
0
71
7
72
5
7
iso_b_vert
0
LINE
5
144
100
AcDbEntity
8
SK2
62
256
6
ByLayer
370
13
48
1
60
0
100
AcDbLine
10
57
20
18.575
30
0
11
57
21
39.825
31
0
39
0
210
0
220
0
230
1
0
LINE
5
145
100
AcDbEntity
8
SK2
62
256
6
ByLayer
370
13
48
1
60
0
100
AcDbLine
10
-114.35
20
17.425
30
0
11
-114.35
21
39.825
31
0
39
0
210
0
220
0
230
1
0
LINE
5
146
100
AcDbEntity
8
SK2
62
256
6
ByLayer
370
13
48
1
60
0
100
AcDbLine
10
57
20
36.825
30
0
11
-114.35
21
36.825
31
0
39
0
210
0
220
0
230
1
0
LINE
5
147
100
AcDbEntity
8
SK2
62
256
6
ByLayer
370
13
48
1
60
0
100
AcDbLine
10
57
20
36.825
30
0
11
54.000001
21
36.430043
31
0
39
0
210
0
220
0
230
1
0
LINE
5
148
100
AcDbEntity
8
SK2
62
256
6
ByLayer
370
13
48
1
60
0
100
AcDbLine
10
57
20
36.825
30
0
11
53.999999
21
37.219957
31
0
39
0
210
0
220
0
230
1
0
LINE
5
149
100
AcDbEntity
8
SK2
62
256
6
ByLayer
370
13
48
1
60
0
100
AcDbLine
10
54.000001
20
36.430043
30
0
11
53.999999
21
37.219957
31
0
39
0
210
0
220
0
230
1
0
LINE
5
14A
100
AcDbEntity
8
SK2
62
256
6
ByLayer
370
13
48
1
60
0
100
AcDbLine
10
-114.35
20
36.825
30
0
11
-111.350001
21
37.219957
31
0
39
0
210
0
220
0
230
1
0
LINE
5
14B
100
AcDbEntity
8
SK2
62
256
6
ByLayer
370
13
48
1
60
0
100
AcDbLine
10
-114.35
20
36.825
30
0
11
-111.349999
21
36.430043
31
0
39
0
210
0
220
0
230
1
0
LINE
5
14C
100
AcDbEntity
8
SK2
62
256
6
ByLayer
370
13
48
1
60
0
100
AcDbLine
10
-111.350001
20
37.219957
30
0
11
-111.349999
21
36.430043
31
0
39
0
210
0
220
0
230
1
0
ENDBLK
5
14E
100
AcDbEntity
8
0
100
AcDbBlockEnd
0
BLOCK
5
15B
100
AcDbEntity
8
0
100
AcDbBlockBegin
2
DimnDraft3D6
70
0
10
0
20
0
30
0
3
DimnDraft3D6
0
MTEXT
5
151
100
AcDbEntity
8
2
62
256
6
ByLayer
370
18
48
1
60
0
100
AcDbMText
10
39.436842
20
-29.05
30
0
210
0
220
0
230
1
1
\W0.6740;32
40
4.5
41
0
44
1.084337
50
0
71
7
72
5
7
iso_b_vert
0
LINE
5
152
100
AcDbEntity
8
2
62
256
6
ByLayer
370
13
48
1
60
0
100
AcDbLine
10
25
20
9.575
30
0
11
25
21
-33.175
31
0
39
0
210
0
220
0
230
1
0
LINE
5
153
100
AcDbEntity
8
2
62
256
6
ByLayer
370
13
48
1
60
0
100
AcDbLine
10
57
20
10.575
30
0
11
57
21
-33.175
31
0
39
0
210
0
220
0
230
1
0
LINE
5
154
100
AcDbEntity
8
2
62
256
6
ByLayer
370
13
48
1
60
0
100
AcDbLine
10
25
20
-30.175
30
0
11
57
21
-30.175
31
0
39
0
210
0
220
0
230
1
0
LINE
5
155
100
AcDbEntity
8
2
62
256
6
ByLayer
370
13
48
1
60
0
100
AcDbLine
10
25
20
-30.175
30
0
11
27.999999
21
-29.780043
31
0
39
0
210
0
220
0
230
1
0
LINE
5
156
100
AcDbEntity
8
2
62
256
6
ByLayer
370
13
48
1
60
0
100
AcDbLine
10
25
20
-30.175
30
0
11
28.000001
21
-30.569957
31
0
39
0
210
0
220
0
230
1
0
LINE
5
157
100
AcDbEntity
8
2
62
256
6
ByLayer
370
13
48
1
60
0
100
AcDbLine
10
27.999999
20
-29.780043
30
0
11
28.000001
21
-30.569957
31
0
39
0
210
0
220
0
230
1
0
LINE
5
158
100
AcDbEntity
8
2
62
256
6
ByLayer
370
13
48
1
60
0
100
AcDbLine
10
57
20
-30.175
30
0
11
54.000001
21
-30.569957
31
0
39
0
210
0
220
0
230
1
0
LINE
5
159
100
AcDbEntity
8
2
62
256
6
ByLayer
370
13
48
1
60
0
100
AcDbLine
10
57
20
-30.175
30
0
11
53.999999
21
-29.780043
31
0
39
0
210
0
220
0
230
1
0
LINE
5
15A
100
AcDbEntity
8
2
62
256
6
ByLayer
370
13
48
1
60
0
100
AcDbLine
10
54.000001
20
-30.569957
30
0
11
53.999999
21
-29.780043
31
0
39
0
210
0
220
0
230
1
0
ENDBLK
5
15C
100
AcDbEntity
8
0
100
AcDbBlockEnd
0
ENDSEC
0
SECTION
2
ENTITIES
0
ARC
5
C5
100
AcDbEntity
8
1
62
256
6
ByLayer
370
18
48
1
60
0
100
AcDbCircle
39
0
10
-25.1
20
10.8
30
0
40
1.6
210
0
220
0
230
-1
100
AcDbArc
50
0
51
90
0
ARC
5
C6
100
AcDbEntity
8
1
62
256
6
ByLayer
370
18
48
1
60
0
100
AcDbCircle
39
0
10
16.35
20
9.1
30
0
40
2.0135
210
0
220
0
230
1
100
AcDbArc
50
88.140164
51
91.859836
0
ARC
5
C7
100
AcDbEntity
8
1
62
256
6
ByLayer
370
18
48
1
60
0
100
AcDbCircle
39
0
10
16.35
20
9.1
30
0
40
2.807
210
0
220
0
230
1
100
AcDbArc
50
300.034873
51
360
0
ARC
5
C8
100
AcDbEntity
8
1
62
256
6
ByLayer
370
18
48
1
60
0
100
AcDbCircle
39
0
10
16.35
20
9.1
30
0
40
2.0135
210
0
220
0
230
1
100
AcDbArc
50
268.140164
51
271.859836
0
ARC
5
CA
100
AcDbEntity
8
1
62
256
6
ByLayer
370
18
48
1
60
0
100
AcDbCircle
39
0
10
16.35
20
9.1
30
0
40
2.807
210
0
220
0
230
1
100
AcDbArc
50
239.965127
51
300.034873
0
ARC
5
CC
100
AcDbEntity
8
1
62
256
6
ByLayer
370
18
48
1
60
0
100
AcDbCircle
39
0
10
16.35
20
9.1
30
0
40
2.807
210
0
220
0
230
1
100
AcDbArc
50
180
51
239.965127
0
ARC
5
CD
100
AcDbEntity
8
1
62
256
6
ByLayer
370
18
48
1
60
0
100
AcDbCircle
39
0
10
16.35
20
9.1
30
0
40
2.807
210
0
220
0
230
1
100
AcDbArc
50
59.965127
51
120.034873
0
ARC
5
CE
100
AcDbEntity
8
1
62
256
6
ByLayer
370
18
48
1
60
0
100
AcDbCircle
39
0
10
16.35
20
9.1
30
0
40
2.807
210
0
220
0
230
1
100
AcDbArc
50
120.034873
51
180
0
ARC
5
D0
100
AcDbEntity
8
1
62
256
6
ByLayer
370
18
48
1
60
0
100
AcDbCircle
39
0
10
16.35
20
9.1
30
0
40
2.807
210
0
220
0
230
1
100
AcDbArc
50
360
51
59.965127
0
ARC
5
D1
100
AcDbEntity
8
1
62
256
6
ByLayer
370
18
48
1
60
0
100
AcDbCircle
39
0
10
56.7
20
16.775
30
0
40
0.3
210
0
220
0
230
1
100
AcDbArc
50
360
51
92.5
0
ARC
5
D2
100
AcDbEntity
8
1
62
256
6
ByLayer
370
18
48
1
60
0
100
AcDbCircle
39
0
10
32.3
20
12.375
30
0
40
0.3
210
0
220
0
230
1
100
AcDbArc
50
180
51
272.5
0
ARC
5
D3
100
AcDbEntity
8
1
62
256
6
ByLayer
370
18
48
1
60
0
100
AcDbCircle
39
0
10
-56.7
20
12.375
30
0
40
0.3
210
0
220
0
230
-1
100
AcDbArc
50
180
51
272.5
0
ARC
5
D4
100
AcDbEntity
8
1
62
256
6
ByLayer
370
18
48
1
60
0
100
AcDbCircle
39
0
10
-32.3
20
16.775
30
0
40
0.3
210
0
220
0
230
-1
100
AcDbArc
50
0
51
92.5
0
CIRCLE
5
C4
100
AcDbEntity
8
1
62
256
6
ByLayer
370
18
48
1
60
0
100
AcDbCircle
10
-16.35
20
9.1
30
0
40
6.15
39
0
210
0
220
0
230
-1
0
CIRCLE
5
C9
100
AcDbEntity
8
1
62
256
6
ByLayer
370
18
48
1
60
0
100
AcDbCircle
10
-16.35
20
9.1
30
0
40
3
39
0
210
0
220
0
230
-1
0
CIRCLE
5
CB
100
AcDbEntity
8
1
62
256
6
ByLayer
370
18
48
1
60
0
100
AcDbCircle
10
16.35
20
9.1
30
0
40
5.13
39
0
210
0
220
0
230
1
0
CIRCLE
5
CF
100
AcDbEntity
8
1
62
256
6
ByLayer
370
18
48
1
60
0
100
AcDbCircle
10
-16.35
20
9.1
30
0
40
5.93
39
0
210
0
220
0
230
-1
0
ELLIPSE
5
D5
100
AcDbEntity
8
1
62
256
6
ByLayer
370
18
48
1
60
0
100
AcDbEllipse
10
49.346355
20
16.433749
30
0
11
-0.0989654648856284
21
-0.0143470374644213
31
0
210
0
220
0
230
1
40
1
41
-0.143967175483701
42
0.0305657464960785
0
ELLIPSE
5
D6
100
AcDbEntity
8
1
62
256
6
ByLayer
370
18
48
1
60
0
100
AcDbEllipse
10
49.55644
20
15.242299
30
0
11
-0.0912260271841929
21
-0.0409611032017134
31
0
210
0
220
0
230
1
40
1
41
-0.24749470843694
42
0.242055837129983
0
ELLIPSE
5
D7
100
AcDbEntity
8
1
62
256
6
ByLayer
370
18
48
1
60
0
100
AcDbEllipse
10
49.55644
20
13.907701
30
0
11
-0.0912260271841927
21
0.0409611032017136
31
0
210
0
220
0
230
1
40
1
41
-0.242055837129983
42
0.24749470843694
0
ELLIPSE
5
D8
100
AcDbEntity
8
1
62
256
6
ByLayer
370
18
48
1
60
0
100
AcDbEllipse
10
49.346355
20
12.716251
30
0
11
-0.0990257210879641
21
0.0139250617158488
31
0
210
0
220
0
230
1
40
1
41
-0.0348283113683528
42
0.139704610363358
0
POINT
5
6C
100
AcDbEntity
8
80
62
256
6
ByLayer
370
18
48
1
60
0
100
AcDbPoint
10
0
20
0
30
0
39
0
210
0
220
0
230
1
50
360
0
POINT
5
6E
100
AcDbEntity
8
2
62
256
6
ByLayer
370
18
48
1
60
0
100
AcDbPoint
10
57
20
17.075
30
0
39
0
210
0
220
0
230
1
50
360
0
POINT
5
70
100
AcDbEntity
8
81
62
256
6
ByLayer
370
18
48
1
60
0
100
AcDbPoint
10
57
20
17.075
30
0
39
0
210
0
220
0
230
1
50
360
0
SPLINE
5
D9
100
AcDbEntity
8
1
62
256
6
ByLayer
370
18
48
1
60
0
100
AcDbSpline
70
4
71
3
72
14
73
10
40
0
40
0
40
0
40
0
40
0.320648283063992
40
0.320648283063992
40
0.64255665601753
40
0.64255665601753
40
0.964767987530374
40
0.964767987530374
40
1
40
1
40
1
40
1
41
1
10
49.0405040733833
20
13.9958747878792
30
0
41
1
10
49.0428848120555
20
14.0123332538916
30
0
41
1
10
49.0476180403295
20
14.028516719651
30
0
41
1
10
49.0610331974548
20
14.0577320241535
30
0
41
1
10
49.0699156352925
20
14.0711536819559
30
0
41
1
10
49.0905403761737
20
14.0933637034429
30
0
41
1
10
49.1025693737436
20
14.1024539171938
30
0
41
1
10
49.1167287638942
20
14.1094760997765
30
0
41
1
10
49.1181531019784
20
14.1101451043813
30
0
41
1
10
49.1195868846333
20
14.1107814543472
30
0
0
SPLINE
5
DA
100
AcDbEntity
8
1
62
256
6
ByLayer
370
18
48
1
60
0
100
AcDbSpline
70
4
71
3
72
14
73
10
40
0
40
0
40
0
40
0
40
0.318825335738267
40
0.318825335738267
40
0.641378913519838
40
0.641378913519838
40
0.963672388640559
40
0.963672388640559
40
1
40
1
40
1
40
1
41
1
10
49.1195868846334
20
15.0392185456528
30
0
41
1
10
49.1067930140129
20
15.044896797587
30
0
41
1
10
49.0946194073435
20
15.053313697317
30
0
41
1
10
49.0733610363008
20
15.074388582123
30
0
41
1
10
49.0640216196877
20
15.0873876111595
30
0
41
1
10
49.0496053425088
20
15.1160233263043
30
0
41
1
10
49.0443262529215
20
15.132053466157
30
0
41
1
10
49.0410810594112
20
15.1503488581196
30
0
41
1
10
49.0407776400381
20
15.1522339976234
30
0
41
1
10
49.0405040733832
20
15.1541252121207
30
0
0
SPLINE
5
DB
100
AcDbEntity
8
1
62
256
6
ByLayer
370
18
48
1
60
0
100
AcDbSpline
70
4
71
3
72
14
73
10
40
0
40
0
40
0
40
0
40
0.275104320463948
40
0.275104320463948
40
0.551285892222266
40
0.551285892222266
40
0.827540816329078
40
0.827540816329078
40
1
40
1
40
1
40
1
41
1
10
49.3092231349799
20
14.8499999999999
30
0
41
1
10
49.3092231349799
20
14.8667141719495
30
0
41
1
10
49.3068686319537
20
14.8836570737924
30
0
41
1
10
49.2978207623995
20
14.9152773389955
30
0
41
1
10
49.2909852714479
20
14.9303813158534
30
0
41
1
10
49.2738400953992
20
14.9566198763752
30
0
41
1
10
49.2632933134876
20
14.9681150508633
30
0
41
1
10
49.2443144629828
20
14.982651104695
30
0
41
1
10
49.236450436382
20
14.9873423627459
30
0
41
1
10
49.2283156668965
20
14.9909538931178
30
0
0
SPLINE
5
DC
100
AcDbEntity
8
1
62
256
6
ByLayer
370
18
48
1
60
0
100
AcDbSpline
70
4
71
3
72
16
73
12
40
0
40
0
40
0
40
0
40
0.198166501206587
40
0.198166501206587
40
0.418292441377922
40
0.418292441377922
40
0.6362846486383
40
0.6362846486383
40
0.850699599621026
40
0.850699599621026
40
1
40
1
40
1
40
1
41
1
10
28.0782877682541
20
12.4
30
0
41
1
10
27.9115461493853
20
12.4
30
0
41
1
10
27.7429205846051
20
12.3742614089268
30
0
41
1
10
27.4071308569632
20
12.2690331906756
30
0
41
1
10
27.237526459218
20
12.1822541389843
30
0
41
1
10
26.9429635680281
20
11.9608417754891
30
0
41
1
10
26.8134766227665
20
11.8235351011896
30
0
41
1
10
26.6132169774905
20
11.5199107953899
30
0
41
1
10
26.5387522718273
20
11.34984073687
30
0
41
1
10
26.4659014933831
20
11.0524723838996
30
0
41
1
10
26.4505884927239
20
10.9257907500382
30
0
41
1
10
26.4505884927239
20
10.8
30
0
0
SPLINE
5
DD
100
AcDbEntity
8
1
62
256
6
ByLayer
370
18
48
1
60
0
100
AcDbSpline
70
4
71
3
72
8
73
4
40
0
40
0
40
0
40
0
40
1
40
1
40
1
40
1
41
1
10
49.2283156668965
20
14.9909538931178
30
0
41
1
10
49.1920733240275
20
15.0070441243476
30
0
41
1
10
49.1558304974701
20
15.0231326893236
30
0
41
1
10
49.1195868846334
20
15.0392185456528
30
0
0
SPLINE
5
DE
100
AcDbEntity
8
1
62
256
6
ByLayer
370
18
48
1
60
0
100
AcDbSpline
70
4
71
3
72
10
73
6
40
0
40
0
40
0
40
0
40
0.410853169441862
40
0.410853169441862
40
1
40
1
40
1
40
1
41
1
10
48.8094131712542
20
12.4
30
0
41
1
10
48.8411175510138
20
12.6185445923791
30
0
41
1
10
48.8727841728988
20
12.8370973483523
30
0
41
1
10
48.9498190226547
20
13.3690546331459
30
0
41
1
10
48.9951686730818
20
13.6824631758837
30
0
41
1
10
49.0405040733833
20
13.9958747878792
30
0
0
SPLINE
5
DF
100
AcDbEntity
8
1
62
256
6
ByLayer
370
18
48
1
60
0
100
AcDbSpline
70
4
71
3
72
14
73
10
40
0
40
0
40
0
40
0
40
0.273335586308435
40
0.273335586308435
40
0.549864884754082
40
0.549864884754082
40
0.826242595228972
40
0.826242595228972
40
1
40
1
40
1
40
1
41
1
10
49.2283156668965
20
14.159046106882
30
0
41
1
10
49.2411000042653
20
14.1647218697633
30
0
41
1
10
49.2532642576506
20
14.1731344671602
30
0
41
1
10
49.2745054552684
20
14.1941974924646
30
0
41
1
10
49.283836751431
20
14.2071884838198
30
0
41
1
10
49.2982441671546
20
14.2358080111581
30
0
41
1
10
49.3035213092883
20
14.251830006648
30
0
41
1
10
49.3082833172109
20
14.2786457275076
30
0
41
1
10
49.309223134994
20
14.2893528161222
30
0
41
1
10
49.3092231349941
20
14.2999999999981
30
0
0
SPLINE
5
E0
100
AcDbEntity
8
1
62
256
6
ByLayer
370
18
48
1
60
0
100
AcDbSpline
70
4
71
3
72
10
73
6
40
0
40
0
40
0
40
0
40
0.706816479092454
40
0.706816479092454
40
1
40
1
40
1
40
1
41
1
10
49.0405040733833
20
15.1541252121207
30
0
41
1
10
48.9861138835952
20
15.530134179614
30
0
41
1
10
48.9317047975817
20
15.9061390798677
30
0
41
1
10
48.8546417881812
20
16.4380902861699
30
0
41
1
10
48.832037316393
20
16.5940472699743
30
0
41
1
10
48.8094131712542
20
16.7499999999999
30
0
0
SPLINE
5
E1
100
AcDbEntity
8
1
62
256
6
ByLayer
370
18
48
1
60
0
100
AcDbSpline
70
4
71
3
72
8
73
4
40
0
40
0
40
0
40
0
40
1
40
1
40
1
40
1
41
1
10
49.1195868846334
20
14.1107814543471
30
0
41
1
10
49.1558305132186
20
14.1268673176658
30
0
41
1
10
49.1920733375391
20
14.1429558816509
30
0
41
1
10
49.2283156668965
20
14.159046106882
30
0
0
SPLINE
5
E2
100
AcDbEntity
8
1
62
256
6
ByLayer
370
18
48
1
60
0
100
AcDbSpline
70
4
71
3
72
14
73
10
40
0
40
0
40
0
40
0
40
0.220792708734967
40
0.220792708734967
40
0.514440208322329
40
0.514440208322329
40
0.779604980836358
40
0.779604980836358
40
1
40
1
40
1
40
1
41
1
10
18.7981683275969
20
9.56676677947698
30
0
41
1
10
18.8400107170796
20
9.55563595407733
30
0
41
1
10
18.881231568975
20
9.53855924567628
30
0
41
1
10
18.9705520592616
20
9.48580037535834
30
0
41
1
10
19.0178802128891
20
9.44477600874856
30
0
41
1
10
19.0900923702315
20
9.3515738118075
30
0
41
1
10
19.1177254137801
20
9.29936537710987
30
0
41
1
10
19.1493875756904
20
9.19809112209609
30
0
41
1
10
19.157
20
9.14872538987564
30
0
41
1
10
19.157
20
9.09999999999997
30
0
0
SPLINE
5
E3
100
AcDbEntity
8
1
62
256
6
ByLayer
370
18
48
1
60
0
100
AcDbSpline
70
4
71
3
72
18
73
14
40
0
40
0
40
0
40
0
40
0.0162289153285305
40
0.0162289153285305
40
0.239234459040964
40
0.239234459040964
40
0.462328698874883
40
0.462328698874883
40
0.697692042263405
40
0.697692042263405
40
0.955005672045977
40
0.955005672045977
40
1
40
1
40
1
40
1
41
1
10
19.157
20
9.09999999999997
30
0
41
1
10
19.157
20
9.09637572331039
30
0
41
1
10
19.1569591993613
20
9.09275116469692
30
0
41
1
10
19.1557702435972
20
9.03994386337368
30
0
41
1
10
19.1468881961843
20
8.99032158906945
30
0
41
1
10
19.1155222788133
20
8.89821494964198
30
0
41
1
10
19.0926649850557
20
8.85454315906915
30
0
41
1
10
19.0355148789302
20
8.77582345161352
30
0
41
1
10
18.999986827069
20
8.74036476824409
30
0
41
1
10
18.9190294001723
20
8.68045848977073
30
0
41
1
10
18.8720050535463
20
8.65654733658772
30
0
41
1
10
18.8153304916667
20
8.63805330338394
30
0
41
1
10
18.8067684906715
20
8.63552101801361
30
0
41
1
10
18.7981683275966
20
8.63323322052452
30
0
0
SPLINE
5
E4
100
AcDbEntity
8
1
62
256
6
ByLayer
370
18
48
1
60
0
100
AcDbSpline
70
4
71
3
72
18
73
14
40
0
40
0
40
0
40
0
40
0.181612675763437
40
0.181612675763437
40
0.360704962161449
40
0.360704962161449
40
0.541858957768576
40
0.541858957768576
40
0.695330353238806
40
0.695330353238806
40
0.891708592215003
40
0.891708592215003
40
1
40
1
40
1
40
1
41
1
10
13.9018316724035
20
8.63323322052455
30
0
41
1
10
14.0010678212247
20
8.60683462666981
30
0
41
1
10
14.0993599974145
20
8.56638422465298
30
0
41
1
10
14.2831460164331
20
8.45800522340411
30
0
41
1
10
14.3708390147032
20
8.38891415618556
30
0
41
1
10
14.5246433194004
20
8.22507078458446
30
0
41
1
10
14.5926240182454
20
8.12717280233463
30
0
41
1
10
14.6861034266654
20
7.93606654129403
30
0
41
1
10
14.7177334532226
20
7.84217951088195
30
0
41
1
10
14.7612284804203
20
7.63120047995474
30
0
41
1
10
14.7662285845804
20
7.51146908050745
30
0
41
1
10
14.7481886242894
20
7.3353887291876
30
0
41
1
10
14.7366492612541
20
7.27375999860155
30
0
41
1
10
14.7205358593464
20
7.21419884372946
30
0
0
SPLINE
5
E5
100
AcDbEntity
8
1
62
256
6
ByLayer
370
18
48
1
60
0
100
AcDbSpline
70
4
71
3
72
18
73
14
40
0
40
0
40
0
40
0
40
0.015022938692274
40
0.015022938692274
40
0.237604440562213
40
0.237604440562213
40
0.460204731428107
40
0.460204731428107
40
0.694992075280038
40
0.694992075280038
40
0.95164152577878
40
0.95164152577878
40
1
40
1
40
1
40
1
41
1
10
17.7549793192102
20
6.66992137728184
30
0
41
1
10
17.7520684199845
20
6.66823840572107
30
0
41
1
10
17.7491397490837
20
6.66658572259223
30
0
41
1
10
17.7030920682664
20
6.64123072399934
30
0
41
1
10
17.6557039074632
20
6.62400258589102
30
0
41
1
10
17.5602851564219
20
6.60490391418051
30
0
41
1
10
17.5110399513397
20
6.60275565993996
30
0
41
1
10
17.4142792924752
20
6.61267822356297
30
0
41
1
10
17.3657874551504
20
6.62560777674861
30
0
41
1
10
17.2733624353174
20
6.66554972895526
30
0
41
1
10
17.2290914112967
20
6.69420833652956
30
0
41
1
10
17.1841477224759
20
6.73438383919216
30
0
41
1
10
17.1771780297028
20
6.7410007753995
30
0
41
1
10
17.1704318716301
20
6.74779700056823
30
0
0
SPLINE
5
E6
100
AcDbEntity
8
1
62
256
6
ByLayer
370
18
48
1
60
0
100
AcDbSpline
70
4
71
3
72
14
73
10
40
0
40
0
40
0
40
0
40
0.222411655270651
40
0.222411655270651
40
0.515858824453704
40
0.515858824453704
40
0.780847480391327
40
0.780847480391327
40
1
40
1
40
1
40
1
41
1
10
14.7205358593442
20
10.9858011562698
30
0
41
1
10
14.7091462249202
20
11.0279015012962
30
0
41
1
10
14.7032956435497
20
11.072479147143
30
0
41
1
10
14.7044780289879
20
11.1765224871301
30
0
41
1
10
14.7164205388668
20
11.2379793484332
30
0
41
1
10
14.7611484449685
20
11.3470127889447
30
0
41
1
10
14.7925904447841
20
11.3969854922845
30
0
41
1
10
14.8643498449848
20
11.474746056355
30
0
41
1
10
14.9030748695198
20
11.5058271450865
30
0
41
1
10
14.9450206807898
20
11.5300786227181
30
0
0
SPLINE
5
E7
100
AcDbEntity
8
1
62
256
6
ByLayer
370
18
48
1
60
0
100
AcDbSpline
70
4
71
3
72
12
73
8
40
0
40
0
40
0
40
0
40
0.455353062346786
40
0.455353062346786
40
0.827333545905707
40
0.827333545905707
40
1
40
1
40
1
40
1
41
1
10
17.1704318716302
20
11.4522029994317
30
0
41
1
10
17.0858278731656
20
11.3669711063239
30
0
41
1
10
16.9849078459312
20
11.2922718193744
30
0
41
1
10
16.7792931745274
20
11.1882641999224
30
0
41
1
10
16.6762317035148
20
11.1522183581053
30
0
41
1
10
16.5187586027534
20
11.1218291567251
30
0
41
1
10
16.467139749605
20
11.115371766739
30
0
41
1
10
16.4153472699774
20
11.1124393119561
30
0
0
SPLINE
5
E8
100
AcDbEntity
8
1
62
256
6
ByLayer
370
18
48
1
60
0
100
AcDbSpline
70
4
71
3
72
18
73
14
40
0
40
0
40
0
40
0
40
0.18175277145018
40
0.18175277145018
40
0.360818406833418
40
0.360818406833418
40
0.541944163041266
40
0.541944163041266
40
0.695407615755982
40
0.695407615755982
40
0.891808268956469
40
0.891808268956469
40
1
40
1
40
1
40
1
41
1
10
18.7981683275966
20
9.56676677947542
30
0
41
1
10
18.6988559553603
20
9.59318565012444
30
0
41
1
10
18.6004880467831
20
9.63367846064796
30
0
41
1
10
18.416660320138
20
9.74213559373973
30
0
41
1
10
18.3289907291675
20
9.81123705977308
30
0
41
1
10
18.1752354772816
20
9.97508874691536
30
0
41
1
10
18.1072814826209
20
10.0729834950929
30
0
41
1
10
18.0138398120849
20
10.2640810155248
30
0
41
1
10
17.9822248539708
20
10.3579649159619
30
0
41
1
10
17.938755204354
20
10.5689525556561
30
0
41
1
10
17.9337711326442
20
10.6886944658135
30
0
41
1
10
17.9518323112013
20
10.8647231372554
30
0
41
1
10
17.9633653362174
20
10.9262939591079
30
0
41
1
10
17.9794641406537
20
10.9858011562705
30
0
0
SPLINE
5
E9
100
AcDbEntity
8
1
62
256
6
ByLayer
370
18
48
1
60
0
100
AcDbSpline
70
4
71
3
72
12
73
8
40
0
40
0
40
0
40
0
40
0.455353062347086
40
0.455353062347086
40
0.827333545906254
40
0.827333545906254
40
1
40
1
40
1
40
1
41
1
10
15.5295681283698
20
6.74779700056826
30
0
41
1
10
15.6141721268345
20
6.83302889367607
30
0
41
1
10
15.7150921540688
20
6.90772818062553
30
0
41
1
10
15.9207068254726
20
7.01173580007756
30
0
41
1
10
16.0237682964852
20
7.04778164189469
30
0
41
1
10
16.1812413972467
20
7.07817084327482
30
0
41
1
10
16.232860250395
20
7.08462823326099
30
0
41
1
10
16.2846527300226
20
7.08756068804385
30
0
0
SPLINE
5
EA
100
AcDbEntity
8
1
62
256
6
ByLayer
370
18
48
1
60
0
100
AcDbSpline
70
4
71
3
72
16
73
12
40
0
40
0
40
0
40
0
40
0.218620732637229
40
0.218620732637229
40
0.44113209632628
40
0.44113209632628
40
0.674870839126926
40
0.674870839126926
40
0.929765351321892
40
0.929765351321892
40
1
40
1
40
1
40
1
41
1
10
17.7549793192102
20
11.5300786227181
30
0
41
1
10
17.7967322838594
20
11.5059386416906
30
0
41
1
10
17.8352928941211
20
11.4750347390629
30
0
41
1
10
17.9007677451595
20
11.4042816780094
30
0
41
1
10
17.9283171189502
20
11.3633917284963
30
0
41
1
10
17.9702916326038
20
11.2758104040699
30
0
41
1
10
17.9845563198091
20
11.2278524802766
30
0
41
1
10
17.9987611977979
20
11.1286017363405
30
0
41
1
10
17.9975238514805
20
11.0761643611515
30
0
41
1
10
17.9861524490117
20
11.0128173540325
30
0
41
1
10
17.9830886103785
20
10.9991985507995
30
0
41
1
10
17.9794641406544
20
10.9858011562702
30
0
0
SPLINE
5
EB
100
AcDbEntity
8
1
62
256
6
ByLayer
370
18
48
1
60
0
100
AcDbSpline
70
4
71
3
72
16
73
12
40
0
40
0
40
0
40
0
40
0.218557773056329
40
0.218557773056329
40
0.44106747367926
40
0.44106747367926
40
0.674801337484699
40
0.674801337484699
40
0.929688497508491
40
0.929688497508491
40
1
40
1
40
1
40
1
41
1
10
14.9450206807898
20
6.66992137728187
30
0
41
1
10
14.9032797321598
20
6.69405441110271
30
0
41
1
10
14.8647293704485
20
6.72494728506652
30
0
41
1
10
14.7992576027249
20
6.79568473594694
30
0
41
1
10
14.771704634642
20
6.83657234466207
30
0
41
1
10
14.7297227484991
20
6.92414965535247
30
0
41
1
10
14.7154539696446
20
6.97210587329735
30
0
41
1
10
14.7012404187868
20
7.07135402593403
30
0
41
1
10
14.7024729202592
20
7.12379060958944
30
0
41
1
10
14.7138408712733
20
7.1871529458877
30
0
41
1
10
14.7169074392227
20
7.20078684705032
30
0
41
1
10
14.7205358593456
20
7.21419884372975
30
0
0
SPLINE
5
EC
100
AcDbEntity
8
1
62
256
6
ByLayer
370
18
48
1
60
0
100
AcDbSpline
70
4
71
3
72
12
73
8
40
0
40
0
40
0
40
0
40
0.368706056538509
40
0.368706056538509
40
0.737980850952363
40
0.737980850952363
40
1
40
1
40
1
40
1
41
1
10
16.2846527300226
20
11.1124393119561
30
0
41
1
10
16.1755098784395
20
11.1186189055852
30
0
41
1
10
16.0666482559057
20
11.1409267930726
30
0
41
1
10
15.8674903687158
20
11.2107873110219
30
0
41
1
10
15.7744272224264
20
11.259053974384
30
0
41
1
10
15.6329890576063
20
11.3569950333333
30
0
41
1
10
15.5786614800674
20
11.4027452979031
30
0
41
1
10
15.5295681283699
20
11.4522029994317
30
0
0
SPLINE
5
ED
100
AcDbEntity
8
1
62
256
6
ByLayer
370
18
48
1
60
0
100
AcDbSpline
70
4
71
3
72
18
73
14
40
0
40
0
40
0
40
0
40
0.181347322288265
40
0.181347322288265
40
0.360491893295299
40
0.360491893295299
40
0.54170121550288
40
0.54170121550288
40
0.695189055143497
40
0.695189055143497
40
0.891526265458829
40
0.891526265458829
40
1
40
1
40
1
40
1
41
1
10
14.7205358593456
20
10.9858011562702
30
0
41
1
10
14.7473131816822
20
10.8868221664903
30
0
41
1
10
14.7614899989259
20
10.7816473436954
30
0
41
1
10
14.7597428781364
20
10.5684365875757
30
0
41
1
10
14.7438614825797
20
10.4579082926962
30
0
41
1
10
14.6790625518665
20
10.2426756921561
30
0
41
1
10
14.6283565316106
20
10.1347756725202
30
0
41
1
10
14.509722370224
20
9.95812416842375
30
0
41
1
10
14.4442832783194
20
9.88372055770699
30
0
41
1
10
14.2834431085831
20
9.74043166675929
30
0
41
1
10
14.1823244174428
20
9.67615777282572
30
0
41
1
10
14.0207935514181
20
9.60355812329561
30
0
41
1
10
13.961563034439
20
9.58265639213596
30
0
41
1
10
13.9018316724036
20
9.56676677947473
30
0
0
SPLINE
5
EE
100
AcDbEntity
8
1
62
256
6
ByLayer
370
18
48
1
60
0
100
AcDbSpline
70
4
71
3
72
18
73
14
40
0
40
0
40
0
40
0
40
0.0157923844670896
40
0.0157923844670896
40
0.238811095461863
40
0.238811095461863
40
0.461892552251093
40
0.461892552251093
40
0.697221985203071
40
0.697221985203071
40
0.954485725072623
40
0.954485725072623
40
1
40
1
40
1
40
1
41
1
10
13.543
20
9.09999999999999
30
0
41
1
10
13.543
20
9.10352699039569
30
0
41
1
10
13.5430386392405
20
9.10705424062135
30
0
41
1
10
13.5441936182627
20
9.15976793828139
30
0
41
1
10
13.5530467858234
20
9.2093998032463
30
0
41
1
10
13.584360559074
20
9.30152828975741
30
0
41
1
10
13.6071923964691
20
9.34521348953157
30
0
41
1
10
13.6642947244229
20
9.42396349680965
30
0
41
1
10
13.6997993013223
20
9.45944081342262
30
0
41
1
10
13.7807130359747
20
9.51939020341999
30
0
41
1
10
13.8277169007502
20
9.54332767248212
30
0
41
1
10
13.8844720689919
20
9.56188826601471
30
0
41
1
10
13.8931323638086
20
9.56445260750138
30
0
41
1
10
13.9018316724035
20
9.56676677947544
30
0
0
SPLINE
5
EF
100
AcDbEntity
8
1
62
256
6
ByLayer
370
18
48
1
60
0
100
AcDbSpline
70
4
71
3
72
14
73
10
40
0
40
0
40
0
40
0
40
0.220170037959096
40
0.220170037959096
40
0.513894544314513
40
0.513894544314513
40
0.779127126142471
40
0.779127126142471
40
1
40
1
40
1
40
1
41
1
10
13.9018316724031
20
8.63323322052293
30
0
41
1
10
13.8601068141321
20
8.64433278051419
30
0
41
1
10
13.8190010815936
20
8.66134404855509
30
0
41
1
10
13.7297424597143
20
8.71397193558349
30
0
41
1
10
13.6823754340565
20
8.75496725539111
30
0
41
1
10
13.6100836522094
20
8.84813321062717
30
0
41
1
10
13.5824089980939
20
8.90033225693776
30
0
41
1
10
13.5506463360883
20
9.00169454247293
30
0
41
1
10
13.543
20
9.05116942504111
30
0
41
1
10
13.543
20
9.09999999999999
30
0
0
SPLINE
5
F0
100
AcDbEntity
8
1
62
256
6
ByLayer
370
18
48
1
60
0
100
AcDbSpline
70
4
71
3
72
16
73
12
40
0
40
0
40
0
40
0
40
0.191836824669078
40
0.191836824669078
40
0.488625600663342
40
0.488625600663342
40
0.756617127620167
40
0.756617127620167
40
0.99488562644998
40
0.99488562644998
40
1
40
1
40
1
40
1
41
1
10
15.5295681283731
20
6.7477970005653
30
0
41
1
10
15.5030027275396
20
6.72103444270388
30
0
41
1
10
15.4728056370948
20
6.69694821054026
30
0
41
1
10
15.3891024511949
20
6.64545441649031
30
0
41
1
10
15.3302375601686
20
6.62265453866945
30
0
41
1
10
15.2130856505552
20
6.60249128324836
30
0
41
1
10
15.1534692409386
20
6.60268048687533
30
0
41
1
10
15.0448627470954
20
6.62345138979629
30
0
41
1
10
14.9938796455354
20
6.64212279825156
30
0
41
1
10
14.947015063409
20
6.66877305067047
30
0
41
1
10
14.9460168391091
20
6.66934543631263
30
0
41
1
10
14.9450206807898
20
6.66992137728187
30
0
0
SPLINE
5
F1
100
AcDbEntity
8
1
62
256
6
ByLayer
370
18
48
1
60
0
100
AcDbSpline
70
4
71
3
72
16
73
12
40
0
40
0
40
0
40
0
40
0.191930281182737
40
0.191930281182737
40
0.488707775608022
40
0.488707775608022
40
0.756688906725716
40
0.756688906725716
40
0.994950483060319
40
0.994950483060319
40
1
40
1
40
1
40
1
41
1
10
17.1704318716269
20
11.4522029994347
30
0
41
1
10
17.1970101552166
20
11.4789785356626
30
0
41
1
10
17.22722378362
20
11.5030752125435
30
0
41
1
10
17.310948268476
20
11.5545685795252
30
0
41
1
10
17.3698143864777
20
11.5773612680164
30
0
41
1
10
17.486965618469
20
11.5975113299616
30
0
41
1
10
17.5465803486937
20
11.597315893227
30
0
41
1
10
17.6551819835097
20
11.5765348240489
30
0
41
1
10
17.7061620099742
20
11.5578590085053
30
0
41
1
10
17.7530102361109
20
11.5312124417283
30
0
41
1
10
17.7539957845871
20
11.5306472651448
30
0
41
1
10
17.7549793192102
20
11.5300786227181
30
0
0
SPLINE
5
F2
100
AcDbEntity
8
1
62
256
6
ByLayer
370
18
48
1
60
0
100
AcDbSpline
70
4
71
3
72
14
73
10
40
0
40
0
40
0
40
0
40
0.219116464512382
40
0.219116464512382
40
0.512971212475579
40
0.512971212475579
40
0.778318620253418
40
0.778318620253418
40
1
40
1
40
1
40
1
41
1
10
17.9794641406561
20
7.21419884373023
30
0
41
1
10
17.9906856982875
20
7.17271977333806
30
0
41
1
10
17.996531376437
20
7.12884300809816
30
0
41
1
10
17.9957856818418
20
7.0254299417233
30
0
41
1
10
17.9840791649932
20
6.96387181810067
30
0
41
1
10
17.9397280800638
20
6.85456943254823
30
0
41
1
10
17.9084392425725
20
6.80443091575941
30
0
41
1
10
17.836542375328
20
6.72597686771499
30
0
41
1
10
17.7974070376035
20
6.69445147533977
30
0
41
1
10
17.7549793192102
20
6.66992137728184
30
0
0
SPLINE
5
F3
100
AcDbEntity
8
1
62
256
6
ByLayer
370
18
48
1
60
0
100
AcDbSpline
70
4
71
3
72
12
73
8
40
0
40
0
40
0
40
0
40
0.368706056448695
40
0.368706056448695
40
0.737980850848003
40
0.737980850848003
40
1
40
1
40
1
40
1
41
1
10
16.4153472699775
20
7.08756068804385
30
0
41
1
10
16.5244901215341
20
7.08138109441629
30
0
41
1
10
16.6333517440413
20
7.05907320693839
30
0
41
1
10
16.8325096312107
20
6.98921268901142
30
0
41
1
10
16.9255727775013
20
6.94094602565701
30
0
41
1
10
17.0670109423506
20
6.84300496670301
30
0
41
1
10
17.1213385199132
20
6.79725470211645
30
0
41
1
10
17.1704318716301
20
6.74779700056826
30
0
0
SPLINE
5
F4
100
AcDbEntity
8
1
62
256
6
ByLayer
370
18
48
1
60
0
100
AcDbSpline
70
4
71
3
72
18
73
14
40
0
40
0
40
0
40
0
40
0.017328594490354
40
0.017328594490354
40
0.239841647765368
40
0.239841647765368
40
0.46251052775395
40
0.46251052775395
40
0.697478079776739
40
0.697478079776739
40
0.954392202348395
40
0.954392202348395
40
1
40
1
40
1
40
1
41
1
10
14.9450206807898
20
11.5300786227181
30
0
41
1
10
14.9483773076036
20
11.5320192970698
30
0
41
1
10
14.9517576061862
20
11.5339197178777
30
0
41
1
10
14.9983242480798
20
11.5593667407699
30
0
41
1
10
15.0457449432696
20
11.5764371592195
30
0
41
1
10
15.1412016837082
20
11.5952390468756
30
0
41
1
10
15.1904528627447
20
11.5972351412521
30
0
41
1
10
15.2872012098167
20
11.5870133881205
30
0
41
1
10
15.3356698281874
20
11.5739269085597
30
0
41
1
10
15.4280129849237
20
11.5336705463839
30
0
41
1
10
15.4722176447067
20
11.5048483786049
30
0
41
1
10
15.5166419676245
20
11.4648651969313
30
0
41
1
10
15.5232044293723
20
11.4586139270779
30
0
41
1
10
15.5295681283699
20
11.4522029994317
30
0
0
SPLINE
5
F5
100
AcDbEntity
8
1
62
256
6
ByLayer
370
18
48
1
60
0
100
AcDbSpline
70
4
71
3
72
18
73
14
40
0
40
0
40
0
40
0
40
0.181666908878583
40
0.181666908878583
40
0.360750617017815
40
0.360750617017815
40
0.541895453074692
40
0.541895453074692
40
0.695365105948644
40
0.695365105948644
40
0.891753383060548
40
0.891753383060548
40
1
40
1
40
1
40
1
41
1
10
17.9794641406544
20
7.21419884372975
30
0
41
1
10
17.9526398265003
20
7.31335153282751
30
0
41
1
10
17.9384602459352
20
7.4187243244757
30
0
41
1
10
17.9403139531036
20
7.63210666532308
30
0
41
1
10
17.9562426230037
20
7.74260060315098
30
0
41
1
10
18.0211140051548
20
7.95774581686521
30
0
41
1
10
18.0718441395718
20
8.06558939951253
30
0
41
1
10
18.190504121791
20
8.24215637441714
30
0
41
1
10
18.2559542246233
20
8.31652664239272
30
0
41
1
10
18.4168403373044
20
8.4597752511232
30
0
41
1
10
18.5179980746868
20
8.52402950069148
30
0
41
1
10
18.6794511603026
20
8.59652824486074
30
0
41
1
10
18.7385601350612
20
8.61737637315812
30
0
41
1
10
18.7981683275964
20
8.6332332205252
30
0
0
SPLINE
5
F6
100
AcDbEntity
8
1
62
256
6
ByLayer
370
18
48
1
60
0
100
AcDbSpline
70
4
71
3
72
8
73
4
40
0
40
0
40
0
40
0
40
1
40
1
40
1
40
1
41
1
10
49.92894619712
20
14.3642644129419
30
0
41
1
10
49.93191778459
20
14.4278429417287
30
0
41
1
10
49.93488937206
20
14.4914214705156
30
0
41
1
10
49.93786095953
20
14.5549999993023
30
0
0
SPLINE
5
F7
100
AcDbEntity
8
1
62
256
6
ByLayer
370
18
48
1
60
0
100
AcDbSpline
70
4
71
3
72
9
73
5
40
0
40
0
40
0
40
0
40
0.508287091434095
40
1
40
1
40
1
40
1
41
1
10
49.74894541544
20
14.1472674762619
30
0
41
1
10
49.7914754634342
20
14.1642901858917
30
0
41
1
10
49.8751487431826
20
14.1977805300627
30
0
41
1
10
49.911212957408
20
14.3093863772798
30
0
41
1
10
49.92894619708
20
14.3642644130279
30
0
0
SPLINE
5
F8
100
AcDbEntity
8
1
62
256
6
ByLayer
370
18
48
1
60
0
100
AcDbSpline
70
4
71
2
72
6
73
3
40
0
40
0
40
0
40
1
40
1
40
1
41
1
10
49.748945415449
20
14.1472674762979
30
0
41
1
10
49.6679467190096
20
14.1240152433267
30
0
41
1
10
49.5901186384095
20
14.0919146481699
30
0
0
SPLINE
5
F9
100
AcDbEntity
8
1
62
256
6
ByLayer
370
18
48
1
60
0
100
AcDbSpline
70
4
71
2
72
6
73
3
40
0
40
0
40
0
40
1
40
1
40
1
41
1
10
49.5901186384085
20
14.0919146481769
30
0
41
1
10
49.5658197594153
20
14.0817453291364
30
0
41
1
10
49.549522624748
20
14.0611124318509
30
0
0
SPLINE
5
FA
100
AcDbEntity
8
1
62
256
6
ByLayer
370
18
48
1
60
0
100
AcDbSpline
70
4
71
2
72
10
73
7
40
0
40
0
40
0
40
0.5
40
0.5
40
0.75
40
0.75
40
1
40
1
40
1
41
1
10
49.7489454154406
20
15.0027325237379
30
0
41
1
10
49.8165392416631
20
14.983237836485
30
0
41
1
10
49.8642354827662
20
14.9315142889901
30
0
41
1
10
49.8902224727179
20
14.9033330470739
30
0
41
1
10
49.9068593747275
20
14.8674776461037
30
0
41
1
10
49.9248252361494
20
14.8287581077733
30
0
41
1
10
49.92894619708
20
14.7857355869719
30
0
0
SPLINE
5
FB
100
AcDbEntity
8
1
62
256
6
ByLayer
370
18
48
1
60
0
100
AcDbSpline
70
4
71
2
72
6
73
3
40
0
40
0
40
0
40
1
40
1
40
1
41
1
10
49.928946197118
20
14.7857355870579
30
0
41
1
10
49.9378374892901
20
14.6905165540331
30
0
41
1
10
49.9378609595285
20
14.5950000006975
30
0
0
SPLINE
5
FC
100
AcDbEntity
8
1
62
256
6
ByLayer
370
18
48
1
60
0
100
AcDbSpline
70
4
71
3
72
8
73
4
40
0
40
0
40
0
40
0
40
1
40
1
40
1
40
1
41
1
10
49.74894541545
20
15.0027325237019
30
0
41
1
10
49.6960031564367
20
15.0211834664113
30
0
41
1
10
49.6430608974233
20
15.0396344091206
30
0
41
1
10
49.59011863841
20
15.0580853518299
30
0
0
SPLINE
5
FD
100
AcDbEntity
8
1
62
256
6
ByLayer
370
18
48
1
60
0
100
AcDbSpline
70
4
71
3
72
8
73
4
40
0
40
0
40
0
40
0
40
1
40
1
40
1
40
1
41
1
10
49.59011863841
20
15.0580853518229
30
0
41
1
10
49.5765866338567
20
15.068352757265
30
0
41
1
10
49.5630546293034
20
15.0786201627071
30
0
41
1
10
49.54952262475
20
15.0888875681493
30
0
0
LINE
5
72
100
AcDbEntity
8
80
62
256
6
ByLayer
370
18
48
1
60
0
100
AcDbLine
10
0
20
0
30
0
11
-5
21
0
31
0
39
0
210
0
220
0
230
1
0
LINE
5
73
100
AcDbEntity
8
81
62
256
6
ByLayer
370
18
48
1
60
0
100
AcDbLine
10
57
20
17.075
30
0
11
62
21
17.075
31
0
39
0
210
0
220
0
230
1
0
LINE
5
74
100
AcDbEntity
8
1
62
256
6
ByLayer
370
18
48
1
60
0
100
AcDbLine
10
23.516458
20
10.8
30
0
11
26.450588
21
10.8
31
0
39
0
210
0
220
0
230
1
0
LINE
5
76
100
AcDbEntity
8
1
62
256
6
ByLayer
370
18
48
1
60
0
100
AcDbLine
10
3.112505
20
16.75
30
0
11
3.112505
21
-15.969724
31
0
39
0
210
0
220
0
230
1
0
LINE
5
77
100
AcDbEntity
8
1
62
256
6
ByLayer
370
18
48
1
60
0
100
AcDbLine
10
23.5
20
10.8
30
0
11
23.502314
21
10.8
31
0
39
0
210
0
220
0
230
1
0
LINE
5
78
100
AcDbEntity
8
1
62
256
6
ByLayer
370
18
48
1
60
0
100
AcDbLine
10
36.785142
20
12.4
30
0
11
48.809413
21
12.4
31
0
39
0
210
0
220
0
230
1
0
LINE
5
79
100
AcDbEntity
8
1
62
256
6
ByLayer
370
18
48
1
60
0
100
AcDbLine
10
23.502314
20
-6.767194
30
0
11
23.502314
21
10.8
31
0
39
0
210
0
220
0
230
1
0
LINE
5
7A
100
AcDbEntity
8
1
62
256
6
ByLayer
370
18
48
1
60
0
100
AcDbLine
10
26.450588
20
-5.028297
30
0
11
26.450588
21
10.8
31
0
39
0
210
0
220
0
230
1
0
LINE
5
7B
100
AcDbEntity
8
1
62
256
6
ByLayer
370
18
48
1
60
0
100
AcDbLine
10
0.5
20
16.425
30
0
11
0.5
21
-15.927182
31
0
39
0
210
0
220
0
230
1
0
LINE
5
7C
100
AcDbEntity
8
1
62
256
6
ByLayer
370
18
48
1
60
0
100
AcDbLine
10
36.785142
20
16.75
30
0
11
48.809413
21
16.75
31
0
39
0
210
0
220
0
230
1
0
LINE
5
7D
100
AcDbEntity
8
1
62
256
6
ByLayer
370
18
48
1
60
0
100
AcDbLine
10
49.960042
20
12.475006
30
0
11
49.960264
21
12.4
31
0
39
0
210
0
220
0
230
1
0
LINE
5
7E
100
AcDbEntity
8
1
62
256
6
ByLayer
370
18
48
1
60
0
100
AcDbLine
10
49.960264
20
12.4
30
0
11
52.254231
21
12.4
31
0
39
0
210
0
220
0
230
1
0
LINE
5
7F
100
AcDbEntity
8
1
62
256
6
ByLayer
370
18
48
1
60
0
100
AcDbLine
10
49.960264
20
16.75
30
0
11
49.960042
21
16.674994
31
0
39
0
210
0
220
0
230
1
0
LINE
5
80
100
AcDbEntity
8
1
62
256
6
ByLayer
370
18
48
1
60
0
100
AcDbLine
10
0.587083
20
16.75
30
0
11
3.112505
21
16.75
31
0
39
0
210
0
220
0
230
1
0
LINE
5
81
100
AcDbEntity
8
1
62
256
6
ByLayer
370
18
48
1
60
0
100
AcDbLine
10
0.5
20
16.425
30
0
11
0
21
15.925
31
0
39
0
210
0
220
0
230
1
0
LINE
5
82
100
AcDbEntity
8
1
62
256
6
ByLayer
370
18
48
1
60
0
100
AcDbLine
10
23.516458
20
-6.758852
30
0
11
26.450588
21
-5.028297
31
0
39
0
210
0
220
0
230
1
0
LINE
5
83
100
AcDbEntity
8
1
62
256
6
ByLayer
370
18
48
1
60
0
100
AcDbLine
10
0
20
-15.925
30
0
11
0
21
15.925
31
0
39
0
210
0
220
0
230
1
0
LINE
5
84
100
AcDbEntity
8
1
62
256
6
ByLayer
370
18
48
1
60
0
100
AcDbLine
10
36.785142
20
12.4
30
0
11
36.785142
21
16.75
31
0
39
0
210
0
220
0
230
1
0
LINE
5
85
100
AcDbEntity
8
1
62
256
6
ByLayer
370
18
48
1
60
0
100
AcDbLine
10
48.809404
20
16.75
30
0
11
49.960264
21
16.75
31
0
39
0
210
0
220
0
230
1
0
LINE
5
86
100
AcDbEntity
8
1
62
256
6
ByLayer
370
18
48
1
60
0
100
AcDbLine
10
23.5
20
-6.768559
30
0
11
23.502314
21
-6.767194
31
0
39
0
210
0
220
0
230
1
0
LINE
5
87
100
AcDbEntity
8
1
62
256
6
ByLayer
370
18
48
1
60
0
100
AcDbLine
10
36.785142
20
12.4
30
0
11
25.1
21
12.4
31
0
39
0
210
0
220
0
230
1
0
LINE
5
88
100
AcDbEntity
8
1
62
256
6
ByLayer
370
18
48
1
60
0
100
AcDbLine
10
23.516458
20
10.8
30
0
11
23.516458
21
-6.758852
31
0
39
0
210
0
220
0
230
1
0
LINE
5
89
100
AcDbEntity
8
1
62
256
6
ByLayer
370
18
48
1
60
0
100
AcDbLine
10
0.5
20
-15.927182
30
0
11
3.112505
21
-15.969724
31
0
39
0
210
0
220
0
230
1
0
LINE
5
8A
100
AcDbEntity
8
1
62
256
6
ByLayer
370
18
48
1
60
0
100
AcDbLine
10
3.112505
20
-15.969724
30
0
11
7.899564
21
-15.969724
31
0
39
0
210
0
220
0
230
1
0
LINE
5
8B
100
AcDbEntity
8
1
62
256
6
ByLayer
370
18
48
1
60
0
100
AcDbLine
10
0.587083
20
16.75
30
0
11
0.5
21
16.425
31
0
39
0
210
0
220
0
230
1
0
LINE
5
8C
100
AcDbEntity
8
1
62
256
6
ByLayer
370
18
48
1
60
0
100
AcDbLine
10
0.5
20
-15.927182
30
0
11
0
21
-15.925
31
0
39
0
210
0
220
0
230
1
0
LINE
5
8D
100
AcDbEntity
8
1
62
256
6
ByLayer
370
18
48
1
60
0
100
AcDbLine
10
49.309223
20
14.3
30
0
11
49.309223
21
14.85
31
0
39
0
210
0
220
0
230
1
0
LINE
5
8E
100
AcDbEntity
8
1
62
256
6
ByLayer
370
18
48
1
60
0
100
AcDbLine
10
23.502146
20
-6.767293
30
0
11
23.516458
21
-6.758852
31
0
39
0
210
0
220
0
230
1
0
LINE
5
8F
100
AcDbEntity
8
1
62
256
6
ByLayer
370
18
48
1
60
0
100
AcDbLine
10
7.899564
20
-15.969724
30
0
11
23.5
21
-6.768559
31
0
39
0
210
0
220
0
230
1
0
LINE
5
90
100
AcDbEntity
8
1
62
256
6
ByLayer
370
18
48
1
60
0
100
AcDbLine
10
23.5
20
10.8
30
0
11
23.5
21
-6.768559
31
0
39
0
210
0
220
0
230
1
0
LINE
5
91
100
AcDbEntity
8
1
62
256
6
ByLayer
370
18
48
1
60
0
100
AcDbLine
10
36.785142
20
16.75
30
0
11
3.112505
21
16.75
31
0
39
0
210
0
220
0
230
1
0
LINE
5
92
100
AcDbEntity
8
1
62
256
6
ByLayer
370
18
48
1
60
0
100
AcDbLine
10
49.960264
20
16.75
30
0
11
52.254231
21
16.75
31
0
39
0
210
0
220
0
230
1
0
LINE
5
93
100
AcDbEntity
8
1
62
256
6
ByLayer
370
18
48
1
60
0
100
AcDbLine
10
48.809404
20
12.4
30
0
11
49.960264
21
12.4
31
0
39
0
210
0
220
0
230
1
0
LINE
5
94
100
AcDbEntity
8
SK1
62
256
6
ByLayer
370
18
48
1
60
0
100
AcDbLine
10
-114.35
20
15.925
30
0
11
-114.35
21
-15.925
31
0
39
0
210
0
220
0
230
1
0
LINE
5
96
100
AcDbEntity
8
SK1
62
256
6
ByLayer
370
18
48
1
60
0
100
AcDbLine
10
0
20
15.925
30
0
11
0
21
-15.925
31
0
39
0
210
0
220
0
230
1
0
LINE
5
97
100
AcDbEntity
8
SK1
62
256
6
ByLayer
370
18
48
1
60
0
100
AcDbLine
10
0
20
15.925
30
0
11
-114.35
21
15.925
31
0
39
0
210
0
220
0
230
1
0
LINE
5
98
100
AcDbEntity
8
SK1
62
256
6
ByLayer
370
18
48
1
60
0
100
AcDbLine
10
-114.35
20
-15.925
30
0
11
0
21
-15.925
31
0
39
0
210
0
220
0
230
1
0
LINE
5
99
100
AcDbEntity
8
1
62
256
6
ByLayer
370
18
48
1
60
0
100
AcDbLine
10
48.820221
20
12.475
30
0
11
49.246355
21
12.475
31
0
39
0
210
0
220
0
230
1
0
LINE
5
9A
100
AcDbEntity
8
1
62
256
6
ByLayer
370
18
48
1
60
0
100
AcDbLine
10
49.309193
20
14.555
30
0
11
49.937861
21
14.555
31
0
39
0
210
0
220
0
230
1
0
LINE
5
9B
100
AcDbEntity
8
1
62
256
6
ByLayer
370
18
48
1
60
0
100
AcDbLine
10
49.309198
20
14.364264
30
0
11
49.928946
21
14.364264
31
0
39
0
210
0
220
0
230
1
0
LINE
5
9C
100
AcDbEntity
8
1
62
256
6
ByLayer
370
18
48
1
60
0
100
AcDbLine
10
49.201743
20
14.147267
30
0
11
49.748945
21
14.147267
31
0
39
0
210
0
220
0
230
1
0
LINE
5
9D
100
AcDbEntity
8
1
62
256
6
ByLayer
370
18
48
1
60
0
100
AcDbLine
10
48.820221
20
16.675
30
0
11
49.246355
21
16.675
31
0
39
0
210
0
220
0
230
1
0
LINE
5
9E
100
AcDbEntity
8
1
62
256
6
ByLayer
370
18
48
1
60
0
100
AcDbLine
10
49.246355
20
16.675
30
0
11
50.63
21
16.675
31
0
39
0
210
0
220
0
230
1
0
LINE
5
9F
100
AcDbEntity
8
1
62
256
6
ByLayer
370
18
48
1
60
0
100
AcDbLine
10
48.855225
20
16.433749
30
0
11
49.246355
21
16.433749
31
0
39
0
210
0
220
0
230
1
0
LINE
5
A0
100
AcDbEntity
8
1
62
256
6
ByLayer
370
18
48
1
60
0
100
AcDbLine
10
49.246355
20
16.433749
30
0
11
49.246355
21
16.675
31
0
39
0
210
0
220
0
230
1
0
LINE
5
A1
100
AcDbEntity
8
1
62
256
6
ByLayer
370
18
48
1
60
0
100
AcDbLine
10
49.937861
20
14.555
30
0
11
49.937861
21
14.595
31
0
39
0
210
0
220
0
230
1
0
LINE
5
A2
100
AcDbEntity
8
1
62
256
6
ByLayer
370
18
48
1
60
0
100
AcDbLine
10
32.313086
20
17.074714
30
0
11
36.5
21
16.89191
31
0
39
0
210
0
220
0
230
1
0
LINE
5
A3
100
AcDbEntity
8
1
62
256
6
ByLayer
370
18
48
1
60
0
100
AcDbLine
10
56.686914
20
12.075286
30
0
11
52.5
21
12.25809
31
0
39
0
210
0
220
0
230
1
0
LINE
5
A4
100
AcDbEntity
8
1
62
256
6
ByLayer
370
18
48
1
60
0
100
AcDbLine
10
57
20
12.375
30
0
11
57
21
16.775
31
0
39
0
210
0
220
0
230
1
0
LINE
5
A5
100
AcDbEntity
8
1
62
256
6
ByLayer
370
18
48
1
60
0
100
AcDbLine
10
56.686914
20
17.074714
30
0
11
52.5
21
16.89191
31
0
39
0
210
0
220
0
230
1
0
LINE
5
A6
100
AcDbEntity
8
1
62
256
6
ByLayer
370
18
48
1
60
0
100
AcDbLine
10
52.5
20
16.89191
30
0
11
52.124301
21
16.675
31
0
39
0
210
0
220
0
230
1
0
LINE
5
A7
100
AcDbEntity
8
1
62
256
6
ByLayer
370
18
48
1
60
0
100
AcDbLine
10
50.63
20
16.675
30
0
11
52.124301
21
16.675
31
0
39
0
210
0
220
0
230
1
0
LINE
5
A8
100
AcDbEntity
8
1
62
256
6
ByLayer
370
18
48
1
60
0
100
AcDbLine
10
50.63
20
12.475
30
0
11
52.124301
21
12.475
31
0
39
0
210
0
220
0
230
1
0
LINE
5
A9
100
AcDbEntity
8
1
62
256
6
ByLayer
370
18
48
1
60
0
100
AcDbLine
10
52.5
20
12.25809
30
0
11
52.124301
21
12.475
31
0
39
0
210
0
220
0
230
1
0
LINE
5
AA
100
AcDbEntity
8
1
62
256
6
ByLayer
370
18
48
1
60
0
100
AcDbLine
10
49.549523
20
14.061112
30
0
11
49.477691
21
13.969335
31
0
39
0
210
0
220
0
230
1
0
LINE
5
AB
100
AcDbEntity
8
1
62
256
6
ByLayer
370
18
48
1
60
0
100
AcDbLine
10
49.457959
20
13.925066
30
0
11
49.247874
21
12.733616
31
0
39
0
210
0
220
0
230
1
0
LINE
5
AC
100
AcDbEntity
8
1
62
256
6
ByLayer
370
18
48
1
60
0
100
AcDbLine
10
49.246355
20
12.716251
30
0
11
49.246355
21
12.475
31
0
39
0
210
0
220
0
230
1
0
LINE
5
AD
100
AcDbEntity
8
1
62
256
6
ByLayer
370
18
48
1
60
0
100
AcDbLine
10
49.246355
20
12.475
30
0
11
50.63
21
12.475
31
0
39
0
210
0
220
0
230
1
0
LINE
5
AE
100
AcDbEntity
8
1
62
256
6
ByLayer
370
18
48
1
60
0
100
AcDbLine
10
32.313086
20
12.075286
30
0
11
36.5
21
12.25809
31
0
39
0
210
0
220
0
230
1
0
LINE
5
AF
100
AcDbEntity
8
1
62
256
6
ByLayer
370
18
48
1
60
0
100
AcDbLine
10
36.5
20
12.25809
30
0
11
36.745789
21
12.399997
31
0
39
0
210
0
220
0
230
1
0
LINE
5
B0
100
AcDbEntity
8
1
62
256
6
ByLayer
370
18
48
1
60
0
100
AcDbLine
10
36.5
20
16.89191
30
0
11
36.745789
21
16.750003
31
0
39
0
210
0
220
0
230
1
0
LINE
5
B1
100
AcDbEntity
8
1
62
256
6
ByLayer
370
18
48
1
60
0
100
AcDbLine
10
50.63
20
12.475
30
0
11
50.63
21
16.675
31
0
39
0
210
0
220
0
230
1
0
LINE
5
B2
100
AcDbEntity
8
1
62
256
6
ByLayer
370
18
48
1
60
0
100
AcDbLine
10
49.309193
20
14.595
30
0
11
49.937861
21
14.595
31
0
39
0
210
0
220
0
230
1
0
LINE
5
B3
100
AcDbEntity
8
1
62
256
6
ByLayer
370
18
48
1
60
0
100
AcDbLine
10
49.309198
20
14.785736
30
0
11
49.928946
21
14.785736
31
0
39
0
210
0
220
0
230
1
0
LINE
5
B4
100
AcDbEntity
8
1
62
256
6
ByLayer
370
18
48
1
60
0
100
AcDbLine
10
49.201743
20
15.002733
30
0
11
49.748945
21
15.002733
31
0
39
0
210
0
220
0
230
1
0
LINE
5
B5
100
AcDbEntity
8
1
62
256
6
ByLayer
370
18
48
1
60
0
100
AcDbLine
10
49.590119
20
15.058085
30
0
11
49.092241
21
15.058085
31
0
39
0
210
0
220
0
230
1
0
LINE
5
B6
100
AcDbEntity
8
1
62
256
6
ByLayer
370
18
48
1
60
0
100
AcDbLine
10
49.065952
20
15.088888
30
0
11
49.549523
21
15.088888
31
0
39
0
210
0
220
0
230
1
0
LINE
5
B7
100
AcDbEntity
8
1
62
256
6
ByLayer
370
18
48
1
60
0
100
AcDbLine
10
49.549523
20
15.088888
30
0
11
49.477691
21
15.180665
31
0
39
0
210
0
220
0
230
1
0
LINE
5
B8
100
AcDbEntity
8
1
62
256
6
ByLayer
370
18
48
1
60
0
100
AcDbLine
10
49.036543
20
15.180665
30
0
11
49.477691
21
15.180665
31
0
39
0
210
0
220
0
230
1
0
LINE
5
B9
100
AcDbEntity
8
1
62
256
6
ByLayer
370
18
48
1
60
0
100
AcDbLine
10
49.03018
20
15.224934
30
0
11
49.457959
21
15.224934
31
0
39
0
210
0
220
0
230
1
0
LINE
5
BA
100
AcDbEntity
8
1
62
256
6
ByLayer
370
18
48
1
60
0
100
AcDbLine
10
49.457959
20
15.224934
30
0
11
49.247874
21
16.416384
31
0
39
0
210
0
220
0
230
1
0
LINE
5
BB
100
AcDbEntity
8
1
62
256
6
ByLayer
370
18
48
1
60
0
100
AcDbLine
10
48.857658
20
16.416384
30
0
11
49.247874
21
16.416384
31
0
39
0
210
0
220
0
230
1
0
LINE
5
BC
100
AcDbEntity
8
1
62
256
6
ByLayer
370
18
48
1
60
0
100
AcDbLine
10
49.066189
20
14.061112
30
0
11
49.549523
21
14.061112
31
0
39
0
210
0
220
0
230
1
0
LINE
5
BD
100
AcDbEntity
8
1
62
256
6
ByLayer
370
18
48
1
60
0
100
AcDbLine
10
49.590119
20
14.091915
30
0
11
49.092957
21
14.091915
31
0
39
0
210
0
220
0
230
1
0
LINE
5
BE
100
AcDbEntity
8
1
62
256
6
ByLayer
370
18
48
1
60
0
100
AcDbLine
10
49.036543
20
13.969335
30
0
11
49.477691
21
13.969335
31
0
39
0
210
0
220
0
230
1
0
LINE
5
BF
100
AcDbEntity
8
1
62
256
6
ByLayer
370
18
48
1
60
0
100
AcDbLine
10
49.03018
20
13.925066
30
0
11
49.457959
21
13.925066
31
0
39
0
210
0
220
0
230
1
0
LINE
5
C0
100
AcDbEntity
8
1
62
256
6
ByLayer
370
18
48
1
60
0
100
AcDbLine
10
48.857658
20
12.733616
30
0
11
49.247874
21
12.733616
31
0
39
0
210
0
220
0
230
1
0
LINE
5
C1
100
AcDbEntity
8
1
62
256
6
ByLayer
370
18
48
1
60
0
100
AcDbLine
10
48.855225
20
12.716251
30
0
11
49.246355
21
12.716251
31
0
39
0
210
0
220
0
230
1
0
LINE
5
C2
100
AcDbEntity
8
1
62
256
6
ByLayer
370
18
48
1
60
0
100
AcDbLine
10
32
20
12.375
30
0
11
32
21
12.400025
31
0
39
0
210
0
220
0
230
1
0
LINE
5
C3
100
AcDbEntity
8
1
62
256
6
ByLayer
370
18
48
1
60
0
100
AcDbLine
10
32
20
16.749975
30
0
11
32
21
16.775
31
0
39
0
210
0
220
0
230
1
0
MTEXT
5
FE
100
AcDbEntity
8
SK6
62
256
6
ByLayer
370
18
48
1
60
0
100
AcDbMText
10
-57.799987
20
-26.822362
30
0
210
0
220
0
230
1
1
\W0.7627;RF123J32-3232BM
40
3.5
41
0
44
1.084337
50
0
71
7
72
5
7
iso_b_vert
0
DIMENSION
5
10F
100
AcDbEntity
8
2
62
256
6
ByLayer
370
13
48
1
60
0
100
AcDbDimension
2
DimnDraft3D1
10
71.25
20
17.075
30
0
11
71.25
21
21.575
31
0
70
32
71
5
72
1
41
1
210
0
220
0
230
1
3
Standard
100
AcDbAlignedDimension
13
58.5
23
12.075
33
0
14
58.5
24
17.075
34
0
50
90
100
AcDbRotatedDimension
1001
ACAD
1000
DSTYLE
1002
{
1070
    74
1070
     0
1070
   279
1070
     0
1070
   172
1070
     1
1070
   173
1070
     1
1070
   340
1005
FF
1070
   271
1070
     3
1070
   272
1070
     3
1070
    77
1070
     1
1070
    73
1070
     0
1070
   171
1070
     4
1070
   274
1070
     4
1070
   177
1070
     2
1070
   176
1070
     2
1070
   178
1070
     7
1070
    78
1070
     8
1070
    41
1041
3.0
1070
   147
1041
2.25
1070
    42
1041
1.5
1070
    44
1041
3.0
1070
   140
1041
4.5
1070
   343
1005
110
1070
   344
1005
110
1002
}
0
DIMENSION
5
124
100
AcDbEntity
8
2
62
256
6
ByLayer
370
13
48
1
60
0
100
AcDbDimension
2
DimnDraft3D2
10
81.25
20
-15.925
30
0
11
81.25
21
-2.113158
31
0
70
32
71
5
72
1
41
1
210
0
220
0
230
1
3
Standard
100
AcDbAlignedDimension
13
58.5
23
17.075
33
0
14
-3.5
24
-15.925
34
0
50
90
100
AcDbRotatedDimension
1001
ACAD
1000
DSTYLE
1002
{
1070
    74
1070
     0
1070
   279
1070
     0
1070
   172
1070
     1
1070
   173
1070
     1
1070
   340
1005
FF
1070
   271
1070
     3
1070
   272
1070
     3
1070
    77
1070
     1
1070
    73
1070
     0
1070
   171
1070
     4
1070
   274
1070
     4
1070
   177
1070
     2
1070
   176
1070
     2
1070
   178
1070
     7
1070
    78
1070
     8
1070
    41
1041
3.0
1070
   147
1041
2.25
1070
    42
1041
1.5
1070
    44
1041
3.0
1070
   140
1041
4.5
1070
   343
1005
110
1070
   344
1005
110
1002
}
0
DIMENSION
5
133
100
AcDbEntity
8
SK2
62
256
6
ByLayer
370
13
48
1
60
0
100
AcDbDimension
2
DimnDraft3D3
10
-124.1
20
-15.925
30
0
11
-124.1
21
-2.688158
31
0
70
32
71
5
72
1
41
1
210
0
220
0
230
1
3
Standard
100
AcDbAlignedDimension
13
-115.85
23
15.925
33
0
14
-115.85
24
-15.925
34
0
50
90
100
AcDbRotatedDimension
1001
ACAD
1000
DSTYLE
1002
{
1070
    74
1070
     0
1070
   279
1070
     0
1070
   172
1070
     1
1070
   173
1070
     1
1070
   340
1005
FF
1070
   271
1070
     3
1070
   272
1070
     3
1070
    77
1070
     1
1070
    73
1070
     0
1070
   171
1070
     4
1070
   274
1070
     4
1070
   177
1070
     2
1070
   176
1070
     2
1070
   178
1070
     7
1070
    78
1070
     8
1070
    41
1041
3.0
1070
   147
1041
2.25
1070
    42
1041
1.5
1070
    44
1041
3.0
1070
   140
1041
4.5
1070
   343
1005
110
1070
   344
1005
110
1002
}
0
DIMENSION
5
141
100
AcDbEntity
8
2
62
256
6
ByLayer
370
13
48
1
60
0
100
AcDbDimension
2
DimnDraft3D4
10
0
20
26.825
30
0
11
25.811842
21
26.825
31
0
70
32
71
5
72
1
41
1
210
0
220
0
230
1
3
Standard
100
AcDbAlignedDimension
13
57
23
18.575
33
0
14
0
24
17.425
34
0
50
0
100
AcDbRotatedDimension
1001
ACAD
1000
DSTYLE
1002
{
1070
   279
1070
     0
1070
   172
1070
     1
1070
   173
1070
     1
1070
   340
1005
FF
1070
   271
1070
     3
1070
   272
1070
     3
1070
    77
1070
     1
1070
    73
1070
     0
1070
   171
1070
     4
1070
   274
1070
     4
1070
   177
1070
     2
1070
   176
1070
     2
1070
   178
1070
     7
1070
    78
1070
     8
1070
    41
1041
3.0
1070
   147
1041
2.25
1070
    42
1041
1.5
1070
    44
1041
3.0
1070
   140
1041
4.5
1070
   343
1005
110
1070
   344
1005
110
1002
}
0
DIMENSION
5
14F
100
AcDbEntity
8
SK2
62
256
6
ByLayer
370
13
48
1
60
0
100
AcDbDimension
2
DimnDraft3D5
10
-114.35
20
36.825
30
0
11
-32.482237
21
36.825
31
0
70
32
71
5
72
1
41
1
210
0
220
0
230
1
3
Standard
100
AcDbAlignedDimension
13
57
23
18.575
33
0
14
-114.35
24
17.425
34
0
50
0
100
AcDbRotatedDimension
1001
ACAD
1000
DSTYLE
1002
{
1070
   279
1070
     0
1070
   172
1070
     1
1070
   173
1070
     1
1070
   340
1005
FF
1070
   271
1070
     3
1070
   272
1070
     3
1070
    77
1070
     1
1070
    73
1070
     0
1070
   171
1070
     4
1070
   274
1070
     4
1070
   177
1070
     2
1070
   176
1070
     2
1070
   178
1070
     7
1070
    78
1070
     8
1070
    41
1041
3.0
1070
   147
1041
2.25
1070
    42
1041
1.5
1070
    44
1041
3.0
1070
   140
1041
4.5
1070
   343
1005
110
1070
   344
1005
110
1002
}
0
DIMENSION
5
15D
100
AcDbEntity
8
2
62
256
6
ByLayer
370
13
48
1
60
0
100
AcDbDimension
2
DimnDraft3D6
10
57
20
-30.175
30
0
11
38.311842
21
-30.175
31
0
70
32
71
5
72
1
41
1
210
0
220
0
230
1
3
Standard
100
AcDbAlignedDimension
13
25
23
9.575
33
0
14
57
24
10.575
34
0
50
0
100
AcDbRotatedDimension
1001
ACAD
1000
DSTYLE
1002
{
1070
   279
1070
     0
1070
   172
1070
     1
1070
   173
1070
     1
1070
   340
1005
FF
1070
   271
1070
     3
1070
   272
1070
     3
1070
    77
1070
     1
1070
    73
1070
     0
1070
   171
1070
     4
1070
   274
1070
     4
1070
   177
1070
     2
1070
   176
1070
     2
1070
   178
1070
     7
1070
    78
1070
     8
1070
    41
1041
3.0
1070
   147
1041
2.25
1070
    42
1041
1.5
1070
    44
1041
3.0
1070
   140
1041
4.5
1070
   343
1005
110
1070
   344
1005
110
1002
}
0
ENDSEC
0
SECTION
2
OBJECTS
0
DICTIONARY
5
1c7
330
0
100
AcDbDictionary
280
0
281
1
3
ACAD_GROUP
350
1c8
3
ACAD_MLINESTYLE
350
1c9
0
DICTIONARY
5
1c8
330
0
100
AcDbDictionary
280
0
281
1
0
DICTIONARY
5
1c9
330
0
100
AcDbDictionary
280
0
281
1
3
Standard
350
18
0
MLINESTYLE
5
18
330
1c9
100
AcDbMlineStyle
2
Standard
70
0
3

62
256
51
90
52
90
71
2
49
-0.5
62
256
6
ByLayer
49
0.5
62
256
6
ByLayer
0
RASTERVARIABLES
5
1b6
330

100
AcDbRasterVariables
90
0
70
1
71
1
72
1
0
ENDSEC
0
EOF
