0
SECTION
2
HEADER
9
$ACADVER
1
AC1015
9
$DWGCODEPAGE
3
ANSI_1252
9
$HANDSEED
5
1d4
9
$ANGBASE
50
0
9
$ANGDIR
70
0
9
$ATTMODE
70
1
9
$AUNITS
70
0
9
$AUPREC
70
0
9
$CECOLOR
62
256
9
$CELTSCALE
40
1
9
$CELTYPE
6
ByLayer
9
$CELWEIGHT
370
18
9
$CLAYER
8
0
9
$CMLJUST
70
0
9
$CMLSCALE
40
1
9
$CMLSTYLE
2
Standard
9
$DIMSTYLE
2
Standard
9
$TEXTSIZE
40
0.2
9
$TEXTSTYLE
7
Standard
9
$LUNITS
70
2
9
$LUPREC
70
4
9
$EXTNAMES
290
1
9
$INSUNITS
70
4
9
$LTSCALE
40
1
9
$LWDISPLAY
290
1
9
$PDMODE
70
0
9
$PDSIZE
40
0
9
$PLINEGEN
70
0
0
ENDSEC
0
SECTION
2
CLASSES
0
CLASS
1
RASTERVARIABLES
2
AcDbRasterVariables
3
ISM
90
0
280
0
281
0
0
ENDSEC
0
SECTION
2
TABLES
0
TABLE
2
VPORT
5
1ca
100
AcDbSymbolTable
0
VPORT
5
1
100
AcDbSymbolTableRecord
100
AcDbViewportTableRecord
2
*Active
70
0
10
0
20
0
11
1
21
1
12
-1
22
1
13
0
23
0
14
0.5
24
0.5
15
10
25
10
16
0
26
0
36
1
17
0
27
0
37
0
0
ENDTAB
0
TABLE
2
LTYPE
5
1cb
100
AcDbSymbolTable
0
LTYPE
5
14
100
AcDbSymbolTableRecord
100
AcDbLinetypeTableRecord
70
0
2
ByBlock
3

72
65
73
0
40
0
0
LTYPE
5
15
100
AcDbSymbolTableRecord
100
AcDbLinetypeTableRecord
70
0
2
ByLayer
3

72
65
73
0
40
0
0
LTYPE
5
16
100
AcDbSymbolTableRecord
100
AcDbLinetypeTableRecord
70
0
2
CONTINUOUS
3
Solid line
72
65
73
0
40
0
0
LTYPE
5
6A
100
AcDbSymbolTableRecord
100
AcDbLinetypeTableRecord
70
0
2
CENTER
3
____ _ ____ _ ____ _ ____
72
65
73
4
40
47.5
49
22
74
0
49
-8.5
74
0
49
8.5
74
0
49
-8.5
74
0
0
LTYPE
5
6B
100
AcDbSymbolTableRecord
100
AcDbLinetypeTableRecord
70
0
2
DASHED
3
__ __ __ __ __ __ __ __ __
72
65
73
2
40
25.72
49
12.86
74
0
49
-12.86
74
0
0
ENDTAB
0
TABLE
2
LAYER
5
1cc
100
AcDbSymbolTable
0
LAYER
5
10
100
AcDbSymbolTableRecord
100
AcDbLayerTableRecord
2
0
70
0
62
7
6
CONTINUOUS
290
1
370
-3
390
0
0
LAYER
5
6D
100
AcDbSymbolTableRecord
100
AcDbLayerTableRecord
2
80
70
0
62
-6
6
CONTINUOUS
290
1
370
-3
390
0
0
LAYER
5
6F
100
AcDbSymbolTableRecord
100
AcDbLayerTableRecord
2
2
70
0
62
7
6
CONTINUOUS
290
1
370
-3
390
0
0
LAYER
5
71
100
AcDbSymbolTableRecord
100
AcDbLayerTableRecord
2
81
70
0
62
-3
6
CONTINUOUS
290
1
370
-3
390
0
0
LAYER
5
75
100
AcDbSymbolTableRecord
100
AcDbLayerTableRecord
2
1
70
0
62
4
6
CONTINUOUS
290
1
370
-3
390
0
0
LAYER
5
1b7
100
AcDbSymbolTableRecord
100
AcDbLayerTableRecord
2
SK1
70
0
62
4
6
CONTINUOUS
290
1
370
-3
390
0
0
LAYER
5
1b8
100
AcDbSymbolTableRecord
100
AcDbLayerTableRecord
2
SK6
70
0
62
5
6
CONTINUOUS
290
1
370
-3
390
0
0
LAYER
5
1b9
100
AcDbSymbolTableRecord
100
AcDbLayerTableRecord
2
SK2
70
0
62
7
6
CONTINUOUS
290
1
370
-3
390
0
0
ENDTAB
0
TABLE
2
STYLE
5
1cd
100
AcDbSymbolTable
0
STYLE
5
11
100
AcDbSymbolTableRecord
100
AcDbTextStyleTableRecord
2
Standard
3
txt
70
0
71
0
40
0
41
1
42
0
50
0
0
STYLE
5
FF
100
AcDbSymbolTableRecord
100
AcDbTextStyleTableRecord
2
iso_b_vert
3
simplex.shx
70
0
71
0
40
0
41
1
42
0
50
0
0
STYLE
5
100
100
AcDbSymbolTableRecord
100
AcDbTextStyleTableRecord
2
DWGDirectTextStyle
3
simplex
70
0
71
0
40
0
41
1
42
0
50
0
0
ENDTAB
0
TABLE
2
DIMSTYLE
5
1ce
100
AcDbSymbolTable
100
AcDbDimStyleTable
0
DIMSTYLE
105
27
100
AcDbSymbolTableRecord
100
AcDbDimStyleTableRecord
2
Standard
70
0
3
<>
41
0.18
42
0.0625
44
0.18
140
0.18
147
0.09
73
0
74
0
77
1
271
2
275
0
278
52
280
0
340
11
0
ENDTAB
0
TABLE
2
VIEW
5
1cf
100
AcDbSymbolTable
0
ENDTAB
0
TABLE
2
UCS
5
1d0
100
AcDbSymbolTable
0
ENDTAB
0
TABLE
2
APPID
5
1d1
100
AcDbSymbolTable
0
APPID
5
12
100
AcDbSymbolTableRecord
100
AcDbRegAppTableRecord
2
ACAD
70
0
0
ENDTAB
0
TABLE
2
BLOCK_RECORD
5
1d2
100
AcDbSymbolTable
0
BLOCK_RECORD
5
1F
100
AcDbSymbolTableRecord
100
AcDbBlockTableRecord
2
*Model_Space
340
0
70
0
0
BLOCK_RECORD
5
1B
100
AcDbSymbolTableRecord
100
AcDbBlockTableRecord
2
*Paper_Space
340
0
70
0
0
BLOCK_RECORD
5
23
100
AcDbSymbolTableRecord
100
AcDbBlockTableRecord
2
*Paper_Space0
340
0
70
0
0
BLOCK_RECORD
5
102
100
AcDbSymbolTableRecord
100
AcDbBlockTableRecord
2
DimnDraft3D1
340
0
70
0
0
BLOCK_RECORD
5
110
100
AcDbSymbolTableRecord
100
AcDbBlockTableRecord
2
_CLOSED
340
0
70
0
0
BLOCK_RECORD
5
117
100
AcDbSymbolTableRecord
100
AcDbBlockTableRecord
2
DimnDraft3D2
340
0
70
0
0
BLOCK_RECORD
5
125
100
AcDbSymbolTableRecord
100
AcDbBlockTableRecord
2
DimnDraft3D3
340
0
70
0
0
BLOCK_RECORD
5
134
100
AcDbSymbolTableRecord
100
AcDbBlockTableRecord
2
DimnDraft3D4
340
0
70
0
0
BLOCK_RECORD
5
142
100
AcDbSymbolTableRecord
100
AcDbBlockTableRecord
2
DimnDraft3D5
340
0
70
0
0
BLOCK_RECORD
5
150
100
AcDbSymbolTableRecord
100
AcDbBlockTableRecord
2
DimnDraft3D6
340
0
70
0
0
ENDTAB
0
ENDSEC
0
SECTION
2
BLOCKS
0
BLOCK
5
20
100
AcDbEntity
8
0
100
AcDbBlockBegin
2
*Model_Space
70
0
10
0
20
0
30
0
3
*Model_Space
0
ENDBLK
5
21
100
AcDbEntity
8
0
100
AcDbBlockEnd
0
BLOCK
5
1C
100
AcDbEntity
8
0
100
AcDbBlockBegin
2
*Paper_Space
70
0
10
0
20
0
30
0
3
*Paper_Space
0
ENDBLK
5
1D
100
AcDbEntity
8
0
100
AcDbBlockEnd
0
BLOCK
5
24
100
AcDbEntity
8
0
100
AcDbBlockBegin
2
*Paper_Space0
70
0
10
0
20
0
30
0
3
*Paper_Space0
0
ENDBLK
5
25
100
AcDbEntity
8
0
100
AcDbBlockEnd
0
BLOCK
5
10D
100
AcDbEntity
8
0
100
AcDbBlockBegin
2
DimnDraft3D1
70
0
10
0
20
0
30
0
3
DimnDraft3D1
0
MTEXT
5
103
100
AcDbEntity
8
2
62
256
6
ByLayer
370
18
48
1
60
0
100
AcDbMText
10
47.125
20
19.1875
30
0
210
0
220
0
230
1
1
\W0.5404;5
40
4.5
41
0
44
1.084337
50
90
71
7
72
5
7
iso_b_vert
0
LINE
5
104
100
AcDbEntity
8
2
62
256
6
ByLayer
370
13
48
1
60
0
100
AcDbLine
10
35.5
20
8.5625
30
0
11
51.25
21
8.5625
31
0
39
0
210
0
220
0
230
1
0
LINE
5
105
100
AcDbEntity
8
2
62
256
6
ByLayer
370
13
48
1
60
0
100
AcDbLine
10
35.5
20
13.5625
30
0
11
51.25
21
13.5625
31
0
39
0
210
0
220
0
230
1
0
LINE
5
106
100
AcDbEntity
8
2
62
256
6
ByLayer
370
13
48
1
60
0
100
AcDbLine
10
48.25
20
20.075658
30
0
11
48.25
21
-2.6875
31
0
39
0
210
0
220
0
230
1
0
LINE
5
107
100
AcDbEntity
8
2
62
256
6
ByLayer
370
13
48
1
60
0
100
AcDbLine
10
48.25
20
8.5625
30
0
11
48.644957
21
5.562501
31
0
39
0
210
0
220
0
230
1
0
LINE
5
108
100
AcDbEntity
8
2
62
256
6
ByLayer
370
13
48
1
60
0
100
AcDbLine
10
48.25
20
8.5625
30
0
11
47.855043
21
5.562499
31
0
39
0
210
0
220
0
230
1
0
LINE
5
109
100
AcDbEntity
8
2
62
256
6
ByLayer
370
13
48
1
60
0
100
AcDbLine
10
48.644957
20
5.562501
30
0
11
47.855043
21
5.562499
31
0
39
0
210
0
220
0
230
1
0
LINE
5
10A
100
AcDbEntity
8
2
62
256
6
ByLayer
370
13
48
1
60
0
100
AcDbLine
10
48.25
20
13.5625
30
0
11
47.855043
21
16.562499
31
0
39
0
210
0
220
0
230
1
0
LINE
5
10B
100
AcDbEntity
8
2
62
256
6
ByLayer
370
13
48
1
60
0
100
AcDbLine
10
48.25
20
13.5625
30
0
11
48.644957
21
16.562501
31
0
39
0
210
0
220
0
230
1
0
LINE
5
10C
100
AcDbEntity
8
2
62
256
6
ByLayer
370
13
48
1
60
0
100
AcDbLine
10
47.855043
20
16.562499
30
0
11
48.644957
21
16.562501
31
0
39
0
210
0
220
0
230
1
0
ENDBLK
5
10E
100
AcDbEntity
8
0
100
AcDbBlockEnd
0
BLOCK
5
111
100
AcDbEntity
8
0
100
AcDbBlockBegin
2
_CLOSED
70
0
10
0
20
0
30
0
3
_CLOSED
0
LINE
5
113
100
AcDbEntity
8
0
62
256
6
ByLayer
370
-2
48
1
60
0
100
AcDbLine
10
-1
20
0.166667
30
0
11
0
21
0
31
0
39
0
210
0
220
0
230
1
0
LINE
5
114
100
AcDbEntity
8
0
62
256
6
ByLayer
370
-2
48
1
60
0
100
AcDbLine
10
0
20
0
30
0
11
-1
21
-0.166667
31
0
39
0
210
0
220
0
230
1
0
LINE
5
115
100
AcDbEntity
8
0
62
256
6
ByLayer
370
-2
48
1
60
0
100
AcDbLine
10
-1
20
0.166667
30
0
11
-1
21
-0.166667
31
0
39
0
210
0
220
0
230
1
0
LINE
5
116
100
AcDbEntity
8
0
62
256
6
ByLayer
370
-2
48
1
60
0
100
AcDbLine
10
0
20
0
30
0
11
-1
21
0
31
0
39
0
210
0
220
0
230
1
0
ENDBLK
5
112
100
AcDbEntity
8
0
100
AcDbBlockEnd
0
BLOCK
5
122
100
AcDbEntity
8
0
100
AcDbBlockBegin
2
DimnDraft3D2
70
0
10
0
20
0
30
0
3
DimnDraft3D2
0
MTEXT
5
118
100
AcDbEntity
8
2
62
256
6
ByLayer
370
18
48
1
60
0
100
AcDbMText
10
57.125
20
-1.000658
30
0
210
0
220
0
230
1
1
\W0.6740;26
40
4.5
41
0
44
1.084337
50
90
71
7
72
5
7
iso_b_vert
0
LINE
5
119
100
AcDbEntity
8
2
62
256
6
ByLayer
370
13
48
1
60
0
100
AcDbLine
10
35.5
20
13.5625
30
0
11
61.25
21
13.5625
31
0
39
0
210
0
220
0
230
1
0
LINE
5
11A
100
AcDbEntity
8
2
62
256
6
ByLayer
370
13
48
1
60
0
100
AcDbLine
10
-3.5
20
-12.4375
30
0
11
61.25
21
-12.4375
31
0
39
0
210
0
220
0
230
1
0
LINE
5
11B
100
AcDbEntity
8
2
62
256
6
ByLayer
370
13
48
1
60
0
100
AcDbLine
10
58.25
20
13.5625
30
0
11
58.25
21
-12.4375
31
0
39
0
210
0
220
0
230
1
0
LINE
5
11C
100
AcDbEntity
8
2
62
256
6
ByLayer
370
13
48
1
60
0
100
AcDbLine
10
58.25
20
13.5625
30
0
11
58.644957
21
10.562501
31
0
39
0
210
0
220
0
230
1
0
LINE
5
11D
100
AcDbEntity
8
2
62
256
6
ByLayer
370
13
48
1
60
0
100
AcDbLine
10
58.25
20
13.5625
30
0
11
57.855043
21
10.562499
31
0
39
0
210
0
220
0
230
1
0
LINE
5
11E
100
AcDbEntity
8
2
62
256
6
ByLayer
370
13
48
1
60
0
100
AcDbLine
10
58.644957
20
10.562501
30
0
11
57.855043
21
10.562499
31
0
39
0
210
0
220
0
230
1
0
LINE
5
11F
100
AcDbEntity
8
2
62
256
6
ByLayer
370
13
48
1
60
0
100
AcDbLine
10
58.25
20
-12.4375
30
0
11
57.855043
21
-9.437501
31
0
39
0
210
0
220
0
230
1
0
LINE
5
120
100
AcDbEntity
8
2
62
256
6
ByLayer
370
13
48
1
60
0
100
AcDbLine
10
58.25
20
-12.4375
30
0
11
58.644957
21
-9.437499
31
0
39
0
210
0
220
0
230
1
0
LINE
5
121
100
AcDbEntity
8
2
62
256
6
ByLayer
370
13
48
1
60
0
100
AcDbLine
10
57.855043
20
-9.437501
30
0
11
58.644957
21
-9.437499
31
0
39
0
210
0
220
0
230
1
0
ENDBLK
5
123
100
AcDbEntity
8
0
100
AcDbBlockEnd
0
BLOCK
5
131
100
AcDbEntity
8
0
100
AcDbBlockBegin
2
DimnDraft3D3
70
0
10
0
20
0
30
0
3
DimnDraft3D3
0
MTEXT
5
126
100
AcDbEntity
8
SK2
62
256
6
ByLayer
370
18
48
1
60
0
100
AcDbMText
10
-128.225
20
-1.563158
30
0
210
0
220
0
230
1
1
\W0.6740;25
40
4.5
41
0
44
1.084337
50
90
71
7
72
5
7
iso_b_vert
0
LINE
5
128
100
AcDbEntity
8
SK2
62
256
6
ByLayer
370
13
48
1
60
0
100
AcDbLine
10
-118.85
20
12.4375
30
0
11
-130.1
21
12.4375
31
0
39
0
210
0
220
0
230
1
0
LINE
5
129
100
AcDbEntity
8
SK2
62
256
6
ByLayer
370
13
48
1
60
0
100
AcDbLine
10
-118.85
20
-12.4375
30
0
11
-130.1
21
-12.4375
31
0
39
0
210
0
220
0
230
1
0
LINE
5
12A
100
AcDbEntity
8
SK2
62
256
6
ByLayer
370
13
48
1
60
0
100
AcDbLine
10
-127.1
20
12.4375
30
0
11
-127.1
21
-12.4375
31
0
39
0
210
0
220
0
230
1
0
LINE
5
12B
100
AcDbEntity
8
SK2
62
256
6
ByLayer
370
13
48
1
60
0
100
AcDbLine
10
-127.1
20
12.4375
30
0
11
-126.705043
21
9.437501
31
0
39
0
210
0
220
0
230
1
0
LINE
5
12C
100
AcDbEntity
8
SK2
62
256
6
ByLayer
370
13
48
1
60
0
100
AcDbLine
10
-127.1
20
12.4375
30
0
11
-127.494957
21
9.437499
31
0
39
0
210
0
220
0
230
1
0
LINE
5
12D
100
AcDbEntity
8
SK2
62
256
6
ByLayer
370
13
48
1
60
0
100
AcDbLine
10
-126.705043
20
9.437501
30
0
11
-127.494957
21
9.437499
31
0
39
0
210
0
220
0
230
1
0
LINE
5
12E
100
AcDbEntity
8
SK2
62
256
6
ByLayer
370
13
48
1
60
0
100
AcDbLine
10
-127.1
20
-12.4375
30
0
11
-127.494957
21
-9.437501
31
0
39
0
210
0
220
0
230
1
0
LINE
5
12F
100
AcDbEntity
8
SK2
62
256
6
ByLayer
370
13
48
1
60
0
100
AcDbLine
10
-127.1
20
-12.4375
30
0
11
-126.705043
21
-9.437499
31
0
39
0
210
0
220
0
230
1
0
LINE
5
130
100
AcDbEntity
8
SK2
62
256
6
ByLayer
370
13
48
1
60
0
100
AcDbLine
10
-127.494957
20
-9.437501
30
0
11
-126.705043
21
-9.437499
31
0
39
0
210
0
220
0
230
1
0
ENDBLK
5
132
100
AcDbEntity
8
0
100
AcDbBlockEnd
0
BLOCK
5
13F
100
AcDbEntity
8
0
100
AcDbBlockBegin
2
DimnDraft3D4
70
0
10
0
20
0
30
0
3
DimnDraft3D4
0
MTEXT
5
135
100
AcDbEntity
8
2
62
256
6
ByLayer
370
18
48
1
60
0
100
AcDbMText
10
15.2
20
24.789737
30
0
210
0
220
0
230
1
1
\W0.7167;34
40
4.5
41
0
44
1.084337
50
0
71
7
72
5
7
iso_b_vert
0
LINE
5
136
100
AcDbEntity
8
2
62
256
6
ByLayer
370
13
48
1
60
0
100
AcDbLine
10
34
20
15.0625
30
0
11
34
21
26.664737
31
0
39
0
210
0
220
0
230
1
0
LINE
5
137
100
AcDbEntity
8
2
62
256
6
ByLayer
370
13
48
1
60
0
100
AcDbLine
10
0
20
13.9375
30
0
11
0
21
26.664737
31
0
39
0
210
0
220
0
230
1
0
LINE
5
138
100
AcDbEntity
8
2
62
256
6
ByLayer
370
13
48
1
60
0
100
AcDbLine
10
34
20
23.664737
30
0
11
0
21
23.664737
31
0
39
0
210
0
220
0
230
1
0
LINE
5
139
100
AcDbEntity
8
2
62
256
6
ByLayer
370
13
48
1
60
0
100
AcDbLine
10
34
20
23.664737
30
0
11
31.000001
21
23.26978
31
0
39
0
210
0
220
0
230
1
0
LINE
5
13A
100
AcDbEntity
8
2
62
256
6
ByLayer
370
13
48
1
60
0
100
AcDbLine
10
34
20
23.664737
30
0
11
30.999999
21
24.059695
31
0
39
0
210
0
220
0
230
1
0
LINE
5
13B
100
AcDbEntity
8
2
62
256
6
ByLayer
370
13
48
1
60
0
100
AcDbLine
10
31.000001
20
23.26978
30
0
11
30.999999
21
24.059695
31
0
39
0
210
0
220
0
230
1
0
LINE
5
13C
100
AcDbEntity
8
2
62
256
6
ByLayer
370
13
48
1
60
0
100
AcDbLine
10
0
20
23.664737
30
0
11
2.999999
21
24.059695
31
0
39
0
210
0
220
0
230
1
0
LINE
5
13D
100
AcDbEntity
8
2
62
256
6
ByLayer
370
13
48
1
60
0
100
AcDbLine
10
0
20
23.664737
30
0
11
3.000001
21
23.26978
31
0
39
0
210
0
220
0
230
1
0
LINE
5
13E
100
AcDbEntity
8
2
62
256
6
ByLayer
370
13
48
1
60
0
100
AcDbLine
10
2.999999
20
24.059695
30
0
11
3.000001
21
23.26978
31
0
39
0
210
0
220
0
230
1
0
ENDBLK
5
140
100
AcDbEntity
8
0
100
AcDbBlockEnd
0
BLOCK
5
14D
100
AcDbEntity
8
0
100
AcDbBlockBegin
2
DimnDraft3D5
70
0
10
0
20
0
30
0
3
DimnDraft3D5
0
MTEXT
5
143
100
AcDbEntity
8
SK2
62
256
6
ByLayer
370
18
48
1
60
0
100
AcDbMText
10
-44.357237
20
34.789737
30
0
210
0
220
0
230
1
1
\W0.6217;150
40
4.5
41
0
44
1.084337
50
0
71
7
72
5
7
iso_b_vert
0
LINE
5
144
100
AcDbEntity
8
SK2
62
256
6
ByLayer
370
13
48
1
60
0
100
AcDbLine
10
34
20
15.0625
30
0
11
34
21
36.664737
31
0
39
0
210
0
220
0
230
1
0
LINE
5
145
100
AcDbEntity
8
SK2
62
256
6
ByLayer
370
13
48
1
60
0
100
AcDbLine
10
-117.35
20
13.9375
30
0
11
-117.35
21
36.664737
31
0
39
0
210
0
220
0
230
1
0
LINE
5
146
100
AcDbEntity
8
SK2
62
256
6
ByLayer
370
13
48
1
60
0
100
AcDbLine
10
34
20
33.664737
30
0
11
-117.35
21
33.664737
31
0
39
0
210
0
220
0
230
1
0
LINE
5
147
100
AcDbEntity
8
SK2
62
256
6
ByLayer
370
13
48
1
60
0
100
AcDbLine
10
34
20
33.664737
30
0
11
31.000001
21
33.26978
31
0
39
0
210
0
220
0
230
1
0
LINE
5
148
100
AcDbEntity
8
SK2
62
256
6
ByLayer
370
13
48
1
60
0
100
AcDbLine
10
34
20
33.664737
30
0
11
30.999999
21
34.059695
31
0
39
0
210
0
220
0
230
1
0
LINE
5
149
100
AcDbEntity
8
SK2
62
256
6
ByLayer
370
13
48
1
60
0
100
AcDbLine
10
31.000001
20
33.26978
30
0
11
30.999999
21
34.059695
31
0
39
0
210
0
220
0
230
1
0
LINE
5
14A
100
AcDbEntity
8
SK2
62
256
6
ByLayer
370
13
48
1
60
0
100
AcDbLine
10
-117.35
20
33.664737
30
0
11
-114.350001
21
34.059695
31
0
39
0
210
0
220
0
230
1
0
LINE
5
14B
100
AcDbEntity
8
SK2
62
256
6
ByLayer
370
13
48
1
60
0
100
AcDbLine
10
-117.35
20
33.664737
30
0
11
-114.349999
21
33.26978
31
0
39
0
210
0
220
0
230
1
0
LINE
5
14C
100
AcDbEntity
8
SK2
62
256
6
ByLayer
370
13
48
1
60
0
100
AcDbLine
10
-114.350001
20
34.059695
30
0
11
-114.349999
21
33.26978
31
0
39
0
210
0
220
0
230
1
0
ENDBLK
5
14E
100
AcDbEntity
8
0
100
AcDbBlockEnd
0
BLOCK
5
15B
100
AcDbEntity
8
0
100
AcDbBlockBegin
2
DimnDraft3D6
70
0
10
0
20
0
30
0
3
DimnDraft3D6
0
MTEXT
5
151
100
AcDbEntity
8
2
62
256
6
ByLayer
370
18
48
1
60
0
100
AcDbMText
10
26.499342
20
-25.5625
30
0
210
0
220
0
230
1
1
\W0.5321;13
40
4.5
41
0
44
1.084337
50
0
71
7
72
5
7
iso_b_vert
0
LINE
5
152
100
AcDbEntity
8
2
62
256
6
ByLayer
370
13
48
1
60
0
100
AcDbLine
10
21
20
6.0625
30
0
11
21
21
-29.6875
31
0
39
0
210
0
220
0
230
1
0
LINE
5
153
100
AcDbEntity
8
2
62
256
6
ByLayer
370
13
48
1
60
0
100
AcDbLine
10
34
20
7.0625
30
0
11
34
21
-29.6875
31
0
39
0
210
0
220
0
230
1
0
LINE
5
154
100
AcDbEntity
8
2
62
256
6
ByLayer
370
13
48
1
60
0
100
AcDbLine
10
9.75
20
-26.6875
30
0
11
45.25
21
-26.6875
31
0
39
0
210
0
220
0
230
1
0
LINE
5
155
100
AcDbEntity
8
2
62
256
6
ByLayer
370
13
48
1
60
0
100
AcDbLine
10
21
20
-26.6875
30
0
11
18.000001
21
-27.082457
31
0
39
0
210
0
220
0
230
1
0
LINE
5
156
100
AcDbEntity
8
2
62
256
6
ByLayer
370
13
48
1
60
0
100
AcDbLine
10
21
20
-26.6875
30
0
11
17.999999
21
-26.292543
31
0
39
0
210
0
220
0
230
1
0
LINE
5
157
100
AcDbEntity
8
2
62
256
6
ByLayer
370
13
48
1
60
0
100
AcDbLine
10
18.000001
20
-27.082457
30
0
11
17.999999
21
-26.292543
31
0
39
0
210
0
220
0
230
1
0
LINE
5
158
100
AcDbEntity
8
2
62
256
6
ByLayer
370
13
48
1
60
0
100
AcDbLine
10
34
20
-26.6875
30
0
11
36.999999
21
-26.292543
31
0
39
0
210
0
220
0
230
1
0
LINE
5
159
100
AcDbEntity
8
2
62
256
6
ByLayer
370
13
48
1
60
0
100
AcDbLine
10
34
20
-26.6875
30
0
11
37.000001
21
-27.082457
31
0
39
0
210
0
220
0
230
1
0
LINE
5
15A
100
AcDbEntity
8
2
62
256
6
ByLayer
370
13
48
1
60
0
100
AcDbLine
10
36.999999
20
-26.292543
30
0
11
37.000001
21
-27.082457
31
0
39
0
210
0
220
0
230
1
0
ENDBLK
5
15C
100
AcDbEntity
8
0
100
AcDbBlockEnd
0
ENDSEC
0
SECTION
2
ENTITIES
0
ARC
5
BD
100
AcDbEntity
8
1
62
256
6
ByLayer
370
18
48
1
60
0
100
AcDbCircle
39
0
10
-21.1
20
7.2875
30
0
40
1.6
210
0
220
0
230
-1
100
AcDbArc
50
0
51
13.547278
0
ARC
5
C2
100
AcDbEntity
8
1
62
256
6
ByLayer
370
18
48
1
60
0
100
AcDbCircle
39
0
10
12.35
20
0.5125
30
0
40
2.0135
210
0
220
0
230
1
100
AcDbArc
50
268.140164
51
271.859836
0
ARC
5
C3
100
AcDbEntity
8
1
62
256
6
ByLayer
370
18
48
1
60
0
100
AcDbCircle
39
0
10
12.35
20
0.5125
30
0
40
2.807
210
0
220
0
230
1
100
AcDbArc
50
360
51
59.965127
0
ARC
5
C4
100
AcDbEntity
8
1
62
256
6
ByLayer
370
18
48
1
60
0
100
AcDbCircle
39
0
10
12.35
20
0.5125
30
0
40
2.807
210
0
220
0
230
1
100
AcDbArc
50
239.965127
51
300.034873
0
ARC
5
C5
100
AcDbEntity
8
1
62
256
6
ByLayer
370
18
48
1
60
0
100
AcDbCircle
39
0
10
12.35
20
0.5125
30
0
40
2.0135
210
0
220
0
230
1
100
AcDbArc
50
88.140164
51
91.859836
0
ARC
5
C6
100
AcDbEntity
8
1
62
256
6
ByLayer
370
18
48
1
60
0
100
AcDbCircle
39
0
10
12.35
20
0.5125
30
0
40
2.807
210
0
220
0
230
1
100
AcDbArc
50
59.965127
51
120.034873
0
ARC
5
C7
100
AcDbEntity
8
1
62
256
6
ByLayer
370
18
48
1
60
0
100
AcDbCircle
39
0
10
12.35
20
0.5125
30
0
40
2.807
210
0
220
0
230
1
100
AcDbArc
50
300.034873
51
360
0
ARC
5
C8
100
AcDbEntity
8
1
62
256
6
ByLayer
370
18
48
1
60
0
100
AcDbCircle
39
0
10
12.35
20
0.5125
30
0
40
2.807
210
0
220
0
230
1
100
AcDbArc
50
120.034873
51
180
0
ARC
5
C9
100
AcDbEntity
8
1
62
256
6
ByLayer
370
18
48
1
60
0
100
AcDbCircle
39
0
10
12.35
20
0.5125
30
0
40
2.807
210
0
220
0
230
1
100
AcDbArc
50
180
51
239.965127
0
ARC
5
CA
100
AcDbEntity
8
1
62
256
6
ByLayer
370
18
48
1
60
0
100
AcDbCircle
39
0
10
-33.7
20
8.8625
30
0
40
0.3
210
0
220
0
230
-1
100
AcDbArc
50
180
51
272.5
0
ARC
5
CB
100
AcDbEntity
8
1
62
256
6
ByLayer
370
18
48
1
60
0
100
AcDbCircle
39
0
10
-9.3
20
13.2625
30
0
40
0.3
210
0
220
0
230
-1
100
AcDbArc
50
0
51
92.5
0
ARC
5
CC
100
AcDbEntity
8
1
62
256
6
ByLayer
370
18
48
1
60
0
100
AcDbCircle
39
0
10
33.7
20
13.2625
30
0
40
0.3
210
0
220
0
230
1
100
AcDbArc
50
360
51
92.5
0
CIRCLE
5
BE
100
AcDbEntity
8
1
62
256
6
ByLayer
370
18
48
1
60
0
100
AcDbCircle
10
-12.35
20
0.5125
30
0
40
6.15
39
0
210
0
220
0
230
-1
0
CIRCLE
5
BF
100
AcDbEntity
8
1
62
256
6
ByLayer
370
18
48
1
60
0
100
AcDbCircle
10
-12.35
20
0.5125
30
0
40
3
39
0
210
0
220
0
230
-1
0
CIRCLE
5
C0
100
AcDbEntity
8
1
62
256
6
ByLayer
370
18
48
1
60
0
100
AcDbCircle
10
12.35
20
0.5125
30
0
40
5.13
39
0
210
0
220
0
230
1
0
CIRCLE
5
C1
100
AcDbEntity
8
1
62
256
6
ByLayer
370
18
48
1
60
0
100
AcDbCircle
10
-12.35
20
0.5125
30
0
40
5.93
39
0
210
0
220
0
230
-1
0
ELLIPSE
5
CD
100
AcDbEntity
8
1
62
256
6
ByLayer
370
18
48
1
60
0
100
AcDbEllipse
10
38.216244
20
98.7625
30
0
11
1.00188547097129E-13
21
85.5249999961836
31
0
210
0
220
0
230
1
40
0.57735
41
2.84494891480519
42
3.03575589044927
0
ELLIPSE
5
CE
100
AcDbEntity
8
1
62
256
6
ByLayer
370
18
48
1
60
0
100
AcDbEllipse
10
627.121132
20
100.926382
30
0
11
-2610.25590280316
21
-15.5525179965825
31
0
210
0
220
0
230
1
40
0.033061
41
1.33744936752416
42
1.33859974961879
0
ELLIPSE
5
CF
100
AcDbEntity
8
1
62
256
6
ByLayer
370
18
48
1
60
0
100
AcDbEllipse
10
28.209437
20
73.5625
30
0
11
-92.3654725423347
21
2.1640368304868E-13
31
0
210
0
220
0
230
1
40
0.700208
41
1.49374940221061
42
1.54484362742893
0
ELLIPSE
5
D0
100
AcDbEntity
8
1
62
256
6
ByLayer
370
18
48
1
60
0
100
AcDbEllipse
10
28.209437
20
98.7625
30
0
11
-122.142358370076
21
2.86168147902036E-13
31
0
210
0
220
0
230
1
40
0.700208
41
1.47594501553557
42
1.5511260097933
0
ELLIPSE
5
D1
100
AcDbEntity
8
1
62
256
6
ByLayer
370
18
48
1
60
0
100
AcDbEllipse
10
26.55644
20
10.395201
30
0
11
-0.091369181759384
21
0.0406407755411916
31
0
210
0
220
0
230
1
40
1
41
-0.245564443238929
42
0.243986102319859
0
ELLIPSE
5
D2
100
AcDbEntity
8
1
62
256
6
ByLayer
370
18
48
1
60
0
100
AcDbEllipse
10
26.346355
20
12.921249
30
0
11
-0.0995927298018785
21
-0.00901612434500422
31
0
210
0
220
0
230
1
40
1
41
-0.090283830888189
42
0.0842490840885797
0
ELLIPSE
5
D3
100
AcDbEntity
8
1
62
256
6
ByLayer
370
18
48
1
60
0
100
AcDbEllipse
10
26.55644
20
11.729799
30
0
11
-0.0913691817593841
21
-0.0406407755411913
31
0
210
0
220
0
230
1
40
1
41
-0.243986102319859
42
0.245564443238929
0
ELLIPSE
5
D4
100
AcDbEntity
8
1
62
256
6
ByLayer
370
18
48
1
60
0
100
AcDbEllipse
10
26.346355
20
9.203751
30
0
11
-0.0995927298018784
21
0.00901612434500455
31
0
210
0
220
0
230
1
40
1
41
-0.0842490840885797
42
0.090283830888189
0
POINT
5
6C
100
AcDbEntity
8
80
62
256
6
ByLayer
370
18
48
1
60
0
100
AcDbPoint
10
0
20
0
30
0
39
0
210
0
220
0
230
1
50
360
0
POINT
5
6E
100
AcDbEntity
8
2
62
256
6
ByLayer
370
18
48
1
60
0
100
AcDbPoint
10
34
20
13.5625
30
0
39
0
210
0
220
0
230
1
50
360
0
POINT
5
70
100
AcDbEntity
8
81
62
256
6
ByLayer
370
18
48
1
60
0
100
AcDbPoint
10
34
20
13.5625
30
0
39
0
210
0
220
0
230
1
50
360
0
SPLINE
5
D5
100
AcDbEntity
8
1
62
256
6
ByLayer
370
18
48
1
60
0
100
AcDbSpline
70
4
71
3
72
8
73
4
40
0
40
0
40
0
40
0
40
1
40
1
40
1
40
1
41
1
10
25.8125725945097
20
8.9092794615743
30
0
41
1
10
25.8886803228415
20
9.43394970244736
30
0
41
1
10
25.9646033708937
20
9.95865985516227
30
0
41
1
10
26.0405040733833
20
10.4833747878793
30
0
0
SPLINE
5
D6
100
AcDbEntity
8
1
62
256
6
ByLayer
370
18
48
1
60
0
100
AcDbSpline
70
4
71
3
72
8
73
4
40
0
40
0
40
0
40
0
40
1
40
1
40
1
40
1
41
1
10
26.2283156668965
20
11.4784538931179
30
0
41
1
10
26.1920733240275
20
11.4945441243477
30
0
41
1
10
26.1558304974702
20
11.5106326893237
30
0
41
1
10
26.1195868846334
20
11.5267185456528
30
0
0
SPLINE
5
D7
100
AcDbEntity
8
1
62
256
6
ByLayer
370
18
48
1
60
0
100
AcDbSpline
70
4
71
3
72
8
73
4
40
0
40
0
40
0
40
0
40
1
40
1
40
1
40
1
41
1
10
23.95
20
13.3703874888062
30
0
41
1
10
23.9795702105018
20
13.3703874888062
30
0
41
1
10
24.0091447143509
20
13.3703593936191
30
0
41
1
10
24.0386977474119
20
13.3703032548982
30
0
0
SPLINE
5
D8
100
AcDbEntity
8
1
62
256
6
ByLayer
370
18
48
1
60
0
100
AcDbSpline
70
4
71
3
72
10
73
6
40
0
40
0
40
0
40
0
40
0.699563360210431
40
0.699563360210431
40
1
40
1
40
1
40
1
41
1
10
26.0405040733833
20
11.6416252121207
30
0
41
1
10
25.9861138835951
20
12.017634179614
30
0
41
1
10
25.9317047975816
20
12.3936390798677
30
0
41
1
10
25.8538427941772
20
12.9311055888758
30
0
41
1
10
25.8304385949931
20
13.0925777173182
30
0
41
1
10
25.8070128723949
20
13.2540451916654
30
0
0
SPLINE
5
D9
100
AcDbEntity
8
1
62
256
6
ByLayer
370
18
48
1
60
0
100
AcDbSpline
70
4
71
3
72
16
73
12
40
0
40
0
40
0
40
0
40
0.296711730549229
40
0.296711730549229
40
0.523092766319484
40
0.523092766319484
40
0.710022747946981
40
0.710022747946981
40
0.898537339680039
40
0.898537339680039
40
1
40
1
40
1
40
1
41
1
10
21.1
20
9.07936785035386
30
0
41
1
10
20.8784720451504
20
9.09134273058552
30
0
41
1
10
20.6513691631511
20
9.05725387081623
30
0
41
1
10
20.2787576748939
20
8.91002848081249
30
0
41
1
10
20.1224616653422
20
8.81536156495758
30
0
41
1
10
19.8737055270803
20
8.58871390474425
30
0
41
1
10
19.7723330959359
20
8.46325510777984
30
0
41
1
10
19.613584052695
20
8.17914223508822
30
0
41
1
10
19.5545198066198
20
8.01558915870655
30
0
41
1
10
19.5082259234895
20
7.75592116488767
30
0
41
1
10
19.5
20
7.66203026690471
30
0
41
1
10
19.5
20
7.56867468434672
30
0
0
SPLINE
5
DA
100
AcDbEntity
8
1
62
256
6
ByLayer
370
18
48
1
60
0
100
AcDbSpline
70
4
71
3
72
14
73
10
40
0
40
0
40
0
40
0
40
0.320648283087855
40
0.320648283087855
40
0.642556656032447
40
0.642556656032447
40
0.964767987534561
40
0.964767987534561
40
1
40
1
40
1
40
1
41
1
10
26.0405040733833
20
10.4833747878793
30
0
41
1
10
26.0428848120556
20
10.4998332538917
30
0
41
1
10
26.0476180403295
20
10.5160167196511
30
0
41
1
10
26.061033197455
20
10.5452320241538
30
0
41
1
10
26.0699156352927
20
10.5586536819563
30
0
41
1
10
26.090540376174
20
10.5808637034432
30
0
41
1
10
26.1025693737439
20
10.5899539171941
30
0
41
1
10
26.1167287638944
20
10.5969760997766
30
0
41
1
10
26.1181531019785
20
10.5976451043814
30
0
41
1
10
26.1195868846333
20
10.5982814543473
30
0
0
SPLINE
5
DB
100
AcDbEntity
8
1
62
256
6
ByLayer
370
18
48
1
60
0
100
AcDbSpline
70
4
71
3
72
14
73
10
40
0
40
0
40
0
40
0
40
0.275104320463949
40
0.275104320463949
40
0.551285892222277
40
0.551285892222277
40
0.827540816329085
40
0.827540816329085
40
1
40
1
40
1
40
1
41
1
10
26.3092231349798
20
11.3375
30
0
41
1
10
26.3092231349798
20
11.3542141719495
30
0
41
1
10
26.3068686319537
20
11.3711570737924
30
0
41
1
10
26.2978207623995
20
11.4027773389955
30
0
41
1
10
26.2909852714479
20
11.4178813158535
30
0
41
1
10
26.2738400953992
20
11.4441198763753
30
0
41
1
10
26.2632933134876
20
11.4556150508633
30
0
41
1
10
26.2443144629828
20
11.4701511046951
30
0
41
1
10
26.2364504363819
20
11.4748423627459
30
0
41
1
10
26.2283156668965
20
11.4784538931179
30
0
0
SPLINE
5
DC
100
AcDbEntity
8
1
62
256
6
ByLayer
370
18
48
1
60
0
100
AcDbSpline
70
4
71
2
72
6
73
3
40
0
40
0
40
0
40
1
40
1
40
1
41
0.500000938727417
10
25.50697914738
20
8.90582555449475
30
0
41
0.499999061272583
10
23.3036200684619
20
8.90642738442842
30
0
41
0.500000938727417
10
21.0999999999975
20
8.90704897608518
30
0
0
SPLINE
5
DD
100
AcDbEntity
8
1
62
256
6
ByLayer
370
18
48
1
60
0
100
AcDbSpline
70
4
71
3
72
14
73
10
40
0
40
0
40
0
40
0
40
0.273335586308422
40
0.273335586308422
40
0.54986488475397
40
0.54986488475397
40
0.82624259522899
40
0.82624259522899
40
1
40
1
40
1
40
1
41
1
10
26.2283156668965
20
10.6465461068821
30
0
41
1
10
26.2411000042653
20
10.6522218697633
30
0
41
1
10
26.2532642576506
20
10.6606344671603
30
0
41
1
10
26.2745054552684
20
10.6816974924646
30
0
41
1
10
26.283836751431
20
10.6946884838198
30
0
41
1
10
26.2982441671546
20
10.7233080111581
30
0
41
1
10
26.3035213092883
20
10.739330006648
30
0
41
1
10
26.3082833172109
20
10.7661457275076
30
0
41
1
10
26.309223134994
20
10.7768528161223
30
0
41
1
10
26.3092231349941
20
10.7874999999981
30
0
0
SPLINE
5
DE
100
AcDbEntity
8
1
62
256
6
ByLayer
370
18
48
1
60
0
100
AcDbSpline
70
4
71
3
72
14
73
10
40
0
40
0
40
0
40
0
40
0.252601857984599
40
0.252601857984599
40
0.505403046548084
40
0.505403046548084
40
0.756573495016153
40
0.756573495016153
40
1
40
1
40
1
40
1
41
1
10
19.5386754786258
20
7.66249999999999
30
0
41
1
10
19.5780344456864
20
7.83744509577295
30
0
41
1
10
19.6484519477293
20
8.00809005575067
30
0
41
1
10
19.8401833822155
20
8.3126119322414
30
0
41
1
10
19.9642208037428
20
8.45067984962185
30
0
41
1
10
20.247318041934
20
8.67401852458883
30
0
41
1
10
20.410113710324
20
8.76271632220229
30
0
41
1
10
20.7467049495594
20
8.87757831619876
30
0
41
1
10
20.9245044313313
20
8.90709847943779
30
0
41
1
10
21.1
20
8.90704897608518
30
0
0
SPLINE
5
DF
100
AcDbEntity
8
1
62
256
6
ByLayer
370
18
48
1
60
0
100
AcDbSpline
70
4
71
3
72
12
73
8
40
0
40
0
40
0
40
0
40
0.266876355246368
40
0.266876355246368
40
0.65249859585455
40
0.65249859585455
40
1
40
1
40
1
40
1
41
1
10
25.8125725945097
20
8.90927946157467
30
0
41
1
10
25.792621549509
20
8.90867301529966
30
0
41
1
10
25.7697811636803
20
8.90813634342706
30
0
41
1
10
25.7091641440095
20
8.90703017217129
30
0
41
1
10
25.6683468330434
20
8.90653770401903
30
0
41
1
10
25.587572211625
20
8.9059507460116
30
0
41
1
10
25.547013518709
20
8.905814619426
30
0
41
1
10
25.5069791473824
20
8.90582555449478
30
0
0
SPLINE
5
E0
100
AcDbEntity
8
1
62
256
6
ByLayer
370
18
48
1
60
0
100
AcDbSpline
70
4
71
3
72
8
73
4
40
0
40
0
40
0
40
0
40
1
40
1
40
1
40
1
41
1
10
26.1195868846333
20
10.5982814543471
30
0
41
1
10
26.1558305132186
20
10.6143673176659
30
0
41
1
10
26.1920733375391
20
10.6304558816509
30
0
41
1
10
26.2283156668965
20
10.6465461068821
30
0
0
SPLINE
5
E1
100
AcDbEntity
8
1
62
256
6
ByLayer
370
18
48
1
60
0
100
AcDbSpline
70
4
71
3
72
14
73
10
40
0
40
0
40
0
40
0
40
0.318825335738284
40
0.318825335738284
40
0.641378913519861
40
0.641378913519861
40
0.963672388640557
40
0.963672388640557
40
1
40
1
40
1
40
1
41
1
10
26.1195868846333
20
11.5267185456528
30
0
41
1
10
26.1067930140129
20
11.5323967975871
30
0
41
1
10
26.0946194073435
20
11.5408136973171
30
0
41
1
10
26.0733610363008
20
11.5618885821231
30
0
41
1
10
26.0640216196877
20
11.5748876111595
30
0
41
1
10
26.0496053425088
20
11.6035233263044
30
0
41
1
10
26.0443262529215
20
11.619553466157
30
0
41
1
10
26.0410810594112
20
11.6378488581196
30
0
41
1
10
26.0407776400381
20
11.6397339976234
30
0
41
1
10
26.0405040733832
20
11.6416252121207
30
0
0
SPLINE
5
E2
100
AcDbEntity
8
1
62
256
6
ByLayer
370
18
48
1
60
0
100
AcDbSpline
70
4
71
3
72
18
73
14
40
0
40
0
40
0
40
0
40
0.181612675763437
40
0.181612675763437
40
0.360704962161447
40
0.360704962161447
40
0.541858957768575
40
0.541858957768575
40
0.695330353238803
40
0.695330353238803
40
0.891708592214999
40
0.891708592214999
40
1
40
1
40
1
40
1
41
1
10
9.90183167240349
20
0.0457332205245393
30
0
41
1
10
10.0010678212246
20
0.0193346266698313
30
0
41
1
10
10.0993599974145
20
-0.021115775346999
30
0
41
1
10
10.2831460164331
20
-0.129494776595863
30
0
41
1
10
10.3708390147032
20
-0.198585843814413
30
0
41
1
10
10.5246433194004
20
-0.362429215415517
30
0
41
1
10
10.5926240182454
20
-0.460327197665379
30
0
41
1
10
10.6861034266653
20
-0.651433458705952
30
0
41
1
10
10.7177334532225
20
-0.745320489118029
30
0
41
1
10
10.7612284804202
20
-0.956299520045235
30
0
41
1
10
10.7662285845804
20
-1.07603091949252
30
0
41
1
10
10.7481886242894
20
-1.25211127081238
30
0
41
1
10
10.7366492612541
20
-1.31374000139843
30
0
41
1
10
10.7205358593463
20
-1.37330115627051
30
0
0
SPLINE
5
E3
100
AcDbEntity
8
1
62
256
6
ByLayer
370
18
48
1
60
0
100
AcDbSpline
70
4
71
3
72
16
73
12
40
0
40
0
40
0
40
0
40
0.191930281182738
40
0.191930281182738
40
0.488707775608025
40
0.488707775608025
40
0.756688906725716
40
0.756688906725716
40
0.994950483060319
40
0.994950483060319
40
1
40
1
40
1
40
1
41
1
10
13.1704318716269
20
2.86470299943465
30
0
41
1
10
13.1970101552167
20
2.89147853566254
30
0
41
1
10
13.22722378362
20
2.91557521254356
30
0
41
1
10
13.310948268476
20
2.96706857952526
30
0
41
1
10
13.3698143864777
20
2.9898612680164
30
0
41
1
10
13.486965618469
20
3.01001132996166
30
0
41
1
10
13.5465803486937
20
3.009815893227
30
0
41
1
10
13.6551819835097
20
2.98903482404896
30
0
41
1
10
13.7061620099742
20
2.97035900850537
30
0
41
1
10
13.7530102361109
20
2.94371244172831
30
0
41
1
10
13.7539957845871
20
2.94314726514486
30
0
41
1
10
13.7549793192102
20
2.94257862271812
30
0
0
SPLINE
5
E4
100
AcDbEntity
8
1
62
256
6
ByLayer
370
18
48
1
60
0
100
AcDbSpline
70
4
71
3
72
18
73
14
40
0
40
0
40
0
40
0
40
0.0150229386922736
40
0.0150229386922736
40
0.237604440562208
40
0.237604440562208
40
0.460204731428097
40
0.460204731428097
40
0.694992075280023
40
0.694992075280023
40
0.951641525778755
40
0.951641525778755
40
1
40
1
40
1
40
1
41
1
10
13.7549793192102
20
-1.91757862271814
30
0
41
1
10
13.7520684199845
20
-1.91926159427891
30
0
41
1
10
13.7491397490837
20
-1.92091427740775
30
0
41
1
10
13.7030920682664
20
-1.94626927600064
30
0
41
1
10
13.6557039074632
20
-1.96349741410896
30
0
41
1
10
13.5602851564218
20
-1.9825960858195
30
0
41
1
10
13.5110399513397
20
-1.98474434006005
30
0
41
1
10
13.4142792924752
20
-1.97482177643704
30
0
41
1
10
13.3657874551504
20
-1.96189222325137
30
0
41
1
10
13.2733624353174
20
-1.92195027104472
30
0
41
1
10
13.2290914112967
20
-1.89329166347045
30
0
41
1
10
13.1841477224758
20
-1.85311616080782
30
0
41
1
10
13.1771780297028
20
-1.84649922460048
30
0
41
1
10
13.1704318716301
20
-1.83970299943172
30
0
0
SPLINE
5
E5
100
AcDbEntity
8
1
62
256
6
ByLayer
370
18
48
1
60
0
100
AcDbSpline
70
4
71
3
72
16
73
12
40
0
40
0
40
0
40
0
40
0.218620732637229
40
0.218620732637229
40
0.441132096326281
40
0.441132096326281
40
0.674870839126928
40
0.674870839126928
40
0.929765351321896
40
0.929765351321896
40
1
40
1
40
1
40
1
41
1
10
13.7549793192102
20
2.94257862271812
30
0
41
1
10
13.7967322838594
20
2.91843864169061
30
0
41
1
10
13.8352928941211
20
2.88753473906294
30
0
41
1
10
13.9007677451595
20
2.81678167800942
30
0
41
1
10
13.9283171189502
20
2.77589172849636
30
0
41
1
10
13.9702916326038
20
2.68831040406988
30
0
41
1
10
13.9845563198091
20
2.64035248027656
30
0
41
1
10
13.9987611977979
20
2.54110173634046
30
0
41
1
10
13.9975238514805
20
2.48866436115145
30
0
41
1
10
13.9861524490117
20
2.42531735403247
30
0
41
1
10
13.9830886103785
20
2.41169855079949
30
0
41
1
10
13.9794641406544
20
2.39830115627021
30
0
0
SPLINE
5
E6
100
AcDbEntity
8
1
62
256
6
ByLayer
370
18
48
1
60
0
100
AcDbSpline
70
4
71
3
72
14
73
10
40
0
40
0
40
0
40
0
40
0.220170037959094
40
0.220170037959094
40
0.513894544314518
40
0.513894544314518
40
0.779127126142474
40
0.779127126142474
40
1
40
1
40
1
40
1
41
1
10
9.90183167240303
20
0.0457332205229193
30
0
41
1
10
9.86010681413205
20
0.0568327805141848
30
0
41
1
10
9.81900108159357
20
0.0738440485550882
30
0
41
1
10
9.72974245971432
20
0.12647193558351
30
0
41
1
10
9.68237543405644
20
0.167467255391102
30
0
41
1
10
9.61008365220943
20
0.260633210627162
30
0
41
1
10
9.58240899809385
20
0.312832256937781
30
0
41
1
10
9.55064633608833
20
0.414194542472927
30
0
41
1
10
9.54300000000001
20
0.463669425041104
30
0
41
1
10
9.54300000000001
20
0.512499999999989
30
0
0
SPLINE
5
E7
100
AcDbEntity
8
1
62
256
6
ByLayer
370
18
48
1
60
0
100
AcDbSpline
70
4
71
3
72
18
73
14
40
0
40
0
40
0
40
0
40
0.0157923844670974
40
0.0157923844670974
40
0.238811095461871
40
0.238811095461871
40
0.461892552251098
40
0.461892552251098
40
0.697221985203075
40
0.697221985203075
40
0.954485725072622
40
0.954485725072622
40
1
40
1
40
1
40
1
41
1
10
9.54300000000001
20
0.512499999999989
30
0
41
1
10
9.54300000000001
20
0.516026990395687
30
0
41
1
10
9.54303863924045
20
0.519554240621375
30
0
41
1
10
9.54419361826274
20
0.572267938281414
30
0
41
1
10
9.55304678582337
20
0.621899803246293
30
0
41
1
10
9.58436055907401
20
0.714028289757408
30
0
41
1
10
9.60719239646909
20
0.757713489531596
30
0
41
1
10
9.66429472442286
20
0.836463496809671
30
0
41
1
10
9.69979930132232
20
0.87194081342264
30
0
41
1
10
9.78071303597466
20
0.931890203419982
30
0
41
1
10
9.82771690075015
20
0.955827672482144
30
0
41
1
10
9.88447206899187
20
0.974388266014728
30
0
41
1
10
9.89313236380852
20
0.976952607501374
30
0
41
1
10
9.90183167240349
20
0.979266779475438
30
0
0
SPLINE
5
E8
100
AcDbEntity
8
1
62
256
6
ByLayer
370
18
48
1
60
0
100
AcDbSpline
70
4
71
3
72
18
73
14
40
0
40
0
40
0
40
0
40
0.0173285944903536
40
0.0173285944903536
40
0.239841647765362
40
0.239841647765362
40
0.462510527753938
40
0.462510527753938
40
0.697478079776721
40
0.697478079776721
40
0.954392202348371
40
0.954392202348371
40
1
40
1
40
1
40
1
41
1
10
10.9450206807898
20
2.94257862271812
30
0
41
1
10
10.9483773076036
20
2.94451929706978
30
0
41
1
10
10.9517576061862
20
2.94641971787772
30
0
41
1
10
10.9983242480798
20
2.97186674076997
30
0
41
1
10
11.0457449432696
20
2.98893715921949
30
0
41
1
10
11.1412016837082
20
3.00773904687563
30
0
41
1
10
11.1904528627447
20
3.00973514125207
30
0
41
1
10
11.2872012098167
20
2.99951338812056
30
0
41
1
10
11.3356698281874
20
2.98642690855976
30
0
41
1
10
11.4280129849237
20
2.94617054638391
30
0
41
1
10
11.4722176447067
20
2.91734837860488
30
0
41
1
10
11.5166419676245
20
2.87736519693132
30
0
41
1
10
11.5232044293723
20
2.87111392707791
30
0
41
1
10
11.5295681283699
20
2.8647029994317
30
0
0
SPLINE
5
E9
100
AcDbEntity
8
1
62
256
6
ByLayer
370
18
48
1
60
0
100
AcDbSpline
70
4
71
3
72
16
73
12
40
0
40
0
40
0
40
0
40
0.191836824669075
40
0.191836824669075
40
0.488625600663344
40
0.488625600663344
40
0.756617127620165
40
0.756617127620165
40
0.994885626449979
40
0.994885626449979
40
1
40
1
40
1
40
1
41
1
10
11.5295681283731
20
-1.83970299943468
30
0
41
1
10
11.5030027275395
20
-1.8664655572961
30
0
41
1
10
11.4728056370948
20
-1.89055178945972
30
0
41
1
10
11.3891024511949
20
-1.94204558350967
30
0
41
1
10
11.3302375601686
20
-1.96484546133053
30
0
41
1
10
11.2130856505552
20
-1.98500871675162
30
0
41
1
10
11.1534692409385
20
-1.98481951312465
30
0
41
1
10
11.0448627470954
20
-1.96404861020369
30
0
41
1
10
10.9938796455354
20
-1.94537720174841
30
0
41
1
10
10.9470150634089
20
-1.91872694932951
30
0
41
1
10
10.9460168391091
20
-1.91815456368735
30
0
41
1
10
10.9450206807898
20
-1.91757862271814
30
0
0
SPLINE
5
EA
100
AcDbEntity
8
1
62
256
6
ByLayer
370
18
48
1
60
0
100
AcDbSpline
70
4
71
3
72
18
73
14
40
0
40
0
40
0
40
0
40
0.0162289153285311
40
0.0162289153285311
40
0.239234459040962
40
0.239234459040962
40
0.462328698874886
40
0.462328698874886
40
0.69769204226341
40
0.69769204226341
40
0.955005672045977
40
0.955005672045977
40
1
40
1
40
1
40
1
41
1
10
15.157
20
0.512499999999989
30
0
41
1
10
15.157
20
0.50887572331041
30
0
41
1
10
15.1569591993613
20
0.505251164696944
30
0
41
1
10
15.1557702435972
20
0.452443863373702
30
0
41
1
10
15.1468881961843
20
0.402821589069447
30
0
41
1
10
15.1155222788133
20
0.310714949641976
30
0
41
1
10
15.0926649850557
20
0.267043159069175
30
0
41
1
10
15.0355148789302
20
0.188323451613542
30
0
41
1
10
14.999986827069
20
0.152864768244086
30
0
41
1
10
14.9190294001723
20
0.0929584897707514
30
0
41
1
10
14.8720050535463
20
0.0690473365877438
30
0
41
1
10
14.8153304916667
20
0.050553303383964
30
0
41
1
10
14.8067684906715
20
0.0480210180136282
30
0
41
1
10
14.7981683275966
20
0.0457332205245393
30
0
0
SPLINE
5
EB
100
AcDbEntity
8
1
62
256
6
ByLayer
370
18
48
1
60
0
100
AcDbSpline
70
4
71
3
72
14
73
10
40
0
40
0
40
0
40
0
40
0.220792708734965
40
0.220792708734965
40
0.514440208322327
40
0.514440208322327
40
0.779604980836356
40
0.779604980836356
40
1
40
1
40
1
40
1
41
1
10
14.7981683275969
20
0.979266779477001
30
0
41
1
10
14.8400107170796
20
0.968135954077354
30
0
41
1
10
14.881231568975
20
0.951059245676277
30
0
41
1
10
14.9705520592616
20
0.898300375358332
30
0
41
1
10
15.0178802128891
20
0.857276008748585
30
0
41
1
10
15.0900923702315
20
0.764073811807492
30
0
41
1
10
15.1177254137801
20
0.711865377109859
30
0
41
1
10
15.1493875756904
20
0.610591122096082
30
0
41
1
10
15.157
20
0.561225389875659
30
0
41
1
10
15.157
20
0.512499999999989
30
0
0
SPLINE
5
EC
100
AcDbEntity
8
1
62
256
6
ByLayer
370
18
48
1
60
0
100
AcDbSpline
70
4
71
3
72
16
73
12
40
0
40
0
40
0
40
0
40
0.218557773056327
40
0.218557773056327
40
0.441067473679259
40
0.441067473679259
40
0.674801337484702
40
0.674801337484702
40
0.929688497508495
40
0.929688497508495
40
1
40
1
40
1
40
1
41
1
10
10.9450206807898
20
-1.91757862271814
30
0
41
1
10
10.9032797321598
20
-1.89344558889729
30
0
41
1
10
10.8647293704485
20
-1.86255271493346
30
0
41
1
10
10.7992576027249
20
-1.79181526405304
30
0
41
1
10
10.771704634642
20
-1.7509276553379
30
0
41
1
10
10.7297227484991
20
-1.66335034464751
30
0
41
1
10
10.7154539696446
20
-1.61539412670263
30
0
41
1
10
10.7012404187867
20
-1.51614597406598
30
0
41
1
10
10.7024729202592
20
-1.46370939041057
30
0
41
1
10
10.7138408712732
20
-1.40034705411227
30
0
41
1
10
10.7169074392227
20
-1.38671315294965
30
0
41
1
10
10.7205358593456
20
-1.37330115627023
30
0
0
SPLINE
5
ED
100
AcDbEntity
8
1
62
256
6
ByLayer
370
18
48
1
60
0
100
AcDbSpline
70
4
71
3
72
14
73
10
40
0
40
0
40
0
40
0
40
0.21911646451238
40
0.21911646451238
40
0.51297121247558
40
0.51297121247558
40
0.77831862025342
40
0.77831862025342
40
1
40
1
40
1
40
1
41
1
10
13.9794641406561
20
-1.37330115626975
30
0
41
1
10
13.9906856982875
20
-1.41478022666192
30
0
41
1
10
13.9965313764369
20
-1.45865699190185
30
0
41
1
10
13.9957856818418
20
-1.56207005827667
30
0
41
1
10
13.9840791649931
20
-1.62362818189931
30
0
41
1
10
13.9397280800638
20
-1.73293056745175
30
0
41
1
10
13.9084392425725
20
-1.78306908424059
30
0
41
1
10
13.8365423753279
20
-1.86152313228501
30
0
41
1
10
13.7974070376035
20
-1.8930485246602
30
0
41
1
10
13.7549793192102
20
-1.91757862271814
30
0
0
SPLINE
5
EE
100
AcDbEntity
8
1
62
256
6
ByLayer
370
18
48
1
60
0
100
AcDbSpline
70
4
71
3
72
12
73
8
40
0
40
0
40
0
40
0
40
0.455353062347086
40
0.455353062347086
40
0.827333545906255
40
0.827333545906255
40
1
40
1
40
1
40
1
41
1
10
11.5295681283698
20
-1.83970299943172
30
0
41
1
10
11.6141721268345
20
-1.75447110632393
30
0
41
1
10
11.7150921540688
20
-1.67977181937445
30
0
41
1
10
11.9207068254726
20
-1.57576419992245
30
0
41
1
10
12.0237682964852
20
-1.53971835810532
30
0
41
1
10
12.1812413972466
20
-1.50932915672516
30
0
41
1
10
12.232860250395
20
-1.50287176673902
30
0
41
1
10
12.2846527300225
20
-1.49993931195616
30
0
0
SPLINE
5
EF
100
AcDbEntity
8
1
62
256
6
ByLayer
370
18
48
1
60
0
100
AcDbSpline
70
4
71
3
72
12
73
8
40
0
40
0
40
0
40
0
40
0.455353062346786
40
0.455353062346786
40
0.827333545905708
40
0.827333545905708
40
1
40
1
40
1
40
1
41
1
10
13.1704318716302
20
2.86470299943173
30
0
41
1
10
13.0858278731656
20
2.77947110632391
30
0
41
1
10
12.9849078459312
20
2.70477181937446
30
0
41
1
10
12.7792931745274
20
2.60076419992242
30
0
41
1
10
12.6762317035148
20
2.5647183581053
30
0
41
1
10
12.5187586027534
20
2.53432915672516
30
0
41
1
10
12.467139749605
20
2.527871766739
30
0
41
1
10
12.4153472699775
20
2.52493931195613
30
0
0
SPLINE
5
F0
100
AcDbEntity
8
1
62
256
6
ByLayer
370
18
48
1
60
0
100
AcDbSpline
70
4
71
3
72
18
73
14
40
0
40
0
40
0
40
0
40
0.18175277145018
40
0.18175277145018
40
0.360818406833419
40
0.360818406833419
40
0.541944163041264
40
0.541944163041264
40
0.695407615755981
40
0.695407615755981
40
0.891808268956465
40
0.891808268956465
40
1
40
1
40
1
40
1
41
1
10
14.7981683275966
20
0.979266779475438
30
0
41
1
10
14.6988559553603
20
1.00568565012443
30
0
41
1
10
14.6004880467831
20
1.04617846064798
30
0
41
1
10
14.416660320138
20
1.15463559373976
30
0
41
1
10
14.3289907291675
20
1.22373705977307
30
0
41
1
10
14.1752354772816
20
1.38758874691535
30
0
41
1
10
14.1072814826209
20
1.48548349509295
30
0
41
1
10
14.0138398120849
20
1.67658101552479
30
0
41
1
10
13.9822248539708
20
1.77046491596195
30
0
41
1
10
13.938755204354
20
1.98145255565609
30
0
41
1
10
13.9337711326442
20
2.10119446581353
30
0
41
1
10
13.9518323112013
20
2.27722313725548
30
0
41
1
10
13.9633653362174
20
2.33879395910796
30
0
41
1
10
13.9794641406537
20
2.39830115627049
30
0
0
SPLINE
5
F1
100
AcDbEntity
8
1
62
256
6
ByLayer
370
18
48
1
60
0
100
AcDbSpline
70
4
71
3
72
12
73
8
40
0
40
0
40
0
40
0
40
0.368706056538511
40
0.368706056538511
40
0.73798085095237
40
0.73798085095237
40
1
40
1
40
1
40
1
41
1
10
12.2846527300226
20
2.52493931195613
30
0
41
1
10
12.1755098784395
20
2.5311189055852
30
0
41
1
10
12.0666482559057
20
2.55342679307265
30
0
41
1
10
11.8674903687158
20
2.62328731102193
30
0
41
1
10
11.7744272224264
20
2.67155397438404
30
0
41
1
10
11.6329890576063
20
2.76949503333327
30
0
41
1
10
11.5786614800674
20
2.81524529790309
30
0
41
1
10
11.5295681283699
20
2.8647029994317
30
0
0
SPLINE
5
F2
100
AcDbEntity
8
1
62
256
6
ByLayer
370
18
48
1
60
0
100
AcDbSpline
70
4
71
3
72
18
73
14
40
0
40
0
40
0
40
0
40
0.181666908878583
40
0.181666908878583
40
0.360750617017816
40
0.360750617017816
40
0.541895453074694
40
0.541895453074694
40
0.695365105948643
40
0.695365105948643
40
0.891753383060548
40
0.891753383060548
40
1
40
1
40
1
40
1
41
1
10
13.9794641406544
20
-1.37330115627026
30
0
41
1
10
13.9526398265003
20
-1.27414846717249
30
0
41
1
10
13.9384602459352
20
-1.1687756755243
30
0
41
1
10
13.9403139531035
20
-0.955393334676927
30
0
41
1
10
13.9562426230037
20
-0.84489939684903
30
0
41
1
10
14.0211140051548
20
-0.629754183134764
30
0
41
1
10
14.0718441395718
20
-0.521910600487445
30
0
41
1
10
14.1905041217909
20
-0.345343625582842
30
0
41
1
10
14.2559542246233
20
-0.270973357607261
30
0
41
1
10
14.4168403373044
20
-0.127724748876773
30
0
41
1
10
14.5179980746868
20
-0.0634704993084938
30
0
41
1
10
14.6794511603026
20
0.0090282448607297
30
0
41
1
10
14.7385601350612
20
0.029876373158146
30
0
41
1
10
14.7981683275964
20
0.0457332205252214
30
0
0
SPLINE
5
F3
100
AcDbEntity
8
1
62
256
6
ByLayer
370
18
48
1
60
0
100
AcDbSpline
70
4
71
3
72
14
73
10
40
0
40
0
40
0
40
0
40
0.22241165527065
40
0.22241165527065
40
0.515858824453701
40
0.515858824453701
40
0.780847480391326
40
0.780847480391326
40
1
40
1
40
1
40
1
41
1
10
10.7205358593442
20
2.39830115626981
30
0
41
1
10
10.7091462249202
20
2.44040150129624
30
0
41
1
10
10.7032956435497
20
2.48497914714304
30
0
41
1
10
10.7044780289879
20
2.58902248713014
30
0
41
1
10
10.7164205388668
20
2.65047934843318
30
0
41
1
10
10.7611484449685
20
2.7595127889447
30
0
41
1
10
10.7925904447841
20
2.80948549228455
30
0
41
1
10
10.8643498449848
20
2.88724605635502
30
0
41
1
10
10.9030748695198
20
2.91832714508652
30
0
41
1
10
10.9450206807898
20
2.94257862271812
30
0
0
SPLINE
5
F4
100
AcDbEntity
8
1
62
256
6
ByLayer
370
18
48
1
60
0
100
AcDbSpline
70
4
71
3
72
12
73
8
40
0
40
0
40
0
40
0
40
0.368706056448697
40
0.368706056448697
40
0.737980850848006
40
0.737980850848006
40
1
40
1
40
1
40
1
41
1
10
12.4153472699775
20
-1.49993931195616
30
0
41
1
10
12.5244901215341
20
-1.50611890558372
30
0
41
1
10
12.6333517440413
20
-1.52842679306161
30
0
41
1
10
12.8325096312106
20
-1.59828731098858
30
0
41
1
10
12.9255727775012
20
-1.64655397434296
30
0
41
1
10
13.0670109423506
20
-1.744495033297
30
0
41
1
10
13.1213385199131
20
-1.79024529788353
30
0
41
1
10
13.1704318716301
20
-1.83970299943172
30
0
0
SPLINE
5
F5
100
AcDbEntity
8
1
62
256
6
ByLayer
370
18
48
1
60
0
100
AcDbSpline
70
4
71
3
72
18
73
14
40
0
40
0
40
0
40
0
40
0.181347322288267
40
0.181347322288267
40
0.360491893295299
40
0.360491893295299
40
0.541701215502881
40
0.541701215502881
40
0.695189055143496
40
0.695189055143496
40
0.891526265458829
40
0.891526265458829
40
1
40
1
40
1
40
1
41
1
10
10.7205358593456
20
2.39830115627024
30
0
41
1
10
10.7473131816822
20
2.2993221664903
30
0
41
1
10
10.7614899989259
20
2.19414734369542
30
0
41
1
10
10.7597428781364
20
1.98093658757568
30
0
41
1
10
10.7438614825797
20
1.8704082926962
30
0
41
1
10
10.6790625518665
20
1.65517569215609
30
0
41
1
10
10.6283565316106
20
1.54727567252019
30
0
41
1
10
10.509722370224
20
1.37062416842377
30
0
41
1
10
10.4442832783194
20
1.29622055770699
30
0
41
1
10
10.2834431085831
20
1.15293166675929
30
0
41
1
10
10.1823244174428
20
1.08865777282574
30
0
41
1
10
10.0207935514181
20
1.01605812329561
30
0
41
1
10
9.961563034439
20
0.995156392135982
30
0
41
1
10
9.9018316724036
20
0.979266779474727
30
0
0
SPLINE
5
F6
100
AcDbEntity
8
1
62
256
6
ByLayer
370
18
48
1
60
0
100
AcDbSpline
70
4
71
2
72
6
73
3
40
0
40
0
40
0
40
1
40
1
40
1
41
1
10
26.748945415449
20
10.634767476298
30
0
41
1
10
26.6679467190096
20
10.6115152433267
30
0
41
1
10
26.5901186384095
20
10.57941464817
30
0
0
SPLINE
5
F7
100
AcDbEntity
8
1
62
256
6
ByLayer
370
18
48
1
60
0
100
AcDbSpline
70
4
71
2
72
6
73
3
40
0
40
0
40
0
40
1
40
1
40
1
41
1
10
26.5901186384085
20
10.579414648177
30
0
41
1
10
26.5658197594152
20
10.5692453291365
30
0
41
1
10
26.549522624748
20
10.548612431851
30
0
0
SPLINE
5
F8
100
AcDbEntity
8
1
62
256
6
ByLayer
370
18
48
1
60
0
100
AcDbSpline
70
4
71
3
72
8
73
4
40
0
40
0
40
0
40
0
40
1
40
1
40
1
40
1
41
1
10
26.92894619712
20
10.851764412942
30
0
41
1
10
26.93191778459
20
10.9153429417288
30
0
41
1
10
26.93488937206
20
10.9789214705156
30
0
41
1
10
26.93786095953
20
11.0424999993024
30
0
0
SPLINE
5
F9
100
AcDbEntity
8
1
62
256
6
ByLayer
370
18
48
1
60
0
100
AcDbSpline
70
4
71
3
72
9
73
5
40
0
40
0
40
0
40
0
40
0.508287091434088
40
1
40
1
40
1
40
1
41
1
10
26.74894541544
20
10.634767476262
30
0
41
1
10
26.7914754634342
20
10.6517901858918
30
0
41
1
10
26.8751487431826
20
10.6852805300627
30
0
41
1
10
26.9112129574081
20
10.7968863772799
30
0
41
1
10
26.92894619708
20
10.851764413028
30
0
0
SPLINE
5
FA
100
AcDbEntity
8
1
62
256
6
ByLayer
370
18
48
1
60
0
100
AcDbSpline
70
4
71
3
72
8
73
4
40
0
40
0
40
0
40
0
40
1
40
1
40
1
40
1
41
1
10
26.74894541545
20
11.490232523702
30
0
41
1
10
26.6960031564367
20
11.5086834664113
30
0
41
1
10
26.6430608974233
20
11.5271344091206
30
0
41
1
10
26.59011863841
20
11.54558535183
30
0
0
SPLINE
5
FB
100
AcDbEntity
8
1
62
256
6
ByLayer
370
18
48
1
60
0
100
AcDbSpline
70
4
71
3
72
8
73
4
40
0
40
0
40
0
40
0
40
1
40
1
40
1
40
1
41
1
10
26.59011863841
20
11.545585351823
30
0
41
1
10
26.5765866338567
20
11.5558527572651
30
0
41
1
10
26.5630546293033
20
11.5661201627072
30
0
41
1
10
26.54952262475
20
11.5763875681493
30
0
0
SPLINE
5
FC
100
AcDbEntity
8
1
62
256
6
ByLayer
370
18
48
1
60
0
100
AcDbSpline
70
4
71
2
72
10
73
7
40
0
40
0
40
0
40
0.5
40
0.5
40
0.75
40
0.75
40
1
40
1
40
1
41
1
10
26.7489454154405
20
11.490232523738
30
0
41
1
10
26.816539241663
20
11.4707378364851
30
0
41
1
10
26.8642354827661
20
11.4190142889901
30
0
41
1
10
26.8902224727179
20
11.3908330470739
30
0
41
1
10
26.9068593747275
20
11.3549776461037
30
0
41
1
10
26.9248252361494
20
11.3162581077733
30
0
41
1
10
26.92894619708
20
11.273235586972
30
0
0
SPLINE
5
FD
100
AcDbEntity
8
1
62
256
6
ByLayer
370
18
48
1
60
0
100
AcDbSpline
70
4
71
2
72
6
73
3
40
0
40
0
40
0
40
1
40
1
40
1
41
1
10
26.928946197118
20
11.273235587058
30
0
41
1
10
26.9378374892901
20
11.1780165540331
30
0
41
1
10
26.9378609595285
20
11.0825000006976
30
0
0
LINE
5
72
100
AcDbEntity
8
80
62
256
6
ByLayer
370
18
48
1
60
0
100
AcDbLine
10
0
20
0
30
0
11
-5
21
0
31
0
39
0
210
0
220
0
230
1
0
LINE
5
73
100
AcDbEntity
8
81
62
256
6
ByLayer
370
18
48
1
60
0
100
AcDbLine
10
34
20
13.5625
30
0
11
39
21
13.5625
31
0
39
0
210
0
220
0
230
1
0
LINE
5
74
100
AcDbEntity
8
1
62
256
6
ByLayer
370
18
48
1
60
0
100
AcDbLine
10
16.641438
20
7.2875
30
0
11
16.641438
21
13.621936
31
0
39
0
210
0
220
0
230
1
0
LINE
5
76
100
AcDbEntity
8
1
62
256
6
ByLayer
370
18
48
1
60
0
100
AcDbLine
10
19.538675
20
7.6625
30
0
11
19.544563
21
7.6625
31
0
39
0
210
0
220
0
230
1
0
LINE
5
77
100
AcDbEntity
8
1
62
256
6
ByLayer
370
18
48
1
60
0
100
AcDbLine
10
16.641438
20
13.621936
30
0
11
11.683394
21
13.621936
31
0
39
0
210
0
220
0
230
1
0
LINE
5
78
100
AcDbEntity
8
1
62
256
6
ByLayer
370
18
48
1
60
0
100
AcDbLine
10
2.569908
20
12.4375
30
0
11
0.5
21
12.4375
31
0
39
0
210
0
220
0
230
1
0
LINE
5
79
100
AcDbEntity
8
1
62
256
6
ByLayer
370
18
48
1
60
0
100
AcDbLine
10
11.683394
20
13.621936
30
0
11
11.5
21
12.9375
31
0
39
0
210
0
220
0
230
1
0
LINE
5
7A
100
AcDbEntity
8
1
62
256
6
ByLayer
370
18
48
1
60
0
100
AcDbLine
10
0.5
20
12.4375
30
0
11
0.5
21
-12.439682
31
0
39
0
210
0
220
0
230
1
0
LINE
5
7B
100
AcDbEntity
8
1
62
256
6
ByLayer
370
18
48
1
60
0
100
AcDbLine
10
11
20
12.4375
30
0
11
2.569908
21
12.4375
31
0
39
0
210
0
220
0
230
1
0
LINE
5
7C
100
AcDbEntity
8
1
62
256
6
ByLayer
370
18
48
1
60
0
100
AcDbLine
10
23.782487
20
16.97298
30
0
11
12.581304
21
16.97298
31
0
39
0
210
0
220
0
230
1
0
LINE
5
7D
100
AcDbEntity
8
1
62
256
6
ByLayer
370
18
48
1
60
0
100
AcDbLine
10
19.5
20
7.2875
30
0
11
16.641438
21
7.2875
31
0
39
0
210
0
220
0
230
1
0
LINE
5
7E
100
AcDbEntity
8
1
62
256
6
ByLayer
370
18
48
1
60
0
100
AcDbLine
10
19.5
20
7.2875
30
0
11
19.5
21
7.568675
31
0
39
0
210
0
220
0
230
1
0
LINE
5
7F
100
AcDbEntity
8
1
62
256
6
ByLayer
370
18
48
1
60
0
100
AcDbLine
10
11
20
12.4375
30
0
11
11.5
21
12.9375
31
0
39
0
210
0
220
0
230
1
0
LINE
5
80
100
AcDbEntity
8
1
62
256
6
ByLayer
370
18
48
1
60
0
100
AcDbLine
10
24.038698
20
13.370303
30
0
11
24.038205
21
13.287381
31
0
39
0
210
0
220
0
230
1
0
LINE
5
81
100
AcDbEntity
8
1
62
256
6
ByLayer
370
18
48
1
60
0
100
AcDbLine
10
23.95
20
13.289514
30
0
11
23.95
21
13.370387
31
0
39
0
210
0
220
0
230
1
0
LINE
5
82
100
AcDbEntity
8
1
62
256
6
ByLayer
370
18
48
1
60
0
100
AcDbLine
10
21.1
20
8.907049
30
0
11
21.1
21
9.079368
31
0
39
0
210
0
220
0
230
1
0
LINE
5
83
100
AcDbEntity
8
1
62
256
6
ByLayer
370
18
48
1
60
0
100
AcDbLine
10
19.5
20
7.2875
30
0
11
19.5
21
-5.6375
31
0
39
0
210
0
220
0
230
1
0
LINE
5
84
100
AcDbEntity
8
1
62
256
6
ByLayer
370
18
48
1
60
0
100
AcDbLine
10
0
20
12.4375
30
0
11
0.5
21
12.4375
31
0
39
0
210
0
220
0
230
1
0
LINE
5
85
100
AcDbEntity
8
1
62
256
6
ByLayer
370
18
48
1
60
0
100
AcDbLine
10
2.569908
20
12.4375
30
0
11
2.569908
21
-12.473389
31
0
39
0
210
0
220
0
230
1
0
LINE
5
86
100
AcDbEntity
8
1
62
256
6
ByLayer
370
18
48
1
60
0
100
AcDbLine
10
0
20
12.4375
30
0
11
0
21
-12.4375
31
0
39
0
210
0
220
0
230
1
0
LINE
5
87
100
AcDbEntity
8
1
62
256
6
ByLayer
370
18
48
1
60
0
100
AcDbLine
10
2.569908
20
-12.473389
30
0
11
12.664111
21
-12.473389
31
0
39
0
210
0
220
0
230
1
0
LINE
5
88
100
AcDbEntity
8
1
62
256
6
ByLayer
370
18
48
1
60
0
100
AcDbLine
10
33
20
13.532222
30
0
11
33
21
13.716054
31
0
39
0
210
0
220
0
230
1
0
LINE
5
89
100
AcDbEntity
8
1
62
256
6
ByLayer
370
18
48
1
60
0
100
AcDbLine
10
26.960643
20
13.364811
30
0
11
29.474808
21
13.364811
31
0
39
0
210
0
220
0
230
1
0
LINE
5
8A
100
AcDbEntity
8
1
62
256
6
ByLayer
370
18
48
1
60
0
100
AcDbLine
10
0.5
20
-12.439682
30
0
11
0
21
-12.4375
31
0
39
0
210
0
220
0
230
1
0
LINE
5
8B
100
AcDbEntity
8
1
62
256
6
ByLayer
370
18
48
1
60
0
100
AcDbLine
10
21.403225
20
13.370387
30
0
11
23.95
21
13.370387
31
0
39
0
210
0
220
0
230
1
0
LINE
5
8C
100
AcDbEntity
8
1
62
256
6
ByLayer
370
18
48
1
60
0
100
AcDbLine
10
26.960643
20
13.364811
30
0
11
26.960042
21
13.162499
31
0
39
0
210
0
220
0
230
1
0
LINE
5
8D
100
AcDbEntity
8
1
62
256
6
ByLayer
370
18
48
1
60
0
100
AcDbLine
10
0.5
20
-12.439682
30
0
11
2.569908
21
-12.473389
31
0
39
0
210
0
220
0
230
1
0
LINE
5
8E
100
AcDbEntity
8
1
62
256
6
ByLayer
370
18
48
1
60
0
100
AcDbLine
10
26.309223
20
10.7875
30
0
11
26.309223
21
11.3375
31
0
39
0
210
0
220
0
230
1
0
LINE
5
8F
100
AcDbEntity
8
1
62
256
6
ByLayer
370
18
48
1
60
0
100
AcDbLine
10
12.664111
20
-12.473389
30
0
11
19.5
21
-5.6375
31
0
39
0
210
0
220
0
230
1
0
LINE
5
90
100
AcDbEntity
8
1
62
256
6
ByLayer
370
18
48
1
60
0
100
AcDbLine
10
11.683395
20
13.621938
30
0
11
12.581304
21
16.97298
31
0
39
0
210
0
220
0
230
1
0
LINE
5
91
100
AcDbEntity
8
SK1
62
256
6
ByLayer
370
18
48
1
60
0
100
AcDbLine
10
0
20
12.4375
30
0
11
-117.35
21
12.4375
31
0
39
0
210
0
220
0
230
1
0
LINE
5
93
100
AcDbEntity
8
SK1
62
256
6
ByLayer
370
18
48
1
60
0
100
AcDbLine
10
-117.35
20
12.4375
30
0
11
-117.35
21
-12.4375
31
0
39
0
210
0
220
0
230
1
0
LINE
5
94
100
AcDbEntity
8
SK1
62
256
6
ByLayer
370
18
48
1
60
0
100
AcDbLine
10
0
20
12.4375
30
0
11
0
21
-12.4375
31
0
39
0
210
0
220
0
230
1
0
LINE
5
95
100
AcDbEntity
8
SK1
62
256
6
ByLayer
370
18
48
1
60
0
100
AcDbLine
10
-117.35
20
-12.4375
30
0
11
0
21
-12.4375
31
0
39
0
210
0
220
0
230
1
0
LINE
5
96
100
AcDbEntity
8
1
62
256
6
ByLayer
370
18
48
1
60
0
100
AcDbLine
10
25.857658
20
12.903884
30
0
11
26.247874
21
12.903884
31
0
39
0
210
0
220
0
230
1
0
LINE
5
97
100
AcDbEntity
8
1
62
256
6
ByLayer
370
18
48
1
60
0
100
AcDbLine
10
25.855225
20
12.921249
30
0
11
26.246355
21
12.921249
31
0
39
0
210
0
220
0
230
1
0
LINE
5
98
100
AcDbEntity
8
1
62
256
6
ByLayer
370
18
48
1
60
0
100
AcDbLine
10
25.855077
20
9.203751
30
0
11
26.246355
21
9.203751
31
0
39
0
210
0
220
0
230
1
0
LINE
5
99
100
AcDbEntity
8
1
62
256
6
ByLayer
370
18
48
1
60
0
100
AcDbLine
10
25.820221
20
8.9625
30
0
11
26.246355
21
8.9625
31
0
39
0
210
0
220
0
230
1
0
LINE
5
9A
100
AcDbEntity
8
1
62
256
6
ByLayer
370
18
48
1
60
0
100
AcDbLine
10
25.820221
20
13.1625
30
0
11
26.246355
21
13.1625
31
0
39
0
210
0
220
0
230
1
0
LINE
5
9B
100
AcDbEntity
8
1
62
256
6
ByLayer
370
18
48
1
60
0
100
AcDbLine
10
25.857658
20
9.221116
30
0
11
26.247874
21
9.221116
31
0
39
0
210
0
220
0
230
1
0
LINE
5
9C
100
AcDbEntity
8
1
62
256
6
ByLayer
370
18
48
1
60
0
100
AcDbLine
10
26.03018
20
11.712434
30
0
11
26.457959
21
11.712434
31
0
39
0
210
0
220
0
230
1
0
LINE
5
9D
100
AcDbEntity
8
1
62
256
6
ByLayer
370
18
48
1
60
0
100
AcDbLine
10
26.03018
20
10.412566
30
0
11
26.457959
21
10.412566
31
0
39
0
210
0
220
0
230
1
0
LINE
5
9E
100
AcDbEntity
8
1
62
256
6
ByLayer
370
18
48
1
60
0
100
AcDbLine
10
26.036543
20
11.668165
30
0
11
26.477691
21
11.668165
31
0
39
0
210
0
220
0
230
1
0
LINE
5
9F
100
AcDbEntity
8
1
62
256
6
ByLayer
370
18
48
1
60
0
100
AcDbLine
10
26.036543
20
10.456835
30
0
11
26.477691
21
10.456835
31
0
39
0
210
0
220
0
230
1
0
LINE
5
A0
100
AcDbEntity
8
1
62
256
6
ByLayer
370
18
48
1
60
0
100
AcDbLine
10
26.065952
20
11.576388
30
0
11
26.549523
21
11.576388
31
0
39
0
210
0
220
0
230
1
0
LINE
5
A1
100
AcDbEntity
8
1
62
256
6
ByLayer
370
18
48
1
60
0
100
AcDbLine
10
26.066189
20
10.548612
30
0
11
26.549523
21
10.548612
31
0
39
0
210
0
220
0
230
1
0
LINE
5
A2
100
AcDbEntity
8
1
62
256
6
ByLayer
370
18
48
1
60
0
100
AcDbLine
10
26.590119
20
11.545585
30
0
11
26.092241
21
11.545585
31
0
39
0
210
0
220
0
230
1
0
LINE
5
A3
100
AcDbEntity
8
1
62
256
6
ByLayer
370
18
48
1
60
0
100
AcDbLine
10
26.590119
20
10.579415
30
0
11
26.092957
21
10.579415
31
0
39
0
210
0
220
0
230
1
0
LINE
5
A4
100
AcDbEntity
8
1
62
256
6
ByLayer
370
18
48
1
60
0
100
AcDbLine
10
26.201743
20
11.490233
30
0
11
26.748945
21
11.490233
31
0
39
0
210
0
220
0
230
1
0
LINE
5
A5
100
AcDbEntity
8
1
62
256
6
ByLayer
370
18
48
1
60
0
100
AcDbLine
10
26.201743
20
10.634767
30
0
11
26.748945
21
10.634767
31
0
39
0
210
0
220
0
230
1
0
LINE
5
A6
100
AcDbEntity
8
1
62
256
6
ByLayer
370
18
48
1
60
0
100
AcDbLine
10
26.309198
20
10.851764
30
0
11
26.928946
21
10.851764
31
0
39
0
210
0
220
0
230
1
0
LINE
5
A7
100
AcDbEntity
8
1
62
256
6
ByLayer
370
18
48
1
60
0
100
AcDbLine
10
26.309198
20
11.273236
30
0
11
26.928946
21
11.273236
31
0
39
0
210
0
220
0
230
1
0
LINE
5
A8
100
AcDbEntity
8
1
62
256
6
ByLayer
370
18
48
1
60
0
100
AcDbLine
10
26.309193
20
11.0425
30
0
11
26.937861
21
11.0425
31
0
39
0
210
0
220
0
230
1
0
LINE
5
A9
100
AcDbEntity
8
1
62
256
6
ByLayer
370
18
48
1
60
0
100
AcDbLine
10
26.309193
20
11.0825
30
0
11
26.937861
21
11.0825
31
0
39
0
210
0
220
0
230
1
0
LINE
5
AA
100
AcDbEntity
8
1
62
256
6
ByLayer
370
18
48
1
60
0
100
AcDbLine
10
9.313086
20
13.562214
30
0
11
11.64016
21
13.460612
31
0
39
0
210
0
220
0
230
1
0
LINE
5
AB
100
AcDbEntity
8
1
62
256
6
ByLayer
370
18
48
1
60
0
100
AcDbLine
10
9
20
12.4375
30
0
11
9
21
13.2625
31
0
39
0
210
0
220
0
230
1
0
LINE
5
AC
100
AcDbEntity
8
1
62
256
6
ByLayer
370
18
48
1
60
0
100
AcDbLine
10
33.686914
20
8.562786
30
0
11
29.5
21
8.74559
31
0
39
0
210
0
220
0
230
1
0
LINE
5
AD
100
AcDbEntity
8
1
62
256
6
ByLayer
370
18
48
1
60
0
100
AcDbLine
10
27.63
20
8.9625
30
0
11
29.124301
21
8.9625
31
0
39
0
210
0
220
0
230
1
0
LINE
5
AE
100
AcDbEntity
8
1
62
256
6
ByLayer
370
18
48
1
60
0
100
AcDbLine
10
29.5
20
8.74559
30
0
11
29.124301
21
8.9625
31
0
39
0
210
0
220
0
230
1
0
LINE
5
AF
100
AcDbEntity
8
1
62
256
6
ByLayer
370
18
48
1
60
0
100
AcDbLine
10
26.549523
20
10.548612
30
0
11
26.477691
21
10.456835
31
0
39
0
210
0
220
0
230
1
0
LINE
5
B0
100
AcDbEntity
8
1
62
256
6
ByLayer
370
18
48
1
60
0
100
AcDbLine
10
26.457959
20
10.412566
30
0
11
26.247874
21
9.221116
31
0
39
0
210
0
220
0
230
1
0
LINE
5
B1
100
AcDbEntity
8
1
62
256
6
ByLayer
370
18
48
1
60
0
100
AcDbLine
10
26.246355
20
9.203751
30
0
11
26.246355
21
8.9625
31
0
39
0
210
0
220
0
230
1
0
LINE
5
B2
100
AcDbEntity
8
1
62
256
6
ByLayer
370
18
48
1
60
0
100
AcDbLine
10
26.246355
20
8.9625
30
0
11
27.63
21
8.9625
31
0
39
0
210
0
220
0
230
1
0
LINE
5
B3
100
AcDbEntity
8
1
62
256
6
ByLayer
370
18
48
1
60
0
100
AcDbLine
10
26.549523
20
11.576388
30
0
11
26.477691
21
11.668165
31
0
39
0
210
0
220
0
230
1
0
LINE
5
B4
100
AcDbEntity
8
1
62
256
6
ByLayer
370
18
48
1
60
0
100
AcDbLine
10
26.457959
20
11.712434
30
0
11
26.247874
21
12.903884
31
0
39
0
210
0
220
0
230
1
0
LINE
5
B5
100
AcDbEntity
8
1
62
256
6
ByLayer
370
18
48
1
60
0
100
AcDbLine
10
26.246355
20
13.1625
30
0
11
27.63
21
13.1625
31
0
39
0
210
0
220
0
230
1
0
LINE
5
B6
100
AcDbEntity
8
1
62
256
6
ByLayer
370
18
48
1
60
0
100
AcDbLine
10
27.63
20
8.9625
30
0
11
27.63
21
13.1625
31
0
39
0
210
0
220
0
230
1
0
LINE
5
B7
100
AcDbEntity
8
1
62
256
6
ByLayer
370
18
48
1
60
0
100
AcDbLine
10
26.246355
20
12.921249
30
0
11
26.246355
21
13.1625
31
0
39
0
210
0
220
0
230
1
0
LINE
5
B8
100
AcDbEntity
8
1
62
256
6
ByLayer
370
18
48
1
60
0
100
AcDbLine
10
26.937861
20
11.0425
30
0
11
26.937861
21
11.0825
31
0
39
0
210
0
220
0
230
1
0
LINE
5
B9
100
AcDbEntity
8
1
62
256
6
ByLayer
370
18
48
1
60
0
100
AcDbLine
10
34
20
8.8625
30
0
11
34
21
13.2625
31
0
39
0
210
0
220
0
230
1
0
LINE
5
BA
100
AcDbEntity
8
1
62
256
6
ByLayer
370
18
48
1
60
0
100
AcDbLine
10
33.686914
20
13.562214
30
0
11
29.5
21
13.37941
31
0
39
0
210
0
220
0
230
1
0
LINE
5
BB
100
AcDbEntity
8
1
62
256
6
ByLayer
370
18
48
1
60
0
100
AcDbLine
10
29.5
20
13.37941
30
0
11
29.124301
21
13.1625
31
0
39
0
210
0
220
0
230
1
0
LINE
5
BC
100
AcDbEntity
8
1
62
256
6
ByLayer
370
18
48
1
60
0
100
AcDbLine
10
27.63
20
13.1625
30
0
11
29.124301
21
13.1625
31
0
39
0
210
0
220
0
230
1
0
MTEXT
5
FE
100
AcDbEntity
8
SK6
62
256
6
ByLayer
370
18
48
1
60
0
100
AcDbMText
10
-70.799987
20
-21.625204
30
0
210
0
220
0
230
1
1
\W0.7349;RF123J13-2525B-120BM
40
3.5
41
0
44
1.084337
50
0
71
7
72
5
7
iso_b_vert
0
DIMENSION
5
10F
100
AcDbEntity
8
2
62
256
6
ByLayer
370
13
48
1
60
0
100
AcDbDimension
2
DimnDraft3D1
10
48.25
20
13.5625
30
0
11
48.25
21
18.0625
31
0
70
32
71
5
72
1
41
1
210
0
220
0
230
1
3
Standard
100
AcDbAlignedDimension
13
35.5
23
8.5625
33
0
14
35.5
24
13.5625
34
0
50
90
100
AcDbRotatedDimension
1001
ACAD
1000
DSTYLE
1002
{
1070
    74
1070
     0
1070
   279
1070
     0
1070
   172
1070
     1
1070
   173
1070
     1
1070
   340
1005
FF
1070
   271
1070
     3
1070
   272
1070
     3
1070
    77
1070
     1
1070
    73
1070
     0
1070
   171
1070
     4
1070
   274
1070
     4
1070
   177
1070
     2
1070
   176
1070
     2
1070
   178
1070
     7
1070
    78
1070
     8
1070
    41
1041
3.0
1070
   147
1041
2.25
1070
    42
1041
1.5
1070
    44
1041
3.0
1070
   140
1041
4.5
1070
   343
1005
110
1070
   344
1005
110
1002
}
0
DIMENSION
5
124
100
AcDbEntity
8
2
62
256
6
ByLayer
370
13
48
1
60
0
100
AcDbDimension
2
DimnDraft3D2
10
58.25
20
-12.4375
30
0
11
58.25
21
-2.125658
31
0
70
32
71
5
72
1
41
1
210
0
220
0
230
1
3
Standard
100
AcDbAlignedDimension
13
35.5
23
13.5625
33
0
14
-3.5
24
-12.4375
34
0
50
90
100
AcDbRotatedDimension
1001
ACAD
1000
DSTYLE
1002
{
1070
    74
1070
     0
1070
   279
1070
     0
1070
   172
1070
     1
1070
   173
1070
     1
1070
   340
1005
FF
1070
   271
1070
     3
1070
   272
1070
     3
1070
    77
1070
     1
1070
    73
1070
     0
1070
   171
1070
     4
1070
   274
1070
     4
1070
   177
1070
     2
1070
   176
1070
     2
1070
   178
1070
     7
1070
    78
1070
     8
1070
    41
1041
3.0
1070
   147
1041
2.25
1070
    42
1041
1.5
1070
    44
1041
3.0
1070
   140
1041
4.5
1070
   343
1005
110
1070
   344
1005
110
1002
}
0
DIMENSION
5
133
100
AcDbEntity
8
SK2
62
256
6
ByLayer
370
13
48
1
60
0
100
AcDbDimension
2
DimnDraft3D3
10
-127.1
20
-12.4375
30
0
11
-127.1
21
-2.688158
31
0
70
32
71
5
72
1
41
1
210
0
220
0
230
1
3
Standard
100
AcDbAlignedDimension
13
-118.85
23
12.4375
33
0
14
-118.85
24
-12.4375
34
0
50
90
100
AcDbRotatedDimension
1001
ACAD
1000
DSTYLE
1002
{
1070
    74
1070
     0
1070
   279
1070
     0
1070
   172
1070
     1
1070
   173
1070
     1
1070
   340
1005
FF
1070
   271
1070
     3
1070
   272
1070
     3
1070
    77
1070
     1
1070
    73
1070
     0
1070
   171
1070
     4
1070
   274
1070
     4
1070
   177
1070
     2
1070
   176
1070
     2
1070
   178
1070
     7
1070
    78
1070
     8
1070
    41
1041
3.0
1070
   147
1041
2.25
1070
    42
1041
1.5
1070
    44
1041
3.0
1070
   140
1041
4.5
1070
   343
1005
110
1070
   344
1005
110
1002
}
0
DIMENSION
5
141
100
AcDbEntity
8
2
62
256
6
ByLayer
370
13
48
1
60
0
100
AcDbDimension
2
DimnDraft3D4
10
0
20
23.664737
30
0
11
14.075
21
23.664737
31
0
70
32
71
5
72
1
41
1
210
0
220
0
230
1
3
Standard
100
AcDbAlignedDimension
13
34
23
15.0625
33
0
14
0
24
13.9375
34
0
50
0
100
AcDbRotatedDimension
1001
ACAD
1000
DSTYLE
1002
{
1070
   279
1070
     0
1070
   172
1070
     1
1070
   173
1070
     1
1070
   340
1005
FF
1070
   271
1070
     3
1070
   272
1070
     3
1070
    77
1070
     1
1070
    73
1070
     0
1070
   171
1070
     4
1070
   274
1070
     4
1070
   177
1070
     2
1070
   176
1070
     2
1070
   178
1070
     7
1070
    78
1070
     8
1070
    41
1041
3.0
1070
   147
1041
2.25
1070
    42
1041
1.5
1070
    44
1041
3.0
1070
   140
1041
4.5
1070
   343
1005
110
1070
   344
1005
110
1002
}
0
DIMENSION
5
14F
100
AcDbEntity
8
SK2
62
256
6
ByLayer
370
13
48
1
60
0
100
AcDbDimension
2
DimnDraft3D5
10
-117.35
20
33.664737
30
0
11
-45.482237
21
33.664737
31
0
70
32
71
5
72
1
41
1
210
0
220
0
230
1
3
Standard
100
AcDbAlignedDimension
13
34
23
15.0625
33
0
14
-117.35
24
13.9375
34
0
50
0
100
AcDbRotatedDimension
1001
ACAD
1000
DSTYLE
1002
{
1070
   279
1070
     0
1070
   172
1070
     1
1070
   173
1070
     1
1070
   340
1005
FF
1070
   271
1070
     3
1070
   272
1070
     3
1070
    77
1070
     1
1070
    73
1070
     0
1070
   171
1070
     4
1070
   274
1070
     4
1070
   177
1070
     2
1070
   176
1070
     2
1070
   178
1070
     7
1070
    78
1070
     8
1070
    41
1041
3.0
1070
   147
1041
2.25
1070
    42
1041
1.5
1070
    44
1041
3.0
1070
   140
1041
4.5
1070
   343
1005
110
1070
   344
1005
110
1002
}
0
DIMENSION
5
15D
100
AcDbEntity
8
2
62
256
6
ByLayer
370
13
48
1
60
0
100
AcDbDimension
2
DimnDraft3D6
10
34
20
-26.6875
30
0
11
25.374342
21
-26.6875
31
0
70
32
71
5
72
1
41
1
210
0
220
0
230
1
3
Standard
100
AcDbAlignedDimension
13
21
23
6.0625
33
0
14
34
24
7.0625
34
0
50
0
100
AcDbRotatedDimension
1001
ACAD
1000
DSTYLE
1002
{
1070
   279
1070
     0
1070
   172
1070
     1
1070
   173
1070
     1
1070
   340
1005
FF
1070
   271
1070
     3
1070
   272
1070
     3
1070
    77
1070
     1
1070
    73
1070
     0
1070
   171
1070
     4
1070
   274
1070
     4
1070
   177
1070
     2
1070
   176
1070
     2
1070
   178
1070
     7
1070
    78
1070
     8
1070
    41
1041
3.0
1070
   147
1041
2.25
1070
    42
1041
1.5
1070
    44
1041
3.0
1070
   140
1041
4.5
1070
   343
1005
110
1070
   344
1005
110
1002
}
0
ENDSEC
0
SECTION
2
OBJECTS
0
DICTIONARY
5
1c7
330
0
100
AcDbDictionary
280
0
281
1
3
ACAD_GROUP
350
1c8
3
ACAD_MLINESTYLE
350
1c9
0
DICTIONARY
5
1c8
330
0
100
AcDbDictionary
280
0
281
1
0
DICTIONARY
5
1c9
330
0
100
AcDbDictionary
280
0
281
1
3
Standard
350
18
0
MLINESTYLE
5
18
330
1c9
100
AcDbMlineStyle
2
Standard
70
0
3

62
256
51
90
52
90
71
2
49
-0.5
62
256
6
ByLayer
49
0.5
62
256
6
ByLayer
0
RASTERVARIABLES
5
1b6
330

100
AcDbRasterVariables
90
0
70
1
71
1
72
1
0
ENDSEC
0
EOF
