0
SECTION
2
HEADER
9
$ACADVER
1
AC1015
9
$DWGCODEPAGE
3
ANSI_1252
9
$HANDSEED
5
1b7
9
$ANGBASE
50
0
9
$ANGDIR
70
0
9
$ATTMODE
70
1
9
$AUNITS
70
0
9
$AUPREC
70
0
9
$CECOLOR
62
256
9
$CELTSCALE
40
1
9
$CELTYPE
6
ByLayer
9
$CELWEIGHT
370
18
9
$CLAYER
8
0
9
$CMLJUST
70
0
9
$CMLSCALE
40
1
9
$CMLSTYLE
2
Standard
9
$DIMSTYLE
2
Standard
9
$TEXTSIZE
40
0.2
9
$TEXTSTYLE
7
Standard
9
$LUNITS
70
2
9
$LUPREC
70
4
9
$EXTNAMES
290
1
9
$INSUNITS
70
4
9
$LTSCALE
40
1
9
$LWDISPLAY
290
1
9
$PDMODE
70
0
9
$PDSIZE
40
0
9
$PLINEGEN
70
0
0
ENDSEC
0
SECTION
2
CLASSES
0
CLASS
1
RASTERVARIABLES
2
AcDbRasterVariables
3
ISM
90
0
280
0
281
0
0
ENDSEC
0
SECTION
2
TABLES
0
TABLE
2
VPORT
5
1ad
100
AcDbSymbolTable
0
VPORT
5
1
100
AcDbSymbolTableRecord
100
AcDbViewportTableRecord
2
*Active
70
0
10
0
20
0
11
1
21
1
12
-1
22
1
13
0
23
0
14
0.5
24
0.5
15
10
25
10
16
0
26
0
36
1
17
0
27
0
37
0
0
ENDTAB
0
TABLE
2
LTYPE
5
1ae
100
AcDbSymbolTable
0
LTYPE
5
14
100
AcDbSymbolTableRecord
100
AcDbLinetypeTableRecord
70
0
2
ByBlock
3

72
65
73
0
40
0
0
LTYPE
5
15
100
AcDbSymbolTableRecord
100
AcDbLinetypeTableRecord
70
0
2
ByLayer
3

72
65
73
0
40
0
0
LTYPE
5
16
100
AcDbSymbolTableRecord
100
AcDbLinetypeTableRecord
70
0
2
CONTINUOUS
3
Solid line
72
65
73
0
40
0
0
LTYPE
5
6A
100
AcDbSymbolTableRecord
100
AcDbLinetypeTableRecord
70
0
2
CENTER
3
____ _ ____ _ ____ _ ____
72
65
73
4
40
47.5
49
22
74
0
49
-8.5
74
0
49
8.5
74
0
49
-8.5
74
0
0
LTYPE
5
6B
100
AcDbSymbolTableRecord
100
AcDbLinetypeTableRecord
70
0
2
DASHED
3
__ __ __ __ __ __ __ __ __
72
65
73
2
40
25.72
49
12.86
74
0
49
-12.86
74
0
0
ENDTAB
0
TABLE
2
LAYER
5
1af
100
AcDbSymbolTable
0
LAYER
5
10
100
AcDbSymbolTableRecord
100
AcDbLayerTableRecord
2
0
70
0
62
7
6
CONTINUOUS
290
1
370
-3
390
0
0
LAYER
5
6D
100
AcDbSymbolTableRecord
100
AcDbLayerTableRecord
2
2
70
0
62
7
6
CONTINUOUS
290
1
370
-3
390
0
0
LAYER
5
6F
100
AcDbSymbolTableRecord
100
AcDbLayerTableRecord
2
80
70
0
62
-6
6
CONTINUOUS
290
1
370
-3
390
0
0
LAYER
5
72
100
AcDbSymbolTableRecord
100
AcDbLayerTableRecord
2
81
70
0
62
-3
6
CONTINUOUS
290
1
370
-3
390
0
0
LAYER
5
76
100
AcDbSymbolTableRecord
100
AcDbLayerTableRecord
2
1
70
0
62
4
6
CONTINUOUS
290
1
370
-3
390
0
0
LAYER
5
19a
100
AcDbSymbolTableRecord
100
AcDbLayerTableRecord
2
SK1
70
0
62
4
6
CONTINUOUS
290
1
370
-3
390
0
0
LAYER
5
19b
100
AcDbSymbolTableRecord
100
AcDbLayerTableRecord
2
SK6
70
0
62
5
6
CONTINUOUS
290
1
370
-3
390
0
0
LAYER
5
19c
100
AcDbSymbolTableRecord
100
AcDbLayerTableRecord
2
SK2
70
0
62
7
6
CONTINUOUS
290
1
370
-3
390
0
0
ENDTAB
0
TABLE
2
STYLE
5
1b0
100
AcDbSymbolTable
0
STYLE
5
11
100
AcDbSymbolTableRecord
100
AcDbTextStyleTableRecord
2
Standard
3
txt
70
0
71
0
40
0
41
1
42
0
50
0
0
STYLE
5
E2
100
AcDbSymbolTableRecord
100
AcDbTextStyleTableRecord
2
iso_b_vert
3
simplex.shx
70
0
71
0
40
0
41
1
42
0
50
0
0
STYLE
5
E3
100
AcDbSymbolTableRecord
100
AcDbTextStyleTableRecord
2
DWGDirectTextStyle
3
simplex
70
0
71
0
40
0
41
1
42
0
50
0
0
ENDTAB
0
TABLE
2
DIMSTYLE
5
1b1
100
AcDbSymbolTable
100
AcDbDimStyleTable
0
DIMSTYLE
105
27
100
AcDbSymbolTableRecord
100
AcDbDimStyleTableRecord
2
Standard
70
0
3
<>
41
0.18
42
0.0625
44
0.18
140
0.18
147
0.09
73
0
74
0
77
1
271
2
275
0
278
52
280
0
340
11
0
ENDTAB
0
TABLE
2
VIEW
5
1b2
100
AcDbSymbolTable
0
ENDTAB
0
TABLE
2
UCS
5
1b3
100
AcDbSymbolTable
0
ENDTAB
0
TABLE
2
APPID
5
1b4
100
AcDbSymbolTable
0
APPID
5
12
100
AcDbSymbolTableRecord
100
AcDbRegAppTableRecord
2
ACAD
70
0
0
ENDTAB
0
TABLE
2
BLOCK_RECORD
5
1b5
100
AcDbSymbolTable
0
BLOCK_RECORD
5
1F
100
AcDbSymbolTableRecord
100
AcDbBlockTableRecord
2
*Model_Space
340
0
70
0
0
BLOCK_RECORD
5
1B
100
AcDbSymbolTableRecord
100
AcDbBlockTableRecord
2
*Paper_Space
340
0
70
0
0
BLOCK_RECORD
5
23
100
AcDbSymbolTableRecord
100
AcDbBlockTableRecord
2
*Paper_Space0
340
0
70
0
0
BLOCK_RECORD
5
E5
100
AcDbSymbolTableRecord
100
AcDbBlockTableRecord
2
DimnDraft3D1
340
0
70
0
0
BLOCK_RECORD
5
F3
100
AcDbSymbolTableRecord
100
AcDbBlockTableRecord
2
_CLOSED
340
0
70
0
0
BLOCK_RECORD
5
FA
100
AcDbSymbolTableRecord
100
AcDbBlockTableRecord
2
DimnDraft3D2
340
0
70
0
0
BLOCK_RECORD
5
108
100
AcDbSymbolTableRecord
100
AcDbBlockTableRecord
2
DimnDraft3D3
340
0
70
0
0
BLOCK_RECORD
5
117
100
AcDbSymbolTableRecord
100
AcDbBlockTableRecord
2
DimnDraft3D4
340
0
70
0
0
BLOCK_RECORD
5
125
100
AcDbSymbolTableRecord
100
AcDbBlockTableRecord
2
DimnDraft3D5
340
0
70
0
0
BLOCK_RECORD
5
133
100
AcDbSymbolTableRecord
100
AcDbBlockTableRecord
2
DimnDraft3D6
340
0
70
0
0
ENDTAB
0
ENDSEC
0
SECTION
2
BLOCKS
0
BLOCK
5
20
100
AcDbEntity
8
0
100
AcDbBlockBegin
2
*Model_Space
70
0
10
0
20
0
30
0
3
*Model_Space
0
ENDBLK
5
21
100
AcDbEntity
8
0
100
AcDbBlockEnd
0
BLOCK
5
1C
100
AcDbEntity
8
0
100
AcDbBlockBegin
2
*Paper_Space
70
0
10
0
20
0
30
0
3
*Paper_Space
0
ENDBLK
5
1D
100
AcDbEntity
8
0
100
AcDbBlockEnd
0
BLOCK
5
24
100
AcDbEntity
8
0
100
AcDbBlockBegin
2
*Paper_Space0
70
0
10
0
20
0
30
0
3
*Paper_Space0
0
ENDBLK
5
25
100
AcDbEntity
8
0
100
AcDbBlockEnd
0
BLOCK
5
F0
100
AcDbEntity
8
0
100
AcDbBlockBegin
2
DimnDraft3D1
70
0
10
0
20
0
30
0
3
DimnDraft3D1
0
MTEXT
5
E6
100
AcDbEntity
8
2
62
256
6
ByLayer
370
18
48
1
60
0
100
AcDbMText
10
54.125
20
19.1875
30
0
210
0
220
0
230
1
1
\W0.5404;3
40
4.5
41
0
44
1.084337
50
90
71
7
72
5
7
iso_b_vert
0
LINE
5
E7
100
AcDbEntity
8
2
62
256
6
ByLayer
370
13
48
1
60
0
100
AcDbLine
10
42.5
20
10.5625
30
0
11
58.25
21
10.5625
31
0
39
0
210
0
220
0
230
1
0
LINE
5
E8
100
AcDbEntity
8
2
62
256
6
ByLayer
370
13
48
1
60
0
100
AcDbLine
10
42.5
20
13.5625
30
0
11
58.25
21
13.5625
31
0
39
0
210
0
220
0
230
1
0
LINE
5
E9
100
AcDbEntity
8
2
62
256
6
ByLayer
370
13
48
1
60
0
100
AcDbLine
10
55.25
20
20.075658
30
0
11
55.25
21
-0.6875
31
0
39
0
210
0
220
0
230
1
0
LINE
5
EA
100
AcDbEntity
8
2
62
256
6
ByLayer
370
13
48
1
60
0
100
AcDbLine
10
55.25
20
10.5625
30
0
11
55.644957
21
7.562501
31
0
39
0
210
0
220
0
230
1
0
LINE
5
EB
100
AcDbEntity
8
2
62
256
6
ByLayer
370
13
48
1
60
0
100
AcDbLine
10
55.25
20
10.5625
30
0
11
54.855043
21
7.562499
31
0
39
0
210
0
220
0
230
1
0
LINE
5
EC
100
AcDbEntity
8
2
62
256
6
ByLayer
370
13
48
1
60
0
100
AcDbLine
10
55.644957
20
7.562501
30
0
11
54.855043
21
7.562499
31
0
39
0
210
0
220
0
230
1
0
LINE
5
ED
100
AcDbEntity
8
2
62
256
6
ByLayer
370
13
48
1
60
0
100
AcDbLine
10
55.25
20
13.5625
30
0
11
54.855043
21
16.562499
31
0
39
0
210
0
220
0
230
1
0
LINE
5
EE
100
AcDbEntity
8
2
62
256
6
ByLayer
370
13
48
1
60
0
100
AcDbLine
10
55.25
20
13.5625
30
0
11
55.644957
21
16.562501
31
0
39
0
210
0
220
0
230
1
0
LINE
5
EF
100
AcDbEntity
8
2
62
256
6
ByLayer
370
13
48
1
60
0
100
AcDbLine
10
54.855043
20
16.562499
30
0
11
55.644957
21
16.562501
31
0
39
0
210
0
220
0
230
1
0
ENDBLK
5
F1
100
AcDbEntity
8
0
100
AcDbBlockEnd
0
BLOCK
5
F4
100
AcDbEntity
8
0
100
AcDbBlockBegin
2
_CLOSED
70
0
10
0
20
0
30
0
3
_CLOSED
0
LINE
5
F6
100
AcDbEntity
8
0
62
256
6
ByLayer
370
-2
48
1
60
0
100
AcDbLine
10
-1
20
0.166667
30
0
11
0
21
0
31
0
39
0
210
0
220
0
230
1
0
LINE
5
F7
100
AcDbEntity
8
0
62
256
6
ByLayer
370
-2
48
1
60
0
100
AcDbLine
10
0
20
0
30
0
11
-1
21
-0.166667
31
0
39
0
210
0
220
0
230
1
0
LINE
5
F8
100
AcDbEntity
8
0
62
256
6
ByLayer
370
-2
48
1
60
0
100
AcDbLine
10
-1
20
0.166667
30
0
11
-1
21
-0.166667
31
0
39
0
210
0
220
0
230
1
0
LINE
5
F9
100
AcDbEntity
8
0
62
256
6
ByLayer
370
-2
48
1
60
0
100
AcDbLine
10
0
20
0
30
0
11
-1
21
0
31
0
39
0
210
0
220
0
230
1
0
ENDBLK
5
F5
100
AcDbEntity
8
0
100
AcDbBlockEnd
0
BLOCK
5
105
100
AcDbEntity
8
0
100
AcDbBlockBegin
2
DimnDraft3D2
70
0
10
0
20
0
30
0
3
DimnDraft3D2
0
MTEXT
5
FB
100
AcDbEntity
8
2
62
256
6
ByLayer
370
18
48
1
60
0
100
AcDbMText
10
64.125
20
-1.000658
30
0
210
0
220
0
230
1
1
\W0.6740;26
40
4.5
41
0
44
1.084337
50
90
71
7
72
5
7
iso_b_vert
0
LINE
5
FC
100
AcDbEntity
8
2
62
256
6
ByLayer
370
13
48
1
60
0
100
AcDbLine
10
42.5
20
13.5625
30
0
11
68.25
21
13.5625
31
0
39
0
210
0
220
0
230
1
0
LINE
5
FD
100
AcDbEntity
8
2
62
256
6
ByLayer
370
13
48
1
60
0
100
AcDbLine
10
-3.5
20
-12.4375
30
0
11
68.25
21
-12.4375
31
0
39
0
210
0
220
0
230
1
0
LINE
5
FE
100
AcDbEntity
8
2
62
256
6
ByLayer
370
13
48
1
60
0
100
AcDbLine
10
65.25
20
13.5625
30
0
11
65.25
21
-12.4375
31
0
39
0
210
0
220
0
230
1
0
LINE
5
FF
100
AcDbEntity
8
2
62
256
6
ByLayer
370
13
48
1
60
0
100
AcDbLine
10
65.25
20
13.5625
30
0
11
65.644957
21
10.562501
31
0
39
0
210
0
220
0
230
1
0
LINE
5
100
100
AcDbEntity
8
2
62
256
6
ByLayer
370
13
48
1
60
0
100
AcDbLine
10
65.25
20
13.5625
30
0
11
64.855043
21
10.562499
31
0
39
0
210
0
220
0
230
1
0
LINE
5
101
100
AcDbEntity
8
2
62
256
6
ByLayer
370
13
48
1
60
0
100
AcDbLine
10
65.644957
20
10.562501
30
0
11
64.855043
21
10.562499
31
0
39
0
210
0
220
0
230
1
0
LINE
5
102
100
AcDbEntity
8
2
62
256
6
ByLayer
370
13
48
1
60
0
100
AcDbLine
10
65.25
20
-12.4375
30
0
11
64.855043
21
-9.437501
31
0
39
0
210
0
220
0
230
1
0
LINE
5
103
100
AcDbEntity
8
2
62
256
6
ByLayer
370
13
48
1
60
0
100
AcDbLine
10
65.25
20
-12.4375
30
0
11
65.644957
21
-9.437499
31
0
39
0
210
0
220
0
230
1
0
LINE
5
104
100
AcDbEntity
8
2
62
256
6
ByLayer
370
13
48
1
60
0
100
AcDbLine
10
64.855043
20
-9.437501
30
0
11
65.644957
21
-9.437499
31
0
39
0
210
0
220
0
230
1
0
ENDBLK
5
106
100
AcDbEntity
8
0
100
AcDbBlockEnd
0
BLOCK
5
114
100
AcDbEntity
8
0
100
AcDbBlockBegin
2
DimnDraft3D3
70
0
10
0
20
0
30
0
3
DimnDraft3D3
0
MTEXT
5
109
100
AcDbEntity
8
SK2
62
256
6
ByLayer
370
18
48
1
60
0
100
AcDbMText
10
-121.225
20
-1.563158
30
0
210
0
220
0
230
1
1
\W0.6740;25
40
4.5
41
0
44
1.084337
50
90
71
7
72
5
7
iso_b_vert
0
LINE
5
10B
100
AcDbEntity
8
SK2
62
256
6
ByLayer
370
13
48
1
60
0
100
AcDbLine
10
-111.85
20
12.4375
30
0
11
-123.1
21
12.4375
31
0
39
0
210
0
220
0
230
1
0
LINE
5
10C
100
AcDbEntity
8
SK2
62
256
6
ByLayer
370
13
48
1
60
0
100
AcDbLine
10
-111.85
20
-12.4375
30
0
11
-123.1
21
-12.4375
31
0
39
0
210
0
220
0
230
1
0
LINE
5
10D
100
AcDbEntity
8
SK2
62
256
6
ByLayer
370
13
48
1
60
0
100
AcDbLine
10
-120.1
20
12.4375
30
0
11
-120.1
21
-12.4375
31
0
39
0
210
0
220
0
230
1
0
LINE
5
10E
100
AcDbEntity
8
SK2
62
256
6
ByLayer
370
13
48
1
60
0
100
AcDbLine
10
-120.1
20
12.4375
30
0
11
-119.705043
21
9.437501
31
0
39
0
210
0
220
0
230
1
0
LINE
5
10F
100
AcDbEntity
8
SK2
62
256
6
ByLayer
370
13
48
1
60
0
100
AcDbLine
10
-120.1
20
12.4375
30
0
11
-120.494957
21
9.437499
31
0
39
0
210
0
220
0
230
1
0
LINE
5
110
100
AcDbEntity
8
SK2
62
256
6
ByLayer
370
13
48
1
60
0
100
AcDbLine
10
-119.705043
20
9.437501
30
0
11
-120.494957
21
9.437499
31
0
39
0
210
0
220
0
230
1
0
LINE
5
111
100
AcDbEntity
8
SK2
62
256
6
ByLayer
370
13
48
1
60
0
100
AcDbLine
10
-120.1
20
-12.4375
30
0
11
-120.494957
21
-9.437501
31
0
39
0
210
0
220
0
230
1
0
LINE
5
112
100
AcDbEntity
8
SK2
62
256
6
ByLayer
370
13
48
1
60
0
100
AcDbLine
10
-120.1
20
-12.4375
30
0
11
-119.705043
21
-9.437499
31
0
39
0
210
0
220
0
230
1
0
LINE
5
113
100
AcDbEntity
8
SK2
62
256
6
ByLayer
370
13
48
1
60
0
100
AcDbLine
10
-120.494957
20
-9.437501
30
0
11
-119.705043
21
-9.437499
31
0
39
0
210
0
220
0
230
1
0
ENDBLK
5
115
100
AcDbEntity
8
0
100
AcDbBlockEnd
0
BLOCK
5
122
100
AcDbEntity
8
0
100
AcDbBlockBegin
2
DimnDraft3D4
70
0
10
0
20
0
30
0
3
DimnDraft3D4
0
MTEXT
5
118
100
AcDbEntity
8
2
62
256
6
ByLayer
370
18
48
1
60
0
100
AcDbMText
10
19.2625
20
24.4375
30
0
210
0
220
0
230
1
1
\W0.7092;41
40
4.5
41
0
44
1.084337
50
0
71
7
72
5
7
iso_b_vert
0
LINE
5
119
100
AcDbEntity
8
2
62
256
6
ByLayer
370
13
48
1
60
0
100
AcDbLine
10
41
20
15.0625
30
0
11
41
21
26.3125
31
0
39
0
210
0
220
0
230
1
0
LINE
5
11A
100
AcDbEntity
8
2
62
256
6
ByLayer
370
13
48
1
60
0
100
AcDbLine
10
0
20
13.9375
30
0
11
0
21
26.3125
31
0
39
0
210
0
220
0
230
1
0
LINE
5
11B
100
AcDbEntity
8
2
62
256
6
ByLayer
370
13
48
1
60
0
100
AcDbLine
10
41
20
23.3125
30
0
11
0
21
23.3125
31
0
39
0
210
0
220
0
230
1
0
LINE
5
11C
100
AcDbEntity
8
2
62
256
6
ByLayer
370
13
48
1
60
0
100
AcDbLine
10
41
20
23.3125
30
0
11
38.000001
21
22.917543
31
0
39
0
210
0
220
0
230
1
0
LINE
5
11D
100
AcDbEntity
8
2
62
256
6
ByLayer
370
13
48
1
60
0
100
AcDbLine
10
41
20
23.3125
30
0
11
37.999999
21
23.707457
31
0
39
0
210
0
220
0
230
1
0
LINE
5
11E
100
AcDbEntity
8
2
62
256
6
ByLayer
370
13
48
1
60
0
100
AcDbLine
10
38.000001
20
22.917543
30
0
11
37.999999
21
23.707457
31
0
39
0
210
0
220
0
230
1
0
LINE
5
11F
100
AcDbEntity
8
2
62
256
6
ByLayer
370
13
48
1
60
0
100
AcDbLine
10
0
20
23.3125
30
0
11
2.999999
21
23.707457
31
0
39
0
210
0
220
0
230
1
0
LINE
5
120
100
AcDbEntity
8
2
62
256
6
ByLayer
370
13
48
1
60
0
100
AcDbLine
10
0
20
23.3125
30
0
11
3.000001
21
22.917543
31
0
39
0
210
0
220
0
230
1
0
LINE
5
121
100
AcDbEntity
8
2
62
256
6
ByLayer
370
13
48
1
60
0
100
AcDbLine
10
2.999999
20
23.707457
30
0
11
3.000001
21
22.917543
31
0
39
0
210
0
220
0
230
1
0
ENDBLK
5
123
100
AcDbEntity
8
0
100
AcDbBlockEnd
0
BLOCK
5
130
100
AcDbEntity
8
0
100
AcDbBlockBegin
2
DimnDraft3D5
70
0
10
0
20
0
30
0
3
DimnDraft3D5
0
MTEXT
5
126
100
AcDbEntity
8
SK2
62
256
6
ByLayer
370
18
48
1
60
0
100
AcDbMText
10
-37.357237
20
34.4375
30
0
210
0
220
0
230
1
1
\W0.6217;150
40
4.5
41
0
44
1.084337
50
0
71
7
72
5
7
iso_b_vert
0
LINE
5
127
100
AcDbEntity
8
SK2
62
256
6
ByLayer
370
13
48
1
60
0
100
AcDbLine
10
41
20
15.0625
30
0
11
41
21
36.3125
31
0
39
0
210
0
220
0
230
1
0
LINE
5
128
100
AcDbEntity
8
SK2
62
256
6
ByLayer
370
13
48
1
60
0
100
AcDbLine
10
-110.35
20
13.9375
30
0
11
-110.35
21
36.3125
31
0
39
0
210
0
220
0
230
1
0
LINE
5
129
100
AcDbEntity
8
SK2
62
256
6
ByLayer
370
13
48
1
60
0
100
AcDbLine
10
41
20
33.3125
30
0
11
-110.35
21
33.3125
31
0
39
0
210
0
220
0
230
1
0
LINE
5
12A
100
AcDbEntity
8
SK2
62
256
6
ByLayer
370
13
48
1
60
0
100
AcDbLine
10
41
20
33.3125
30
0
11
38.000001
21
32.917543
31
0
39
0
210
0
220
0
230
1
0
LINE
5
12B
100
AcDbEntity
8
SK2
62
256
6
ByLayer
370
13
48
1
60
0
100
AcDbLine
10
41
20
33.3125
30
0
11
37.999999
21
33.707457
31
0
39
0
210
0
220
0
230
1
0
LINE
5
12C
100
AcDbEntity
8
SK2
62
256
6
ByLayer
370
13
48
1
60
0
100
AcDbLine
10
38.000001
20
32.917543
30
0
11
37.999999
21
33.707457
31
0
39
0
210
0
220
0
230
1
0
LINE
5
12D
100
AcDbEntity
8
SK2
62
256
6
ByLayer
370
13
48
1
60
0
100
AcDbLine
10
-110.35
20
33.3125
30
0
11
-107.350001
21
33.707457
31
0
39
0
210
0
220
0
230
1
0
LINE
5
12E
100
AcDbEntity
8
SK2
62
256
6
ByLayer
370
13
48
1
60
0
100
AcDbLine
10
-110.35
20
33.3125
30
0
11
-107.349999
21
32.917543
31
0
39
0
210
0
220
0
230
1
0
LINE
5
12F
100
AcDbEntity
8
SK2
62
256
6
ByLayer
370
13
48
1
60
0
100
AcDbLine
10
-107.350001
20
33.707457
30
0
11
-107.349999
21
32.917543
31
0
39
0
210
0
220
0
230
1
0
ENDBLK
5
131
100
AcDbEntity
8
0
100
AcDbBlockEnd
0
BLOCK
5
13E
100
AcDbEntity
8
0
100
AcDbBlockBegin
2
DimnDraft3D6
70
0
10
0
20
0
30
0
3
DimnDraft3D6
0
MTEXT
5
134
100
AcDbEntity
8
2
62
256
6
ByLayer
370
18
48
1
60
0
100
AcDbMText
10
29.436842
20
-25.5625
30
0
210
0
220
0
230
1
1
\W0.6740;20
40
4.5
41
0
44
1.084337
50
0
71
7
72
5
7
iso_b_vert
0
LINE
5
135
100
AcDbEntity
8
2
62
256
6
ByLayer
370
13
48
1
60
0
100
AcDbLine
10
21
20
8.0625
30
0
11
21
21
-29.6875
31
0
39
0
210
0
220
0
230
1
0
LINE
5
136
100
AcDbEntity
8
2
62
256
6
ByLayer
370
13
48
1
60
0
100
AcDbLine
10
41
20
9.0625
30
0
11
41
21
-29.6875
31
0
39
0
210
0
220
0
230
1
0
LINE
5
137
100
AcDbEntity
8
2
62
256
6
ByLayer
370
13
48
1
60
0
100
AcDbLine
10
21
20
-26.6875
30
0
11
41
21
-26.6875
31
0
39
0
210
0
220
0
230
1
0
LINE
5
138
100
AcDbEntity
8
2
62
256
6
ByLayer
370
13
48
1
60
0
100
AcDbLine
10
21
20
-26.6875
30
0
11
23.999999
21
-26.292543
31
0
39
0
210
0
220
0
230
1
0
LINE
5
139
100
AcDbEntity
8
2
62
256
6
ByLayer
370
13
48
1
60
0
100
AcDbLine
10
21
20
-26.6875
30
0
11
24.000001
21
-27.082457
31
0
39
0
210
0
220
0
230
1
0
LINE
5
13A
100
AcDbEntity
8
2
62
256
6
ByLayer
370
13
48
1
60
0
100
AcDbLine
10
23.999999
20
-26.292543
30
0
11
24.000001
21
-27.082457
31
0
39
0
210
0
220
0
230
1
0
LINE
5
13B
100
AcDbEntity
8
2
62
256
6
ByLayer
370
13
48
1
60
0
100
AcDbLine
10
41
20
-26.6875
30
0
11
38.000001
21
-27.082457
31
0
39
0
210
0
220
0
230
1
0
LINE
5
13C
100
AcDbEntity
8
2
62
256
6
ByLayer
370
13
48
1
60
0
100
AcDbLine
10
41
20
-26.6875
30
0
11
37.999999
21
-26.292543
31
0
39
0
210
0
220
0
230
1
0
LINE
5
13D
100
AcDbEntity
8
2
62
256
6
ByLayer
370
13
48
1
60
0
100
AcDbLine
10
38.000001
20
-27.082457
30
0
11
37.999999
21
-26.292543
31
0
39
0
210
0
220
0
230
1
0
ENDBLK
5
13F
100
AcDbEntity
8
0
100
AcDbBlockEnd
0
ENDSEC
0
SECTION
2
ENTITIES
0
ARC
5
AE
100
AcDbEntity
8
1
62
256
6
ByLayer
370
18
48
1
60
0
100
AcDbCircle
39
0
10
-21.1
20
9.2875
30
0
40
1.6
210
0
220
0
230
-1
100
AcDbArc
50
0
51
90
0
ARC
5
AF
100
AcDbEntity
8
1
62
256
6
ByLayer
370
18
48
1
60
0
100
AcDbCircle
39
0
10
13.5
20
6.7375
30
0
40
1.416
210
0
220
0
230
1
100
AcDbArc
50
96.192438
51
150.190711
0
ARC
5
B0
100
AcDbEntity
8
1
62
256
6
ByLayer
370
18
48
1
60
0
100
AcDbCircle
39
0
10
13.5
20
6.7375
30
0
40
1.416
210
0
220
0
230
1
100
AcDbArc
50
263.807562
51
276.192438
0
ARC
5
B1
100
AcDbEntity
8
1
62
256
6
ByLayer
370
18
48
1
60
0
100
AcDbCircle
39
0
10
13.5
20
6.7375
30
0
40
1.9685
210
0
220
0
230
1
100
AcDbArc
50
120.381422
51
180
0
ARC
5
B2
100
AcDbEntity
8
1
62
256
6
ByLayer
370
18
48
1
60
0
100
AcDbCircle
39
0
10
13.5
20
6.7375
30
0
40
1.416
210
0
220
0
230
1
100
AcDbArc
50
29.809289
51
83.807562
0
ARC
5
B3
100
AcDbEntity
8
1
62
256
6
ByLayer
370
18
48
1
60
0
100
AcDbCircle
39
0
10
13.5
20
6.7375
30
0
40
1.416
210
0
220
0
230
1
100
AcDbArc
50
330.190711
51
29.809289
0
ARC
5
B4
100
AcDbEntity
8
1
62
256
6
ByLayer
370
18
48
1
60
0
100
AcDbCircle
39
0
10
13.5
20
6.7375
30
0
40
1.9685
210
0
220
0
230
1
100
AcDbArc
50
239.618578
51
300.381422
0
ARC
5
B5
100
AcDbEntity
8
1
62
256
6
ByLayer
370
18
48
1
60
0
100
AcDbCircle
39
0
10
13.5
20
6.7375
30
0
40
1.9685
210
0
220
0
230
1
100
AcDbArc
50
180
51
239.618578
0
ARC
5
B6
100
AcDbEntity
8
1
62
256
6
ByLayer
370
18
48
1
60
0
100
AcDbCircle
39
0
10
13.5
20
6.7375
30
0
40
1.416
210
0
220
0
230
1
100
AcDbArc
50
83.807562
51
96.192438
0
ARC
5
B7
100
AcDbEntity
8
1
62
256
6
ByLayer
370
18
48
1
60
0
100
AcDbCircle
39
0
10
13.5
20
6.7375
30
0
40
1.416
210
0
220
0
230
1
100
AcDbArc
50
276.192438
51
330.190711
0
ARC
5
B8
100
AcDbEntity
8
1
62
256
6
ByLayer
370
18
48
1
60
0
100
AcDbCircle
39
0
10
13.5
20
6.7375
30
0
40
1.9685
210
0
220
0
230
1
100
AcDbArc
50
59.618578
51
120.381422
0
ARC
5
B9
100
AcDbEntity
8
1
62
256
6
ByLayer
370
18
48
1
60
0
100
AcDbCircle
39
0
10
13.5
20
6.7375
30
0
40
1.9685
210
0
220
0
230
1
100
AcDbArc
50
360
51
59.618578
0
ARC
5
BA
100
AcDbEntity
8
1
62
256
6
ByLayer
370
18
48
1
60
0
100
AcDbCircle
39
0
10
13.5
20
6.7375
30
0
40
1.416
210
0
220
0
230
1
100
AcDbArc
50
209.809289
51
263.807562
0
ARC
5
BB
100
AcDbEntity
8
1
62
256
6
ByLayer
370
18
48
1
60
0
100
AcDbCircle
39
0
10
13.5
20
6.7375
30
0
40
1.416
210
0
220
0
230
1
100
AcDbArc
50
150.190711
51
209.809289
0
ARC
5
BC
100
AcDbEntity
8
1
62
256
6
ByLayer
370
18
48
1
60
0
100
AcDbCircle
39
0
10
13.5
20
6.7375
30
0
40
1.9685
210
0
220
0
230
1
100
AcDbArc
50
300.381422
51
360
0
ARC
5
BF
100
AcDbEntity
8
1
62
256
6
ByLayer
370
18
48
1
60
0
100
AcDbCircle
39
0
10
-21.2
20
13.3625
30
0
40
0.2
210
0
220
0
230
-1
100
AcDbArc
50
0
51
92.5
0
ARC
5
C0
100
AcDbEntity
8
1
62
256
6
ByLayer
370
18
48
1
60
0
100
AcDbCircle
39
0
10
-40.8
20
10.7625
30
0
40
0.2
210
0
220
0
230
-1
100
AcDbArc
50
180
51
272.5
0
ARC
5
C1
100
AcDbEntity
8
1
62
256
6
ByLayer
370
18
48
1
60
0
100
AcDbCircle
39
0
10
35.168406
20
11.086051
30
0
40
0.150000000037541
210
0
220
0
230
1
100
AcDbArc
50
160
51
180
0
ARC
5
C2
100
AcDbEntity
8
1
62
256
6
ByLayer
370
18
48
1
60
0
100
AcDbCircle
39
0
10
21.2
20
10.7625
30
0
40
0.2
210
0
220
0
230
1
100
AcDbArc
50
180
51
272.5
0
ARC
5
C3
100
AcDbEntity
8
1
62
256
6
ByLayer
370
18
48
1
60
0
100
AcDbCircle
39
0
10
35.168406
20
13.038949
30
0
40
0.150000000037541
210
0
220
0
230
1
100
AcDbArc
50
180
51
200
0
ARC
5
C4
100
AcDbEntity
8
1
62
256
6
ByLayer
370
18
48
1
60
0
100
AcDbCircle
39
0
10
40.8
20
13.3625
30
0
40
0.2
210
0
220
0
230
1
100
AcDbArc
50
360
51
92.5
0
ARC
5
C5
100
AcDbEntity
8
1
62
256
6
ByLayer
370
18
48
1
60
0
100
AcDbCircle
39
0
10
34.832089
20
12.0625
30
0
40
0.500000000040736
210
0
220
0
230
1
100
AcDbArc
50
340
51
20
0
CIRCLE
5
AD
100
AcDbEntity
8
1
62
256
6
ByLayer
370
18
48
1
60
0
100
AcDbCircle
10
-13.5
20
6.7375
30
0
40
5
39
0
210
0
220
0
230
-1
0
CIRCLE
5
BD
100
AcDbEntity
8
1
62
256
6
ByLayer
370
18
48
1
60
0
100
AcDbCircle
10
-13.5
20
6.7375
30
0
40
4.25
39
0
210
0
220
0
230
-1
0
CIRCLE
5
BE
100
AcDbEntity
8
1
62
256
6
ByLayer
370
18
48
1
60
0
100
AcDbCircle
10
-13.5
20
6.7375
30
0
40
3.75
39
0
210
0
220
0
230
-1
0
POINT
5
6C
100
AcDbEntity
8
2
62
256
6
ByLayer
370
18
48
1
60
0
100
AcDbPoint
10
41
20
12.0625
30
0
39
0
210
0
220
0
230
1
50
360
0
POINT
5
6E
100
AcDbEntity
8
80
62
256
6
ByLayer
370
18
48
1
60
0
100
AcDbPoint
10
0
20
0
30
0
39
0
210
0
220
0
230
1
50
360
0
POINT
5
70
100
AcDbEntity
8
2
62
256
6
ByLayer
370
18
48
1
60
0
100
AcDbPoint
10
41
20
13.5625
30
0
39
0
210
0
220
0
230
1
50
360
0
POINT
5
71
100
AcDbEntity
8
81
62
256
6
ByLayer
370
18
48
1
60
0
100
AcDbPoint
10
41
20
13.5625
30
0
39
0
210
0
220
0
230
1
50
360
0
SPLINE
5
C6
100
AcDbEntity
8
1
62
256
6
ByLayer
370
18
48
1
60
0
100
AcDbSpline
70
4
71
3
72
8
73
4
40
0
40
0
40
0
40
0
40
1
40
1
40
1
40
1
41
1
10
34.2675682415353
20
11.2927148737262
30
0
41
1
10
34.2731177059794
20
11.3058419566902
30
0
41
1
10
34.2781651928695
20
11.319304150949
30
0
41
1
10
34.2826711249934
20
11.3330139329337
30
0
0
SPLINE
5
C7
100
AcDbEntity
8
1
62
256
6
ByLayer
370
18
48
1
60
0
100
AcDbSpline
70
4
71
3
72
8
73
4
40
0
40
0
40
0
40
0
40
1
40
1
40
1
40
1
41
1
10
34.2826711249932
20
11.3330139329338
30
0
41
1
10
34.3175699355043
20
11.4391973086437
30
0
41
1
10
34.3520743031073
20
11.545574391504
30
0
41
1
10
34.3863166067351
20
11.6520758280091
30
0
0
SPLINE
5
C8
100
AcDbEntity
8
1
62
256
6
ByLayer
370
18
48
1
60
0
100
AcDbSpline
70
4
71
3
72
8
73
4
40
0
40
0
40
0
40
0
40
1
40
1
40
1
40
1
41
1
10
34.2826711249934
20
12.7919860670663
30
0
41
1
10
34.2781651928695
20
12.8056958490509
30
0
41
1
10
34.2731177059794
20
12.8191580433098
30
0
41
1
10
34.2675682415353
20
12.8322851262738
30
0
0
SPLINE
5
C9
100
AcDbEntity
8
1
62
256
6
ByLayer
370
18
48
1
60
0
100
AcDbSpline
70
4
71
3
72
8
73
4
40
0
40
0
40
0
40
0
40
1
40
1
40
1
40
1
41
1
10
34.3863166067351
20
12.4729241719908
30
0
41
1
10
34.3520743031073
20
12.5794256084959
30
0
41
1
10
34.3175699355043
20
12.6858026913562
30
0
41
1
10
34.2826711249932
20
12.7919860670661
30
0
0
SPLINE
5
CA
100
AcDbEntity
8
1
62
256
6
ByLayer
370
18
48
1
60
0
100
AcDbSpline
70
4
71
3
72
12
73
8
40
0
40
0
40
0
40
0
40
0.476059608016418
40
0.476059608016418
40
0.927101084955916
40
0.927101084955916
40
1
40
1
40
1
40
1
41
1
10
34.3863166067351
20
11.6520758280091
30
0
41
1
10
34.4259653450257
20
11.7753925192418
30
0
41
1
10
34.4477674153748
20
11.9094300376509
30
0
41
1
10
34.4516467356135
20
12.1675797847067
30
0
41
1
10
34.4358013988408
20
12.2954089694763
30
0
41
1
10
34.3982187180424
20
12.4343511106478
30
0
41
1
10
34.3924830715351
20
12.4537450488073
30
0
41
1
10
34.3863166067351
20
12.4729241719908
30
0
0
SPLINE
5
CB
100
AcDbEntity
8
1
62
256
6
ByLayer
370
18
48
1
60
0
100
AcDbSpline
70
4
71
3
72
8
73
4
40
0
40
0
40
0
40
0
40
1
40
1
40
1
40
1
41
1
10
34.0909333748181
20
10.8875
30
0
41
1
10
34.1516577684963
20
11.0213480069636
30
0
41
1
10
34.2100885379482
20
11.1567484493401
30
0
41
1
10
34.2675682415351
20
11.2927148737263
30
0
0
SPLINE
5
CC
100
AcDbEntity
8
1
62
256
6
ByLayer
370
18
48
1
60
0
100
AcDbSpline
70
4
71
3
72
8
73
4
40
0
40
0
40
0
40
0
40
1
40
1
40
1
40
1
41
1
10
34.2675682415351
20
12.8322851262737
30
0
41
1
10
34.2100885379482
20
12.9682515506599
30
0
41
1
10
34.1516577684963
20
13.1036519930364
30
0
41
1
10
34.0909333748181
20
13.2375
30
0
0
SPLINE
5
CD
100
AcDbEntity
8
1
62
256
6
ByLayer
370
18
48
1
60
0
100
AcDbSpline
70
4
71
3
72
14
73
10
40
0
40
0
40
0
40
0
40
0.281038222380437
40
0.281038222380437
40
0.564557857067087
40
0.564557857067087
40
0.820700196130107
40
0.820700196130107
40
1
40
1
40
1
40
1
41
1
10
12.9078822958329
20
8.38108262808876
30
0
41
1
10
12.8813006245732
20
8.40841236906996
30
0
41
1
10
12.849043969095
20
8.43186552453594
30
0
41
1
10
12.777235194489
20
8.46607486042694
30
0
41
1
10
12.7364720760798
20
8.47718475904486
30
0
41
1
10
12.6571729147492
20
8.48284868557423
30
0
41
1
10
12.6175924873016
20
8.47891172564306
30
0
41
1
10
12.5539176730122
20
8.46061543464566
30
0
41
1
10
12.5281706327858
20
8.44960329846342
30
0
41
1
10
12.5044231104048
20
8.43568105833975
30
0
0
SPLINE
5
CE
100
AcDbEntity
8
1
62
256
6
ByLayer
370
18
48
1
60
0
100
AcDbSpline
70
4
71
3
72
16
73
12
40
0
40
0
40
0
40
0
40
0.064596506417145
40
0.064596506417145
40
0.28274732050031
40
0.28274732050031
40
0.503851581407188
40
0.503851581407188
40
0.739476498257838
40
0.739476498257838
40
1
40
1
40
1
40
1
41
1
10
12.5044231104048
20
5.03931894166024
30
0
41
1
10
12.513014252084
20
5.03428229255323
30
0
41
1
10
12.5218448367852
20
5.02962938535529
30
0
41
1
10
12.5610594082809
20
5.01118168672818
30
0
41
1
10
12.5937837130779
20
5.00156309176435
30
0
41
1
10
12.6593454694517
20
4.99254045000001
30
0
41
1
10
12.6930080641066
20
4.99313466137721
30
0
41
1
10
12.7588630387573
20
5.00396811424017
30
0
41
1
10
12.7916435993958
20
5.01493762071362
30
0
41
1
10
12.8537963059871
20
5.04661494646933
30
0
41
1
10
12.8832521428563
20
5.06859406945219
30
0
41
1
10
12.9078822958328
20
5.09391737191123
30
0
0
SPLINE
5
CF
100
AcDbEntity
8
1
62
256
6
ByLayer
370
18
48
1
60
0
100
AcDbSpline
70
4
71
3
72
18
73
14
40
0
40
0
40
0
40
0
40
0.21308126200062
40
0.21308126200062
40
0.387160943926352
40
0.387160943926352
40
0.562948999942023
40
0.562948999942023
40
0.715638435810383
40
0.715638435810383
40
0.919170953808143
40
0.919170953808143
40
1
40
1
40
1
40
1
41
1
10
14.6474510335849
20
8.06565233797858
30
0
41
1
10
14.6253499966636
20
7.98310260339753
30
0
41
1
10
14.6155116663086
20
7.89429631718775
30
0
41
1
10
14.625005262533
20
7.73055916469971
30
0
41
1
10
14.6396283941554
20
7.6542307174995
30
0
41
1
10
14.6907914435921
20
7.50703000919165
30
0
41
1
10
14.7285222509958
20
7.4341114249892
30
0
41
1
10
14.8147745125081
20
7.31406872419493
30
0
41
1
10
14.8621656692505
20
7.26332306339134
30
0
41
1
10
14.980308930509
20
7.1637092090028
30
0
41
1
10
15.0554527440065
20
7.11912477171271
30
0
41
1
10
15.1631437334956
20
7.07501928382183
30
0
41
1
10
15.1945032391403
20
7.06435984363915
30
0
41
1
10
15.2260954401444
20
7.05566196954683
30
0
0
SPLINE
5
D0
100
AcDbEntity
8
1
62
256
6
ByLayer
370
18
48
1
60
0
100
AcDbSpline
70
4
71
3
72
18
73
14
40
0
40
0
40
0
40
0
40
0.213081026856099
40
0.213081026856099
40
0.387160750704737
40
0.387160750704737
40
0.562948851464623
40
0.562948851464623
40
0.715638295683679
40
0.715638295683679
40
0.919170771668899
40
0.919170771668899
40
1
40
1
40
1
40
1
41
1
10
11.7739045598557
20
7.05566196954683
30
0
41
1
10
11.8562959735259
20
7.07834573704687
30
0
41
1
10
11.9378828610424
20
7.11477251302654
30
0
41
1
10
12.0743337817465
20
7.20577305590376
30
0
41
1
10
12.1327849506205
20
7.25699151673359
30
0
41
1
10
12.2338958570924
20
7.37557608788609
30
0
41
1
10
12.2777186157693
20
7.4450044896993
30
0
41
1
10
12.3376543890653
20
7.58012448640653
30
0
41
1
10
12.3574632867377
20
7.64667260736039
30
0
41
1
10
12.3836465356628
20
7.79897226392114
30
0
41
1
10
12.3841042679144
20
7.88634590366797
30
0
41
1
10
12.3676879551153
20
8.00155511685176
30
0
41
1
10
12.3610234078263
20
8.03399939374313
30
0
41
1
10
12.3525489664152
20
8.06565233797858
30
0
0
SPLINE
5
D1
100
AcDbEntity
8
1
62
256
6
ByLayer
370
18
48
1
60
0
100
AcDbSpline
70
4
71
3
72
14
73
10
40
0
40
0
40
0
40
0
40
0.285014780844602
40
0.285014780844602
40
0.572350605982619
40
0.572350605982619
40
0.832166772861829
40
0.832166772861829
40
1
40
1
40
1
40
1
41
1
10
12.3525489664152
20
5.40934766202142
30
0
41
1
10
12.3427455383358
20
5.37273081056722
30
0
41
1
10
12.339100800866
20
5.33322860790562
30
0
41
1
10
12.3463060087591
20
5.25444876124888
30
0
41
1
10
12.3574570886555
20
5.21395975174144
30
0
41
1
10
12.3927012508891
20
5.14322535847501
30
0
41
1
10
12.4160474129793
20
5.1113320646956
30
0
41
1
10
12.4622449161042
20
5.06745856248682
30
0
41
1
10
12.4826741516866
20
5.05206950236536
30
0
41
1
10
12.5044231104048
20
5.03931894166024
30
0
0
SPLINE
5
D2
100
AcDbEntity
8
1
62
256
6
ByLayer
370
18
48
1
60
0
100
AcDbSpline
70
4
71
3
72
14
73
10
40
0
40
0
40
0
40
0
40
0.285013984727069
40
0.285013984727069
40
0.572349910643087
40
0.572349910643087
40
0.832166158509338
40
0.832166158509338
40
1
40
1
40
1
40
1
41
1
10
15.2260954401444
20
6.41933803045316
30
0
41
1
10
15.2626420033309
20
6.42939992531964
30
0
41
1
10
15.298562913688
20
6.44623402413134
30
0
41
1
10
15.3628804284092
20
6.49229289787499
30
0
41
1
10
15.392169726513
20
6.52239014603086
30
0
41
1
10
15.4353659032994
20
6.58856868226846
30
0
41
1
10
15.4510721564614
20
6.62483905406572
30
0
41
1
10
15.4655563481769
20
6.68688189848254
30
0
41
1
10
15.4685
20
6.7122889183342
30
0
41
1
10
15.4685
20
6.73749999999998
30
0
0
SPLINE
5
D3
100
AcDbEntity
8
1
62
256
6
ByLayer
370
18
48
1
60
0
100
AcDbSpline
70
4
71
3
72
16
73
12
40
0
40
0
40
0
40
0
40
0.0645965064171544
40
0.0645965064171544
40
0.282747320500323
40
0.282747320500323
40
0.503851581407208
40
0.503851581407208
40
0.739476498257866
40
0.739476498257866
40
1
40
1
40
1
40
1
41
1
10
14.4955768895952
20
8.43568105833978
30
0
41
1
10
14.486985747916
20
8.44071770744679
30
0
41
1
10
14.4781551632148
20
8.4453706146447
30
0
41
1
10
14.4389405917191
20
8.46381831327182
30
0
41
1
10
14.4062162869221
20
8.47343690823564
30
0
41
1
10
14.3406545305483
20
8.48245954999999
30
0
41
1
10
14.3069919358934
20
8.48186533862278
30
0
41
1
10
14.2411369612427
20
8.47103188575983
30
0
41
1
10
14.2083564006043
20
8.46006237928637
30
0
41
1
10
14.1462036940129
20
8.42838505353066
30
0
41
1
10
14.1167478571437
20
8.40640593054778
30
0
41
1
10
14.0921177041672
20
8.38108262808876
30
0
0
SPLINE
5
D4
100
AcDbEntity
8
1
62
256
6
ByLayer
370
18
48
1
60
0
100
AcDbSpline
70
4
71
3
72
16
73
12
40
0
40
0
40
0
40
0
40
0.0660777514109294
40
0.0660777514109294
40
0.289232858199906
40
0.289232858199906
40
0.515409129607302
40
0.515409129607302
40
0.75643912779139
40
0.75643912779139
40
1
40
1
40
1
40
1
41
1
10
11.5315
20
6.73750000000001
30
0
41
1
10
11.5315
20
6.72754139325588
30
0
41
1
10
11.5319521370927
20
6.71757030370827
30
0
41
1
10
11.535870606949
20
6.67441084850117
30
0
41
1
10
11.5441232851388
20
6.64131566754511
30
0
41
1
10
11.5694977332366
20
6.58019374350101
30
0
41
1
10
11.5870353182329
20
6.55145428574576
30
0
41
1
10
11.6296874761397
20
6.50012170141611
30
0
41
1
10
11.6557295062842
20
6.47739049739565
30
0
41
1
10
11.7118903369799
20
6.44145746063228
30
0
41
1
10
11.742638287392
20
6.42794617083533
30
0
41
1
10
11.7739045598557
20
6.41933803045316
30
0
0
SPLINE
5
D5
100
AcDbEntity
8
1
62
256
6
ByLayer
370
18
48
1
60
0
100
AcDbSpline
70
4
71
3
72
10
73
6
40
0
40
0
40
0
40
0
40
0.479736826302617
40
0.479736826302617
40
1
40
1
40
1
40
1
41
1
10
13.3472587066236
20
5.32976206370017
30
0
41
1
10
13.2634717620859
20
5.31399655923136
30
0
41
1
10
13.1831344436619
20
5.28504978087923
30
0
41
1
10
13.0347803935531
20
5.20612630548257
30
0
41
1
10
12.9658766441957
20
5.15354381539737
30
0
41
1
10
12.9078822958329
20
5.09391737191123
30
0
0
SPLINE
5
D6
100
AcDbEntity
8
1
62
256
6
ByLayer
370
18
48
1
60
0
100
AcDbSpline
70
4
71
3
72
14
73
10
40
0
40
0
40
0
40
0
40
0.28103822238042
40
0.28103822238042
40
0.564557857067076
40
0.564557857067076
40
0.8207001961301
40
0.8207001961301
40
1
40
1
40
1
40
1
41
1
10
14.0921177041672
20
5.09391737191123
30
0
41
1
10
14.1186993754269
20
5.06658763093003
30
0
41
1
10
14.150956030905
20
5.04313447546409
30
0
41
1
10
14.222764805511
20
5.00892513957305
30
0
41
1
10
14.2635279239202
20
4.99781524095513
30
0
41
1
10
14.3428270852508
20
4.9921513144258
30
0
41
1
10
14.3824075126984
20
4.99608827435691
30
0
41
1
10
14.4460823269879
20
5.01438456535433
30
0
41
1
10
14.4718293672142
20
5.02539670153658
30
0
41
1
10
14.4955768895952
20
5.03931894166021
30
0
0
SPLINE
5
D7
100
AcDbEntity
8
1
62
256
6
ByLayer
370
18
48
1
60
0
100
AcDbSpline
70
4
71
3
72
14
73
10
40
0
40
0
40
0
40
0
40
0.285014780844639
40
0.285014780844639
40
0.572350605982624
40
0.572350605982624
40
0.832166772861856
40
0.832166772861856
40
1
40
1
40
1
40
1
41
1
10
14.6474510335849
20
8.06565233797858
30
0
41
1
10
14.6572544616642
20
8.10226918943278
30
0
41
1
10
14.6608991991341
20
8.1417713920944
30
0
41
1
10
14.653693991241
20
8.22055123875114
30
0
41
1
10
14.6425429113445
20
8.26104024825858
30
0
41
1
10
14.6072987491109
20
8.33177464152499
30
0
41
1
10
14.5839525870207
20
8.36366793530439
30
0
41
1
10
14.5377550838958
20
8.40754143751317
30
0
41
1
10
14.5173258483135
20
8.42293049763464
30
0
41
1
10
14.4955768895952
20
8.43568105833978
30
0
0
SPLINE
5
D8
100
AcDbEntity
8
1
62
256
6
ByLayer
370
18
48
1
60
0
100
AcDbSpline
70
4
71
3
72
10
73
6
40
0
40
0
40
0
40
0
40
0.54178154691776
40
0.54178154691776
40
1
40
1
40
1
40
1
41
1
10
14.0921177041672
20
5.09391737191123
30
0
41
1
10
14.0317893524551
20
5.15594350300012
30
0
41
1
10
13.9595938121995
20
5.21038232231524
30
0
41
1
10
13.8098326867735
20
5.28757770475877
30
0
41
1
10
13.7328667479517
20
5.31468551186811
30
0
41
1
10
13.6527412933765
20
5.32976206370017
30
0
0
SPLINE
5
D9
100
AcDbEntity
8
1
62
256
6
ByLayer
370
18
48
1
60
0
100
AcDbSpline
70
4
71
3
72
14
73
10
40
0
40
0
40
0
40
0
40
0.285013984727061
40
0.285013984727061
40
0.572349910643084
40
0.572349910643084
40
0.832166158509303
40
0.832166158509303
40
1
40
1
40
1
40
1
41
1
10
11.7739045598557
20
7.05566196954683
30
0
41
1
10
11.7373579966691
20
7.04560007468038
30
0
41
1
10
11.701437086312
20
7.02876597586865
30
0
41
1
10
11.6371195715909
20
6.982707102125
30
0
41
1
10
11.6078302734871
20
6.95260985396914
30
0
41
1
10
11.5646340967007
20
6.88643131773156
30
0
41
1
10
11.5489278435387
20
6.85016094593428
30
0
41
1
10
11.5344436518232
20
6.78811810151745
30
0
41
1
10
11.5315
20
6.7627110816658
30
0
41
1
10
11.5315
20
6.73750000000001
30
0
0
SPLINE
5
DA
100
AcDbEntity
8
1
62
256
6
ByLayer
370
18
48
1
60
0
100
AcDbSpline
70
4
71
3
72
18
73
14
40
0
40
0
40
0
40
0
40
0.213081026856086
40
0.213081026856086
40
0.387160750704723
40
0.387160750704723
40
0.562948851464619
40
0.562948851464619
40
0.71563829568367
40
0.71563829568367
40
0.919170771668888
40
0.919170771668888
40
1
40
1
40
1
40
1
41
1
10
15.2260954401444
20
6.41933803045316
30
0
41
1
10
15.1437040264742
20
6.39665426295315
30
0
41
1
10
15.0621171389576
20
6.36022748697346
30
0
41
1
10
14.9256662182536
20
6.26922694409626
30
0
41
1
10
14.8672150493796
20
6.21800848326643
30
0
41
1
10
14.7661041429076
20
6.09942391211391
30
0
41
1
10
14.7222813842307
20
6.02999551030072
30
0
41
1
10
14.6623456109347
20
5.89487551359346
30
0
41
1
10
14.6425367132624
20
5.82832739263964
30
0
41
1
10
14.6163534643372
20
5.67602773607885
30
0
41
1
10
14.6158957320857
20
5.58865409633205
30
0
41
1
10
14.6323120448847
20
5.47344488314826
30
0
41
1
10
14.6389765921737
20
5.44100060625686
30
0
41
1
10
14.6474510335849
20
5.40934766202142
30
0
0
SPLINE
5
DB
100
AcDbEntity
8
1
62
256
6
ByLayer
370
18
48
1
60
0
100
AcDbSpline
70
4
71
3
72
10
73
6
40
0
40
0
40
0
40
0
40
0.541781546918623
40
0.541781546918623
40
1
40
1
40
1
40
1
41
1
10
12.9078822958329
20
8.38108262808876
30
0
41
1
10
12.9682106475449
20
8.31905649699988
30
0
41
1
10
13.0404061878006
20
8.26461767768475
30
0
41
1
10
13.1901673132266
20
8.18742229524125
30
0
41
1
10
13.2671332520483
20
8.16031448813189
30
0
41
1
10
13.3472587066236
20
8.14523793629982
30
0
0
SPLINE
5
DC
100
AcDbEntity
8
1
62
256
6
ByLayer
370
18
48
1
60
0
100
AcDbSpline
70
4
71
3
72
18
73
14
40
0
40
0
40
0
40
0
40
0.213081262000625
40
0.213081262000625
40
0.38716094392635
40
0.38716094392635
40
0.562948999942015
40
0.562948999942015
40
0.71563843581038
40
0.71563843581038
40
0.91917095380814
40
0.91917095380814
40
1
40
1
40
1
40
1
41
1
10
12.3525489664152
20
5.40934766202142
30
0
41
1
10
12.3746500033365
20
5.49189739660247
30
0
41
1
10
12.3844883336915
20
5.58070368281224
30
0
41
1
10
12.374994737467
20
5.74444083530028
30
0
41
1
10
12.3603716058447
20
5.82076928250049
30
0
41
1
10
12.309208556408
20
5.96796999080834
30
0
41
1
10
12.2714777490042
20
6.04088857501077
30
0
41
1
10
12.185225487492
20
6.16093127580507
30
0
41
1
10
12.1378343307496
20
6.21167693660865
30
0
41
1
10
12.0196910694911
20
6.31129079099722
30
0
41
1
10
11.9445472559936
20
6.35587522828732
30
0
41
1
10
11.8368562665044
20
6.39998071617819
30
0
41
1
10
11.8054967608598
20
6.41064015636084
30
0
41
1
10
11.7739045598557
20
6.41933803045316
30
0
0
SPLINE
5
DD
100
AcDbEntity
8
1
62
256
6
ByLayer
370
18
48
1
60
0
100
AcDbSpline
70
4
71
3
72
16
73
12
40
0
40
0
40
0
40
0
40
0.0517235387678941
40
0.0517235387678941
40
0.27509867752204
40
0.27509867752204
40
0.500660612380073
40
0.500660612380073
40
0.740399911602643
40
0.740399911602643
40
1
40
1
40
1
40
1
41
1
10
14.4955768895952
20
5.03931894166021
30
0
41
1
10
14.5023126525051
20
5.04326785503079
30
0
41
1
10
14.5089132100844
20
5.04745931531201
30
0
41
1
10
14.5429215049886
20
5.07078770141652
30
0
41
1
10
14.567814066225
20
5.0942220585583
30
0
41
1
10
14.6087337148404
20
5.14630290918194
30
0
41
1
10
14.6252135093438
20
5.17564489029596
30
0
41
1
10
14.6490799914639
20
5.23785577266239
30
0
41
1
10
14.6561625753257
20
5.27159614897025
30
0
41
1
10
14.6602113511054
20
5.34031279238152
30
0
41
1
10
14.6563795299009
20
5.37599877419694
30
0
41
1
10
14.6474510335849
20
5.40934766202142
30
0
0
SPLINE
5
DE
100
AcDbEntity
8
1
62
256
6
ByLayer
370
18
48
1
60
0
100
AcDbSpline
70
4
71
3
72
16
73
12
40
0
40
0
40
0
40
0
40
0.0660777514108854
40
0.0660777514108854
40
0.289232858199881
40
0.289232858199881
40
0.515409129607253
40
0.515409129607253
40
0.756439127791255
40
0.756439127791255
40
1
40
1
40
1
40
1
41
1
10
15.4685
20
6.73749999999998
30
0
41
1
10
15.4685
20
6.74745860674412
30
0
41
1
10
15.4680478629074
20
6.75742969629172
30
0
41
1
10
15.4641293930511
20
6.8005891514988
30
0
41
1
10
15.4558767148613
20
6.83368433245488
30
0
41
1
10
15.4305022667635
20
6.89480625649898
30
0
41
1
10
15.4129646817672
20
6.92354571425423
30
0
41
1
10
15.3703125238604
20
6.97487829858389
30
0
41
1
10
15.3442704937159
20
6.99760950260435
30
0
41
1
10
15.2881096630202
20
7.03354253936772
30
0
41
1
10
15.257361712608
20
7.04705382916467
30
0
41
1
10
15.2260954401444
20
7.05566196954683
30
0
0
SPLINE
5
DF
100
AcDbEntity
8
1
62
256
6
ByLayer
370
18
48
1
60
0
100
AcDbSpline
70
4
71
3
72
10
73
6
40
0
40
0
40
0
40
0
40
0.479736826236781
40
0.479736826236781
40
1
40
1
40
1
40
1
41
1
10
13.6527412933765
20
8.14523793629982
30
0
41
1
10
13.7365282379028
20
8.16100344076651
30
0
41
1
10
13.8168655563164
20
8.18995021911283
30
0
41
1
10
13.9652196064295
20
8.26887369450421
30
0
41
1
10
14.0341233557971
20
8.32145618459518
30
0
41
1
10
14.0921177041672
20
8.38108262808873
30
0
0
SPLINE
5
E0
100
AcDbEntity
8
1
62
256
6
ByLayer
370
18
48
1
60
0
100
AcDbSpline
70
4
71
3
72
16
73
12
40
0
40
0
40
0
40
0
40
0.0517235387679022
40
0.0517235387679022
40
0.275098677522066
40
0.275098677522066
40
0.500660612380071
40
0.500660612380071
40
0.740399911602626
40
0.740399911602626
40
1
40
1
40
1
40
1
41
1
10
12.5044231104048
20
8.43568105833975
30
0
41
1
10
12.4976873474949
20
8.43173214496917
30
0
41
1
10
12.4910867899157
20
8.42754068468795
30
0
41
1
10
12.4570784950114
20
8.40421229858347
30
0
41
1
10
12.432185933775
20
8.38077794144166
30
0
41
1
10
12.3912662851596
20
8.32869709081803
30
0
41
1
10
12.3747864906562
20
8.29935510970401
30
0
41
1
10
12.3509200085361
20
8.23714422733761
30
0
41
1
10
12.3438374246744
20
8.20340385102975
30
0
41
1
10
12.3397886488947
20
8.13468720761847
30
0
41
1
10
12.3436204700992
20
8.09900122580305
30
0
41
1
10
12.3525489664152
20
8.06565233797858
30
0
0
LINE
5
73
100
AcDbEntity
8
80
62
256
6
ByLayer
370
18
48
1
60
0
100
AcDbLine
10
0
20
0
30
0
11
-5
21
0
31
0
39
0
210
0
220
0
230
1
0
LINE
5
74
100
AcDbEntity
8
81
62
256
6
ByLayer
370
18
48
1
60
0
100
AcDbLine
10
41
20
13.5625
30
0
11
46
21
13.5625
31
0
39
0
210
0
220
0
230
1
0
LINE
5
75
100
AcDbEntity
8
1
62
256
6
ByLayer
370
18
48
1
60
0
100
AcDbLine
10
34.090908
20
13.2375
30
0
11
34.900012
21
13.2375
31
0
39
0
210
0
220
0
230
1
0
LINE
5
77
100
AcDbEntity
8
1
62
256
6
ByLayer
370
18
48
1
60
0
100
AcDbLine
10
24.195897
20
13.2375
30
0
11
34.090933
21
13.2375
31
0
39
0
210
0
220
0
230
1
0
LINE
5
78
100
AcDbEntity
8
1
62
256
6
ByLayer
370
18
48
1
60
0
100
AcDbLine
10
34.900012
20
13.2375
30
0
11
37.186377
21
13.2375
31
0
39
0
210
0
220
0
230
1
0
LINE
5
79
100
AcDbEntity
8
1
62
256
6
ByLayer
370
18
48
1
60
0
100
AcDbLine
10
19.5
20
9.2875
30
0
11
19.5
21
1.7375
31
0
39
0
210
0
220
0
230
1
0
LINE
5
7A
100
AcDbEntity
8
1
62
256
6
ByLayer
370
18
48
1
60
0
100
AcDbLine
10
0.5
20
12.9375
30
0
11
0
21
12.4375
31
0
39
0
210
0
220
0
230
1
0
LINE
5
7B
100
AcDbEntity
8
1
62
256
6
ByLayer
370
18
48
1
60
0
100
AcDbLine
10
2.650292
20
13.2375
30
0
11
2.650292
21
-12.474698
31
0
39
0
210
0
220
0
230
1
0
LINE
5
7C
100
AcDbEntity
8
1
62
256
6
ByLayer
370
18
48
1
60
0
100
AcDbLine
10
34.090908
20
10.8875
30
0
11
34.900012
21
10.8875
31
0
39
0
210
0
220
0
230
1
0
LINE
5
7D
100
AcDbEntity
8
1
62
256
6
ByLayer
370
18
48
1
60
0
100
AcDbLine
10
24.195897
20
13.2375
30
0
11
2.650292
21
13.2375
31
0
39
0
210
0
220
0
230
1
0
LINE
5
7E
100
AcDbEntity
8
1
62
256
6
ByLayer
370
18
48
1
60
0
100
AcDbLine
10
2.650292
20
-12.474698
30
0
11
9.021655
21
-12.474698
31
0
39
0
210
0
220
0
230
1
0
LINE
5
7F
100
AcDbEntity
8
1
62
256
6
ByLayer
370
18
48
1
60
0
100
AcDbLine
10
0
20
-12.4375
30
0
11
0
21
12.4375
31
0
39
0
210
0
220
0
230
1
0
LINE
5
80
100
AcDbEntity
8
1
62
256
6
ByLayer
370
18
48
1
60
0
100
AcDbLine
10
0.5
20
12.9375
30
0
11
0.5
21
-12.439682
31
0
39
0
210
0
220
0
230
1
0
LINE
5
81
100
AcDbEntity
8
1
62
256
6
ByLayer
370
18
48
1
60
0
100
AcDbLine
10
0.580385
20
13.2375
30
0
11
0.5
21
12.9375
31
0
39
0
210
0
220
0
230
1
0
LINE
5
82
100
AcDbEntity
8
1
62
256
6
ByLayer
370
18
48
1
60
0
100
AcDbLine
10
24.195897
20
10.8875
30
0
11
24.195897
21
13.2375
31
0
39
0
210
0
220
0
230
1
0
LINE
5
83
100
AcDbEntity
8
1
62
256
6
ByLayer
370
18
48
1
60
0
100
AcDbLine
10
0.580385
20
13.2375
30
0
11
2.650292
21
13.2375
31
0
39
0
210
0
220
0
230
1
0
LINE
5
84
100
AcDbEntity
8
1
62
256
6
ByLayer
370
18
48
1
60
0
100
AcDbLine
10
34.900011
20
10.912503
30
0
11
34.900012
21
10.8875
31
0
39
0
210
0
220
0
230
1
0
LINE
5
85
100
AcDbEntity
8
1
62
256
6
ByLayer
370
18
48
1
60
0
100
AcDbLine
10
24.195897
20
10.8875
30
0
11
21.1
21
10.8875
31
0
39
0
210
0
220
0
230
1
0
LINE
5
86
100
AcDbEntity
8
1
62
256
6
ByLayer
370
18
48
1
60
0
100
AcDbLine
10
34.900012
20
10.8875
30
0
11
37.186377
21
10.8875
31
0
39
0
210
0
220
0
230
1
0
LINE
5
87
100
AcDbEntity
8
1
62
256
6
ByLayer
370
18
48
1
60
0
100
AcDbLine
10
0.5
20
-12.439682
30
0
11
2.650292
21
-12.474698
31
0
39
0
210
0
220
0
230
1
0
LINE
5
88
100
AcDbEntity
8
1
62
256
6
ByLayer
370
18
48
1
60
0
100
AcDbLine
10
24.195897
20
10.8875
30
0
11
34.090933
21
10.8875
31
0
39
0
210
0
220
0
230
1
0
LINE
5
89
100
AcDbEntity
8
1
62
256
6
ByLayer
370
18
48
1
60
0
100
AcDbLine
10
0.5
20
-12.439682
30
0
11
0
21
-12.4375
31
0
39
0
210
0
220
0
230
1
0
LINE
5
8A
100
AcDbEntity
8
1
62
256
6
ByLayer
370
18
48
1
60
0
100
AcDbLine
10
9.021655
20
-12.474698
30
0
11
19.5
21
1.7375
31
0
39
0
210
0
220
0
230
1
0
LINE
5
8B
100
AcDbEntity
8
1
62
256
6
ByLayer
370
18
48
1
60
0
100
AcDbLine
10
34.900012
20
13.2375
30
0
11
34.900011
21
13.212497
31
0
39
0
210
0
220
0
230
1
0
LINE
5
8C
100
AcDbEntity
8
SK1
62
256
6
ByLayer
370
18
48
1
60
0
100
AcDbLine
10
-110.35
20
12.4375
30
0
11
-110.35
21
-12.4375
31
0
39
0
210
0
220
0
230
1
0
LINE
5
8E
100
AcDbEntity
8
SK1
62
256
6
ByLayer
370
18
48
1
60
0
100
AcDbLine
10
-110.35
20
-12.4375
30
0
11
0
21
-12.4375
31
0
39
0
210
0
220
0
230
1
0
LINE
5
8F
100
AcDbEntity
8
SK1
62
256
6
ByLayer
370
18
48
1
60
0
100
AcDbLine
10
0
20
12.4375
30
0
11
0
21
-12.4375
31
0
39
0
210
0
220
0
230
1
0
LINE
5
90
100
AcDbEntity
8
SK1
62
256
6
ByLayer
370
18
48
1
60
0
100
AcDbLine
10
0
20
12.4375
30
0
11
-110.35
21
12.4375
31
0
39
0
210
0
220
0
230
1
0
LINE
5
91
100
AcDbEntity
8
1
62
256
6
ByLayer
370
18
48
1
60
0
100
AcDbLine
10
35.018406
20
13.2125
30
0
11
34.101707
21
13.2125
31
0
39
0
210
0
220
0
230
1
0
LINE
5
92
100
AcDbEntity
8
1
62
256
6
ByLayer
370
18
48
1
60
0
100
AcDbLine
10
34.177429
20
13.038949
30
0
11
35.018406
21
13.038949
31
0
39
0
210
0
220
0
230
1
0
LINE
5
93
100
AcDbEntity
8
1
62
256
6
ByLayer
370
18
48
1
60
0
100
AcDbLine
10
34.199811
20
12.987646
30
0
11
35.027452
21
12.987646
31
0
39
0
210
0
220
0
230
1
0
LINE
5
94
100
AcDbEntity
8
1
62
256
6
ByLayer
370
18
48
1
60
0
100
AcDbLine
10
34.199811
20
11.137354
30
0
11
35.027452
21
11.137354
31
0
39
0
210
0
220
0
230
1
0
LINE
5
95
100
AcDbEntity
8
1
62
256
6
ByLayer
370
18
48
1
60
0
100
AcDbLine
10
34.177429
20
11.086051
30
0
11
35.018406
21
11.086051
31
0
39
0
210
0
220
0
230
1
0
LINE
5
96
100
AcDbEntity
8
1
62
256
6
ByLayer
370
18
48
1
60
0
100
AcDbLine
10
35.018406
20
10.9125
30
0
11
34.101707
21
10.9125
31
0
39
0
210
0
220
0
230
1
0
LINE
5
97
100
AcDbEntity
8
1
62
256
6
ByLayer
370
18
48
1
60
0
100
AcDbLine
10
34.425954
20
12.23351
30
0
11
35.301935
21
12.23351
31
0
39
0
210
0
220
0
230
1
0
LINE
5
98
100
AcDbEntity
8
1
62
256
6
ByLayer
370
18
48
1
60
0
100
AcDbLine
10
34.425147
20
11.89149
30
0
11
35.301935
21
11.89149
31
0
39
0
210
0
220
0
230
1
0
LINE
5
99
100
AcDbEntity
8
1
62
256
6
ByLayer
370
18
48
1
60
0
100
AcDbLine
10
24.81369
20
10.8875
30
0
11
24.5
21
10.706391
31
0
39
0
210
0
220
0
230
1
0
LINE
5
9A
100
AcDbEntity
8
1
62
256
6
ByLayer
370
18
48
1
60
0
100
AcDbLine
10
24.81369
20
13.2375
30
0
11
24.5
21
13.418609
31
0
39
0
210
0
220
0
230
1
0
LINE
5
9B
100
AcDbEntity
8
1
62
256
6
ByLayer
370
18
48
1
60
0
100
AcDbLine
10
21
20
10.7625
30
0
11
21
21
10.884375
31
0
39
0
210
0
220
0
230
1
0
LINE
5
9C
100
AcDbEntity
8
1
62
256
6
ByLayer
370
18
48
1
60
0
100
AcDbLine
10
21
20
13.237497
30
0
11
21
21
13.3625
31
0
39
0
210
0
220
0
230
1
0
LINE
5
9D
100
AcDbEntity
8
1
62
256
6
ByLayer
370
18
48
1
60
0
100
AcDbLine
10
21.208724
20
13.56231
30
0
11
24.5
21
13.418609
31
0
39
0
210
0
220
0
230
1
0
LINE
5
9E
100
AcDbEntity
8
1
62
256
6
ByLayer
370
18
48
1
60
0
100
AcDbLine
10
40.791276
20
10.56269
30
0
11
37.5
21
10.706391
31
0
39
0
210
0
220
0
230
1
0
LINE
5
9F
100
AcDbEntity
8
1
62
256
6
ByLayer
370
18
48
1
60
0
100
AcDbLine
10
35.018406
20
10.9125
30
0
11
36.2
21
10.9125
31
0
39
0
210
0
220
0
230
1
0
LINE
5
A0
100
AcDbEntity
8
1
62
256
6
ByLayer
370
18
48
1
60
0
100
AcDbLine
10
35.018406
20
11.086051
30
0
11
35.018406
21
10.9125
31
0
39
0
210
0
220
0
230
1
0
LINE
5
A1
100
AcDbEntity
8
1
62
256
6
ByLayer
370
18
48
1
60
0
100
AcDbLine
10
36.2
20
10.9125
30
0
11
37.143008
21
10.9125
31
0
39
0
210
0
220
0
230
1
0
LINE
5
A2
100
AcDbEntity
8
1
62
256
6
ByLayer
370
18
48
1
60
0
100
AcDbLine
10
37.143008
20
10.9125
30
0
11
37.5
21
10.706391
31
0
39
0
210
0
220
0
230
1
0
LINE
5
A3
100
AcDbEntity
8
1
62
256
6
ByLayer
370
18
48
1
60
0
100
AcDbLine
10
35.027452
20
11.137354
30
0
11
35.301935
21
11.89149
31
0
39
0
210
0
220
0
230
1
0
LINE
5
A4
100
AcDbEntity
8
1
62
256
6
ByLayer
370
18
48
1
60
0
100
AcDbLine
10
21.208724
20
10.56269
30
0
11
24.5
21
10.706391
31
0
39
0
210
0
220
0
230
1
0
LINE
5
A5
100
AcDbEntity
8
1
62
256
6
ByLayer
370
18
48
1
60
0
100
AcDbLine
10
35.018406
20
13.038949
30
0
11
35.018406
21
13.2125
31
0
39
0
210
0
220
0
230
1
0
LINE
5
A6
100
AcDbEntity
8
1
62
256
6
ByLayer
370
18
48
1
60
0
100
AcDbLine
10
35.027452
20
12.987646
30
0
11
35.301935
21
12.23351
31
0
39
0
210
0
220
0
230
1
0
LINE
5
A7
100
AcDbEntity
8
1
62
256
6
ByLayer
370
18
48
1
60
0
100
AcDbLine
10
36.2
20
13.2125
30
0
11
36.2
21
10.9125
31
0
39
0
210
0
220
0
230
1
0
LINE
5
A8
100
AcDbEntity
8
1
62
256
6
ByLayer
370
18
48
1
60
0
100
AcDbLine
10
41
20
10.7625
30
0
11
41
21
13.3625
31
0
39
0
210
0
220
0
230
1
0
LINE
5
A9
100
AcDbEntity
8
1
62
256
6
ByLayer
370
18
48
1
60
0
100
AcDbLine
10
40.791276
20
13.56231
30
0
11
37.5
21
13.418609
31
0
39
0
210
0
220
0
230
1
0
LINE
5
AA
100
AcDbEntity
8
1
62
256
6
ByLayer
370
18
48
1
60
0
100
AcDbLine
10
37.143008
20
13.2125
30
0
11
37.5
21
13.418609
31
0
39
0
210
0
220
0
230
1
0
LINE
5
AB
100
AcDbEntity
8
1
62
256
6
ByLayer
370
18
48
1
60
0
100
AcDbLine
10
35.018406
20
13.2125
30
0
11
36.2
21
13.2125
31
0
39
0
210
0
220
0
230
1
0
LINE
5
AC
100
AcDbEntity
8
1
62
256
6
ByLayer
370
18
48
1
60
0
100
AcDbLine
10
36.2
20
13.2125
30
0
11
37.143008
21
13.2125
31
0
39
0
210
0
220
0
230
1
0
MTEXT
5
E1
100
AcDbEntity
8
SK6
62
256
6
ByLayer
370
18
48
1
60
0
100
AcDbMText
10
-63.799987
20
-23.331099
30
0
210
0
220
0
230
1
1
\W0.7556;RF123G20-2525B
40
3.5
41
0
44
1.084337
50
0
71
7
72
5
7
iso_b_vert
0
DIMENSION
5
F2
100
AcDbEntity
8
2
62
256
6
ByLayer
370
13
48
1
60
0
100
AcDbDimension
2
DimnDraft3D1
10
55.25
20
13.5625
30
0
11
55.25
21
18.0625
31
0
70
32
71
5
72
1
41
1
210
0
220
0
230
1
3
Standard
100
AcDbAlignedDimension
13
42.5
23
10.5625
33
0
14
42.5
24
13.5625
34
0
50
90
100
AcDbRotatedDimension
1001
ACAD
1000
DSTYLE
1002
{
1070
    74
1070
     0
1070
   279
1070
     0
1070
   172
1070
     1
1070
   173
1070
     1
1070
   340
1005
E2
1070
   271
1070
     3
1070
   272
1070
     3
1070
    77
1070
     1
1070
    73
1070
     0
1070
   171
1070
     4
1070
   274
1070
     4
1070
   177
1070
     2
1070
   176
1070
     2
1070
   178
1070
     7
1070
    78
1070
     8
1070
    41
1041
3.0
1070
   147
1041
2.25
1070
    42
1041
1.5
1070
    44
1041
3.0
1070
   140
1041
4.5
1070
   343
1005
F3
1070
   344
1005
F3
1002
}
0
DIMENSION
5
107
100
AcDbEntity
8
2
62
256
6
ByLayer
370
13
48
1
60
0
100
AcDbDimension
2
DimnDraft3D2
10
65.25
20
-12.4375
30
0
11
65.25
21
-2.125658
31
0
70
32
71
5
72
1
41
1
210
0
220
0
230
1
3
Standard
100
AcDbAlignedDimension
13
42.5
23
13.5625
33
0
14
-3.5
24
-12.4375
34
0
50
90
100
AcDbRotatedDimension
1001
ACAD
1000
DSTYLE
1002
{
1070
    74
1070
     0
1070
   279
1070
     0
1070
   172
1070
     1
1070
   173
1070
     1
1070
   340
1005
E2
1070
   271
1070
     3
1070
   272
1070
     3
1070
    77
1070
     1
1070
    73
1070
     0
1070
   171
1070
     4
1070
   274
1070
     4
1070
   177
1070
     2
1070
   176
1070
     2
1070
   178
1070
     7
1070
    78
1070
     8
1070
    41
1041
3.0
1070
   147
1041
2.25
1070
    42
1041
1.5
1070
    44
1041
3.0
1070
   140
1041
4.5
1070
   343
1005
F3
1070
   344
1005
F3
1002
}
0
DIMENSION
5
116
100
AcDbEntity
8
SK2
62
256
6
ByLayer
370
13
48
1
60
0
100
AcDbDimension
2
DimnDraft3D3
10
-120.1
20
-12.4375
30
0
11
-120.1
21
-2.688158
31
0
70
32
71
5
72
1
41
1
210
0
220
0
230
1
3
Standard
100
AcDbAlignedDimension
13
-111.85
23
12.4375
33
0
14
-111.85
24
-12.4375
34
0
50
90
100
AcDbRotatedDimension
1001
ACAD
1000
DSTYLE
1002
{
1070
    74
1070
     0
1070
   279
1070
     0
1070
   172
1070
     1
1070
   173
1070
     1
1070
   340
1005
E2
1070
   271
1070
     3
1070
   272
1070
     3
1070
    77
1070
     1
1070
    73
1070
     0
1070
   171
1070
     4
1070
   274
1070
     4
1070
   177
1070
     2
1070
   176
1070
     2
1070
   178
1070
     7
1070
    78
1070
     8
1070
    41
1041
3.0
1070
   147
1041
2.25
1070
    42
1041
1.5
1070
    44
1041
3.0
1070
   140
1041
4.5
1070
   343
1005
F3
1070
   344
1005
F3
1002
}
0
DIMENSION
5
124
100
AcDbEntity
8
2
62
256
6
ByLayer
370
13
48
1
60
0
100
AcDbDimension
2
DimnDraft3D4
10
0
20
23.3125
30
0
11
18.1375
21
23.3125
31
0
70
32
71
5
72
1
41
1
210
0
220
0
230
1
3
Standard
100
AcDbAlignedDimension
13
41
23
15.0625
33
0
14
0
24
13.9375
34
0
50
0
100
AcDbRotatedDimension
1001
ACAD
1000
DSTYLE
1002
{
1070
   279
1070
     0
1070
   172
1070
     1
1070
   173
1070
     1
1070
   340
1005
E2
1070
   271
1070
     3
1070
   272
1070
     3
1070
    77
1070
     1
1070
    73
1070
     0
1070
   171
1070
     4
1070
   274
1070
     4
1070
   177
1070
     2
1070
   176
1070
     2
1070
   178
1070
     7
1070
    78
1070
     8
1070
    41
1041
3.0
1070
   147
1041
2.25
1070
    42
1041
1.5
1070
    44
1041
3.0
1070
   140
1041
4.5
1070
   343
1005
F3
1070
   344
1005
F3
1002
}
0
DIMENSION
5
132
100
AcDbEntity
8
SK2
62
256
6
ByLayer
370
13
48
1
60
0
100
AcDbDimension
2
DimnDraft3D5
10
-110.35
20
33.3125
30
0
11
-38.482237
21
33.3125
31
0
70
32
71
5
72
1
41
1
210
0
220
0
230
1
3
Standard
100
AcDbAlignedDimension
13
41
23
15.0625
33
0
14
-110.35
24
13.9375
34
0
50
0
100
AcDbRotatedDimension
1001
ACAD
1000
DSTYLE
1002
{
1070
   279
1070
     0
1070
   172
1070
     1
1070
   173
1070
     1
1070
   340
1005
E2
1070
   271
1070
     3
1070
   272
1070
     3
1070
    77
1070
     1
1070
    73
1070
     0
1070
   171
1070
     4
1070
   274
1070
     4
1070
   177
1070
     2
1070
   176
1070
     2
1070
   178
1070
     7
1070
    78
1070
     8
1070
    41
1041
3.0
1070
   147
1041
2.25
1070
    42
1041
1.5
1070
    44
1041
3.0
1070
   140
1041
4.5
1070
   343
1005
F3
1070
   344
1005
F3
1002
}
0
DIMENSION
5
140
100
AcDbEntity
8
2
62
256
6
ByLayer
370
13
48
1
60
0
100
AcDbDimension
2
DimnDraft3D6
10
41
20
-26.6875
30
0
11
28.311842
21
-26.6875
31
0
70
32
71
5
72
1
41
1
210
0
220
0
230
1
3
Standard
100
AcDbAlignedDimension
13
21
23
8.0625
33
0
14
41
24
9.0625
34
0
50
0
100
AcDbRotatedDimension
1001
ACAD
1000
DSTYLE
1002
{
1070
   279
1070
     0
1070
   172
1070
     1
1070
   173
1070
     1
1070
   340
1005
E2
1070
   271
1070
     3
1070
   272
1070
     3
1070
    77
1070
     1
1070
    73
1070
     0
1070
   171
1070
     4
1070
   274
1070
     4
1070
   177
1070
     2
1070
   176
1070
     2
1070
   178
1070
     7
1070
    78
1070
     8
1070
    41
1041
3.0
1070
   147
1041
2.25
1070
    42
1041
1.5
1070
    44
1041
3.0
1070
   140
1041
4.5
1070
   343
1005
F3
1070
   344
1005
F3
1002
}
0
ENDSEC
0
SECTION
2
OBJECTS
0
DICTIONARY
5
1aa
330
0
100
AcDbDictionary
280
0
281
1
3
ACAD_GROUP
350
1ab
3
ACAD_MLINESTYLE
350
1ac
0
DICTIONARY
5
1ab
330
0
100
AcDbDictionary
280
0
281
1
0
DICTIONARY
5
1ac
330
0
100
AcDbDictionary
280
0
281
1
3
Standard
350
18
0
MLINESTYLE
5
18
330
1ac
100
AcDbMlineStyle
2
Standard
70
0
3

62
256
51
90
52
90
71
2
49
-0.5
62
256
6
ByLayer
49
0.5
62
256
6
ByLayer
0
RASTERVARIABLES
5
199
330

100
AcDbRasterVariables
90
0
70
1
71
1
72
1
0
ENDSEC
0
EOF
