0
SECTION
2
HEADER
9
$ACADVER
1
AC1015
9
$DWGCODEPAGE
3
ANSI_1252
9
$HANDSEED
5
1c5
9
$ANGBASE
50
0
9
$ANGDIR
70
0
9
$ATTMODE
70
1
9
$AUNITS
70
0
9
$AUPREC
70
0
9
$CECOLOR
62
256
9
$CELTSCALE
40
1
9
$CELTYPE
6
ByLayer
9
$CELWEIGHT
370
18
9
$CLAYER
8
0
9
$CMLJUST
70
0
9
$CMLSCALE
40
1
9
$CMLSTYLE
2
Standard
9
$DIMSTYLE
2
Standard
9
$TEXTSIZE
40
0.2
9
$TEXTSTYLE
7
Standard
9
$LUNITS
70
2
9
$LUPREC
70
4
9
$EXTNAMES
290
1
9
$INSUNITS
70
4
9
$LTSCALE
40
1
9
$LWDISPLAY
290
1
9
$PDMODE
70
0
9
$PDSIZE
40
0
9
$PLINEGEN
70
0
0
ENDSEC
0
SECTION
2
CLASSES
0
CLASS
1
RASTERVARIABLES
2
AcDbRasterVariables
3
ISM
90
0
280
0
281
0
0
ENDSEC
0
SECTION
2
TABLES
0
TABLE
2
VPORT
5
1bb
100
AcDbSymbolTable
0
VPORT
5
1
100
AcDbSymbolTableRecord
100
AcDbViewportTableRecord
2
*Active
70
0
10
0
20
0
11
1
21
1
12
-1
22
1
13
0
23
0
14
0.5
24
0.5
15
10
25
10
16
0
26
0
36
1
17
0
27
0
37
0
0
ENDTAB
0
TABLE
2
LTYPE
5
1bc
100
AcDbSymbolTable
0
LTYPE
5
14
100
AcDbSymbolTableRecord
100
AcDbLinetypeTableRecord
70
0
2
ByBlock
3

72
65
73
0
40
0
0
LTYPE
5
15
100
AcDbSymbolTableRecord
100
AcDbLinetypeTableRecord
70
0
2
ByLayer
3

72
65
73
0
40
0
0
LTYPE
5
16
100
AcDbSymbolTableRecord
100
AcDbLinetypeTableRecord
70
0
2
CONTINUOUS
3
Solid line
72
65
73
0
40
0
0
LTYPE
5
6A
100
AcDbSymbolTableRecord
100
AcDbLinetypeTableRecord
70
0
2
CENTER
3
____ _ ____ _ ____ _ ____
72
65
73
4
40
47.5
49
22
74
0
49
-8.5
74
0
49
8.5
74
0
49
-8.5
74
0
0
LTYPE
5
6B
100
AcDbSymbolTableRecord
100
AcDbLinetypeTableRecord
70
0
2
DASHED
3
__ __ __ __ __ __ __ __ __
72
65
73
2
40
25.72
49
12.86
74
0
49
-12.86
74
0
0
ENDTAB
0
TABLE
2
LAYER
5
1bd
100
AcDbSymbolTable
0
LAYER
5
10
100
AcDbSymbolTableRecord
100
AcDbLayerTableRecord
2
0
70
0
62
7
6
CONTINUOUS
290
1
370
-3
390
0
0
LAYER
5
6D
100
AcDbSymbolTableRecord
100
AcDbLayerTableRecord
2
2
70
0
62
7
6
CONTINUOUS
290
1
370
-3
390
0
0
LAYER
5
6F
100
AcDbSymbolTableRecord
100
AcDbLayerTableRecord
2
80
70
0
62
-6
6
CONTINUOUS
290
1
370
-3
390
0
0
LAYER
5
72
100
AcDbSymbolTableRecord
100
AcDbLayerTableRecord
2
81
70
0
62
-3
6
CONTINUOUS
290
1
370
-3
390
0
0
LAYER
5
76
100
AcDbSymbolTableRecord
100
AcDbLayerTableRecord
2
1
70
0
62
4
6
CONTINUOUS
290
1
370
-3
390
0
0
LAYER
5
1a8
100
AcDbSymbolTableRecord
100
AcDbLayerTableRecord
2
SK1
70
0
62
4
6
CONTINUOUS
290
1
370
-3
390
0
0
LAYER
5
1a9
100
AcDbSymbolTableRecord
100
AcDbLayerTableRecord
2
SK6
70
0
62
5
6
CONTINUOUS
290
1
370
-3
390
0
0
LAYER
5
1aa
100
AcDbSymbolTableRecord
100
AcDbLayerTableRecord
2
SK2
70
0
62
7
6
CONTINUOUS
290
1
370
-3
390
0
0
ENDTAB
0
TABLE
2
STYLE
5
1be
100
AcDbSymbolTable
0
STYLE
5
11
100
AcDbSymbolTableRecord
100
AcDbTextStyleTableRecord
2
Standard
3
txt
70
0
71
0
40
0
41
1
42
0
50
0
0
STYLE
5
F0
100
AcDbSymbolTableRecord
100
AcDbTextStyleTableRecord
2
iso_b_vert
3
simplex.shx
70
0
71
0
40
0
41
1
42
0
50
0
0
STYLE
5
F1
100
AcDbSymbolTableRecord
100
AcDbTextStyleTableRecord
2
DWGDirectTextStyle
3
simplex
70
0
71
0
40
0
41
1
42
0
50
0
0
ENDTAB
0
TABLE
2
DIMSTYLE
5
1bf
100
AcDbSymbolTable
100
AcDbDimStyleTable
0
DIMSTYLE
105
27
100
AcDbSymbolTableRecord
100
AcDbDimStyleTableRecord
2
Standard
70
0
3
<>
41
0.18
42
0.0625
44
0.18
140
0.18
147
0.09
73
0
74
0
77
1
271
2
275
0
278
52
280
0
340
11
0
ENDTAB
0
TABLE
2
VIEW
5
1c0
100
AcDbSymbolTable
0
ENDTAB
0
TABLE
2
UCS
5
1c1
100
AcDbSymbolTable
0
ENDTAB
0
TABLE
2
APPID
5
1c2
100
AcDbSymbolTable
0
APPID
5
12
100
AcDbSymbolTableRecord
100
AcDbRegAppTableRecord
2
ACAD
70
0
0
ENDTAB
0
TABLE
2
BLOCK_RECORD
5
1c3
100
AcDbSymbolTable
0
BLOCK_RECORD
5
1F
100
AcDbSymbolTableRecord
100
AcDbBlockTableRecord
2
*Model_Space
340
0
70
0
0
BLOCK_RECORD
5
1B
100
AcDbSymbolTableRecord
100
AcDbBlockTableRecord
2
*Paper_Space
340
0
70
0
0
BLOCK_RECORD
5
23
100
AcDbSymbolTableRecord
100
AcDbBlockTableRecord
2
*Paper_Space0
340
0
70
0
0
BLOCK_RECORD
5
F3
100
AcDbSymbolTableRecord
100
AcDbBlockTableRecord
2
DimnDraft3D1
340
0
70
0
0
BLOCK_RECORD
5
101
100
AcDbSymbolTableRecord
100
AcDbBlockTableRecord
2
_CLOSED
340
0
70
0
0
BLOCK_RECORD
5
108
100
AcDbSymbolTableRecord
100
AcDbBlockTableRecord
2
DimnDraft3D2
340
0
70
0
0
BLOCK_RECORD
5
116
100
AcDbSymbolTableRecord
100
AcDbBlockTableRecord
2
DimnDraft3D3
340
0
70
0
0
BLOCK_RECORD
5
125
100
AcDbSymbolTableRecord
100
AcDbBlockTableRecord
2
DimnDraft3D4
340
0
70
0
0
BLOCK_RECORD
5
133
100
AcDbSymbolTableRecord
100
AcDbBlockTableRecord
2
DimnDraft3D5
340
0
70
0
0
BLOCK_RECORD
5
141
100
AcDbSymbolTableRecord
100
AcDbBlockTableRecord
2
DimnDraft3D6
340
0
70
0
0
ENDTAB
0
ENDSEC
0
SECTION
2
BLOCKS
0
BLOCK
5
20
100
AcDbEntity
8
0
100
AcDbBlockBegin
2
*Model_Space
70
0
10
0
20
0
30
0
3
*Model_Space
0
ENDBLK
5
21
100
AcDbEntity
8
0
100
AcDbBlockEnd
0
BLOCK
5
1C
100
AcDbEntity
8
0
100
AcDbBlockBegin
2
*Paper_Space
70
0
10
0
20
0
30
0
3
*Paper_Space
0
ENDBLK
5
1D
100
AcDbEntity
8
0
100
AcDbBlockEnd
0
BLOCK
5
24
100
AcDbEntity
8
0
100
AcDbBlockBegin
2
*Paper_Space0
70
0
10
0
20
0
30
0
3
*Paper_Space0
0
ENDBLK
5
25
100
AcDbEntity
8
0
100
AcDbBlockEnd
0
BLOCK
5
FE
100
AcDbEntity
8
0
100
AcDbBlockBegin
2
DimnDraft3D1
70
0
10
0
20
0
30
0
3
DimnDraft3D1
0
MTEXT
5
F4
100
AcDbEntity
8
2
62
256
6
ByLayer
370
18
48
1
60
0
100
AcDbMText
10
46.125
20
16.6875
30
0
210
0
220
0
230
1
1
\W0.5404;3
40
4.5
41
0
44
1.084337
50
90
71
7
72
5
7
iso_b_vert
0
LINE
5
F5
100
AcDbEntity
8
2
62
256
6
ByLayer
370
13
48
1
60
0
100
AcDbLine
10
34.5
20
8.0625
30
0
11
50.25
21
8.0625
31
0
39
0
210
0
220
0
230
1
0
LINE
5
F6
100
AcDbEntity
8
2
62
256
6
ByLayer
370
13
48
1
60
0
100
AcDbLine
10
34.5
20
11.0625
30
0
11
50.25
21
11.0625
31
0
39
0
210
0
220
0
230
1
0
LINE
5
F7
100
AcDbEntity
8
2
62
256
6
ByLayer
370
13
48
1
60
0
100
AcDbLine
10
47.25
20
17.575658
30
0
11
47.25
21
-3.1875
31
0
39
0
210
0
220
0
230
1
0
LINE
5
F8
100
AcDbEntity
8
2
62
256
6
ByLayer
370
13
48
1
60
0
100
AcDbLine
10
47.25
20
8.0625
30
0
11
47.644957
21
5.062501
31
0
39
0
210
0
220
0
230
1
0
LINE
5
F9
100
AcDbEntity
8
2
62
256
6
ByLayer
370
13
48
1
60
0
100
AcDbLine
10
47.25
20
8.0625
30
0
11
46.855043
21
5.062499
31
0
39
0
210
0
220
0
230
1
0
LINE
5
FA
100
AcDbEntity
8
2
62
256
6
ByLayer
370
13
48
1
60
0
100
AcDbLine
10
47.644957
20
5.062501
30
0
11
46.855043
21
5.062499
31
0
39
0
210
0
220
0
230
1
0
LINE
5
FB
100
AcDbEntity
8
2
62
256
6
ByLayer
370
13
48
1
60
0
100
AcDbLine
10
47.25
20
11.0625
30
0
11
46.855043
21
14.062499
31
0
39
0
210
0
220
0
230
1
0
LINE
5
FC
100
AcDbEntity
8
2
62
256
6
ByLayer
370
13
48
1
60
0
100
AcDbLine
10
47.25
20
11.0625
30
0
11
47.644957
21
14.062501
31
0
39
0
210
0
220
0
230
1
0
LINE
5
FD
100
AcDbEntity
8
2
62
256
6
ByLayer
370
13
48
1
60
0
100
AcDbLine
10
46.855043
20
14.062499
30
0
11
47.644957
21
14.062501
31
0
39
0
210
0
220
0
230
1
0
ENDBLK
5
FF
100
AcDbEntity
8
0
100
AcDbBlockEnd
0
BLOCK
5
102
100
AcDbEntity
8
0
100
AcDbBlockBegin
2
_CLOSED
70
0
10
0
20
0
30
0
3
_CLOSED
0
LINE
5
104
100
AcDbEntity
8
0
62
256
6
ByLayer
370
-2
48
1
60
0
100
AcDbLine
10
-1
20
0.166667
30
0
11
0
21
0
31
0
39
0
210
0
220
0
230
1
0
LINE
5
105
100
AcDbEntity
8
0
62
256
6
ByLayer
370
-2
48
1
60
0
100
AcDbLine
10
0
20
0
30
0
11
-1
21
-0.166667
31
0
39
0
210
0
220
0
230
1
0
LINE
5
106
100
AcDbEntity
8
0
62
256
6
ByLayer
370
-2
48
1
60
0
100
AcDbLine
10
-1
20
0.166667
30
0
11
-1
21
-0.166667
31
0
39
0
210
0
220
0
230
1
0
LINE
5
107
100
AcDbEntity
8
0
62
256
6
ByLayer
370
-2
48
1
60
0
100
AcDbLine
10
0
20
0
30
0
11
-1
21
0
31
0
39
0
210
0
220
0
230
1
0
ENDBLK
5
103
100
AcDbEntity
8
0
100
AcDbBlockEnd
0
BLOCK
5
113
100
AcDbEntity
8
0
100
AcDbBlockBegin
2
DimnDraft3D2
70
0
10
0
20
0
30
0
3
DimnDraft3D2
0
MTEXT
5
109
100
AcDbEntity
8
2
62
256
6
ByLayer
370
18
48
1
60
0
100
AcDbMText
10
56.125
20
-0.438158
30
0
210
0
220
0
230
1
1
\W0.6351;21
40
4.5
41
0
44
1.084337
50
90
71
7
72
5
7
iso_b_vert
0
LINE
5
10A
100
AcDbEntity
8
2
62
256
6
ByLayer
370
13
48
1
60
0
100
AcDbLine
10
34.5
20
11.0625
30
0
11
60.25
21
11.0625
31
0
39
0
210
0
220
0
230
1
0
LINE
5
10B
100
AcDbEntity
8
2
62
256
6
ByLayer
370
13
48
1
60
0
100
AcDbLine
10
-3.5
20
-9.9375
30
0
11
60.25
21
-9.9375
31
0
39
0
210
0
220
0
230
1
0
LINE
5
10C
100
AcDbEntity
8
2
62
256
6
ByLayer
370
13
48
1
60
0
100
AcDbLine
10
57.25
20
11.0625
30
0
11
57.25
21
-9.9375
31
0
39
0
210
0
220
0
230
1
0
LINE
5
10D
100
AcDbEntity
8
2
62
256
6
ByLayer
370
13
48
1
60
0
100
AcDbLine
10
57.25
20
11.0625
30
0
11
57.644957
21
8.062501
31
0
39
0
210
0
220
0
230
1
0
LINE
5
10E
100
AcDbEntity
8
2
62
256
6
ByLayer
370
13
48
1
60
0
100
AcDbLine
10
57.25
20
11.0625
30
0
11
56.855043
21
8.062499
31
0
39
0
210
0
220
0
230
1
0
LINE
5
10F
100
AcDbEntity
8
2
62
256
6
ByLayer
370
13
48
1
60
0
100
AcDbLine
10
57.644957
20
8.062501
30
0
11
56.855043
21
8.062499
31
0
39
0
210
0
220
0
230
1
0
LINE
5
110
100
AcDbEntity
8
2
62
256
6
ByLayer
370
13
48
1
60
0
100
AcDbLine
10
57.25
20
-9.9375
30
0
11
56.855043
21
-6.937501
31
0
39
0
210
0
220
0
230
1
0
LINE
5
111
100
AcDbEntity
8
2
62
256
6
ByLayer
370
13
48
1
60
0
100
AcDbLine
10
57.25
20
-9.9375
30
0
11
57.644957
21
-6.937499
31
0
39
0
210
0
220
0
230
1
0
LINE
5
112
100
AcDbEntity
8
2
62
256
6
ByLayer
370
13
48
1
60
0
100
AcDbLine
10
56.855043
20
-6.937501
30
0
11
57.644957
21
-6.937499
31
0
39
0
210
0
220
0
230
1
0
ENDBLK
5
114
100
AcDbEntity
8
0
100
AcDbBlockEnd
0
BLOCK
5
122
100
AcDbEntity
8
0
100
AcDbBlockBegin
2
DimnDraft3D3
70
0
10
0
20
0
30
0
3
DimnDraft3D3
0
MTEXT
5
117
100
AcDbEntity
8
SK2
62
256
6
ByLayer
370
18
48
1
60
0
100
AcDbMText
10
-104.225
20
-1.563158
30
0
210
0
220
0
230
1
1
\W0.6740;20
40
4.5
41
0
44
1.084337
50
90
71
7
72
5
7
iso_b_vert
0
LINE
5
119
100
AcDbEntity
8
SK2
62
256
6
ByLayer
370
13
48
1
60
0
100
AcDbLine
10
-94.85
20
9.9375
30
0
11
-106.1
21
9.9375
31
0
39
0
210
0
220
0
230
1
0
LINE
5
11A
100
AcDbEntity
8
SK2
62
256
6
ByLayer
370
13
48
1
60
0
100
AcDbLine
10
-94.85
20
-9.9375
30
0
11
-106.1
21
-9.9375
31
0
39
0
210
0
220
0
230
1
0
LINE
5
11B
100
AcDbEntity
8
SK2
62
256
6
ByLayer
370
13
48
1
60
0
100
AcDbLine
10
-103.1
20
9.9375
30
0
11
-103.1
21
-9.9375
31
0
39
0
210
0
220
0
230
1
0
LINE
5
11C
100
AcDbEntity
8
SK2
62
256
6
ByLayer
370
13
48
1
60
0
100
AcDbLine
10
-103.1
20
9.9375
30
0
11
-102.705043
21
6.937501
31
0
39
0
210
0
220
0
230
1
0
LINE
5
11D
100
AcDbEntity
8
SK2
62
256
6
ByLayer
370
13
48
1
60
0
100
AcDbLine
10
-103.1
20
9.9375
30
0
11
-103.494957
21
6.937499
31
0
39
0
210
0
220
0
230
1
0
LINE
5
11E
100
AcDbEntity
8
SK2
62
256
6
ByLayer
370
13
48
1
60
0
100
AcDbLine
10
-102.705043
20
6.937501
30
0
11
-103.494957
21
6.937499
31
0
39
0
210
0
220
0
230
1
0
LINE
5
11F
100
AcDbEntity
8
SK2
62
256
6
ByLayer
370
13
48
1
60
0
100
AcDbLine
10
-103.1
20
-9.9375
30
0
11
-103.494957
21
-6.937501
31
0
39
0
210
0
220
0
230
1
0
LINE
5
120
100
AcDbEntity
8
SK2
62
256
6
ByLayer
370
13
48
1
60
0
100
AcDbLine
10
-103.1
20
-9.9375
30
0
11
-102.705043
21
-6.937499
31
0
39
0
210
0
220
0
230
1
0
LINE
5
121
100
AcDbEntity
8
SK2
62
256
6
ByLayer
370
13
48
1
60
0
100
AcDbLine
10
-103.494957
20
-6.937501
30
0
11
-102.705043
21
-6.937499
31
0
39
0
210
0
220
0
230
1
0
ENDBLK
5
123
100
AcDbEntity
8
0
100
AcDbBlockEnd
0
BLOCK
5
130
100
AcDbEntity
8
0
100
AcDbBlockBegin
2
DimnDraft3D4
70
0
10
0
20
0
30
0
3
DimnDraft3D4
0
MTEXT
5
126
100
AcDbEntity
8
2
62
256
6
ByLayer
370
18
48
1
60
0
100
AcDbMText
10
14.936842
20
23.66042
30
0
210
0
220
0
230
1
1
\W0.6740;33
40
4.5
41
0
44
1.084337
50
0
71
7
72
5
7
iso_b_vert
0
LINE
5
127
100
AcDbEntity
8
2
62
256
6
ByLayer
370
13
48
1
60
0
100
AcDbLine
10
33
20
12.5625
30
0
11
33
21
25.53542
31
0
39
0
210
0
220
0
230
1
0
LINE
5
128
100
AcDbEntity
8
2
62
256
6
ByLayer
370
13
48
1
60
0
100
AcDbLine
10
0
20
11.4375
30
0
11
0
21
25.53542
31
0
39
0
210
0
220
0
230
1
0
LINE
5
129
100
AcDbEntity
8
2
62
256
6
ByLayer
370
13
48
1
60
0
100
AcDbLine
10
33
20
22.53542
30
0
11
0
21
22.53542
31
0
39
0
210
0
220
0
230
1
0
LINE
5
12A
100
AcDbEntity
8
2
62
256
6
ByLayer
370
13
48
1
60
0
100
AcDbLine
10
33
20
22.53542
30
0
11
30.000001
21
22.140463
31
0
39
0
210
0
220
0
230
1
0
LINE
5
12B
100
AcDbEntity
8
2
62
256
6
ByLayer
370
13
48
1
60
0
100
AcDbLine
10
33
20
22.53542
30
0
11
29.999999
21
22.930378
31
0
39
0
210
0
220
0
230
1
0
LINE
5
12C
100
AcDbEntity
8
2
62
256
6
ByLayer
370
13
48
1
60
0
100
AcDbLine
10
30.000001
20
22.140463
30
0
11
29.999999
21
22.930378
31
0
39
0
210
0
220
0
230
1
0
LINE
5
12D
100
AcDbEntity
8
2
62
256
6
ByLayer
370
13
48
1
60
0
100
AcDbLine
10
0
20
22.53542
30
0
11
2.999999
21
22.930378
31
0
39
0
210
0
220
0
230
1
0
LINE
5
12E
100
AcDbEntity
8
2
62
256
6
ByLayer
370
13
48
1
60
0
100
AcDbLine
10
0
20
22.53542
30
0
11
3.000001
21
22.140463
31
0
39
0
210
0
220
0
230
1
0
LINE
5
12F
100
AcDbEntity
8
2
62
256
6
ByLayer
370
13
48
1
60
0
100
AcDbLine
10
2.999999
20
22.930378
30
0
11
3.000001
21
22.140463
31
0
39
0
210
0
220
0
230
1
0
ENDBLK
5
131
100
AcDbEntity
8
0
100
AcDbBlockEnd
0
BLOCK
5
13E
100
AcDbEntity
8
0
100
AcDbBlockBegin
2
DimnDraft3D5
70
0
10
0
20
0
30
0
3
DimnDraft3D5
0
MTEXT
5
134
100
AcDbEntity
8
SK2
62
256
6
ByLayer
370
18
48
1
60
0
100
AcDbMText
10
-32.857237
20
33.66042
30
0
210
0
220
0
230
1
1
\W0.6217;125
40
4.5
41
0
44
1.084337
50
0
71
7
72
5
7
iso_b_vert
0
LINE
5
135
100
AcDbEntity
8
SK2
62
256
6
ByLayer
370
13
48
1
60
0
100
AcDbLine
10
33
20
12.5625
30
0
11
33
21
35.53542
31
0
39
0
210
0
220
0
230
1
0
LINE
5
136
100
AcDbEntity
8
SK2
62
256
6
ByLayer
370
13
48
1
60
0
100
AcDbLine
10
-93.35
20
11.4375
30
0
11
-93.35
21
35.53542
31
0
39
0
210
0
220
0
230
1
0
LINE
5
137
100
AcDbEntity
8
SK2
62
256
6
ByLayer
370
13
48
1
60
0
100
AcDbLine
10
33
20
32.53542
30
0
11
-93.35
21
32.53542
31
0
39
0
210
0
220
0
230
1
0
LINE
5
138
100
AcDbEntity
8
SK2
62
256
6
ByLayer
370
13
48
1
60
0
100
AcDbLine
10
33
20
32.53542
30
0
11
30.000001
21
32.140463
31
0
39
0
210
0
220
0
230
1
0
LINE
5
139
100
AcDbEntity
8
SK2
62
256
6
ByLayer
370
13
48
1
60
0
100
AcDbLine
10
33
20
32.53542
30
0
11
29.999999
21
32.930378
31
0
39
0
210
0
220
0
230
1
0
LINE
5
13A
100
AcDbEntity
8
SK2
62
256
6
ByLayer
370
13
48
1
60
0
100
AcDbLine
10
30.000001
20
32.140463
30
0
11
29.999999
21
32.930378
31
0
39
0
210
0
220
0
230
1
0
LINE
5
13B
100
AcDbEntity
8
SK2
62
256
6
ByLayer
370
13
48
1
60
0
100
AcDbLine
10
-93.35
20
32.53542
30
0
11
-90.350001
21
32.930378
31
0
39
0
210
0
220
0
230
1
0
LINE
5
13C
100
AcDbEntity
8
SK2
62
256
6
ByLayer
370
13
48
1
60
0
100
AcDbLine
10
-93.35
20
32.53542
30
0
11
-90.349999
21
32.140463
31
0
39
0
210
0
220
0
230
1
0
LINE
5
13D
100
AcDbEntity
8
SK2
62
256
6
ByLayer
370
13
48
1
60
0
100
AcDbLine
10
-90.350001
20
32.930378
30
0
11
-90.349999
21
32.140463
31
0
39
0
210
0
220
0
230
1
0
ENDBLK
5
13F
100
AcDbEntity
8
0
100
AcDbBlockEnd
0
BLOCK
5
14C
100
AcDbEntity
8
0
100
AcDbBlockBegin
2
DimnDraft3D6
70
0
10
0
20
0
30
0
3
DimnDraft3D6
0
MTEXT
5
142
100
AcDbEntity
8
2
62
256
6
ByLayer
370
18
48
1
60
0
100
AcDbMText
10
25.499342
20
-23.0625
30
0
210
0
220
0
230
1
1
\W0.5321;13
40
4.5
41
0
44
1.084337
50
0
71
7
72
5
7
iso_b_vert
0
LINE
5
143
100
AcDbEntity
8
2
62
256
6
ByLayer
370
13
48
1
60
0
100
AcDbLine
10
20
20
5.5625
30
0
11
20
21
-27.1875
31
0
39
0
210
0
220
0
230
1
0
LINE
5
144
100
AcDbEntity
8
2
62
256
6
ByLayer
370
13
48
1
60
0
100
AcDbLine
10
33
20
6.5625
30
0
11
33
21
-27.1875
31
0
39
0
210
0
220
0
230
1
0
LINE
5
145
100
AcDbEntity
8
2
62
256
6
ByLayer
370
13
48
1
60
0
100
AcDbLine
10
8.75
20
-24.1875
30
0
11
44.25
21
-24.1875
31
0
39
0
210
0
220
0
230
1
0
LINE
5
146
100
AcDbEntity
8
2
62
256
6
ByLayer
370
13
48
1
60
0
100
AcDbLine
10
20
20
-24.1875
30
0
11
17.000001
21
-24.582457
31
0
39
0
210
0
220
0
230
1
0
LINE
5
147
100
AcDbEntity
8
2
62
256
6
ByLayer
370
13
48
1
60
0
100
AcDbLine
10
20
20
-24.1875
30
0
11
16.999999
21
-23.792543
31
0
39
0
210
0
220
0
230
1
0
LINE
5
148
100
AcDbEntity
8
2
62
256
6
ByLayer
370
13
48
1
60
0
100
AcDbLine
10
17.000001
20
-24.582457
30
0
11
16.999999
21
-23.792543
31
0
39
0
210
0
220
0
230
1
0
LINE
5
149
100
AcDbEntity
8
2
62
256
6
ByLayer
370
13
48
1
60
0
100
AcDbLine
10
33
20
-24.1875
30
0
11
35.999999
21
-23.792543
31
0
39
0
210
0
220
0
230
1
0
LINE
5
14A
100
AcDbEntity
8
2
62
256
6
ByLayer
370
13
48
1
60
0
100
AcDbLine
10
33
20
-24.1875
30
0
11
36.000001
21
-24.582457
31
0
39
0
210
0
220
0
230
1
0
LINE
5
14B
100
AcDbEntity
8
2
62
256
6
ByLayer
370
13
48
1
60
0
100
AcDbLine
10
35.999999
20
-23.792543
30
0
11
36.000001
21
-24.582457
31
0
39
0
210
0
220
0
230
1
0
ENDBLK
5
14D
100
AcDbEntity
8
0
100
AcDbBlockEnd
0
ENDSEC
0
SECTION
2
ENTITIES
0
ARC
5
B2
100
AcDbEntity
8
1
62
256
6
ByLayer
370
18
48
1
60
0
100
AcDbCircle
39
0
10
-20.1
20
6.7875
30
0
40
1.6
210
0
220
0
230
-1
100
AcDbArc
50
0
51
9.875715
0
ARC
5
B4
100
AcDbEntity
8
1
62
256
6
ByLayer
370
18
48
1
60
0
100
AcDbCircle
39
0
10
12.5
20
1.0625
30
0
40
1.416
210
0
220
0
230
1
100
AcDbArc
50
96.192438
51
150.190711
0
ARC
5
B5
100
AcDbEntity
8
1
62
256
6
ByLayer
370
18
48
1
60
0
100
AcDbCircle
39
0
10
12.5
20
1.0625
30
0
40
1.416
210
0
220
0
230
1
100
AcDbArc
50
263.807562
51
276.192438
0
ARC
5
B6
100
AcDbEntity
8
1
62
256
6
ByLayer
370
18
48
1
60
0
100
AcDbCircle
39
0
10
12.5
20
1.0625
30
0
40
1.9685
210
0
220
0
230
1
100
AcDbArc
50
120.381422
51
180
0
ARC
5
B7
100
AcDbEntity
8
1
62
256
6
ByLayer
370
18
48
1
60
0
100
AcDbCircle
39
0
10
12.5
20
1.0625
30
0
40
1.416
210
0
220
0
230
1
100
AcDbArc
50
29.809289
51
83.807562
0
ARC
5
B8
100
AcDbEntity
8
1
62
256
6
ByLayer
370
18
48
1
60
0
100
AcDbCircle
39
0
10
12.5
20
1.0625
30
0
40
1.416
210
0
220
0
230
1
100
AcDbArc
50
330.190711
51
29.809289
0
ARC
5
B9
100
AcDbEntity
8
1
62
256
6
ByLayer
370
18
48
1
60
0
100
AcDbCircle
39
0
10
12.5
20
1.0625
30
0
40
1.9685
210
0
220
0
230
1
100
AcDbArc
50
239.618578
51
300.381422
0
ARC
5
BA
100
AcDbEntity
8
1
62
256
6
ByLayer
370
18
48
1
60
0
100
AcDbCircle
39
0
10
12.5
20
1.0625
30
0
40
1.9685
210
0
220
0
230
1
100
AcDbArc
50
180
51
239.618578
0
ARC
5
BB
100
AcDbEntity
8
1
62
256
6
ByLayer
370
18
48
1
60
0
100
AcDbCircle
39
0
10
12.5
20
1.0625
30
0
40
1.416
210
0
220
0
230
1
100
AcDbArc
50
83.807562
51
96.192438
0
ARC
5
BC
100
AcDbEntity
8
1
62
256
6
ByLayer
370
18
48
1
60
0
100
AcDbCircle
39
0
10
12.5
20
1.0625
30
0
40
1.416
210
0
220
0
230
1
100
AcDbArc
50
276.192438
51
330.190711
0
ARC
5
BD
100
AcDbEntity
8
1
62
256
6
ByLayer
370
18
48
1
60
0
100
AcDbCircle
39
0
10
12.5
20
1.0625
30
0
40
1.9685
210
0
220
0
230
1
100
AcDbArc
50
59.618578
51
120.381422
0
ARC
5
BE
100
AcDbEntity
8
1
62
256
6
ByLayer
370
18
48
1
60
0
100
AcDbCircle
39
0
10
12.5
20
1.0625
30
0
40
1.9685
210
0
220
0
230
1
100
AcDbArc
50
360
51
59.618578
0
ARC
5
BF
100
AcDbEntity
8
1
62
256
6
ByLayer
370
18
48
1
60
0
100
AcDbCircle
39
0
10
12.5
20
1.0625
30
0
40
1.416
210
0
220
0
230
1
100
AcDbArc
50
209.809289
51
263.807562
0
ARC
5
C0
100
AcDbEntity
8
1
62
256
6
ByLayer
370
18
48
1
60
0
100
AcDbCircle
39
0
10
12.5
20
1.0625
30
0
40
1.416
210
0
220
0
230
1
100
AcDbArc
50
150.190711
51
209.809289
0
ARC
5
C1
100
AcDbEntity
8
1
62
256
6
ByLayer
370
18
48
1
60
0
100
AcDbCircle
39
0
10
12.5
20
1.0625
30
0
40
1.9685
210
0
220
0
230
1
100
AcDbArc
50
300.381422
51
360
0
CIRCLE
5
B3
100
AcDbEntity
8
1
62
256
6
ByLayer
370
18
48
1
60
0
100
AcDbCircle
10
-12.5
20
1.0625
30
0
40
5
39
0
210
0
220
0
230
-1
0
CIRCLE
5
C2
100
AcDbEntity
8
1
62
256
6
ByLayer
370
18
48
1
60
0
100
AcDbCircle
10
-12.5
20
1.0625
30
0
40
3.75
39
0
210
0
220
0
230
-1
0
CIRCLE
5
C3
100
AcDbEntity
8
1
62
256
6
ByLayer
370
18
48
1
60
0
100
AcDbCircle
10
-12.5
20
1.0625
30
0
40
4.25
39
0
210
0
220
0
230
-1
0
ELLIPSE
5
C4
100
AcDbEntity
8
1
62
256
6
ByLayer
370
18
48
1
60
0
100
AcDbEllipse
10
28.192341
20
88.2625
30
0
11
-110.717174379501
21
2.59400007957361E-13
31
0
210
0
220
0
230
1
40
0.700208
41
1.47519769960634
42
1.5517575398499
0
ELLIPSE
5
C5
100
AcDbEntity
8
1
62
256
6
ByLayer
370
18
48
1
60
0
100
AcDbEllipse
10
28.192341
20
56.0625
30
0
11
-68.0869561986915
21
1.59521384814198E-13
31
0
210
0
220
0
230
1
40
0.700208
41
1.45166168954857
42
1.54007735630096
0
ELLIPSE
5
C6
100
AcDbEntity
8
1
62
256
6
ByLayer
370
18
48
1
60
0
100
AcDbEllipse
10
-1763.331334
20
55.590946
30
0
11
-4540.29880711446
21
19.8812201250147
31
0
210
0
220
0
230
1
40
0.009429
41
1.97451242945758
42
1.97587925157345
0
ELLIPSE
5
C7
100
AcDbEntity
8
1
62
256
6
ByLayer
370
18
48
1
60
0
100
AcDbEllipse
10
37.576748
20
88.2625
30
0
11
9.0816920374153E-14
21
77.5250000094615
31
0
210
0
220
0
230
1
40
0.57735
41
2.88066046648741
42
3.02117543927903
0
ELLIPSE
5
C8
100
AcDbEntity
8
1
62
256
6
ByLayer
370
18
48
1
60
0
100
AcDbEllipse
10
27.966964
20
10.538949
30
0
11
-0.60161713960896
21
1.40953281797935E-15
31
0
210
0
220
0
230
1
40
0.249328
41
0
42
0.34905720747379
0
ELLIPSE
5
C9
100
AcDbEntity
8
1
62
256
6
ByLayer
370
18
48
1
60
0
100
AcDbEllipse
10
27.966964
20
8.586051
30
0
11
-0.60161713960896
21
1.40953281797935E-15
31
0
210
0
220
0
230
1
40
0.249328
41
-0.349057207473777
42
0
0
POINT
5
6C
100
AcDbEntity
8
2
62
256
6
ByLayer
370
18
48
1
60
0
100
AcDbPoint
10
33
20
9.5625
30
0
39
0
210
0
220
0
230
1
50
360
0
POINT
5
6E
100
AcDbEntity
8
80
62
256
6
ByLayer
370
18
48
1
60
0
100
AcDbPoint
10
0
20
0
30
0
39
0
210
0
220
0
230
1
50
360
0
POINT
5
70
100
AcDbEntity
8
2
62
256
6
ByLayer
370
18
48
1
60
0
100
AcDbPoint
10
33
20
11.0625
30
0
39
0
210
0
220
0
230
1
50
360
0
POINT
5
71
100
AcDbEntity
8
81
62
256
6
ByLayer
370
18
48
1
60
0
100
AcDbPoint
10
33
20
11.0625
30
0
39
0
210
0
220
0
230
1
50
360
0
SPLINE
5
CA
100
AcDbEntity
8
1
62
256
6
ByLayer
370
18
48
1
60
0
100
AcDbSpline
70
4
71
3
72
8
73
4
40
0
40
0
40
0
40
0
40
1
40
1
40
1
40
1
41
1
10
24.9001446987716
20
10.8847387238773
30
0
41
1
10
25.5667676310969
20
10.8847366056622
30
0
41
1
10
26.2333905634222
20
10.8847344874708
30
0
41
1
10
26.9000134957474
20
10.884732369303
30
0
0
SPLINE
5
CB
100
AcDbEntity
8
1
62
256
6
ByLayer
370
18
48
1
60
0
100
AcDbSpline
70
4
71
3
72
8
73
4
40
0
40
0
40
0
40
0
40
1
40
1
40
1
40
1
41
1
10
26.2826711249934
20
10.2919860670663
30
0
41
1
10
26.2781651928695
20
10.3056958490509
30
0
41
1
10
26.2731177059794
20
10.3191580433098
30
0
41
1
10
26.2675682415353
20
10.3322851262738
30
0
0
SPLINE
5
CC
100
AcDbEntity
8
1
62
256
6
ByLayer
370
18
48
1
60
0
100
AcDbSpline
70
4
71
3
72
8
73
4
40
0
40
0
40
0
40
0
40
1
40
1
40
1
40
1
41
1
10
26.1011083062783
20
8.40999261072497
30
0
41
1
10
26.1581818489903
20
8.53651908981135
30
0
41
1
10
26.2133056833912
20
8.66435850533063
30
0
41
1
10
26.2675682415351
20
8.79271487372628
30
0
0
SPLINE
5
CD
100
AcDbEntity
8
1
62
256
6
ByLayer
370
18
48
1
60
0
100
AcDbSpline
70
4
71
3
72
14
73
10
40
0
40
0
40
0
40
0
40
0.259125044635721
40
0.259125044635721
40
0.519137278569878
40
0.519137278569878
40
0.765832103442297
40
0.765832103442297
40
1
40
1
40
1
40
1
41
1
10
18.5165045467339
20
7.06249999999997
30
0
41
1
10
18.5435633376555
20
7.24589015490912
30
0
41
1
10
18.6049455887446
20
7.42760242320324
30
0
41
1
10
18.7890599985051
20
7.75776999673931
30
0
41
1
10
18.9148858337193
20
7.91095480413094
30
0
41
1
10
19.2075585122248
20
8.15527884636734
30
0
41
1
10
19.3766103952983
20
8.25270009886259
30
0
41
1
10
19.7284586636707
20
8.37769601748224
30
0
41
1
10
19.9156339398204
20
8.4102903365158
30
0
41
1
10
20.1
20
8.41022566786577
30
0
0
SPLINE
5
CE
100
AcDbEntity
8
1
62
256
6
ByLayer
370
18
48
1
60
0
100
AcDbSpline
70
4
71
3
72
8
73
4
40
0
40
0
40
0
40
0
40
1
40
1
40
1
40
1
41
1
10
26.2826711249932
20
8.8330139329338
30
0
41
1
10
26.3175699355043
20
8.93919730864374
30
0
41
1
10
26.3520743031073
20
9.045574391504
30
0
41
1
10
26.3863166067351
20
9.15207582800917
30
0
0
SPLINE
5
CF
100
AcDbEntity
8
1
62
256
6
ByLayer
370
18
48
1
60
0
100
AcDbSpline
70
4
71
3
72
8
73
4
40
0
40
0
40
0
40
0
40
1
40
1
40
1
40
1
41
1
10
26.2675682415351
20
10.3322851262737
30
0
41
1
10
26.2080767388441
20
10.4730103979348
30
0
41
1
10
26.1475777293695
20
10.6131397609773
30
0
41
1
10
26.0845472167171
20
10.7515500286478
30
0
0
SPLINE
5
D0
100
AcDbEntity
8
1
62
256
6
ByLayer
370
18
48
1
60
0
100
AcDbSpline
70
4
71
3
72
8
73
4
40
0
40
0
40
0
40
0
40
1
40
1
40
1
40
1
41
1
10
26.3863166067351
20
9.97292417199077
30
0
41
1
10
26.3520743031073
20
10.0794256084959
30
0
41
1
10
26.3175699355043
20
10.1858026913562
30
0
41
1
10
26.2826711249932
20
10.2919860670661
30
0
0
SPLINE
5
D1
100
AcDbEntity
8
1
62
256
6
ByLayer
370
18
48
1
60
0
100
AcDbSpline
70
4
71
3
72
8
73
4
40
0
40
0
40
0
40
0
40
1
40
1
40
1
40
1
41
1
10
24.8999999999953
20
10.8847387241072
30
0
41
1
10
24.9000482329207
20
10.8847387240305
30
0
41
1
10
24.9000964658462
20
10.8847387239539
30
0
41
1
10
24.9001446987716
20
10.8847387238773
30
0
0
SPLINE
5
D2
100
AcDbEntity
8
1
62
256
6
ByLayer
370
18
48
1
60
0
100
AcDbSpline
70
4
71
3
72
8
73
4
40
0
40
0
40
0
40
0
40
1
40
1
40
1
40
1
41
1
10
21.3926553012316
20
10.8847387238773
30
0
41
1
10
21.3927035341558
20
10.8847387239539
30
0
41
1
10
21.3927517670799
20
10.8847387240305
30
0
41
1
10
21.3928000000041
20
10.8847387241072
30
0
0
SPLINE
5
D3
100
AcDbEntity
8
1
62
256
6
ByLayer
370
18
48
1
60
0
100
AcDbSpline
70
4
71
3
72
8
73
4
40
0
40
0
40
0
40
0
40
1
40
1
40
1
40
1
41
1
10
26.2675682415353
20
8.79271487372617
30
0
41
1
10
26.2731177059794
20
8.80584195669019
30
0
41
1
10
26.2781651928695
20
8.81930415094902
30
0
41
1
10
26.2826711249934
20
8.83301393293371
30
0
0
SPLINE
5
D4
100
AcDbEntity
8
1
62
256
6
ByLayer
370
18
48
1
60
0
100
AcDbSpline
70
4
71
3
72
16
73
12
40
0
40
0
40
0
40
0
40
0.298527799919085
40
0.298527799919085
40
0.51862942649321
40
0.51862942649321
40
0.701286160697855
40
0.701286160697855
40
0.885356124363166
40
0.885356124363166
40
1
40
1
40
1
40
1
41
1
10
20.1
20
8.72542714137302
30
0
41
1
10
19.8787408088896
20
8.74397217549503
30
0
41
1
10
19.6508255424662
20
8.7168333874744
30
0
41
1
10
19.2811118063633
20
8.58100987731896
30
0
41
1
10
19.128372264096
20
8.49355875161797
30
0
41
1
10
18.8833462335608
20
8.28043828659227
30
0
41
1
10
18.7827114673239
20
8.1610997526063
30
0
41
1
10
18.6236248190586
20
7.88916985155348
30
0
41
1
10
18.5634452988729
20
7.73200542542801
30
0
41
1
10
18.510304348266
20
7.46754107127074
30
0
41
1
10
18.5
20
7.36193670930066
30
0
41
1
10
18.5
20
7.25710062918895
30
0
0
SPLINE
5
D5
100
AcDbEntity
8
1
62
256
6
ByLayer
370
18
48
1
60
0
100
AcDbSpline
70
4
71
3
72
10
73
6
40
0
40
0
40
0
40
0
40
0.591461694284139
40
0.591461694284139
40
1
40
1
40
1
40
1
41
1
10
26.1011083062783
20
8.40999261072497
30
0
41
1
10
26.0461962913313
20
8.40929191692803
30
0
41
1
10
25.9881454026621
20
8.40880503281096
30
0
41
1
10
25.8884264576146
20
8.40834213318962
30
0
41
1
10
25.8467801388177
20
8.4082540339798
30
0
41
1
10
25.8053156833637
20
8.40826794585638
30
0
0
SPLINE
5
D6
100
AcDbEntity
8
1
62
256
6
ByLayer
370
18
48
1
60
0
100
AcDbSpline
70
4
71
3
72
12
73
8
40
0
40
0
40
0
40
0
40
0.476059608016396
40
0.476059608016396
40
0.927101084955903
40
0.927101084955903
40
1
40
1
40
1
40
1
41
1
10
26.3863166067351
20
9.15207582800917
30
0
41
1
10
26.4259653450256
20
9.27539251924185
30
0
41
1
10
26.4477674153748
20
9.40943003765088
30
0
41
1
10
26.4516467356135
20
9.6675797847067
30
0
41
1
10
26.4358013988408
20
9.79540896947628
30
0
41
1
10
26.3982187180424
20
9.93435111064778
30
0
41
1
10
26.3924830715351
20
9.95374504880732
30
0
41
1
10
26.3863166067351
20
9.9729241719908
30
0
0
SPLINE
5
D7
100
AcDbEntity
8
1
62
256
6
ByLayer
370
18
48
1
60
0
100
AcDbSpline
70
4
71
3
72
14
73
10
40
0
40
0
40
0
40
0
40
0.281038222380426
40
0.281038222380426
40
0.56455785706707
40
0.56455785706707
40
0.820700196130083
40
0.820700196130083
40
1
40
1
40
1
40
1
41
1
10
11.9078822958328
20
2.70608262808875
30
0
41
1
10
11.8813006245731
20
2.73341236906995
30
0
41
1
10
11.849043969095
20
2.75686552453592
30
0
41
1
10
11.777235194489
20
2.79107486042696
30
0
41
1
10
11.7364720760798
20
2.80218475904485
30
0
41
1
10
11.6571729147492
20
2.80784868557421
30
0
41
1
10
11.6175924873016
20
2.80391172564308
30
0
41
1
10
11.5539176730121
20
2.78561543464568
30
0
41
1
10
11.5281706327858
20
2.7746032984634
30
0
41
1
10
11.5044231104048
20
2.76068105833977
30
0
0
SPLINE
5
D8
100
AcDbEntity
8
1
62
256
6
ByLayer
370
18
48
1
60
0
100
AcDbSpline
70
4
71
3
72
16
73
12
40
0
40
0
40
0
40
0
40
0.0645965064171447
40
0.0645965064171447
40
0.282747320500311
40
0.282747320500311
40
0.503851581407188
40
0.503851581407188
40
0.739476498257835
40
0.739476498257835
40
1
40
1
40
1
40
1
41
1
10
11.5044231104048
20
-0.63568105833977
30
0
41
1
10
11.513014252084
20
-0.640717707446782
30
0
41
1
10
11.5218448367852
20
-0.64537061464469
30
0
41
1
10
11.5610594082809
20
-0.663818313271832
30
0
41
1
10
11.5937837130779
20
-0.673436908235658
30
0
41
1
10
11.6593454694517
20
-0.682459550000004
30
0
41
1
10
11.6930080641066
20
-0.681865338622799
30
0
41
1
10
11.7588630387573
20
-0.671031885759845
30
0
41
1
10
11.7916435993957
20
-0.660062379286387
30
0
41
1
10
11.8537963059871
20
-0.628385053530678
30
0
41
1
10
11.8832521428563
20
-0.606405930547794
30
0
41
1
10
11.9078822958328
20
-0.58108262808878
30
0
0
SPLINE
5
D9
100
AcDbEntity
8
1
62
256
6
ByLayer
370
18
48
1
60
0
100
AcDbSpline
70
4
71
3
72
18
73
14
40
0
40
0
40
0
40
0
40
0.213081262000622
40
0.213081262000622
40
0.387160943926348
40
0.387160943926348
40
0.56294899994201
40
0.56294899994201
40
0.715638435810385
40
0.715638435810385
40
0.919170953808151
40
0.919170953808151
40
1
40
1
40
1
40
1
41
1
10
13.6474510335848
20
2.39065233797856
30
0
41
1
10
13.6253499966635
20
2.30810260339751
30
0
41
1
10
13.6155116663085
20
2.21929631718774
30
0
41
1
10
13.625005262533
20
2.0555591646997
30
0
41
1
10
13.6396283941553
20
1.97923071749949
30
0
41
1
10
13.690791443592
20
1.83203000919164
30
0
41
1
10
13.7285222509958
20
1.75911142498921
30
0
41
1
10
13.814774512508
20
1.63906872419491
30
0
41
1
10
13.8621656692504
20
1.58832306339133
30
0
41
1
10
13.9803089305089
20
1.48870920900276
30
0
41
1
10
14.0554527440064
20
1.44412477171267
30
0
41
1
10
14.1631437334956
20
1.40001928382182
30
0
41
1
10
14.1945032391402
20
1.38935984363914
30
0
41
1
10
14.2260954401443
20
1.38066196954682
30
0
0
SPLINE
5
DA
100
AcDbEntity
8
1
62
256
6
ByLayer
370
18
48
1
60
0
100
AcDbSpline
70
4
71
3
72
18
73
14
40
0
40
0
40
0
40
0
40
0.213081026856097
40
0.213081026856097
40
0.387160750704737
40
0.387160750704737
40
0.562948851464624
40
0.562948851464624
40
0.715638295683681
40
0.715638295683681
40
0.919170771668907
40
0.919170771668907
40
1
40
1
40
1
40
1
41
1
10
10.7739045598557
20
1.38066196954682
30
0
41
1
10
10.8562959735258
20
1.40334573704686
30
0
41
1
10
10.9378828610424
20
1.43977251302653
30
0
41
1
10
11.0743337817464
20
1.53077305590375
30
0
41
1
10
11.1327849506205
20
1.58199151673358
30
0
41
1
10
11.2338958570924
20
1.70057608788608
30
0
41
1
10
11.2777186157693
20
1.77000448969929
30
0
41
1
10
11.3376543890653
20
1.90512448640652
30
0
41
1
10
11.3574632867377
20
1.97167260736037
30
0
41
1
10
11.3836465356628
20
2.12397226392116
30
0
41
1
10
11.3841042679143
20
2.21134590366796
30
0
41
1
10
11.3676879551153
20
2.32655511685175
30
0
41
1
10
11.3610234078263
20
2.35899939374312
30
0
41
1
10
11.3525489664151
20
2.39065233797856
30
0
0
SPLINE
5
DB
100
AcDbEntity
8
1
62
256
6
ByLayer
370
18
48
1
60
0
100
AcDbSpline
70
4
71
3
72
14
73
10
40
0
40
0
40
0
40
0
40
0.285014780844613
40
0.285014780844613
40
0.572350605982615
40
0.572350605982615
40
0.832166772861834
40
0.832166772861834
40
1
40
1
40
1
40
1
41
1
10
11.3525489664151
20
-0.265652337978594
30
0
41
1
10
11.3427455383358
20
-0.302269189432792
30
0
41
1
10
11.3391008008659
20
-0.341771392094387
30
0
41
1
10
11.346306008759
20
-0.42055123875113
30
0
41
1
10
11.3574570886555
20
-0.46104024825857
30
0
41
1
10
11.3927012508891
20
-0.531774641525004
30
0
41
1
10
11.4160474129793
20
-0.563667935304409
30
0
41
1
10
11.4622449161042
20
-0.607541437513191
30
0
41
1
10
11.4826741516865
20
-0.622930497634655
30
0
41
1
10
11.5044231104048
20
-0.63568105833977
30
0
0
SPLINE
5
DC
100
AcDbEntity
8
1
62
256
6
ByLayer
370
18
48
1
60
0
100
AcDbSpline
70
4
71
3
72
14
73
10
40
0
40
0
40
0
40
0
40
0.28501398472704
40
0.28501398472704
40
0.572349910643066
40
0.572349910643066
40
0.8321661585093
40
0.8321661585093
40
1
40
1
40
1
40
1
41
1
10
14.2260954401443
20
0.74433803045315
30
0
41
1
10
14.2626420033309
20
0.754399925319632
30
0
41
1
10
14.298562913688
20
0.771234024131331
30
0
41
1
10
14.3628804284091
20
0.817292897874978
30
0
41
1
10
14.392169726513
20
0.847390146030847
30
0
41
1
10
14.4353659032993
20
0.913568682268419
30
0
41
1
10
14.4510721564613
20
0.949839054065706
30
0
41
1
10
14.4655563481768
20
1.01188189848253
30
0
41
1
10
14.4685
20
1.03728891833418
30
0
41
1
10
14.4685
20
1.0625
30
0
0
SPLINE
5
DD
100
AcDbEntity
8
1
62
256
6
ByLayer
370
18
48
1
60
0
100
AcDbSpline
70
4
71
3
72
16
73
12
40
0
40
0
40
0
40
0
40
0.0645965064171448
40
0.0645965064171448
40
0.28274732050031
40
0.28274732050031
40
0.503851581407221
40
0.503851581407221
40
0.739476498257837
40
0.739476498257837
40
1
40
1
40
1
40
1
41
1
10
13.4955768895952
20
2.76068105833977
30
0
41
1
10
13.486985747916
20
2.76571770744675
30
0
41
1
10
13.4781551632148
20
2.77037061464469
30
0
41
1
10
13.4389405917191
20
2.7888183132718
30
0
41
1
10
13.4062162869221
20
2.79843690823563
30
0
41
1
10
13.3406545305483
20
2.80745954999998
30
0
41
1
10
13.3069919358934
20
2.80686533862277
30
0
41
1
10
13.2411369612427
20
2.79603188575982
30
0
41
1
10
13.2083564006042
20
2.78506237928636
30
0
41
1
10
13.1462036940129
20
2.75338505353068
30
0
41
1
10
13.1167478571437
20
2.73140593054779
30
0
41
1
10
13.0921177041672
20
2.70608262808875
30
0
0
SPLINE
5
DE
100
AcDbEntity
8
1
62
256
6
ByLayer
370
18
48
1
60
0
100
AcDbSpline
70
4
71
3
72
16
73
12
40
0
40
0
40
0
40
0
40
0.0660777514109209
40
0.0660777514109209
40
0.289232858199906
40
0.289232858199906
40
0.515409129607304
40
0.515409129607304
40
0.756439127791392
40
0.756439127791392
40
1
40
1
40
1
40
1
41
1
10
10.5315
20
1.0625
30
0
41
1
10
10.5315
20
1.05254139325586
30
0
41
1
10
10.5319521370926
20
1.04257030370826
30
0
41
1
10
10.535870606949
20
0.999410848501185
30
0
41
1
10
10.5441232851387
20
0.966315667545103
30
0
41
1
10
10.5694977332365
20
0.905193743501002
30
0
41
1
10
10.5870353182328
20
0.876454285745751
30
0
41
1
10
10.6296874761397
20
0.825121701416094
30
0
41
1
10
10.6557295062842
20
0.802390497395635
30
0
41
1
10
10.7118903369799
20
0.766457460632267
30
0
41
1
10
10.742638287392
20
0.752946170835315
30
0
41
1
10
10.7739045598556
20
0.74433803045315
30
0
0
SPLINE
5
DF
100
AcDbEntity
8
1
62
256
6
ByLayer
370
18
48
1
60
0
100
AcDbSpline
70
4
71
3
72
10
73
6
40
0
40
0
40
0
40
0
40
0.479736826302632
40
0.479736826302632
40
1
40
1
40
1
40
1
41
1
10
12.3472587066235
20
-0.345237936299839
30
0
41
1
10
12.2634717620859
20
-0.361003440768655
30
0
41
1
10
12.1831344436618
20
-0.389950219120777
30
0
41
1
10
12.0347803935531
20
-0.468873694517441
30
0
41
1
10
11.9658766441957
20
-0.521456184602641
30
0
41
1
10
11.9078822958328
20
-0.58108262808878
30
0
0
SPLINE
5
E0
100
AcDbEntity
8
1
62
256
6
ByLayer
370
18
48
1
60
0
100
AcDbSpline
70
4
71
3
72
14
73
10
40
0
40
0
40
0
40
0
40
0.281038222380429
40
0.281038222380429
40
0.56455785706708
40
0.56455785706708
40
0.820700196130103
40
0.820700196130103
40
1
40
1
40
1
40
1
41
1
10
13.0921177041672
20
-0.581082628088751
30
0
41
1
10
13.1186993754268
20
-0.608412369069953
30
0
41
1
10
13.150956030905
20
-0.631865524535925
30
0
41
1
10
13.222764805511
20
-0.66607486042696
30
0
41
1
10
13.2635279239202
20
-0.677184759044877
30
0
41
1
10
13.3428270852508
20
-0.682848685574214
30
0
41
1
10
13.3824075126984
20
-0.678911725643076
30
0
41
1
10
13.4460823269878
20
-0.660615434645678
30
0
41
1
10
13.4718293672142
20
-0.649603298463433
30
0
41
1
10
13.4955768895952
20
-0.635681058339799
30
0
0
SPLINE
5
E1
100
AcDbEntity
8
1
62
256
6
ByLayer
370
18
48
1
60
0
100
AcDbSpline
70
4
71
3
72
14
73
10
40
0
40
0
40
0
40
0
40
0.285014780844612
40
0.285014780844612
40
0.572350605982611
40
0.572350605982611
40
0.832166772861833
40
0.832166772861833
40
1
40
1
40
1
40
1
41
1
10
13.6474510335848
20
2.39065233797856
30
0
41
1
10
13.6572544616642
20
2.42726918943276
30
0
41
1
10
13.660899199134
20
2.46677139209439
30
0
41
1
10
13.6536939912409
20
2.54555123875113
30
0
41
1
10
13.6425429113445
20
2.58604024825854
30
0
41
1
10
13.6072987491109
20
2.65677464152498
30
0
41
1
10
13.5839525870207
20
2.68866793530438
30
0
41
1
10
13.5377550838958
20
2.73254143751316
30
0
41
1
10
13.5173258483134
20
2.74793049763463
30
0
41
1
10
13.4955768895952
20
2.76068105833977
30
0
0
SPLINE
5
E2
100
AcDbEntity
8
1
62
256
6
ByLayer
370
18
48
1
60
0
100
AcDbSpline
70
4
71
3
72
10
73
6
40
0
40
0
40
0
40
0
40
0.541781546917754
40
0.541781546917754
40
1
40
1
40
1
40
1
41
1
10
13.0921177041672
20
-0.58108262808878
30
0
41
1
10
13.0317893524551
20
-0.519056496999895
30
0
41
1
10
12.9595938121995
20
-0.464617677684771
30
0
41
1
10
12.8098326867735
20
-0.387422295241237
30
0
41
1
10
12.7328667479517
20
-0.360314488131905
30
0
41
1
10
12.6527412933765
20
-0.345237936299839
30
0
0
SPLINE
5
E3
100
AcDbEntity
8
1
62
256
6
ByLayer
370
18
48
1
60
0
100
AcDbSpline
70
4
71
3
72
14
73
10
40
0
40
0
40
0
40
0
40
0.285013984727065
40
0.285013984727065
40
0.572349910643094
40
0.572349910643094
40
0.83216615850931
40
0.83216615850931
40
1
40
1
40
1
40
1
41
1
10
10.7739045598557
20
1.38066196954682
30
0
41
1
10
10.7373579966691
20
1.37060007468037
30
0
41
1
10
10.701437086312
20
1.35376597586864
30
0
41
1
10
10.6371195715909
20
1.30770710212499
30
0
41
1
10
10.607830273487
20
1.27760985396912
30
0
41
1
10
10.5646340967007
20
1.21143131773155
30
0
41
1
10
10.5489278435386
20
1.17516094593427
30
0
41
1
10
10.5344436518232
20
1.11311810151744
30
0
41
1
10
10.5315
20
1.08771108166579
30
0
41
1
10
10.5315
20
1.0625
30
0
0
SPLINE
5
E4
100
AcDbEntity
8
1
62
256
6
ByLayer
370
18
48
1
60
0
100
AcDbSpline
70
4
71
3
72
18
73
14
40
0
40
0
40
0
40
0
40
0.213081026856107
40
0.213081026856107
40
0.387160750704751
40
0.387160750704751
40
0.562948851464636
40
0.562948851464636
40
0.715638295683692
40
0.715638295683692
40
0.919170771668915
40
0.919170771668915
40
1
40
1
40
1
40
1
41
1
10
14.2260954401443
20
0.74433803045315
30
0
41
1
10
14.1437040264742
20
0.721654262953138
30
0
41
1
10
14.0621171389576
20
0.685227486973446
30
0
41
1
10
13.9256662182536
20
0.594226944096221
30
0
41
1
10
13.8672150493795
20
0.543008483266391
30
0
41
1
10
13.7661041429076
20
0.424423912113895
30
0
41
1
10
13.7222813842307
20
0.354995510300682
30
0
41
1
10
13.6623456109347
20
0.219875513593451
30
0
41
1
10
13.6425367132623
20
0.153327392639596
30
0
41
1
10
13.6163534643372
20
0.0010277360788109
30
0
41
1
10
13.6158957320856
20
-0.0863459036679899
30
0
41
1
10
13.6323120448847
20
-0.201555116851779
30
0
41
1
10
13.6389765921737
20
-0.233999393743147
30
0
41
1
10
13.6474510335848
20
-0.265652337978594
30
0
0
SPLINE
5
E5
100
AcDbEntity
8
1
62
256
6
ByLayer
370
18
48
1
60
0
100
AcDbSpline
70
4
71
3
72
10
73
6
40
0
40
0
40
0
40
0
40
0.541781546918572
40
0.541781546918572
40
1
40
1
40
1
40
1
41
1
10
11.9078822958328
20
2.70608262808875
30
0
41
1
10
11.9682106475449
20
2.64405649699987
30
0
41
1
10
12.0404061878005
20
2.58961767768474
30
0
41
1
10
12.1901673132265
20
2.51242229524124
30
0
41
1
10
12.2671332520483
20
2.48531448813188
30
0
41
1
10
12.3472587066235
20
2.47023793629981
30
0
0
SPLINE
5
E6
100
AcDbEntity
8
1
62
256
6
ByLayer
370
18
48
1
60
0
100
AcDbSpline
70
4
71
3
72
18
73
14
40
0
40
0
40
0
40
0
40
0.213081262000622
40
0.213081262000622
40
0.387160943926349
40
0.387160943926349
40
0.562948999942013
40
0.562948999942013
40
0.715638435810391
40
0.715638435810391
40
0.91917095380815
40
0.91917095380815
40
1
40
1
40
1
40
1
41
1
10
11.3525489664151
20
-0.265652337978594
30
0
41
1
10
11.3746500033364
20
-0.183102603397543
30
0
41
1
10
11.3844883336914
20
-0.0942963171877693
30
0
41
1
10
11.374994737467
20
0.06944083530027
30
0
41
1
10
11.3603716058447
20
0.145769282500481
30
0
41
1
10
11.309208556408
20
0.292969990808331
30
0
41
1
10
11.2714777490042
20
0.365888575010757
30
0
41
1
10
11.1852254874919
20
0.485931275805058
30
0
41
1
10
11.1378343307496
20
0.536676936608643
30
0
41
1
10
11.019691069491
20
0.636290790997208
30
0
41
1
10
10.9445472559935
20
0.680875228287306
30
0
41
1
10
10.8368562665044
20
0.72498071617818
30
0
41
1
10
10.8054967608598
20
0.73564015636083
30
0
41
1
10
10.7739045598557
20
0.74433803045315
30
0
0
SPLINE
5
E7
100
AcDbEntity
8
1
62
256
6
ByLayer
370
18
48
1
60
0
100
AcDbSpline
70
4
71
3
72
16
73
12
40
0
40
0
40
0
40
0
40
0.0517235387678952
40
0.0517235387678952
40
0.275098677522045
40
0.275098677522045
40
0.500660612380082
40
0.500660612380082
40
0.740399911602621
40
0.740399911602621
40
1
40
1
40
1
40
1
41
1
10
13.4955768895952
20
-0.635681058339799
30
0
41
1
10
13.5023126525051
20
-0.63173214496922
30
0
41
1
10
13.5089132100843
20
-0.627540684688
30
0
41
1
10
13.5429215049886
20
-0.604212298583491
30
0
41
1
10
13.567814066225
20
-0.580777941441681
30
0
41
1
10
13.6087337148404
20
-0.528697090818071
30
0
41
1
10
13.6252135093438
20
-0.499355109704055
30
0
41
1
10
13.6490799914639
20
-0.437144227337626
30
0
41
1
10
13.6561625753256
20
-0.403403851029765
30
0
41
1
10
13.6602113511053
20
-0.334687207618487
30
0
41
1
10
13.6563795299008
20
-0.299001225803067
30
0
41
1
10
13.6474510335848
20
-0.265652337978594
30
0
0
SPLINE
5
E8
100
AcDbEntity
8
1
62
256
6
ByLayer
370
18
48
1
60
0
100
AcDbSpline
70
4
71
3
72
16
73
12
40
0
40
0
40
0
40
0
40
0.0660777514109123
40
0.0660777514109123
40
0.289232858199906
40
0.289232858199906
40
0.515409129607318
40
0.515409129607318
40
0.756439127791383
40
0.756439127791383
40
1
40
1
40
1
40
1
41
1
10
14.4685
20
1.0625
30
0
41
1
10
14.4685
20
1.07245860674411
30
0
41
1
10
14.4680478629073
20
1.08242969629171
30
0
41
1
10
14.464129393051
20
1.12558915149882
30
0
41
1
10
14.4558767148612
20
1.15868433245487
30
0
41
1
10
14.4305022667634
20
1.21980625649897
30
0
41
1
10
14.4129646817671
20
1.24854571425422
30
0
41
1
10
14.3703125238603
20
1.29987829858388
30
0
41
1
10
14.3442704937158
20
1.32260950260434
30
0
41
1
10
14.2881096630201
20
1.3585425393677
30
0
41
1
10
14.257361712608
20
1.37205382916466
30
0
41
1
10
14.2260954401443
20
1.38066196954682
30
0
0
SPLINE
5
E9
100
AcDbEntity
8
1
62
256
6
ByLayer
370
18
48
1
60
0
100
AcDbSpline
70
4
71
3
72
10
73
6
40
0
40
0
40
0
40
0
40
0.47973682623675
40
0.47973682623675
40
1
40
1
40
1
40
1
41
1
10
12.6527412933764
20
2.47023793629981
30
0
41
1
10
12.7365282379027
20
2.4860034407665
30
0
41
1
10
12.8168655563164
20
2.51495021911282
30
0
41
1
10
12.9652196064295
20
2.5938736945042
30
0
41
1
10
13.034123355797
20
2.64645618459517
30
0
41
1
10
13.0921177041672
20
2.70608262808875
30
0
0
SPLINE
5
EA
100
AcDbEntity
8
1
62
256
6
ByLayer
370
18
48
1
60
0
100
AcDbSpline
70
4
71
3
72
16
73
12
40
0
40
0
40
0
40
0
40
0.0517235387678664
40
0.0517235387678664
40
0.275098677522023
40
0.275098677522023
40
0.500660612380063
40
0.500660612380063
40
0.740399911602606
40
0.740399911602606
40
1
40
1
40
1
40
1
41
1
10
11.5044231104048
20
2.76068105833977
30
0
41
1
10
11.4976873474948
20
2.75673214496919
30
0
41
1
10
11.4910867899156
20
2.75254068468797
30
0
41
1
10
11.4570784950114
20
2.72921229858349
30
0
41
1
10
11.432185933775
20
2.70577794144168
30
0
41
1
10
11.3912662851596
20
2.65369709081804
30
0
41
1
10
11.3747864906562
20
2.62435510970403
30
0
41
1
10
11.3509200085361
20
2.56214422733763
30
0
41
1
10
11.3438374246744
20
2.52840385102976
30
0
41
1
10
11.3397886488946
20
2.45968720761846
30
0
41
1
10
11.3436204700991
20
2.42400122580304
30
0
41
1
10
11.3525489664151
20
2.39065233797856
30
0
0
SPLINE
5
EB
100
AcDbEntity
8
1
62
256
6
ByLayer
370
18
48
1
60
0
100
AcDbSpline
70
4
71
3
72
9
73
5
40
0
40
0
40
0
40
0
40
0.421427700695383
40
1
40
1
40
1
40
1
41
1
10
28.6234596151003
20
9.56250972980175
30
0
41
1
10
28.6158890370542
20
9.5930420229073
30
0
41
1
10
28.5979249164386
20
9.66549168166299
30
0
41
1
10
28.5374873023802
20
9.7085802307443
30
0
41
1
10
28.50251977305
20
9.73351007165996
30
0
0
SPLINE
5
EC
100
AcDbEntity
8
1
62
256
6
ByLayer
370
18
48
1
60
0
100
AcDbSpline
70
4
71
2
72
9
73
6
40
0
40
0
40
0
40
0.25
40
0.5
40
0.75
40
1
40
1
40
1
41
1
10
32.9999999993
20
10.78139589511
30
0
41
1
10
32.9998914336468
20
10.8436219995328
30
0
41
1
10
32.9509737652151
20
10.9570026136964
30
0
41
1
10
32.8614275758866
20
11.0416643261974
30
0
41
1
10
32.7453310680372
20
11.0844325331824
30
0
41
1
10
32.68255672556
20
11.0808883520499
30
0
0
SPLINE
5
ED
100
AcDbEntity
8
1
62
256
6
ByLayer
370
18
48
1
60
0
100
AcDbSpline
70
4
71
2
72
6
73
3
40
0
40
0
40
0
40
1
40
1
40
1
41
1
10
28.623459615129
20
9.56250972980175
30
0
41
1
10
28.6230933262053
20
9.47425541475417
30
0
41
1
10
28.5025197730493
20
9.39148992833998
30
0
0
SPLINE
5
EE
100
AcDbEntity
8
1
62
256
6
ByLayer
370
18
48
1
60
0
100
AcDbSpline
70
4
71
9
72
20
73
10
40
0
40
0
40
0
40
0
40
0
40
0
40
0
40
0
40
0
40
0
40
1
40
1
40
1
40
1
40
1
40
1
40
1
40
1
40
1
40
1
41
1
10
32.9999999992944
20
8.34360410489697
30
0
41
1
10
32.9999999992944
20
8.28930499249742
30
0
41
1
10
32.9889435254918
20
8.23500588124702
30
0
41
1
10
32.9668305643238
20
8.18327972403716
30
0
41
1
10
32.9343597090938
20
8.13669947661739
30
0
41
1
10
32.8929279263538
20
8.09761056759737
30
0
41
1
10
32.8445384727138
20
8.06790302977686
30
0
41
1
10
32.7916140964338
20
8.04883505380735
30
0
41
1
10
32.7367639744538
20
8.04095446687737
30
0
41
1
10
32.6825567255638
20
8.04411164794735
30
0
0
LINE
5
73
100
AcDbEntity
8
80
62
256
6
ByLayer
370
18
48
1
60
0
100
AcDbLine
10
0
20
0
30
0
11
-5
21
0
31
0
39
0
210
0
220
0
230
1
0
LINE
5
74
100
AcDbEntity
8
81
62
256
6
ByLayer
370
18
48
1
60
0
100
AcDbLine
10
33
20
11.0625
30
0
11
38
21
11.0625
31
0
39
0
210
0
220
0
230
1
0
LINE
5
75
100
AcDbEntity
8
1
62
256
6
ByLayer
370
18
48
1
60
0
100
AcDbLine
10
21.3928
20
10.884739
30
0
11
21.3928
21
10.883832
31
0
39
0
210
0
220
0
230
1
0
LINE
5
77
100
AcDbEntity
8
1
62
256
6
ByLayer
370
18
48
1
60
0
100
AcDbLine
10
18.523798
20
7.0625
30
0
11
18.516505
21
7.0625
31
0
39
0
210
0
220
0
230
1
0
LINE
5
78
100
AcDbEntity
8
1
62
256
6
ByLayer
370
18
48
1
60
0
100
AcDbLine
10
21.3928
20
10.884739
30
0
11
24.9
21
10.884739
31
0
39
0
210
0
220
0
230
1
0
LINE
5
79
100
AcDbEntity
8
1
62
256
6
ByLayer
370
18
48
1
60
0
100
AcDbLine
10
18.5
20
6.7875
30
0
11
17.624045
21
6.7875
31
0
39
0
210
0
220
0
230
1
0
LINE
5
7A
100
AcDbEntity
8
1
62
256
6
ByLayer
370
18
48
1
60
0
100
AcDbLine
10
2.382343
20
9.9375
30
0
11
0.5
21
9.9375
31
0
39
0
210
0
220
0
230
1
0
LINE
5
7B
100
AcDbEntity
8
1
62
256
6
ByLayer
370
18
48
1
60
0
100
AcDbLine
10
26.029742
20
13.361728
30
0
11
12.283545
21
13.361728
31
0
39
0
210
0
220
0
230
1
0
LINE
5
7C
100
AcDbEntity
8
1
62
256
6
ByLayer
370
18
48
1
60
0
100
AcDbLine
10
11
20
9.9375
30
0
11
2.382343
21
9.9375
31
0
39
0
210
0
220
0
230
1
0
LINE
5
7D
100
AcDbEntity
8
1
62
256
6
ByLayer
370
18
48
1
60
0
100
AcDbLine
10
12.467166
20
-9.970334
30
0
11
18.5
21
-3.9375
31
0
39
0
210
0
220
0
230
1
0
LINE
5
7E
100
AcDbEntity
8
1
62
256
6
ByLayer
370
18
48
1
60
0
100
AcDbLine
10
32.2
20
11.052861
30
0
11
32.2
21
11.298889
31
0
39
0
210
0
220
0
230
1
0
LINE
5
7F
100
AcDbEntity
8
1
62
256
6
ByLayer
370
18
48
1
60
0
100
AcDbLine
10
2.382343
20
-9.970334
30
0
11
12.467166
21
-9.970334
31
0
39
0
210
0
220
0
230
1
0
LINE
5
80
100
AcDbEntity
8
1
62
256
6
ByLayer
370
18
48
1
60
0
100
AcDbLine
10
11
20
9.9375
30
0
11
11.5
21
10.4375
31
0
39
0
210
0
220
0
230
1
0
LINE
5
81
100
AcDbEntity
8
1
62
256
6
ByLayer
370
18
48
1
60
0
100
AcDbLine
10
0.5
20
-9.939682
30
0
11
2.382343
21
-9.970334
31
0
39
0
210
0
220
0
230
1
0
LINE
5
82
100
AcDbEntity
8
1
62
256
6
ByLayer
370
18
48
1
60
0
100
AcDbLine
10
17.624045
20
11.091485
30
0
11
11.675235
21
11.091485
31
0
39
0
210
0
220
0
230
1
0
LINE
5
83
100
AcDbEntity
8
1
62
256
6
ByLayer
370
18
48
1
60
0
100
AcDbLine
10
17.624045
20
6.7875
30
0
11
17.624045
21
11.091485
31
0
39
0
210
0
220
0
230
1
0
LINE
5
84
100
AcDbEntity
8
1
62
256
6
ByLayer
370
18
48
1
60
0
100
AcDbLine
10
0
20
9.9375
30
0
11
0.5
21
9.9375
31
0
39
0
210
0
220
0
230
1
0
LINE
5
85
100
AcDbEntity
8
1
62
256
6
ByLayer
370
18
48
1
60
0
100
AcDbLine
10
21.392655
20
10.884739
30
0
11
21.392655
21
10.883841
31
0
39
0
210
0
220
0
230
1
0
LINE
5
86
100
AcDbEntity
8
1
62
256
6
ByLayer
370
18
48
1
60
0
100
AcDbLine
10
0
20
9.9375
30
0
11
0
21
-9.9375
31
0
39
0
210
0
220
0
230
1
0
LINE
5
87
100
AcDbEntity
8
1
62
256
6
ByLayer
370
18
48
1
60
0
100
AcDbLine
10
11.675235
20
11.091485
30
0
11
11.5
21
10.4375
31
0
39
0
210
0
220
0
230
1
0
LINE
5
88
100
AcDbEntity
8
1
62
256
6
ByLayer
370
18
48
1
60
0
100
AcDbLine
10
0.5
20
-9.939682
30
0
11
0
21
-9.9375
31
0
39
0
210
0
220
0
230
1
0
LINE
5
89
100
AcDbEntity
8
1
62
256
6
ByLayer
370
18
48
1
60
0
100
AcDbLine
10
18.5
20
6.7875
30
0
11
18.5
21
7.257101
31
0
39
0
210
0
220
0
230
1
0
LINE
5
8A
100
AcDbEntity
8
1
62
256
6
ByLayer
370
18
48
1
60
0
100
AcDbLine
10
24.9
20
10.884739
30
0
11
24.9
21
10.771779
31
0
39
0
210
0
220
0
230
1
0
LINE
5
8B
100
AcDbEntity
8
1
62
256
6
ByLayer
370
18
48
1
60
0
100
AcDbLine
10
26.900013
20
10.884732
30
0
11
29.125594
21
10.884732
31
0
39
0
210
0
220
0
230
1
0
LINE
5
8C
100
AcDbEntity
8
1
62
256
6
ByLayer
370
18
48
1
60
0
100
AcDbLine
10
2.382343
20
9.9375
30
0
11
2.382343
21
-9.970334
31
0
39
0
210
0
220
0
230
1
0
LINE
5
8D
100
AcDbEntity
8
1
62
256
6
ByLayer
370
18
48
1
60
0
100
AcDbLine
10
0.5
20
9.9375
30
0
11
0.5
21
-9.939682
31
0
39
0
210
0
220
0
230
1
0
LINE
5
8E
100
AcDbEntity
8
1
62
256
6
ByLayer
370
18
48
1
60
0
100
AcDbLine
10
11.675236
20
11.09149
30
0
11
12.283545
21
13.361728
31
0
39
0
210
0
220
0
230
1
0
LINE
5
8F
100
AcDbEntity
8
1
62
256
6
ByLayer
370
18
48
1
60
0
100
AcDbLine
10
26.900013
20
10.884732
30
0
11
26.900011
21
10.712498
31
0
39
0
210
0
220
0
230
1
0
LINE
5
90
100
AcDbEntity
8
1
62
256
6
ByLayer
370
18
48
1
60
0
100
AcDbLine
10
18.5
20
6.7875
30
0
11
18.5
21
-3.9375
31
0
39
0
210
0
220
0
230
1
0
LINE
5
91
100
AcDbEntity
8
1
62
256
6
ByLayer
370
18
48
1
60
0
100
AcDbLine
10
24.900145
20
10.884739
30
0
11
24.900142
21
10.771779
31
0
39
0
210
0
220
0
230
1
0
LINE
5
92
100
AcDbEntity
8
1
62
256
6
ByLayer
370
18
48
1
60
0
100
AcDbLine
10
20.1
20
8.410226
30
0
11
20.1
21
8.725427
31
0
39
0
210
0
220
0
230
1
0
LINE
5
93
100
AcDbEntity
8
SK1
62
256
6
ByLayer
370
18
48
1
60
0
100
AcDbLine
10
0
20
9.9375
30
0
11
0
21
-9.9375
31
0
39
0
210
0
220
0
230
1
0
LINE
5
95
100
AcDbEntity
8
SK1
62
256
6
ByLayer
370
18
48
1
60
0
100
AcDbLine
10
-93.35
20
9.9375
30
0
11
-93.35
21
-9.9375
31
0
39
0
210
0
220
0
230
1
0
LINE
5
96
100
AcDbEntity
8
SK1
62
256
6
ByLayer
370
18
48
1
60
0
100
AcDbLine
10
-93.35
20
-9.9375
30
0
11
0
21
-9.9375
31
0
39
0
210
0
220
0
230
1
0
LINE
5
97
100
AcDbEntity
8
SK1
62
256
6
ByLayer
370
18
48
1
60
0
100
AcDbLine
10
0
20
9.9375
30
0
11
-93.35
21
9.9375
31
0
39
0
210
0
220
0
230
1
0
LINE
5
98
100
AcDbEntity
8
1
62
256
6
ByLayer
370
18
48
1
60
0
100
AcDbLine
10
27.365346
20
8.586051
30
0
11
26.177563
21
8.586051
31
0
39
0
210
0
220
0
230
1
0
LINE
5
99
100
AcDbEntity
8
1
62
256
6
ByLayer
370
18
48
1
60
0
100
AcDbLine
10
27.401626
20
8.637354
30
0
11
26.199982
21
8.637354
31
0
39
0
210
0
220
0
230
1
0
LINE
5
9A
100
AcDbEntity
8
1
62
256
6
ByLayer
370
18
48
1
60
0
100
AcDbLine
10
27.365346
20
10.538949
30
0
11
26.17729
21
10.538949
31
0
39
0
210
0
220
0
230
1
0
LINE
5
9B
100
AcDbEntity
8
1
62
256
6
ByLayer
370
18
48
1
60
0
100
AcDbLine
10
27.401626
20
10.487646
30
0
11
26.199707
21
10.487646
31
0
39
0
210
0
220
0
230
1
0
LINE
5
9C
100
AcDbEntity
8
1
62
256
6
ByLayer
370
18
48
1
60
0
100
AcDbLine
10
26.101579
20
10.7125
30
0
11
27.365346
21
10.7125
31
0
39
0
210
0
220
0
230
1
0
LINE
5
9D
100
AcDbEntity
8
1
62
256
6
ByLayer
370
18
48
1
60
0
100
AcDbLine
10
26.102124
20
8.4125
30
0
11
27.365346
21
8.4125
31
0
39
0
210
0
220
0
230
1
0
LINE
5
9E
100
AcDbEntity
8
1
62
256
6
ByLayer
370
18
48
1
60
0
100
AcDbLine
10
26.425233
20
9.39149
30
0
11
28.50252
21
9.39149
31
0
39
0
210
0
220
0
230
1
0
LINE
5
9F
100
AcDbEntity
8
1
62
256
6
ByLayer
370
18
48
1
60
0
100
AcDbLine
10
26.42592
20
9.73351
30
0
11
28.50252
21
9.73351
31
0
39
0
210
0
220
0
230
1
0
LINE
5
A0
100
AcDbEntity
8
1
62
256
6
ByLayer
370
18
48
1
60
0
100
AcDbLine
10
26.447181
20
9.56249
30
0
11
28.62346
21
9.56249
31
0
39
0
210
0
220
0
230
1
0
LINE
5
A1
100
AcDbEntity
8
1
62
256
6
ByLayer
370
18
48
1
60
0
100
AcDbLine
10
30.91102
20
10.977781
30
0
11
30.51463
21
10.998106
31
0
39
0
210
0
220
0
230
1
0
LINE
5
A2
100
AcDbEntity
8
1
62
256
6
ByLayer
370
18
48
1
60
0
100
AcDbLine
10
30.51463
20
10.998106
30
0
11
30.51463
21
8.126894
31
0
39
0
210
0
220
0
230
1
0
LINE
5
A3
100
AcDbEntity
8
1
62
256
6
ByLayer
370
18
48
1
60
0
100
AcDbLine
10
30.91102
20
10.977781
30
0
11
30.91102
21
8.147219
31
0
39
0
210
0
220
0
230
1
0
LINE
5
A4
100
AcDbEntity
8
1
62
256
6
ByLayer
370
18
48
1
60
0
100
AcDbLine
10
30.91102
20
8.147219
30
0
11
32.682553
21
8.04404
31
0
39
0
210
0
220
0
230
1
0
LINE
5
A5
100
AcDbEntity
8
1
62
256
6
ByLayer
370
18
48
1
60
0
100
AcDbLine
10
33
20
8.343604
30
0
11
33
21
10.781396
31
0
39
0
210
0
220
0
230
1
0
LINE
5
A6
100
AcDbEntity
8
1
62
256
6
ByLayer
370
18
48
1
60
0
100
AcDbLine
10
27.365346
20
10.7125
30
0
11
28.809976
21
10.7125
31
0
39
0
210
0
220
0
230
1
0
LINE
5
A7
100
AcDbEntity
8
1
62
256
6
ByLayer
370
18
48
1
60
0
100
AcDbLine
10
29.262252
20
10.959362
30
0
11
28.809976
21
10.7125
31
0
39
0
210
0
220
0
230
1
0
LINE
5
A8
100
AcDbEntity
8
1
62
256
6
ByLayer
370
18
48
1
60
0
100
AcDbLine
10
27.365346
20
10.7125
30
0
11
27.365346
21
10.538949
31
0
39
0
210
0
220
0
230
1
0
LINE
5
A9
100
AcDbEntity
8
1
62
256
6
ByLayer
370
18
48
1
60
0
100
AcDbLine
10
30.91102
20
10.977781
30
0
11
32.682553
21
11.08096
31
0
39
0
210
0
220
0
230
1
0
LINE
5
AA
100
AcDbEntity
8
1
62
256
6
ByLayer
370
18
48
1
60
0
100
AcDbLine
10
29.262252
20
10.959362
30
0
11
30.51463
21
10.998106
31
0
39
0
210
0
220
0
230
1
0
LINE
5
AB
100
AcDbEntity
8
1
62
256
6
ByLayer
370
18
48
1
60
0
100
AcDbLine
10
28.50252
20
9.73351
30
0
11
27.401627
21
10.487647
31
0
39
0
210
0
220
0
230
1
0
LINE
5
AC
100
AcDbEntity
8
1
62
256
6
ByLayer
370
18
48
1
60
0
100
AcDbLine
10
27.365346
20
8.4125
30
0
11
27.365346
21
8.586051
31
0
39
0
210
0
220
0
230
1
0
LINE
5
AD
100
AcDbEntity
8
1
62
256
6
ByLayer
370
18
48
1
60
0
100
AcDbLine
10
28.50252
20
9.39149
30
0
11
27.401627
21
8.637353
31
0
39
0
210
0
220
0
230
1
0
LINE
5
AE
100
AcDbEntity
8
1
62
256
6
ByLayer
370
18
48
1
60
0
100
AcDbLine
10
27.365346
20
8.4125
30
0
11
28.809976
21
8.4125
31
0
39
0
210
0
220
0
230
1
0
LINE
5
AF
100
AcDbEntity
8
1
62
256
6
ByLayer
370
18
48
1
60
0
100
AcDbLine
10
29.262252
20
8.165638
30
0
11
30.51463
21
8.126894
31
0
39
0
210
0
220
0
230
1
0
LINE
5
B0
100
AcDbEntity
8
1
62
256
6
ByLayer
370
18
48
1
60
0
100
AcDbLine
10
29.262252
20
8.165638
30
0
11
28.809976
21
8.4125
31
0
39
0
210
0
220
0
230
1
0
LINE
5
B1
100
AcDbEntity
8
1
62
256
6
ByLayer
370
18
48
1
60
0
100
AcDbLine
10
30.91102
20
8.147219
30
0
11
30.51463
21
8.126894
31
0
39
0
210
0
220
0
230
1
0
MTEXT
5
EF
100
AcDbEntity
8
SK6
62
256
6
ByLayer
370
18
48
1
60
0
100
AcDbMText
10
-59.297475
20
-19.679303
30
0
210
0
220
0
230
1
1
\W0.7418;RF123G13-2020B-090B
40
3.5
41
0
44
1.084337
50
0
71
7
72
5
7
iso_b_vert
0
DIMENSION
5
100
100
AcDbEntity
8
2
62
256
6
ByLayer
370
13
48
1
60
0
100
AcDbDimension
2
DimnDraft3D1
10
47.25
20
11.0625
30
0
11
47.25
21
15.5625
31
0
70
32
71
5
72
1
41
1
210
0
220
0
230
1
3
Standard
100
AcDbAlignedDimension
13
34.5
23
8.0625
33
0
14
34.5
24
11.0625
34
0
50
90
100
AcDbRotatedDimension
1001
ACAD
1000
DSTYLE
1002
{
1070
    74
1070
     0
1070
   279
1070
     0
1070
   172
1070
     1
1070
   173
1070
     1
1070
   340
1005
F0
1070
   271
1070
     3
1070
   272
1070
     3
1070
    77
1070
     1
1070
    73
1070
     0
1070
   171
1070
     4
1070
   274
1070
     4
1070
   177
1070
     2
1070
   176
1070
     2
1070
   178
1070
     7
1070
    78
1070
     8
1070
    41
1041
3.0
1070
   147
1041
2.25
1070
    42
1041
1.5
1070
    44
1041
3.0
1070
   140
1041
4.5
1070
   343
1005
101
1070
   344
1005
101
1002
}
0
DIMENSION
5
115
100
AcDbEntity
8
2
62
256
6
ByLayer
370
13
48
1
60
0
100
AcDbDimension
2
DimnDraft3D2
10
57.25
20
-9.9375
30
0
11
57.25
21
-1.563158
31
0
70
32
71
5
72
1
41
1
210
0
220
0
230
1
3
Standard
100
AcDbAlignedDimension
13
34.5
23
11.0625
33
0
14
-3.5
24
-9.9375
34
0
50
90
100
AcDbRotatedDimension
1001
ACAD
1000
DSTYLE
1002
{
1070
    74
1070
     0
1070
   279
1070
     0
1070
   172
1070
     1
1070
   173
1070
     1
1070
   340
1005
F0
1070
   271
1070
     3
1070
   272
1070
     3
1070
    77
1070
     1
1070
    73
1070
     0
1070
   171
1070
     4
1070
   274
1070
     4
1070
   177
1070
     2
1070
   176
1070
     2
1070
   178
1070
     7
1070
    78
1070
     8
1070
    41
1041
3.0
1070
   147
1041
2.25
1070
    42
1041
1.5
1070
    44
1041
3.0
1070
   140
1041
4.5
1070
   343
1005
101
1070
   344
1005
101
1002
}
0
DIMENSION
5
124
100
AcDbEntity
8
SK2
62
256
6
ByLayer
370
13
48
1
60
0
100
AcDbDimension
2
DimnDraft3D3
10
-103.1
20
-9.9375
30
0
11
-103.1
21
-2.688158
31
0
70
32
71
5
72
1
41
1
210
0
220
0
230
1
3
Standard
100
AcDbAlignedDimension
13
-94.85
23
9.9375
33
0
14
-94.85
24
-9.9375
34
0
50
90
100
AcDbRotatedDimension
1001
ACAD
1000
DSTYLE
1002
{
1070
    74
1070
     0
1070
   279
1070
     0
1070
   172
1070
     1
1070
   173
1070
     1
1070
   340
1005
F0
1070
   271
1070
     3
1070
   272
1070
     3
1070
    77
1070
     1
1070
    73
1070
     0
1070
   171
1070
     4
1070
   274
1070
     4
1070
   177
1070
     2
1070
   176
1070
     2
1070
   178
1070
     7
1070
    78
1070
     8
1070
    41
1041
3.0
1070
   147
1041
2.25
1070
    42
1041
1.5
1070
    44
1041
3.0
1070
   140
1041
4.5
1070
   343
1005
101
1070
   344
1005
101
1002
}
0
DIMENSION
5
132
100
AcDbEntity
8
2
62
256
6
ByLayer
370
13
48
1
60
0
100
AcDbDimension
2
DimnDraft3D4
10
0
20
22.53542
30
0
11
13.811842
21
22.53542
31
0
70
32
71
5
72
1
41
1
210
0
220
0
230
1
3
Standard
100
AcDbAlignedDimension
13
33
23
12.5625
33
0
14
0
24
11.4375
34
0
50
0
100
AcDbRotatedDimension
1001
ACAD
1000
DSTYLE
1002
{
1070
   279
1070
     0
1070
   172
1070
     1
1070
   173
1070
     1
1070
   340
1005
F0
1070
   271
1070
     3
1070
   272
1070
     3
1070
    77
1070
     1
1070
    73
1070
     0
1070
   171
1070
     4
1070
   274
1070
     4
1070
   177
1070
     2
1070
   176
1070
     2
1070
   178
1070
     7
1070
    78
1070
     8
1070
    41
1041
3.0
1070
   147
1041
2.25
1070
    42
1041
1.5
1070
    44
1041
3.0
1070
   140
1041
4.5
1070
   343
1005
101
1070
   344
1005
101
1002
}
0
DIMENSION
5
140
100
AcDbEntity
8
SK2
62
256
6
ByLayer
370
13
48
1
60
0
100
AcDbDimension
2
DimnDraft3D5
10
-93.35
20
32.53542
30
0
11
-33.982237
21
32.53542
31
0
70
32
71
5
72
1
41
1
210
0
220
0
230
1
3
Standard
100
AcDbAlignedDimension
13
33
23
12.5625
33
0
14
-93.35
24
11.4375
34
0
50
0
100
AcDbRotatedDimension
1001
ACAD
1000
DSTYLE
1002
{
1070
   279
1070
     0
1070
   172
1070
     1
1070
   173
1070
     1
1070
   340
1005
F0
1070
   271
1070
     3
1070
   272
1070
     3
1070
    77
1070
     1
1070
    73
1070
     0
1070
   171
1070
     4
1070
   274
1070
     4
1070
   177
1070
     2
1070
   176
1070
     2
1070
   178
1070
     7
1070
    78
1070
     8
1070
    41
1041
3.0
1070
   147
1041
2.25
1070
    42
1041
1.5
1070
    44
1041
3.0
1070
   140
1041
4.5
1070
   343
1005
101
1070
   344
1005
101
1002
}
0
DIMENSION
5
14E
100
AcDbEntity
8
2
62
256
6
ByLayer
370
13
48
1
60
0
100
AcDbDimension
2
DimnDraft3D6
10
33
20
-24.1875
30
0
11
24.374342
21
-24.1875
31
0
70
32
71
5
72
1
41
1
210
0
220
0
230
1
3
Standard
100
AcDbAlignedDimension
13
20
23
5.5625
33
0
14
33
24
6.5625
34
0
50
0
100
AcDbRotatedDimension
1001
ACAD
1000
DSTYLE
1002
{
1070
   279
1070
     0
1070
   172
1070
     1
1070
   173
1070
     1
1070
   340
1005
F0
1070
   271
1070
     3
1070
   272
1070
     3
1070
    77
1070
     1
1070
    73
1070
     0
1070
   171
1070
     4
1070
   274
1070
     4
1070
   177
1070
     2
1070
   176
1070
     2
1070
   178
1070
     7
1070
    78
1070
     8
1070
    41
1041
3.0
1070
   147
1041
2.25
1070
    42
1041
1.5
1070
    44
1041
3.0
1070
   140
1041
4.5
1070
   343
1005
101
1070
   344
1005
101
1002
}
0
ENDSEC
0
SECTION
2
OBJECTS
0
DICTIONARY
5
1b8
330
0
100
AcDbDictionary
280
0
281
1
3
ACAD_GROUP
350
1b9
3
ACAD_MLINESTYLE
350
1ba
0
DICTIONARY
5
1b9
330
0
100
AcDbDictionary
280
0
281
1
0
DICTIONARY
5
1ba
330
0
100
AcDbDictionary
280
0
281
1
3
Standard
350
18
0
MLINESTYLE
5
18
330
1ba
100
AcDbMlineStyle
2
Standard
70
0
3

62
256
51
90
52
90
71
2
49
-0.5
62
256
6
ByLayer
49
0.5
62
256
6
ByLayer
0
RASTERVARIABLES
5
1a7
330

100
AcDbRasterVariables
90
0
70
1
71
1
72
1
0
ENDSEC
0
EOF
