0
SECTION
2
HEADER
9
$ACADVER
1
AC1015
9
$DWGCODEPAGE
3
ANSI_1252
9
$HANDSEED
5
1c7
9
$ANGBASE
50
0
9
$ANGDIR
70
0
9
$ATTMODE
70
1
9
$AUNITS
70
0
9
$AUPREC
70
0
9
$CECOLOR
62
256
9
$CELTSCALE
40
1
9
$CELTYPE
6
ByLayer
9
$CELWEIGHT
370
18
9
$CLAYER
8
0
9
$CMLJUST
70
0
9
$CMLSCALE
40
1
9
$CMLSTYLE
2
Standard
9
$DIMSTYLE
2
Standard
9
$TEXTSIZE
40
0.2
9
$TEXTSTYLE
7
Standard
9
$LUNITS
70
2
9
$LUPREC
70
4
9
$EXTNAMES
290
1
9
$INSUNITS
70
4
9
$LTSCALE
40
1
9
$LWDISPLAY
290
1
9
$PDMODE
70
0
9
$PDSIZE
40
0
9
$PLINEGEN
70
0
0
ENDSEC
0
SECTION
2
CLASSES
0
CLASS
1
RASTERVARIABLES
2
AcDbRasterVariables
3
ISM
90
0
280
0
281
0
0
ENDSEC
0
SECTION
2
TABLES
0
TABLE
2
VPORT
5
1bd
100
AcDbSymbolTable
0
VPORT
5
1
100
AcDbSymbolTableRecord
100
AcDbViewportTableRecord
2
*Active
70
0
10
0
20
0
11
1
21
1
12
-1
22
1
13
0
23
0
14
0.5
24
0.5
15
10
25
10
16
0
26
0
36
1
17
0
27
0
37
0
0
ENDTAB
0
TABLE
2
LTYPE
5
1be
100
AcDbSymbolTable
0
LTYPE
5
14
100
AcDbSymbolTableRecord
100
AcDbLinetypeTableRecord
70
0
2
ByBlock
3

72
65
73
0
40
0
0
LTYPE
5
15
100
AcDbSymbolTableRecord
100
AcDbLinetypeTableRecord
70
0
2
ByLayer
3

72
65
73
0
40
0
0
LTYPE
5
16
100
AcDbSymbolTableRecord
100
AcDbLinetypeTableRecord
70
0
2
CONTINUOUS
3
Solid line
72
65
73
0
40
0
0
LTYPE
5
6A
100
AcDbSymbolTableRecord
100
AcDbLinetypeTableRecord
70
0
2
CENTER
3
____ _ ____ _ ____ _ ____
72
65
73
4
40
47.5
49
22
74
0
49
-8.5
74
0
49
8.5
74
0
49
-8.5
74
0
0
LTYPE
5
6B
100
AcDbSymbolTableRecord
100
AcDbLinetypeTableRecord
70
0
2
DASHED
3
__ __ __ __ __ __ __ __ __
72
65
73
2
40
25.72
49
12.86
74
0
49
-12.86
74
0
0
ENDTAB
0
TABLE
2
LAYER
5
1bf
100
AcDbSymbolTable
0
LAYER
5
10
100
AcDbSymbolTableRecord
100
AcDbLayerTableRecord
2
0
70
0
62
7
6
CONTINUOUS
290
1
370
-3
390
0
0
LAYER
5
6D
100
AcDbSymbolTableRecord
100
AcDbLayerTableRecord
2
2
70
0
62
7
6
CONTINUOUS
290
1
370
-3
390
0
0
LAYER
5
6F
100
AcDbSymbolTableRecord
100
AcDbLayerTableRecord
2
80
70
0
62
-6
6
CONTINUOUS
290
1
370
-3
390
0
0
LAYER
5
72
100
AcDbSymbolTableRecord
100
AcDbLayerTableRecord
2
81
70
0
62
-3
6
CONTINUOUS
290
1
370
-3
390
0
0
LAYER
5
76
100
AcDbSymbolTableRecord
100
AcDbLayerTableRecord
2
1
70
0
62
4
6
CONTINUOUS
290
1
370
-3
390
0
0
LAYER
5
1aa
100
AcDbSymbolTableRecord
100
AcDbLayerTableRecord
2
SK1
70
0
62
4
6
CONTINUOUS
290
1
370
-3
390
0
0
LAYER
5
1ab
100
AcDbSymbolTableRecord
100
AcDbLayerTableRecord
2
SK6
70
0
62
5
6
CONTINUOUS
290
1
370
-3
390
0
0
LAYER
5
1ac
100
AcDbSymbolTableRecord
100
AcDbLayerTableRecord
2
SK2
70
0
62
7
6
CONTINUOUS
290
1
370
-3
390
0
0
ENDTAB
0
TABLE
2
STYLE
5
1c0
100
AcDbSymbolTable
0
STYLE
5
11
100
AcDbSymbolTableRecord
100
AcDbTextStyleTableRecord
2
Standard
3
txt
70
0
71
0
40
0
41
1
42
0
50
0
0
STYLE
5
F2
100
AcDbSymbolTableRecord
100
AcDbTextStyleTableRecord
2
iso_b_vert
3
simplex.shx
70
0
71
0
40
0
41
1
42
0
50
0
0
STYLE
5
F3
100
AcDbSymbolTableRecord
100
AcDbTextStyleTableRecord
2
DWGDirectTextStyle
3
simplex
70
0
71
0
40
0
41
1
42
0
50
0
0
ENDTAB
0
TABLE
2
DIMSTYLE
5
1c1
100
AcDbSymbolTable
100
AcDbDimStyleTable
0
DIMSTYLE
105
27
100
AcDbSymbolTableRecord
100
AcDbDimStyleTableRecord
2
Standard
70
0
3
<>
41
0.18
42
0.0625
44
0.18
140
0.18
147
0.09
73
0
74
0
77
1
271
2
275
0
278
52
280
0
340
11
0
ENDTAB
0
TABLE
2
VIEW
5
1c2
100
AcDbSymbolTable
0
ENDTAB
0
TABLE
2
UCS
5
1c3
100
AcDbSymbolTable
0
ENDTAB
0
TABLE
2
APPID
5
1c4
100
AcDbSymbolTable
0
APPID
5
12
100
AcDbSymbolTableRecord
100
AcDbRegAppTableRecord
2
ACAD
70
0
0
ENDTAB
0
TABLE
2
BLOCK_RECORD
5
1c5
100
AcDbSymbolTable
0
BLOCK_RECORD
5
1F
100
AcDbSymbolTableRecord
100
AcDbBlockTableRecord
2
*Model_Space
340
0
70
0
0
BLOCK_RECORD
5
1B
100
AcDbSymbolTableRecord
100
AcDbBlockTableRecord
2
*Paper_Space
340
0
70
0
0
BLOCK_RECORD
5
23
100
AcDbSymbolTableRecord
100
AcDbBlockTableRecord
2
*Paper_Space0
340
0
70
0
0
BLOCK_RECORD
5
F5
100
AcDbSymbolTableRecord
100
AcDbBlockTableRecord
2
DimnDraft3D1
340
0
70
0
0
BLOCK_RECORD
5
103
100
AcDbSymbolTableRecord
100
AcDbBlockTableRecord
2
_CLOSED
340
0
70
0
0
BLOCK_RECORD
5
10A
100
AcDbSymbolTableRecord
100
AcDbBlockTableRecord
2
DimnDraft3D2
340
0
70
0
0
BLOCK_RECORD
5
118
100
AcDbSymbolTableRecord
100
AcDbBlockTableRecord
2
DimnDraft3D3
340
0
70
0
0
BLOCK_RECORD
5
127
100
AcDbSymbolTableRecord
100
AcDbBlockTableRecord
2
DimnDraft3D4
340
0
70
0
0
BLOCK_RECORD
5
135
100
AcDbSymbolTableRecord
100
AcDbBlockTableRecord
2
DimnDraft3D5
340
0
70
0
0
BLOCK_RECORD
5
143
100
AcDbSymbolTableRecord
100
AcDbBlockTableRecord
2
DimnDraft3D6
340
0
70
0
0
ENDTAB
0
ENDSEC
0
SECTION
2
BLOCKS
0
BLOCK
5
20
100
AcDbEntity
8
0
100
AcDbBlockBegin
2
*Model_Space
70
0
10
0
20
0
30
0
3
*Model_Space
0
ENDBLK
5
21
100
AcDbEntity
8
0
100
AcDbBlockEnd
0
BLOCK
5
1C
100
AcDbEntity
8
0
100
AcDbBlockBegin
2
*Paper_Space
70
0
10
0
20
0
30
0
3
*Paper_Space
0
ENDBLK
5
1D
100
AcDbEntity
8
0
100
AcDbBlockEnd
0
BLOCK
5
24
100
AcDbEntity
8
0
100
AcDbBlockBegin
2
*Paper_Space0
70
0
10
0
20
0
30
0
3
*Paper_Space0
0
ENDBLK
5
25
100
AcDbEntity
8
0
100
AcDbBlockEnd
0
BLOCK
5
100
100
AcDbEntity
8
0
100
AcDbBlockBegin
2
DimnDraft3D1
70
0
10
0
20
0
30
0
3
DimnDraft3D1
0
MTEXT
5
F6
100
AcDbEntity
8
2
62
256
6
ByLayer
370
18
48
1
60
0
100
AcDbMText
10
46.125
20
16.6875
30
0
210
0
220
0
230
1
1
\W0.5404;3
40
4.5
41
0
44
1.084337
50
90
71
7
72
5
7
iso_b_vert
0
LINE
5
F7
100
AcDbEntity
8
2
62
256
6
ByLayer
370
13
48
1
60
0
100
AcDbLine
10
34.5
20
8.0625
30
0
11
50.25
21
8.0625
31
0
39
0
210
0
220
0
230
1
0
LINE
5
F8
100
AcDbEntity
8
2
62
256
6
ByLayer
370
13
48
1
60
0
100
AcDbLine
10
34.5
20
11.0625
30
0
11
50.25
21
11.0625
31
0
39
0
210
0
220
0
230
1
0
LINE
5
F9
100
AcDbEntity
8
2
62
256
6
ByLayer
370
13
48
1
60
0
100
AcDbLine
10
47.25
20
17.575658
30
0
11
47.25
21
-3.1875
31
0
39
0
210
0
220
0
230
1
0
LINE
5
FA
100
AcDbEntity
8
2
62
256
6
ByLayer
370
13
48
1
60
0
100
AcDbLine
10
47.25
20
8.0625
30
0
11
47.644957
21
5.062501
31
0
39
0
210
0
220
0
230
1
0
LINE
5
FB
100
AcDbEntity
8
2
62
256
6
ByLayer
370
13
48
1
60
0
100
AcDbLine
10
47.25
20
8.0625
30
0
11
46.855043
21
5.062499
31
0
39
0
210
0
220
0
230
1
0
LINE
5
FC
100
AcDbEntity
8
2
62
256
6
ByLayer
370
13
48
1
60
0
100
AcDbLine
10
47.644957
20
5.062501
30
0
11
46.855043
21
5.062499
31
0
39
0
210
0
220
0
230
1
0
LINE
5
FD
100
AcDbEntity
8
2
62
256
6
ByLayer
370
13
48
1
60
0
100
AcDbLine
10
47.25
20
11.0625
30
0
11
46.855043
21
14.062499
31
0
39
0
210
0
220
0
230
1
0
LINE
5
FE
100
AcDbEntity
8
2
62
256
6
ByLayer
370
13
48
1
60
0
100
AcDbLine
10
47.25
20
11.0625
30
0
11
47.644957
21
14.062501
31
0
39
0
210
0
220
0
230
1
0
LINE
5
FF
100
AcDbEntity
8
2
62
256
6
ByLayer
370
13
48
1
60
0
100
AcDbLine
10
46.855043
20
14.062499
30
0
11
47.644957
21
14.062501
31
0
39
0
210
0
220
0
230
1
0
ENDBLK
5
101
100
AcDbEntity
8
0
100
AcDbBlockEnd
0
BLOCK
5
104
100
AcDbEntity
8
0
100
AcDbBlockBegin
2
_CLOSED
70
0
10
0
20
0
30
0
3
_CLOSED
0
LINE
5
106
100
AcDbEntity
8
0
62
256
6
ByLayer
370
-2
48
1
60
0
100
AcDbLine
10
-1
20
0.166667
30
0
11
0
21
0
31
0
39
0
210
0
220
0
230
1
0
LINE
5
107
100
AcDbEntity
8
0
62
256
6
ByLayer
370
-2
48
1
60
0
100
AcDbLine
10
0
20
0
30
0
11
-1
21
-0.166667
31
0
39
0
210
0
220
0
230
1
0
LINE
5
108
100
AcDbEntity
8
0
62
256
6
ByLayer
370
-2
48
1
60
0
100
AcDbLine
10
-1
20
0.166667
30
0
11
-1
21
-0.166667
31
0
39
0
210
0
220
0
230
1
0
LINE
5
109
100
AcDbEntity
8
0
62
256
6
ByLayer
370
-2
48
1
60
0
100
AcDbLine
10
0
20
0
30
0
11
-1
21
0
31
0
39
0
210
0
220
0
230
1
0
ENDBLK
5
105
100
AcDbEntity
8
0
100
AcDbBlockEnd
0
BLOCK
5
115
100
AcDbEntity
8
0
100
AcDbBlockBegin
2
DimnDraft3D2
70
0
10
0
20
0
30
0
3
DimnDraft3D2
0
MTEXT
5
10B
100
AcDbEntity
8
2
62
256
6
ByLayer
370
18
48
1
60
0
100
AcDbMText
10
56.125
20
-0.438158
30
0
210
0
220
0
230
1
1
\W0.6351;21
40
4.5
41
0
44
1.084337
50
90
71
7
72
5
7
iso_b_vert
0
LINE
5
10C
100
AcDbEntity
8
2
62
256
6
ByLayer
370
13
48
1
60
0
100
AcDbLine
10
34.5
20
11.0625
30
0
11
60.25
21
11.0625
31
0
39
0
210
0
220
0
230
1
0
LINE
5
10D
100
AcDbEntity
8
2
62
256
6
ByLayer
370
13
48
1
60
0
100
AcDbLine
10
-3.5
20
-9.9375
30
0
11
60.25
21
-9.9375
31
0
39
0
210
0
220
0
230
1
0
LINE
5
10E
100
AcDbEntity
8
2
62
256
6
ByLayer
370
13
48
1
60
0
100
AcDbLine
10
57.25
20
11.0625
30
0
11
57.25
21
-9.9375
31
0
39
0
210
0
220
0
230
1
0
LINE
5
10F
100
AcDbEntity
8
2
62
256
6
ByLayer
370
13
48
1
60
0
100
AcDbLine
10
57.25
20
11.0625
30
0
11
57.644957
21
8.062501
31
0
39
0
210
0
220
0
230
1
0
LINE
5
110
100
AcDbEntity
8
2
62
256
6
ByLayer
370
13
48
1
60
0
100
AcDbLine
10
57.25
20
11.0625
30
0
11
56.855043
21
8.062499
31
0
39
0
210
0
220
0
230
1
0
LINE
5
111
100
AcDbEntity
8
2
62
256
6
ByLayer
370
13
48
1
60
0
100
AcDbLine
10
57.644957
20
8.062501
30
0
11
56.855043
21
8.062499
31
0
39
0
210
0
220
0
230
1
0
LINE
5
112
100
AcDbEntity
8
2
62
256
6
ByLayer
370
13
48
1
60
0
100
AcDbLine
10
57.25
20
-9.9375
30
0
11
56.855043
21
-6.937501
31
0
39
0
210
0
220
0
230
1
0
LINE
5
113
100
AcDbEntity
8
2
62
256
6
ByLayer
370
13
48
1
60
0
100
AcDbLine
10
57.25
20
-9.9375
30
0
11
57.644957
21
-6.937499
31
0
39
0
210
0
220
0
230
1
0
LINE
5
114
100
AcDbEntity
8
2
62
256
6
ByLayer
370
13
48
1
60
0
100
AcDbLine
10
56.855043
20
-6.937501
30
0
11
57.644957
21
-6.937499
31
0
39
0
210
0
220
0
230
1
0
ENDBLK
5
116
100
AcDbEntity
8
0
100
AcDbBlockEnd
0
BLOCK
5
124
100
AcDbEntity
8
0
100
AcDbBlockBegin
2
DimnDraft3D3
70
0
10
0
20
0
30
0
3
DimnDraft3D3
0
MTEXT
5
119
100
AcDbEntity
8
SK2
62
256
6
ByLayer
370
18
48
1
60
0
100
AcDbMText
10
-104.225
20
-1.563158
30
0
210
0
220
0
230
1
1
\W0.6740;20
40
4.5
41
0
44
1.084337
50
90
71
7
72
5
7
iso_b_vert
0
LINE
5
11B
100
AcDbEntity
8
SK2
62
256
6
ByLayer
370
13
48
1
60
0
100
AcDbLine
10
-94.85
20
9.9375
30
0
11
-106.1
21
9.9375
31
0
39
0
210
0
220
0
230
1
0
LINE
5
11C
100
AcDbEntity
8
SK2
62
256
6
ByLayer
370
13
48
1
60
0
100
AcDbLine
10
-94.85
20
-9.9375
30
0
11
-106.1
21
-9.9375
31
0
39
0
210
0
220
0
230
1
0
LINE
5
11D
100
AcDbEntity
8
SK2
62
256
6
ByLayer
370
13
48
1
60
0
100
AcDbLine
10
-103.1
20
9.9375
30
0
11
-103.1
21
-9.9375
31
0
39
0
210
0
220
0
230
1
0
LINE
5
11E
100
AcDbEntity
8
SK2
62
256
6
ByLayer
370
13
48
1
60
0
100
AcDbLine
10
-103.1
20
9.9375
30
0
11
-102.705043
21
6.937501
31
0
39
0
210
0
220
0
230
1
0
LINE
5
11F
100
AcDbEntity
8
SK2
62
256
6
ByLayer
370
13
48
1
60
0
100
AcDbLine
10
-103.1
20
9.9375
30
0
11
-103.494957
21
6.937499
31
0
39
0
210
0
220
0
230
1
0
LINE
5
120
100
AcDbEntity
8
SK2
62
256
6
ByLayer
370
13
48
1
60
0
100
AcDbLine
10
-102.705043
20
6.937501
30
0
11
-103.494957
21
6.937499
31
0
39
0
210
0
220
0
230
1
0
LINE
5
121
100
AcDbEntity
8
SK2
62
256
6
ByLayer
370
13
48
1
60
0
100
AcDbLine
10
-103.1
20
-9.9375
30
0
11
-103.494957
21
-6.937501
31
0
39
0
210
0
220
0
230
1
0
LINE
5
122
100
AcDbEntity
8
SK2
62
256
6
ByLayer
370
13
48
1
60
0
100
AcDbLine
10
-103.1
20
-9.9375
30
0
11
-102.705043
21
-6.937499
31
0
39
0
210
0
220
0
230
1
0
LINE
5
123
100
AcDbEntity
8
SK2
62
256
6
ByLayer
370
13
48
1
60
0
100
AcDbLine
10
-103.494957
20
-6.937501
30
0
11
-102.705043
21
-6.937499
31
0
39
0
210
0
220
0
230
1
0
ENDBLK
5
125
100
AcDbEntity
8
0
100
AcDbBlockEnd
0
BLOCK
5
132
100
AcDbEntity
8
0
100
AcDbBlockBegin
2
DimnDraft3D4
70
0
10
0
20
0
30
0
3
DimnDraft3D4
0
MTEXT
5
128
100
AcDbEntity
8
2
62
256
6
ByLayer
370
18
48
1
60
0
100
AcDbMText
10
14.936842
20
27.014781
30
0
210
0
220
0
230
1
1
\W0.6740;33
40
4.5
41
0
44
1.084337
50
0
71
7
72
5
7
iso_b_vert
0
LINE
5
129
100
AcDbEntity
8
2
62
256
6
ByLayer
370
13
48
1
60
0
100
AcDbLine
10
33
20
12.5625
30
0
11
33
21
28.889781
31
0
39
0
210
0
220
0
230
1
0
LINE
5
12A
100
AcDbEntity
8
2
62
256
6
ByLayer
370
13
48
1
60
0
100
AcDbLine
10
0
20
11.4375
30
0
11
0
21
28.889781
31
0
39
0
210
0
220
0
230
1
0
LINE
5
12B
100
AcDbEntity
8
2
62
256
6
ByLayer
370
13
48
1
60
0
100
AcDbLine
10
33
20
25.889781
30
0
11
0
21
25.889781
31
0
39
0
210
0
220
0
230
1
0
LINE
5
12C
100
AcDbEntity
8
2
62
256
6
ByLayer
370
13
48
1
60
0
100
AcDbLine
10
33
20
25.889781
30
0
11
30.000001
21
25.494823
31
0
39
0
210
0
220
0
230
1
0
LINE
5
12D
100
AcDbEntity
8
2
62
256
6
ByLayer
370
13
48
1
60
0
100
AcDbLine
10
33
20
25.889781
30
0
11
29.999999
21
26.284738
31
0
39
0
210
0
220
0
230
1
0
LINE
5
12E
100
AcDbEntity
8
2
62
256
6
ByLayer
370
13
48
1
60
0
100
AcDbLine
10
30.000001
20
25.494823
30
0
11
29.999999
21
26.284738
31
0
39
0
210
0
220
0
230
1
0
LINE
5
12F
100
AcDbEntity
8
2
62
256
6
ByLayer
370
13
48
1
60
0
100
AcDbLine
10
0
20
25.889781
30
0
11
2.999999
21
26.284738
31
0
39
0
210
0
220
0
230
1
0
LINE
5
130
100
AcDbEntity
8
2
62
256
6
ByLayer
370
13
48
1
60
0
100
AcDbLine
10
0
20
25.889781
30
0
11
3.000001
21
25.494823
31
0
39
0
210
0
220
0
230
1
0
LINE
5
131
100
AcDbEntity
8
2
62
256
6
ByLayer
370
13
48
1
60
0
100
AcDbLine
10
2.999999
20
26.284738
30
0
11
3.000001
21
25.494823
31
0
39
0
210
0
220
0
230
1
0
ENDBLK
5
133
100
AcDbEntity
8
0
100
AcDbBlockEnd
0
BLOCK
5
140
100
AcDbEntity
8
0
100
AcDbBlockBegin
2
DimnDraft3D5
70
0
10
0
20
0
30
0
3
DimnDraft3D5
0
MTEXT
5
136
100
AcDbEntity
8
SK2
62
256
6
ByLayer
370
18
48
1
60
0
100
AcDbMText
10
-32.857237
20
37.014781
30
0
210
0
220
0
230
1
1
\W0.6217;125
40
4.5
41
0
44
1.084337
50
0
71
7
72
5
7
iso_b_vert
0
LINE
5
137
100
AcDbEntity
8
SK2
62
256
6
ByLayer
370
13
48
1
60
0
100
AcDbLine
10
33
20
12.5625
30
0
11
33
21
38.889781
31
0
39
0
210
0
220
0
230
1
0
LINE
5
138
100
AcDbEntity
8
SK2
62
256
6
ByLayer
370
13
48
1
60
0
100
AcDbLine
10
-93.35
20
11.4375
30
0
11
-93.35
21
38.889781
31
0
39
0
210
0
220
0
230
1
0
LINE
5
139
100
AcDbEntity
8
SK2
62
256
6
ByLayer
370
13
48
1
60
0
100
AcDbLine
10
33
20
35.889781
30
0
11
-93.35
21
35.889781
31
0
39
0
210
0
220
0
230
1
0
LINE
5
13A
100
AcDbEntity
8
SK2
62
256
6
ByLayer
370
13
48
1
60
0
100
AcDbLine
10
33
20
35.889781
30
0
11
30.000001
21
35.494823
31
0
39
0
210
0
220
0
230
1
0
LINE
5
13B
100
AcDbEntity
8
SK2
62
256
6
ByLayer
370
13
48
1
60
0
100
AcDbLine
10
33
20
35.889781
30
0
11
29.999999
21
36.284738
31
0
39
0
210
0
220
0
230
1
0
LINE
5
13C
100
AcDbEntity
8
SK2
62
256
6
ByLayer
370
13
48
1
60
0
100
AcDbLine
10
30.000001
20
35.494823
30
0
11
29.999999
21
36.284738
31
0
39
0
210
0
220
0
230
1
0
LINE
5
13D
100
AcDbEntity
8
SK2
62
256
6
ByLayer
370
13
48
1
60
0
100
AcDbLine
10
-93.35
20
35.889781
30
0
11
-90.350001
21
36.284738
31
0
39
0
210
0
220
0
230
1
0
LINE
5
13E
100
AcDbEntity
8
SK2
62
256
6
ByLayer
370
13
48
1
60
0
100
AcDbLine
10
-93.35
20
35.889781
30
0
11
-90.349999
21
35.494823
31
0
39
0
210
0
220
0
230
1
0
LINE
5
13F
100
AcDbEntity
8
SK2
62
256
6
ByLayer
370
13
48
1
60
0
100
AcDbLine
10
-90.350001
20
36.284738
30
0
11
-90.349999
21
35.494823
31
0
39
0
210
0
220
0
230
1
0
ENDBLK
5
141
100
AcDbEntity
8
0
100
AcDbBlockEnd
0
BLOCK
5
14E
100
AcDbEntity
8
0
100
AcDbBlockBegin
2
DimnDraft3D6
70
0
10
0
20
0
30
0
3
DimnDraft3D6
0
MTEXT
5
144
100
AcDbEntity
8
2
62
256
6
ByLayer
370
18
48
1
60
0
100
AcDbMText
10
25.499342
20
-23.0625
30
0
210
0
220
0
230
1
1
\W0.5321;13
40
4.5
41
0
44
1.084337
50
0
71
7
72
5
7
iso_b_vert
0
LINE
5
145
100
AcDbEntity
8
2
62
256
6
ByLayer
370
13
48
1
60
0
100
AcDbLine
10
20
20
5.5625
30
0
11
20
21
-27.1875
31
0
39
0
210
0
220
0
230
1
0
LINE
5
146
100
AcDbEntity
8
2
62
256
6
ByLayer
370
13
48
1
60
0
100
AcDbLine
10
33
20
6.5625
30
0
11
33
21
-27.1875
31
0
39
0
210
0
220
0
230
1
0
LINE
5
147
100
AcDbEntity
8
2
62
256
6
ByLayer
370
13
48
1
60
0
100
AcDbLine
10
8.75
20
-24.1875
30
0
11
44.25
21
-24.1875
31
0
39
0
210
0
220
0
230
1
0
LINE
5
148
100
AcDbEntity
8
2
62
256
6
ByLayer
370
13
48
1
60
0
100
AcDbLine
10
20
20
-24.1875
30
0
11
17.000001
21
-24.582457
31
0
39
0
210
0
220
0
230
1
0
LINE
5
149
100
AcDbEntity
8
2
62
256
6
ByLayer
370
13
48
1
60
0
100
AcDbLine
10
20
20
-24.1875
30
0
11
16.999999
21
-23.792543
31
0
39
0
210
0
220
0
230
1
0
LINE
5
14A
100
AcDbEntity
8
2
62
256
6
ByLayer
370
13
48
1
60
0
100
AcDbLine
10
17.000001
20
-24.582457
30
0
11
16.999999
21
-23.792543
31
0
39
0
210
0
220
0
230
1
0
LINE
5
14B
100
AcDbEntity
8
2
62
256
6
ByLayer
370
13
48
1
60
0
100
AcDbLine
10
33
20
-24.1875
30
0
11
35.999999
21
-23.792543
31
0
39
0
210
0
220
0
230
1
0
LINE
5
14C
100
AcDbEntity
8
2
62
256
6
ByLayer
370
13
48
1
60
0
100
AcDbLine
10
33
20
-24.1875
30
0
11
36.000001
21
-24.582457
31
0
39
0
210
0
220
0
230
1
0
LINE
5
14D
100
AcDbEntity
8
2
62
256
6
ByLayer
370
13
48
1
60
0
100
AcDbLine
10
35.999999
20
-23.792543
30
0
11
36.000001
21
-24.582457
31
0
39
0
210
0
220
0
230
1
0
ENDBLK
5
14F
100
AcDbEntity
8
0
100
AcDbBlockEnd
0
ENDSEC
0
SECTION
2
ENTITIES
0
ARC
5
B3
100
AcDbEntity
8
1
62
256
6
ByLayer
370
18
48
1
60
0
100
AcDbCircle
39
0
10
-20.1
20
6.7875
30
0
40
1.6
210
0
220
0
230
-1
100
AcDbArc
50
0
51
9.783385
0
ARC
5
B5
100
AcDbEntity
8
1
62
256
6
ByLayer
370
18
48
1
60
0
100
AcDbCircle
39
0
10
12.5
20
1.0625
30
0
40
1.416
210
0
220
0
230
1
100
AcDbArc
50
96.192438
51
150.190711
0
ARC
5
B6
100
AcDbEntity
8
1
62
256
6
ByLayer
370
18
48
1
60
0
100
AcDbCircle
39
0
10
12.5
20
1.0625
30
0
40
1.416
210
0
220
0
230
1
100
AcDbArc
50
263.807562
51
276.192438
0
ARC
5
B7
100
AcDbEntity
8
1
62
256
6
ByLayer
370
18
48
1
60
0
100
AcDbCircle
39
0
10
12.5
20
1.0625
30
0
40
1.9685
210
0
220
0
230
1
100
AcDbArc
50
120.381422
51
180
0
ARC
5
B8
100
AcDbEntity
8
1
62
256
6
ByLayer
370
18
48
1
60
0
100
AcDbCircle
39
0
10
12.5
20
1.0625
30
0
40
1.416
210
0
220
0
230
1
100
AcDbArc
50
29.809289
51
83.807562
0
ARC
5
B9
100
AcDbEntity
8
1
62
256
6
ByLayer
370
18
48
1
60
0
100
AcDbCircle
39
0
10
12.5
20
1.0625
30
0
40
1.416
210
0
220
0
230
1
100
AcDbArc
50
330.190711
51
29.809289
0
ARC
5
BA
100
AcDbEntity
8
1
62
256
6
ByLayer
370
18
48
1
60
0
100
AcDbCircle
39
0
10
12.5
20
1.0625
30
0
40
1.9685
210
0
220
0
230
1
100
AcDbArc
50
239.618578
51
300.381422
0
ARC
5
BB
100
AcDbEntity
8
1
62
256
6
ByLayer
370
18
48
1
60
0
100
AcDbCircle
39
0
10
12.5
20
1.0625
30
0
40
1.9685
210
0
220
0
230
1
100
AcDbArc
50
180
51
239.618578
0
ARC
5
BC
100
AcDbEntity
8
1
62
256
6
ByLayer
370
18
48
1
60
0
100
AcDbCircle
39
0
10
12.5
20
1.0625
30
0
40
1.416
210
0
220
0
230
1
100
AcDbArc
50
83.807562
51
96.192438
0
ARC
5
BD
100
AcDbEntity
8
1
62
256
6
ByLayer
370
18
48
1
60
0
100
AcDbCircle
39
0
10
12.5
20
1.0625
30
0
40
1.416
210
0
220
0
230
1
100
AcDbArc
50
276.192438
51
330.190711
0
ARC
5
BE
100
AcDbEntity
8
1
62
256
6
ByLayer
370
18
48
1
60
0
100
AcDbCircle
39
0
10
12.5
20
1.0625
30
0
40
1.9685
210
0
220
0
230
1
100
AcDbArc
50
59.618578
51
120.381422
0
ARC
5
BF
100
AcDbEntity
8
1
62
256
6
ByLayer
370
18
48
1
60
0
100
AcDbCircle
39
0
10
12.5
20
1.0625
30
0
40
1.9685
210
0
220
0
230
1
100
AcDbArc
50
360
51
59.618578
0
ARC
5
C0
100
AcDbEntity
8
1
62
256
6
ByLayer
370
18
48
1
60
0
100
AcDbCircle
39
0
10
12.5
20
1.0625
30
0
40
1.416
210
0
220
0
230
1
100
AcDbArc
50
209.809289
51
263.807562
0
ARC
5
C1
100
AcDbEntity
8
1
62
256
6
ByLayer
370
18
48
1
60
0
100
AcDbCircle
39
0
10
12.5
20
1.0625
30
0
40
1.416
210
0
220
0
230
1
100
AcDbArc
50
150.190711
51
209.809289
0
ARC
5
C2
100
AcDbEntity
8
1
62
256
6
ByLayer
370
18
48
1
60
0
100
AcDbCircle
39
0
10
12.5
20
1.0625
30
0
40
1.9685
210
0
220
0
230
1
100
AcDbArc
50
300.381422
51
360
0
CIRCLE
5
B4
100
AcDbEntity
8
1
62
256
6
ByLayer
370
18
48
1
60
0
100
AcDbCircle
10
-12.5
20
1.0625
30
0
40
5
39
0
210
0
220
0
230
-1
0
CIRCLE
5
C3
100
AcDbEntity
8
1
62
256
6
ByLayer
370
18
48
1
60
0
100
AcDbCircle
10
-12.5
20
1.0625
30
0
40
4.25
39
0
210
0
220
0
230
-1
0
CIRCLE
5
C4
100
AcDbEntity
8
1
62
256
6
ByLayer
370
18
48
1
60
0
100
AcDbCircle
10
-12.5
20
1.0625
30
0
40
3.75
39
0
210
0
220
0
230
-1
0
ELLIPSE
5
C5
100
AcDbEntity
8
1
62
256
6
ByLayer
370
18
48
1
60
0
100
AcDbEllipse
10
37.576748
20
45.7625
30
0
11
4.10301533144607E-14
21
35.0249999998576
31
0
210
0
220
0
230
1
40
0.57735
41
2.53384399841235
42
2.87246553392813
0
ELLIPSE
5
C6
100
AcDbEntity
8
1
62
256
6
ByLayer
370
18
48
1
60
0
100
AcDbEllipse
10
28.117578
20
38.0625
30
0
11
-42.3802921007429
21
9.92930696595106E-14
31
0
210
0
220
0
230
1
40
0.700208
41
1.38046753831282
42
1.52460179040621
0
ELLIPSE
5
C7
100
AcDbEntity
8
1
62
256
6
ByLayer
370
18
48
1
60
0
100
AcDbEllipse
10
28.117578
20
45.7625
30
0
11
-50.0208839356665
21
1.17194263344102E-13
31
0
210
0
220
0
230
1
40
0.700208
41
1.35791438459757
42
1.52867763165932
0
ELLIPSE
5
C8
100
AcDbEntity
8
1
62
256
6
ByLayer
370
18
48
1
60
0
100
AcDbEllipse
10
-968.434878
20
38.01438
30
0
11
-2839.77440638747
21
11.5716367008809
31
0
210
0
220
0
230
1
40
0.009604
41
1.92638257585154
42
1.92852643396979
0
ELLIPSE
5
C9
100
AcDbEntity
8
1
62
256
6
ByLayer
370
18
48
1
60
0
100
AcDbEllipse
10
27.966964
20
8.551557
30
0
11
-0.601615532384025
21
-0.00558142627602488
31
0
210
0
220
0
230
1
40
0.249156
41
-0.351368722585357
42
-0.00231151511877891
0
ELLIPSE
5
CA
100
AcDbEntity
8
1
62
256
6
ByLayer
370
18
48
1
60
0
100
AcDbEllipse
10
27.966964
20
10.503266
30
0
11
-0.601615532142198
21
-0.00558142622642924
31
0
210
0
220
0
230
1
40
0.249156
41
-0.00231151510205308
42
0.346745692435912
0
POINT
5
6C
100
AcDbEntity
8
2
62
256
6
ByLayer
370
18
48
1
60
0
100
AcDbPoint
10
33
20
9.563414
30
0
39
0
210
0
220
0
230
1
50
360
0
POINT
5
6E
100
AcDbEntity
8
80
62
256
6
ByLayer
370
18
48
1
60
0
100
AcDbPoint
10
0
20
0
30
0
39
0
210
0
220
0
230
1
50
360
0
POINT
5
70
100
AcDbEntity
8
2
62
256
6
ByLayer
370
18
48
1
60
0
100
AcDbPoint
10
33
20
11.0625
30
0
39
0
210
0
220
0
230
1
50
360
0
POINT
5
71
100
AcDbEntity
8
81
62
256
6
ByLayer
370
18
48
1
60
0
100
AcDbPoint
10
33
20
11.0625
30
0
39
0
210
0
220
0
230
1
50
360
0
SPLINE
5
CB
100
AcDbEntity
8
1
62
256
6
ByLayer
370
18
48
1
60
0
100
AcDbSpline
70
4
71
3
72
8
73
4
40
0
40
0
40
0
40
0
40
1
40
1
40
1
40
1
41
1
10
21.3926549707261
20
11.06591496432
30
0
41
1
10
21.3927033138188
20
11.0659149644944
30
0
41
1
10
21.3927516569115
20
11.0659149646687
30
0
41
1
10
21.3928000000041
20
11.065914964843
30
0
0
SPLINE
5
CC
100
AcDbEntity
8
1
62
256
6
ByLayer
370
18
48
1
60
0
100
AcDbSpline
70
4
71
3
72
8
73
4
40
0
40
0
40
0
40
0
40
1
40
1
40
1
40
1
41
1
10
26.2890848142318
20
8.74662141258995
30
0
41
1
10
26.2942179358815
20
8.7598950351699
30
0
41
1
10
26.2988448506771
20
8.77347856239106
30
0
41
1
10
26.3029305924693
20
8.78728358986626
30
0
0
SPLINE
5
CD
100
AcDbEntity
8
1
62
256
6
ByLayer
370
18
48
1
60
0
100
AcDbSpline
70
4
71
3
72
8
73
4
40
0
40
0
40
0
40
0
40
1
40
1
40
1
40
1
41
1
10
24.8999999999953
20
11.065914964843
30
0
41
1
10
24.9000483430892
20
11.0659149646687
30
0
41
1
10
24.9000966861832
20
11.0659149644943
30
0
41
1
10
24.9001450292772
20
11.06591496432
30
0
0
SPLINE
5
CE
100
AcDbEntity
8
1
62
256
6
ByLayer
370
18
48
1
60
0
100
AcDbSpline
70
4
71
3
72
16
73
12
40
0
40
0
40
0
40
0
40
0.244568166140998
40
0.244568166140998
40
0.489814640741238
40
0.489814640741238
40
0.727285979135263
40
0.727285979135263
40
0.949934785702555
40
0.949934785702555
40
1
40
1
40
1
40
1
41
1
10
18.5061904346331
20
6.99099449741971
30
0
41
1
10
18.5226433117222
20
7.17293698919769
30
0
41
1
10
18.5728671333999
20
7.35470027704378
30
0
41
1
10
18.7340917806905
20
7.68819839975495
30
0
41
1
10
18.8476873465489
20
7.84464743702975
30
0
41
1
10
19.1192666146299
20
8.10274902241483
30
0
41
1
10
19.2799016662964
20
8.20968290618762
30
0
41
1
10
19.616877643416
20
8.35550714916991
30
0
41
1
10
19.7965328912196
20
8.40017536279797
30
0
41
1
10
20.0175096325981
20
8.41687132744858
30
0
41
1
10
20.05876894215
20
8.41841841179857
30
0
41
1
10
20.1
20
8.41839746124086
30
0
0
SPLINE
5
CF
100
AcDbEntity
8
1
62
256
6
ByLayer
370
18
48
1
60
0
100
AcDbSpline
70
4
71
3
72
8
73
4
40
0
40
0
40
0
40
0
40
1
40
1
40
1
40
1
41
1
10
26.2631736298122
20
10.2461729034007
30
0
41
1
10
26.258229006391
20
10.2597840186402
30
0
41
1
10
26.2527429546841
20
10.2731202016649
30
0
41
1
10
26.246759837951
20
10.2860951801433
30
0
0
SPLINE
5
D0
100
AcDbEntity
8
1
62
256
6
ByLayer
370
18
48
1
60
0
100
AcDbSpline
70
4
71
3
72
8
73
4
40
0
40
0
40
0
40
0
40
1
40
1
40
1
40
1
41
1
10
26.3029305924693
20
8.78728358986626
30
0
41
1
10
26.3346283483952
20
8.89438492267578
30
0
41
1
10
26.3661022915229
20
9.00158513553762
30
0
41
1
10
26.3974255665355
20
9.10885053818831
30
0
0
SPLINE
5
D1
100
AcDbEntity
8
1
62
256
6
ByLayer
370
18
48
1
60
0
100
AcDbSpline
70
4
71
3
72
12
73
8
40
0
40
0
40
0
40
0
40
0.163025488627932
40
0.163025488627932
40
0.894056185314604
40
0.894056185314604
40
1
40
1
40
1
40
1
41
1
10
26.1605363593362
20
8.41915663338025
30
0
41
1
10
26.1425382068749
20
8.41875105286121
30
0
41
1
10
26.1241940680105
20
8.41838057869614
30
0
41
1
10
26.0228450815932
20
8.41655404143836
30
0
41
1
10
25.9332434465954
20
8.41573834684144
30
0
41
1
10
25.8312047234382
20
8.41556692008655
30
0
41
1
10
25.8181114971805
20
8.4155591081124
30
0
41
1
10
25.8050259464492
20
8.4155654503858
30
0
0
SPLINE
5
D2
100
AcDbEntity
8
1
62
256
6
ByLayer
370
18
48
1
60
0
100
AcDbSpline
70
4
71
3
72
16
73
12
40
0
40
0
40
0
40
0
40
0.300924936857688
40
0.300924936857688
40
0.510055128111702
40
0.510055128111702
40
0.685338330974267
40
0.685338330974267
40
0.861753856273903
40
0.861753856273903
40
1
40
1
40
1
40
1
41
1
10
20.1
20
8.9233685561029
30
0
41
1
10
19.8795172436809
20
8.95311224225395
30
0
41
1
10
19.6505655266203
20
8.93809267283794
30
0
41
1
10
19.2859851233932
20
8.82138438772247
30
0
41
1
10
19.1394100600449
20
8.74564873621571
30
0
41
1
10
18.9009405625457
20
8.55466830645082
30
0
41
1
10
18.8016357847795
20
8.44534786055561
30
0
41
1
10
18.642229326862
20
8.19342019135303
30
0
41
1
10
18.5803386257315
20
8.04676620540377
30
0
41
1
10
18.5144560923814
20
7.77340641079707
30
0
41
1
10
18.5
20
7.64660065772784
30
0
41
1
10
18.5
20
7.5211375663865
30
0
0
SPLINE
5
D3
100
AcDbEntity
8
1
62
256
6
ByLayer
370
18
48
1
60
0
100
AcDbSpline
70
4
71
3
72
8
73
4
40
0
40
0
40
0
40
0
40
1
40
1
40
1
40
1
41
1
10
24.9001450292772
20
11.06591496432
30
0
41
1
10
25.566767906501
20
11.0659101568168
30
0
41
1
10
26.2333907837249
20
11.0659053493704
30
0
41
1
10
26.9000136609488
20
11.0659005419808
30
0
0
SPLINE
5
D4
100
AcDbEntity
8
1
62
256
6
ByLayer
370
18
48
1
60
0
100
AcDbSpline
70
4
71
3
72
12
73
8
40
0
40
0
40
0
40
0
40
0.464369844687049
40
0.464369844687049
40
0.915593405516307
40
0.915593405516307
40
1
40
1
40
1
40
1
41
1
10
26.3974255665355
20
9.10885053818831
30
0
41
1
10
26.4329921013252
20
9.23064682780333
30
0
41
1
10
26.4513359869167
20
9.36193300040424
30
0
41
1
10
26.4504229234569
20
9.61705005873179
30
0
41
1
10
26.4321814039698
20
9.74450995761586
30
0
41
1
10
26.3910731924957
20
9.88552216010834
30
0
41
1
10
26.3839287049886
20
9.90775741715061
30
0
41
1
10
26.3762142415169
20
9.92968057081725
30
0
0
SPLINE
5
D5
100
AcDbEntity
8
1
62
256
6
ByLayer
370
18
48
1
60
0
100
AcDbSpline
70
4
71
3
72
8
73
4
40
0
40
0
40
0
40
0
40
1
40
1
40
1
40
1
41
1
10
26.1605363593366
20
8.41915663338006
30
0
41
1
10
26.2040260761507
20
8.52793355651013
30
0
41
1
10
26.2467559547251
20
8.63716417707437
30
0
41
1
10
26.2890848142319
20
8.74662141258995
30
0
0
SPLINE
5
D6
100
AcDbEntity
8
1
62
256
6
ByLayer
370
18
48
1
60
0
100
AcDbSpline
70
4
71
3
72
8
73
4
40
0
40
0
40
0
40
0
40
1
40
1
40
1
40
1
41
1
10
26.246759837951
20
10.2860951801433
30
0
41
1
10
26.1715435103233
20
10.449209201772
30
0
41
1
10
26.0944968534386
20
10.6112613588204
30
0
41
1
10
26.0113865914271
20
10.7685623107913
30
0
0
SPLINE
5
D7
100
AcDbEntity
8
1
62
256
6
ByLayer
370
18
48
1
60
0
100
AcDbSpline
70
4
71
3
72
8
73
4
40
0
40
0
40
0
40
0
40
1
40
1
40
1
40
1
41
1
10
26.376214241517
20
9.92968057081725
30
0
41
1
10
26.3390037750099
20
10.0354261976183
30
0
41
1
10
26.301393350802
20
10.1409650882671
30
0
41
1
10
26.2631736298123
20
10.2461729034007
30
0
0
SPLINE
5
D8
100
AcDbEntity
8
1
62
256
6
ByLayer
370
18
48
1
60
0
100
AcDbSpline
70
4
71
3
72
8
73
4
40
0
40
0
40
0
40
0
40
1
40
1
40
1
40
1
41
1
10
18.5232780007391
20
7.06008140628509
30
0
41
1
10
18.5191281438987
20
7.03705250117059
30
0
41
1
10
18.511913880971
20
7.01402346819273
30
0
41
1
10
18.5061904346331
20
6.99099449741971
30
0
0
SPLINE
5
D9
100
AcDbEntity
8
1
62
256
6
ByLayer
370
18
48
1
60
0
100
AcDbSpline
70
4
71
3
72
14
73
10
40
0
40
0
40
0
40
0
40
0.281038222380426
40
0.281038222380426
40
0.56455785706707
40
0.56455785706707
40
0.820700196130083
40
0.820700196130083
40
1
40
1
40
1
40
1
41
1
10
11.9078822958328
20
2.70608262808875
30
0
41
1
10
11.8813006245731
20
2.73341236906995
30
0
41
1
10
11.849043969095
20
2.75686552453592
30
0
41
1
10
11.777235194489
20
2.79107486042696
30
0
41
1
10
11.7364720760798
20
2.80218475904485
30
0
41
1
10
11.6571729147492
20
2.80784868557421
30
0
41
1
10
11.6175924873016
20
2.80391172564308
30
0
41
1
10
11.5539176730121
20
2.78561543464568
30
0
41
1
10
11.5281706327858
20
2.7746032984634
30
0
41
1
10
11.5044231104048
20
2.76068105833977
30
0
0
SPLINE
5
DA
100
AcDbEntity
8
1
62
256
6
ByLayer
370
18
48
1
60
0
100
AcDbSpline
70
4
71
3
72
16
73
12
40
0
40
0
40
0
40
0
40
0.0645965064171447
40
0.0645965064171447
40
0.282747320500311
40
0.282747320500311
40
0.503851581407188
40
0.503851581407188
40
0.739476498257835
40
0.739476498257835
40
1
40
1
40
1
40
1
41
1
10
11.5044231104048
20
-0.63568105833977
30
0
41
1
10
11.513014252084
20
-0.640717707446782
30
0
41
1
10
11.5218448367852
20
-0.64537061464469
30
0
41
1
10
11.5610594082809
20
-0.663818313271832
30
0
41
1
10
11.5937837130779
20
-0.673436908235658
30
0
41
1
10
11.6593454694517
20
-0.682459550000004
30
0
41
1
10
11.6930080641066
20
-0.681865338622799
30
0
41
1
10
11.7588630387573
20
-0.671031885759845
30
0
41
1
10
11.7916435993957
20
-0.660062379286387
30
0
41
1
10
11.8537963059871
20
-0.628385053530678
30
0
41
1
10
11.8832521428563
20
-0.606405930547794
30
0
41
1
10
11.9078822958328
20
-0.58108262808878
30
0
0
SPLINE
5
DB
100
AcDbEntity
8
1
62
256
6
ByLayer
370
18
48
1
60
0
100
AcDbSpline
70
4
71
3
72
18
73
14
40
0
40
0
40
0
40
0
40
0.213081262000622
40
0.213081262000622
40
0.387160943926348
40
0.387160943926348
40
0.56294899994201
40
0.56294899994201
40
0.715638435810385
40
0.715638435810385
40
0.919170953808151
40
0.919170953808151
40
1
40
1
40
1
40
1
41
1
10
13.6474510335848
20
2.39065233797856
30
0
41
1
10
13.6253499966635
20
2.30810260339751
30
0
41
1
10
13.6155116663085
20
2.21929631718774
30
0
41
1
10
13.625005262533
20
2.0555591646997
30
0
41
1
10
13.6396283941553
20
1.97923071749949
30
0
41
1
10
13.690791443592
20
1.83203000919164
30
0
41
1
10
13.7285222509958
20
1.75911142498921
30
0
41
1
10
13.814774512508
20
1.63906872419491
30
0
41
1
10
13.8621656692504
20
1.58832306339133
30
0
41
1
10
13.9803089305089
20
1.48870920900276
30
0
41
1
10
14.0554527440064
20
1.44412477171267
30
0
41
1
10
14.1631437334956
20
1.40001928382182
30
0
41
1
10
14.1945032391402
20
1.38935984363914
30
0
41
1
10
14.2260954401443
20
1.38066196954682
30
0
0
SPLINE
5
DC
100
AcDbEntity
8
1
62
256
6
ByLayer
370
18
48
1
60
0
100
AcDbSpline
70
4
71
3
72
18
73
14
40
0
40
0
40
0
40
0
40
0.213081026856097
40
0.213081026856097
40
0.387160750704737
40
0.387160750704737
40
0.562948851464624
40
0.562948851464624
40
0.715638295683681
40
0.715638295683681
40
0.919170771668907
40
0.919170771668907
40
1
40
1
40
1
40
1
41
1
10
10.7739045598557
20
1.38066196954682
30
0
41
1
10
10.8562959735258
20
1.40334573704686
30
0
41
1
10
10.9378828610424
20
1.43977251302653
30
0
41
1
10
11.0743337817464
20
1.53077305590375
30
0
41
1
10
11.1327849506205
20
1.58199151673358
30
0
41
1
10
11.2338958570924
20
1.70057608788608
30
0
41
1
10
11.2777186157693
20
1.77000448969929
30
0
41
1
10
11.3376543890653
20
1.90512448640652
30
0
41
1
10
11.3574632867377
20
1.97167260736037
30
0
41
1
10
11.3836465356628
20
2.12397226392116
30
0
41
1
10
11.3841042679143
20
2.21134590366796
30
0
41
1
10
11.3676879551153
20
2.32655511685175
30
0
41
1
10
11.3610234078263
20
2.35899939374312
30
0
41
1
10
11.3525489664151
20
2.39065233797856
30
0
0
SPLINE
5
DD
100
AcDbEntity
8
1
62
256
6
ByLayer
370
18
48
1
60
0
100
AcDbSpline
70
4
71
3
72
14
73
10
40
0
40
0
40
0
40
0
40
0.285014780844613
40
0.285014780844613
40
0.572350605982615
40
0.572350605982615
40
0.832166772861834
40
0.832166772861834
40
1
40
1
40
1
40
1
41
1
10
11.3525489664151
20
-0.265652337978594
30
0
41
1
10
11.3427455383358
20
-0.302269189432792
30
0
41
1
10
11.3391008008659
20
-0.341771392094415
30
0
41
1
10
11.346306008759
20
-0.42055123875113
30
0
41
1
10
11.3574570886555
20
-0.46104024825857
30
0
41
1
10
11.3927012508891
20
-0.531774641525004
30
0
41
1
10
11.4160474129793
20
-0.563667935304409
30
0
41
1
10
11.4622449161042
20
-0.607541437513191
30
0
41
1
10
11.4826741516865
20
-0.622930497634655
30
0
41
1
10
11.5044231104048
20
-0.63568105833977
30
0
0
SPLINE
5
DE
100
AcDbEntity
8
1
62
256
6
ByLayer
370
18
48
1
60
0
100
AcDbSpline
70
4
71
3
72
14
73
10
40
0
40
0
40
0
40
0
40
0.28501398472704
40
0.28501398472704
40
0.572349910643066
40
0.572349910643066
40
0.8321661585093
40
0.8321661585093
40
1
40
1
40
1
40
1
41
1
10
14.2260954401443
20
0.74433803045315
30
0
41
1
10
14.2626420033309
20
0.754399925319632
30
0
41
1
10
14.298562913688
20
0.771234024131331
30
0
41
1
10
14.3628804284091
20
0.817292897875006
30
0
41
1
10
14.392169726513
20
0.847390146030847
30
0
41
1
10
14.4353659032993
20
0.913568682268419
30
0
41
1
10
14.4510721564613
20
0.949839054065706
30
0
41
1
10
14.4655563481768
20
1.01188189848253
30
0
41
1
10
14.4685
20
1.03728891833418
30
0
41
1
10
14.4685
20
1.0625
30
0
0
SPLINE
5
DF
100
AcDbEntity
8
1
62
256
6
ByLayer
370
18
48
1
60
0
100
AcDbSpline
70
4
71
3
72
16
73
12
40
0
40
0
40
0
40
0
40
0.0645965064171448
40
0.0645965064171448
40
0.28274732050031
40
0.28274732050031
40
0.503851581407221
40
0.503851581407221
40
0.739476498257837
40
0.739476498257837
40
1
40
1
40
1
40
1
41
1
10
13.4955768895952
20
2.76068105833977
30
0
41
1
10
13.486985747916
20
2.76571770744675
30
0
41
1
10
13.4781551632148
20
2.77037061464469
30
0
41
1
10
13.4389405917191
20
2.7888183132718
30
0
41
1
10
13.4062162869221
20
2.79843690823563
30
0
41
1
10
13.3406545305483
20
2.80745954999998
30
0
41
1
10
13.3069919358934
20
2.8068653386228
30
0
41
1
10
13.2411369612427
20
2.79603188575982
30
0
41
1
10
13.2083564006042
20
2.78506237928636
30
0
41
1
10
13.1462036940129
20
2.75338505353068
30
0
41
1
10
13.1167478571437
20
2.73140593054779
30
0
41
1
10
13.0921177041672
20
2.70608262808875
30
0
0
SPLINE
5
E0
100
AcDbEntity
8
1
62
256
6
ByLayer
370
18
48
1
60
0
100
AcDbSpline
70
4
71
3
72
16
73
12
40
0
40
0
40
0
40
0
40
0.0660777514109209
40
0.0660777514109209
40
0.289232858199906
40
0.289232858199906
40
0.515409129607304
40
0.515409129607304
40
0.756439127791392
40
0.756439127791392
40
1
40
1
40
1
40
1
41
1
10
10.5315
20
1.0625
30
0
41
1
10
10.5315
20
1.05254139325586
30
0
41
1
10
10.5319521370926
20
1.04257030370826
30
0
41
1
10
10.535870606949
20
0.999410848501185
30
0
41
1
10
10.5441232851387
20
0.966315667545103
30
0
41
1
10
10.5694977332365
20
0.905193743501002
30
0
41
1
10
10.5870353182328
20
0.876454285745751
30
0
41
1
10
10.6296874761397
20
0.825121701416094
30
0
41
1
10
10.6557295062842
20
0.802390497395635
30
0
41
1
10
10.7118903369799
20
0.766457460632267
30
0
41
1
10
10.742638287392
20
0.752946170835315
30
0
41
1
10
10.7739045598556
20
0.74433803045315
30
0
0
SPLINE
5
E1
100
AcDbEntity
8
1
62
256
6
ByLayer
370
18
48
1
60
0
100
AcDbSpline
70
4
71
3
72
10
73
6
40
0
40
0
40
0
40
0
40
0.479736826302632
40
0.479736826302632
40
1
40
1
40
1
40
1
41
1
10
12.3472587066235
20
-0.345237936299839
30
0
41
1
10
12.2634717620859
20
-0.361003440768655
30
0
41
1
10
12.1831344436618
20
-0.389950219120777
30
0
41
1
10
12.0347803935531
20
-0.468873694517441
30
0
41
1
10
11.9658766441957
20
-0.521456184602641
30
0
41
1
10
11.9078822958328
20
-0.58108262808878
30
0
0
SPLINE
5
E2
100
AcDbEntity
8
1
62
256
6
ByLayer
370
18
48
1
60
0
100
AcDbSpline
70
4
71
3
72
14
73
10
40
0
40
0
40
0
40
0
40
0.281038222380429
40
0.281038222380429
40
0.56455785706708
40
0.56455785706708
40
0.820700196130103
40
0.820700196130103
40
1
40
1
40
1
40
1
41
1
10
13.0921177041672
20
-0.58108262808878
30
0
41
1
10
13.1186993754268
20
-0.608412369069981
30
0
41
1
10
13.150956030905
20
-0.631865524535925
30
0
41
1
10
13.222764805511
20
-0.66607486042696
30
0
41
1
10
13.2635279239202
20
-0.677184759044877
30
0
41
1
10
13.3428270852508
20
-0.682848685574214
30
0
41
1
10
13.3824075126984
20
-0.678911725643076
30
0
41
1
10
13.4460823269878
20
-0.660615434645678
30
0
41
1
10
13.4718293672142
20
-0.649603298463433
30
0
41
1
10
13.4955768895952
20
-0.635681058339799
30
0
0
SPLINE
5
E3
100
AcDbEntity
8
1
62
256
6
ByLayer
370
18
48
1
60
0
100
AcDbSpline
70
4
71
3
72
14
73
10
40
0
40
0
40
0
40
0
40
0.285014780844612
40
0.285014780844612
40
0.572350605982611
40
0.572350605982611
40
0.832166772861833
40
0.832166772861833
40
1
40
1
40
1
40
1
41
1
10
13.6474510335848
20
2.39065233797856
30
0
41
1
10
13.6572544616642
20
2.42726918943276
30
0
41
1
10
13.660899199134
20
2.46677139209439
30
0
41
1
10
13.6536939912409
20
2.54555123875113
30
0
41
1
10
13.6425429113445
20
2.58604024825854
30
0
41
1
10
13.6072987491109
20
2.65677464152498
30
0
41
1
10
13.5839525870207
20
2.68866793530438
30
0
41
1
10
13.5377550838958
20
2.73254143751316
30
0
41
1
10
13.5173258483134
20
2.74793049763463
30
0
41
1
10
13.4955768895952
20
2.76068105833977
30
0
0
SPLINE
5
E4
100
AcDbEntity
8
1
62
256
6
ByLayer
370
18
48
1
60
0
100
AcDbSpline
70
4
71
3
72
10
73
6
40
0
40
0
40
0
40
0
40
0.541781546917754
40
0.541781546917754
40
1
40
1
40
1
40
1
41
1
10
13.0921177041672
20
-0.58108262808878
30
0
41
1
10
13.0317893524551
20
-0.519056496999895
30
0
41
1
10
12.9595938121995
20
-0.464617677684771
30
0
41
1
10
12.8098326867735
20
-0.387422295241237
30
0
41
1
10
12.7328667479517
20
-0.360314488131905
30
0
41
1
10
12.6527412933765
20
-0.345237936299839
30
0
0
SPLINE
5
E5
100
AcDbEntity
8
1
62
256
6
ByLayer
370
18
48
1
60
0
100
AcDbSpline
70
4
71
3
72
14
73
10
40
0
40
0
40
0
40
0
40
0.285013984727065
40
0.285013984727065
40
0.572349910643094
40
0.572349910643094
40
0.83216615850931
40
0.83216615850931
40
1
40
1
40
1
40
1
41
1
10
10.7739045598557
20
1.38066196954682
30
0
41
1
10
10.7373579966691
20
1.37060007468037
30
0
41
1
10
10.701437086312
20
1.35376597586864
30
0
41
1
10
10.6371195715909
20
1.30770710212499
30
0
41
1
10
10.607830273487
20
1.27760985396912
30
0
41
1
10
10.5646340967007
20
1.21143131773155
30
0
41
1
10
10.5489278435386
20
1.17516094593427
30
0
41
1
10
10.5344436518232
20
1.11311810151744
30
0
41
1
10
10.5315
20
1.08771108166579
30
0
41
1
10
10.5315
20
1.0625
30
0
0
SPLINE
5
E6
100
AcDbEntity
8
1
62
256
6
ByLayer
370
18
48
1
60
0
100
AcDbSpline
70
4
71
3
72
18
73
14
40
0
40
0
40
0
40
0
40
0.213081026856107
40
0.213081026856107
40
0.387160750704751
40
0.387160750704751
40
0.562948851464636
40
0.562948851464636
40
0.715638295683692
40
0.715638295683692
40
0.919170771668915
40
0.919170771668915
40
1
40
1
40
1
40
1
41
1
10
14.2260954401443
20
0.74433803045315
30
0
41
1
10
14.1437040264742
20
0.721654262953138
30
0
41
1
10
14.0621171389576
20
0.685227486973446
30
0
41
1
10
13.9256662182536
20
0.594226944096221
30
0
41
1
10
13.8672150493795
20
0.543008483266391
30
0
41
1
10
13.7661041429076
20
0.424423912113895
30
0
41
1
10
13.7222813842307
20
0.354995510300682
30
0
41
1
10
13.6623456109347
20
0.219875513593451
30
0
41
1
10
13.6425367132623
20
0.153327392639596
30
0
41
1
10
13.6163534643372
20
0.0010277360788109
30
0
41
1
10
13.6158957320856
20
-0.0863459036679899
30
0
41
1
10
13.6323120448847
20
-0.201555116851779
30
0
41
1
10
13.6389765921737
20
-0.233999393743147
30
0
41
1
10
13.6474510335848
20
-0.265652337978594
30
0
0
SPLINE
5
E7
100
AcDbEntity
8
1
62
256
6
ByLayer
370
18
48
1
60
0
100
AcDbSpline
70
4
71
3
72
10
73
6
40
0
40
0
40
0
40
0
40
0.541781546918572
40
0.541781546918572
40
1
40
1
40
1
40
1
41
1
10
11.9078822958328
20
2.70608262808875
30
0
41
1
10
11.9682106475449
20
2.64405649699987
30
0
41
1
10
12.0404061878005
20
2.58961767768474
30
0
41
1
10
12.1901673132265
20
2.51242229524121
30
0
41
1
10
12.2671332520483
20
2.48531448813188
30
0
41
1
10
12.3472587066235
20
2.47023793629981
30
0
0
SPLINE
5
E8
100
AcDbEntity
8
1
62
256
6
ByLayer
370
18
48
1
60
0
100
AcDbSpline
70
4
71
3
72
18
73
14
40
0
40
0
40
0
40
0
40
0.213081262000622
40
0.213081262000622
40
0.387160943926349
40
0.387160943926349
40
0.562948999942013
40
0.562948999942013
40
0.715638435810391
40
0.715638435810391
40
0.91917095380815
40
0.91917095380815
40
1
40
1
40
1
40
1
41
1
10
11.3525489664151
20
-0.265652337978594
30
0
41
1
10
11.3746500033364
20
-0.183102603397543
30
0
41
1
10
11.3844883336914
20
-0.0942963171877693
30
0
41
1
10
11.374994737467
20
0.06944083530027
30
0
41
1
10
11.3603716058447
20
0.145769282500481
30
0
41
1
10
11.309208556408
20
0.292969990808331
30
0
41
1
10
11.2714777490042
20
0.365888575010757
30
0
41
1
10
11.1852254874919
20
0.485931275805058
30
0
41
1
10
11.1378343307496
20
0.536676936608643
30
0
41
1
10
11.019691069491
20
0.636290790997208
30
0
41
1
10
10.9445472559935
20
0.680875228287306
30
0
41
1
10
10.8368562665044
20
0.72498071617818
30
0
41
1
10
10.8054967608598
20
0.73564015636083
30
0
41
1
10
10.7739045598557
20
0.74433803045315
30
0
0
SPLINE
5
E9
100
AcDbEntity
8
1
62
256
6
ByLayer
370
18
48
1
60
0
100
AcDbSpline
70
4
71
3
72
16
73
12
40
0
40
0
40
0
40
0
40
0.0517235387678952
40
0.0517235387678952
40
0.275098677522045
40
0.275098677522045
40
0.500660612380082
40
0.500660612380082
40
0.740399911602621
40
0.740399911602621
40
1
40
1
40
1
40
1
41
1
10
13.4955768895952
20
-0.635681058339799
30
0
41
1
10
13.5023126525051
20
-0.63173214496922
30
0
41
1
10
13.5089132100843
20
-0.627540684688
30
0
41
1
10
13.5429215049886
20
-0.604212298583491
30
0
41
1
10
13.567814066225
20
-0.580777941441681
30
0
41
1
10
13.6087337148404
20
-0.528697090818071
30
0
41
1
10
13.6252135093438
20
-0.499355109704055
30
0
41
1
10
13.6490799914639
20
-0.437144227337626
30
0
41
1
10
13.6561625753256
20
-0.403403851029765
30
0
41
1
10
13.6602113511053
20
-0.334687207618487
30
0
41
1
10
13.6563795299008
20
-0.299001225803067
30
0
41
1
10
13.6474510335848
20
-0.265652337978594
30
0
0
SPLINE
5
EA
100
AcDbEntity
8
1
62
256
6
ByLayer
370
18
48
1
60
0
100
AcDbSpline
70
4
71
3
72
16
73
12
40
0
40
0
40
0
40
0
40
0.0660777514109123
40
0.0660777514109123
40
0.289232858199906
40
0.289232858199906
40
0.515409129607318
40
0.515409129607318
40
0.756439127791383
40
0.756439127791383
40
1
40
1
40
1
40
1
41
1
10
14.4685
20
1.0625
30
0
41
1
10
14.4685
20
1.07245860674411
30
0
41
1
10
14.4680478629073
20
1.08242969629171
30
0
41
1
10
14.464129393051
20
1.12558915149879
30
0
41
1
10
14.4558767148612
20
1.15868433245487
30
0
41
1
10
14.4305022667634
20
1.21980625649897
30
0
41
1
10
14.4129646817671
20
1.24854571425422
30
0
41
1
10
14.3703125238603
20
1.29987829858388
30
0
41
1
10
14.3442704937158
20
1.32260950260434
30
0
41
1
10
14.2881096630201
20
1.3585425393677
30
0
41
1
10
14.257361712608
20
1.37205382916466
30
0
41
1
10
14.2260954401443
20
1.38066196954682
30
0
0
SPLINE
5
EB
100
AcDbEntity
8
1
62
256
6
ByLayer
370
18
48
1
60
0
100
AcDbSpline
70
4
71
3
72
10
73
6
40
0
40
0
40
0
40
0
40
0.47973682623675
40
0.47973682623675
40
1
40
1
40
1
40
1
41
1
10
12.6527412933764
20
2.47023793629981
30
0
41
1
10
12.7365282379027
20
2.4860034407665
30
0
41
1
10
12.8168655563164
20
2.51495021911282
30
0
41
1
10
12.9652196064295
20
2.5938736945042
30
0
41
1
10
13.034123355797
20
2.64645618459517
30
0
41
1
10
13.0921177041672
20
2.70608262808875
30
0
0
SPLINE
5
EC
100
AcDbEntity
8
1
62
256
6
ByLayer
370
18
48
1
60
0
100
AcDbSpline
70
4
71
3
72
16
73
12
40
0
40
0
40
0
40
0
40
0.0517235387678664
40
0.0517235387678664
40
0.275098677522023
40
0.275098677522023
40
0.500660612380063
40
0.500660612380063
40
0.740399911602606
40
0.740399911602606
40
1
40
1
40
1
40
1
41
1
10
11.5044231104048
20
2.76068105833977
30
0
41
1
10
11.4976873474948
20
2.75673214496919
30
0
41
1
10
11.4910867899156
20
2.75254068468797
30
0
41
1
10
11.4570784950114
20
2.72921229858349
30
0
41
1
10
11.432185933775
20
2.70577794144168
30
0
41
1
10
11.3912662851596
20
2.65369709081804
30
0
41
1
10
11.3747864906562
20
2.62435510970403
30
0
41
1
10
11.3509200085361
20
2.56214422733763
30
0
41
1
10
11.3438374246744
20
2.52840385102974
30
0
41
1
10
11.3397886488946
20
2.45968720761846
30
0
41
1
10
11.3436204700991
20
2.42400122580304
30
0
41
1
10
11.3525489664151
20
2.39065233797856
30
0
0
SPLINE
5
ED
100
AcDbEntity
8
1
62
256
6
ByLayer
370
18
48
1
60
0
100
AcDbSpline
70
4
71
3
72
9
73
5
40
0
40
0
40
0
40
0
40
0.421427700695376
40
1
40
1
40
1
40
1
41
1
10
28.6234596151003
20
9.53313382228217
30
0
41
1
10
28.6158890370542
20
9.56358201095884
30
0
41
1
10
28.5979249164386
20
9.63583209947086
30
0
41
1
10
28.5374873023803
20
9.67836771683298
30
0
41
1
10
28.50251977305
20
9.7029776467725
30
0
0
SPLINE
5
EE
100
AcDbEntity
8
1
62
256
6
ByLayer
370
18
48
1
60
0
100
AcDbSpline
70
4
71
2
72
9
73
6
40
0
40
0
40
0
40
0.25
40
0.5
40
0.75
40
1
40
1
40
1
41
1
10
32.9999999993
20
10.7815671361355
30
0
41
1
10
32.9998914336468
20
10.8437553340968
30
0
41
1
10
32.9509737652151
20
10.9570668798537
30
0
41
1
10
32.8614275758866
20
11.0416770187269
30
0
41
1
10
32.7453310680372
20
11.0844191724757
30
0
41
1
10
32.68255672556
20
11.0808771503627
30
0
0
SPLINE
5
EF
100
AcDbEntity
8
1
62
256
6
ByLayer
370
18
48
1
60
0
100
AcDbSpline
70
4
71
2
72
6
73
3
40
0
40
0
40
0
40
1
40
1
40
1
41
1
10
28.623459615129
20
9.53313382228231
30
0
41
1
10
28.6230933262053
20
9.44493008214448
30
0
41
1
10
28.5025197730493
20
9.36116585288283
30
0
0
SPLINE
5
F0
100
AcDbEntity
8
1
62
256
6
ByLayer
370
18
48
1
60
0
100
AcDbSpline
70
4
71
9
72
20
73
10
40
0
40
0
40
0
40
0
40
0
40
0
40
0
40
0
40
0
40
0
40
1
40
1
40
1
40
1
40
1
40
1
40
1
40
1
40
1
40
1
41
1
10
32.9999999992944
20
8.3452603828141
30
0
41
1
10
32.9999999992944
20
8.29099434796674
30
0
41
1
10
32.9889435254918
20
8.23672831426779
30
0
41
1
10
32.9668305643238
20
8.18503366723533
30
0
41
1
10
32.9343597090938
20
8.13848179524373
30
0
41
1
10
32.8929279263538
20
8.09941669813094
30
0
41
1
10
32.8445384727138
20
8.06972725733979
30
0
41
1
10
32.7916140964338
20
8.05067089706606
30
0
41
1
10
32.7367639744538
20
8.04279511077669
30
0
41
1
10
32.6825567255638
20
8.04595036857728
30
0
0
LINE
5
73
100
AcDbEntity
8
80
62
256
6
ByLayer
370
18
48
1
60
0
100
AcDbLine
10
0
20
0
30
0
11
-5
21
0
31
0
39
0
210
0
220
0
230
1
0
LINE
5
74
100
AcDbEntity
8
81
62
256
6
ByLayer
370
18
48
1
60
0
100
AcDbLine
10
33
20
11.0625
30
0
11
38
21
11.0625
31
0
39
0
210
0
220
0
230
1
0
LINE
5
75
100
AcDbEntity
8
1
62
256
6
ByLayer
370
18
48
1
60
0
100
AcDbLine
10
2.382343
20
9.9375
30
0
11
2.382343
21
-9.970334
31
0
39
0
210
0
220
0
230
1
0
LINE
5
77
100
AcDbEntity
8
1
62
256
6
ByLayer
370
18
48
1
60
0
100
AcDbLine
10
18.5
20
6.7875
30
0
11
17.549283
21
6.7875
31
0
39
0
210
0
220
0
230
1
0
LINE
5
78
100
AcDbEntity
8
1
62
256
6
ByLayer
370
18
48
1
60
0
100
AcDbLine
10
20.1
20
8.418397
30
0
11
20.1
21
8.923369
31
0
39
0
210
0
220
0
230
1
0
LINE
5
79
100
AcDbEntity
8
1
62
256
6
ByLayer
370
18
48
1
60
0
100
AcDbLine
10
26.900014
20
11.065901
30
0
11
26.900011
21
10.872607
31
0
39
0
210
0
220
0
230
1
0
LINE
5
7A
100
AcDbEntity
8
1
62
256
6
ByLayer
370
18
48
1
60
0
100
AcDbLine
10
12.467166
20
-9.970334
30
0
11
18.5
21
-3.9375
31
0
39
0
210
0
220
0
230
1
0
LINE
5
7B
100
AcDbEntity
8
1
62
256
6
ByLayer
370
18
48
1
60
0
100
AcDbLine
10
11
20
9.9375
30
0
11
11.5
21
10.4375
31
0
39
0
210
0
220
0
230
1
0
LINE
5
7C
100
AcDbEntity
8
1
62
256
6
ByLayer
370
18
48
1
60
0
100
AcDbLine
10
24.9
20
11.065915
30
0
11
24.9
21
10.872608
31
0
39
0
210
0
220
0
230
1
0
LINE
5
7D
100
AcDbEntity
8
1
62
256
6
ByLayer
370
18
48
1
60
0
100
AcDbLine
10
0.5
20
-9.939682
30
0
11
2.382343
21
-9.970334
31
0
39
0
210
0
220
0
230
1
0
LINE
5
7E
100
AcDbEntity
8
1
62
256
6
ByLayer
370
18
48
1
60
0
100
AcDbLine
10
26.900014
20
11.065901
30
0
11
32.2
21
11.065901
31
0
39
0
210
0
220
0
230
1
0
LINE
5
7F
100
AcDbEntity
8
1
62
256
6
ByLayer
370
18
48
1
60
0
100
AcDbLine
10
0
20
9.9375
30
0
11
0.5
21
9.9375
31
0
39
0
210
0
220
0
230
1
0
LINE
5
80
100
AcDbEntity
8
1
62
256
6
ByLayer
370
18
48
1
60
0
100
AcDbLine
10
21.3928
20
11.065915
30
0
11
24.9
21
11.065915
31
0
39
0
210
0
220
0
230
1
0
LINE
5
81
100
AcDbEntity
8
1
62
256
6
ByLayer
370
18
48
1
60
0
100
AcDbLine
10
17.549283
20
6.7875
30
0
11
17.549283
21
11.528151
31
0
39
0
210
0
220
0
230
1
0
LINE
5
82
100
AcDbEntity
8
1
62
256
6
ByLayer
370
18
48
1
60
0
100
AcDbLine
10
26.029742
20
17.009228
30
0
11
13.260889
21
17.009228
31
0
39
0
210
0
220
0
230
1
0
LINE
5
83
100
AcDbEntity
8
1
62
256
6
ByLayer
370
18
48
1
60
0
100
AcDbLine
10
18.5
20
6.7875
30
0
11
18.5
21
-3.9375
31
0
39
0
210
0
220
0
230
1
0
LINE
5
84
100
AcDbEntity
8
1
62
256
6
ByLayer
370
18
48
1
60
0
100
AcDbLine
10
0.5
20
9.9375
30
0
11
0.5
21
-9.939682
31
0
39
0
210
0
220
0
230
1
0
LINE
5
85
100
AcDbEntity
8
1
62
256
6
ByLayer
370
18
48
1
60
0
100
AcDbLine
10
21.3928
20
11.065915
30
0
11
21.3928
21
11.055457
31
0
39
0
210
0
220
0
230
1
0
LINE
5
86
100
AcDbEntity
8
1
62
256
6
ByLayer
370
18
48
1
60
0
100
AcDbLine
10
0.5
20
-9.939682
30
0
11
0
21
-9.9375
31
0
39
0
210
0
220
0
230
1
0
LINE
5
87
100
AcDbEntity
8
1
62
256
6
ByLayer
370
18
48
1
60
0
100
AcDbLine
10
2.382343
20
-9.970334
30
0
11
12.467166
21
-9.970334
31
0
39
0
210
0
220
0
230
1
0
LINE
5
88
100
AcDbEntity
8
1
62
256
6
ByLayer
370
18
48
1
60
0
100
AcDbLine
10
32.2
20
11.052853
30
0
11
32.2
21
11.065901
31
0
39
0
210
0
220
0
230
1
0
LINE
5
89
100
AcDbEntity
8
1
62
256
6
ByLayer
370
18
48
1
60
0
100
AcDbLine
10
11.792246
20
11.528177
30
0
11
13.260889
21
17.009228
31
0
39
0
210
0
220
0
230
1
0
LINE
5
8A
100
AcDbEntity
8
1
62
256
6
ByLayer
370
18
48
1
60
0
100
AcDbLine
10
32.2
20
11.065901
30
0
11
32.2
21
11.998283
31
0
39
0
210
0
220
0
230
1
0
LINE
5
8B
100
AcDbEntity
8
1
62
256
6
ByLayer
370
18
48
1
60
0
100
AcDbLine
10
0
20
9.9375
30
0
11
0
21
-9.9375
31
0
39
0
210
0
220
0
230
1
0
LINE
5
8C
100
AcDbEntity
8
1
62
256
6
ByLayer
370
18
48
1
60
0
100
AcDbLine
10
21.392655
20
11.065915
30
0
11
21.392655
21
11.055475
31
0
39
0
210
0
220
0
230
1
0
LINE
5
8D
100
AcDbEntity
8
1
62
256
6
ByLayer
370
18
48
1
60
0
100
AcDbLine
10
2.382343
20
9.9375
30
0
11
0.5
21
9.9375
31
0
39
0
210
0
220
0
230
1
0
LINE
5
8E
100
AcDbEntity
8
1
62
256
6
ByLayer
370
18
48
1
60
0
100
AcDbLine
10
11.792239
20
11.528151
30
0
11
11.5
21
10.4375
31
0
39
0
210
0
220
0
230
1
0
LINE
5
8F
100
AcDbEntity
8
1
62
256
6
ByLayer
370
18
48
1
60
0
100
AcDbLine
10
17.549283
20
11.528151
30
0
11
11.792239
21
11.528151
31
0
39
0
210
0
220
0
230
1
0
LINE
5
90
100
AcDbEntity
8
1
62
256
6
ByLayer
370
18
48
1
60
0
100
AcDbLine
10
24.900145
20
11.065915
30
0
11
24.900141
21
10.872608
31
0
39
0
210
0
220
0
230
1
0
LINE
5
91
100
AcDbEntity
8
1
62
256
6
ByLayer
370
18
48
1
60
0
100
AcDbLine
10
18.5
20
6.7875
30
0
11
18.5
21
7.521138
31
0
39
0
210
0
220
0
230
1
0
LINE
5
92
100
AcDbEntity
8
1
62
256
6
ByLayer
370
18
48
1
60
0
100
AcDbLine
10
11
20
9.9375
30
0
11
2.382343
21
9.9375
31
0
39
0
210
0
220
0
230
1
0
LINE
5
93
100
AcDbEntity
8
SK1
62
256
6
ByLayer
370
18
48
1
60
0
100
AcDbLine
10
-93.35
20
9.9375
30
0
11
-93.35
21
-9.9375
31
0
39
0
210
0
220
0
230
1
0
LINE
5
95
100
AcDbEntity
8
SK1
62
256
6
ByLayer
370
18
48
1
60
0
100
AcDbLine
10
0
20
9.9375
30
0
11
-93.35
21
9.9375
31
0
39
0
210
0
220
0
230
1
0
LINE
5
96
100
AcDbEntity
8
SK1
62
256
6
ByLayer
370
18
48
1
60
0
100
AcDbLine
10
-93.35
20
-9.9375
30
0
11
0
21
-9.9375
31
0
39
0
210
0
220
0
230
1
0
LINE
5
97
100
AcDbEntity
8
SK1
62
256
6
ByLayer
370
18
48
1
60
0
100
AcDbLine
10
0
20
9.9375
30
0
11
0
21
-9.9375
31
0
39
0
210
0
220
0
230
1
0
LINE
5
98
100
AcDbEntity
8
1
62
256
6
ByLayer
370
18
48
1
60
0
100
AcDbLine
10
19.810569
20
8.372877
30
0
11
27.365346
21
8.372877
31
0
39
0
210
0
220
0
230
1
0
LINE
5
99
100
AcDbEntity
8
1
62
256
6
ByLayer
370
18
48
1
60
0
100
AcDbLine
10
27.365346
20
8.546323
30
0
11
26.210439
21
8.546323
31
0
39
0
210
0
220
0
230
1
0
LINE
5
9A
100
AcDbEntity
8
1
62
256
6
ByLayer
370
18
48
1
60
0
100
AcDbLine
10
27.401626
20
8.59791
30
0
11
26.230656
21
8.59791
31
0
39
0
210
0
220
0
230
1
0
LINE
5
9B
100
AcDbEntity
8
1
62
256
6
ByLayer
370
18
48
1
60
0
100
AcDbLine
10
26.058744
20
10.671476
30
0
11
27.365346
21
10.671476
31
0
39
0
210
0
220
0
230
1
0
LINE
5
9C
100
AcDbEntity
8
1
62
256
6
ByLayer
370
18
48
1
60
0
100
AcDbLine
10
27.365346
20
10.671476
30
0
11
28.809976
21
10.684047
31
0
39
0
210
0
220
0
230
1
0
LINE
5
9D
100
AcDbEntity
8
1
62
256
6
ByLayer
370
18
48
1
60
0
100
AcDbLine
10
28.50252
20
9.702978
30
0
11
27.401627
21
10.447076
31
0
39
0
210
0
220
0
230
1
0
LINE
5
9E
100
AcDbEntity
8
1
62
256
6
ByLayer
370
18
48
1
60
0
100
AcDbLine
10
26.420504
20
9.702978
30
0
11
28.50252
21
9.702978
31
0
39
0
210
0
220
0
230
1
0
LINE
5
9F
100
AcDbEntity
8
1
62
256
6
ByLayer
370
18
48
1
60
0
100
AcDbLine
10
26.444808
20
9.533114
30
0
11
28.62346
21
9.533114
31
0
39
0
210
0
220
0
230
1
0
LINE
5
A0
100
AcDbEntity
8
1
62
256
6
ByLayer
370
18
48
1
60
0
100
AcDbLine
10
30.91102
20
10.977833
30
0
11
30.51463
21
10.984312
31
0
39
0
210
0
220
0
230
1
0
LINE
5
A1
100
AcDbEntity
8
1
62
256
6
ByLayer
370
18
48
1
60
0
100
AcDbLine
10
23.728004
20
10.872609
30
0
11
29.150124
21
10.872609
31
0
39
0
210
0
220
0
230
1
0
LINE
5
A2
100
AcDbEntity
8
1
62
256
6
ByLayer
370
18
48
1
60
0
100
AcDbLine
10
27.365346
20
10.498031
30
0
11
26.143322
21
10.498031
31
0
39
0
210
0
220
0
230
1
0
LINE
5
A3
100
AcDbEntity
8
1
62
256
6
ByLayer
370
18
48
1
60
0
100
AcDbLine
10
27.365346
20
8.372877
30
0
11
27.365346
21
8.546323
31
0
39
0
210
0
220
0
230
1
0
LINE
5
A4
100
AcDbEntity
8
1
62
256
6
ByLayer
370
18
48
1
60
0
100
AcDbLine
10
28.50252
20
9.361166
30
0
11
27.401627
21
8.597909
31
0
39
0
210
0
220
0
230
1
0
LINE
5
A5
100
AcDbEntity
8
1
62
256
6
ByLayer
370
18
48
1
60
0
100
AcDbLine
10
27.365346
20
8.372877
30
0
11
28.809976
21
8.385448
31
0
39
0
210
0
220
0
230
1
0
LINE
5
A6
100
AcDbEntity
8
1
62
256
6
ByLayer
370
18
48
1
60
0
100
AcDbLine
10
29.262252
20
8.142672
30
0
11
30.51463
21
8.114848
31
0
39
0
210
0
220
0
230
1
0
LINE
5
A7
100
AcDbEntity
8
1
62
256
6
ByLayer
370
18
48
1
60
0
100
AcDbLine
10
29.262252
20
8.142672
30
0
11
28.809976
21
8.385448
31
0
39
0
210
0
220
0
230
1
0
LINE
5
A8
100
AcDbEntity
8
1
62
256
6
ByLayer
370
18
48
1
60
0
100
AcDbLine
10
30.91102
20
10.977833
30
0
11
32.682553
21
11.080949
31
0
39
0
210
0
220
0
230
1
0
LINE
5
A9
100
AcDbEntity
8
1
62
256
6
ByLayer
370
18
48
1
60
0
100
AcDbLine
10
30.91102
20
8.148994
30
0
11
30.51463
21
8.114848
31
0
39
0
210
0
220
0
230
1
0
LINE
5
AA
100
AcDbEntity
8
1
62
256
6
ByLayer
370
18
48
1
60
0
100
AcDbLine
10
26.432627
20
9.361166
30
0
11
28.50252
21
9.361166
31
0
39
0
210
0
220
0
230
1
0
LINE
5
AB
100
AcDbEntity
8
1
62
256
6
ByLayer
370
18
48
1
60
0
100
AcDbLine
10
30.51463
20
10.984312
30
0
11
30.51463
21
8.114848
31
0
39
0
210
0
220
0
230
1
0
LINE
5
AC
100
AcDbEntity
8
1
62
256
6
ByLayer
370
18
48
1
60
0
100
AcDbLine
10
30.91102
20
10.977833
30
0
11
30.91102
21
8.148994
31
0
39
0
210
0
220
0
230
1
0
LINE
5
AD
100
AcDbEntity
8
1
62
256
6
ByLayer
370
18
48
1
60
0
100
AcDbLine
10
30.91102
20
8.148994
30
0
11
32.682553
21
8.045878
31
0
39
0
210
0
220
0
230
1
0
LINE
5
AE
100
AcDbEntity
8
1
62
256
6
ByLayer
370
18
48
1
60
0
100
AcDbLine
10
33
20
8.34526
30
0
11
33
21
10.781567
31
0
39
0
210
0
220
0
230
1
0
LINE
5
AF
100
AcDbEntity
8
1
62
256
6
ByLayer
370
18
48
1
60
0
100
AcDbLine
10
27.401626
20
10.447075
30
0
11
26.168208
21
10.447075
31
0
39
0
210
0
220
0
230
1
0
LINE
5
B0
100
AcDbEntity
8
1
62
256
6
ByLayer
370
18
48
1
60
0
100
AcDbLine
10
29.262252
20
10.934693
30
0
11
30.51463
21
10.984312
31
0
39
0
210
0
220
0
230
1
0
LINE
5
B1
100
AcDbEntity
8
1
62
256
6
ByLayer
370
18
48
1
60
0
100
AcDbLine
10
29.262252
20
10.934693
30
0
11
28.809976
21
10.684047
31
0
39
0
210
0
220
0
230
1
0
LINE
5
B2
100
AcDbEntity
8
1
62
256
6
ByLayer
370
18
48
1
60
0
100
AcDbLine
10
27.365346
20
10.671476
30
0
11
27.365346
21
10.498031
31
0
39
0
210
0
220
0
230
1
0
MTEXT
5
F1
100
AcDbEntity
8
SK6
62
256
6
ByLayer
370
18
48
1
60
0
100
AcDbMText
10
-59.297475
20
-17.855553
30
0
210
0
220
0
230
1
1
\W0.7477;RF123G13-2020B-054B
40
3.5
41
0
44
1.084337
50
0
71
7
72
5
7
iso_b_vert
0
DIMENSION
5
102
100
AcDbEntity
8
2
62
256
6
ByLayer
370
13
48
1
60
0
100
AcDbDimension
2
DimnDraft3D1
10
47.25
20
11.0625
30
0
11
47.25
21
15.5625
31
0
70
32
71
5
72
1
41
1
210
0
220
0
230
1
3
Standard
100
AcDbAlignedDimension
13
34.5
23
8.0625
33
0
14
34.5
24
11.0625
34
0
50
90
100
AcDbRotatedDimension
1001
ACAD
1000
DSTYLE
1002
{
1070
    74
1070
     0
1070
   279
1070
     0
1070
   172
1070
     1
1070
   173
1070
     1
1070
   340
1005
F2
1070
   271
1070
     3
1070
   272
1070
     3
1070
    77
1070
     1
1070
    73
1070
     0
1070
   171
1070
     4
1070
   274
1070
     4
1070
   177
1070
     2
1070
   176
1070
     2
1070
   178
1070
     7
1070
    78
1070
     8
1070
    41
1041
3.0
1070
   147
1041
2.25
1070
    42
1041
1.5
1070
    44
1041
3.0
1070
   140
1041
4.5
1070
   343
1005
103
1070
   344
1005
103
1002
}
0
DIMENSION
5
117
100
AcDbEntity
8
2
62
256
6
ByLayer
370
13
48
1
60
0
100
AcDbDimension
2
DimnDraft3D2
10
57.25
20
-9.9375
30
0
11
57.25
21
-1.563158
31
0
70
32
71
5
72
1
41
1
210
0
220
0
230
1
3
Standard
100
AcDbAlignedDimension
13
34.5
23
11.0625
33
0
14
-3.5
24
-9.9375
34
0
50
90
100
AcDbRotatedDimension
1001
ACAD
1000
DSTYLE
1002
{
1070
    74
1070
     0
1070
   279
1070
     0
1070
   172
1070
     1
1070
   173
1070
     1
1070
   340
1005
F2
1070
   271
1070
     3
1070
   272
1070
     3
1070
    77
1070
     1
1070
    73
1070
     0
1070
   171
1070
     4
1070
   274
1070
     4
1070
   177
1070
     2
1070
   176
1070
     2
1070
   178
1070
     7
1070
    78
1070
     8
1070
    41
1041
3.0
1070
   147
1041
2.25
1070
    42
1041
1.5
1070
    44
1041
3.0
1070
   140
1041
4.5
1070
   343
1005
103
1070
   344
1005
103
1002
}
0
DIMENSION
5
126
100
AcDbEntity
8
SK2
62
256
6
ByLayer
370
13
48
1
60
0
100
AcDbDimension
2
DimnDraft3D3
10
-103.1
20
-9.9375
30
0
11
-103.1
21
-2.688158
31
0
70
32
71
5
72
1
41
1
210
0
220
0
230
1
3
Standard
100
AcDbAlignedDimension
13
-94.85
23
9.9375
33
0
14
-94.85
24
-9.9375
34
0
50
90
100
AcDbRotatedDimension
1001
ACAD
1000
DSTYLE
1002
{
1070
    74
1070
     0
1070
   279
1070
     0
1070
   172
1070
     1
1070
   173
1070
     1
1070
   340
1005
F2
1070
   271
1070
     3
1070
   272
1070
     3
1070
    77
1070
     1
1070
    73
1070
     0
1070
   171
1070
     4
1070
   274
1070
     4
1070
   177
1070
     2
1070
   176
1070
     2
1070
   178
1070
     7
1070
    78
1070
     8
1070
    41
1041
3.0
1070
   147
1041
2.25
1070
    42
1041
1.5
1070
    44
1041
3.0
1070
   140
1041
4.5
1070
   343
1005
103
1070
   344
1005
103
1002
}
0
DIMENSION
5
134
100
AcDbEntity
8
2
62
256
6
ByLayer
370
13
48
1
60
0
100
AcDbDimension
2
DimnDraft3D4
10
0
20
25.889781
30
0
11
13.811842
21
25.889781
31
0
70
32
71
5
72
1
41
1
210
0
220
0
230
1
3
Standard
100
AcDbAlignedDimension
13
33
23
12.5625
33
0
14
0
24
11.4375
34
0
50
0
100
AcDbRotatedDimension
1001
ACAD
1000
DSTYLE
1002
{
1070
   279
1070
     0
1070
   172
1070
     1
1070
   173
1070
     1
1070
   340
1005
F2
1070
   271
1070
     3
1070
   272
1070
     3
1070
    77
1070
     1
1070
    73
1070
     0
1070
   171
1070
     4
1070
   274
1070
     4
1070
   177
1070
     2
1070
   176
1070
     2
1070
   178
1070
     7
1070
    78
1070
     8
1070
    41
1041
3.0
1070
   147
1041
2.25
1070
    42
1041
1.5
1070
    44
1041
3.0
1070
   140
1041
4.5
1070
   343
1005
103
1070
   344
1005
103
1002
}
0
DIMENSION
5
142
100
AcDbEntity
8
SK2
62
256
6
ByLayer
370
13
48
1
60
0
100
AcDbDimension
2
DimnDraft3D5
10
-93.35
20
35.889781
30
0
11
-33.982237
21
35.889781
31
0
70
32
71
5
72
1
41
1
210
0
220
0
230
1
3
Standard
100
AcDbAlignedDimension
13
33
23
12.5625
33
0
14
-93.35
24
11.4375
34
0
50
0
100
AcDbRotatedDimension
1001
ACAD
1000
DSTYLE
1002
{
1070
   279
1070
     0
1070
   172
1070
     1
1070
   173
1070
     1
1070
   340
1005
F2
1070
   271
1070
     3
1070
   272
1070
     3
1070
    77
1070
     1
1070
    73
1070
     0
1070
   171
1070
     4
1070
   274
1070
     4
1070
   177
1070
     2
1070
   176
1070
     2
1070
   178
1070
     7
1070
    78
1070
     8
1070
    41
1041
3.0
1070
   147
1041
2.25
1070
    42
1041
1.5
1070
    44
1041
3.0
1070
   140
1041
4.5
1070
   343
1005
103
1070
   344
1005
103
1002
}
0
DIMENSION
5
150
100
AcDbEntity
8
2
62
256
6
ByLayer
370
13
48
1
60
0
100
AcDbDimension
2
DimnDraft3D6
10
33
20
-24.1875
30
0
11
24.374342
21
-24.1875
31
0
70
32
71
5
72
1
41
1
210
0
220
0
230
1
3
Standard
100
AcDbAlignedDimension
13
20
23
5.5625
33
0
14
33
24
6.5625
34
0
50
0
100
AcDbRotatedDimension
1001
ACAD
1000
DSTYLE
1002
{
1070
   279
1070
     0
1070
   172
1070
     1
1070
   173
1070
     1
1070
   340
1005
F2
1070
   271
1070
     3
1070
   272
1070
     3
1070
    77
1070
     1
1070
    73
1070
     0
1070
   171
1070
     4
1070
   274
1070
     4
1070
   177
1070
     2
1070
   176
1070
     2
1070
   178
1070
     7
1070
    78
1070
     8
1070
    41
1041
3.0
1070
   147
1041
2.25
1070
    42
1041
1.5
1070
    44
1041
3.0
1070
   140
1041
4.5
1070
   343
1005
103
1070
   344
1005
103
1002
}
0
ENDSEC
0
SECTION
2
OBJECTS
0
DICTIONARY
5
1ba
330
0
100
AcDbDictionary
280
0
281
1
3
ACAD_GROUP
350
1bb
3
ACAD_MLINESTYLE
350
1bc
0
DICTIONARY
5
1bb
330
0
100
AcDbDictionary
280
0
281
1
0
DICTIONARY
5
1bc
330
0
100
AcDbDictionary
280
0
281
1
3
Standard
350
18
0
MLINESTYLE
5
18
330
1bc
100
AcDbMlineStyle
2
Standard
70
0
3

62
256
51
90
52
90
71
2
49
-0.5
62
256
6
ByLayer
49
0.5
62
256
6
ByLayer
0
RASTERVARIABLES
5
1a9
330

100
AcDbRasterVariables
90
0
70
1
71
1
72
1
0
ENDSEC
0
EOF
