0
SECTION
2
HEADER
9
$ACADVER
1
AC1015
9
$DWGCODEPAGE
3
ANSI_1252
9
$HANDSEED
5
1b2
9
$ANGBASE
50
0
9
$ANGDIR
70
0
9
$ATTMODE
70
1
9
$AUNITS
70
0
9
$AUPREC
70
0
9
$CECOLOR
62
256
9
$CELTSCALE
40
1
9
$CELTYPE
6
ByLayer
9
$CELWEIGHT
370
18
9
$CLAYER
8
0
9
$CMLJUST
70
0
9
$CMLSCALE
40
1
9
$CMLSTYLE
2
Standard
9
$DIMSTYLE
2
Standard
9
$TEXTSIZE
40
0.2
9
$TEXTSTYLE
7
Standard
9
$LUNITS
70
2
9
$LUPREC
70
4
9
$EXTNAMES
290
1
9
$INSUNITS
70
4
9
$LTSCALE
40
1
9
$LWDISPLAY
290
1
9
$PDMODE
70
0
9
$PDSIZE
40
0
9
$PLINEGEN
70
0
0
ENDSEC
0
SECTION
2
CLASSES
0
CLASS
1
RASTERVARIABLES
2
AcDbRasterVariables
3
ISM
90
0
280
0
281
0
0
ENDSEC
0
SECTION
2
TABLES
0
TABLE
2
VPORT
5
1a8
100
AcDbSymbolTable
0
VPORT
5
1
100
AcDbSymbolTableRecord
100
AcDbViewportTableRecord
2
*Active
70
0
10
0
20
0
11
1
21
1
12
-1
22
1
13
0
23
0
14
0.5
24
0.5
15
10
25
10
16
0
26
0
36
1
17
0
27
0
37
0
0
ENDTAB
0
TABLE
2
LTYPE
5
1a9
100
AcDbSymbolTable
0
LTYPE
5
14
100
AcDbSymbolTableRecord
100
AcDbLinetypeTableRecord
70
0
2
ByBlock
3

72
65
73
0
40
0
0
LTYPE
5
15
100
AcDbSymbolTableRecord
100
AcDbLinetypeTableRecord
70
0
2
ByLayer
3

72
65
73
0
40
0
0
LTYPE
5
16
100
AcDbSymbolTableRecord
100
AcDbLinetypeTableRecord
70
0
2
CONTINUOUS
3
Solid line
72
65
73
0
40
0
0
LTYPE
5
6A
100
AcDbSymbolTableRecord
100
AcDbLinetypeTableRecord
70
0
2
CENTER
3
____ _ ____ _ ____ _ ____
72
65
73
4
40
47.5
49
22
74
0
49
-8.5
74
0
49
8.5
74
0
49
-8.5
74
0
0
LTYPE
5
6B
100
AcDbSymbolTableRecord
100
AcDbLinetypeTableRecord
70
0
2
DASHED
3
__ __ __ __ __ __ __ __ __
72
65
73
2
40
25.72
49
12.86
74
0
49
-12.86
74
0
0
ENDTAB
0
TABLE
2
LAYER
5
1aa
100
AcDbSymbolTable
0
LAYER
5
10
100
AcDbSymbolTableRecord
100
AcDbLayerTableRecord
2
0
70
0
62
7
6
CONTINUOUS
290
1
370
-3
390
0
0
LAYER
5
6D
100
AcDbSymbolTableRecord
100
AcDbLayerTableRecord
2
2
70
0
62
7
6
CONTINUOUS
290
1
370
-3
390
0
0
LAYER
5
6F
100
AcDbSymbolTableRecord
100
AcDbLayerTableRecord
2
80
70
0
62
-6
6
CONTINUOUS
290
1
370
-3
390
0
0
LAYER
5
72
100
AcDbSymbolTableRecord
100
AcDbLayerTableRecord
2
81
70
0
62
-3
6
CONTINUOUS
290
1
370
-3
390
0
0
LAYER
5
76
100
AcDbSymbolTableRecord
100
AcDbLayerTableRecord
2
1
70
0
62
4
6
CONTINUOUS
290
1
370
-3
390
0
0
LAYER
5
195
100
AcDbSymbolTableRecord
100
AcDbLayerTableRecord
2
SK1
70
0
62
4
6
CONTINUOUS
290
1
370
-3
390
0
0
LAYER
5
196
100
AcDbSymbolTableRecord
100
AcDbLayerTableRecord
2
SK6
70
0
62
5
6
CONTINUOUS
290
1
370
-3
390
0
0
LAYER
5
197
100
AcDbSymbolTableRecord
100
AcDbLayerTableRecord
2
SK2
70
0
62
7
6
CONTINUOUS
290
1
370
-3
390
0
0
ENDTAB
0
TABLE
2
STYLE
5
1ab
100
AcDbSymbolTable
0
STYLE
5
11
100
AcDbSymbolTableRecord
100
AcDbTextStyleTableRecord
2
Standard
3
txt
70
0
71
0
40
0
41
1
42
0
50
0
0
STYLE
5
DD
100
AcDbSymbolTableRecord
100
AcDbTextStyleTableRecord
2
iso_b_vert
3
simplex.shx
70
0
71
0
40
0
41
1
42
0
50
0
0
STYLE
5
DE
100
AcDbSymbolTableRecord
100
AcDbTextStyleTableRecord
2
DWGDirectTextStyle
3
simplex
70
0
71
0
40
0
41
1
42
0
50
0
0
ENDTAB
0
TABLE
2
DIMSTYLE
5
1ac
100
AcDbSymbolTable
100
AcDbDimStyleTable
0
DIMSTYLE
105
27
100
AcDbSymbolTableRecord
100
AcDbDimStyleTableRecord
2
Standard
70
0
3
<>
41
0.18
42
0.0625
44
0.18
140
0.18
147
0.09
73
0
74
0
77
1
271
2
275
0
278
52
280
0
340
11
0
ENDTAB
0
TABLE
2
VIEW
5
1ad
100
AcDbSymbolTable
0
ENDTAB
0
TABLE
2
UCS
5
1ae
100
AcDbSymbolTable
0
ENDTAB
0
TABLE
2
APPID
5
1af
100
AcDbSymbolTable
0
APPID
5
12
100
AcDbSymbolTableRecord
100
AcDbRegAppTableRecord
2
ACAD
70
0
0
ENDTAB
0
TABLE
2
BLOCK_RECORD
5
1b0
100
AcDbSymbolTable
0
BLOCK_RECORD
5
1F
100
AcDbSymbolTableRecord
100
AcDbBlockTableRecord
2
*Model_Space
340
0
70
0
0
BLOCK_RECORD
5
1B
100
AcDbSymbolTableRecord
100
AcDbBlockTableRecord
2
*Paper_Space
340
0
70
0
0
BLOCK_RECORD
5
23
100
AcDbSymbolTableRecord
100
AcDbBlockTableRecord
2
*Paper_Space0
340
0
70
0
0
BLOCK_RECORD
5
E0
100
AcDbSymbolTableRecord
100
AcDbBlockTableRecord
2
DimnDraft3D1
340
0
70
0
0
BLOCK_RECORD
5
EE
100
AcDbSymbolTableRecord
100
AcDbBlockTableRecord
2
_CLOSED
340
0
70
0
0
BLOCK_RECORD
5
F5
100
AcDbSymbolTableRecord
100
AcDbBlockTableRecord
2
DimnDraft3D2
340
0
70
0
0
BLOCK_RECORD
5
103
100
AcDbSymbolTableRecord
100
AcDbBlockTableRecord
2
DimnDraft3D3
340
0
70
0
0
BLOCK_RECORD
5
112
100
AcDbSymbolTableRecord
100
AcDbBlockTableRecord
2
DimnDraft3D4
340
0
70
0
0
BLOCK_RECORD
5
120
100
AcDbSymbolTableRecord
100
AcDbBlockTableRecord
2
DimnDraft3D5
340
0
70
0
0
BLOCK_RECORD
5
12E
100
AcDbSymbolTableRecord
100
AcDbBlockTableRecord
2
DimnDraft3D6
340
0
70
0
0
ENDTAB
0
ENDSEC
0
SECTION
2
BLOCKS
0
BLOCK
5
20
100
AcDbEntity
8
0
100
AcDbBlockBegin
2
*Model_Space
70
0
10
0
20
0
30
0
3
*Model_Space
0
ENDBLK
5
21
100
AcDbEntity
8
0
100
AcDbBlockEnd
0
BLOCK
5
1C
100
AcDbEntity
8
0
100
AcDbBlockBegin
2
*Paper_Space
70
0
10
0
20
0
30
0
3
*Paper_Space
0
ENDBLK
5
1D
100
AcDbEntity
8
0
100
AcDbBlockEnd
0
BLOCK
5
24
100
AcDbEntity
8
0
100
AcDbBlockBegin
2
*Paper_Space0
70
0
10
0
20
0
30
0
3
*Paper_Space0
0
ENDBLK
5
25
100
AcDbEntity
8
0
100
AcDbBlockEnd
0
BLOCK
5
EB
100
AcDbEntity
8
0
100
AcDbBlockBegin
2
DimnDraft3D1
70
0
10
0
20
0
30
0
3
DimnDraft3D1
0
MTEXT
5
E1
100
AcDbEntity
8
2
62
256
6
ByLayer
370
18
48
1
60
0
100
AcDbMText
10
45.125
20
12.6875
30
0
210
0
220
0
230
1
1
\W0.5404;3
40
4.5
41
0
44
1.084337
50
90
71
7
72
5
7
iso_b_vert
0
LINE
5
E2
100
AcDbEntity
8
2
62
256
6
ByLayer
370
13
48
1
60
0
100
AcDbLine
10
33.5
20
4.0625
30
0
11
49.25
21
4.0625
31
0
39
0
210
0
220
0
230
1
0
LINE
5
E3
100
AcDbEntity
8
2
62
256
6
ByLayer
370
13
48
1
60
0
100
AcDbLine
10
33.5
20
7.0625
30
0
11
49.25
21
7.0625
31
0
39
0
210
0
220
0
230
1
0
LINE
5
E4
100
AcDbEntity
8
2
62
256
6
ByLayer
370
13
48
1
60
0
100
AcDbLine
10
46.25
20
13.575658
30
0
11
46.25
21
-7.1875
31
0
39
0
210
0
220
0
230
1
0
LINE
5
E5
100
AcDbEntity
8
2
62
256
6
ByLayer
370
13
48
1
60
0
100
AcDbLine
10
46.25
20
4.0625
30
0
11
46.644957
21
1.062501
31
0
39
0
210
0
220
0
230
1
0
LINE
5
E6
100
AcDbEntity
8
2
62
256
6
ByLayer
370
13
48
1
60
0
100
AcDbLine
10
46.25
20
4.0625
30
0
11
45.855043
21
1.062499
31
0
39
0
210
0
220
0
230
1
0
LINE
5
E7
100
AcDbEntity
8
2
62
256
6
ByLayer
370
13
48
1
60
0
100
AcDbLine
10
46.644957
20
1.062501
30
0
11
45.855043
21
1.062499
31
0
39
0
210
0
220
0
230
1
0
LINE
5
E8
100
AcDbEntity
8
2
62
256
6
ByLayer
370
13
48
1
60
0
100
AcDbLine
10
46.25
20
7.0625
30
0
11
45.855043
21
10.062499
31
0
39
0
210
0
220
0
230
1
0
LINE
5
E9
100
AcDbEntity
8
2
62
256
6
ByLayer
370
13
48
1
60
0
100
AcDbLine
10
46.25
20
7.0625
30
0
11
46.644957
21
10.062501
31
0
39
0
210
0
220
0
230
1
0
LINE
5
EA
100
AcDbEntity
8
2
62
256
6
ByLayer
370
13
48
1
60
0
100
AcDbLine
10
45.855043
20
10.062499
30
0
11
46.644957
21
10.062501
31
0
39
0
210
0
220
0
230
1
0
ENDBLK
5
EC
100
AcDbEntity
8
0
100
AcDbBlockEnd
0
BLOCK
5
EF
100
AcDbEntity
8
0
100
AcDbBlockBegin
2
_CLOSED
70
0
10
0
20
0
30
0
3
_CLOSED
0
LINE
5
F1
100
AcDbEntity
8
0
62
256
6
ByLayer
370
-2
48
1
60
0
100
AcDbLine
10
-1
20
0.166667
30
0
11
0
21
0
31
0
39
0
210
0
220
0
230
1
0
LINE
5
F2
100
AcDbEntity
8
0
62
256
6
ByLayer
370
-2
48
1
60
0
100
AcDbLine
10
0
20
0
30
0
11
-1
21
-0.166667
31
0
39
0
210
0
220
0
230
1
0
LINE
5
F3
100
AcDbEntity
8
0
62
256
6
ByLayer
370
-2
48
1
60
0
100
AcDbLine
10
-1
20
0.166667
30
0
11
-1
21
-0.166667
31
0
39
0
210
0
220
0
230
1
0
LINE
5
F4
100
AcDbEntity
8
0
62
256
6
ByLayer
370
-2
48
1
60
0
100
AcDbLine
10
0
20
0
30
0
11
-1
21
0
31
0
39
0
210
0
220
0
230
1
0
ENDBLK
5
F0
100
AcDbEntity
8
0
100
AcDbBlockEnd
0
BLOCK
5
100
100
AcDbEntity
8
0
100
AcDbBlockBegin
2
DimnDraft3D2
70
0
10
0
20
0
30
0
3
DimnDraft3D2
0
MTEXT
5
F6
100
AcDbEntity
8
2
62
256
6
ByLayer
370
18
48
1
60
0
100
AcDbMText
10
55.125
20
-0.438158
30
0
210
0
220
0
230
1
1
\W0.5321;13
40
4.5
41
0
44
1.084337
50
90
71
7
72
5
7
iso_b_vert
0
LINE
5
F7
100
AcDbEntity
8
2
62
256
6
ByLayer
370
13
48
1
60
0
100
AcDbLine
10
33.5
20
7.0625
30
0
11
59.25
21
7.0625
31
0
39
0
210
0
220
0
230
1
0
LINE
5
F8
100
AcDbEntity
8
2
62
256
6
ByLayer
370
13
48
1
60
0
100
AcDbLine
10
-3.5
20
-5.9375
30
0
11
59.25
21
-5.9375
31
0
39
0
210
0
220
0
230
1
0
LINE
5
F9
100
AcDbEntity
8
2
62
256
6
ByLayer
370
13
48
1
60
0
100
AcDbLine
10
56.25
20
18.3125
30
0
11
56.25
21
-17.1875
31
0
39
0
210
0
220
0
230
1
0
LINE
5
FA
100
AcDbEntity
8
2
62
256
6
ByLayer
370
13
48
1
60
0
100
AcDbLine
10
56.25
20
7.0625
30
0
11
55.855043
21
10.062499
31
0
39
0
210
0
220
0
230
1
0
LINE
5
FB
100
AcDbEntity
8
2
62
256
6
ByLayer
370
13
48
1
60
0
100
AcDbLine
10
56.25
20
7.0625
30
0
11
56.644957
21
10.062501
31
0
39
0
210
0
220
0
230
1
0
LINE
5
FC
100
AcDbEntity
8
2
62
256
6
ByLayer
370
13
48
1
60
0
100
AcDbLine
10
55.855043
20
10.062499
30
0
11
56.644957
21
10.062501
31
0
39
0
210
0
220
0
230
1
0
LINE
5
FD
100
AcDbEntity
8
2
62
256
6
ByLayer
370
13
48
1
60
0
100
AcDbLine
10
56.25
20
-5.9375
30
0
11
56.644957
21
-8.937499
31
0
39
0
210
0
220
0
230
1
0
LINE
5
FE
100
AcDbEntity
8
2
62
256
6
ByLayer
370
13
48
1
60
0
100
AcDbLine
10
56.25
20
-5.9375
30
0
11
55.855043
21
-8.937501
31
0
39
0
210
0
220
0
230
1
0
LINE
5
FF
100
AcDbEntity
8
2
62
256
6
ByLayer
370
13
48
1
60
0
100
AcDbLine
10
56.644957
20
-8.937499
30
0
11
55.855043
21
-8.937501
31
0
39
0
210
0
220
0
230
1
0
ENDBLK
5
101
100
AcDbEntity
8
0
100
AcDbBlockEnd
0
BLOCK
5
10F
100
AcDbEntity
8
0
100
AcDbBlockBegin
2
DimnDraft3D3
70
0
10
0
20
0
30
0
3
DimnDraft3D3
0
MTEXT
5
104
100
AcDbEntity
8
SK2
62
256
6
ByLayer
370
18
48
1
60
0
100
AcDbMText
10
-105.225
20
-1.000658
30
0
210
0
220
0
230
1
1
\W0.5321;12
40
4.5
41
0
44
1.084337
50
90
71
7
72
5
7
iso_b_vert
0
LINE
5
106
100
AcDbEntity
8
SK2
62
256
6
ByLayer
370
13
48
1
60
0
100
AcDbLine
10
-95.85
20
5.9375
30
0
11
-107.1
21
5.9375
31
0
39
0
210
0
220
0
230
1
0
LINE
5
107
100
AcDbEntity
8
SK2
62
256
6
ByLayer
370
13
48
1
60
0
100
AcDbLine
10
-95.85
20
-5.9375
30
0
11
-107.1
21
-5.9375
31
0
39
0
210
0
220
0
230
1
0
LINE
5
108
100
AcDbEntity
8
SK2
62
256
6
ByLayer
370
13
48
1
60
0
100
AcDbLine
10
-104.1
20
17.1875
30
0
11
-104.1
21
-17.1875
31
0
39
0
210
0
220
0
230
1
0
LINE
5
109
100
AcDbEntity
8
SK2
62
256
6
ByLayer
370
13
48
1
60
0
100
AcDbLine
10
-104.1
20
5.9375
30
0
11
-104.494957
21
8.937499
31
0
39
0
210
0
220
0
230
1
0
LINE
5
10A
100
AcDbEntity
8
SK2
62
256
6
ByLayer
370
13
48
1
60
0
100
AcDbLine
10
-104.1
20
5.9375
30
0
11
-103.705043
21
8.937501
31
0
39
0
210
0
220
0
230
1
0
LINE
5
10B
100
AcDbEntity
8
SK2
62
256
6
ByLayer
370
13
48
1
60
0
100
AcDbLine
10
-104.494957
20
8.937499
30
0
11
-103.705043
21
8.937501
31
0
39
0
210
0
220
0
230
1
0
LINE
5
10C
100
AcDbEntity
8
SK2
62
256
6
ByLayer
370
13
48
1
60
0
100
AcDbLine
10
-104.1
20
-5.9375
30
0
11
-103.705043
21
-8.937499
31
0
39
0
210
0
220
0
230
1
0
LINE
5
10D
100
AcDbEntity
8
SK2
62
256
6
ByLayer
370
13
48
1
60
0
100
AcDbLine
10
-104.1
20
-5.9375
30
0
11
-104.494957
21
-8.937501
31
0
39
0
210
0
220
0
230
1
0
LINE
5
10E
100
AcDbEntity
8
SK2
62
256
6
ByLayer
370
13
48
1
60
0
100
AcDbLine
10
-103.705043
20
-8.937499
30
0
11
-104.494957
21
-8.937501
31
0
39
0
210
0
220
0
230
1
0
ENDBLK
5
110
100
AcDbEntity
8
0
100
AcDbBlockEnd
0
BLOCK
5
11D
100
AcDbEntity
8
0
100
AcDbBlockBegin
2
DimnDraft3D4
70
0
10
0
20
0
30
0
3
DimnDraft3D4
0
MTEXT
5
113
100
AcDbEntity
8
2
62
256
6
ByLayer
370
18
48
1
60
0
100
AcDbMText
10
14.436842
20
17.9375
30
0
210
0
220
0
230
1
1
\W0.6740;32
40
4.5
41
0
44
1.084337
50
0
71
7
72
5
7
iso_b_vert
0
LINE
5
114
100
AcDbEntity
8
2
62
256
6
ByLayer
370
13
48
1
60
0
100
AcDbLine
10
32
20
8.5625
30
0
11
32
21
19.8125
31
0
39
0
210
0
220
0
230
1
0
LINE
5
115
100
AcDbEntity
8
2
62
256
6
ByLayer
370
13
48
1
60
0
100
AcDbLine
10
0
20
7.4375
30
0
11
0
21
19.8125
31
0
39
0
210
0
220
0
230
1
0
LINE
5
116
100
AcDbEntity
8
2
62
256
6
ByLayer
370
13
48
1
60
0
100
AcDbLine
10
32
20
16.8125
30
0
11
0
21
16.8125
31
0
39
0
210
0
220
0
230
1
0
LINE
5
117
100
AcDbEntity
8
2
62
256
6
ByLayer
370
13
48
1
60
0
100
AcDbLine
10
32
20
16.8125
30
0
11
29.000001
21
16.417543
31
0
39
0
210
0
220
0
230
1
0
LINE
5
118
100
AcDbEntity
8
2
62
256
6
ByLayer
370
13
48
1
60
0
100
AcDbLine
10
32
20
16.8125
30
0
11
28.999999
21
17.207457
31
0
39
0
210
0
220
0
230
1
0
LINE
5
119
100
AcDbEntity
8
2
62
256
6
ByLayer
370
13
48
1
60
0
100
AcDbLine
10
29.000001
20
16.417543
30
0
11
28.999999
21
17.207457
31
0
39
0
210
0
220
0
230
1
0
LINE
5
11A
100
AcDbEntity
8
2
62
256
6
ByLayer
370
13
48
1
60
0
100
AcDbLine
10
0
20
16.8125
30
0
11
2.999999
21
17.207457
31
0
39
0
210
0
220
0
230
1
0
LINE
5
11B
100
AcDbEntity
8
2
62
256
6
ByLayer
370
13
48
1
60
0
100
AcDbLine
10
0
20
16.8125
30
0
11
3.000001
21
16.417543
31
0
39
0
210
0
220
0
230
1
0
LINE
5
11C
100
AcDbEntity
8
2
62
256
6
ByLayer
370
13
48
1
60
0
100
AcDbLine
10
2.999999
20
17.207457
30
0
11
3.000001
21
16.417543
31
0
39
0
210
0
220
0
230
1
0
ENDBLK
5
11E
100
AcDbEntity
8
0
100
AcDbBlockEnd
0
BLOCK
5
12B
100
AcDbEntity
8
0
100
AcDbBlockBegin
2
DimnDraft3D5
70
0
10
0
20
0
30
0
3
DimnDraft3D5
0
MTEXT
5
121
100
AcDbEntity
8
SK2
62
256
6
ByLayer
370
18
48
1
60
0
100
AcDbMText
10
-33.857237
20
27.9375
30
0
210
0
220
0
230
1
1
\W0.6217;125
40
4.5
41
0
44
1.084337
50
0
71
7
72
5
7
iso_b_vert
0
LINE
5
122
100
AcDbEntity
8
SK2
62
256
6
ByLayer
370
13
48
1
60
0
100
AcDbLine
10
32
20
8.5625
30
0
11
32
21
29.8125
31
0
39
0
210
0
220
0
230
1
0
LINE
5
123
100
AcDbEntity
8
SK2
62
256
6
ByLayer
370
13
48
1
60
0
100
AcDbLine
10
-94.35
20
7.4375
30
0
11
-94.35
21
29.8125
31
0
39
0
210
0
220
0
230
1
0
LINE
5
124
100
AcDbEntity
8
SK2
62
256
6
ByLayer
370
13
48
1
60
0
100
AcDbLine
10
32
20
26.8125
30
0
11
-94.35
21
26.8125
31
0
39
0
210
0
220
0
230
1
0
LINE
5
125
100
AcDbEntity
8
SK2
62
256
6
ByLayer
370
13
48
1
60
0
100
AcDbLine
10
32
20
26.8125
30
0
11
29.000001
21
26.417543
31
0
39
0
210
0
220
0
230
1
0
LINE
5
126
100
AcDbEntity
8
SK2
62
256
6
ByLayer
370
13
48
1
60
0
100
AcDbLine
10
32
20
26.8125
30
0
11
28.999999
21
27.207457
31
0
39
0
210
0
220
0
230
1
0
LINE
5
127
100
AcDbEntity
8
SK2
62
256
6
ByLayer
370
13
48
1
60
0
100
AcDbLine
10
29.000001
20
26.417543
30
0
11
28.999999
21
27.207457
31
0
39
0
210
0
220
0
230
1
0
LINE
5
128
100
AcDbEntity
8
SK2
62
256
6
ByLayer
370
13
48
1
60
0
100
AcDbLine
10
-94.35
20
26.8125
30
0
11
-91.350001
21
27.207457
31
0
39
0
210
0
220
0
230
1
0
LINE
5
129
100
AcDbEntity
8
SK2
62
256
6
ByLayer
370
13
48
1
60
0
100
AcDbLine
10
-94.35
20
26.8125
30
0
11
-91.349999
21
26.417543
31
0
39
0
210
0
220
0
230
1
0
LINE
5
12A
100
AcDbEntity
8
SK2
62
256
6
ByLayer
370
13
48
1
60
0
100
AcDbLine
10
-91.350001
20
27.207457
30
0
11
-91.349999
21
26.417543
31
0
39
0
210
0
220
0
230
1
0
ENDBLK
5
12C
100
AcDbEntity
8
0
100
AcDbBlockEnd
0
BLOCK
5
139
100
AcDbEntity
8
0
100
AcDbBlockBegin
2
DimnDraft3D6
70
0
10
0
20
0
30
0
3
DimnDraft3D6
0
MTEXT
5
12F
100
AcDbEntity
8
2
62
256
6
ByLayer
370
18
48
1
60
0
100
AcDbMText
10
24.999342
20
-19.0625
30
0
210
0
220
0
230
1
1
\W0.5321;12
40
4.5
41
0
44
1.084337
50
0
71
7
72
5
7
iso_b_vert
0
LINE
5
130
100
AcDbEntity
8
2
62
256
6
ByLayer
370
13
48
1
60
0
100
AcDbLine
10
20
20
1.5625
30
0
11
20
21
-23.1875
31
0
39
0
210
0
220
0
230
1
0
LINE
5
131
100
AcDbEntity
8
2
62
256
6
ByLayer
370
13
48
1
60
0
100
AcDbLine
10
32
20
2.5625
30
0
11
32
21
-23.1875
31
0
39
0
210
0
220
0
230
1
0
LINE
5
132
100
AcDbEntity
8
2
62
256
6
ByLayer
370
13
48
1
60
0
100
AcDbLine
10
8.75
20
-20.1875
30
0
11
43.25
21
-20.1875
31
0
39
0
210
0
220
0
230
1
0
LINE
5
133
100
AcDbEntity
8
2
62
256
6
ByLayer
370
13
48
1
60
0
100
AcDbLine
10
20
20
-20.1875
30
0
11
17.000001
21
-20.582457
31
0
39
0
210
0
220
0
230
1
0
LINE
5
134
100
AcDbEntity
8
2
62
256
6
ByLayer
370
13
48
1
60
0
100
AcDbLine
10
20
20
-20.1875
30
0
11
16.999999
21
-19.792543
31
0
39
0
210
0
220
0
230
1
0
LINE
5
135
100
AcDbEntity
8
2
62
256
6
ByLayer
370
13
48
1
60
0
100
AcDbLine
10
17.000001
20
-20.582457
30
0
11
16.999999
21
-19.792543
31
0
39
0
210
0
220
0
230
1
0
LINE
5
136
100
AcDbEntity
8
2
62
256
6
ByLayer
370
13
48
1
60
0
100
AcDbLine
10
32
20
-20.1875
30
0
11
34.999999
21
-19.792543
31
0
39
0
210
0
220
0
230
1
0
LINE
5
137
100
AcDbEntity
8
2
62
256
6
ByLayer
370
13
48
1
60
0
100
AcDbLine
10
32
20
-20.1875
30
0
11
35.000001
21
-20.582457
31
0
39
0
210
0
220
0
230
1
0
LINE
5
138
100
AcDbEntity
8
2
62
256
6
ByLayer
370
13
48
1
60
0
100
AcDbLine
10
34.999999
20
-19.792543
30
0
11
35.000001
21
-20.582457
31
0
39
0
210
0
220
0
230
1
0
ENDBLK
5
13A
100
AcDbEntity
8
0
100
AcDbBlockEnd
0
ENDSEC
0
SECTION
2
ENTITIES
0
ARC
5
A9
100
AcDbEntity
8
1
62
256
6
ByLayer
370
18
48
1
60
0
100
AcDbCircle
39
0
10
20.1
20
2.7875
30
0
40
1.59999999999984
210
0
220
0
230
1
100
AcDbArc
50
90
51
180
0
ARC
5
AB
100
AcDbEntity
8
1
62
256
6
ByLayer
370
18
48
1
60
0
100
AcDbCircle
39
0
10
13.5
20
-1.4375
30
0
40
1.416
210
0
220
0
230
1
100
AcDbArc
50
96.192438
51
150.190711
0
ARC
5
AC
100
AcDbEntity
8
1
62
256
6
ByLayer
370
18
48
1
60
0
100
AcDbCircle
39
0
10
13.5
20
-1.4375
30
0
40
1.416
210
0
220
0
230
1
100
AcDbArc
50
263.807562
51
276.192438
0
ARC
5
AD
100
AcDbEntity
8
1
62
256
6
ByLayer
370
18
48
1
60
0
100
AcDbCircle
39
0
10
13.5
20
-1.4375
30
0
40
1.9685
210
0
220
0
230
1
100
AcDbArc
50
120.381422
51
180
0
ARC
5
AE
100
AcDbEntity
8
1
62
256
6
ByLayer
370
18
48
1
60
0
100
AcDbCircle
39
0
10
13.5
20
-1.4375
30
0
40
1.416
210
0
220
0
230
1
100
AcDbArc
50
29.809289
51
83.807562
0
ARC
5
AF
100
AcDbEntity
8
1
62
256
6
ByLayer
370
18
48
1
60
0
100
AcDbCircle
39
0
10
13.5
20
-1.4375
30
0
40
1.416
210
0
220
0
230
1
100
AcDbArc
50
330.190711
51
29.809289
0
ARC
5
B0
100
AcDbEntity
8
1
62
256
6
ByLayer
370
18
48
1
60
0
100
AcDbCircle
39
0
10
13.5
20
-1.4375
30
0
40
1.9685
210
0
220
0
230
1
100
AcDbArc
50
239.618578
51
300.381422
0
ARC
5
B1
100
AcDbEntity
8
1
62
256
6
ByLayer
370
18
48
1
60
0
100
AcDbCircle
39
0
10
13.5
20
-1.4375
30
0
40
1.9685
210
0
220
0
230
1
100
AcDbArc
50
180
51
239.618578
0
ARC
5
B2
100
AcDbEntity
8
1
62
256
6
ByLayer
370
18
48
1
60
0
100
AcDbCircle
39
0
10
13.5
20
-1.4375
30
0
40
1.416
210
0
220
0
230
1
100
AcDbArc
50
83.807562
51
96.192438
0
ARC
5
B3
100
AcDbEntity
8
1
62
256
6
ByLayer
370
18
48
1
60
0
100
AcDbCircle
39
0
10
13.5
20
-1.4375
30
0
40
1.416
210
0
220
0
230
1
100
AcDbArc
50
276.192438
51
330.190711
0
ARC
5
B4
100
AcDbEntity
8
1
62
256
6
ByLayer
370
18
48
1
60
0
100
AcDbCircle
39
0
10
13.5
20
-1.4375
30
0
40
1.9685
210
0
220
0
230
1
100
AcDbArc
50
59.618578
51
120.381422
0
ARC
5
B5
100
AcDbEntity
8
1
62
256
6
ByLayer
370
18
48
1
60
0
100
AcDbCircle
39
0
10
13.5
20
-1.4375
30
0
40
1.9685
210
0
220
0
230
1
100
AcDbArc
50
360
51
59.618578
0
ARC
5
B6
100
AcDbEntity
8
1
62
256
6
ByLayer
370
18
48
1
60
0
100
AcDbCircle
39
0
10
13.5
20
-1.4375
30
0
40
1.416
210
0
220
0
230
1
100
AcDbArc
50
209.809289
51
263.807562
0
ARC
5
B7
100
AcDbEntity
8
1
62
256
6
ByLayer
370
18
48
1
60
0
100
AcDbCircle
39
0
10
13.5
20
-1.4375
30
0
40
1.416
210
0
220
0
230
1
100
AcDbArc
50
150.190711
51
209.809289
0
ARC
5
B8
100
AcDbEntity
8
1
62
256
6
ByLayer
370
18
48
1
60
0
100
AcDbCircle
39
0
10
13.5
20
-1.4375
30
0
40
1.9685
210
0
220
0
230
1
100
AcDbArc
50
300.381422
51
360
0
ARC
5
BB
100
AcDbEntity
8
1
62
256
6
ByLayer
370
18
48
1
60
0
100
AcDbCircle
39
0
10
-12.2
20
6.8625
30
0
40
0.2
210
0
220
0
230
-1
100
AcDbArc
50
0
51
92.5
0
ARC
5
BC
100
AcDbEntity
8
1
62
256
6
ByLayer
370
18
48
1
60
0
100
AcDbCircle
39
0
10
-31.8
20
4.2625
30
0
40
0.2
210
0
220
0
230
-1
100
AcDbArc
50
180
51
272.5
0
ARC
5
BD
100
AcDbEntity
8
1
62
256
6
ByLayer
370
18
48
1
60
0
100
AcDbCircle
39
0
10
31.8
20
6.8625
30
0
40
0.2
210
0
220
0
230
1
100
AcDbArc
50
360
51
92.5
0
ARC
5
BE
100
AcDbEntity
8
1
62
256
6
ByLayer
370
18
48
1
60
0
100
AcDbCircle
39
0
10
25.832089
20
5.5625
30
0
40
0.500000000020614
210
0
220
0
230
1
100
AcDbArc
50
340
51
20
0
CIRCLE
5
AA
100
AcDbEntity
8
1
62
256
6
ByLayer
370
18
48
1
60
0
100
AcDbCircle
10
-13.5
20
-1.4375
30
0
40
4
39
0
210
0
220
0
230
-1
0
CIRCLE
5
B9
100
AcDbEntity
8
1
62
256
6
ByLayer
370
18
48
1
60
0
100
AcDbCircle
10
-13.5
20
-1.4375
30
0
40
3.5
39
0
210
0
220
0
230
-1
0
CIRCLE
5
BA
100
AcDbEntity
8
1
62
256
6
ByLayer
370
18
48
1
60
0
100
AcDbCircle
10
-13.5
20
-1.4375
30
0
40
3
39
0
210
0
220
0
230
-1
0
ELLIPSE
5
BF
100
AcDbEntity
8
1
62
256
6
ByLayer
370
18
48
1
60
0
100
AcDbEllipse
10
26.168406
20
4.586051
30
0
11
-0.147968899577814
21
0.0246009116638395
31
0
210
0
220
0
230
1
40
1
41
-0.184315489162955
42
0.164750360844878
0
ELLIPSE
5
C0
100
AcDbEntity
8
1
62
256
6
ByLayer
370
18
48
1
60
0
100
AcDbEllipse
10
26.168406
20
6.538949
30
0
11
-0.147968899577814
21
-0.0246009116638393
31
0
210
0
220
0
230
1
40
1
41
-0.164750360844878
42
0.184315489162961
0
POINT
5
6C
100
AcDbEntity
8
2
62
256
6
ByLayer
370
18
48
1
60
0
100
AcDbPoint
10
32
20
5.5625
30
0
39
0
210
0
220
0
230
1
50
360
0
POINT
5
6E
100
AcDbEntity
8
80
62
256
6
ByLayer
370
18
48
1
60
0
100
AcDbPoint
10
0
20
0
30
0
39
0
210
0
220
0
230
1
50
360
0
POINT
5
70
100
AcDbEntity
8
2
62
256
6
ByLayer
370
18
48
1
60
0
100
AcDbPoint
10
32
20
7.0625
30
0
39
0
210
0
220
0
230
1
50
360
0
POINT
5
71
100
AcDbEntity
8
81
62
256
6
ByLayer
370
18
48
1
60
0
100
AcDbPoint
10
32
20
7.0625
30
0
39
0
210
0
220
0
230
1
50
360
0
SPLINE
5
C1
100
AcDbEntity
8
1
62
256
6
ByLayer
370
18
48
1
60
0
100
AcDbSpline
70
4
71
3
72
12
73
8
40
0
40
0
40
0
40
0
40
0.476059608016386
40
0.476059608016386
40
0.927101084955899
40
0.927101084955899
40
1
40
1
40
1
40
1
41
1
10
25.3863166067351
20
5.15207582800917
30
0
41
1
10
25.4259653450256
20
5.27539251924185
30
0
41
1
10
25.4477674153748
20
5.40943003765085
30
0
41
1
10
25.4516467356135
20
5.6675797847067
30
0
41
1
10
25.4358013988408
20
5.79540896947628
30
0
41
1
10
25.3982187180424
20
5.93435111064775
30
0
41
1
10
25.3924830715351
20
5.95374504880732
30
0
41
1
10
25.3863166067351
20
5.97292417199077
30
0
0
SPLINE
5
C2
100
AcDbEntity
8
1
62
256
6
ByLayer
370
18
48
1
60
0
100
AcDbSpline
70
4
71
3
72
8
73
4
40
0
40
0
40
0
40
0
40
1
40
1
40
1
40
1
41
1
10
25.3863166067351
20
5.97292417199077
30
0
41
1
10
25.3520743031073
20
6.07942560849591
30
0
41
1
10
25.3175699355043
20
6.18580269135623
30
0
41
1
10
25.2826711249932
20
6.29198606706615
30
0
0
SPLINE
5
C3
100
AcDbEntity
8
1
62
256
6
ByLayer
370
18
48
1
60
0
100
AcDbSpline
70
4
71
3
72
8
73
4
40
0
40
0
40
0
40
0
40
1
40
1
40
1
40
1
41
1
10
25.2826711249932
20
4.8330139329338
30
0
41
1
10
25.3175699355043
20
4.93919730864374
30
0
41
1
10
25.3520743031073
20
5.04557439150403
30
0
41
1
10
25.3863166067351
20
5.15207582800917
30
0
0
SPLINE
5
C4
100
AcDbEntity
8
1
62
256
6
ByLayer
370
18
48
1
60
0
100
AcDbSpline
70
4
71
3
72
8
73
4
40
0
40
0
40
0
40
0
40
1
40
1
40
1
40
1
41
1
10
25.2675682415353
20
4.79271487372617
30
0
41
1
10
25.2731177059794
20
4.80584195669019
30
0
41
1
10
25.2781651928695
20
4.81930415094902
30
0
41
1
10
25.2826711249934
20
4.83301393293371
30
0
0
SPLINE
5
C5
100
AcDbEntity
8
1
62
256
6
ByLayer
370
18
48
1
60
0
100
AcDbSpline
70
4
71
3
72
8
73
4
40
0
40
0
40
0
40
0
40
1
40
1
40
1
40
1
41
1
10
25.2826711249934
20
6.29198606706626
30
0
41
1
10
25.2781651928695
20
6.30569584905092
30
0
41
1
10
25.2731177059794
20
6.31915804330976
30
0
41
1
10
25.2675682415353
20
6.33228512627377
30
0
0
SPLINE
5
C6
100
AcDbEntity
8
1
62
256
6
ByLayer
370
18
48
1
60
0
100
AcDbSpline
70
4
71
3
72
8
73
4
40
0
40
0
40
0
40
0
40
1
40
1
40
1
40
1
41
1
10
25.0909333748181
20
4.38749999999999
30
0
41
1
10
25.1516577684963
20
4.52134800696356
30
0
41
1
10
25.2100885379482
20
4.65674844934006
30
0
41
1
10
25.2675682415351
20
4.79271487372628
30
0
0
SPLINE
5
C7
100
AcDbEntity
8
1
62
256
6
ByLayer
370
18
48
1
60
0
100
AcDbSpline
70
4
71
3
72
8
73
4
40
0
40
0
40
0
40
0
40
1
40
1
40
1
40
1
41
1
10
25.2675682415351
20
6.33228512627366
30
0
41
1
10
25.2100885379482
20
6.46825155065989
30
0
41
1
10
25.1516577684963
20
6.60365199303638
30
0
41
1
10
25.0909333748181
20
6.73749999999998
30
0
0
SPLINE
5
C8
100
AcDbEntity
8
1
62
256
6
ByLayer
370
18
48
1
60
0
100
AcDbSpline
70
4
71
3
72
14
73
10
40
0
40
0
40
0
40
0
40
0.281038222380406
40
0.281038222380406
40
0.564557857067055
40
0.564557857067055
40
0.820700196130077
40
0.820700196130077
40
1
40
1
40
1
40
1
41
1
10
12.9078822958328
20
0.206082628088751
30
0
41
1
10
12.8813006245732
20
0.233412369069953
30
0
41
1
10
12.849043969095
20
0.256865524535897
30
0
41
1
10
12.777235194489
20
0.291074860426931
30
0
41
1
10
12.7364720760798
20
0.302184759044849
30
0
41
1
10
12.6571729147492
20
0.307848685574214
30
0
41
1
10
12.6175924873016
20
0.303911725643076
30
0
41
1
10
12.5539176730122
20
0.285615434645678
30
0
41
1
10
12.5281706327858
20
0.274603298463404
30
0
41
1
10
12.5044231104048
20
0.26068105833977
30
0
0
SPLINE
5
C9
100
AcDbEntity
8
1
62
256
6
ByLayer
370
18
48
1
60
0
100
AcDbSpline
70
4
71
3
72
16
73
12
40
0
40
0
40
0
40
0
40
0.0645965064171447
40
0.0645965064171447
40
0.282747320500309
40
0.282747320500309
40
0.503851581407188
40
0.503851581407188
40
0.739476498257834
40
0.739476498257834
40
1
40
1
40
1
40
1
41
1
10
12.5044231104048
20
-3.13568105833977
30
0
41
1
10
12.513014252084
20
-3.14071770744678
30
0
41
1
10
12.5218448367852
20
-3.14537061464472
30
0
41
1
10
12.5610594082809
20
-3.16381831327183
30
0
41
1
10
12.5937837130779
20
-3.17343690823566
30
0
41
1
10
12.6593454694517
20
-3.18245955
30
0
41
1
10
12.6930080641066
20
-3.1818653386228
30
0
41
1
10
12.7588630387573
20
-3.17103188575985
30
0
41
1
10
12.7916435993958
20
-3.16006237928639
30
0
41
1
10
12.8537963059871
20
-3.12838505353068
30
0
41
1
10
12.8832521428563
20
-3.10640593054779
30
0
41
1
10
12.9078822958328
20
-3.08108262808878
30
0
0
SPLINE
5
CA
100
AcDbEntity
8
1
62
256
6
ByLayer
370
18
48
1
60
0
100
AcDbSpline
70
4
71
3
72
18
73
14
40
0
40
0
40
0
40
0
40
0.213081262000622
40
0.213081262000622
40
0.387160943926347
40
0.387160943926347
40
0.562948999942009
40
0.562948999942009
40
0.715638435810383
40
0.715638435810383
40
0.919170953808141
40
0.919170953808141
40
1
40
1
40
1
40
1
41
1
10
14.6474510335849
20
-0.109347662021435
30
0
41
1
10
14.6253499966636
20
-0.191897396602485
30
0
41
1
10
14.6155116663085
20
-0.280703682812259
30
0
41
1
10
14.625005262533
20
-0.444440835300298
30
0
41
1
10
14.6396283941553
20
-0.52076928250051
30
0
41
1
10
14.690791443592
20
-0.667969990808359
30
0
41
1
10
14.7285222509958
20
-0.740888575010786
30
0
41
1
10
14.814774512508
20
-0.860931275805086
30
0
41
1
10
14.8621656692504
20
-0.911676936608671
30
0
41
1
10
14.9803089305089
20
-1.01129079099724
30
0
41
1
10
15.0554527440064
20
-1.05587522828733
30
0
41
1
10
15.1631437334956
20
-1.09998071617818
30
0
41
1
10
15.1945032391402
20
-1.11064015636086
30
0
41
1
10
15.2260954401444
20
-1.11933803045318
30
0
0
SPLINE
5
CB
100
AcDbEntity
8
1
62
256
6
ByLayer
370
18
48
1
60
0
100
AcDbSpline
70
4
71
3
72
18
73
14
40
0
40
0
40
0
40
0
40
0.213081026856097
40
0.213081026856097
40
0.387160750704743
40
0.387160750704743
40
0.56294885146463
40
0.56294885146463
40
0.715638295683687
40
0.715638295683687
40
0.919170771668908
40
0.919170771668908
40
1
40
1
40
1
40
1
41
1
10
11.7739045598557
20
-1.11933803045318
30
0
41
1
10
11.8562959735258
20
-1.09665426295314
30
0
41
1
10
11.9378828610424
20
-1.06022748697347
30
0
41
1
10
12.0743337817464
20
-0.969226944096249
30
0
41
1
10
12.1327849506205
20
-0.918008483266419
30
0
41
1
10
12.2338958570924
20
-0.799423912113923
30
0
41
1
10
12.2777186157693
20
-0.729995510300711
30
0
41
1
10
12.3376543890653
20
-0.594875513593479
30
0
41
1
10
12.3574632867377
20
-0.528327392639625
30
0
41
1
10
12.3836465356628
20
-0.376027736078839
30
0
41
1
10
12.3841042679143
20
-0.288654096332038
30
0
41
1
10
12.3676879551153
20
-0.17344488314825
30
0
41
1
10
12.3610234078263
20
-0.141000606256881
30
0
41
1
10
12.3525489664151
20
-0.109347662021435
30
0
0
SPLINE
5
CC
100
AcDbEntity
8
1
62
256
6
ByLayer
370
18
48
1
60
0
100
AcDbSpline
70
4
71
3
72
14
73
10
40
0
40
0
40
0
40
0
40
0.285014780844617
40
0.285014780844617
40
0.57235060598262
40
0.57235060598262
40
0.832166772861833
40
0.832166772861833
40
1
40
1
40
1
40
1
41
1
10
12.3525489664151
20
-2.76565233797859
30
0
41
1
10
12.3427455383358
20
-2.80226918943279
30
0
41
1
10
12.339100800866
20
-2.84177139209442
30
0
41
1
10
12.3463060087591
20
-2.92055123875113
30
0
41
1
10
12.3574570886555
20
-2.96104024825857
30
0
41
1
10
12.3927012508891
20
-3.031774641525
30
0
41
1
10
12.4160474129793
20
-3.06366793530441
30
0
41
1
10
12.4622449161042
20
-3.10754143751319
30
0
41
1
10
12.4826741516866
20
-3.12293049763466
30
0
41
1
10
12.5044231104048
20
-3.13568105833977
30
0
0
SPLINE
5
CD
100
AcDbEntity
8
1
62
256
6
ByLayer
370
18
48
1
60
0
100
AcDbSpline
70
4
71
3
72
14
73
10
40
0
40
0
40
0
40
0
40
0.285013984727037
40
0.285013984727037
40
0.572349910643064
40
0.572349910643064
40
0.832166158509308
40
0.832166158509308
40
1
40
1
40
1
40
1
41
1
10
15.2260954401444
20
-1.75566196954685
30
0
41
1
10
15.2626420033309
20
-1.74560007468037
30
0
41
1
10
15.298562913688
20
-1.72876597586867
30
0
41
1
10
15.3628804284091
20
-1.68270710212502
30
0
41
1
10
15.392169726513
20
-1.65260985396915
30
0
41
1
10
15.4353659032994
20
-1.58643131773158
30
0
41
1
10
15.4510721564613
20
-1.55016094593429
30
0
41
1
10
15.4655563481768
20
-1.48811810151747
30
0
41
1
10
15.4685
20
-1.46271108166582
30
0
41
1
10
15.4685
20
-1.4375
30
0
0
SPLINE
5
CE
100
AcDbEntity
8
1
62
256
6
ByLayer
370
18
48
1
60
0
100
AcDbSpline
70
4
71
3
72
16
73
12
40
0
40
0
40
0
40
0
40
0.0645965064171449
40
0.0645965064171449
40
0.28274732050031
40
0.28274732050031
40
0.503851581407189
40
0.503851581407189
40
0.739476498257836
40
0.739476498257836
40
1
40
1
40
1
40
1
41
1
10
14.4955768895952
20
0.26068105833977
30
0
41
1
10
14.486985747916
20
0.265717707446754
30
0
41
1
10
14.4781551632148
20
0.27037061464469
30
0
41
1
10
14.4389405917191
20
0.288818313271804
30
0
41
1
10
14.4062162869221
20
0.29843690823563
30
0
41
1
10
14.3406545305483
20
0.307459549999976
30
0
41
1
10
14.3069919358934
20
0.306865338622771
30
0
41
1
10
14.2411369612427
20
0.296031885759817
30
0
41
1
10
14.2083564006042
20
0.285062379286359
30
0
41
1
10
14.1462036940129
20
0.253385053530678
30
0
41
1
10
14.1167478571437
20
0.231405930547794
30
0
41
1
10
14.0921177041672
20
0.206082628088751
30
0
0
SPLINE
5
CF
100
AcDbEntity
8
1
62
256
6
ByLayer
370
18
48
1
60
0
100
AcDbSpline
70
4
71
3
72
16
73
12
40
0
40
0
40
0
40
0
40
0.0660777514109192
40
0.0660777514109192
40
0.289232858199903
40
0.289232858199903
40
0.515409129607304
40
0.515409129607304
40
0.756439127791391
40
0.756439127791391
40
1
40
1
40
1
40
1
41
1
10
11.5315
20
-1.4375
30
0
41
1
10
11.5315
20
-1.44745860674414
30
0
41
1
10
11.5319521370927
20
-1.45742969629174
30
0
41
1
10
11.535870606949
20
-1.50058915149882
30
0
41
1
10
11.5441232851387
20
-1.5336843324549
30
0
41
1
10
11.5694977332366
20
-1.594806256499
30
0
41
1
10
11.5870353182329
20
-1.62354571425425
30
0
41
1
10
11.6296874761397
20
-1.67487829858391
30
0
41
1
10
11.6557295062842
20
-1.69760950260436
30
0
41
1
10
11.7118903369799
20
-1.73354253936773
30
0
41
1
10
11.742638287392
20
-1.74705382916469
30
0
41
1
10
11.7739045598556
20
-1.75566196954685
30
0
0
SPLINE
5
D0
100
AcDbEntity
8
1
62
256
6
ByLayer
370
18
48
1
60
0
100
AcDbSpline
70
4
71
3
72
10
73
6
40
0
40
0
40
0
40
0
40
0.479736826302617
40
0.479736826302617
40
1
40
1
40
1
40
1
41
1
10
13.3472587066235
20
-2.84523793629984
30
0
41
1
10
13.2634717620859
20
-2.86100344076866
30
0
41
1
10
13.1831344436618
20
-2.88995021912078
30
0
41
1
10
13.0347803935531
20
-2.96887369451744
30
0
41
1
10
12.9658766441957
20
-3.02145618460264
30
0
41
1
10
12.9078822958328
20
-3.08108262808878
30
0
0
SPLINE
5
D1
100
AcDbEntity
8
1
62
256
6
ByLayer
370
18
48
1
60
0
100
AcDbSpline
70
4
71
3
72
14
73
10
40
0
40
0
40
0
40
0
40
0.281038222380461
40
0.281038222380461
40
0.564557857067112
40
0.564557857067112
40
0.820700196130134
40
0.820700196130134
40
1
40
1
40
1
40
1
41
1
10
14.0921177041672
20
-3.08108262808878
30
0
41
1
10
14.1186993754269
20
-3.10841236906998
30
0
41
1
10
14.150956030905
20
-3.13186552453592
30
0
41
1
10
14.222764805511
20
-3.16607486042696
30
0
41
1
10
14.2635279239202
20
-3.17718475904488
30
0
41
1
10
14.3428270852508
20
-3.18284868557424
30
0
41
1
10
14.3824075126984
20
-3.1789117256431
30
0
41
1
10
14.4460823269879
20
-3.16061543464568
30
0
41
1
10
14.4718293672142
20
-3.14960329846343
30
0
41
1
10
14.4955768895952
20
-3.1356810583398
30
0
0
SPLINE
5
D2
100
AcDbEntity
8
1
62
256
6
ByLayer
370
18
48
1
60
0
100
AcDbSpline
70
4
71
3
72
14
73
10
40
0
40
0
40
0
40
0
40
0.285014780844616
40
0.285014780844616
40
0.572350605982615
40
0.572350605982615
40
0.832166772861833
40
0.832166772861833
40
1
40
1
40
1
40
1
41
1
10
14.6474510335849
20
-0.109347662021435
30
0
41
1
10
14.6572544616642
20
-0.0727308105672364
30
0
41
1
10
14.660899199134
20
-0.0332286079056132
30
0
41
1
10
14.6536939912409
20
0.0455512387511305
30
0
41
1
10
14.6425429113445
20
0.0860402482585414
30
0
41
1
10
14.6072987491109
20
0.156774641524976
30
0
41
1
10
14.5839525870207
20
0.18866793530438
30
0
41
1
10
14.5377550838958
20
0.232541437513163
30
0
41
1
10
14.5173258483134
20
0.247930497634627
30
0
41
1
10
14.4955768895952
20
0.26068105833977
30
0
0
SPLINE
5
D3
100
AcDbEntity
8
1
62
256
6
ByLayer
370
18
48
1
60
0
100
AcDbSpline
70
4
71
3
72
10
73
6
40
0
40
0
40
0
40
0
40
0.541781546917738
40
0.541781546917738
40
1
40
1
40
1
40
1
41
1
10
14.0921177041672
20
-3.08108262808878
30
0
41
1
10
14.0317893524551
20
-3.0190564969999
30
0
41
1
10
13.9595938121995
20
-2.96461767768477
30
0
41
1
10
13.8098326867734
20
-2.88742229524124
30
0
41
1
10
13.7328667479517
20
-2.8603144881319
30
0
41
1
10
13.6527412933765
20
-2.84523793629984
30
0
0
SPLINE
5
D4
100
AcDbEntity
8
1
62
256
6
ByLayer
370
18
48
1
60
0
100
AcDbSpline
70
4
71
3
72
14
73
10
40
0
40
0
40
0
40
0
40
0.285013984727066
40
0.285013984727066
40
0.572349910643093
40
0.572349910643093
40
0.832166158509312
40
0.832166158509312
40
1
40
1
40
1
40
1
41
1
10
11.7739045598557
20
-1.11933803045318
30
0
41
1
10
11.7373579966691
20
-1.12939992531966
30
0
41
1
10
11.701437086312
20
-1.14623402413136
30
0
41
1
10
11.6371195715909
20
-1.19229289787501
30
0
41
1
10
11.607830273487
20
-1.22239014603088
30
0
41
1
10
11.5646340967007
20
-1.28856868226845
30
0
41
1
10
11.5489278435387
20
-1.32483905406573
30
0
41
1
10
11.5344436518232
20
-1.38688189848256
30
0
41
1
10
11.5315
20
-1.41228891833421
30
0
41
1
10
11.5315
20
-1.4375
30
0
0
SPLINE
5
D5
100
AcDbEntity
8
1
62
256
6
ByLayer
370
18
48
1
60
0
100
AcDbSpline
70
4
71
3
72
18
73
14
40
0
40
0
40
0
40
0
40
0.213081026856106
40
0.213081026856106
40
0.387160750704749
40
0.387160750704749
40
0.562948851464635
40
0.562948851464635
40
0.71563829568369
40
0.71563829568369
40
0.919170771668911
40
0.919170771668911
40
1
40
1
40
1
40
1
41
1
10
15.2260954401444
20
-1.75566196954685
30
0
41
1
10
15.1437040264742
20
-1.77834573704686
30
0
41
1
10
15.0621171389576
20
-1.81477251302655
30
0
41
1
10
14.9256662182536
20
-1.90577305590378
30
0
41
1
10
14.8672150493795
20
-1.95699151673361
30
0
41
1
10
14.7661041429076
20
-2.0755760878861
30
0
41
1
10
14.7222813842307
20
-2.14500448969932
30
0
41
1
10
14.6623456109347
20
-2.28012448640655
30
0
41
1
10
14.6425367132623
20
-2.3466726073604
30
0
41
1
10
14.6163534643372
20
-2.49897226392119
30
0
41
1
10
14.6158957320857
20
-2.58634590366799
30
0
41
1
10
14.6323120448847
20
-2.70155511685178
30
0
41
1
10
14.6389765921737
20
-2.73399939374315
30
0
41
1
10
14.6474510335849
20
-2.76565233797859
30
0
0
SPLINE
5
D6
100
AcDbEntity
8
1
62
256
6
ByLayer
370
18
48
1
60
0
100
AcDbSpline
70
4
71
3
72
10
73
6
40
0
40
0
40
0
40
0
40
0.541781546918621
40
0.541781546918621
40
1
40
1
40
1
40
1
41
1
10
12.9078822958328
20
0.206082628088751
30
0
41
1
10
12.9682106475449
20
0.144056496999866
30
0
41
1
10
13.0404061878005
20
0.0896176776847426
30
0
41
1
10
13.1901673132266
20
0.0124222952412367
30
0
41
1
10
13.2671332520483
20
-0.0146855118681231
30
0
41
1
10
13.3472587066235
20
-0.0297620637001899
30
0
0
SPLINE
5
D7
100
AcDbEntity
8
1
62
256
6
ByLayer
370
18
48
1
60
0
100
AcDbSpline
70
4
71
3
72
18
73
14
40
0
40
0
40
0
40
0
40
0.213081262000623
40
0.213081262000623
40
0.38716094392635
40
0.38716094392635
40
0.562948999942015
40
0.562948999942015
40
0.715638435810391
40
0.715638435810391
40
0.919170953808152
40
0.919170953808152
40
1
40
1
40
1
40
1
41
1
10
12.3525489664151
20
-2.76565233797859
30
0
41
1
10
12.3746500033364
20
-2.68310260339754
30
0
41
1
10
12.3844883336915
20
-2.59429631718777
30
0
41
1
10
12.374994737467
20
-2.43055916469973
30
0
41
1
10
12.3603716058447
20
-2.35423071749952
30
0
41
1
10
12.309208556408
20
-2.20703000919167
30
0
41
1
10
12.2714777490042
20
-2.13411142498924
30
0
41
1
10
12.185225487492
20
-2.01406872419494
30
0
41
1
10
12.1378343307496
20
-1.96332306339136
30
0
41
1
10
12.0196910694911
20
-1.86370920900279
30
0
41
1
10
11.9445472559936
20
-1.81912477171269
30
0
41
1
10
11.8368562665044
20
-1.77501928382182
30
0
41
1
10
11.8054967608598
20
-1.76435984363917
30
0
41
1
10
11.7739045598557
20
-1.75566196954685
30
0
0
SPLINE
5
D8
100
AcDbEntity
8
1
62
256
6
ByLayer
370
18
48
1
60
0
100
AcDbSpline
70
4
71
3
72
16
73
12
40
0
40
0
40
0
40
0
40
0.0517235387679299
40
0.0517235387679299
40
0.275098677522092
40
0.275098677522092
40
0.500660612380093
40
0.500660612380093
40
0.740399911602653
40
0.740399911602653
40
1
40
1
40
1
40
1
41
1
10
14.4955768895952
20
-3.1356810583398
30
0
41
1
10
14.5023126525051
20
-3.13173214496922
30
0
41
1
10
14.5089132100843
20
-3.127540684688
30
0
41
1
10
14.5429215049886
20
-3.10421229858349
30
0
41
1
10
14.567814066225
20
-3.08077794144168
30
0
41
1
10
14.6087337148404
20
-3.02869709081804
30
0
41
1
10
14.6252135093438
20
-2.99935510970406
30
0
41
1
10
14.6490799914639
20
-2.93714422733763
30
0
41
1
10
14.6561625753256
20
-2.90340385102976
30
0
41
1
10
14.6602113511053
20
-2.83468720761849
30
0
41
1
10
14.6563795299009
20
-2.79900122580307
30
0
41
1
10
14.6474510335849
20
-2.76565233797859
30
0
0
SPLINE
5
D9
100
AcDbEntity
8
1
62
256
6
ByLayer
370
18
48
1
60
0
100
AcDbSpline
70
4
71
3
72
16
73
12
40
0
40
0
40
0
40
0
40
0.066077751410914
40
0.066077751410914
40
0.289232858199908
40
0.289232858199908
40
0.515409129607319
40
0.515409129607319
40
0.756439127791418
40
0.756439127791418
40
1
40
1
40
1
40
1
41
1
10
15.4685
20
-1.4375
30
0
41
1
10
15.4685
20
-1.42754139325589
30
0
41
1
10
15.4680478629073
20
-1.41757030370829
30
0
41
1
10
15.464129393051
20
-1.37441084850121
30
0
41
1
10
15.4558767148613
20
-1.34131566754513
30
0
41
1
10
15.4305022667634
20
-1.28019374350103
30
0
41
1
10
15.4129646817671
20
-1.25145428574578
30
0
41
1
10
15.3703125238603
20
-1.20012170141612
30
0
41
1
10
15.3442704937158
20
-1.17739049739564
30
0
41
1
10
15.2881096630201
20
-1.1414574606323
30
0
41
1
10
15.257361712608
20
-1.12794617083534
30
0
41
1
10
15.2260954401444
20
-1.11933803045318
30
0
0
SPLINE
5
DA
100
AcDbEntity
8
1
62
256
6
ByLayer
370
18
48
1
60
0
100
AcDbSpline
70
4
71
3
72
10
73
6
40
0
40
0
40
0
40
0
40
0.479736826236752
40
0.479736826236752
40
1
40
1
40
1
40
1
41
1
10
13.6527412933765
20
-0.0297620637001899
30
0
41
1
10
13.7365282379028
20
-0.0139965592335045
30
0
41
1
10
13.8168655563164
20
0.0149502191128192
30
0
41
1
10
13.9652196064295
20
0.0938736945041967
30
0
41
1
10
14.034123355797
20
0.146456184595166
30
0
41
1
10
14.0921177041672
20
0.206082628088751
30
0
0
SPLINE
5
DB
100
AcDbEntity
8
1
62
256
6
ByLayer
370
18
48
1
60
0
100
AcDbSpline
70
4
71
3
72
16
73
12
40
0
40
0
40
0
40
0
40
0.0517235387678665
40
0.0517235387678665
40
0.275098677522023
40
0.275098677522023
40
0.500660612380063
40
0.500660612380063
40
0.740399911602611
40
0.740399911602611
40
1
40
1
40
1
40
1
41
1
10
12.5044231104048
20
0.26068105833977
30
0
41
1
10
12.4976873474949
20
0.256732144969192
30
0
41
1
10
12.4910867899157
20
0.252540684687972
30
0
41
1
10
12.4570784950114
20
0.229212298583491
30
0
41
1
10
12.432185933775
20
0.205777941441681
30
0
41
1
10
12.3912662851596
20
0.153697090818042
30
0
41
1
10
12.3747864906562
20
0.124355109704027
30
0
41
1
10
12.3509200085361
20
0.062144227337626
30
0
41
1
10
12.3438374246744
20
0.0284038510297364
30
0
41
1
10
12.3397886488947
20
-0.0403127923815418
30
0
41
1
10
12.3436204700991
20
-0.075998774196961
30
0
41
1
10
12.3525489664151
20
-0.109347662021435
30
0
0
LINE
5
73
100
AcDbEntity
8
80
62
256
6
ByLayer
370
18
48
1
60
0
100
AcDbLine
10
0
20
0
30
0
11
-5
21
0
31
0
39
0
210
0
220
0
230
1
0
LINE
5
74
100
AcDbEntity
8
81
62
256
6
ByLayer
370
18
48
1
60
0
100
AcDbLine
10
32
20
7.0625
30
0
11
37
21
7.0625
31
0
39
0
210
0
220
0
230
1
0
LINE
5
75
100
AcDbEntity
8
1
62
256
6
ByLayer
370
18
48
1
60
0
100
AcDbLine
10
0.580385
20
6.7375
30
0
11
2.382343
21
6.7375
31
0
39
0
210
0
220
0
230
1
0
LINE
5
77
100
AcDbEntity
8
1
62
256
6
ByLayer
370
18
48
1
60
0
100
AcDbLine
10
0.5
20
6.4375
30
0
11
0.5
21
-5.939682
31
0
39
0
210
0
220
0
230
1
0
LINE
5
78
100
AcDbEntity
8
1
62
256
6
ByLayer
370
18
48
1
60
0
100
AcDbLine
10
25.900012
20
4.3875
30
0
11
28.186377
21
4.3875
31
0
39
0
210
0
220
0
230
1
0
LINE
5
79
100
AcDbEntity
8
1
62
256
6
ByLayer
370
18
48
1
60
0
100
AcDbLine
10
25.090908
20
4.3875
30
0
11
25.900012
21
4.3875
31
0
39
0
210
0
220
0
230
1
0
LINE
5
7A
100
AcDbEntity
8
1
62
256
6
ByLayer
370
18
48
1
60
0
100
AcDbLine
10
25.900012
20
6.7375
30
0
11
25.900011
21
6.712497
31
0
39
0
210
0
220
0
230
1
0
LINE
5
7B
100
AcDbEntity
8
1
62
256
6
ByLayer
370
18
48
1
60
0
100
AcDbLine
10
0.5
20
-5.939682
30
0
11
0
21
-5.9375
31
0
39
0
210
0
220
0
230
1
0
LINE
5
7C
100
AcDbEntity
8
1
62
256
6
ByLayer
370
18
48
1
60
0
100
AcDbLine
10
0.580385
20
6.7375
30
0
11
0.5
21
6.4375
31
0
39
0
210
0
220
0
230
1
0
LINE
5
7D
100
AcDbEntity
8
1
62
256
6
ByLayer
370
18
48
1
60
0
100
AcDbLine
10
25.900011
20
4.412503
30
0
11
25.900012
21
4.3875
31
0
39
0
210
0
220
0
230
1
0
LINE
5
7E
100
AcDbEntity
8
1
62
256
6
ByLayer
370
18
48
1
60
0
100
AcDbLine
10
20.1
20
4.3875
30
0
11
25.090933
21
4.3875
31
0
39
0
210
0
220
0
230
1
0
LINE
5
7F
100
AcDbEntity
8
1
62
256
6
ByLayer
370
18
48
1
60
0
100
AcDbLine
10
0
20
-5.9375
30
0
11
0
21
5.9375
31
0
39
0
210
0
220
0
230
1
0
LINE
5
80
100
AcDbEntity
8
1
62
256
6
ByLayer
370
18
48
1
60
0
100
AcDbLine
10
16.624045
20
6.7375
30
0
11
25.090933
21
6.7375
31
0
39
0
210
0
220
0
230
1
0
LINE
5
81
100
AcDbEntity
8
1
62
256
6
ByLayer
370
18
48
1
60
0
100
AcDbLine
10
18.5
20
2.7875
30
0
11
18.5
21
-5.970334
31
0
39
0
210
0
220
0
230
1
0
LINE
5
82
100
AcDbEntity
8
1
62
256
6
ByLayer
370
18
48
1
60
0
100
AcDbLine
10
25.090908
20
6.7375
30
0
11
25.900012
21
6.7375
31
0
39
0
210
0
220
0
230
1
0
LINE
5
83
100
AcDbEntity
8
1
62
256
6
ByLayer
370
18
48
1
60
0
100
AcDbLine
10
18.5
20
2.7875
30
0
11
16.624045
21
2.7875
31
0
39
0
210
0
220
0
230
1
0
LINE
5
84
100
AcDbEntity
8
1
62
256
6
ByLayer
370
18
48
1
60
0
100
AcDbLine
10
2.382343
20
-5.970334
30
0
11
18.5
21
-5.970334
31
0
39
0
210
0
220
0
230
1
0
LINE
5
85
100
AcDbEntity
8
1
62
256
6
ByLayer
370
18
48
1
60
0
100
AcDbLine
10
16.624045
20
2.7875
30
0
11
16.624045
21
6.7375
31
0
39
0
210
0
220
0
230
1
0
LINE
5
86
100
AcDbEntity
8
1
62
256
6
ByLayer
370
18
48
1
60
0
100
AcDbLine
10
16.624045
20
6.7375
30
0
11
2.382343
21
6.7375
31
0
39
0
210
0
220
0
230
1
0
LINE
5
87
100
AcDbEntity
8
1
62
256
6
ByLayer
370
18
48
1
60
0
100
AcDbLine
10
2.382343
20
6.7375
30
0
11
2.382343
21
-5.970334
31
0
39
0
210
0
220
0
230
1
0
LINE
5
88
100
AcDbEntity
8
1
62
256
6
ByLayer
370
18
48
1
60
0
100
AcDbLine
10
0.5
20
6.4375
30
0
11
0
21
5.9375
31
0
39
0
210
0
220
0
230
1
0
LINE
5
89
100
AcDbEntity
8
1
62
256
6
ByLayer
370
18
48
1
60
0
100
AcDbLine
10
0.5
20
-5.939682
30
0
11
2.382343
21
-5.970334
31
0
39
0
210
0
220
0
230
1
0
LINE
5
8A
100
AcDbEntity
8
1
62
256
6
ByLayer
370
18
48
1
60
0
100
AcDbLine
10
25.900012
20
6.7375
30
0
11
28.186377
21
6.7375
31
0
39
0
210
0
220
0
230
1
0
LINE
5
8B
100
AcDbEntity
8
SK1
62
256
6
ByLayer
370
18
48
1
60
0
100
AcDbLine
10
-94.35
20
5.9375
30
0
11
-94.35
21
-5.9375
31
0
39
0
210
0
220
0
230
1
0
LINE
5
8D
100
AcDbEntity
8
SK1
62
256
6
ByLayer
370
18
48
1
60
0
100
AcDbLine
10
0
20
5.9375
30
0
11
-94.35
21
5.9375
31
0
39
0
210
0
220
0
230
1
0
LINE
5
8E
100
AcDbEntity
8
SK1
62
256
6
ByLayer
370
18
48
1
60
0
100
AcDbLine
10
-94.35
20
-5.9375
30
0
11
0
21
-5.9375
31
0
39
0
210
0
220
0
230
1
0
LINE
5
8F
100
AcDbEntity
8
SK1
62
256
6
ByLayer
370
18
48
1
60
0
100
AcDbLine
10
0
20
5.9375
30
0
11
0
21
-5.9375
31
0
39
0
210
0
220
0
230
1
0
LINE
5
90
100
AcDbEntity
8
1
62
256
6
ByLayer
370
18
48
1
60
0
100
AcDbLine
10
26.018406
20
6.7125
30
0
11
25.101707
21
6.7125
31
0
39
0
210
0
220
0
230
1
0
LINE
5
91
100
AcDbEntity
8
1
62
256
6
ByLayer
370
18
48
1
60
0
100
AcDbLine
10
25.177429
20
6.538949
30
0
11
26.018406
21
6.538949
31
0
39
0
210
0
220
0
230
1
0
LINE
5
92
100
AcDbEntity
8
1
62
256
6
ByLayer
370
18
48
1
60
0
100
AcDbLine
10
25.199811
20
6.487646
30
0
11
26.027452
21
6.487646
31
0
39
0
210
0
220
0
230
1
0
LINE
5
93
100
AcDbEntity
8
1
62
256
6
ByLayer
370
18
48
1
60
0
100
AcDbLine
10
25.199811
20
4.637354
30
0
11
26.027452
21
4.637354
31
0
39
0
210
0
220
0
230
1
0
LINE
5
94
100
AcDbEntity
8
1
62
256
6
ByLayer
370
18
48
1
60
0
100
AcDbLine
10
25.177429
20
4.586051
30
0
11
26.018406
21
4.586051
31
0
39
0
210
0
220
0
230
1
0
LINE
5
95
100
AcDbEntity
8
1
62
256
6
ByLayer
370
18
48
1
60
0
100
AcDbLine
10
26.018406
20
4.4125
30
0
11
25.101707
21
4.4125
31
0
39
0
210
0
220
0
230
1
0
LINE
5
96
100
AcDbEntity
8
1
62
256
6
ByLayer
370
18
48
1
60
0
100
AcDbLine
10
25.425147
20
5.39149
30
0
11
26.301935
21
5.39149
31
0
39
0
210
0
220
0
230
1
0
LINE
5
97
100
AcDbEntity
8
1
62
256
6
ByLayer
370
18
48
1
60
0
100
AcDbLine
10
25.425954
20
5.73351
30
0
11
26.301935
21
5.73351
31
0
39
0
210
0
220
0
230
1
0
LINE
5
98
100
AcDbEntity
8
1
62
256
6
ByLayer
370
18
48
1
60
0
100
AcDbLine
10
15.81369
20
6.7375
30
0
11
15.5
21
6.918609
31
0
39
0
210
0
220
0
230
1
0
LINE
5
99
100
AcDbEntity
8
1
62
256
6
ByLayer
370
18
48
1
60
0
100
AcDbLine
10
12
20
6.737497
30
0
11
12
21
6.8625
31
0
39
0
210
0
220
0
230
1
0
LINE
5
9A
100
AcDbEntity
8
1
62
256
6
ByLayer
370
18
48
1
60
0
100
AcDbLine
10
12.208724
20
7.06231
30
0
11
15.5
21
6.918609
31
0
39
0
210
0
220
0
230
1
0
LINE
5
9B
100
AcDbEntity
8
1
62
256
6
ByLayer
370
18
48
1
60
0
100
AcDbLine
10
31.791276
20
4.06269
30
0
11
28.5
21
4.206391
31
0
39
0
210
0
220
0
230
1
0
LINE
5
9C
100
AcDbEntity
8
1
62
256
6
ByLayer
370
18
48
1
60
0
100
AcDbLine
10
26.018406
20
4.4125
30
0
11
27.2
21
4.4125
31
0
39
0
210
0
220
0
230
1
0
LINE
5
9D
100
AcDbEntity
8
1
62
256
6
ByLayer
370
18
48
1
60
0
100
AcDbLine
10
26.018406
20
4.586051
30
0
11
26.018406
21
4.4125
31
0
39
0
210
0
220
0
230
1
0
LINE
5
9E
100
AcDbEntity
8
1
62
256
6
ByLayer
370
18
48
1
60
0
100
AcDbLine
10
27.2
20
4.4125
30
0
11
28.143008
21
4.4125
31
0
39
0
210
0
220
0
230
1
0
LINE
5
9F
100
AcDbEntity
8
1
62
256
6
ByLayer
370
18
48
1
60
0
100
AcDbLine
10
28.143008
20
4.4125
30
0
11
28.5
21
4.206391
31
0
39
0
210
0
220
0
230
1
0
LINE
5
A0
100
AcDbEntity
8
1
62
256
6
ByLayer
370
18
48
1
60
0
100
AcDbLine
10
26.027452
20
4.637354
30
0
11
26.301935
21
5.39149
31
0
39
0
210
0
220
0
230
1
0
LINE
5
A1
100
AcDbEntity
8
1
62
256
6
ByLayer
370
18
48
1
60
0
100
AcDbLine
10
26.018406
20
6.538949
30
0
11
26.018406
21
6.7125
31
0
39
0
210
0
220
0
230
1
0
LINE
5
A2
100
AcDbEntity
8
1
62
256
6
ByLayer
370
18
48
1
60
0
100
AcDbLine
10
26.027452
20
6.487646
30
0
11
26.301935
21
5.73351
31
0
39
0
210
0
220
0
230
1
0
LINE
5
A3
100
AcDbEntity
8
1
62
256
6
ByLayer
370
18
48
1
60
0
100
AcDbLine
10
27.2
20
6.7125
30
0
11
27.2
21
4.4125
31
0
39
0
210
0
220
0
230
1
0
LINE
5
A4
100
AcDbEntity
8
1
62
256
6
ByLayer
370
18
48
1
60
0
100
AcDbLine
10
32
20
4.2625
30
0
11
32
21
6.8625
31
0
39
0
210
0
220
0
230
1
0
LINE
5
A5
100
AcDbEntity
8
1
62
256
6
ByLayer
370
18
48
1
60
0
100
AcDbLine
10
31.791276
20
7.06231
30
0
11
28.5
21
6.918609
31
0
39
0
210
0
220
0
230
1
0
LINE
5
A6
100
AcDbEntity
8
1
62
256
6
ByLayer
370
18
48
1
60
0
100
AcDbLine
10
28.143008
20
6.7125
30
0
11
28.5
21
6.918609
31
0
39
0
210
0
220
0
230
1
0
LINE
5
A7
100
AcDbEntity
8
1
62
256
6
ByLayer
370
18
48
1
60
0
100
AcDbLine
10
26.018406
20
6.7125
30
0
11
27.2
21
6.7125
31
0
39
0
210
0
220
0
230
1
0
LINE
5
A8
100
AcDbEntity
8
1
62
256
6
ByLayer
370
18
48
1
60
0
100
AcDbLine
10
27.2
20
6.7125
30
0
11
28.143008
21
6.7125
31
0
39
0
210
0
220
0
230
1
0
MTEXT
5
DC
100
AcDbEntity
8
SK6
62
256
6
ByLayer
370
18
48
1
60
0
100
AcDbMText
10
-60.299987
20
-16.828917
30
0
210
0
220
0
230
1
1
\W0.7002;RF123G12-1212B
40
3.5
41
0
44
1.084337
50
0
71
7
72
5
7
iso_b_vert
0
DIMENSION
5
ED
100
AcDbEntity
8
2
62
256
6
ByLayer
370
13
48
1
60
0
100
AcDbDimension
2
DimnDraft3D1
10
46.25
20
7.0625
30
0
11
46.25
21
11.5625
31
0
70
32
71
5
72
1
41
1
210
0
220
0
230
1
3
Standard
100
AcDbAlignedDimension
13
33.5
23
4.0625
33
0
14
33.5
24
7.0625
34
0
50
90
100
AcDbRotatedDimension
1001
ACAD
1000
DSTYLE
1002
{
1070
    74
1070
     0
1070
   279
1070
     0
1070
   172
1070
     1
1070
   173
1070
     1
1070
   340
1005
DD
1070
   271
1070
     3
1070
   272
1070
     3
1070
    77
1070
     1
1070
    73
1070
     0
1070
   171
1070
     4
1070
   274
1070
     4
1070
   177
1070
     2
1070
   176
1070
     2
1070
   178
1070
     7
1070
    78
1070
     8
1070
    41
1041
3.0
1070
   147
1041
2.25
1070
    42
1041
1.5
1070
    44
1041
3.0
1070
   140
1041
4.5
1070
   343
1005
EE
1070
   344
1005
EE
1002
}
0
DIMENSION
5
102
100
AcDbEntity
8
2
62
256
6
ByLayer
370
13
48
1
60
0
100
AcDbDimension
2
DimnDraft3D2
10
56.25
20
-5.9375
30
0
11
56.25
21
-1.563158
31
0
70
32
71
5
72
1
41
1
210
0
220
0
230
1
3
Standard
100
AcDbAlignedDimension
13
33.5
23
7.0625
33
0
14
-3.5
24
-5.9375
34
0
50
90
100
AcDbRotatedDimension
1001
ACAD
1000
DSTYLE
1002
{
1070
    74
1070
     0
1070
   279
1070
     0
1070
   172
1070
     1
1070
   173
1070
     1
1070
   340
1005
DD
1070
   271
1070
     3
1070
   272
1070
     3
1070
    77
1070
     1
1070
    73
1070
     0
1070
   171
1070
     4
1070
   274
1070
     4
1070
   177
1070
     2
1070
   176
1070
     2
1070
   178
1070
     7
1070
    78
1070
     8
1070
    41
1041
3.0
1070
   147
1041
2.25
1070
    42
1041
1.5
1070
    44
1041
3.0
1070
   140
1041
4.5
1070
   343
1005
EE
1070
   344
1005
EE
1002
}
0
DIMENSION
5
111
100
AcDbEntity
8
SK2
62
256
6
ByLayer
370
13
48
1
60
0
100
AcDbDimension
2
DimnDraft3D3
10
-104.1
20
-5.9375
30
0
11
-104.1
21
-2.125658
31
0
70
32
71
5
72
1
41
1
210
0
220
0
230
1
3
Standard
100
AcDbAlignedDimension
13
-95.85
23
5.9375
33
0
14
-95.85
24
-5.9375
34
0
50
90
100
AcDbRotatedDimension
1001
ACAD
1000
DSTYLE
1002
{
1070
    74
1070
     0
1070
   279
1070
     0
1070
   172
1070
     1
1070
   173
1070
     1
1070
   340
1005
DD
1070
   271
1070
     3
1070
   272
1070
     3
1070
    77
1070
     1
1070
    73
1070
     0
1070
   171
1070
     4
1070
   274
1070
     4
1070
   177
1070
     2
1070
   176
1070
     2
1070
   178
1070
     7
1070
    78
1070
     8
1070
    41
1041
3.0
1070
   147
1041
2.25
1070
    42
1041
1.5
1070
    44
1041
3.0
1070
   140
1041
4.5
1070
   343
1005
EE
1070
   344
1005
EE
1002
}
0
DIMENSION
5
11F
100
AcDbEntity
8
2
62
256
6
ByLayer
370
13
48
1
60
0
100
AcDbDimension
2
DimnDraft3D4
10
0
20
16.8125
30
0
11
13.311842
21
16.8125
31
0
70
32
71
5
72
1
41
1
210
0
220
0
230
1
3
Standard
100
AcDbAlignedDimension
13
32
23
8.5625
33
0
14
0
24
7.4375
34
0
50
0
100
AcDbRotatedDimension
1001
ACAD
1000
DSTYLE
1002
{
1070
   279
1070
     0
1070
   172
1070
     1
1070
   173
1070
     1
1070
   340
1005
DD
1070
   271
1070
     3
1070
   272
1070
     3
1070
    77
1070
     1
1070
    73
1070
     0
1070
   171
1070
     4
1070
   274
1070
     4
1070
   177
1070
     2
1070
   176
1070
     2
1070
   178
1070
     7
1070
    78
1070
     8
1070
    41
1041
3.0
1070
   147
1041
2.25
1070
    42
1041
1.5
1070
    44
1041
3.0
1070
   140
1041
4.5
1070
   343
1005
EE
1070
   344
1005
EE
1002
}
0
DIMENSION
5
12D
100
AcDbEntity
8
SK2
62
256
6
ByLayer
370
13
48
1
60
0
100
AcDbDimension
2
DimnDraft3D5
10
-94.35
20
26.8125
30
0
11
-34.982237
21
26.8125
31
0
70
32
71
5
72
1
41
1
210
0
220
0
230
1
3
Standard
100
AcDbAlignedDimension
13
32
23
8.5625
33
0
14
-94.35
24
7.4375
34
0
50
0
100
AcDbRotatedDimension
1001
ACAD
1000
DSTYLE
1002
{
1070
   279
1070
     0
1070
   172
1070
     1
1070
   173
1070
     1
1070
   340
1005
DD
1070
   271
1070
     3
1070
   272
1070
     3
1070
    77
1070
     1
1070
    73
1070
     0
1070
   171
1070
     4
1070
   274
1070
     4
1070
   177
1070
     2
1070
   176
1070
     2
1070
   178
1070
     7
1070
    78
1070
     8
1070
    41
1041
3.0
1070
   147
1041
2.25
1070
    42
1041
1.5
1070
    44
1041
3.0
1070
   140
1041
4.5
1070
   343
1005
EE
1070
   344
1005
EE
1002
}
0
DIMENSION
5
13B
100
AcDbEntity
8
2
62
256
6
ByLayer
370
13
48
1
60
0
100
AcDbDimension
2
DimnDraft3D6
10
32
20
-20.1875
30
0
11
23.874342
21
-20.1875
31
0
70
32
71
5
72
1
41
1
210
0
220
0
230
1
3
Standard
100
AcDbAlignedDimension
13
20
23
1.5625
33
0
14
32
24
2.5625
34
0
50
0
100
AcDbRotatedDimension
1001
ACAD
1000
DSTYLE
1002
{
1070
   279
1070
     0
1070
   172
1070
     1
1070
   173
1070
     1
1070
   340
1005
DD
1070
   271
1070
     3
1070
   272
1070
     3
1070
    77
1070
     1
1070
    73
1070
     0
1070
   171
1070
     4
1070
   274
1070
     4
1070
   177
1070
     2
1070
   176
1070
     2
1070
   178
1070
     7
1070
    78
1070
     8
1070
    41
1041
3.0
1070
   147
1041
2.25
1070
    42
1041
1.5
1070
    44
1041
3.0
1070
   140
1041
4.5
1070
   343
1005
EE
1070
   344
1005
EE
1002
}
0
ENDSEC
0
SECTION
2
OBJECTS
0
DICTIONARY
5
1a5
330
0
100
AcDbDictionary
280
0
281
1
3
ACAD_GROUP
350
1a6
3
ACAD_MLINESTYLE
350
1a7
0
DICTIONARY
5
1a6
330
0
100
AcDbDictionary
280
0
281
1
0
DICTIONARY
5
1a7
330
0
100
AcDbDictionary
280
0
281
1
3
Standard
350
18
0
MLINESTYLE
5
18
330
1a7
100
AcDbMlineStyle
2
Standard
70
0
3

62
256
51
90
52
90
71
2
49
-0.5
62
256
6
ByLayer
49
0.5
62
256
6
ByLayer
0
RASTERVARIABLES
5
194
330

100
AcDbRasterVariables
90
0
70
1
71
1
72
1
0
ENDSEC
0
EOF
