0
SECTION
2
HEADER
9
$ACADVER
1
AC1015
9
$DWGCODEPAGE
3
ANSI_1252
9
$HANDSEED
5
1b3
9
$ANGBASE
50
0
9
$ANGDIR
70
0
9
$ATTMODE
70
1
9
$AUNITS
70
0
9
$AUPREC
70
0
9
$CECOLOR
62
256
9
$CELTSCALE
40
1
9
$CELTYPE
6
ByLayer
9
$CELWEIGHT
370
18
9
$CLAYER
8
0
9
$CMLJUST
70
0
9
$CMLSCALE
40
1
9
$CMLSTYLE
2
Standard
9
$DIMSTYLE
2
Standard
9
$TEXTSIZE
40
0.2
9
$TEXTSTYLE
7
Standard
9
$LUNITS
70
2
9
$LUPREC
70
4
9
$EXTNAMES
290
1
9
$INSUNITS
70
4
9
$LTSCALE
40
1
9
$LWDISPLAY
290
1
9
$PDMODE
70
0
9
$PDSIZE
40
0
9
$PLINEGEN
70
0
0
ENDSEC
0
SECTION
2
CLASSES
0
CLASS
1
RASTERVARIABLES
2
AcDbRasterVariables
3
ISM
90
0
280
0
281
0
0
ENDSEC
0
SECTION
2
TABLES
0
TABLE
2
VPORT
5
1a9
100
AcDbSymbolTable
0
VPORT
5
1
100
AcDbSymbolTableRecord
100
AcDbViewportTableRecord
2
*Active
70
0
10
0
20
0
11
1
21
1
12
-1
22
1
13
0
23
0
14
0.5
24
0.5
15
10
25
10
16
0
26
0
36
1
17
0
27
0
37
0
0
ENDTAB
0
TABLE
2
LTYPE
5
1aa
100
AcDbSymbolTable
0
LTYPE
5
14
100
AcDbSymbolTableRecord
100
AcDbLinetypeTableRecord
70
0
2
ByBlock
3

72
65
73
0
40
0
0
LTYPE
5
15
100
AcDbSymbolTableRecord
100
AcDbLinetypeTableRecord
70
0
2
ByLayer
3

72
65
73
0
40
0
0
LTYPE
5
16
100
AcDbSymbolTableRecord
100
AcDbLinetypeTableRecord
70
0
2
CONTINUOUS
3
Solid line
72
65
73
0
40
0
0
LTYPE
5
6A
100
AcDbSymbolTableRecord
100
AcDbLinetypeTableRecord
70
0
2
CENTER
3
____ _ ____ _ ____ _ ____
72
65
73
4
40
47.5
49
22
74
0
49
-8.5
74
0
49
8.5
74
0
49
-8.5
74
0
0
LTYPE
5
6B
100
AcDbSymbolTableRecord
100
AcDbLinetypeTableRecord
70
0
2
DASHED
3
__ __ __ __ __ __ __ __ __
72
65
73
2
40
25.72
49
12.86
74
0
49
-12.86
74
0
0
ENDTAB
0
TABLE
2
LAYER
5
1ab
100
AcDbSymbolTable
0
LAYER
5
10
100
AcDbSymbolTableRecord
100
AcDbLayerTableRecord
2
0
70
0
62
7
6
CONTINUOUS
290
1
370
-3
390
0
0
LAYER
5
6D
100
AcDbSymbolTableRecord
100
AcDbLayerTableRecord
2
2
70
0
62
7
6
CONTINUOUS
290
1
370
-3
390
0
0
LAYER
5
6F
100
AcDbSymbolTableRecord
100
AcDbLayerTableRecord
2
80
70
0
62
-6
6
CONTINUOUS
290
1
370
-3
390
0
0
LAYER
5
72
100
AcDbSymbolTableRecord
100
AcDbLayerTableRecord
2
81
70
0
62
-3
6
CONTINUOUS
290
1
370
-3
390
0
0
LAYER
5
76
100
AcDbSymbolTableRecord
100
AcDbLayerTableRecord
2
1
70
0
62
4
6
CONTINUOUS
290
1
370
-3
390
0
0
LAYER
5
196
100
AcDbSymbolTableRecord
100
AcDbLayerTableRecord
2
SK1
70
0
62
4
6
CONTINUOUS
290
1
370
-3
390
0
0
LAYER
5
197
100
AcDbSymbolTableRecord
100
AcDbLayerTableRecord
2
SK6
70
0
62
5
6
CONTINUOUS
290
1
370
-3
390
0
0
LAYER
5
198
100
AcDbSymbolTableRecord
100
AcDbLayerTableRecord
2
SK2
70
0
62
7
6
CONTINUOUS
290
1
370
-3
390
0
0
ENDTAB
0
TABLE
2
STYLE
5
1ac
100
AcDbSymbolTable
0
STYLE
5
11
100
AcDbSymbolTableRecord
100
AcDbTextStyleTableRecord
2
Standard
3
txt
70
0
71
0
40
0
41
1
42
0
50
0
0
STYLE
5
DE
100
AcDbSymbolTableRecord
100
AcDbTextStyleTableRecord
2
iso_b_vert
3
simplex.shx
70
0
71
0
40
0
41
1
42
0
50
0
0
STYLE
5
DF
100
AcDbSymbolTableRecord
100
AcDbTextStyleTableRecord
2
DWGDirectTextStyle
3
simplex
70
0
71
0
40
0
41
1
42
0
50
0
0
ENDTAB
0
TABLE
2
DIMSTYLE
5
1ad
100
AcDbSymbolTable
100
AcDbDimStyleTable
0
DIMSTYLE
105
27
100
AcDbSymbolTableRecord
100
AcDbDimStyleTableRecord
2
Standard
70
0
3
<>
41
0.18
42
0.0625
44
0.18
140
0.18
147
0.09
73
0
74
0
77
1
271
2
275
0
278
52
280
0
340
11
0
ENDTAB
0
TABLE
2
VIEW
5
1ae
100
AcDbSymbolTable
0
ENDTAB
0
TABLE
2
UCS
5
1af
100
AcDbSymbolTable
0
ENDTAB
0
TABLE
2
APPID
5
1b0
100
AcDbSymbolTable
0
APPID
5
12
100
AcDbSymbolTableRecord
100
AcDbRegAppTableRecord
2
ACAD
70
0
0
ENDTAB
0
TABLE
2
BLOCK_RECORD
5
1b1
100
AcDbSymbolTable
0
BLOCK_RECORD
5
1F
100
AcDbSymbolTableRecord
100
AcDbBlockTableRecord
2
*Model_Space
340
0
70
0
0
BLOCK_RECORD
5
1B
100
AcDbSymbolTableRecord
100
AcDbBlockTableRecord
2
*Paper_Space
340
0
70
0
0
BLOCK_RECORD
5
23
100
AcDbSymbolTableRecord
100
AcDbBlockTableRecord
2
*Paper_Space0
340
0
70
0
0
BLOCK_RECORD
5
E1
100
AcDbSymbolTableRecord
100
AcDbBlockTableRecord
2
DimnDraft3D1
340
0
70
0
0
BLOCK_RECORD
5
EF
100
AcDbSymbolTableRecord
100
AcDbBlockTableRecord
2
_CLOSED
340
0
70
0
0
BLOCK_RECORD
5
F6
100
AcDbSymbolTableRecord
100
AcDbBlockTableRecord
2
DimnDraft3D2
340
0
70
0
0
BLOCK_RECORD
5
104
100
AcDbSymbolTableRecord
100
AcDbBlockTableRecord
2
DimnDraft3D3
340
0
70
0
0
BLOCK_RECORD
5
113
100
AcDbSymbolTableRecord
100
AcDbBlockTableRecord
2
DimnDraft3D4
340
0
70
0
0
BLOCK_RECORD
5
121
100
AcDbSymbolTableRecord
100
AcDbBlockTableRecord
2
DimnDraft3D5
340
0
70
0
0
BLOCK_RECORD
5
12F
100
AcDbSymbolTableRecord
100
AcDbBlockTableRecord
2
DimnDraft3D6
340
0
70
0
0
ENDTAB
0
ENDSEC
0
SECTION
2
BLOCKS
0
BLOCK
5
20
100
AcDbEntity
8
0
100
AcDbBlockBegin
2
*Model_Space
70
0
10
0
20
0
30
0
3
*Model_Space
0
ENDBLK
5
21
100
AcDbEntity
8
0
100
AcDbBlockEnd
0
BLOCK
5
1C
100
AcDbEntity
8
0
100
AcDbBlockBegin
2
*Paper_Space
70
0
10
0
20
0
30
0
3
*Paper_Space
0
ENDBLK
5
1D
100
AcDbEntity
8
0
100
AcDbBlockEnd
0
BLOCK
5
24
100
AcDbEntity
8
0
100
AcDbBlockBegin
2
*Paper_Space0
70
0
10
0
20
0
30
0
3
*Paper_Space0
0
ENDBLK
5
25
100
AcDbEntity
8
0
100
AcDbBlockEnd
0
BLOCK
5
EC
100
AcDbEntity
8
0
100
AcDbBlockBegin
2
DimnDraft3D1
70
0
10
0
20
0
30
0
3
DimnDraft3D1
0
MTEXT
5
E2
100
AcDbEntity
8
2
62
256
6
ByLayer
370
18
48
1
60
0
100
AcDbMText
10
43.125
20
19.1875
30
0
210
0
220
0
230
1
1
\W0.5404;3
40
4.5
41
0
44
1.084337
50
90
71
7
72
5
7
iso_b_vert
0
LINE
5
E3
100
AcDbEntity
8
2
62
256
6
ByLayer
370
13
48
1
60
0
100
AcDbLine
10
31.5
20
10.5625
30
0
11
47.25
21
10.5625
31
0
39
0
210
0
220
0
230
1
0
LINE
5
E4
100
AcDbEntity
8
2
62
256
6
ByLayer
370
13
48
1
60
0
100
AcDbLine
10
31.5
20
13.5625
30
0
11
47.25
21
13.5625
31
0
39
0
210
0
220
0
230
1
0
LINE
5
E5
100
AcDbEntity
8
2
62
256
6
ByLayer
370
13
48
1
60
0
100
AcDbLine
10
44.25
20
20.075658
30
0
11
44.25
21
-0.6875
31
0
39
0
210
0
220
0
230
1
0
LINE
5
E6
100
AcDbEntity
8
2
62
256
6
ByLayer
370
13
48
1
60
0
100
AcDbLine
10
44.25
20
10.5625
30
0
11
44.644957
21
7.562501
31
0
39
0
210
0
220
0
230
1
0
LINE
5
E7
100
AcDbEntity
8
2
62
256
6
ByLayer
370
13
48
1
60
0
100
AcDbLine
10
44.25
20
10.5625
30
0
11
43.855043
21
7.562499
31
0
39
0
210
0
220
0
230
1
0
LINE
5
E8
100
AcDbEntity
8
2
62
256
6
ByLayer
370
13
48
1
60
0
100
AcDbLine
10
44.644957
20
7.562501
30
0
11
43.855043
21
7.562499
31
0
39
0
210
0
220
0
230
1
0
LINE
5
E9
100
AcDbEntity
8
2
62
256
6
ByLayer
370
13
48
1
60
0
100
AcDbLine
10
44.25
20
13.5625
30
0
11
43.855043
21
16.562499
31
0
39
0
210
0
220
0
230
1
0
LINE
5
EA
100
AcDbEntity
8
2
62
256
6
ByLayer
370
13
48
1
60
0
100
AcDbLine
10
44.25
20
13.5625
30
0
11
44.644957
21
16.562501
31
0
39
0
210
0
220
0
230
1
0
LINE
5
EB
100
AcDbEntity
8
2
62
256
6
ByLayer
370
13
48
1
60
0
100
AcDbLine
10
43.855043
20
16.562499
30
0
11
44.644957
21
16.562501
31
0
39
0
210
0
220
0
230
1
0
ENDBLK
5
ED
100
AcDbEntity
8
0
100
AcDbBlockEnd
0
BLOCK
5
F0
100
AcDbEntity
8
0
100
AcDbBlockBegin
2
_CLOSED
70
0
10
0
20
0
30
0
3
_CLOSED
0
LINE
5
F2
100
AcDbEntity
8
0
62
256
6
ByLayer
370
-2
48
1
60
0
100
AcDbLine
10
-1
20
0.166667
30
0
11
0
21
0
31
0
39
0
210
0
220
0
230
1
0
LINE
5
F3
100
AcDbEntity
8
0
62
256
6
ByLayer
370
-2
48
1
60
0
100
AcDbLine
10
0
20
0
30
0
11
-1
21
-0.166667
31
0
39
0
210
0
220
0
230
1
0
LINE
5
F4
100
AcDbEntity
8
0
62
256
6
ByLayer
370
-2
48
1
60
0
100
AcDbLine
10
-1
20
0.166667
30
0
11
-1
21
-0.166667
31
0
39
0
210
0
220
0
230
1
0
LINE
5
F5
100
AcDbEntity
8
0
62
256
6
ByLayer
370
-2
48
1
60
0
100
AcDbLine
10
0
20
0
30
0
11
-1
21
0
31
0
39
0
210
0
220
0
230
1
0
ENDBLK
5
F1
100
AcDbEntity
8
0
100
AcDbBlockEnd
0
BLOCK
5
101
100
AcDbEntity
8
0
100
AcDbBlockBegin
2
DimnDraft3D2
70
0
10
0
20
0
30
0
3
DimnDraft3D2
0
MTEXT
5
F7
100
AcDbEntity
8
2
62
256
6
ByLayer
370
18
48
1
60
0
100
AcDbMText
10
53.125
20
-1.000658
30
0
210
0
220
0
230
1
1
\W0.6740;26
40
4.5
41
0
44
1.084337
50
90
71
7
72
5
7
iso_b_vert
0
LINE
5
F8
100
AcDbEntity
8
2
62
256
6
ByLayer
370
13
48
1
60
0
100
AcDbLine
10
31.5
20
13.5625
30
0
11
57.25
21
13.5625
31
0
39
0
210
0
220
0
230
1
0
LINE
5
F9
100
AcDbEntity
8
2
62
256
6
ByLayer
370
13
48
1
60
0
100
AcDbLine
10
-3.5
20
-12.4375
30
0
11
57.25
21
-12.4375
31
0
39
0
210
0
220
0
230
1
0
LINE
5
FA
100
AcDbEntity
8
2
62
256
6
ByLayer
370
13
48
1
60
0
100
AcDbLine
10
54.25
20
13.5625
30
0
11
54.25
21
-12.4375
31
0
39
0
210
0
220
0
230
1
0
LINE
5
FB
100
AcDbEntity
8
2
62
256
6
ByLayer
370
13
48
1
60
0
100
AcDbLine
10
54.25
20
13.5625
30
0
11
54.644957
21
10.562501
31
0
39
0
210
0
220
0
230
1
0
LINE
5
FC
100
AcDbEntity
8
2
62
256
6
ByLayer
370
13
48
1
60
0
100
AcDbLine
10
54.25
20
13.5625
30
0
11
53.855043
21
10.562499
31
0
39
0
210
0
220
0
230
1
0
LINE
5
FD
100
AcDbEntity
8
2
62
256
6
ByLayer
370
13
48
1
60
0
100
AcDbLine
10
54.644957
20
10.562501
30
0
11
53.855043
21
10.562499
31
0
39
0
210
0
220
0
230
1
0
LINE
5
FE
100
AcDbEntity
8
2
62
256
6
ByLayer
370
13
48
1
60
0
100
AcDbLine
10
54.25
20
-12.4375
30
0
11
53.855043
21
-9.437501
31
0
39
0
210
0
220
0
230
1
0
LINE
5
FF
100
AcDbEntity
8
2
62
256
6
ByLayer
370
13
48
1
60
0
100
AcDbLine
10
54.25
20
-12.4375
30
0
11
54.644957
21
-9.437499
31
0
39
0
210
0
220
0
230
1
0
LINE
5
100
100
AcDbEntity
8
2
62
256
6
ByLayer
370
13
48
1
60
0
100
AcDbLine
10
53.855043
20
-9.437501
30
0
11
54.644957
21
-9.437499
31
0
39
0
210
0
220
0
230
1
0
ENDBLK
5
102
100
AcDbEntity
8
0
100
AcDbBlockEnd
0
BLOCK
5
110
100
AcDbEntity
8
0
100
AcDbBlockBegin
2
DimnDraft3D3
70
0
10
0
20
0
30
0
3
DimnDraft3D3
0
MTEXT
5
105
100
AcDbEntity
8
SK2
62
256
6
ByLayer
370
18
48
1
60
0
100
AcDbMText
10
-132.225
20
-1.563158
30
0
210
0
220
0
230
1
1
\W0.6740;25
40
4.5
41
0
44
1.084337
50
90
71
7
72
5
7
iso_b_vert
0
LINE
5
107
100
AcDbEntity
8
SK2
62
256
6
ByLayer
370
13
48
1
60
0
100
AcDbLine
10
-122.85
20
12.4375
30
0
11
-134.1
21
12.4375
31
0
39
0
210
0
220
0
230
1
0
LINE
5
108
100
AcDbEntity
8
SK2
62
256
6
ByLayer
370
13
48
1
60
0
100
AcDbLine
10
-122.85
20
-12.4375
30
0
11
-134.1
21
-12.4375
31
0
39
0
210
0
220
0
230
1
0
LINE
5
109
100
AcDbEntity
8
SK2
62
256
6
ByLayer
370
13
48
1
60
0
100
AcDbLine
10
-131.1
20
12.4375
30
0
11
-131.1
21
-12.4375
31
0
39
0
210
0
220
0
230
1
0
LINE
5
10A
100
AcDbEntity
8
SK2
62
256
6
ByLayer
370
13
48
1
60
0
100
AcDbLine
10
-131.1
20
12.4375
30
0
11
-130.705043
21
9.437501
31
0
39
0
210
0
220
0
230
1
0
LINE
5
10B
100
AcDbEntity
8
SK2
62
256
6
ByLayer
370
13
48
1
60
0
100
AcDbLine
10
-131.1
20
12.4375
30
0
11
-131.494957
21
9.437499
31
0
39
0
210
0
220
0
230
1
0
LINE
5
10C
100
AcDbEntity
8
SK2
62
256
6
ByLayer
370
13
48
1
60
0
100
AcDbLine
10
-130.705043
20
9.437501
30
0
11
-131.494957
21
9.437499
31
0
39
0
210
0
220
0
230
1
0
LINE
5
10D
100
AcDbEntity
8
SK2
62
256
6
ByLayer
370
13
48
1
60
0
100
AcDbLine
10
-131.1
20
-12.4375
30
0
11
-131.494957
21
-9.437501
31
0
39
0
210
0
220
0
230
1
0
LINE
5
10E
100
AcDbEntity
8
SK2
62
256
6
ByLayer
370
13
48
1
60
0
100
AcDbLine
10
-131.1
20
-12.4375
30
0
11
-130.705043
21
-9.437499
31
0
39
0
210
0
220
0
230
1
0
LINE
5
10F
100
AcDbEntity
8
SK2
62
256
6
ByLayer
370
13
48
1
60
0
100
AcDbLine
10
-131.494957
20
-9.437501
30
0
11
-130.705043
21
-9.437499
31
0
39
0
210
0
220
0
230
1
0
ENDBLK
5
111
100
AcDbEntity
8
0
100
AcDbBlockEnd
0
BLOCK
5
11E
100
AcDbEntity
8
0
100
AcDbBlockBegin
2
DimnDraft3D4
70
0
10
0
20
0
30
0
3
DimnDraft3D4
0
MTEXT
5
114
100
AcDbEntity
8
2
62
256
6
ByLayer
370
18
48
1
60
0
100
AcDbMText
10
13.436842
20
24.4375
30
0
210
0
220
0
230
1
1
\W0.6740;30
40
4.5
41
0
44
1.084337
50
0
71
7
72
5
7
iso_b_vert
0
LINE
5
115
100
AcDbEntity
8
2
62
256
6
ByLayer
370
13
48
1
60
0
100
AcDbLine
10
30
20
15.0625
30
0
11
30
21
26.3125
31
0
39
0
210
0
220
0
230
1
0
LINE
5
116
100
AcDbEntity
8
2
62
256
6
ByLayer
370
13
48
1
60
0
100
AcDbLine
10
0
20
13.9375
30
0
11
0
21
26.3125
31
0
39
0
210
0
220
0
230
1
0
LINE
5
117
100
AcDbEntity
8
2
62
256
6
ByLayer
370
13
48
1
60
0
100
AcDbLine
10
30
20
23.3125
30
0
11
0
21
23.3125
31
0
39
0
210
0
220
0
230
1
0
LINE
5
118
100
AcDbEntity
8
2
62
256
6
ByLayer
370
13
48
1
60
0
100
AcDbLine
10
30
20
23.3125
30
0
11
27.000001
21
22.917543
31
0
39
0
210
0
220
0
230
1
0
LINE
5
119
100
AcDbEntity
8
2
62
256
6
ByLayer
370
13
48
1
60
0
100
AcDbLine
10
30
20
23.3125
30
0
11
26.999999
21
23.707457
31
0
39
0
210
0
220
0
230
1
0
LINE
5
11A
100
AcDbEntity
8
2
62
256
6
ByLayer
370
13
48
1
60
0
100
AcDbLine
10
27.000001
20
22.917543
30
0
11
26.999999
21
23.707457
31
0
39
0
210
0
220
0
230
1
0
LINE
5
11B
100
AcDbEntity
8
2
62
256
6
ByLayer
370
13
48
1
60
0
100
AcDbLine
10
0
20
23.3125
30
0
11
2.999999
21
23.707457
31
0
39
0
210
0
220
0
230
1
0
LINE
5
11C
100
AcDbEntity
8
2
62
256
6
ByLayer
370
13
48
1
60
0
100
AcDbLine
10
0
20
23.3125
30
0
11
3.000001
21
22.917543
31
0
39
0
210
0
220
0
230
1
0
LINE
5
11D
100
AcDbEntity
8
2
62
256
6
ByLayer
370
13
48
1
60
0
100
AcDbLine
10
2.999999
20
23.707457
30
0
11
3.000001
21
22.917543
31
0
39
0
210
0
220
0
230
1
0
ENDBLK
5
11F
100
AcDbEntity
8
0
100
AcDbBlockEnd
0
BLOCK
5
12C
100
AcDbEntity
8
0
100
AcDbBlockBegin
2
DimnDraft3D5
70
0
10
0
20
0
30
0
3
DimnDraft3D5
0
MTEXT
5
122
100
AcDbEntity
8
SK2
62
256
6
ByLayer
370
18
48
1
60
0
100
AcDbMText
10
-48.357237
20
34.4375
30
0
210
0
220
0
230
1
1
\W0.6217;150
40
4.5
41
0
44
1.084337
50
0
71
7
72
5
7
iso_b_vert
0
LINE
5
123
100
AcDbEntity
8
SK2
62
256
6
ByLayer
370
13
48
1
60
0
100
AcDbLine
10
30
20
15.0625
30
0
11
30
21
36.3125
31
0
39
0
210
0
220
0
230
1
0
LINE
5
124
100
AcDbEntity
8
SK2
62
256
6
ByLayer
370
13
48
1
60
0
100
AcDbLine
10
-121.35
20
13.9375
30
0
11
-121.35
21
36.3125
31
0
39
0
210
0
220
0
230
1
0
LINE
5
125
100
AcDbEntity
8
SK2
62
256
6
ByLayer
370
13
48
1
60
0
100
AcDbLine
10
30
20
33.3125
30
0
11
-121.35
21
33.3125
31
0
39
0
210
0
220
0
230
1
0
LINE
5
126
100
AcDbEntity
8
SK2
62
256
6
ByLayer
370
13
48
1
60
0
100
AcDbLine
10
30
20
33.3125
30
0
11
27.000001
21
32.917543
31
0
39
0
210
0
220
0
230
1
0
LINE
5
127
100
AcDbEntity
8
SK2
62
256
6
ByLayer
370
13
48
1
60
0
100
AcDbLine
10
30
20
33.3125
30
0
11
26.999999
21
33.707457
31
0
39
0
210
0
220
0
230
1
0
LINE
5
128
100
AcDbEntity
8
SK2
62
256
6
ByLayer
370
13
48
1
60
0
100
AcDbLine
10
27.000001
20
32.917543
30
0
11
26.999999
21
33.707457
31
0
39
0
210
0
220
0
230
1
0
LINE
5
129
100
AcDbEntity
8
SK2
62
256
6
ByLayer
370
13
48
1
60
0
100
AcDbLine
10
-121.35
20
33.3125
30
0
11
-118.350001
21
33.707457
31
0
39
0
210
0
220
0
230
1
0
LINE
5
12A
100
AcDbEntity
8
SK2
62
256
6
ByLayer
370
13
48
1
60
0
100
AcDbLine
10
-121.35
20
33.3125
30
0
11
-118.349999
21
32.917543
31
0
39
0
210
0
220
0
230
1
0
LINE
5
12B
100
AcDbEntity
8
SK2
62
256
6
ByLayer
370
13
48
1
60
0
100
AcDbLine
10
-118.350001
20
33.707457
30
0
11
-118.349999
21
32.917543
31
0
39
0
210
0
220
0
230
1
0
ENDBLK
5
12D
100
AcDbEntity
8
0
100
AcDbBlockEnd
0
BLOCK
5
13A
100
AcDbEntity
8
0
100
AcDbBlockBegin
2
DimnDraft3D6
70
0
10
0
20
0
30
0
3
DimnDraft3D6
0
MTEXT
5
130
100
AcDbEntity
8
2
62
256
6
ByLayer
370
18
48
1
60
0
100
AcDbMText
10
23.999342
20
-25.5625
30
0
210
0
220
0
230
1
1
\W0.5321;10
40
4.5
41
0
44
1.084337
50
0
71
7
72
5
7
iso_b_vert
0
LINE
5
131
100
AcDbEntity
8
2
62
256
6
ByLayer
370
13
48
1
60
0
100
AcDbLine
10
20
20
8.0625
30
0
11
20
21
-29.6875
31
0
39
0
210
0
220
0
230
1
0
LINE
5
132
100
AcDbEntity
8
2
62
256
6
ByLayer
370
13
48
1
60
0
100
AcDbLine
10
30
20
9.0625
30
0
11
30
21
-29.6875
31
0
39
0
210
0
220
0
230
1
0
LINE
5
133
100
AcDbEntity
8
2
62
256
6
ByLayer
370
13
48
1
60
0
100
AcDbLine
10
8.75
20
-26.6875
30
0
11
41.25
21
-26.6875
31
0
39
0
210
0
220
0
230
1
0
LINE
5
134
100
AcDbEntity
8
2
62
256
6
ByLayer
370
13
48
1
60
0
100
AcDbLine
10
20
20
-26.6875
30
0
11
17.000001
21
-27.082457
31
0
39
0
210
0
220
0
230
1
0
LINE
5
135
100
AcDbEntity
8
2
62
256
6
ByLayer
370
13
48
1
60
0
100
AcDbLine
10
20
20
-26.6875
30
0
11
16.999999
21
-26.292543
31
0
39
0
210
0
220
0
230
1
0
LINE
5
136
100
AcDbEntity
8
2
62
256
6
ByLayer
370
13
48
1
60
0
100
AcDbLine
10
17.000001
20
-27.082457
30
0
11
16.999999
21
-26.292543
31
0
39
0
210
0
220
0
230
1
0
LINE
5
137
100
AcDbEntity
8
2
62
256
6
ByLayer
370
13
48
1
60
0
100
AcDbLine
10
30
20
-26.6875
30
0
11
32.999999
21
-26.292543
31
0
39
0
210
0
220
0
230
1
0
LINE
5
138
100
AcDbEntity
8
2
62
256
6
ByLayer
370
13
48
1
60
0
100
AcDbLine
10
30
20
-26.6875
30
0
11
33.000001
21
-27.082457
31
0
39
0
210
0
220
0
230
1
0
LINE
5
139
100
AcDbEntity
8
2
62
256
6
ByLayer
370
13
48
1
60
0
100
AcDbLine
10
32.999999
20
-26.292543
30
0
11
33.000001
21
-27.082457
31
0
39
0
210
0
220
0
230
1
0
ENDBLK
5
13B
100
AcDbEntity
8
0
100
AcDbBlockEnd
0
ENDSEC
0
SECTION
2
ENTITIES
0
ARC
5
AA
100
AcDbEntity
8
1
62
256
6
ByLayer
370
18
48
1
60
0
100
AcDbCircle
39
0
10
20.1
20
9.2875
30
0
40
1.59999999999944
210
0
220
0
230
1
100
AcDbArc
50
90
51
180
0
ARC
5
AC
100
AcDbEntity
8
1
62
256
6
ByLayer
370
18
48
1
60
0
100
AcDbCircle
39
0
10
12.5
20
3.5625
30
0
40
1.416
210
0
220
0
230
1
100
AcDbArc
50
96.192438
51
150.190711
0
ARC
5
AD
100
AcDbEntity
8
1
62
256
6
ByLayer
370
18
48
1
60
0
100
AcDbCircle
39
0
10
12.5
20
3.5625
30
0
40
1.416
210
0
220
0
230
1
100
AcDbArc
50
263.807562
51
276.192438
0
ARC
5
AE
100
AcDbEntity
8
1
62
256
6
ByLayer
370
18
48
1
60
0
100
AcDbCircle
39
0
10
12.5
20
3.5625
30
0
40
1.9685
210
0
220
0
230
1
100
AcDbArc
50
120.381422
51
180
0
ARC
5
AF
100
AcDbEntity
8
1
62
256
6
ByLayer
370
18
48
1
60
0
100
AcDbCircle
39
0
10
12.5
20
3.5625
30
0
40
1.416
210
0
220
0
230
1
100
AcDbArc
50
29.809289
51
83.807562
0
ARC
5
B0
100
AcDbEntity
8
1
62
256
6
ByLayer
370
18
48
1
60
0
100
AcDbCircle
39
0
10
12.5
20
3.5625
30
0
40
1.416
210
0
220
0
230
1
100
AcDbArc
50
330.190711
51
29.809289
0
ARC
5
B1
100
AcDbEntity
8
1
62
256
6
ByLayer
370
18
48
1
60
0
100
AcDbCircle
39
0
10
12.5
20
3.5625
30
0
40
1.9685
210
0
220
0
230
1
100
AcDbArc
50
239.618578
51
300.381422
0
ARC
5
B2
100
AcDbEntity
8
1
62
256
6
ByLayer
370
18
48
1
60
0
100
AcDbCircle
39
0
10
12.5
20
3.5625
30
0
40
1.9685
210
0
220
0
230
1
100
AcDbArc
50
180
51
239.618578
0
ARC
5
B3
100
AcDbEntity
8
1
62
256
6
ByLayer
370
18
48
1
60
0
100
AcDbCircle
39
0
10
12.5
20
3.5625
30
0
40
1.416
210
0
220
0
230
1
100
AcDbArc
50
83.807562
51
96.192438
0
ARC
5
B4
100
AcDbEntity
8
1
62
256
6
ByLayer
370
18
48
1
60
0
100
AcDbCircle
39
0
10
12.5
20
3.5625
30
0
40
1.416
210
0
220
0
230
1
100
AcDbArc
50
276.192438
51
330.190711
0
ARC
5
B5
100
AcDbEntity
8
1
62
256
6
ByLayer
370
18
48
1
60
0
100
AcDbCircle
39
0
10
12.5
20
3.5625
30
0
40
1.9685
210
0
220
0
230
1
100
AcDbArc
50
59.618578
51
120.381422
0
ARC
5
B6
100
AcDbEntity
8
1
62
256
6
ByLayer
370
18
48
1
60
0
100
AcDbCircle
39
0
10
12.5
20
3.5625
30
0
40
1.9685
210
0
220
0
230
1
100
AcDbArc
50
360
51
59.618578
0
ARC
5
B7
100
AcDbEntity
8
1
62
256
6
ByLayer
370
18
48
1
60
0
100
AcDbCircle
39
0
10
12.5
20
3.5625
30
0
40
1.416
210
0
220
0
230
1
100
AcDbArc
50
209.809289
51
263.807562
0
ARC
5
B8
100
AcDbEntity
8
1
62
256
6
ByLayer
370
18
48
1
60
0
100
AcDbCircle
39
0
10
12.5
20
3.5625
30
0
40
1.416
210
0
220
0
230
1
100
AcDbArc
50
150.190711
51
209.809289
0
ARC
5
B9
100
AcDbEntity
8
1
62
256
6
ByLayer
370
18
48
1
60
0
100
AcDbCircle
39
0
10
12.5
20
3.5625
30
0
40
1.9685
210
0
220
0
230
1
100
AcDbArc
50
300.381422
51
360
0
ARC
5
BC
100
AcDbEntity
8
1
62
256
6
ByLayer
370
18
48
1
60
0
100
AcDbCircle
39
0
10
23.832089
20
12.0625
30
0
40
0.500000000040736
210
0
220
0
230
1
100
AcDbArc
50
340
51
20
0
ARC
5
BD
100
AcDbEntity
8
1
62
256
6
ByLayer
370
18
48
1
60
0
100
AcDbCircle
39
0
10
24.168406
20
11.086051
30
0
40
0.150000000037541
210
0
220
0
230
1
100
AcDbArc
50
160
51
180
0
ARC
5
BE
100
AcDbEntity
8
1
62
256
6
ByLayer
370
18
48
1
60
0
100
AcDbCircle
39
0
10
-10.2
20
13.3625
30
0
40
0.2
210
0
220
0
230
-1
100
AcDbArc
50
0
51
92.5
0
ARC
5
BF
100
AcDbEntity
8
1
62
256
6
ByLayer
370
18
48
1
60
0
100
AcDbCircle
39
0
10
24.168406
20
13.038949
30
0
40
0.150000000037541
210
0
220
0
230
1
100
AcDbArc
50
180
51
200
0
ARC
5
C0
100
AcDbEntity
8
1
62
256
6
ByLayer
370
18
48
1
60
0
100
AcDbCircle
39
0
10
29.8
20
13.3625
30
0
40
0.2
210
0
220
0
230
1
100
AcDbArc
50
360
51
92.5
0
ARC
5
C1
100
AcDbEntity
8
1
62
256
6
ByLayer
370
18
48
1
60
0
100
AcDbCircle
39
0
10
-29.8
20
10.7625
30
0
40
0.2
210
0
220
0
230
-1
100
AcDbArc
50
180
51
272.5
0
CIRCLE
5
AB
100
AcDbEntity
8
1
62
256
6
ByLayer
370
18
48
1
60
0
100
AcDbCircle
10
-12.5
20
3.5625
30
0
40
5
39
0
210
0
220
0
230
-1
0
CIRCLE
5
BA
100
AcDbEntity
8
1
62
256
6
ByLayer
370
18
48
1
60
0
100
AcDbCircle
10
-12.5
20
3.5625
30
0
40
4.25
39
0
210
0
220
0
230
-1
0
CIRCLE
5
BB
100
AcDbEntity
8
1
62
256
6
ByLayer
370
18
48
1
60
0
100
AcDbCircle
10
-12.5
20
3.5625
30
0
40
3.75
39
0
210
0
220
0
230
-1
0
POINT
5
6C
100
AcDbEntity
8
2
62
256
6
ByLayer
370
18
48
1
60
0
100
AcDbPoint
10
30
20
12.0625
30
0
39
0
210
0
220
0
230
1
50
360
0
POINT
5
6E
100
AcDbEntity
8
80
62
256
6
ByLayer
370
18
48
1
60
0
100
AcDbPoint
10
0
20
0
30
0
39
0
210
0
220
0
230
1
50
360
0
POINT
5
70
100
AcDbEntity
8
2
62
256
6
ByLayer
370
18
48
1
60
0
100
AcDbPoint
10
30
20
13.5625
30
0
39
0
210
0
220
0
230
1
50
360
0
POINT
5
71
100
AcDbEntity
8
81
62
256
6
ByLayer
370
18
48
1
60
0
100
AcDbPoint
10
30
20
13.5625
30
0
39
0
210
0
220
0
230
1
50
360
0
SPLINE
5
C2
100
AcDbEntity
8
1
62
256
6
ByLayer
370
18
48
1
60
0
100
AcDbSpline
70
4
71
3
72
8
73
4
40
0
40
0
40
0
40
0
40
1
40
1
40
1
40
1
41
1
10
23.2826711249934
20
12.7919860670663
30
0
41
1
10
23.2781651928695
20
12.8056958490509
30
0
41
1
10
23.2731177059794
20
12.8191580433098
30
0
41
1
10
23.2675682415353
20
12.8322851262738
30
0
0
SPLINE
5
C3
100
AcDbEntity
8
1
62
256
6
ByLayer
370
18
48
1
60
0
100
AcDbSpline
70
4
71
3
72
12
73
8
40
0
40
0
40
0
40
0
40
0.476059608016418
40
0.476059608016418
40
0.927101084955916
40
0.927101084955916
40
1
40
1
40
1
40
1
41
1
10
23.3863166067351
20
11.6520758280091
30
0
41
1
10
23.4259653450256
20
11.7753925192418
30
0
41
1
10
23.4477674153748
20
11.9094300376509
30
0
41
1
10
23.4516467356135
20
12.1675797847067
30
0
41
1
10
23.4358013988408
20
12.2954089694763
30
0
41
1
10
23.3982187180424
20
12.4343511106478
30
0
41
1
10
23.3924830715351
20
12.4537450488073
30
0
41
1
10
23.3863166067351
20
12.4729241719908
30
0
0
SPLINE
5
C4
100
AcDbEntity
8
1
62
256
6
ByLayer
370
18
48
1
60
0
100
AcDbSpline
70
4
71
3
72
8
73
4
40
0
40
0
40
0
40
0
40
1
40
1
40
1
40
1
41
1
10
23.2826711249932
20
11.3330139329338
30
0
41
1
10
23.3175699355043
20
11.4391973086437
30
0
41
1
10
23.3520743031073
20
11.545574391504
30
0
41
1
10
23.3863166067351
20
11.6520758280091
30
0
0
SPLINE
5
C5
100
AcDbEntity
8
1
62
256
6
ByLayer
370
18
48
1
60
0
100
AcDbSpline
70
4
71
3
72
8
73
4
40
0
40
0
40
0
40
0
40
1
40
1
40
1
40
1
41
1
10
23.2675682415353
20
11.2927148737262
30
0
41
1
10
23.2731177059794
20
11.3058419566902
30
0
41
1
10
23.2781651928695
20
11.319304150949
30
0
41
1
10
23.2826711249934
20
11.3330139329337
30
0
0
SPLINE
5
C6
100
AcDbEntity
8
1
62
256
6
ByLayer
370
18
48
1
60
0
100
AcDbSpline
70
4
71
3
72
8
73
4
40
0
40
0
40
0
40
0
40
1
40
1
40
1
40
1
41
1
10
23.3863166067351
20
12.4729241719908
30
0
41
1
10
23.3520743031073
20
12.5794256084959
30
0
41
1
10
23.3175699355043
20
12.6858026913562
30
0
41
1
10
23.2826711249932
20
12.7919860670661
30
0
0
SPLINE
5
C7
100
AcDbEntity
8
1
62
256
6
ByLayer
370
18
48
1
60
0
100
AcDbSpline
70
4
71
3
72
8
73
4
40
0
40
0
40
0
40
0
40
1
40
1
40
1
40
1
41
1
10
23.0909333748181
20
10.8875
30
0
41
1
10
23.1516577684963
20
11.0213480069636
30
0
41
1
10
23.2100885379482
20
11.1567484493401
30
0
41
1
10
23.2675682415351
20
11.2927148737263
30
0
0
SPLINE
5
C8
100
AcDbEntity
8
1
62
256
6
ByLayer
370
18
48
1
60
0
100
AcDbSpline
70
4
71
3
72
8
73
4
40
0
40
0
40
0
40
0
40
1
40
1
40
1
40
1
41
1
10
23.2675682415351
20
12.8322851262737
30
0
41
1
10
23.2100885379482
20
12.9682515506599
30
0
41
1
10
23.1516577684963
20
13.1036519930364
30
0
41
1
10
23.0909333748181
20
13.2375
30
0
0
SPLINE
5
C9
100
AcDbEntity
8
1
62
256
6
ByLayer
370
18
48
1
60
0
100
AcDbSpline
70
4
71
3
72
14
73
10
40
0
40
0
40
0
40
0
40
0.281038222380423
40
0.281038222380423
40
0.564557857067114
40
0.564557857067114
40
0.820700196129992
40
0.820700196129992
40
1
40
1
40
1
40
1
41
1
10
11.9078822958329
20
5.20608262808872
30
0
41
1
10
11.8813006245732
20
5.23341236906992
30
0
41
1
10
11.8490439690951
20
5.2568655245359
30
0
41
1
10
11.777235194489
20
5.29107486042693
30
0
41
1
10
11.7364720760798
20
5.30218475904485
30
0
41
1
10
11.6571729147492
20
5.30784868557419
30
0
41
1
10
11.6175924873017
20
5.30391172564305
30
0
41
1
10
11.5539176730122
20
5.28561543464568
30
0
41
1
10
11.5281706327858
20
5.2746032984634
30
0
41
1
10
11.5044231104048
20
5.26068105833974
30
0
0
SPLINE
5
CA
100
AcDbEntity
8
1
62
256
6
ByLayer
370
18
48
1
60
0
100
AcDbSpline
70
4
71
3
72
16
73
12
40
0
40
0
40
0
40
0
40
0.0645965064171933
40
0.0645965064171933
40
0.282747320500411
40
0.282747320500411
40
0.503851581407258
40
0.503851581407258
40
0.739476498257857
40
0.739476498257857
40
1
40
1
40
1
40
1
41
1
10
11.5044231104049
20
1.8643189416602
30
0
41
1
10
11.513014252084
20
1.85928229255322
30
0
41
1
10
11.5218448367853
20
1.85462938535528
30
0
41
1
10
11.561059408281
20
1.83618168672814
30
0
41
1
10
11.593783713078
20
1.82656309176434
30
0
41
1
10
11.6593454694518
20
1.81754045
30
0
41
1
10
11.6930080641067
20
1.8181346613772
30
0
41
1
10
11.7588630387574
20
1.82896811424016
30
0
41
1
10
11.7916435993958
20
1.83993762071361
30
0
41
1
10
11.8537963059872
20
1.87161494646932
30
0
41
1
10
11.8832521428564
20
1.89359406945218
30
0
41
1
10
11.9078822958329
20
1.91891737191122
30
0
0
SPLINE
5
CB
100
AcDbEntity
8
1
62
256
6
ByLayer
370
18
48
1
60
0
100
AcDbSpline
70
4
71
3
72
18
73
14
40
0
40
0
40
0
40
0
40
0.213081262000628
40
0.213081262000628
40
0.387160943926347
40
0.387160943926347
40
0.562948999942005
40
0.562948999942005
40
0.715638435810366
40
0.715638435810366
40
0.919170953808122
40
0.919170953808122
40
1
40
1
40
1
40
1
41
1
10
13.6474510335849
20
4.89065233797857
30
0
41
1
10
13.6253499966636
20
4.80810260339751
30
0
41
1
10
13.6155116663085
20
4.71929631718774
30
0
41
1
10
13.625005262533
20
4.55555916469967
30
0
41
1
10
13.6396283941553
20
4.47923071749946
30
0
41
1
10
13.690791443592
20
4.33203000919164
30
0
41
1
10
13.7285222509958
20
4.25911142498919
30
0
41
1
10
13.8147745125081
20
4.13906872419491
30
0
41
1
10
13.8621656692504
20
4.08832306339133
30
0
41
1
10
13.9803089305089
20
3.98870920900276
30
0
41
1
10
14.0554527440065
20
3.94412477171267
30
0
41
1
10
14.1631437334956
20
3.90001928382179
30
0
41
1
10
14.1945032391403
20
3.88935984363914
30
0
41
1
10
14.2260954401444
20
3.88066196954682
30
0
0
SPLINE
5
CC
100
AcDbEntity
8
1
62
256
6
ByLayer
370
18
48
1
60
0
100
AcDbSpline
70
4
71
3
72
18
73
14
40
0
40
0
40
0
40
0
40
0.213081026856104
40
0.213081026856104
40
0.387160750704735
40
0.387160750704735
40
0.562948851464635
40
0.562948851464635
40
0.715638295683676
40
0.715638295683676
40
0.919170771668895
40
0.919170771668895
40
1
40
1
40
1
40
1
41
1
10
10.7739045598557
20
3.88066196954682
30
0
41
1
10
10.8562959735259
20
3.90334573704683
30
0
41
1
10
10.9378828610424
20
3.93977251302653
30
0
41
1
10
11.0743337817465
20
4.03077305590372
30
0
41
1
10
11.1327849506205
20
4.08199151673355
30
0
41
1
10
11.2338958570925
20
4.20057608788608
30
0
41
1
10
11.2777186157694
20
4.27000448969926
30
0
41
1
10
11.3376543890654
20
4.40512448640652
30
0
41
1
10
11.3574632867377
20
4.47167260736035
30
0
41
1
10
11.3836465356628
20
4.62397226392113
30
0
41
1
10
11.3841042679144
20
4.71134590366793
30
0
41
1
10
11.3676879551153
20
4.82655511685175
30
0
41
1
10
11.3610234078264
20
4.85899939374312
30
0
41
1
10
11.3525489664152
20
4.89065233797857
30
0
0
SPLINE
5
CD
100
AcDbEntity
8
1
62
256
6
ByLayer
370
18
48
1
60
0
100
AcDbSpline
70
4
71
3
72
14
73
10
40
0
40
0
40
0
40
0
40
0.285014780844647
40
0.285014780844647
40
0.572350605982669
40
0.572350605982669
40
0.832166772861875
40
0.832166772861875
40
1
40
1
40
1
40
1
41
1
10
11.3525489664152
20
2.23434766202141
30
0
41
1
10
11.3427455383359
20
2.19773081056721
30
0
41
1
10
11.339100800866
20
2.15822860790558
30
0
41
1
10
11.3463060087591
20
2.07944876124884
30
0
41
1
10
11.3574570886556
20
2.0389597517414
30
0
41
1
10
11.3927012508891
20
1.968225358475
30
0
41
1
10
11.4160474129793
20
1.93633206469559
30
0
41
1
10
11.4622449161043
20
1.89245856248681
30
0
41
1
10
11.4826741516866
20
1.87706950236534
30
0
41
1
10
11.5044231104049
20
1.8643189416602
30
0
0
SPLINE
5
CE
100
AcDbEntity
8
1
62
256
6
ByLayer
370
18
48
1
60
0
100
AcDbSpline
70
4
71
3
72
14
73
10
40
0
40
0
40
0
40
0
40
0.285013984727013
40
0.285013984727013
40
0.57234991064299
40
0.57234991064299
40
0.832166158509237
40
0.832166158509237
40
1
40
1
40
1
40
1
41
1
10
14.2260954401444
20
3.24433803045315
30
0
41
1
10
14.2626420033309
20
3.25439992531963
30
0
41
1
10
14.298562913688
20
3.27123402413133
30
0
41
1
10
14.3628804284091
20
3.31729289787498
30
0
41
1
10
14.392169726513
20
3.34739014603082
30
0
41
1
10
14.4353659032994
20
3.41356868226839
30
0
41
1
10
14.4510721564614
20
3.44983905406568
30
0
41
1
10
14.4655563481768
20
3.5118818984825
30
0
41
1
10
14.4685
20
3.53728891833416
30
0
41
1
10
14.4685
20
3.56249999999997
30
0
0
SPLINE
5
CF
100
AcDbEntity
8
1
62
256
6
ByLayer
370
18
48
1
60
0
100
AcDbSpline
70
4
71
3
72
16
73
12
40
0
40
0
40
0
40
0
40
0.0645965064171876
40
0.0645965064171876
40
0.282747320500345
40
0.282747320500345
40
0.503851581407256
40
0.503851581407256
40
0.739476498257782
40
0.739476498257782
40
1
40
1
40
1
40
1
41
1
10
13.4955768895952
20
5.26068105833977
30
0
41
1
10
13.486985747916
20
5.26571770744675
30
0
41
1
10
13.4781551632148
20
5.27037061464469
30
0
41
1
10
13.4389405917191
20
5.28881831327183
30
0
41
1
10
13.4062162869221
20
5.29843690823563
30
0
41
1
10
13.3406545305483
20
5.30745954999998
30
0
41
1
10
13.3069919358934
20
5.30686533862277
30
0
41
1
10
13.2411369612427
20
5.29603188575982
30
0
41
1
10
13.2083564006043
20
5.28506237928636
30
0
41
1
10
13.1462036940129
20
5.25338505353068
30
0
41
1
10
13.1167478571437
20
5.23140593054779
30
0
41
1
10
13.0921177041672
20
5.20608262808875
30
0
0
SPLINE
5
D0
100
AcDbEntity
8
1
62
256
6
ByLayer
370
18
48
1
60
0
100
AcDbSpline
70
4
71
3
72
16
73
12
40
0
40
0
40
0
40
0
40
0.0660777514108772
40
0.0660777514108772
40
0.289232858199889
40
0.289232858199889
40
0.515409129607283
40
0.515409129607283
40
0.756439127791307
40
0.756439127791307
40
1
40
1
40
1
40
1
41
1
10
10.5315
20
3.56249999999997
30
0
41
1
10
10.5315
20
3.55254139325586
30
0
41
1
10
10.5319521370927
20
3.54257030370826
30
0
41
1
10
10.535870606949
20
3.49941084850119
30
0
41
1
10
10.5441232851388
20
3.4663156675451
30
0
41
1
10
10.5694977332366
20
3.40519374350103
30
0
41
1
10
10.5870353182329
20
3.37645428574575
30
0
41
1
10
10.6296874761397
20
3.32512170141609
30
0
41
1
10
10.6557295062842
20
3.30239049739563
30
0
41
1
10
10.7118903369799
20
3.26645746063227
30
0
41
1
10
10.742638287392
20
3.25294617083531
30
0
41
1
10
10.7739045598557
20
3.24433803045315
30
0
0
SPLINE
5
D1
100
AcDbEntity
8
1
62
256
6
ByLayer
370
18
48
1
60
0
100
AcDbSpline
70
4
71
3
72
10
73
6
40
0
40
0
40
0
40
0
40
0.479736826302708
40
0.479736826302708
40
1
40
1
40
1
40
1
41
1
10
12.3472587066236
20
2.15476206370016
30
0
41
1
10
12.2634717620859
20
2.13899655923134
30
0
41
1
10
12.1831344436618
20
2.11004978087922
30
0
41
1
10
12.0347803935531
20
2.03112630548253
30
0
41
1
10
11.9658766441958
20
1.97854381539736
30
0
41
1
10
11.9078822958329
20
1.91891737191125
30
0
0
SPLINE
5
D2
100
AcDbEntity
8
1
62
256
6
ByLayer
370
18
48
1
60
0
100
AcDbSpline
70
4
71
3
72
14
73
10
40
0
40
0
40
0
40
0
40
0.281038222380424
40
0.281038222380424
40
0.564557857067113
40
0.564557857067113
40
0.820700196129992
40
0.820700196129992
40
1
40
1
40
1
40
1
41
1
10
13.0921177041672
20
1.91891737191125
30
0
41
1
10
13.1186993754269
20
1.89158763093002
30
0
41
1
10
13.150956030905
20
1.86813447546405
30
0
41
1
10
13.222764805511
20
1.83392513957301
30
0
41
1
10
13.2635279239202
20
1.82281524095512
30
0
41
1
10
13.3428270852508
20
1.81715131442576
30
0
41
1
10
13.3824075126984
20
1.8210882743569
30
0
41
1
10
13.4460823269878
20
1.83938456535429
30
0
41
1
10
13.4718293672142
20
1.85039670153657
30
0
41
1
10
13.4955768895952
20
1.86431894166023
30
0
0
SPLINE
5
D3
100
AcDbEntity
8
1
62
256
6
ByLayer
370
18
48
1
60
0
100
AcDbSpline
70
4
71
3
72
14
73
10
40
0
40
0
40
0
40
0
40
0.285014780844652
40
0.285014780844652
40
0.572350605982659
40
0.572350605982659
40
0.832166772861868
40
0.832166772861868
40
1
40
1
40
1
40
1
41
1
10
13.6474510335849
20
4.89065233797857
30
0
41
1
10
13.6572544616642
20
4.92726918943276
30
0
41
1
10
13.6608991991341
20
4.96677139209439
30
0
41
1
10
13.653693991241
20
5.04555123875113
30
0
41
1
10
13.6425429113445
20
5.08604024825857
30
0
41
1
10
13.6072987491109
20
5.15677464152498
30
0
41
1
10
13.5839525870207
20
5.18866793530438
30
0
41
1
10
13.5377550838958
20
5.23254143751316
30
0
41
1
10
13.5173258483134
20
5.24793049763463
30
0
41
1
10
13.4955768895952
20
5.26068105833977
30
0
0
SPLINE
5
D4
100
AcDbEntity
8
1
62
256
6
ByLayer
370
18
48
1
60
0
100
AcDbSpline
70
4
71
3
72
10
73
6
40
0
40
0
40
0
40
0
40
0.541781546917705
40
0.541781546917705
40
1
40
1
40
1
40
1
41
1
10
13.0921177041672
20
1.91891737191125
30
0
41
1
10
13.0317893524551
20
1.98094350300011
30
0
41
1
10
12.9595938121995
20
2.03538232231523
30
0
41
1
10
12.8098326867735
20
2.11257770475876
30
0
41
1
10
12.7328667479518
20
2.1396855118681
30
0
41
1
10
12.6527412933765
20
2.15476206370016
30
0
0
SPLINE
5
D5
100
AcDbEntity
8
1
62
256
6
ByLayer
370
18
48
1
60
0
100
AcDbSpline
70
4
71
3
72
14
73
10
40
0
40
0
40
0
40
0
40
0.285013984727018
40
0.285013984727018
40
0.572349910642993
40
0.572349910642993
40
0.832166158509246
40
0.832166158509246
40
1
40
1
40
1
40
1
41
1
10
10.7739045598557
20
3.88066196954682
30
0
41
1
10
10.7373579966691
20
3.87060007468034
30
0
41
1
10
10.701437086312
20
3.85376597586864
30
0
41
1
10
10.6371195715909
20
3.80770710212499
30
0
41
1
10
10.6078302734871
20
3.77760985396915
30
0
41
1
10
10.5646340967007
20
3.71143131773158
30
0
41
1
10
10.5489278435387
20
3.67516094593429
30
0
41
1
10
10.5344436518233
20
3.61311810151747
30
0
41
1
10
10.5315
20
3.58771108166579
30
0
41
1
10
10.5315
20
3.56249999999997
30
0
0
SPLINE
5
D6
100
AcDbEntity
8
1
62
256
6
ByLayer
370
18
48
1
60
0
100
AcDbSpline
70
4
71
3
72
18
73
14
40
0
40
0
40
0
40
0
40
0.213081026856104
40
0.213081026856104
40
0.387160750704735
40
0.387160750704735
40
0.562948851464634
40
0.562948851464634
40
0.715638295683676
40
0.715638295683676
40
0.919170771668896
40
0.919170771668896
40
1
40
1
40
1
40
1
41
1
10
14.2260954401444
20
3.24433803045315
30
0
41
1
10
14.1437040264742
20
3.22165426295314
30
0
41
1
10
14.0621171389576
20
3.18522748697345
30
0
41
1
10
13.9256662182536
20
3.09422694409625
30
0
41
1
10
13.8672150493795
20
3.04300848326642
30
0
41
1
10
13.7661041429076
20
2.9244239121139
30
0
41
1
10
13.7222813842307
20
2.85499551030071
30
0
41
1
10
13.6623456109347
20
2.71987551359345
30
0
41
1
10
13.6425367132623
20
2.65332739263962
30
0
41
1
10
13.6163534643372
20
2.50102773607884
30
0
41
1
10
13.6158957320857
20
2.41365409633204
30
0
41
1
10
13.6323120448847
20
2.29844488314822
30
0
41
1
10
13.6389765921737
20
2.26600060625685
30
0
41
1
10
13.6474510335849
20
2.23434766202141
30
0
0
SPLINE
5
D7
100
AcDbEntity
8
1
62
256
6
ByLayer
370
18
48
1
60
0
100
AcDbSpline
70
4
71
3
72
10
73
6
40
0
40
0
40
0
40
0
40
0.541781546918548
40
0.541781546918548
40
1
40
1
40
1
40
1
41
1
10
11.9078822958329
20
5.20608262808872
30
0
41
1
10
11.9682106475449
20
5.14405649699987
30
0
41
1
10
12.0404061878006
20
5.08961767768474
30
0
41
1
10
12.1901673132266
20
5.01242229524121
30
0
41
1
10
12.2671332520483
20
4.98531448813188
30
0
41
1
10
12.3472587066236
20
4.97023793629981
30
0
0
SPLINE
5
D8
100
AcDbEntity
8
1
62
256
6
ByLayer
370
18
48
1
60
0
100
AcDbSpline
70
4
71
3
72
18
73
14
40
0
40
0
40
0
40
0
40
0.21308126200063
40
0.21308126200063
40
0.387160943926344
40
0.387160943926344
40
0.562948999942006
40
0.562948999942006
40
0.715638435810367
40
0.715638435810367
40
0.919170953808123
40
0.919170953808123
40
1
40
1
40
1
40
1
41
1
10
11.3525489664152
20
2.23434766202141
30
0
41
1
10
11.3746500033365
20
2.31689739660246
30
0
41
1
10
11.3844883336915
20
2.40570368281223
30
0
41
1
10
11.3749947374671
20
2.5694408353003
30
0
41
1
10
11.3603716058447
20
2.64576928250048
30
0
41
1
10
11.309208556408
20
2.79296999080833
30
0
41
1
10
11.2714777490043
20
2.86588857501076
30
0
41
1
10
11.185225487492
20
2.98593127580506
30
0
41
1
10
11.1378343307496
20
3.03667693660864
30
0
41
1
10
11.0196910694911
20
3.13629079099721
30
0
41
1
10
10.9445472559936
20
3.18087522828731
30
0
41
1
10
10.8368562665044
20
3.22498071617818
30
0
41
1
10
10.8054967608598
20
3.23564015636083
30
0
41
1
10
10.7739045598557
20
3.24433803045315
30
0
0
SPLINE
5
D9
100
AcDbEntity
8
1
62
256
6
ByLayer
370
18
48
1
60
0
100
AcDbSpline
70
4
71
3
72
16
73
12
40
0
40
0
40
0
40
0
40
0.0517235387678362
40
0.0517235387678362
40
0.275098677522051
40
0.275098677522051
40
0.500660612380031
40
0.500660612380031
40
0.740399911602633
40
0.740399911602633
40
1
40
1
40
1
40
1
41
1
10
13.4955768895952
20
1.86431894166023
30
0
41
1
10
13.5023126525051
20
1.86826785503078
30
0
41
1
10
13.5089132100844
20
1.872459315312
30
0
41
1
10
13.5429215049886
20
1.89578770141651
30
0
41
1
10
13.567814066225
20
1.91922205855832
30
0
41
1
10
13.6087337148404
20
1.97130290918196
30
0
41
1
10
13.6252135093439
20
2.00064489029594
30
0
41
1
10
13.6490799914639
20
2.06285577266235
30
0
41
1
10
13.6561625753257
20
2.09659614897024
30
0
41
1
10
13.6602113511054
20
2.16531279238151
30
0
41
1
10
13.6563795299009
20
2.20099877419693
30
0
41
1
10
13.6474510335849
20
2.23434766202141
30
0
0
SPLINE
5
DA
100
AcDbEntity
8
1
62
256
6
ByLayer
370
18
48
1
60
0
100
AcDbSpline
70
4
71
3
72
16
73
12
40
0
40
0
40
0
40
0
40
0.0660777514108695
40
0.0660777514108695
40
0.289232858199889
40
0.289232858199889
40
0.515409129607283
40
0.515409129607283
40
0.756439127791307
40
0.756439127791307
40
1
40
1
40
1
40
1
41
1
10
14.4685
20
3.56249999999997
30
0
41
1
10
14.4685
20
3.57245860674411
30
0
41
1
10
14.4680478629074
20
3.58242969629171
30
0
41
1
10
14.4641293930511
20
3.62558915149879
30
0
41
1
10
14.4558767148613
20
3.65868433245484
30
0
41
1
10
14.4305022667635
20
3.71980625649894
30
0
41
1
10
14.4129646817672
20
3.74854571425422
30
0
41
1
10
14.3703125238603
20
3.79987829858388
30
0
41
1
10
14.3442704937159
20
3.82260950260431
30
0
41
1
10
14.2881096630202
20
3.85854253936768
30
0
41
1
10
14.257361712608
20
3.87205382916463
30
0
41
1
10
14.2260954401444
20
3.88066196954682
30
0
0
SPLINE
5
DB
100
AcDbEntity
8
1
62
256
6
ByLayer
370
18
48
1
60
0
100
AcDbSpline
70
4
71
3
72
10
73
6
40
0
40
0
40
0
40
0
40
0.479736826236859
40
0.479736826236859
40
1
40
1
40
1
40
1
41
1
10
12.6527412933765
20
4.97023793629981
30
0
41
1
10
12.7365282379028
20
4.98600344076649
30
0
41
1
10
12.8168655563165
20
5.01495021911282
30
0
41
1
10
12.9652196064296
20
5.0938736945042
30
0
41
1
10
13.0341233557971
20
5.14645618459517
30
0
41
1
10
13.0921177041672
20
5.20608262808875
30
0
0
SPLINE
5
DC
100
AcDbEntity
8
1
62
256
6
ByLayer
370
18
48
1
60
0
100
AcDbSpline
70
4
71
3
72
16
73
12
40
0
40
0
40
0
40
0
40
0.0517235387678375
40
0.0517235387678375
40
0.275098677522054
40
0.275098677522054
40
0.500660612380042
40
0.500660612380042
40
0.740399911602654
40
0.740399911602654
40
1
40
1
40
1
40
1
41
1
10
11.5044231104048
20
5.26068105833974
30
0
41
1
10
11.4976873474949
20
5.25673214496916
30
0
41
1
10
11.4910867899157
20
5.25254068468794
30
0
41
1
10
11.4570784950114
20
5.22921229858346
30
0
41
1
10
11.4321859337751
20
5.20577794144165
30
0
41
1
10
11.3912662851597
20
5.15369709081801
30
0
41
1
10
11.3747864906562
20
5.12435510970403
30
0
41
1
10
11.3509200085361
20
5.0621442273376
30
0
41
1
10
11.3438374246744
20
5.02840385102974
30
0
41
1
10
11.3397886488947
20
4.95968720761846
30
0
41
1
10
11.3436204700992
20
4.92400122580304
30
0
41
1
10
11.3525489664152
20
4.89065233797857
30
0
0
LINE
5
73
100
AcDbEntity
8
80
62
256
6
ByLayer
370
18
48
1
60
0
100
AcDbLine
10
0
20
0
30
0
11
-5
21
0
31
0
39
0
210
0
220
0
230
1
0
LINE
5
74
100
AcDbEntity
8
81
62
256
6
ByLayer
370
18
48
1
60
0
100
AcDbLine
10
30
20
13.5625
30
0
11
35
21
13.5625
31
0
39
0
210
0
220
0
230
1
0
LINE
5
75
100
AcDbEntity
8
1
62
256
6
ByLayer
370
18
48
1
60
0
100
AcDbLine
10
23.090908
20
13.2375
30
0
11
23.900012
21
13.2375
31
0
39
0
210
0
220
0
230
1
0
LINE
5
77
100
AcDbEntity
8
1
62
256
6
ByLayer
370
18
48
1
60
0
100
AcDbLine
10
15.338119
20
13.2375
30
0
11
2.248368
21
13.2375
31
0
39
0
210
0
220
0
230
1
0
LINE
5
78
100
AcDbEntity
8
1
62
256
6
ByLayer
370
18
48
1
60
0
100
AcDbLine
10
20.1
20
10.8875
30
0
11
23.090933
21
10.8875
31
0
39
0
210
0
220
0
230
1
0
LINE
5
79
100
AcDbEntity
8
1
62
256
6
ByLayer
370
18
48
1
60
0
100
AcDbLine
10
18.5
20
9.2875
30
0
11
15.338119
21
9.2875
31
0
39
0
210
0
220
0
230
1
0
LINE
5
7A
100
AcDbEntity
8
1
62
256
6
ByLayer
370
18
48
1
60
0
100
AcDbLine
10
2.248368
20
-12.468153
30
0
11
9.022744
21
-12.468153
31
0
39
0
210
0
220
0
230
1
0
LINE
5
7B
100
AcDbEntity
8
1
62
256
6
ByLayer
370
18
48
1
60
0
100
AcDbLine
10
0.5
20
12.9375
30
0
11
0
21
12.4375
31
0
39
0
210
0
220
0
230
1
0
LINE
5
7C
100
AcDbEntity
8
1
62
256
6
ByLayer
370
18
48
1
60
0
100
AcDbLine
10
0.5
20
-12.439682
30
0
11
0
21
-12.4375
31
0
39
0
210
0
220
0
230
1
0
LINE
5
7D
100
AcDbEntity
8
1
62
256
6
ByLayer
370
18
48
1
60
0
100
AcDbLine
10
18.5
20
9.2875
30
0
11
18.5
21
-1.4375
31
0
39
0
210
0
220
0
230
1
0
LINE
5
7E
100
AcDbEntity
8
1
62
256
6
ByLayer
370
18
48
1
60
0
100
AcDbLine
10
9.022744
20
-12.468153
30
0
11
18.5
21
-1.4375
31
0
39
0
210
0
220
0
230
1
0
LINE
5
7F
100
AcDbEntity
8
1
62
256
6
ByLayer
370
18
48
1
60
0
100
AcDbLine
10
2.248368
20
13.2375
30
0
11
2.248368
21
-12.468153
31
0
39
0
210
0
220
0
230
1
0
LINE
5
80
100
AcDbEntity
8
1
62
256
6
ByLayer
370
18
48
1
60
0
100
AcDbLine
10
15.338119
20
9.2875
30
0
11
15.338119
21
13.2375
31
0
39
0
210
0
220
0
230
1
0
LINE
5
81
100
AcDbEntity
8
1
62
256
6
ByLayer
370
18
48
1
60
0
100
AcDbLine
10
0
20
-12.4375
30
0
11
0
21
12.4375
31
0
39
0
210
0
220
0
230
1
0
LINE
5
82
100
AcDbEntity
8
1
62
256
6
ByLayer
370
18
48
1
60
0
100
AcDbLine
10
0.580385
20
13.2375
30
0
11
2.248368
21
13.2375
31
0
39
0
210
0
220
0
230
1
0
LINE
5
83
100
AcDbEntity
8
1
62
256
6
ByLayer
370
18
48
1
60
0
100
AcDbLine
10
23.900012
20
13.2375
30
0
11
26.186377
21
13.2375
31
0
39
0
210
0
220
0
230
1
0
LINE
5
84
100
AcDbEntity
8
1
62
256
6
ByLayer
370
18
48
1
60
0
100
AcDbLine
10
23.900012
20
13.2375
30
0
11
23.900011
21
13.212497
31
0
39
0
210
0
220
0
230
1
0
LINE
5
85
100
AcDbEntity
8
1
62
256
6
ByLayer
370
18
48
1
60
0
100
AcDbLine
10
15.338119
20
13.2375
30
0
11
23.090933
21
13.2375
31
0
39
0
210
0
220
0
230
1
0
LINE
5
86
100
AcDbEntity
8
1
62
256
6
ByLayer
370
18
48
1
60
0
100
AcDbLine
10
0.580385
20
13.2375
30
0
11
0.5
21
12.9375
31
0
39
0
210
0
220
0
230
1
0
LINE
5
87
100
AcDbEntity
8
1
62
256
6
ByLayer
370
18
48
1
60
0
100
AcDbLine
10
23.900011
20
10.912503
30
0
11
23.900012
21
10.8875
31
0
39
0
210
0
220
0
230
1
0
LINE
5
88
100
AcDbEntity
8
1
62
256
6
ByLayer
370
18
48
1
60
0
100
AcDbLine
10
23.900012
20
10.8875
30
0
11
26.186377
21
10.8875
31
0
39
0
210
0
220
0
230
1
0
LINE
5
89
100
AcDbEntity
8
1
62
256
6
ByLayer
370
18
48
1
60
0
100
AcDbLine
10
23.090908
20
10.8875
30
0
11
23.900012
21
10.8875
31
0
39
0
210
0
220
0
230
1
0
LINE
5
8A
100
AcDbEntity
8
1
62
256
6
ByLayer
370
18
48
1
60
0
100
AcDbLine
10
0.5
20
12.9375
30
0
11
0.5
21
-12.439682
31
0
39
0
210
0
220
0
230
1
0
LINE
5
8B
100
AcDbEntity
8
1
62
256
6
ByLayer
370
18
48
1
60
0
100
AcDbLine
10
0.5
20
-12.439682
30
0
11
2.248368
21
-12.468153
31
0
39
0
210
0
220
0
230
1
0
LINE
5
8C
100
AcDbEntity
8
SK1
62
256
6
ByLayer
370
18
48
1
60
0
100
AcDbLine
10
-121.35
20
12.4375
30
0
11
-121.35
21
-12.4375
31
0
39
0
210
0
220
0
230
1
0
LINE
5
8E
100
AcDbEntity
8
SK1
62
256
6
ByLayer
370
18
48
1
60
0
100
AcDbLine
10
0
20
12.4375
30
0
11
-121.35
21
12.4375
31
0
39
0
210
0
220
0
230
1
0
LINE
5
8F
100
AcDbEntity
8
SK1
62
256
6
ByLayer
370
18
48
1
60
0
100
AcDbLine
10
-121.35
20
-12.4375
30
0
11
0
21
-12.4375
31
0
39
0
210
0
220
0
230
1
0
LINE
5
90
100
AcDbEntity
8
SK1
62
256
6
ByLayer
370
18
48
1
60
0
100
AcDbLine
10
0
20
12.4375
30
0
11
0
21
-12.4375
31
0
39
0
210
0
220
0
230
1
0
LINE
5
91
100
AcDbEntity
8
1
62
256
6
ByLayer
370
18
48
1
60
0
100
AcDbLine
10
24.018406
20
13.2125
30
0
11
25.2
21
13.2125
31
0
39
0
210
0
220
0
230
1
0
LINE
5
92
100
AcDbEntity
8
1
62
256
6
ByLayer
370
18
48
1
60
0
100
AcDbLine
10
25.2
20
13.2125
30
0
11
26.143008
21
13.2125
31
0
39
0
210
0
220
0
230
1
0
LINE
5
93
100
AcDbEntity
8
1
62
256
6
ByLayer
370
18
48
1
60
0
100
AcDbLine
10
24.018406
20
10.9125
30
0
11
23.101707
21
10.9125
31
0
39
0
210
0
220
0
230
1
0
LINE
5
94
100
AcDbEntity
8
1
62
256
6
ByLayer
370
18
48
1
60
0
100
AcDbLine
10
23.199811
20
12.987646
30
0
11
24.027452
21
12.987646
31
0
39
0
210
0
220
0
230
1
0
LINE
5
95
100
AcDbEntity
8
1
62
256
6
ByLayer
370
18
48
1
60
0
100
AcDbLine
10
23.425954
20
12.23351
30
0
11
24.301935
21
12.23351
31
0
39
0
210
0
220
0
230
1
0
LINE
5
96
100
AcDbEntity
8
1
62
256
6
ByLayer
370
18
48
1
60
0
100
AcDbLine
10
23.177429
20
11.086051
30
0
11
24.018406
21
11.086051
31
0
39
0
210
0
220
0
230
1
0
LINE
5
97
100
AcDbEntity
8
1
62
256
6
ByLayer
370
18
48
1
60
0
100
AcDbLine
10
23.199811
20
11.137354
30
0
11
24.027452
21
11.137354
31
0
39
0
210
0
220
0
230
1
0
LINE
5
98
100
AcDbEntity
8
1
62
256
6
ByLayer
370
18
48
1
60
0
100
AcDbLine
10
24.027452
20
11.137354
30
0
11
24.301935
21
11.89149
31
0
39
0
210
0
220
0
230
1
0
LINE
5
99
100
AcDbEntity
8
1
62
256
6
ByLayer
370
18
48
1
60
0
100
AcDbLine
10
23.425147
20
11.89149
30
0
11
24.301935
21
11.89149
31
0
39
0
210
0
220
0
230
1
0
LINE
5
9A
100
AcDbEntity
8
1
62
256
6
ByLayer
370
18
48
1
60
0
100
AcDbLine
10
10
20
13.237497
30
0
11
10
21
13.3625
31
0
39
0
210
0
220
0
230
1
0
LINE
5
9B
100
AcDbEntity
8
1
62
256
6
ByLayer
370
18
48
1
60
0
100
AcDbLine
10
29.791276
20
10.56269
30
0
11
26.5
21
10.706391
31
0
39
0
210
0
220
0
230
1
0
LINE
5
9C
100
AcDbEntity
8
1
62
256
6
ByLayer
370
18
48
1
60
0
100
AcDbLine
10
24.018406
20
10.9125
30
0
11
25.2
21
10.9125
31
0
39
0
210
0
220
0
230
1
0
LINE
5
9D
100
AcDbEntity
8
1
62
256
6
ByLayer
370
18
48
1
60
0
100
AcDbLine
10
24.018406
20
11.086051
30
0
11
24.018406
21
10.9125
31
0
39
0
210
0
220
0
230
1
0
LINE
5
9E
100
AcDbEntity
8
1
62
256
6
ByLayer
370
18
48
1
60
0
100
AcDbLine
10
25.2
20
10.9125
30
0
11
26.143008
21
10.9125
31
0
39
0
210
0
220
0
230
1
0
LINE
5
9F
100
AcDbEntity
8
1
62
256
6
ByLayer
370
18
48
1
60
0
100
AcDbLine
10
26.143008
20
10.9125
30
0
11
26.5
21
10.706391
31
0
39
0
210
0
220
0
230
1
0
LINE
5
A0
100
AcDbEntity
8
1
62
256
6
ByLayer
370
18
48
1
60
0
100
AcDbLine
10
13.81369
20
13.2375
30
0
11
13.5
21
13.418609
31
0
39
0
210
0
220
0
230
1
0
LINE
5
A1
100
AcDbEntity
8
1
62
256
6
ByLayer
370
18
48
1
60
0
100
AcDbLine
10
23.177429
20
13.038949
30
0
11
24.018406
21
13.038949
31
0
39
0
210
0
220
0
230
1
0
LINE
5
A2
100
AcDbEntity
8
1
62
256
6
ByLayer
370
18
48
1
60
0
100
AcDbLine
10
24.018406
20
13.038949
30
0
11
24.018406
21
13.2125
31
0
39
0
210
0
220
0
230
1
0
LINE
5
A3
100
AcDbEntity
8
1
62
256
6
ByLayer
370
18
48
1
60
0
100
AcDbLine
10
24.018406
20
13.2125
30
0
11
23.101707
21
13.2125
31
0
39
0
210
0
220
0
230
1
0
LINE
5
A4
100
AcDbEntity
8
1
62
256
6
ByLayer
370
18
48
1
60
0
100
AcDbLine
10
24.027452
20
12.987646
30
0
11
24.301935
21
12.23351
31
0
39
0
210
0
220
0
230
1
0
LINE
5
A5
100
AcDbEntity
8
1
62
256
6
ByLayer
370
18
48
1
60
0
100
AcDbLine
10
25.2
20
13.2125
30
0
11
25.2
21
10.9125
31
0
39
0
210
0
220
0
230
1
0
LINE
5
A6
100
AcDbEntity
8
1
62
256
6
ByLayer
370
18
48
1
60
0
100
AcDbLine
10
30
20
10.7625
30
0
11
30
21
13.3625
31
0
39
0
210
0
220
0
230
1
0
LINE
5
A7
100
AcDbEntity
8
1
62
256
6
ByLayer
370
18
48
1
60
0
100
AcDbLine
10
29.791276
20
13.56231
30
0
11
26.5
21
13.418609
31
0
39
0
210
0
220
0
230
1
0
LINE
5
A8
100
AcDbEntity
8
1
62
256
6
ByLayer
370
18
48
1
60
0
100
AcDbLine
10
26.143008
20
13.2125
30
0
11
26.5
21
13.418609
31
0
39
0
210
0
220
0
230
1
0
LINE
5
A9
100
AcDbEntity
8
1
62
256
6
ByLayer
370
18
48
1
60
0
100
AcDbLine
10
10.208724
20
13.56231
30
0
11
13.5
21
13.418609
31
0
39
0
210
0
220
0
230
1
0
MTEXT
5
DD
100
AcDbEntity
8
SK6
62
256
6
ByLayer
370
18
48
1
60
0
100
AcDbMText
10
-74.799987
20
-23.327826
30
0
210
0
220
0
230
1
1
\W0.7371;RF123G10-2525B
40
3.5
41
0
44
1.084337
50
0
71
7
72
5
7
iso_b_vert
0
DIMENSION
5
EE
100
AcDbEntity
8
2
62
256
6
ByLayer
370
13
48
1
60
0
100
AcDbDimension
2
DimnDraft3D1
10
44.25
20
13.5625
30
0
11
44.25
21
18.0625
31
0
70
32
71
5
72
1
41
1
210
0
220
0
230
1
3
Standard
100
AcDbAlignedDimension
13
31.5
23
10.5625
33
0
14
31.5
24
13.5625
34
0
50
90
100
AcDbRotatedDimension
1001
ACAD
1000
DSTYLE
1002
{
1070
    74
1070
     0
1070
   279
1070
     0
1070
   172
1070
     1
1070
   173
1070
     1
1070
   340
1005
DE
1070
   271
1070
     3
1070
   272
1070
     3
1070
    77
1070
     1
1070
    73
1070
     0
1070
   171
1070
     4
1070
   274
1070
     4
1070
   177
1070
     2
1070
   176
1070
     2
1070
   178
1070
     7
1070
    78
1070
     8
1070
    41
1041
3.0
1070
   147
1041
2.25
1070
    42
1041
1.5
1070
    44
1041
3.0
1070
   140
1041
4.5
1070
   343
1005
EF
1070
   344
1005
EF
1002
}
0
DIMENSION
5
103
100
AcDbEntity
8
2
62
256
6
ByLayer
370
13
48
1
60
0
100
AcDbDimension
2
DimnDraft3D2
10
54.25
20
-12.4375
30
0
11
54.25
21
-2.125658
31
0
70
32
71
5
72
1
41
1
210
0
220
0
230
1
3
Standard
100
AcDbAlignedDimension
13
31.5
23
13.5625
33
0
14
-3.5
24
-12.4375
34
0
50
90
100
AcDbRotatedDimension
1001
ACAD
1000
DSTYLE
1002
{
1070
    74
1070
     0
1070
   279
1070
     0
1070
   172
1070
     1
1070
   173
1070
     1
1070
   340
1005
DE
1070
   271
1070
     3
1070
   272
1070
     3
1070
    77
1070
     1
1070
    73
1070
     0
1070
   171
1070
     4
1070
   274
1070
     4
1070
   177
1070
     2
1070
   176
1070
     2
1070
   178
1070
     7
1070
    78
1070
     8
1070
    41
1041
3.0
1070
   147
1041
2.25
1070
    42
1041
1.5
1070
    44
1041
3.0
1070
   140
1041
4.5
1070
   343
1005
EF
1070
   344
1005
EF
1002
}
0
DIMENSION
5
112
100
AcDbEntity
8
SK2
62
256
6
ByLayer
370
13
48
1
60
0
100
AcDbDimension
2
DimnDraft3D3
10
-131.1
20
-12.4375
30
0
11
-131.1
21
-2.688158
31
0
70
32
71
5
72
1
41
1
210
0
220
0
230
1
3
Standard
100
AcDbAlignedDimension
13
-122.85
23
12.4375
33
0
14
-122.85
24
-12.4375
34
0
50
90
100
AcDbRotatedDimension
1001
ACAD
1000
DSTYLE
1002
{
1070
    74
1070
     0
1070
   279
1070
     0
1070
   172
1070
     1
1070
   173
1070
     1
1070
   340
1005
DE
1070
   271
1070
     3
1070
   272
1070
     3
1070
    77
1070
     1
1070
    73
1070
     0
1070
   171
1070
     4
1070
   274
1070
     4
1070
   177
1070
     2
1070
   176
1070
     2
1070
   178
1070
     7
1070
    78
1070
     8
1070
    41
1041
3.0
1070
   147
1041
2.25
1070
    42
1041
1.5
1070
    44
1041
3.0
1070
   140
1041
4.5
1070
   343
1005
EF
1070
   344
1005
EF
1002
}
0
DIMENSION
5
120
100
AcDbEntity
8
2
62
256
6
ByLayer
370
13
48
1
60
0
100
AcDbDimension
2
DimnDraft3D4
10
0
20
23.3125
30
0
11
12.311842
21
23.3125
31
0
70
32
71
5
72
1
41
1
210
0
220
0
230
1
3
Standard
100
AcDbAlignedDimension
13
30
23
15.0625
33
0
14
0
24
13.9375
34
0
50
0
100
AcDbRotatedDimension
1001
ACAD
1000
DSTYLE
1002
{
1070
   279
1070
     0
1070
   172
1070
     1
1070
   173
1070
     1
1070
   340
1005
DE
1070
   271
1070
     3
1070
   272
1070
     3
1070
    77
1070
     1
1070
    73
1070
     0
1070
   171
1070
     4
1070
   274
1070
     4
1070
   177
1070
     2
1070
   176
1070
     2
1070
   178
1070
     7
1070
    78
1070
     8
1070
    41
1041
3.0
1070
   147
1041
2.25
1070
    42
1041
1.5
1070
    44
1041
3.0
1070
   140
1041
4.5
1070
   343
1005
EF
1070
   344
1005
EF
1002
}
0
DIMENSION
5
12E
100
AcDbEntity
8
SK2
62
256
6
ByLayer
370
13
48
1
60
0
100
AcDbDimension
2
DimnDraft3D5
10
-121.35
20
33.3125
30
0
11
-49.482237
21
33.3125
31
0
70
32
71
5
72
1
41
1
210
0
220
0
230
1
3
Standard
100
AcDbAlignedDimension
13
30
23
15.0625
33
0
14
-121.35
24
13.9375
34
0
50
0
100
AcDbRotatedDimension
1001
ACAD
1000
DSTYLE
1002
{
1070
   279
1070
     0
1070
   172
1070
     1
1070
   173
1070
     1
1070
   340
1005
DE
1070
   271
1070
     3
1070
   272
1070
     3
1070
    77
1070
     1
1070
    73
1070
     0
1070
   171
1070
     4
1070
   274
1070
     4
1070
   177
1070
     2
1070
   176
1070
     2
1070
   178
1070
     7
1070
    78
1070
     8
1070
    41
1041
3.0
1070
   147
1041
2.25
1070
    42
1041
1.5
1070
    44
1041
3.0
1070
   140
1041
4.5
1070
   343
1005
EF
1070
   344
1005
EF
1002
}
0
DIMENSION
5
13C
100
AcDbEntity
8
2
62
256
6
ByLayer
370
13
48
1
60
0
100
AcDbDimension
2
DimnDraft3D6
10
30
20
-26.6875
30
0
11
22.874342
21
-26.6875
31
0
70
32
71
5
72
1
41
1
210
0
220
0
230
1
3
Standard
100
AcDbAlignedDimension
13
20
23
8.0625
33
0
14
30
24
9.0625
34
0
50
0
100
AcDbRotatedDimension
1001
ACAD
1000
DSTYLE
1002
{
1070
   279
1070
     0
1070
   172
1070
     1
1070
   173
1070
     1
1070
   340
1005
DE
1070
   271
1070
     3
1070
   272
1070
     3
1070
    77
1070
     1
1070
    73
1070
     0
1070
   171
1070
     4
1070
   274
1070
     4
1070
   177
1070
     2
1070
   176
1070
     2
1070
   178
1070
     7
1070
    78
1070
     8
1070
    41
1041
3.0
1070
   147
1041
2.25
1070
    42
1041
1.5
1070
    44
1041
3.0
1070
   140
1041
4.5
1070
   343
1005
EF
1070
   344
1005
EF
1002
}
0
ENDSEC
0
SECTION
2
OBJECTS
0
DICTIONARY
5
1a6
330
0
100
AcDbDictionary
280
0
281
1
3
ACAD_GROUP
350
1a7
3
ACAD_MLINESTYLE
350
1a8
0
DICTIONARY
5
1a7
330
0
100
AcDbDictionary
280
0
281
1
0
DICTIONARY
5
1a8
330
0
100
AcDbDictionary
280
0
281
1
3
Standard
350
18
0
MLINESTYLE
5
18
330
1a8
100
AcDbMlineStyle
2
Standard
70
0
3

62
256
51
90
52
90
71
2
49
-0.5
62
256
6
ByLayer
49
0.5
62
256
6
ByLayer
0
RASTERVARIABLES
5
195
330

100
AcDbRasterVariables
90
0
70
1
71
1
72
1
0
ENDSEC
0
EOF
