0
SECTION
2
HEADER
9
$ACADVER
1
AC1015
9
$DWGCODEPAGE
3
ANSI_1252
9
$HANDSEED
5
191
9
$ANGBASE
50
0
9
$ANGDIR
70
0
9
$ATTMODE
70
1
9
$AUNITS
70
0
9
$AUPREC
70
0
9
$CECOLOR
62
256
9
$CELTSCALE
40
1
9
$CELTYPE
6
ByLayer
9
$CELWEIGHT
370
18
9
$CLAYER
8
0
9
$CMLJUST
70
0
9
$CMLSCALE
40
1
9
$CMLSTYLE
2
Standard
9
$DIMSTYLE
2
Standard
9
$TEXTSIZE
40
0.2
9
$TEXTSTYLE
7
Standard
9
$LUNITS
70
2
9
$LUPREC
70
4
9
$EXTNAMES
290
1
9
$INSUNITS
70
4
9
$LTSCALE
40
1
9
$LWDISPLAY
290
1
9
$PDMODE
70
0
9
$PDSIZE
40
0
9
$PLINEGEN
70
0
0
ENDSEC
0
SECTION
2
CLASSES
0
CLASS
1
RASTERVARIABLES
2
AcDbRasterVariables
3
ISM
90
0
280
0
281
0
0
ENDSEC
0
SECTION
2
TABLES
0
TABLE
2
VPORT
5
187
100
AcDbSymbolTable
0
VPORT
5
1
100
AcDbSymbolTableRecord
100
AcDbViewportTableRecord
2
*Active
70
0
10
0
20
0
11
1
21
1
12
-1
22
1
13
0
23
0
14
0.5
24
0.5
15
10
25
10
16
0
26
0
36
1
17
0
27
0
37
0
0
ENDTAB
0
TABLE
2
LTYPE
5
188
100
AcDbSymbolTable
0
LTYPE
5
14
100
AcDbSymbolTableRecord
100
AcDbLinetypeTableRecord
70
0
2
ByBlock
3

72
65
73
0
40
0
0
LTYPE
5
15
100
AcDbSymbolTableRecord
100
AcDbLinetypeTableRecord
70
0
2
ByLayer
3

72
65
73
0
40
0
0
LTYPE
5
16
100
AcDbSymbolTableRecord
100
AcDbLinetypeTableRecord
70
0
2
CONTINUOUS
3
Solid line
72
65
73
0
40
0
0
LTYPE
5
6A
100
AcDbSymbolTableRecord
100
AcDbLinetypeTableRecord
70
0
2
CENTER
3
____ _ ____ _ ____ _ ____
72
65
73
4
40
47.5
49
22
74
0
49
-8.5
74
0
49
8.5
74
0
49
-8.5
74
0
0
LTYPE
5
6B
100
AcDbSymbolTableRecord
100
AcDbLinetypeTableRecord
70
0
2
DASHED
3
__ __ __ __ __ __ __ __ __
72
65
73
2
40
25.72
49
12.86
74
0
49
-12.86
74
0
0
ENDTAB
0
TABLE
2
LAYER
5
189
100
AcDbSymbolTable
0
LAYER
5
10
100
AcDbSymbolTableRecord
100
AcDbLayerTableRecord
2
0
70
0
62
7
6
CONTINUOUS
290
1
370
-3
390
0
0
LAYER
5
6D
100
AcDbSymbolTableRecord
100
AcDbLayerTableRecord
2
81
70
0
62
-3
6
CONTINUOUS
290
1
370
-3
390
0
0
LAYER
5
6F
100
AcDbSymbolTableRecord
100
AcDbLayerTableRecord
2
80
70
0
62
-6
6
CONTINUOUS
290
1
370
-3
390
0
0
LAYER
5
71
100
AcDbSymbolTableRecord
100
AcDbLayerTableRecord
2
1
70
0
62
4
6
CONTINUOUS
290
1
370
-3
390
0
0
LAYER
5
112
100
AcDbSymbolTableRecord
100
AcDbLayerTableRecord
2
2
70
0
62
7
6
CONTINUOUS
290
1
370
-3
390
0
0
LAYER
5
174
100
AcDbSymbolTableRecord
100
AcDbLayerTableRecord
2
SK1
70
0
62
4
6
CONTINUOUS
290
1
370
-3
390
0
0
LAYER
5
175
100
AcDbSymbolTableRecord
100
AcDbLayerTableRecord
2
SK6
70
0
62
5
6
CONTINUOUS
290
1
370
-3
390
0
0
LAYER
5
176
100
AcDbSymbolTableRecord
100
AcDbLayerTableRecord
2
SK2
70
0
62
7
6
CONTINUOUS
290
1
370
-3
390
0
0
ENDTAB
0
TABLE
2
STYLE
5
18a
100
AcDbSymbolTable
0
STYLE
5
11
100
AcDbSymbolTableRecord
100
AcDbTextStyleTableRecord
2
Standard
3
txt
70
0
71
0
40
0
41
1
42
0
50
0
0
STYLE
5
E4
100
AcDbSymbolTableRecord
100
AcDbTextStyleTableRecord
2
iso_b_vert
3
simplex.shx
70
0
71
0
40
0
41
1
42
0
50
0
0
STYLE
5
E5
100
AcDbSymbolTableRecord
100
AcDbTextStyleTableRecord
2
DWGDirectTextStyle
3
simplex
70
0
71
0
40
0
41
1
42
0
50
0
0
ENDTAB
0
TABLE
2
DIMSTYLE
5
18b
100
AcDbSymbolTable
100
AcDbDimStyleTable
0
DIMSTYLE
105
27
100
AcDbSymbolTableRecord
100
AcDbDimStyleTableRecord
2
Standard
70
0
3
<>
41
0.18
42
0.0625
44
0.18
140
0.18
147
0.09
73
0
74
0
77
1
271
2
275
0
278
52
280
0
340
11
0
ENDTAB
0
TABLE
2
VIEW
5
18c
100
AcDbSymbolTable
0
ENDTAB
0
TABLE
2
UCS
5
18d
100
AcDbSymbolTable
0
ENDTAB
0
TABLE
2
APPID
5
18e
100
AcDbSymbolTable
0
APPID
5
12
100
AcDbSymbolTableRecord
100
AcDbRegAppTableRecord
2
ACAD
70
0
0
ENDTAB
0
TABLE
2
BLOCK_RECORD
5
18f
100
AcDbSymbolTable
0
BLOCK_RECORD
5
1F
100
AcDbSymbolTableRecord
100
AcDbBlockTableRecord
2
*Model_Space
340
0
70
0
0
BLOCK_RECORD
5
1B
100
AcDbSymbolTableRecord
100
AcDbBlockTableRecord
2
*Paper_Space
340
0
70
0
0
BLOCK_RECORD
5
23
100
AcDbSymbolTableRecord
100
AcDbBlockTableRecord
2
*Paper_Space0
340
0
70
0
0
BLOCK_RECORD
5
E7
100
AcDbSymbolTableRecord
100
AcDbBlockTableRecord
2
DimnDraft3D11
340
0
70
0
0
BLOCK_RECORD
5
F2
100
AcDbSymbolTableRecord
100
AcDbBlockTableRecord
2
DimnDraft3D2
340
0
70
0
0
BLOCK_RECORD
5
FC
100
AcDbSymbolTableRecord
100
AcDbBlockTableRecord
2
DimnDraft3D3
340
0
70
0
0
BLOCK_RECORD
5
106
100
AcDbSymbolTableRecord
100
AcDbBlockTableRecord
2
DimnDraft3D4
340
0
70
0
0
BLOCK_RECORD
5
110
100
AcDbSymbolTableRecord
100
AcDbBlockTableRecord
2
DimnDraft3D5
340
0
70
0
0
ENDTAB
0
ENDSEC
0
SECTION
2
BLOCKS
0
BLOCK
5
20
100
AcDbEntity
8
0
100
AcDbBlockBegin
2
*Model_Space
70
0
10
0
20
0
30
0
3
*Model_Space
0
ENDBLK
5
21
100
AcDbEntity
8
0
100
AcDbBlockEnd
0
BLOCK
5
1C
100
AcDbEntity
8
0
100
AcDbBlockBegin
2
*Paper_Space
70
0
10
0
20
0
30
0
3
*Paper_Space
0
ENDBLK
5
1D
100
AcDbEntity
8
0
100
AcDbBlockEnd
0
BLOCK
5
24
100
AcDbEntity
8
0
100
AcDbBlockBegin
2
*Paper_Space0
70
0
10
0
20
0
30
0
3
*Paper_Space0
0
ENDBLK
5
25
100
AcDbEntity
8
0
100
AcDbBlockEnd
0
BLOCK
5
E8
100
AcDbEntity
8
0
100
AcDbBlockBegin
2
DimnDraft3D11
70
0
10
0
20
0
30
0
3
DimnDraft3D11
0
LINE
5
EA
100
AcDbEntity
8
SK2
62
256
6
ByLayer
370
25
48
1
60
0
100
AcDbLine
10
46.584534
20
4.284694
30
0
11
56.135448
21
4.284694
31
0
39
0
210
0
220
0
230
1
0
LINE
5
EC
100
AcDbEntity
8
SK2
62
256
6
ByLayer
370
25
48
1
60
0
100
AcDbLine
10
27.5875
20
-4
30
0
11
56.135448
21
-4
31
0
39
0
210
0
220
0
230
1
0
LINE
5
ED
100
AcDbEntity
8
SK2
62
256
6
ByLayer
370
25
48
1
60
0
100
AcDbLine
10
54.135448
20
-4
30
0
11
54.135448
21
19.088945
31
0
39
0
210
0
220
0
230
1
0
SOLID
5
EE
100
AcDbEntity
8
SK2
62
256
6
ByLayer
370
25
48
1
60
0
100
AcDbTrace
10
54.135448
20
4.284694
30
0
11
54.596232
21
0.784696
31
0
12
53.674664
22
0.784693
32
0
13
54.135448
23
4.284694
33
0
39
0
210
0
220
0
230
1
0
SOLID
5
EF
100
AcDbEntity
8
SK2
62
256
6
ByLayer
370
25
48
1
60
0
100
AcDbTrace
10
54.135448
20
-4
30
0
11
53.674664
21
-0.500002
31
0
12
54.596232
22
-0.499998
32
0
13
54.135448
23
-4
33
0
39
0
210
0
220
0
230
1
0
MTEXT
5
F0
100
AcDbEntity
8
SK2
62
256
6
ByLayer
370
13
48
1
60
0
100
AcDbMText
10
53.260448
20
12.116576
30
0
210
0
220
0
230
1
1
\W0.7003;8,25
40
3.5
41
0
44
1.084337
50
90
71
7
72
5
7
iso_b_vert
0
ENDBLK
5
E9
100
AcDbEntity
8
0
100
AcDbBlockEnd
0
BLOCK
5
F9
100
AcDbEntity
8
0
100
AcDbBlockBegin
2
DimnDraft3D2
70
0
10
0
20
0
30
0
3
DimnDraft3D2
0
MTEXT
5
F3
100
AcDbEntity
8
SK2
62
256
6
ByLayer
370
13
48
1
60
0
100
AcDbMText
10
-76.408057
20
0.115132
30
0
210
0
220
0
230
1
1
\W0.5211;8
40
3.5
41
0
44
1.084337
50
90
71
7
72
5
7
iso_b_vert
0
LINE
5
F4
100
AcDbEntity
8
SK2
62
256
6
ByLayer
370
13
48
1
60
0
100
AcDbLine
10
-66.5875
20
-4
30
0
11
-77.533057
21
-4
31
0
39
0
210
0
220
0
230
1
0
LINE
5
F5
100
AcDbEntity
8
SK2
62
256
6
ByLayer
370
13
48
1
60
0
100
AcDbLine
10
-66.5875
20
4
30
0
11
-77.533057
21
4
31
0
39
0
210
0
220
0
230
1
0
LINE
5
F6
100
AcDbEntity
8
SK2
62
256
6
ByLayer
370
13
48
1
60
0
100
AcDbLine
10
-75.533057
20
-4
30
0
11
-75.533057
21
4
31
0
39
0
210
0
220
0
230
1
0
SOLID
5
F7
100
AcDbEntity
8
SK2
62
256
6
ByLayer
370
13
48
1
60
0
100
AcDbTrace
10
-75.533057
20
-4
30
0
11
-75.993841
21
-0.500002
31
0
12
-75.072273
22
-0.499998
32
0
13
-75.533057
23
-4
33
0
39
0
210
0
220
0
230
1
0
SOLID
5
F8
100
AcDbEntity
8
SK2
62
256
6
ByLayer
370
13
48
1
60
0
100
AcDbTrace
10
-75.533057
20
4
30
0
11
-75.072273
21
0.500002
31
0
12
-75.993841
22
0.499998
32
0
13
-75.533057
23
4
33
0
39
0
210
0
220
0
230
1
0
ENDBLK
5
FA
100
AcDbEntity
8
0
100
AcDbBlockEnd
0
BLOCK
5
103
100
AcDbEntity
8
0
100
AcDbBlockBegin
2
DimnDraft3D3
70
0
10
0
20
0
30
0
3
DimnDraft3D3
0
MTEXT
5
FD
100
AcDbEntity
8
SK2
62
256
6
ByLayer
370
13
48
1
60
0
100
AcDbMText
10
-11.579605
20
22.152608
30
0
210
0
220
0
230
1
1
\W0.5123;110
40
3.5
41
0
44
1.084337
50
0
71
7
72
5
7
iso_b_vert
0
LINE
5
FE
100
AcDbEntity
8
SK2
62
256
6
ByLayer
370
13
48
1
60
0
100
AcDbLine
10
-65
20
4.0875
30
0
11
-65
21
23.277608
31
0
39
0
210
0
220
0
230
1
0
LINE
5
FF
100
AcDbEntity
8
SK2
62
256
6
ByLayer
370
13
48
1
60
0
100
AcDbLine
10
45
20
5.772194
30
0
11
45
21
23.277608
31
0
39
0
210
0
220
0
230
1
0
LINE
5
100
100
AcDbEntity
8
SK2
62
256
6
ByLayer
370
13
48
1
60
0
100
AcDbLine
10
-65
20
21.277608
30
0
11
45
21
21.277608
31
0
39
0
210
0
220
0
230
1
0
SOLID
5
101
100
AcDbEntity
8
SK2
62
256
6
ByLayer
370
13
48
1
60
0
100
AcDbTrace
10
-65
20
21.277608
30
0
11
-61.500002
21
21.738392
31
0
12
-61.499998
22
20.816825
32
0
13
-65
23
21.277608
33
0
39
0
210
0
220
0
230
1
0
SOLID
5
102
100
AcDbEntity
8
SK2
62
256
6
ByLayer
370
13
48
1
60
0
100
AcDbTrace
10
45
20
21.277608
30
0
11
41.500002
21
20.816825
31
0
12
41.499998
22
21.738392
32
0
13
45
23
21.277608
33
0
39
0
210
0
220
0
230
1
0
ENDBLK
5
104
100
AcDbEntity
8
0
100
AcDbBlockEnd
0
BLOCK
5
10D
100
AcDbEntity
8
0
100
AcDbBlockBegin
2
DimnDraft3D4
70
0
10
0
20
0
30
0
3
DimnDraft3D4
0
MTEXT
5
107
100
AcDbEntity
8
SK2
62
256
6
ByLayer
370
13
48
1
60
0
100
AcDbMText
10
30.600666
20
11.793327
30
0
210
0
220
0
230
1
1
\W0.6562;25
40
3.5
41
0
44
1.084337
50
0
71
7
72
5
7
iso_b_vert
0
LINE
5
108
100
AcDbEntity
8
SK2
62
256
6
ByLayer
370
13
48
1
60
0
100
AcDbLine
10
45
20
5.772194
30
0
11
45
21
12.918327
31
0
39
0
210
0
220
0
230
1
0
LINE
5
109
100
AcDbEntity
8
SK2
62
256
6
ByLayer
370
13
48
1
60
0
100
AcDbLine
10
18.540806
20
1.9875
30
0
11
18.540806
21
12.918327
31
0
39
0
210
0
220
0
230
1
0
LINE
5
10A
100
AcDbEntity
8
SK2
62
256
6
ByLayer
370
13
48
1
60
0
100
AcDbLine
10
45
20
10.918327
30
0
11
18.540806
21
10.918327
31
0
39
0
210
0
220
0
230
1
0
SOLID
5
10B
100
AcDbEntity
8
SK2
62
256
6
ByLayer
370
13
48
1
60
0
100
AcDbTrace
10
45
20
10.918327
30
0
11
41.500002
21
10.457543
31
0
12
41.499998
22
11.37911
32
0
13
45
23
10.918327
33
0
39
0
210
0
220
0
230
1
0
SOLID
5
10C
100
AcDbEntity
8
SK2
62
256
6
ByLayer
370
13
48
1
60
0
100
AcDbTrace
10
18.540806
20
10.918327
30
0
11
22.040804
21
11.37911
31
0
12
22.040807
22
10.457543
32
0
13
18.540806
23
10.918327
33
0
39
0
210
0
220
0
230
1
0
ENDBLK
5
10E
100
AcDbEntity
8
0
100
AcDbBlockEnd
0
BLOCK
5
118
100
AcDbEntity
8
0
100
AcDbBlockBegin
2
DimnDraft3D5
70
0
10
0
20
0
30
0
3
DimnDraft3D5
0
MTEXT
5
111
100
AcDbEntity
8
2
62
256
6
ByLayer
370
13
48
1
60
0
100
AcDbMText
10
21.146053
20
-14.898511
30
0
210
0
220
0
230
1
1
\W0.7183;45
40
3.5
41
0
44
1.084337
50
0
71
7
72
5
7
iso_b_vert
0
LINE
5
113
100
AcDbEntity
8
2
62
256
6
ByLayer
370
13
48
1
60
0
100
AcDbLine
10
0
20
-1.5875
30
0
11
0
21
-17.773511
31
0
39
0
210
0
220
0
230
1
0
LINE
5
114
100
AcDbEntity
8
2
62
256
6
ByLayer
370
13
48
1
60
0
100
AcDbLine
10
45
20
2.701568
30
0
11
45
21
-17.773511
31
0
39
0
210
0
220
0
230
1
0
LINE
5
115
100
AcDbEntity
8
2
62
256
6
ByLayer
370
13
48
1
60
0
100
AcDbLine
10
0
20
-15.773511
30
0
11
45
21
-15.773511
31
0
39
0
210
0
220
0
230
1
0
SOLID
5
116
100
AcDbEntity
8
2
62
256
6
ByLayer
370
13
48
1
60
0
100
AcDbTrace
10
0
20
-15.773511
30
0
11
3.499998
21
-15.312728
31
0
12
3.500002
22
-16.234295
32
0
13
0
23
-15.773511
33
0
39
0
210
0
220
0
230
1
0
SOLID
5
117
100
AcDbEntity
8
2
62
256
6
ByLayer
370
13
48
1
60
0
100
AcDbTrace
10
45
20
-15.773511
30
0
11
41.500002
21
-16.234295
31
0
12
41.499998
22
-15.312728
32
0
13
45
23
-15.773511
33
0
39
0
210
0
220
0
230
1
0
ENDBLK
5
119
100
AcDbEntity
8
0
100
AcDbBlockEnd
0
ENDSEC
0
SECTION
2
ENTITIES
0
ARC
5
AE
100
AcDbEntity
8
1
62
256
6
ByLayer
370
13
48
1
60
0
100
AcDbCircle
39
0
10
14
20
0
30
0
40
1.9685
210
0
220
0
230
1
100
AcDbArc
50
59.618578
51
120.381422
0
ARC
5
AF
100
AcDbEntity
8
1
62
256
6
ByLayer
370
13
48
1
60
0
100
AcDbCircle
39
0
10
14
20
0
30
0
40
1.416
210
0
220
0
230
1
100
AcDbArc
50
330.190711
51
29.809289
0
ARC
5
B0
100
AcDbEntity
8
1
62
256
6
ByLayer
370
13
48
1
60
0
100
AcDbCircle
39
0
10
14
20
0
30
0
40
1.416
210
0
220
0
230
1
100
AcDbArc
50
83.807562
51
96.192438
0
ARC
5
B1
100
AcDbEntity
8
1
62
256
6
ByLayer
370
13
48
1
60
0
100
AcDbCircle
39
0
10
14
20
0
30
0
40
1.416
210
0
220
0
230
1
100
AcDbArc
50
150.190711
51
209.809289
0
ARC
5
B2
100
AcDbEntity
8
1
62
256
6
ByLayer
370
13
48
1
60
0
100
AcDbCircle
39
0
10
14
20
0
30
0
40
1.9685
210
0
220
0
230
1
100
AcDbArc
50
239.618578
51
300.381422
0
ARC
5
B3
100
AcDbEntity
8
1
62
256
6
ByLayer
370
13
48
1
60
0
100
AcDbCircle
39
0
10
14
20
0
30
0
40
1.9685
210
0
220
0
230
1
100
AcDbArc
50
0
51
59.618578
0
ARC
5
B4
100
AcDbEntity
8
1
62
256
6
ByLayer
370
13
48
1
60
0
100
AcDbCircle
39
0
10
14
20
0
30
0
40
1.9685
210
0
220
0
230
1
100
AcDbArc
50
180
51
239.618578
0
ARC
5
B5
100
AcDbEntity
8
1
62
256
6
ByLayer
370
13
48
1
60
0
100
AcDbCircle
39
0
10
14
20
0
30
0
40
1.416
210
0
220
0
230
1
100
AcDbArc
50
263.807562
51
276.192438
0
ARC
5
B6
100
AcDbEntity
8
1
62
256
6
ByLayer
370
13
48
1
60
0
100
AcDbCircle
39
0
10
14
20
0
30
0
40
1.416
210
0
220
0
230
1
100
AcDbArc
50
29.809289
51
83.807562
0
ARC
5
B7
100
AcDbEntity
8
1
62
256
6
ByLayer
370
13
48
1
60
0
100
AcDbCircle
39
0
10
14
20
0
30
0
40
1.416
210
0
220
0
230
1
100
AcDbArc
50
276.192438
51
330.190711
0
ARC
5
B8
100
AcDbEntity
8
1
62
256
6
ByLayer
370
13
48
1
60
0
100
AcDbCircle
39
0
10
14
20
0
30
0
40
1.9685
210
0
220
0
230
1
100
AcDbArc
50
120.381422
51
180
0
ARC
5
BA
100
AcDbEntity
8
1
62
256
6
ByLayer
370
13
48
1
60
0
100
AcDbCircle
39
0
10
14
20
0
30
0
40
1.416
210
0
220
0
230
1
100
AcDbArc
50
209.809289
51
263.807562
0
ARC
5
BB
100
AcDbEntity
8
1
62
256
6
ByLayer
370
13
48
1
60
0
100
AcDbCircle
39
0
10
14
20
0
30
0
40
1.9685
210
0
220
0
230
1
100
AcDbArc
50
300.381422
51
0
0
ARC
5
BD
100
AcDbEntity
8
1
62
256
6
ByLayer
370
13
48
1
60
0
100
AcDbCircle
39
0
10
14
20
0
30
0
40
1.416
210
0
220
0
230
1
100
AcDbArc
50
96.192438
51
150.190711
0
ARC
5
BE
100
AcDbEntity
8
1
62
256
6
ByLayer
370
13
48
1
60
0
100
AcDbCircle
39
0
10
-20.1
20
0.4
30
0
40
1.6
210
0
220
0
230
-1
100
AcDbArc
50
0
51
90
0
ARC
5
BF
100
AcDbEntity
8
1
62
256
6
ByLayer
370
13
48
1
60
0
100
AcDbCircle
39
0
10
-44.9
20
4.184694
30
0
40
0.1
210
0
220
0
230
-1
100
AcDbArc
50
87.548017
51
180
0
ARC
5
C0
100
AcDbEntity
8
1
62
256
6
ByLayer
370
13
48
1
60
0
100
AcDbCircle
39
0
10
-25.1
20
1.815306
30
0
40
0.1
210
0
220
0
230
-1
100
AcDbArc
50
267.548017
51
0
0
ARC
5
C1
100
AcDbEntity
8
1
62
256
6
ByLayer
370
13
48
1
60
0
100
AcDbCircle
39
0
10
25.1
20
4.184694
30
0
40
0.1
210
0
220
0
230
1
100
AcDbArc
50
87.548017
51
180
0
ARC
5
C2
100
AcDbEntity
8
1
62
256
6
ByLayer
370
13
48
1
60
0
100
AcDbCircle
39
0
10
44.9
20
1.815306
30
0
40
0.1
210
0
220
0
230
1
100
AcDbArc
50
267.548017
51
0
0
CIRCLE
5
B9
100
AcDbEntity
8
1
62
256
6
ByLayer
370
13
48
1
60
0
100
AcDbCircle
10
-14
20
0
30
0
40
3
39
0
210
0
220
0
230
-1
0
CIRCLE
5
BC
100
AcDbEntity
8
1
62
256
6
ByLayer
370
13
48
1
60
0
100
AcDbCircle
10
-14
20
0
30
0
40
3.5
39
0
210
0
220
0
230
-1
0
ELLIPSE
5
C3
100
AcDbEntity
8
SK1
62
256
6
ByLayer
370
13
48
1
60
0
100
AcDbEllipse
10
-0.8
20
1.971281
30
0
11
5.94138107124496E-16
21
9.70333209965808
31
0
210
0
220
0
230
1
40
0.267949
41
1.5707963267949
42
2.23367015044649
0
ELLIPSE
5
C4
100
AcDbEntity
8
1
62
256
6
ByLayer
370
13
48
1
60
0
100
AcDbEllipse
10
38.634098
20
3
30
0
11
-1.23754342671012
21
1.25070971939371E-15
31
0
210
0
220
0
230
1
40
0.404026
41
2.79252680319559
42
-2.79252680319557
0
ELLIPSE
5
C5
100
AcDbEntity
8
1
62
256
6
ByLayer
370
13
48
1
60
0
100
AcDbEllipse
10
39.601641
20
3.826449
30
0
11
-0.371263028004735
21
3.75212915809722E-16
31
0
210
0
220
0
230
1
40
0.404026
41
0
42
0.34906585037806
0
ELLIPSE
5
C6
100
AcDbEntity
8
1
62
256
6
ByLayer
370
13
48
1
60
0
100
AcDbEllipse
10
39.601641
20
2.173551
30
0
11
-0.371263028039347
21
3.75212915844703E-16
31
0
210
0
220
0
230
1
40
0.404026
41
-0.349065850361508
42
0
0
POINT
5
6C
100
AcDbEntity
8
81
62
256
6
ByLayer
370
18
48
1
60
0
100
AcDbPoint
10
45
20
4.289068
30
0
39
0
210
0
220
0
230
1
50
360
0
POINT
5
6E
100
AcDbEntity
8
80
62
256
6
ByLayer
370
18
48
1
60
0
100
AcDbPoint
10
0
20
0
30
0
39
0
210
0
220
0
230
1
50
360
0
SPLINE
5
C7
100
AcDbEntity
8
1
62
256
6
ByLayer
370
13
48
1
60
0
100
AcDbSpline
70
4
71
3
72
14
73
10
40
0
40
0
40
0
40
0
40
0.25
40
0.25
40
0.5
40
0.5
40
0.75
40
0.75
40
1
40
1
40
1
40
1
41
1
10
14.9955768895952
20
1.69818105833977
30
0
41
1
10
14.9623247955527
20
1.71767545571086
30
0
41
1
10
14.9254891929918
20
1.73124283391911
30
0
41
1
10
14.8509822235118
20
1.74491418151101
30
0
41
1
10
14.8128491688207
20
1.74514706955503
30
0
41
1
10
14.7404968038324
20
1.73360070335244
30
0
41
1
10
14.7062227315664
20
1.72197377749944
30
0
41
1
10
14.6435841284795
20
1.68898464130709
30
0
41
1
10
14.6160750143229
20
1.66821415237354
30
0
41
1
10
14.5921177041672
20
1.64358262808875
30
0
0
SPLINE
5
C8
100
AcDbEntity
8
1
62
256
6
ByLayer
370
13
48
1
60
0
100
AcDbSpline
70
4
71
3
72
10
73
6
40
0
40
0
40
0
40
0
40
0.5
40
0.5
40
1
40
1
40
1
40
1
41
1
10
13.8472587066235
20
-1.40773793629984
30
0
41
1
10
13.7584087276611
20
-1.42445611057047
30
0
41
1
10
13.6773114370499
20
-1.45442010354438
30
0
41
1
10
13.5286177984799
20
-1.53592643634323
30
0
41
1
10
13.4642193051187
20
-1.58566016503519
30
0
41
1
10
13.4078822958328
20
-1.64358262808875
30
0
0
SPLINE
5
C9
100
AcDbEntity
8
1
62
256
6
ByLayer
370
13
48
1
60
0
100
AcDbSpline
70
4
71
3
72
14
73
10
40
0
40
0
40
0
40
0
40
0.25
40
0.25
40
0.5
40
0.5
40
0.75
40
0.75
40
1
40
1
40
1
40
1
41
1
10
12.2739045598557
20
0.31816196954685
30
0
41
1
10
12.241422966651
20
0.309219230546916
30
0
41
1
10
12.2105363102681
20
0.295487632259068
30
0
41
1
10
12.1524005861243
20
0.257643962770999
30
0
41
1
10
12.1259715901054
20
0.23390560361608
30
0
41
1
10
12.0812339951381
20
0.17786632561905
30
0
41
1
10
12.0628944798263
20
0.145275492473729
30
0
41
1
10
12.038128944342
20
0.0755075211771441
30
0
41
1
10
12.0315
20
0.0376179065800386
30
0
41
1
10
12.0315
20
0
30
0
0
SPLINE
5
CA
100
AcDbEntity
8
1
62
256
6
ByLayer
370
13
48
1
60
0
100
AcDbSpline
70
4
71
3
72
14
73
10
40
0
40
0
40
0
40
0
40
0.25
40
0.25
40
0.499999999999999
40
0.499999999999999
40
0.75
40
0.75
40
1
40
1
40
1
40
1
41
1
10
15.1474510335849
20
1.32815233797856
30
0
41
1
10
15.1561392917688
20
1.36060391070845
30
0
41
1
10
15.159939210046
20
1.39416944413003
30
0
41
1
10
15.1566993392095
20
1.46359293028738
30
0
41
1
10
15.1496951324757
20
1.4981236970292
30
0
41
1
10
15.1236759128127
20
1.56577950907877
30
0
41
1
10
15.1050907164274
20
1.5975776403437
30
0
41
1
10
15.057063413891
20
1.65459826033327
30
0
41
1
10
15.027983770467
20
1.67918217627036
30
0
41
1
10
14.9955768895952
20
1.69818105833977
30
0
0
SPLINE
5
CB
100
AcDbEntity
8
1
62
256
6
ByLayer
370
13
48
1
60
0
100
AcDbSpline
70
4
71
3
72
14
73
10
40
0
40
0
40
0
40
0
40
0.249999999999998
40
0.249999999999998
40
0.499999999999999
40
0.499999999999999
40
0.749999999999999
40
0.749999999999999
40
1
40
1
40
1
40
1
41
1
10
12.8525489664151
20
-1.32815233797856
30
0
41
1
10
12.8438607082312
20
-1.36060391070845
30
0
41
1
10
12.8400607899539
20
-1.39416944413003
30
0
41
1
10
12.8433006607905
20
-1.46359293028738
30
0
41
1
10
12.8503048675243
20
-1.49812369702923
30
0
41
1
10
12.8763240871873
20
-1.56577950907877
30
0
41
1
10
12.8949092835726
20
-1.5975776403437
30
0
41
1
10
12.942936586109
20
-1.65459826033327
30
0
41
1
10
12.972016229533
20
-1.67918217627036
30
0
41
1
10
13.0044231104048
20
-1.69818105833977
30
0
0
SPLINE
5
CC
100
AcDbEntity
8
1
62
256
6
ByLayer
370
13
48
1
60
0
100
AcDbSpline
70
4
71
3
72
14
73
10
40
0
40
0
40
0
40
0
40
0.25
40
0.25
40
0.5
40
0.5
40
0.75
40
0.75
40
1
40
1
40
1
40
1
41
1
10
13.4078822958328
20
1.64358262808875
30
0
41
1
10
13.3839249856771
20
1.66821415237354
30
0
41
1
10
13.3564158715205
20
1.68898464130709
30
0
41
1
10
13.2937772684336
20
1.72197377749944
30
0
41
1
10
13.2595031961676
20
1.73360070335244
30
0
41
1
10
13.1871508311793
20
1.74514706955503
30
0
41
1
10
13.1490177764882
20
1.74491418151101
30
0
41
1
10
13.0745108070082
20
1.73124283391911
30
0
41
1
10
13.0376752044473
20
1.71767545571086
30
0
41
1
10
13.0044231104048
20
1.69818105833977
30
0
0
SPLINE
5
CD
100
AcDbEntity
8
1
62
256
6
ByLayer
370
13
48
1
60
0
100
AcDbSpline
70
4
71
3
72
14
73
10
40
0
40
0
40
0
40
0
40
0.25
40
0.25
40
0.5
40
0.5
40
0.75
40
0.75
40
1
40
1
40
1
40
1
41
1
10
12.0315
20
0
30
0
41
1
10
12.0315
20
-0.0374841677593452
30
0
41
1
10
12.038022271293
20
-0.0751265754250312
30
0
41
1
10
12.0628420194592
20
-0.145207623642278
30
0
41
1
10
12.0809455339019
20
-0.177466201935317
30
0
41
1
10
12.1259851483209
20
-0.233961141892223
30
0
41
1
10
12.1522615751269
20
-0.257541715983535
30
0
41
1
10
12.2105187639711
20
-0.295487935933664
30
0
41
1
10
12.2415056611681
20
-0.309241997763991
30
0
41
1
10
12.2739045598557
20
-0.31816196954685
30
0
0
SPLINE
5
CE
100
AcDbEntity
8
1
62
256
6
ByLayer
370
13
48
1
60
0
100
AcDbSpline
70
4
71
3
72
14
73
10
40
0
40
0
40
0
40
0
40
0.25
40
0.25
40
0.5
40
0.5
40
0.75
40
0.75
40
1
40
1
40
1
40
1
41
1
10
15.9685
20
0
30
0
41
1
10
15.9685
20
0.0374841677593452
30
0
41
1
10
15.961977728707
20
0.0751265754250312
30
0
41
1
10
15.9371579805408
20
0.145207623642278
30
0
41
1
10
15.9190544660981
20
0.177466201935317
30
0
41
1
10
15.8740148516791
20
0.233961141892252
30
0
41
1
10
15.8477384248731
20
0.257541715983535
30
0
41
1
10
15.7894812360289
20
0.295487935933664
30
0
41
1
10
15.7584943388319
20
0.309241997763991
30
0
41
1
10
15.7260954401443
20
0.31816196954685
30
0
0
SPLINE
5
CF
100
AcDbEntity
8
1
62
256
6
ByLayer
370
13
48
1
60
0
100
AcDbSpline
70
4
71
3
72
14
73
10
40
0
40
0
40
0
40
0
40
0.25
40
0.25
40
0.5
40
0.5
40
0.75
40
0.75
40
1
40
1
40
1
40
1
41
1
10
15.7260954401443
20
-0.31816196954685
30
0
41
1
10
15.758577033349
20
-0.309219230546916
30
0
41
1
10
15.7894636897319
20
-0.295487632259068
30
0
41
1
10
15.8475994138757
20
-0.257643962770999
30
0
41
1
10
15.8740284098946
20
-0.23390560361608
30
0
41
1
10
15.9187660048619
20
-0.17786632561905
30
0
41
1
10
15.9371055201737
20
-0.145275492473729
30
0
41
1
10
15.961871055658
20
-0.0755075211771725
30
0
41
1
10
15.9685
20
-0.0376179065800386
30
0
41
1
10
15.9685
20
0
30
0
0
SPLINE
5
D0
100
AcDbEntity
8
1
62
256
6
ByLayer
370
13
48
1
60
0
100
AcDbSpline
70
4
71
3
72
10
73
6
40
0
40
0
40
0
40
0
40
0.5
40
0.5
40
1
40
1
40
1
40
1
41
1
10
14.1527412933765
20
1.40773793629984
30
0
41
1
10
14.2415912723382
20
1.42445611057036
30
0
41
1
10
14.3226885629508
20
1.45442010354469
30
0
41
1
10
14.47138220152
20
1.53592643634323
30
0
41
1
10
14.5357806948812
20
1.58566016503511
30
0
41
1
10
14.5921177041672
20
1.64358262808875
30
0
0
SPLINE
5
D1
100
AcDbEntity
8
1
62
256
6
ByLayer
370
13
48
1
60
0
100
AcDbSpline
70
4
71
3
72
14
73
10
40
0
40
0
40
0
40
0
40
0.25
40
0.25
40
0.5
40
0.5
40
0.75
40
0.75
40
1
40
1
40
1
40
1
41
1
10
14.9955768895952
20
-1.69818105833977
30
0
41
1
10
15.027983770467
20
-1.67918217627036
30
0
41
1
10
15.057063413891
20
-1.65459826033327
30
0
41
1
10
15.1050907164274
20
-1.5975776403437
30
0
41
1
10
15.1236759128127
20
-1.56577950907877
30
0
41
1
10
15.1496951324757
20
-1.4981236970292
30
0
41
1
10
15.1566993392095
20
-1.46359293028738
30
0
41
1
10
15.159939210046
20
-1.39416944413003
30
0
41
1
10
15.1561392917688
20
-1.36060391070845
30
0
41
1
10
15.1474510335849
20
-1.32815233797856
30
0
0
SPLINE
5
D2
100
AcDbEntity
8
1
62
256
6
ByLayer
370
13
48
1
60
0
100
AcDbSpline
70
4
71
3
72
14
73
10
40
0
40
0
40
0
40
0
40
0.25
40
0.25
40
0.5
40
0.5
40
0.75
40
0.75
40
1
40
1
40
1
40
1
41
1
10
13.0044231104048
20
-1.69818105833977
30
0
41
1
10
13.0376752044473
20
-1.71767545571086
30
0
41
1
10
13.0745108070082
20
-1.73124283391911
30
0
41
1
10
13.1490177764882
20
-1.74491418151101
30
0
41
1
10
13.1871508311793
20
-1.745147069555
30
0
41
1
10
13.2595031961676
20
-1.73360070335244
30
0
41
1
10
13.2937772684336
20
-1.72197377749944
30
0
41
1
10
13.3564158715205
20
-1.68898464130709
30
0
41
1
10
13.3839249856771
20
-1.66821415237354
30
0
41
1
10
13.4078822958328
20
-1.64358262808875
30
0
0
SPLINE
5
D3
100
AcDbEntity
8
1
62
256
6
ByLayer
370
13
48
1
60
0
100
AcDbSpline
70
4
71
3
72
14
73
10
40
0
40
0
40
0
40
0
40
0.25
40
0.25
40
0.5
40
0.5
40
0.75
40
0.75
40
1
40
1
40
1
40
1
41
1
10
13.0044231104048
20
1.69818105833977
30
0
41
1
10
12.972016229533
20
1.67918217627036
30
0
41
1
10
12.942936586109
20
1.65459826033327
30
0
41
1
10
12.8949092835726
20
1.5975776403437
30
0
41
1
10
12.8763240871872
20
1.56577950907877
30
0
41
1
10
12.8503048675243
20
1.49812369702923
30
0
41
1
10
12.8433006607905
20
1.46359293028738
30
0
41
1
10
12.8400607899539
20
1.39416944413003
30
0
41
1
10
12.8438607082312
20
1.36060391070845
30
0
41
1
10
12.8525489664151
20
1.32815233797856
30
0
0
SPLINE
5
D4
100
AcDbEntity
8
1
62
256
6
ByLayer
370
13
48
1
60
0
100
AcDbSpline
70
4
71
3
72
12
73
8
40
0
40
0
40
0
40
0
40
0.499999999999993
40
0.499999999999993
40
0.749999999999996
40
0.749999999999996
40
1
40
1
40
1
40
1
41
1
10
14.5921177041672
20
-1.64358262808875
30
0
41
1
10
14.5357869334517
20
-1.58566657917342
30
0
41
1
10
14.4714404417553
20
-1.53598845597367
30
0
41
1
10
14.3601712018899
20
-1.47495121149194
30
0
41
1
10
14.3209319063501
20
-1.45716101915974
30
0
41
1
10
14.2395493879215
20
-1.42780907632684
30
0
41
1
10
14.1971581972668
20
-1.4160955020356
30
0
41
1
10
14.1527412933765
20
-1.40773793629981
30
0
0
SPLINE
5
D5
100
AcDbEntity
8
1
62
256
6
ByLayer
370
13
48
1
60
0
100
AcDbSpline
70
4
71
3
72
22
73
18
40
0
40
0
40
0
40
0
40
0.125
40
0.125
40
0.25
40
0.25
40
0.375000000000001
40
0.375000000000001
40
0.500000000000001
40
0.500000000000001
40
0.625
40
0.625
40
0.75
40
0.75
40
0.875
40
0.875
40
1
40
1
40
1
40
1
41
1
10
12.2739045598557
20
0.31816196954685
30
0
41
1
10
12.3228024474156
20
0.331624395584242
30
0
41
1
10
12.3703932733043
20
0.349518652074579
30
0
41
1
10
12.4631278602445
20
0.394750725969288
30
0
41
1
10
12.508770613461
20
0.422468412040502
30
0
41
1
10
12.5947795651754
20
0.487285990491102
30
0
41
1
10
12.6350648551457
20
0.524145157022502
30
0
41
1
10
12.7097037180809
20
0.608229158215721
30
0
41
1
10
12.7428495000869
20
0.654268968258634
30
0
41
1
10
12.7990403885641
20
0.752118663667176
30
0
41
1
10
12.8224830458788
20
0.80498136450052
30
0
41
1
10
12.8571314669434
20
0.911031371718593
30
0
41
1
10
12.8688716673697
20
0.965457355804602
30
0
41
1
10
12.8813378145354
20
1.07249352089434
30
0
41
1
10
12.882208086854
20
1.12492224670643
30
0
41
1
10
12.874425480445
20
1.22823466294605
30
0
41
1
10
12.8656747954467
20
1.27912596394137
30
0
41
1
10
12.8525489664151
20
1.32815233797856
30
0
0
SPLINE
5
D6
100
AcDbEntity
8
1
62
256
6
ByLayer
370
13
48
1
60
0
100
AcDbSpline
70
4
71
3
72
22
73
18
40
0
40
0
40
0
40
0
40
0.125
40
0.125
40
0.25
40
0.25
40
0.375
40
0.375
40
0.5
40
0.5
40
0.625
40
0.625
40
0.75
40
0.75
40
0.875
40
0.875
40
1
40
1
40
1
40
1
41
1
10
12.8525489664151
20
-1.32815233797856
30
0
41
1
10
12.8656655382213
20
-1.27916054066767
30
0
41
1
10
12.8742978158907
20
-1.22905490158095
30
0
41
1
10
12.8821780085694
20
-1.1261785361921
30
0
41
1
10
12.8813505871239
20
-1.07278522123909
30
0
41
1
10
12.8689332840545
20
-0.965805458094536
30
0
41
1
10
12.8575101517204
20
-0.912410563500174
30
0
41
1
10
12.8227216693898
20
-0.805495461179248
30
0
41
1
10
12.7997677627726
20
-0.753616505367205
30
0
41
1
10
12.7437737830933
20
-0.655653998746033
30
0
41
1
10
12.7100265294639
20
-0.608695015615695
30
0
41
1
10
12.6360631318125
20
-0.525169372095377
30
0
41
1
10
12.5950487047681
20
-0.487515201760346
30
0
41
1
10
12.50901579413
20
-0.422626957124834
30
0
41
1
10
12.464226845169
20
-0.395360151625908
30
0
41
1
10
12.3711654449057
20
-0.349823359162087
30
0
41
1
10
12.3228369596898
20
-0.331633897404515
30
0
41
1
10
12.2739045598557
20
-0.31816196954685
30
0
0
SPLINE
5
D7
100
AcDbEntity
8
1
62
256
6
ByLayer
370
13
48
1
60
0
100
AcDbSpline
70
4
71
3
72
22
73
18
40
0
40
0
40
0
40
0
40
0.125
40
0.125
40
0.25
40
0.25
40
0.375
40
0.375
40
0.499999999999999
40
0.499999999999999
40
0.624999999999999
40
0.624999999999999
40
0.749999999999999
40
0.749999999999999
40
0.875
40
0.875
40
1
40
1
40
1
40
1
41
1
10
15.1474510335849
20
1.32815233797856
30
0
41
1
10
15.1343344617787
20
1.27916054066767
30
0
41
1
10
15.1257021841093
20
1.22905490158095
30
0
41
1
10
15.1178219914306
20
1.1261785361921
30
0
41
1
10
15.1186494128761
20
1.07278522123909
30
0
41
1
10
15.1310667159455
20
0.965805458094536
30
0
41
1
10
15.1424898482796
20
0.912410563500174
30
0
41
1
10
15.1772783306102
20
0.805495461179248
30
0
41
1
10
15.2002322372274
20
0.753616505367205
30
0
41
1
10
15.2562262169067
20
0.655653998746033
30
0
41
1
10
15.2899734705361
20
0.608695015615695
30
0
41
1
10
15.3639368681875
20
0.525169372095377
30
0
41
1
10
15.4049512952319
20
0.487515201760346
30
0
41
1
10
15.49098420587
20
0.422626957124834
30
0
41
1
10
15.535773154831
20
0.395360151625908
30
0
41
1
10
15.6288345550943
20
0.349823359162087
30
0
41
1
10
15.6771630403102
20
0.331633897404515
30
0
41
1
10
15.7260954401443
20
0.31816196954685
30
0
0
SPLINE
5
D8
100
AcDbEntity
8
1
62
256
6
ByLayer
370
13
48
1
60
0
100
AcDbSpline
70
4
71
3
72
12
73
8
40
0
40
0
40
0
40
0
40
0.50000000000001
40
0.50000000000001
40
0.750000000000014
40
0.750000000000014
40
1
40
1
40
1
40
1
41
1
10
13.4078822958328
20
1.64358262808875
30
0
41
1
10
13.4642130665482
20
1.5856665791735
30
0
41
1
10
13.5285595582445
20
1.53598845597381
30
0
41
1
10
13.6398287981097
20
1.47495121149214
30
0
41
1
10
13.6790680936494
20
1.45716101915994
30
0
41
1
10
13.7604506120782
20
1.42780907632695
30
0
41
1
10
13.802841802733
20
1.41609550203566
30
0
41
1
10
13.8472587066235
20
1.40773793629984
30
0
0
SPLINE
5
D9
100
AcDbEntity
8
1
62
256
6
ByLayer
370
13
48
1
60
0
100
AcDbSpline
70
4
71
3
72
22
73
18
40
0
40
0
40
0
40
0
40
0.125
40
0.125
40
0.25
40
0.25
40
0.375
40
0.375
40
0.5
40
0.5
40
0.625
40
0.625
40
0.75
40
0.75
40
0.875
40
0.875
40
1
40
1
40
1
40
1
41
1
10
15.7260954401443
20
-0.31816196954685
30
0
41
1
10
15.6771975525844
20
-0.331624395584242
30
0
41
1
10
15.6296067266957
20
-0.349518652074579
30
0
41
1
10
15.5368721397555
20
-0.394750725969288
30
0
41
1
10
15.491229386539
20
-0.422468412040473
30
0
41
1
10
15.4052204348246
20
-0.487285990491102
30
0
41
1
10
15.3649351448543
20
-0.524145157022502
30
0
41
1
10
15.2902962819191
20
-0.608229158215693
30
0
41
1
10
15.2571504999131
20
-0.654268968258634
30
0
41
1
10
15.2009596114359
20
-0.752118663667176
30
0
41
1
10
15.1775169541212
20
-0.80498136450052
30
0
41
1
10
15.1428685330565
20
-0.911031371718622
30
0
41
1
10
15.1311283326303
20
-0.965457355804602
30
0
41
1
10
15.1186621854646
20
-1.07249352089434
30
0
41
1
10
15.117791913146
20
-1.12492224670643
30
0
41
1
10
15.125574519555
20
-1.22823466294605
30
0
41
1
10
15.1343252045533
20
-1.27912596394137
30
0
41
1
10
15.1474510335849
20
-1.32815233797856
30
0
0
SPLINE
5
DA
100
AcDbEntity
8
1
62
256
6
ByLayer
370
13
48
1
60
0
100
AcDbSpline
70
4
71
3
72
14
73
10
40
0
40
0
40
0
40
0
40
0.25
40
0.25
40
0.5
40
0.5
40
0.75
40
0.75
40
1
40
1
40
1
40
1
41
1
10
14.5921177041672
20
-1.64358262808875
30
0
41
1
10
14.6160750143229
20
-1.66821415237354
30
0
41
1
10
14.6435841284795
20
-1.68898464130709
30
0
41
1
10
14.7062227315664
20
-1.72197377749944
30
0
41
1
10
14.7404968038324
20
-1.73360070335244
30
0
41
1
10
14.8128491688207
20
-1.74514706955503
30
0
41
1
10
14.8509822235118
20
-1.74491418151101
30
0
41
1
10
14.9254891929918
20
-1.73124283391911
30
0
41
1
10
14.9623247955527
20
-1.71767545571086
30
0
41
1
10
14.9955768895952
20
-1.69818105833977
30
0
0
SPLINE
5
DB
100
AcDbEntity
8
1
62
256
6
ByLayer
370
13
48
1
60
0
100
AcDbSpline
70
4
71
3
72
8
73
4
40
0
40
0
40
0
40
0
40
1
40
1
40
1
40
1
41
1
10
38.3251476944113
20
3.61978512627368
30
0
41
1
10
38.2722108081693
20
3.74709339734937
30
0
41
1
10
38.2186168545682
20
3.87398570308349
30
0
41
1
10
38.1636359802857
20
4
30
0
0
SPLINE
5
DC
100
AcDbEntity
8
1
62
256
6
ByLayer
370
13
48
1
60
0
100
AcDbSpline
70
4
71
3
72
8
73
4
40
0
40
0
40
0
40
0
40
1
40
1
40
1
40
1
41
1
10
38.3400095123701
20
3.57948606706626
30
0
41
1
10
38.3355762672008
20
3.59318753921974
30
0
41
1
10
38.3306098896354
20
3.60664905651978
30
0
41
1
10
38.3251476944115
20
3.61978512627377
30
0
0
SPLINE
5
DD
100
AcDbEntity
8
1
62
256
6
ByLayer
370
13
48
1
60
0
100
AcDbSpline
70
4
71
3
72
8
73
4
40
0
40
0
40
0
40
0
40
1
40
1
40
1
40
1
41
1
10
38.4272113667649
20
3.30781812899309
30
0
41
1
10
38.3983251913078
20
3.39846043345352
30
0
41
1
10
38.3692784478021
20
3.48902693645647
30
0
41
1
10
38.3400095123699
20
3.57948606706617
30
0
0
SPLINE
5
DE
100
AcDbEntity
8
1
62
256
6
ByLayer
370
13
48
1
60
0
100
AcDbSpline
70
4
71
3
72
14
73
10
40
0
40
0
40
0
40
0
40
0.25
40
0.25
40
0.5
40
0.5
40
0.75
40
0.75
40
1
40
1
40
1
40
1
41
1
10
38.4272113667649
20
2.69218187100691
30
0
41
1
10
38.4429394657892
20
2.74153527684149
30
0
41
1
10
38.4546838041223
20
2.79188887347468
30
0
41
1
10
38.4705031964425
20
2.89452157086364
30
0
41
1
10
38.4745715065341
20
2.94724885861285
30
0
41
1
10
38.4745780733661
20
3.05262218091664
30
0
41
1
10
38.4705909022077
20
3.104648415795
30
0
41
1
10
38.4548311401298
20
3.20741238679426
30
0
41
1
10
38.442940271503
20
3.25846219489873
30
0
41
1
10
38.4272113667649
20
3.30781812899312
30
0
0
SPLINE
5
DF
100
AcDbEntity
8
1
62
256
6
ByLayer
370
13
48
1
60
0
100
AcDbSpline
70
4
71
3
72
8
73
4
40
0
40
0
40
0
40
0
40
1
40
1
40
1
40
1
41
1
10
38.3400095123699
20
2.42051393293383
30
0
41
1
10
38.3692784478021
20
2.51097306354353
30
0
41
1
10
38.3983251913078
20
2.60153956654648
30
0
41
1
10
38.4272113667649
20
2.69218187100691
30
0
0
SPLINE
5
E0
100
AcDbEntity
8
1
62
256
6
ByLayer
370
13
48
1
60
0
100
AcDbSpline
70
4
71
3
72
8
73
4
40
0
40
0
40
0
40
0
40
1
40
1
40
1
40
1
41
1
10
38.3251476944114
20
2.38021487372609
30
0
41
1
10
38.3306098896353
20
2.39335094348013
30
0
41
1
10
38.3355762672008
20
2.40681246078023
30
0
41
1
10
38.3400095123701
20
2.42051393293374
30
0
0
SPLINE
5
E1
100
AcDbEntity
8
1
62
256
6
ByLayer
370
13
48
1
60
0
100
AcDbSpline
70
4
71
3
72
21
73
17
40
0
40
0
40
0
40
0
40
0.18524533262347
40
0.18524533262347
40
0.370490665246939
40
0.370490665246939
40
0.555735997870409
40
0.555735997870409
40
0.648358664182143
40
0.648358664182143
40
0.740981330493878
40
0.833603996805612
40
0.833603996805612
40
0.926226663117347
40
0.926226663117347
40
1
40
1
40
1
40
1
41
1
10
26
20
0.400000000000006
30
0
41
1
10
26
20
0.510209507967346
30
0
41
1
10
26.0112647512056
20
0.618309735603731
30
0
41
1
10
26.0551997215751
20
0.830500791171488
30
0
41
1
10
26.0884914119775
20
0.935634479308476
30
0
41
1
10
26.1737554466031
20
1.13306819668807
30
0
41
1
10
26.2256690682894
20
1.22620969240788
30
0
41
1
10
26.3171783002088
20
1.35771628260463
30
0
41
1
10
26.3498633401328
20
1.39996616710769
30
0
41
1
10
26.4183322186849
20
1.48001632316638
30
0
41
1
10
26.4901973490877
20
1.55605548589423
30
0
41
1
10
26.5686298340805
20
1.62432891863455
30
0
41
1
10
26.6503303271337
20
1.68873318906267
30
0
41
1
10
26.692930827341
20
1.71904600934221
30
0
41
1
10
26.7708807134732
20
1.76903130872185
30
0
41
1
10
26.8060548205872
20
1.7897270126048
30
0
41
1
10
26.8418316731809
20
1.80898238305329
30
0
0
SPLINE
5
E2
100
AcDbEntity
8
1
62
256
6
ByLayer
370
13
48
1
60
0
100
AcDbSpline
70
4
71
3
72
8
73
4
40
0
40
0
40
0
40
0
40
1
40
1
40
1
40
1
41
1
10
38.1636359802857
20
2
30
0
41
1
10
38.2186144224094
20
2.12600872249101
30
0
41
1
10
38.2722089644392
20
2.25290216865162
30
0
41
1
10
38.3251476944113
20
2.38021487372615
30
0
0
INSERT
5
F1
100
AcDbEntity
8
SK2
62
256
6
ByLayer
370
25
48
1
60
0
100
AcDbBlockReference
2
DimnDraft3D11
10
0
20
0
30
0
41
1
42
1
43
1
50
0
210
0
220
0
230
1
0
LINE
5
70
100
AcDbEntity
8
1
62
256
6
ByLayer
370
18
48
1
60
1
100
AcDbLine
10
0
20
0
30
0
11
0
21
297
31
0
39
0
210
0
220
0
230
1
0
LINE
5
72
100
AcDbEntity
8
1
62
256
6
ByLayer
370
18
48
1
60
1
100
AcDbLine
10
420
20
297
30
0
11
0
21
297
31
0
39
0
210
0
220
0
230
1
0
LINE
5
73
100
AcDbEntity
8
1
62
256
6
ByLayer
370
18
48
1
60
1
100
AcDbLine
10
420
20
297
30
0
11
420
21
0
31
0
39
0
210
0
220
0
230
1
0
LINE
5
74
100
AcDbEntity
8
1
62
256
6
ByLayer
370
18
48
1
60
1
100
AcDbLine
10
0
20
0
30
0
11
420
21
0
31
0
39
0
210
0
220
0
230
1
0
LINE
5
75
100
AcDbEntity
8
SK1
62
256
6
ByLayer
370
13
48
1
60
0
100
AcDbLine
10
-3.4
20
1.971281
30
0
11
-3.4
21
2.5
31
0
39
0
210
0
220
0
230
1
0
LINE
5
77
100
AcDbEntity
8
1
62
256
6
ByLayer
370
13
48
1
60
0
100
AcDbLine
10
18.5
20
-4
30
0
11
18.5
21
0.4
31
0
39
0
210
0
220
0
230
1
0
LINE
5
78
100
AcDbEntity
8
1
62
256
6
ByLayer
370
13
48
1
60
0
100
AcDbLine
10
26
20
-4
30
0
11
26
21
0.4
31
0
39
0
210
0
220
0
230
1
0
LINE
5
79
100
AcDbEntity
8
1
62
256
6
ByLayer
370
13
48
1
60
0
100
AcDbLine
10
1.8
20
-4
30
0
11
1.8
21
4
31
0
39
0
210
0
220
0
230
1
0
LINE
5
7A
100
AcDbEntity
8
1
62
256
6
ByLayer
370
13
48
1
60
0
100
AcDbLine
10
18.5
20
-4
30
0
11
1.8
21
-4
31
0
39
0
210
0
220
0
230
1
0
LINE
5
7B
100
AcDbEntity
8
1
62
256
6
ByLayer
370
13
48
1
60
0
100
AcDbLine
10
33.067319
20
4
30
0
11
1.8
21
4
31
0
39
0
210
0
220
0
230
1
0
LINE
5
7C
100
AcDbEntity
8
SK1
62
256
6
ByLayer
370
13
48
1
60
0
100
AcDbLine
10
-3.4
20
2.5
30
0
11
-3.4
21
4
31
0
39
0
210
0
220
0
230
1
0
LINE
5
7D
100
AcDbEntity
8
1
62
256
6
ByLayer
370
13
48
1
60
0
100
AcDbLine
10
33.067319
20
4
30
0
11
33.067319
21
2
31
0
39
0
210
0
220
0
230
1
0
LINE
5
7E
100
AcDbEntity
8
1
62
256
6
ByLayer
370
13
48
1
60
0
100
AcDbLine
10
33.067319
20
4
30
0
11
38.163636
21
4
31
0
39
0
210
0
220
0
230
1
0
LINE
5
7F
100
AcDbEntity
8
1
62
256
6
ByLayer
370
13
48
1
60
0
100
AcDbLine
10
18.499868
20
-4
30
0
11
18.540806
21
-4
31
0
39
0
210
0
220
0
230
1
0
LINE
5
80
100
AcDbEntity
8
1
62
256
6
ByLayer
370
13
48
1
60
0
100
AcDbLine
10
20.1
20
2
30
0
11
33.067319
21
2
31
0
39
0
210
0
220
0
230
1
0
LINE
5
81
100
AcDbEntity
8
1
62
256
6
ByLayer
370
13
48
1
60
0
100
AcDbLine
10
38.163636
20
2
30
0
11
33.067319
21
2
31
0
39
0
210
0
220
0
230
1
0
LINE
5
82
100
AcDbEntity
8
1
62
256
6
ByLayer
370
13
48
1
60
0
100
AcDbLine
10
18.540806
20
-4
30
0
11
18.540806
21
0.4
31
0
39
0
210
0
220
0
230
1
0
LINE
5
83
100
AcDbEntity
8
SK1
62
256
6
ByLayer
370
13
48
1
60
0
100
AcDbLine
10
-65
20
2.5
30
0
11
-65
21
-4
31
0
39
0
210
0
220
0
230
1
0
LINE
5
84
100
AcDbEntity
8
SK1
62
256
6
ByLayer
370
13
48
1
60
0
100
AcDbLine
10
-65
20
4
30
0
11
-65
21
2.5
31
0
39
0
210
0
220
0
230
1
0
LINE
5
85
100
AcDbEntity
8
1
62
256
6
ByLayer
370
13
48
1
60
0
100
AcDbLine
10
18.540806
20
0.4
30
0
11
26
21
0.4
31
0
39
0
210
0
220
0
230
1
0
LINE
5
86
100
AcDbEntity
8
1
62
256
6
ByLayer
370
13
48
1
60
0
100
AcDbLine
10
18.540806
20
-4
30
0
11
26
21
-4
31
0
39
0
210
0
220
0
230
1
0
LINE
5
87
100
AcDbEntity
8
SK1
62
256
6
ByLayer
370
13
48
1
60
0
100
AcDbLine
10
-2.84939
20
-4
30
0
11
1.8
21
-4
31
0
39
0
210
0
220
0
230
1
0
LINE
5
88
100
AcDbEntity
8
SK1
62
256
6
ByLayer
370
13
48
1
60
0
100
AcDbLine
10
-3.4
20
4
30
0
11
1.8
21
4
31
0
39
0
210
0
220
0
230
1
0
LINE
5
89
100
AcDbEntity
8
1
62
256
6
ByLayer
370
13
48
1
60
0
100
AcDbLine
10
38.259082
20
3.775146
30
0
11
39.252768
21
3.775146
31
0
39
0
210
0
220
0
230
1
0
LINE
5
8A
100
AcDbEntity
8
1
62
256
6
ByLayer
370
13
48
1
60
0
100
AcDbLine
10
39.252768
20
2.224854
30
0
11
38.259082
21
2.224854
31
0
39
0
210
0
220
0
230
1
0
LINE
5
8B
100
AcDbEntity
8
1
62
256
6
ByLayer
370
13
48
1
60
0
100
AcDbLine
10
45
20
4.184694
30
0
11
45
21
1.815306
31
0
39
0
210
0
220
0
230
1
0
LINE
5
8C
100
AcDbEntity
8
1
62
256
6
ByLayer
370
13
48
1
60
0
100
AcDbLine
10
25
20
1.815306
30
0
11
25
21
2.000007
31
0
39
0
210
0
220
0
230
1
0
LINE
5
8D
100
AcDbEntity
8
1
62
256
6
ByLayer
370
13
48
1
60
0
100
AcDbLine
10
25
20
3.999993
30
0
11
25
21
4.184694
31
0
39
0
210
0
220
0
230
1
0
LINE
5
8E
100
AcDbEntity
8
1
62
256
6
ByLayer
370
13
48
1
60
0
100
AcDbLine
10
42.019797
20
4.161452
30
0
11
42.019797
21
1.838548
31
0
39
0
210
0
220
0
230
1
0
LINE
5
8F
100
AcDbEntity
8
1
62
256
6
ByLayer
370
13
48
1
60
0
100
AcDbLine
10
44.895722
20
4.284603
30
0
11
42.019797
21
4.161452
31
0
39
0
210
0
220
0
230
1
0
LINE
5
90
100
AcDbEntity
8
1
62
256
6
ByLayer
370
13
48
1
60
0
100
AcDbLine
10
39.252768
20
3.775146
30
0
11
39.797008
21
3.17101
31
0
39
0
210
0
220
0
230
1
0
LINE
5
91
100
AcDbEntity
8
1
62
256
6
ByLayer
370
13
48
1
60
0
100
AcDbLine
10
38.451897
20
3.17101
30
0
11
39.797008
21
3.17101
31
0
39
0
210
0
220
0
230
1
0
LINE
5
92
100
AcDbEntity
8
1
62
256
6
ByLayer
370
13
48
1
60
0
100
AcDbLine
10
38.237297
20
3.826449
30
0
11
39.230378
21
3.826449
31
0
39
0
210
0
220
0
230
1
0
LINE
5
93
100
AcDbEntity
8
1
62
256
6
ByLayer
370
13
48
1
60
0
100
AcDbLine
10
39.230378
20
3.826449
30
0
11
39.230378
21
4
31
0
39
0
210
0
220
0
230
1
0
LINE
5
94
100
AcDbEntity
8
1
62
256
6
ByLayer
370
13
48
1
60
0
100
AcDbLine
10
38.163529
20
4
30
0
11
39.230378
21
4
31
0
39
0
210
0
220
0
230
1
0
LINE
5
95
100
AcDbEntity
8
1
62
256
6
ByLayer
370
13
48
1
60
0
100
AcDbLine
10
39.230378
20
4
30
0
11
41.176675
21
4
31
0
39
0
210
0
220
0
230
1
0
LINE
5
96
100
AcDbEntity
8
1
62
256
6
ByLayer
370
13
48
1
60
0
100
AcDbLine
10
27.980203
20
1.838548
30
0
11
27.980203
21
2.000026
31
0
39
0
210
0
220
0
230
1
0
LINE
5
97
100
AcDbEntity
8
1
62
256
6
ByLayer
370
13
48
1
60
0
100
AcDbLine
10
27.980203
20
3.999974
30
0
11
27.980203
21
4.161452
31
0
39
0
210
0
220
0
230
1
0
LINE
5
98
100
AcDbEntity
8
1
62
256
6
ByLayer
370
13
48
1
60
0
100
AcDbLine
10
25.104278
20
1.715397
30
0
11
27.980203
21
1.838548
31
0
39
0
210
0
220
0
230
1
0
LINE
5
99
100
AcDbEntity
8
1
62
256
6
ByLayer
370
13
48
1
60
0
100
AcDbLine
10
25.104278
20
4.284603
30
0
11
27.980203
21
4.161452
31
0
39
0
210
0
220
0
230
1
0
LINE
5
9A
100
AcDbEntity
8
1
62
256
6
ByLayer
370
13
48
1
60
0
100
AcDbLine
10
44.895722
20
1.715397
30
0
11
42.019797
21
1.838548
31
0
39
0
210
0
220
0
230
1
0
LINE
5
9B
100
AcDbEntity
8
1
62
256
6
ByLayer
370
13
48
1
60
0
100
AcDbLine
10
39.230378
20
2.173551
30
0
11
39.230378
21
2
31
0
39
0
210
0
220
0
230
1
0
LINE
5
9C
100
AcDbEntity
8
1
62
256
6
ByLayer
370
13
48
1
60
0
100
AcDbLine
10
39.230378
20
2
30
0
11
41.176675
21
2
31
0
39
0
210
0
220
0
230
1
0
LINE
5
9D
100
AcDbEntity
8
1
62
256
6
ByLayer
370
13
48
1
60
0
100
AcDbLine
10
41.176675
20
2
30
0
11
41.795906
21
1.837635
31
0
39
0
210
0
220
0
230
1
0
LINE
5
9E
100
AcDbEntity
8
1
62
256
6
ByLayer
370
13
48
1
60
0
100
AcDbLine
10
41.795906
20
1.837635
30
0
11
42.019797
21
1.838548
31
0
39
0
210
0
220
0
230
1
0
LINE
5
9F
100
AcDbEntity
8
1
62
256
6
ByLayer
370
13
48
1
60
0
100
AcDbLine
10
39.252768
20
2.224854
30
0
11
39.797008
21
2.82899
31
0
39
0
210
0
220
0
230
1
0
LINE
5
A0
100
AcDbEntity
8
1
62
256
6
ByLayer
370
13
48
1
60
0
100
AcDbLine
10
41.795906
20
4.162365
30
0
11
42.019797
21
4.161452
31
0
39
0
210
0
220
0
230
1
0
LINE
5
A1
100
AcDbEntity
8
1
62
256
6
ByLayer
370
13
48
1
60
0
100
AcDbLine
10
41.176675
20
4
30
0
11
41.795906
21
4.162365
31
0
39
0
210
0
220
0
230
1
0
LINE
5
A2
100
AcDbEntity
8
1
62
256
6
ByLayer
370
13
48
1
60
0
100
AcDbLine
10
28.204094
20
1.837635
30
0
11
27.980203
21
1.838548
31
0
39
0
210
0
220
0
230
1
0
LINE
5
A3
100
AcDbEntity
8
1
62
256
6
ByLayer
370
13
48
1
60
0
100
AcDbLine
10
28.823325
20
2
30
0
11
28.204094
21
1.837635
31
0
39
0
210
0
220
0
230
1
0
LINE
5
A4
100
AcDbEntity
8
1
62
256
6
ByLayer
370
13
48
1
60
0
100
AcDbLine
10
39.230378
20
2
30
0
11
38.163529
21
2
31
0
39
0
210
0
220
0
230
1
0
LINE
5
A5
100
AcDbEntity
8
1
62
256
6
ByLayer
370
13
48
1
60
0
100
AcDbLine
10
39.797008
20
2.82899
30
0
11
38.450098
21
2.82899
31
0
39
0
210
0
220
0
230
1
0
LINE
5
A6
100
AcDbEntity
8
1
62
256
6
ByLayer
370
13
48
1
60
0
100
AcDbLine
10
39.230378
20
2.173551
30
0
11
38.237297
21
2.173551
31
0
39
0
210
0
220
0
230
1
0
LINE
5
A7
100
AcDbEntity
8
1
62
256
6
ByLayer
370
13
48
1
60
0
100
AcDbLine
10
28.823325
20
4
30
0
11
28.204094
21
4.162365
31
0
39
0
210
0
220
0
230
1
0
LINE
5
A8
100
AcDbEntity
8
1
62
256
6
ByLayer
370
13
48
1
60
0
100
AcDbLine
10
28.204094
20
4.162365
30
0
11
27.980203
21
4.161452
31
0
39
0
210
0
220
0
230
1
0
LINE
5
A9
100
AcDbEntity
8
81
62
256
6
ByLayer
370
18
48
1
60
0
100
AcDbLine
10
45
20
4.289068
30
0
11
45.391328
21
4.289068
31
0
39
0
210
0
220
0
230
1
0
LINE
5
AA
100
AcDbEntity
8
80
62
256
6
ByLayer
370
18
48
1
60
0
100
AcDbLine
10
0
20
0
30
0
11
-0.431886
21
0
31
0
39
0
210
0
220
0
230
1
0
LINE
5
AB
100
AcDbEntity
8
SK1
62
256
6
ByLayer
370
13
48
1
60
0
100
AcDbLine
10
-65
20
-4
30
0
11
-2.84939
21
-4
31
0
39
0
210
0
220
0
230
1
0
LINE
5
AC
100
AcDbEntity
8
SK1
62
256
6
ByLayer
370
13
48
1
60
0
100
AcDbLine
10
-65
20
2.5
30
0
11
-3.4
21
2.5
31
0
39
0
210
0
220
0
230
1
0
LINE
5
AD
100
AcDbEntity
8
SK1
62
256
6
ByLayer
370
13
48
1
60
0
100
AcDbLine
10
-65
20
4
30
0
11
-3.4
21
4
31
0
39
0
210
0
220
0
230
1
0
MTEXT
5
E3
100
AcDbEntity
8
SK6
62
256
6
ByLayer
370
13
48
1
60
0
100
AcDbMText
10
-29.068474
20
-27.310803
30
0
210
0
220
0
230
1
1
\W0.7167;RF123F25-21B1
40
3.5
41
0
44
1.084337
50
0
71
7
72
5
7
iso_b_vert
0
DIMENSION
5
FB
100
AcDbEntity
8
SK2
62
256
6
ByLayer
370
13
48
1
60
0
100
AcDbDimension
2
DimnDraft3D2
10
-75.533057
20
4
30
0
11
-75.533057
21
-0.759868
31
0
70
32
71
5
72
1
41
1
210
0
220
0
230
1
3
Standard
100
AcDbAlignedDimension
13
-66.5875
23
-4
33
0
14
-66.5875
24
4
34
0
50
90
100
AcDbRotatedDimension
1001
ACAD
1000
DSTYLE
1002
{
1070
    74
1070
     0
1070
   279
1070
     0
1070
   172
1070
     1
1070
   173
1070
     1
1070
   340
1005
E4
1070
   271
1070
     2
1070
   272
1070
     2
1070
    77
1070
     1
1070
    73
1070
     0
1070
   171
1070
     3
1070
   274
1070
     4
1070
   177
1070
     7
1070
   176
1070
     7
1070
   178
1070
     7
1070
    78
1070
     8
1070
    48
1040
-0.005
1070
    41
1041
3.5
1070
   147
1041
1.75
1070
    42
1041
1.5875
1070
    44
1041
2.0
1070
   140
1041
3.5
1070
   343
1005
0
1070
   344
1005
0
1002
}
0
DIMENSION
5
105
100
AcDbEntity
8
SK2
62
256
6
ByLayer
370
13
48
1
60
0
100
AcDbDimension
2
DimnDraft3D3
10
45
20
21.277608
30
0
11
-12.454605
21
21.277608
31
0
70
32
71
5
72
1
41
1
210
0
220
0
230
1
3
Standard
100
AcDbAlignedDimension
13
-65
23
4.0875
33
0
14
45
24
5.772194
34
0
50
0
100
AcDbRotatedDimension
1001
ACAD
1000
DSTYLE
1002
{
1070
   279
1070
     0
1070
   172
1070
     1
1070
   173
1070
     1
1070
   340
1005
E4
1070
   271
1070
     2
1070
   272
1070
     2
1070
    77
1070
     1
1070
    73
1070
     0
1070
   171
1070
     3
1070
   274
1070
     4
1070
   177
1070
     7
1070
   176
1070
     7
1070
   178
1070
     7
1070
    78
1070
     8
1070
    48
1040
-0.005
1070
    41
1041
3.5
1070
   147
1041
1.75
1070
    42
1041
1.5875
1070
    44
1041
2.0
1070
   140
1041
3.5
1070
   343
1005
0
1070
   344
1005
0
1002
}
0
DIMENSION
5
10F
100
AcDbEntity
8
SK2
62
256
6
ByLayer
370
13
48
1
60
0
100
AcDbDimension
2
DimnDraft3D4
10
18.540806
20
10.918327
30
0
11
29.725666
21
10.918327
31
0
70
32
71
5
72
1
41
1
210
0
220
0
230
1
3
Standard
100
AcDbAlignedDimension
13
45
23
5.772194
33
0
14
18.540806
24
1.9875
34
0
50
0
100
AcDbRotatedDimension
1001
ACAD
1000
DSTYLE
1002
{
1070
   279
1070
     0
1070
   172
1070
     1
1070
   173
1070
     1
1070
   340
1005
E4
1070
   271
1070
     1
1070
   272
1070
     2
1070
    77
1070
     1
1070
    73
1070
     0
1070
   171
1070
     3
1070
   274
1070
     4
1070
   177
1070
     7
1070
   176
1070
     7
1070
   178
1070
     7
1070
    78
1070
     8
1070
    48
1040
-0.005
1070
    41
1041
3.5
1070
   147
1041
1.75
1070
    42
1041
1.5875
1070
    44
1041
2.0
1070
   140
1041
3.5
1070
   343
1005
0
1070
   344
1005
0
1002
}
0
DIMENSION
5
11A
100
AcDbEntity
8
2
62
256
6
ByLayer
370
13
48
1
60
0
100
AcDbDimension
2
DimnDraft3D5
10
45
20
-15.773511
30
0
11
20.271053
21
-15.773511
31
0
70
32
71
5
72
1
41
1
210
0
220
0
230
1
3
Standard
100
AcDbAlignedDimension
13
0
23
-1.5875
33
0
14
45
24
2.701568
34
0
50
0
100
AcDbRotatedDimension
1001
ACAD
1000
DSTYLE
1002
{
1070
   279
1070
     0
1070
   172
1070
     1
1070
   173
1070
     1
1070
   340
1005
E4
1070
   271
1070
     2
1070
   272
1070
     2
1070
    77
1070
     1
1070
    73
1070
     0
1070
   171
1070
     3
1070
   274
1070
     4
1070
   177
1070
     7
1070
   176
1070
     7
1070
   178
1070
     7
1070
    78
1070
     8
1070
    48
1040
-0.005
1070
    41
1041
3.5
1070
   147
1041
1.75
1070
    42
1041
1.5875
1070
    44
1041
2.0
1070
   140
1041
3.5
1070
   343
1005
0
1070
   344
1005
0
1002
}
0
ENDSEC
0
SECTION
2
OBJECTS
0
DICTIONARY
5
184
330
0
100
AcDbDictionary
280
0
281
1
3
ACAD_GROUP
350
185
3
ACAD_MLINESTYLE
350
186
0
DICTIONARY
5
185
330
0
100
AcDbDictionary
280
0
281
1
0
DICTIONARY
5
186
330
0
100
AcDbDictionary
280
0
281
1
3
Standard
350
18
0
MLINESTYLE
5
18
330
186
100
AcDbMlineStyle
2
Standard
70
0
3

62
256
51
90
52
90
71
2
49
-0.5
62
256
6
ByLayer
49
0.5
62
256
6
ByLayer
0
RASTERVARIABLES
5
173
330

100
AcDbRasterVariables
90
0
70
1
71
1
72
1
0
ENDSEC
0
EOF
