0
SECTION
2
HEADER
9
$ACADVER
1
AC1015
9
$DWGCODEPAGE
3
ANSI_1252
9
$HANDSEED
5
1ee
9
$ANGBASE
50
0
9
$ANGDIR
70
0
9
$ATTMODE
70
1
9
$AUNITS
70
0
9
$AUPREC
70
0
9
$CECOLOR
62
256
9
$CELTSCALE
40
1
9
$CELTYPE
6
ByLayer
9
$CELWEIGHT
370
18
9
$CLAYER
8
0
9
$CMLJUST
70
0
9
$CMLSCALE
40
1
9
$CMLSTYLE
2
Standard
9
$DIMSTYLE
2
Standard
9
$TEXTSIZE
40
0.2
9
$TEXTSTYLE
7
Standard
9
$LUNITS
70
2
9
$LUPREC
70
4
9
$EXTNAMES
290
1
9
$INSUNITS
70
4
9
$LTSCALE
40
1
9
$LWDISPLAY
290
1
9
$PDMODE
70
0
9
$PDSIZE
40
0
9
$PLINEGEN
70
0
0
ENDSEC
0
SECTION
2
CLASSES
0
CLASS
1
RASTERVARIABLES
2
AcDbRasterVariables
3
ISM
90
0
280
0
281
0
0
ENDSEC
0
SECTION
2
TABLES
0
TABLE
2
VPORT
5
1e4
100
AcDbSymbolTable
0
VPORT
5
1
100
AcDbSymbolTableRecord
100
AcDbViewportTableRecord
2
*Active
70
0
10
0
20
0
11
1
21
1
12
-1
22
1
13
0
23
0
14
0.5
24
0.5
15
10
25
10
16
0
26
0
36
1
17
0
27
0
37
0
0
ENDTAB
0
TABLE
2
LTYPE
5
1e5
100
AcDbSymbolTable
0
LTYPE
5
14
100
AcDbSymbolTableRecord
100
AcDbLinetypeTableRecord
70
0
2
ByBlock
3

72
65
73
0
40
0
0
LTYPE
5
15
100
AcDbSymbolTableRecord
100
AcDbLinetypeTableRecord
70
0
2
ByLayer
3

72
65
73
0
40
0
0
LTYPE
5
16
100
AcDbSymbolTableRecord
100
AcDbLinetypeTableRecord
70
0
2
CONTINUOUS
3
Solid line
72
65
73
0
40
0
0
LTYPE
5
6A
100
AcDbSymbolTableRecord
100
AcDbLinetypeTableRecord
70
0
2
CENTER
3
____ _ ____ _ ____ _ ____
72
65
73
4
40
47.5
49
22
74
0
49
-8.5
74
0
49
8.5
74
0
49
-8.5
74
0
0
LTYPE
5
6B
100
AcDbSymbolTableRecord
100
AcDbLinetypeTableRecord
70
0
2
DASHED
3
__ __ __ __ __ __ __ __ __
72
65
73
2
40
25.72
49
12.86
74
0
49
-12.86
74
0
0
ENDTAB
0
TABLE
2
LAYER
5
1e6
100
AcDbSymbolTable
0
LAYER
5
10
100
AcDbSymbolTableRecord
100
AcDbLayerTableRecord
2
0
70
0
62
7
6
CONTINUOUS
290
1
370
-3
390
0
0
LAYER
5
6D
100
AcDbSymbolTableRecord
100
AcDbLayerTableRecord
2
81
70
0
62
-3
6
CONTINUOUS
290
1
370
-3
390
0
0
LAYER
5
6F
100
AcDbSymbolTableRecord
100
AcDbLayerTableRecord
2
80
70
0
62
-6
6
CONTINUOUS
290
1
370
-3
390
0
0
LAYER
5
71
100
AcDbSymbolTableRecord
100
AcDbLayerTableRecord
2
4
70
0
62
-2
6
CENTER
290
1
370
-3
390
0
0
LAYER
5
73
100
AcDbSymbolTableRecord
100
AcDbLayerTableRecord
2
2
70
0
62
7
6
CONTINUOUS
290
1
370
-3
390
0
0
LAYER
5
77
100
AcDbSymbolTableRecord
100
AcDbLayerTableRecord
2
1
70
0
62
4
6
CONTINUOUS
290
1
370
-3
390
0
0
LAYER
5
1d1
100
AcDbSymbolTableRecord
100
AcDbLayerTableRecord
2
SK1
70
0
62
4
6
CONTINUOUS
290
1
370
-3
390
0
0
LAYER
5
1d2
100
AcDbSymbolTableRecord
100
AcDbLayerTableRecord
2
SK6
70
0
62
5
6
CONTINUOUS
290
1
370
-3
390
0
0
LAYER
5
1d3
100
AcDbSymbolTableRecord
100
AcDbLayerTableRecord
2
SK2
70
0
62
7
6
CONTINUOUS
290
1
370
-3
390
0
0
ENDTAB
0
TABLE
2
STYLE
5
1e7
100
AcDbSymbolTable
0
STYLE
5
11
100
AcDbSymbolTableRecord
100
AcDbTextStyleTableRecord
2
Standard
3
txt
70
0
71
0
40
0
41
1
42
0
50
0
0
STYLE
5
119
100
AcDbSymbolTableRecord
100
AcDbTextStyleTableRecord
2
iso_b_vert
3
simplex.shx
70
0
71
0
40
0
41
1
42
0
50
0
0
STYLE
5
11A
100
AcDbSymbolTableRecord
100
AcDbTextStyleTableRecord
2
DWGDirectTextStyle
3
simplex
70
0
71
0
40
0
41
1
42
0
50
0
0
ENDTAB
0
TABLE
2
DIMSTYLE
5
1e8
100
AcDbSymbolTable
100
AcDbDimStyleTable
0
DIMSTYLE
105
27
100
AcDbSymbolTableRecord
100
AcDbDimStyleTableRecord
2
Standard
70
0
3
<>
41
0.18
42
0.0625
44
0.18
140
0.18
147
0.09
73
0
74
0
77
1
271
2
275
0
278
52
280
0
340
11
0
ENDTAB
0
TABLE
2
VIEW
5
1e9
100
AcDbSymbolTable
0
ENDTAB
0
TABLE
2
UCS
5
1ea
100
AcDbSymbolTable
0
ENDTAB
0
TABLE
2
APPID
5
1eb
100
AcDbSymbolTable
0
APPID
5
12
100
AcDbSymbolTableRecord
100
AcDbRegAppTableRecord
2
ACAD
70
0
0
ENDTAB
0
TABLE
2
BLOCK_RECORD
5
1ec
100
AcDbSymbolTable
0
BLOCK_RECORD
5
1F
100
AcDbSymbolTableRecord
100
AcDbBlockTableRecord
2
*Model_Space
340
0
70
0
0
BLOCK_RECORD
5
1B
100
AcDbSymbolTableRecord
100
AcDbBlockTableRecord
2
*Paper_Space
340
0
70
0
0
BLOCK_RECORD
5
23
100
AcDbSymbolTableRecord
100
AcDbBlockTableRecord
2
*Paper_Space0
340
0
70
0
0
BLOCK_RECORD
5
11C
100
AcDbSymbolTableRecord
100
AcDbBlockTableRecord
2
DimnDraft3D1
340
0
70
0
0
BLOCK_RECORD
5
12A
100
AcDbSymbolTableRecord
100
AcDbBlockTableRecord
2
_CLOSED
340
0
70
0
0
BLOCK_RECORD
5
131
100
AcDbSymbolTableRecord
100
AcDbBlockTableRecord
2
DimnDraft3D2
340
0
70
0
0
BLOCK_RECORD
5
13F
100
AcDbSymbolTableRecord
100
AcDbBlockTableRecord
2
DimnDraft3D3
340
0
70
0
0
BLOCK_RECORD
5
14E
100
AcDbSymbolTableRecord
100
AcDbBlockTableRecord
2
DimnDraft3D4
340
0
70
0
0
BLOCK_RECORD
5
15C
100
AcDbSymbolTableRecord
100
AcDbBlockTableRecord
2
DimnDraft3D5
340
0
70
0
0
BLOCK_RECORD
5
16A
100
AcDbSymbolTableRecord
100
AcDbBlockTableRecord
2
DimnDraft3D6
340
0
70
0
0
ENDTAB
0
ENDSEC
0
SECTION
2
BLOCKS
0
BLOCK
5
20
100
AcDbEntity
8
0
100
AcDbBlockBegin
2
*Model_Space
70
0
10
0
20
0
30
0
3
*Model_Space
0
ENDBLK
5
21
100
AcDbEntity
8
0
100
AcDbBlockEnd
0
BLOCK
5
1C
100
AcDbEntity
8
0
100
AcDbBlockBegin
2
*Paper_Space
70
0
10
0
20
0
30
0
3
*Paper_Space
0
ENDBLK
5
1D
100
AcDbEntity
8
0
100
AcDbBlockEnd
0
BLOCK
5
24
100
AcDbEntity
8
0
100
AcDbBlockBegin
2
*Paper_Space0
70
0
10
0
20
0
30
0
3
*Paper_Space0
0
ENDBLK
5
25
100
AcDbEntity
8
0
100
AcDbBlockEnd
0
BLOCK
5
127
100
AcDbEntity
8
0
100
AcDbBlockBegin
2
DimnDraft3D1
70
0
10
0
20
0
30
0
3
DimnDraft3D1
0
MTEXT
5
11D
100
AcDbEntity
8
2
62
256
6
ByLayer
370
18
48
1
60
0
100
AcDbMText
10
34.725
20
16.725
30
0
210
0
220
0
230
1
1
\W0.7121;2.0
40
4.5
41
0
44
1.084337
50
90
71
7
72
5
7
iso_b_vert
0
LINE
5
11E
100
AcDbEntity
8
2
62
256
6
ByLayer
370
13
48
1
60
0
100
AcDbLine
10
23.1
20
3.1
30
0
11
38.85
21
3.1
31
0
39
0
210
0
220
0
230
1
0
LINE
5
11F
100
AcDbEntity
8
2
62
256
6
ByLayer
370
13
48
1
60
0
100
AcDbLine
10
23.1
20
5.1
30
0
11
38.85
21
5.1
31
0
39
0
210
0
220
0
230
1
0
LINE
5
120
100
AcDbEntity
8
2
62
256
6
ByLayer
370
13
48
1
60
0
100
AcDbLine
10
35.85
20
22.8
30
0
11
35.85
21
-8.15
31
0
39
0
210
0
220
0
230
1
0
LINE
5
121
100
AcDbEntity
8
2
62
256
6
ByLayer
370
13
48
1
60
0
100
AcDbLine
10
35.85
20
3.1
30
0
11
36.244957
21
0.100001
31
0
39
0
210
0
220
0
230
1
0
LINE
5
122
100
AcDbEntity
8
2
62
256
6
ByLayer
370
13
48
1
60
0
100
AcDbLine
10
35.85
20
3.1
30
0
11
35.455043
21
0.099999
31
0
39
0
210
0
220
0
230
1
0
LINE
5
123
100
AcDbEntity
8
2
62
256
6
ByLayer
370
13
48
1
60
0
100
AcDbLine
10
36.244957
20
0.100001
30
0
11
35.455043
21
0.099999
31
0
39
0
210
0
220
0
230
1
0
LINE
5
124
100
AcDbEntity
8
2
62
256
6
ByLayer
370
13
48
1
60
0
100
AcDbLine
10
35.85
20
5.1
30
0
11
35.455043
21
8.099999
31
0
39
0
210
0
220
0
230
1
0
LINE
5
125
100
AcDbEntity
8
2
62
256
6
ByLayer
370
13
48
1
60
0
100
AcDbLine
10
35.85
20
5.1
30
0
11
36.244957
21
8.100001
31
0
39
0
210
0
220
0
230
1
0
LINE
5
126
100
AcDbEntity
8
2
62
256
6
ByLayer
370
13
48
1
60
0
100
AcDbLine
10
35.455043
20
8.099999
30
0
11
36.244957
21
8.100001
31
0
39
0
210
0
220
0
230
1
0
ENDBLK
5
128
100
AcDbEntity
8
0
100
AcDbBlockEnd
0
BLOCK
5
12B
100
AcDbEntity
8
0
100
AcDbBlockBegin
2
_CLOSED
70
0
10
0
20
0
30
0
3
_CLOSED
0
LINE
5
12D
100
AcDbEntity
8
0
62
256
6
ByLayer
370
-2
48
1
60
0
100
AcDbLine
10
-1
20
0.166667
30
0
11
0
21
0
31
0
39
0
210
0
220
0
230
1
0
LINE
5
12E
100
AcDbEntity
8
0
62
256
6
ByLayer
370
-2
48
1
60
0
100
AcDbLine
10
0
20
0
30
0
11
-1
21
-0.166667
31
0
39
0
210
0
220
0
230
1
0
LINE
5
12F
100
AcDbEntity
8
0
62
256
6
ByLayer
370
-2
48
1
60
0
100
AcDbLine
10
-1
20
0.166667
30
0
11
-1
21
-0.166667
31
0
39
0
210
0
220
0
230
1
0
LINE
5
130
100
AcDbEntity
8
0
62
256
6
ByLayer
370
-2
48
1
60
0
100
AcDbLine
10
0
20
0
30
0
11
-1
21
0
31
0
39
0
210
0
220
0
230
1
0
ENDBLK
5
12C
100
AcDbEntity
8
0
100
AcDbBlockEnd
0
BLOCK
5
13C
100
AcDbEntity
8
0
100
AcDbBlockBegin
2
DimnDraft3D2
70
0
10
0
20
0
30
0
3
DimnDraft3D2
0
MTEXT
5
132
100
AcDbEntity
8
2
62
256
6
ByLayer
370
18
48
1
60
0
100
AcDbMText
10
44.725
20
16.725
30
0
210
0
220
0
230
1
1
\W0.6563;10.0
40
4.5
41
0
44
1.084337
50
90
71
7
72
5
7
iso_b_vert
0
LINE
5
133
100
AcDbEntity
8
2
62
256
6
ByLayer
370
13
48
1
60
0
100
AcDbLine
10
23.1
20
5.1
30
0
11
48.85
21
5.1
31
0
39
0
210
0
220
0
230
1
0
LINE
5
134
100
AcDbEntity
8
2
62
256
6
ByLayer
370
13
48
1
60
0
100
AcDbLine
10
1.5
20
-4.9
30
0
11
48.85
21
-4.9
31
0
39
0
210
0
220
0
230
1
0
LINE
5
135
100
AcDbEntity
8
2
62
256
6
ByLayer
370
13
48
1
60
0
100
AcDbLine
10
45.85
20
-4.9
30
0
11
45.85
21
25.038158
31
0
39
0
210
0
220
0
230
1
0
LINE
5
136
100
AcDbEntity
8
2
62
256
6
ByLayer
370
13
48
1
60
0
100
AcDbLine
10
45.85
20
5.1
30
0
11
46.244957
21
2.100001
31
0
39
0
210
0
220
0
230
1
0
LINE
5
137
100
AcDbEntity
8
2
62
256
6
ByLayer
370
13
48
1
60
0
100
AcDbLine
10
45.85
20
5.1
30
0
11
45.455043
21
2.099999
31
0
39
0
210
0
220
0
230
1
0
LINE
5
138
100
AcDbEntity
8
2
62
256
6
ByLayer
370
13
48
1
60
0
100
AcDbLine
10
46.244957
20
2.100001
30
0
11
45.455043
21
2.099999
31
0
39
0
210
0
220
0
230
1
0
LINE
5
139
100
AcDbEntity
8
2
62
256
6
ByLayer
370
13
48
1
60
0
100
AcDbLine
10
45.85
20
-4.9
30
0
11
45.455043
21
-1.900001
31
0
39
0
210
0
220
0
230
1
0
LINE
5
13A
100
AcDbEntity
8
2
62
256
6
ByLayer
370
13
48
1
60
0
100
AcDbLine
10
45.85
20
-4.9
30
0
11
46.244957
21
-1.899999
31
0
39
0
210
0
220
0
230
1
0
LINE
5
13B
100
AcDbEntity
8
2
62
256
6
ByLayer
370
13
48
1
60
0
100
AcDbLine
10
45.455043
20
-1.900001
30
0
11
46.244957
21
-1.899999
31
0
39
0
210
0
220
0
230
1
0
ENDBLK
5
13D
100
AcDbEntity
8
0
100
AcDbBlockEnd
0
BLOCK
5
14B
100
AcDbEntity
8
0
100
AcDbBlockBegin
2
DimnDraft3D3
70
0
10
0
20
0
30
0
3
DimnDraft3D3
0
MTEXT
5
140
100
AcDbEntity
8
SK2
62
256
6
ByLayer
370
18
48
1
60
0
100
AcDbMText
10
-114.275
20
16.725
30
0
210
0
220
0
230
1
1
\W0.6563;10.0
40
4.5
41
0
44
1.084337
50
90
71
7
72
5
7
iso_b_vert
0
LINE
5
142
100
AcDbEntity
8
SK2
62
256
6
ByLayer
370
13
48
1
60
0
100
AcDbLine
10
-104.9
20
5.1
30
0
11
-116.15
21
5.1
31
0
39
0
210
0
220
0
230
1
0
LINE
5
143
100
AcDbEntity
8
SK2
62
256
6
ByLayer
370
13
48
1
60
0
100
AcDbLine
10
-104.9
20
-4.9
30
0
11
-116.15
21
-4.9
31
0
39
0
210
0
220
0
230
1
0
LINE
5
144
100
AcDbEntity
8
SK2
62
256
6
ByLayer
370
13
48
1
60
0
100
AcDbLine
10
-113.15
20
-4.9
30
0
11
-113.15
21
25.038158
31
0
39
0
210
0
220
0
230
1
0
LINE
5
145
100
AcDbEntity
8
SK2
62
256
6
ByLayer
370
13
48
1
60
0
100
AcDbLine
10
-113.15
20
5.1
30
0
11
-112.755043
21
2.100001
31
0
39
0
210
0
220
0
230
1
0
LINE
5
146
100
AcDbEntity
8
SK2
62
256
6
ByLayer
370
13
48
1
60
0
100
AcDbLine
10
-113.15
20
5.1
30
0
11
-113.544957
21
2.099999
31
0
39
0
210
0
220
0
230
1
0
LINE
5
147
100
AcDbEntity
8
SK2
62
256
6
ByLayer
370
13
48
1
60
0
100
AcDbLine
10
-112.755043
20
2.100001
30
0
11
-113.544957
21
2.099999
31
0
39
0
210
0
220
0
230
1
0
LINE
5
148
100
AcDbEntity
8
SK2
62
256
6
ByLayer
370
13
48
1
60
0
100
AcDbLine
10
-113.15
20
-4.9
30
0
11
-113.544957
21
-1.900001
31
0
39
0
210
0
220
0
230
1
0
LINE
5
149
100
AcDbEntity
8
SK2
62
256
6
ByLayer
370
13
48
1
60
0
100
AcDbLine
10
-113.15
20
-4.9
30
0
11
-112.755043
21
-1.899999
31
0
39
0
210
0
220
0
230
1
0
LINE
5
14A
100
AcDbEntity
8
SK2
62
256
6
ByLayer
370
13
48
1
60
0
100
AcDbLine
10
-113.544957
20
-1.900001
30
0
11
-112.755043
21
-1.899999
31
0
39
0
210
0
220
0
230
1
0
ENDBLK
5
14C
100
AcDbEntity
8
0
100
AcDbBlockEnd
0
BLOCK
5
159
100
AcDbEntity
8
0
100
AcDbBlockBegin
2
DimnDraft3D4
70
0
10
0
20
0
30
0
3
DimnDraft3D4
0
MTEXT
5
14F
100
AcDbEntity
8
2
62
256
6
ByLayer
370
18
48
1
60
0
100
AcDbMText
10
33.225
20
-18.025
30
0
210
0
220
0
230
1
1
\W0.6563;10.0
40
4.5
41
0
44
1.084337
50
0
71
7
72
5
7
iso_b_vert
0
LINE
5
150
100
AcDbEntity
8
2
62
256
6
ByLayer
370
13
48
1
60
0
100
AcDbLine
10
11.6
20
-6.4
30
0
11
11.6
21
-22.15
31
0
39
0
210
0
220
0
230
1
0
LINE
5
151
100
AcDbEntity
8
2
62
256
6
ByLayer
370
13
48
1
60
0
100
AcDbLine
10
21.6
20
1.6
30
0
11
21.6
21
-22.15
31
0
39
0
210
0
220
0
230
1
0
LINE
5
152
100
AcDbEntity
8
2
62
256
6
ByLayer
370
13
48
1
60
0
100
AcDbLine
10
11.6
20
-19.15
30
0
11
41.538158
21
-19.15
31
0
39
0
210
0
220
0
230
1
0
LINE
5
153
100
AcDbEntity
8
2
62
256
6
ByLayer
370
13
48
1
60
0
100
AcDbLine
10
11.6
20
-19.15
30
0
11
14.599999
21
-18.755043
31
0
39
0
210
0
220
0
230
1
0
LINE
5
154
100
AcDbEntity
8
2
62
256
6
ByLayer
370
13
48
1
60
0
100
AcDbLine
10
11.6
20
-19.15
30
0
11
14.600001
21
-19.544957
31
0
39
0
210
0
220
0
230
1
0
LINE
5
155
100
AcDbEntity
8
2
62
256
6
ByLayer
370
13
48
1
60
0
100
AcDbLine
10
14.599999
20
-18.755043
30
0
11
14.600001
21
-19.544957
31
0
39
0
210
0
220
0
230
1
0
LINE
5
156
100
AcDbEntity
8
2
62
256
6
ByLayer
370
13
48
1
60
0
100
AcDbLine
10
21.6
20
-19.15
30
0
11
18.600001
21
-19.544957
31
0
39
0
210
0
220
0
230
1
0
LINE
5
157
100
AcDbEntity
8
2
62
256
6
ByLayer
370
13
48
1
60
0
100
AcDbLine
10
21.6
20
-19.15
30
0
11
18.599999
21
-18.755043
31
0
39
0
210
0
220
0
230
1
0
LINE
5
158
100
AcDbEntity
8
2
62
256
6
ByLayer
370
13
48
1
60
0
100
AcDbLine
10
18.600001
20
-19.544957
30
0
11
18.599999
21
-18.755043
31
0
39
0
210
0
220
0
230
1
0
ENDBLK
5
15A
100
AcDbEntity
8
0
100
AcDbBlockEnd
0
BLOCK
5
167
100
AcDbEntity
8
0
100
AcDbBlockBegin
2
DimnDraft3D5
70
0
10
0
20
0
30
0
3
DimnDraft3D5
0
MTEXT
5
15D
100
AcDbEntity
8
SK2
62
256
6
ByLayer
370
18
48
1
60
0
100
AcDbMText
10
-46.175658
20
25.975
30
0
210
0
220
0
230
1
1
\W0.6864;125.0
40
4.5
41
0
44
1.084337
50
0
71
7
72
5
7
iso_b_vert
0
LINE
5
15E
100
AcDbEntity
8
SK2
62
256
6
ByLayer
370
13
48
1
60
0
100
AcDbLine
10
21.6
20
6.6
30
0
11
21.6
21
27.85
31
0
39
0
210
0
220
0
230
1
0
LINE
5
15F
100
AcDbEntity
8
SK2
62
256
6
ByLayer
370
13
48
1
60
0
100
AcDbLine
10
-103.4
20
6.6
30
0
11
-103.4
21
27.85
31
0
39
0
210
0
220
0
230
1
0
LINE
5
160
100
AcDbEntity
8
SK2
62
256
6
ByLayer
370
13
48
1
60
0
100
AcDbLine
10
21.6
20
24.85
30
0
11
-103.4
21
24.85
31
0
39
0
210
0
220
0
230
1
0
LINE
5
161
100
AcDbEntity
8
SK2
62
256
6
ByLayer
370
13
48
1
60
0
100
AcDbLine
10
21.6
20
24.85
30
0
11
18.600001
21
24.455043
31
0
39
0
210
0
220
0
230
1
0
LINE
5
162
100
AcDbEntity
8
SK2
62
256
6
ByLayer
370
13
48
1
60
0
100
AcDbLine
10
21.6
20
24.85
30
0
11
18.599999
21
25.244957
31
0
39
0
210
0
220
0
230
1
0
LINE
5
163
100
AcDbEntity
8
SK2
62
256
6
ByLayer
370
13
48
1
60
0
100
AcDbLine
10
18.600001
20
24.455043
30
0
11
18.599999
21
25.244957
31
0
39
0
210
0
220
0
230
1
0
LINE
5
164
100
AcDbEntity
8
SK2
62
256
6
ByLayer
370
13
48
1
60
0
100
AcDbLine
10
-103.4
20
24.85
30
0
11
-100.400001
21
25.244957
31
0
39
0
210
0
220
0
230
1
0
LINE
5
165
100
AcDbEntity
8
SK2
62
256
6
ByLayer
370
13
48
1
60
0
100
AcDbLine
10
-103.4
20
24.85
30
0
11
-100.399999
21
24.455043
31
0
39
0
210
0
220
0
230
1
0
LINE
5
166
100
AcDbEntity
8
SK2
62
256
6
ByLayer
370
13
48
1
60
0
100
AcDbLine
10
-100.400001
20
25.244957
30
0
11
-100.399999
21
24.455043
31
0
39
0
210
0
220
0
230
1
0
ENDBLK
5
168
100
AcDbEntity
8
0
100
AcDbBlockEnd
0
BLOCK
5
175
100
AcDbEntity
8
0
100
AcDbBlockBegin
2
DimnDraft3D6
70
0
10
0
20
0
30
0
3
DimnDraft3D6
0
MTEXT
5
16B
100
AcDbEntity
8
2
62
256
6
ByLayer
370
18
48
1
60
0
100
AcDbMText
10
7.205921
20
15.975
30
0
210
0
220
0
230
1
1
\W0.6563;21.6
40
4.5
41
0
44
1.084337
50
0
71
7
72
5
7
iso_b_vert
0
LINE
5
16C
100
AcDbEntity
8
2
62
256
6
ByLayer
370
13
48
1
60
0
100
AcDbLine
10
21.6
20
5.6
30
0
11
21.6
21
17.85
31
0
39
0
210
0
220
0
230
1
0
LINE
5
16D
100
AcDbEntity
8
2
62
256
6
ByLayer
370
13
48
1
60
0
100
AcDbLine
10
0
20
6.6
30
0
11
0
21
17.85
31
0
39
0
210
0
220
0
230
1
0
LINE
5
16E
100
AcDbEntity
8
2
62
256
6
ByLayer
370
13
48
1
60
0
100
AcDbLine
10
21.6
20
14.85
30
0
11
0
21
14.85
31
0
39
0
210
0
220
0
230
1
0
LINE
5
16F
100
AcDbEntity
8
2
62
256
6
ByLayer
370
13
48
1
60
0
100
AcDbLine
10
21.6
20
14.85
30
0
11
18.600001
21
14.455043
31
0
39
0
210
0
220
0
230
1
0
LINE
5
170
100
AcDbEntity
8
2
62
256
6
ByLayer
370
13
48
1
60
0
100
AcDbLine
10
21.6
20
14.85
30
0
11
18.599999
21
15.244957
31
0
39
0
210
0
220
0
230
1
0
LINE
5
171
100
AcDbEntity
8
2
62
256
6
ByLayer
370
13
48
1
60
0
100
AcDbLine
10
18.600001
20
14.455043
30
0
11
18.599999
21
15.244957
31
0
39
0
210
0
220
0
230
1
0
LINE
5
172
100
AcDbEntity
8
2
62
256
6
ByLayer
370
13
48
1
60
0
100
AcDbLine
10
0
20
14.85
30
0
11
2.999999
21
15.244957
31
0
39
0
210
0
220
0
230
1
0
LINE
5
173
100
AcDbEntity
8
2
62
256
6
ByLayer
370
13
48
1
60
0
100
AcDbLine
10
0
20
14.85
30
0
11
3.000001
21
14.455043
31
0
39
0
210
0
220
0
230
1
0
LINE
5
174
100
AcDbEntity
8
2
62
256
6
ByLayer
370
13
48
1
60
0
100
AcDbLine
10
2.999999
20
15.244957
30
0
11
3.000001
21
14.455043
31
0
39
0
210
0
220
0
230
1
0
ENDBLK
5
176
100
AcDbEntity
8
0
100
AcDbBlockEnd
0
ENDSEC
0
SECTION
2
ENTITIES
0
ELLIPSE
5
CC
100
AcDbEntity
8
1
62
256
6
ByLayer
370
18
48
1
60
0
100
AcDbEllipse
10
9.714922
20
-0.7
30
0
11
4.51818464352504
21
5.53299762220346E-16
31
0
210
0
220
0
230
-1
40
0.851581
41
2.37223954998915
42
2.64560026814813
0
ELLIPSE
5
CD
100
AcDbEntity
8
1
62
256
6
ByLayer
370
18
48
1
60
0
100
AcDbEllipse
10
9.714922
20
-0.7
30
0
11
4.51818464352504
21
5.53299762220346E-16
31
0
210
0
220
0
230
-1
40
0.851581
41
-2.64560026814813
42
-2.37223954998915
0
ELLIPSE
5
CE
100
AcDbEntity
8
1
62
256
6
ByLayer
370
18
48
1
60
0
100
AcDbEllipse
10
8.067993
20
-0.7
30
0
11
3.71936436185417E-15
21
3.175
31
0
210
0
220
0
230
1
40
0.891007
41
2.69410544362856
42
-2.00690236434681
0
ELLIPSE
5
CF
100
AcDbEntity
8
1
62
256
6
ByLayer
370
18
48
1
60
0
100
AcDbEllipse
10
10.330931
20
-0.7
30
0
11
-1.62034540372664E-08
21
3.1749997515598
31
0
210
0
220
0
230
1
40
0.104672
41
-1.2148987884298
42
-1.13469031083779
0
ELLIPSE
5
D0
100
AcDbEntity
8
1
62
256
6
ByLayer
370
18
48
1
60
0
100
AcDbEllipse
10
8.385786
20
-0.7
30
0
11
3.56338580448909
21
4.3637448972978E-16
31
0
210
0
220
0
230
-1
40
0.891007
41
-2.13867589673189
42
-2.01828353675613
0
ELLIPSE
5
D1
100
AcDbEntity
8
1
62
256
6
ByLayer
370
18
48
1
60
0
100
AcDbEllipse
10
11.527376
20
2.7
30
0
11
-0.566886212733119
21
-0.577894872636891
31
0
210
0
220
0
230
1
40
0.975869
41
-2.37801779950236
42
-0.807221472706351
0
ELLIPSE
5
D2
100
AcDbEntity
8
1
62
256
6
ByLayer
370
18
48
1
60
0
100
AcDbEllipse
10
7.990771
20
-0.7
30
0
11
3.71936436185417E-15
21
3.175
31
0
210
0
220
0
230
1
40
0.891007
41
-1.21489876135397
42
-0.0136682751941422
0
ELLIPSE
5
D3
100
AcDbEntity
8
1
62
256
6
ByLayer
370
18
48
1
60
0
100
AcDbEllipse
10
10.330931
20
-0.7
30
0
11
-1.6256245989177E-08
21
-3.17499975075511
31
0
210
0
220
0
230
1
40
0.104672
41
1.13469031090917
42
1.21489878851888
0
ELLIPSE
5
D4
100
AcDbEntity
8
1
62
256
6
ByLayer
370
18
48
1
60
0
100
AcDbEllipse
10
8.853087
20
2.7
30
0
11
-7.78420853927938
21
1.82376742212514E-14
31
0
210
0
220
0
230
1
40
0.102772
41
-1.87378957413289
42
-1.5707963267949
0
ELLIPSE
5
D5
100
AcDbEntity
8
1
62
256
6
ByLayer
370
18
48
1
60
0
100
AcDbEllipse
10
11.40689
20
2.7
30
0
11
9.37162673851604E-16
21
0.799999999998791
31
0
210
0
220
0
230
1
40
0.968413
41
0.302993247345269
42
1.5707963267949
0
ELLIPSE
5
D6
100
AcDbEntity
8
1
62
256
6
ByLayer
370
18
48
1
60
0
100
AcDbEllipse
10
8.385786
20
-0.7
30
0
11
3.56338580448909
21
4.3637448972978E-16
31
0
210
0
220
0
230
-1
40
0.891007
41
2.01828353675613
42
2.13867589673189
0
ELLIPSE
5
D7
100
AcDbEntity
8
1
62
256
6
ByLayer
370
18
48
1
60
0
100
AcDbEllipse
10
8.606055
20
2.7
30
0
11
1.76215141166821
21
2.15794181512596E-16
31
0
210
0
220
0
230
-1
40
0.45399
41
3.14159265358978
42
-1.57079632679491
0
ELLIPSE
5
D8
100
AcDbEntity
8
1
62
256
6
ByLayer
370
18
48
1
60
0
100
AcDbEllipse
10
11.42285
20
2.7
30
0
11
-0.828220452729569
21
1.9404432350495E-15
31
0
210
0
220
0
230
1
40
0.965926
41
-1.5707963267949
42
-1.26780307947073
0
ELLIPSE
5
D9
100
AcDbEntity
8
1
62
256
6
ByLayer
370
18
48
1
60
0
100
AcDbEllipse
10
7.990771
20
-0.7
30
0
11
3.71936436185417E-15
21
3.175
31
0
210
0
220
0
230
1
40
0.891007
41
-3.12792437839566
42
-1.92669389223582
0
ELLIPSE
5
DA
100
AcDbEntity
8
1
62
256
6
ByLayer
370
18
48
1
60
0
100
AcDbEllipse
10
8.067993
20
-0.7
30
0
11
3.71936436185417E-15
21
3.175
31
0
210
0
220
0
230
1
40
0.891007
41
-1.13469028924299
42
0.447487209961237
0
ELLIPSE
5
DB
100
AcDbEntity
8
1
62
256
6
ByLayer
370
18
48
1
60
0
100
AcDbEllipse
10
21.599845
20
13.249721
30
0
11
-0.721591558064701
21
23.1580064095133
31
0
210
0
220
0
230
1
40
0.465312
41
2.02923905522893
42
2.04081681731039
0
ELLIPSE
5
DC
100
AcDbEntity
8
1
62
256
6
ByLayer
370
18
48
1
60
0
100
AcDbEllipse
10
21.400274
20
3.45
30
0
11
2.34290668463255E-16
21
0.2
31
0
210
0
220
0
230
1
40
0.99863
41
3.09795942230517
42
-1.5707963267949
0
ELLIPSE
5
DD
100
AcDbEntity
8
1
62
256
6
ByLayer
370
18
48
1
60
0
100
AcDbEllipse
10
15.856291
20
3.623551
30
0
11
-0.157644820974941
21
5.88109201418875E-10
31
0
210
0
220
0
230
1
40
0.951506
41
-0.349065849840995
42
6.84154986716793E-09
0
ELLIPSE
5
DE
100
AcDbEntity
8
1
62
256
6
ByLayer
370
18
48
1
60
0
100
AcDbEllipse
10
15.856291
20
4.876449
30
0
11
-0.157644820502674
21
2.4434069024816E-10
31
0
210
0
220
0
230
1
40
0.951506
41
0
42
0.349065855393688
0
ELLIPSE
5
DF
100
AcDbEntity
8
1
62
256
6
ByLayer
370
18
48
1
60
0
100
AcDbEllipse
10
15.368951
20
4.25
30
0
11
-0.525482745531935
21
1.23115703716584E-15
31
0
210
0
220
0
230
1
40
0.951506
41
2.79252680320644
42
-2.79252680320644
0
ELLIPSE
5
E0
100
AcDbEntity
8
1
62
256
6
ByLayer
370
18
48
1
60
0
100
AcDbEllipse
10
1.827135
20
5.05
30
0
11
2.34290668463255E-16
21
0.2
31
0
210
0
220
0
230
1
40
0.99863
41
-0.0436332312846265
42
1.5707963267949
0
ELLIPSE
5
E1
100
AcDbEntity
8
1
62
256
6
ByLayer
370
18
48
1
60
0
100
AcDbEllipse
10
21.400274
20
5.05
30
0
11
-2.14373874554696E-16
21
-0.2
31
0
210
0
220
0
230
1
40
0.99863
41
1.5707963267949
42
-3.09795942230517
0
ELLIPSE
5
E2
100
AcDbEntity
8
1
62
256
6
ByLayer
370
18
48
1
60
0
100
AcDbEllipse
10
7.858547
20
-0.7
30
0
11
-3.21560811832045E-15
21
-3
31
0
210
0
220
0
230
1
40
0.891007
41
3.14159258717257
42
-2.90740745111097E-16
0
ELLIPSE
5
E3
100
AcDbEntity
8
1
62
256
6
ByLayer
370
18
48
1
60
0
100
AcDbEllipse
10
8.040143
20
-0.7
30
0
11
-3.21560811832045E-15
21
-3
31
0
210
0
220
0
230
1
40
0.891007
41
2.63569822866403
42
-2.90740745111097E-16
0
ELLIPSE
5
E4
100
AcDbEntity
8
1
62
256
6
ByLayer
370
18
48
1
60
0
100
AcDbEllipse
10
8.040143
20
-0.7
30
0
11
-3.21560811832045E-15
21
-3
31
0
210
0
220
0
230
1
40
0.891007
41
0
42
0.493328164332793
0
ELLIPSE
5
E5
100
AcDbEntity
8
1
62
256
6
ByLayer
370
18
48
1
60
0
100
AcDbEllipse
10
8.130941
20
-0.7
30
0
11
-3.00123424376575E-15
21
-2.8
31
0
210
0
220
0
230
1
40
0.891007
41
0
42
6.28318530717959
0
ELLIPSE
5
E6
100
AcDbEntity
8
1
62
256
6
ByLayer
370
18
48
1
60
0
100
AcDbEllipse
10
8.130941
20
-0.7
30
0
11
1.96394152839324E-15
21
1.6765
31
0
210
0
220
0
230
1
40
0.891007
41
-0.526389323279637
42
0.526389323279634
0
ELLIPSE
5
E7
100
AcDbEntity
8
1
62
256
6
ByLayer
370
18
48
1
60
0
100
AcDbEllipse
10
8.007749
20
-0.7
30
0
11
1.41335845750459E-15
21
1.2065
31
0
210
0
220
0
230
1
40
0.891007
41
3.07256002017786
42
-3.07256002017785
0
ELLIPSE
5
E8
100
AcDbEntity
8
1
62
256
6
ByLayer
370
18
48
1
60
0
100
AcDbEllipse
10
8.130941
20
-0.7
30
0
11
1.96394152839324E-15
21
1.6765
31
0
210
0
220
0
230
1
40
0.891007
41
0.526389323279633
42
1.5707963267949
0
ELLIPSE
5
E9
100
AcDbEntity
8
1
62
256
6
ByLayer
370
18
48
1
60
0
100
AcDbEllipse
10
8.130941
20
-0.7
30
0
11
1.96394152839324E-15
21
1.6765
31
0
210
0
220
0
230
1
40
0.891007
41
2.61520333031016
42
-2.61520333031018
0
ELLIPSE
5
EA
100
AcDbEntity
8
1
62
256
6
ByLayer
370
18
48
1
60
0
100
AcDbEllipse
10
8.007749
20
-0.7
30
0
11
1.41335845750459E-15
21
1.2065
31
0
210
0
220
0
230
1
40
0.891007
41
-0.0690326334119334
42
0.0690326334119191
0
ELLIPSE
5
EB
100
AcDbEntity
8
1
62
256
6
ByLayer
370
18
48
1
60
0
100
AcDbEllipse
10
8.82065
20
0.243962
30
0
11
-7.35302389722609E-16
21
-0.686
31
0
210
0
220
0
230
1
40
0.891007
41
-1.83258346865807
42
-1.04859282503727
0
ELLIPSE
5
EC
100
AcDbEntity
8
1
62
256
6
ByLayer
370
18
48
1
60
0
100
AcDbEllipse
10
8.82065
20
-1.643962
30
0
11
-7.35302389722609E-16
21
-0.686
31
0
210
0
220
0
230
1
40
0.891007
41
-2.87699047217334
42
-2.09299982855252
0
ELLIPSE
5
ED
100
AcDbEntity
8
1
62
256
6
ByLayer
370
18
48
1
60
0
100
AcDbEllipse
10
8.130941
20
-0.7
30
0
11
1.96394152839324E-15
21
1.6765
31
0
210
0
220
0
230
1
40
0.891007
41
1.5707963267949
42
2.61520333031016
0
ELLIPSE
5
EE
100
AcDbEntity
8
1
62
256
6
ByLayer
370
18
48
1
60
0
100
AcDbEllipse
10
8.82065
20
-1.643962
30
0
11
-7.35302389722609E-16
21
-0.686
31
0
210
0
220
0
230
1
40
0.891007
41
-2.09299982855252
42
-1.30900918493171
0
ELLIPSE
5
EF
100
AcDbEntity
8
1
62
256
6
ByLayer
370
18
48
1
60
0
100
AcDbEllipse
10
7.359157
20
-0.7
30
0
11
1.41335845750462E-15
21
1.20650000000003
31
0
210
0
220
0
230
1
40
0.891007
41
-3.07256002017774
42
-2.09299982855252
0
ELLIPSE
5
F0
100
AcDbEntity
8
1
62
256
6
ByLayer
370
18
48
1
60
0
100
AcDbEllipse
10
7.359157
20
-0.7
30
0
11
1.41335845750462E-15
21
1.20650000000003
31
0
210
0
220
0
230
1
40
0.891007
41
0.0690326334120502
42
0.135933106215032
0
ELLIPSE
5
F1
100
AcDbEntity
8
1
62
256
6
ByLayer
370
18
48
1
60
0
100
AcDbEllipse
10
8.82065
20
0.243962
30
0
11
-7.35302389722609E-16
21
-0.686
31
0
210
0
220
0
230
1
40
0.891007
41
-1.04859282503727
42
-0.264602181416481
0
ELLIPSE
5
F2
100
AcDbEntity
8
1
62
256
6
ByLayer
370
18
48
1
60
0
100
AcDbEllipse
10
7.359157
20
-0.7
30
0
11
1.41335845750459E-15
21
1.2065
31
0
210
0
220
0
230
1
40
0.891007
41
-1.04859282503728
42
-0.06903263341205
0
ELLIPSE
5
F3
100
AcDbEntity
8
1
62
256
6
ByLayer
370
18
48
1
60
0
100
AcDbEllipse
10
8.130941
20
-0.7
30
0
11
1.96394152839324E-15
21
1.6765
31
0
210
0
220
0
230
1
40
0.891007
41
-2.61520333031018
42
-1.5707963267949
0
ELLIPSE
5
F4
100
AcDbEntity
8
1
62
256
6
ByLayer
370
18
48
1
60
0
100
AcDbEllipse
10
8.130941
20
-0.7
30
0
11
1.96394152839324E-15
21
1.6765
31
0
210
0
220
0
230
1
40
0.891007
41
-1.5707963267949
42
-0.526389323279637
0
ELLIPSE
5
F5
100
AcDbEntity
8
1
62
256
6
ByLayer
370
18
48
1
60
0
100
AcDbEllipse
10
7.359157
20
1.18456
30
0
11
-7.35302389722609E-16
21
-0.686
31
0
210
0
220
0
230
1
40
0.891007
41
-0.221140656324745
42
-0.121614041217165
0
ELLIPSE
5
F6
100
AcDbEntity
8
1
62
256
6
ByLayer
370
18
48
1
60
0
100
AcDbEllipse
10
7.978935
20
-1.897076
30
0
11
-3.12985856849857E-16
21
-0.292
31
0
210
0
220
0
230
1
40
0.891007
41
1.39796909666806
42
1.83258346865804
0
ELLIPSE
5
F7
100
AcDbEntity
8
1
62
256
6
ByLayer
370
18
48
1
60
0
100
AcDbEllipse
10
7.978935
20
0.497076
30
0
11
-3.12985856849857E-16
21
-0.292
31
0
210
0
220
0
230
1
40
0.891007
41
1.30900918493173
42
1.72160902068967
0
ELLIPSE
5
F8
100
AcDbEntity
8
1
62
256
6
ByLayer
370
18
48
1
60
0
100
AcDbEllipse
10
7.359157
20
-2.58456
30
0
11
-7.35302389722609E-16
21
-0.686
31
0
210
0
220
0
230
1
40
0.891007
41
-3.01997861237263
42
-2.91697773611041
0
ELLIPSE
5
F9
100
AcDbEntity
8
1
62
256
6
ByLayer
370
18
48
1
60
0
100
AcDbEllipse
10
7.359157
20
-0.7
30
0
11
1.41335845750462E-15
21
1.20650000000003
31
0
210
0
220
0
230
1
40
0.891007
41
3.01139900816581
42
3.07256002017774
0
ELLIPSE
5
FA
100
AcDbEntity
8
1
62
256
6
ByLayer
370
18
48
1
60
0
100
AcDbEllipse
10
7.359157
20
-0.7
30
0
11
1.41335845750462E-15
21
1.20650000000003
31
0
210
0
220
0
230
1
40
0.891007
41
-2.09299982855252
42
-1.04859282503727
0
ELLIPSE
5
FB
100
AcDbEntity
8
1
62
256
6
ByLayer
370
18
48
1
60
0
100
AcDbEllipse
10
8.592756
20
-0.7
30
0
11
-3.12985856849857E-16
21
-0.292
31
0
210
0
220
0
230
1
40
0.891007
41
0.264602181416557
42
2.87699047217323
0
POINT
5
6C
100
AcDbEntity
8
81
62
256
6
ByLayer
370
18
48
1
60
0
100
AcDbPoint
10
21.6
20
5.25
30
0
39
0
210
0
220
0
230
1
50
360
0
POINT
5
6E
100
AcDbEntity
8
80
62
256
6
ByLayer
370
18
48
1
60
0
100
AcDbPoint
10
0
20
0
30
0
39
0
210
0
220
0
230
1
50
360
0
POINT
5
70
100
AcDbEntity
8
4
62
256
6
ByLayer
370
13
48
1
60
0
100
AcDbPoint
10
5.494159
20
-0.7
30
0
39
0
210
0
220
0
230
1
50
360
0
POINT
5
72
100
AcDbEntity
8
2
62
256
6
ByLayer
370
18
48
1
60
0
100
AcDbPoint
10
21.6
20
4.25
30
0
39
0
210
0
220
0
230
1
50
360
0
SPLINE
5
FC
100
AcDbEntity
8
1
62
256
6
ByLayer
370
18
48
1
60
0
100
AcDbSpline
70
4
71
3
72
26
73
22
40
0
40
0
40
0
40
0
40
0.021737714208182
40
0.0778763962511059
40
0.134095048075716
40
0.19039227260547
40
0.246760572050211
40
0.303189223479563
40
0.35966671423919
40
0.4161823564915
40
0.472727031137726
40
0.529293207209155
40
0.585874449269727
40
0.642462672019958
40
0.699050717205703
40
0.755629666379385
40
0.812188150807553
40
0.868712214697556
40
0.925185929361304
40
0.981592981793577
40
1
40
1
40
1
40
1
41
1
10
9.32275961131927
20
-3.33282429402559
30
0
41
1
10
9.36053945488004
20
-3.31251453162343
30
0
41
1
10
9.49339603241933
20
-3.23544931170795
30
0
41
1
10
9.70407723371025
20
-3.06775087262474
30
0
41
1
10
9.94799927824982
20
-2.82991006465701
30
0
41
1
10
10.1635485808161
20
-2.55929004647268
30
0
41
1
10
10.3486981392393
20
-2.26216671219174
30
0
41
1
10
10.5004363483074
20
-1.94217211131993
30
0
41
1
10
10.6166126138459
20
-1.60410312842899
30
0
41
1
10
10.6954909483312
20
-1.25280743443349
30
0
41
1
10
10.735903731204
20
-0.893386586781247
30
0
41
1
10
10.7372313478984
20
-0.53104481073018
30
0
41
1
10
10.699417255564
20
-0.171040810524715
30
0
41
1
10
10.6229700678894
20
0.181399625041593
30
0
41
1
10
10.5089482578281
20
0.521129819227298
30
0
41
1
10
10.3589902896602
20
0.843243482603214
30
0
41
1
10
10.175144934829
20
1.14281620136424
30
0
41
1
10
9.96043198260548
20
1.41619147852094
30
0
41
1
10
9.71664461006594
20
1.65652926738576
30
0
41
1
10
9.51160623668756
20
1.82273741986091
30
0
41
1
10
9.38431104292238
20
1.89749646728117
30
0
41
1
10
9.35247264989999
20
1.91500420088627
30
0
0
SPLINE
5
FD
100
AcDbEntity
8
1
62
256
6
ByLayer
370
18
48
1
60
0
100
AcDbSpline
70
4
71
3
72
8
73
4
40
0
40
0
40
0
40
0
40
1
40
1
40
1
40
1
41
1
10
10.6424383925668
20
-1.8062710418132
30
0
41
1
10
10.6447171216891
20
-1.68522537218274
30
0
41
1
10
10.6466095708037
20
-1.56197063324078
30
0
41
1
10
10.6481149225517
20
-1.43724439887686
30
0
0
SPLINE
5
FE
100
AcDbEntity
8
1
62
256
6
ByLayer
370
18
48
1
60
0
100
AcDbSpline
70
4
71
3
72
8
73
4
40
0
40
0
40
0
40
0
40
1
40
1
40
1
40
1
41
1
10
10.6481057532521
20
0.0380403474276818
30
0
41
1
10
10.6466029383141
20
0.162401186217664
30
0
41
1
10
10.6447140861193
20
0.285386621092499
30
0
41
1
10
10.6424383925668
20
0.406271041815131
30
0
0
SPLINE
5
FF
100
AcDbEntity
8
1
62
256
6
ByLayer
370
18
48
1
60
0
100
AcDbSpline
70
4
71
3
72
8
73
4
40
0
40
0
40
0
40
0
40
1
40
1
40
1
40
1
41
1
10
14.7927158449528
20
3.50000000000173
30
0
41
1
10
14.8457731973076
20
3.62281565271925
30
0
41
1
10
14.8980372653284
20
3.74610873066456
30
0
41
1
10
14.9498799513891
20
3.86964356443357
30
0
0
SPLINE
5
100
100
AcDbEntity
8
1
62
256
6
ByLayer
370
18
48
1
60
0
100
AcDbSpline
70
4
71
3
72
12
73
8
40
0
40
0
40
0
40
0
40
0.367292260733845
40
0.367292260733845
40
0.734922303957997
40
0.734922303957997
40
1
40
1
40
1
40
1
41
1
10
14.9498799513891
20
3.8696435644336
30
0
41
1
10
14.9859615951921
20
3.95562174589
30
0
41
1
10
15.0100076317368
20
4.05010421876722
30
0
41
1
10
15.0299146820519
20
4.2406059378828
30
0
41
1
10
15.0260230842774
20
4.33924862202011
30
0
41
1
10
14.99597997168
20
4.50113656782469
30
0
41
1
10
14.976098155032
20
4.56788163585773
30
0
41
1
10
14.9498799513942
20
4.63035643556898
30
0
0
SPLINE
5
101
100
AcDbEntity
8
1
62
256
6
ByLayer
370
18
48
1
60
0
100
AcDbSpline
70
4
71
3
72
8
73
4
40
0
40
0
40
0
40
0
40
1
40
1
40
1
40
1
41
1
10
14.9498799513891
20
4.63035643556685
30
0
41
1
10
14.8980372653282
20
4.75389126933638
30
0
41
1
10
14.8457731973072
20
4.8771843472822
30
0
41
1
10
14.7927158449521
20
5.00000000000023
30
0
0
SPLINE
5
102
100
AcDbEntity
8
1
62
256
6
ByLayer
370
18
48
1
60
0
100
AcDbSpline
70
4
71
3
72
16
73
12
40
0
40
0
40
0
40
0
40
0.181172914282633
40
0.181172914282633
40
0.470340002621112
40
0.470340002621112
40
0.707827325902502
40
0.707827325902502
40
0.947524958742685
40
0.947524958742685
40
1
40
1
40
1
40
1
41
1
10
17.6245620745653
20
3.45349536079692
30
0
41
1
10
17.5688421214557
20
3.43609121896117
30
0
41
1
10
17.5144594764372
20
3.41369840200807
30
0
41
1
10
17.3791007260502
20
3.34186009374713
30
0
41
1
10
17.3000584888044
20
3.28304047949442
30
0
41
1
10
17.1784583624301
20
3.1518141524864
30
0
41
1
10
17.1307269981752
20
3.08214068824688
30
0
41
1
10
17.0606305520714
20
2.92937612754204
30
0
41
1
10
17.0376336873208
20
2.84366976470895
30
0
41
1
10
17.0292311626677
20
2.73852740933029
30
0
41
1
10
17.0284610376247
20
2.71925396176309
30
0
41
1
10
17.0284610376247
20
2.70000000000172
30
0
0
SPLINE
5
103
100
AcDbEntity
8
1
62
256
6
ByLayer
370
18
48
1
60
0
100
AcDbSpline
70
4
71
3
72
16
73
12
40
0
40
0
40
0
40
0
40
0.117210139058286
40
0.117210139058286
40
0.357692783870461
40
0.357692783870461
40
0.573925180696678
40
0.573925180696678
40
0.789866778965455
40
0.789866778965455
40
1
40
1
40
1
40
1
41
1
10
12.6706044722853
20
3.45868719769061
30
0
41
1
10
12.63279313141
20
3.44641831936502
30
0
41
1
10
12.5961660763802
20
3.43136638484339
30
0
41
1
10
12.4907528215344
20
3.3771036473909
30
0
41
1
10
12.4264924080964
20
3.32781947289837
30
0
41
1
10
12.3301839849965
20
3.21800419727515
30
0
41
1
10
12.2942665669827
20
3.15769838012088
30
0
41
1
10
12.2465917756209
20
3.03120389290908
30
0
41
1
10
12.2341155492468
20
2.96352184648774
30
0
41
1
10
12.2308079843893
20
2.83065823672433
30
0
41
1
10
12.2392867095938
20
2.76418740990354
30
0
41
1
10
12.2561471840258
20
2.70000000000118
30
0
0
SPLINE
5
104
100
AcDbEntity
8
1
62
256
6
ByLayer
370
18
48
1
60
0
100
AcDbSpline
70
4
71
3
72
16
73
12
40
0
40
0
40
0
40
0
40
0.0624381308002549
40
0.0624381308002549
40
0.283176804509575
40
0.283176804509575
40
0.506689877746565
40
0.506689877746565
40
0.7445252764578
40
0.7445252764578
40
1
40
1
40
1
40
1
41
1
10
8.8814343795602
20
0.749546762837838
30
0
41
1
10
8.87493717170713
20
0.753783968775053
30
0
41
1
10
8.86818922874147
20
0.757709251946579
30
0
41
1
10
8.83682370465311
20
0.773894086536899
30
0
41
1
10
8.8094120832601
20
0.782415588629561
30
0
41
1
10
8.75275215146783
20
0.790380001582378
30
0
41
1
10
8.72276962479327
20
0.789832321180057
30
0
41
1
10
8.6623842118106
20
0.780181426719054
30
0
41
1
10
8.63131982276306
20
0.770442932604738
30
0
41
1
10
8.57117020331367
20
0.742761369635389
30
0
41
1
10
8.54166250122964
20
0.723962540379347
30
0
41
1
10
8.51542393151212
20
0.702336787651035
30
0
0
SPLINE
5
105
100
AcDbEntity
8
1
62
256
6
ByLayer
370
18
48
1
60
0
100
AcDbSpline
70
4
71
3
72
12
73
8
40
0
40
0
40
0
40
0
40
0.322038032642819
40
0.322038032642819
40
0.79134810779263
40
0.79134810779263
40
1
40
1
40
1
40
1
41
1
10
8.08189978337722
20
0.503626350896866
30
0
41
1
10
8.13053384739575
20
0.509942647958837
30
0
41
1
10
8.18080784822814
20
0.52225949397706
30
0
41
1
10
8.30051082610456
20
0.564121332210249
30
0
41
1
10
8.37014622140867
20
0.599517019908291
30
0
41
1
10
8.46184302238649
20
0.660418959687235
30
0
41
1
10
8.48926904992072
20
0.680780010432471
30
0
41
1
10
8.51542393151212
20
0.702336787651035
30
0
0
SPLINE
5
106
100
AcDbEntity
8
1
62
256
6
ByLayer
370
18
48
1
60
0
100
AcDbSpline
70
4
71
3
72
12
73
8
40
0
40
0
40
0
40
0
40
0.495447747561367
40
0.495447747561367
40
0.900382671296224
40
0.900382671296224
40
1
40
1
40
1
40
1
41
1
10
8.51542393151212
20
-2.10233678764917
30
0
41
1
10
8.45387460612335
20
-2.05160801295668
30
0
41
1
10
8.38457938280061
20
-2.00712335145391
30
0
41
1
10
8.25248901057984
20
-1.94510990102972
30
0
41
1
10
8.18935324710401
20
-1.92358501526044
30
0
41
1
10
8.11230162245454
20
-1.90812420466469
30
0
41
1
10
8.09703428201229
20
-1.90559192772253
30
0
41
1
10
8.08189978337725
20
-1.903626350895
30
0
0
SPLINE
5
107
100
AcDbEntity
8
1
62
256
6
ByLayer
370
18
48
1
60
0
100
AcDbSpline
70
4
71
3
72
18
73
14
40
0
40
0
40
0
40
0
40
0.212077939306754
40
0.212077939306754
40
0.386277180668965
40
0.386277180668965
40
0.562162788938109
40
0.562162788938109
40
0.715139313179695
40
0.715139313179695
40
0.917926548134251
40
0.917926548134251
40
1
40
1
40
1
40
1
41
1
10
9.38312222890366
20
-0.981837412129494
30
0
41
1
10
9.30552832736055
20
-1.00036252184771
30
0
41
1
10
9.22940614102708
20
-1.03026333740865
30
0
41
1
10
9.10505207765462
20
-1.10532831793103
30
0
41
1
10
9.05303182872433
20
-1.14779489121591
30
0
41
1
10
8.96784978509606
20
-1.24624704025325
30
0
41
1
10
8.93388000818516
20
-1.30394370805595
30
0
41
1
10
8.89418577281205
20
-1.41642408744377
30
0
41
1
10
8.88474332847855
20
-1.47191390291704
30
0
41
1
10
8.88234695550139
20
-1.59856639935876
30
0
41
1
10
8.89535125307384
20
-1.67110383773064
30
0
41
1
10
8.92830257210585
20
-1.76729087965941
30
0
41
1
10
8.9396563550936
20
-1.79473938278085
30
0
41
1
10
8.95256923257074
20
-1.82150404177492
30
0
0
SPLINE
5
108
100
AcDbEntity
8
1
62
256
6
ByLayer
370
18
48
1
60
0
100
AcDbSpline
70
4
71
3
72
14
73
10
40
0
40
0
40
0
40
0
40
0.283961749036687
40
0.283961749036687
40
0.570285189258996
40
0.570285189258996
40
0.82945109433565
40
0.82945109433565
40
1
40
1
40
1
40
1
41
1
10
8.95256923257074
20
0.421504041776785
30
0
41
1
10
8.96819325170691
20
0.453888113029478
30
0
41
1
10
8.97858857717813
20
0.488825541959869
30
0
41
1
10
8.98610736791477
20
0.558504214614942
30
0
41
1
10
8.98317647797836
20
0.594314822842875
30
0
41
1
10
8.96395935754836
20
0.65690846987124
30
0
41
1
10
8.94862115452088
20
0.685143733534204
30
0
41
1
10
8.91480056698549
20
0.724276132432692
30
0
41
1
10
8.89894501634728
20
0.738127061354334
30
0
41
1
10
8.8814343795602
20
0.749546762837838
30
0
0
SPLINE
5
109
100
AcDbEntity
8
1
62
256
6
ByLayer
370
18
48
1
60
0
100
AcDbSpline
70
4
71
3
72
16
73
12
40
0
40
0
40
0
40
0
40
0.0620393275786563
40
0.0620393275786563
40
0.284918893961871
40
0.284918893961871
40
0.510542617547336
40
0.510542617547336
40
0.750580338324056
40
0.750580338324056
40
1
40
1
40
1
40
1
41
1
10
6.63716865788427
20
-0.699999999999051
30
0
41
1
10
6.63716865788427
20
-0.708300761114231
30
0
41
1
10
6.63740806530632
20
-0.716610734974182
30
0
41
1
10
6.63958494204903
20
-0.754362833713117
30
0
41
1
10
6.64442265640645
20
-0.783744980187578
30
0
41
1
10
6.65937153161172
20
-0.838023485146664
30
0
41
1
10
6.66972049943922
20
-0.863560064295626
30
0
41
1
10
6.69478615117774
20
-0.909173473867696
30
0
41
1
10
6.71003473444887
20
-0.929388829332765
30
0
41
1
10
6.74314000448391
20
-0.961842178745371
30
0
41
1
10
6.76143870501662
20
-0.974131869777011
30
0
41
1
10
6.77984103810746
20
-0.981837412129522
30
0
0
SPLINE
5
10A
100
AcDbEntity
8
1
62
256
6
ByLayer
370
18
48
1
60
0
100
AcDbSpline
70
4
71
3
72
16
73
12
40
0
40
0
40
0
40
0
40
0.14231907794739
40
0.14231907794739
40
0.364748229791868
40
0.364748229791868
40
0.594359598464841
40
0.594359598464841
40
0.841957615948614
40
0.841957615948614
40
1
40
1
40
1
40
1
41
1
10
8.8814343795602
20
-2.14954676283597
30
0
41
1
10
8.89601753182023
20
-2.14003624374274
30
0
41
1
10
8.90944443225817
20
-2.12885885499887
30
0
41
1
10
8.9397360305112
20
-2.09698407294201
30
0
41
1
10
8.9546284551578
20
-2.07400443306122
30
0
41
1
10
8.97571768881639
20
-2.02404956450565
30
0
41
1
10
8.98190828940278
20
-1.99635273954621
30
0
41
1
10
8.9852415567251
20
-1.93840937635858
30
0
41
1
10
8.98171135599577
20
-1.90741635961956
30
0
41
1
10
8.96843193146128
20
-1.85851105757428
30
0
41
1
10
8.96132346811669
20
-1.83964903924405
30
0
41
1
10
8.95256923257074
20
-1.82150404177494
30
0
0
SPLINE
5
10B
100
AcDbEntity
8
1
62
256
6
ByLayer
370
18
48
1
60
0
100
AcDbSpline
70
4
71
3
72
12
73
8
40
0
40
0
40
0
40
0
40
0.322038032636972
40
0.322038032636972
40
0.791348107785068
40
0.791348107785068
40
1
40
1
40
1
40
1
41
1
10
7.93359756299478
20
-1.903626350895
30
0
41
1
10
7.8901355314116
20
-1.90994264795685
30
0
41
1
10
7.84990538822913
20
-1.92225949397474
30
0
41
1
10
7.7629981337306
20
-1.9641213322071
30
0
41
1
10
7.72013828483063
20
-1.99951701990471
30
0
41
1
10
7.67124937074931
20
-2.06041895968386
30
0
41
1
10
7.65777193961469
20
-2.0807800104298
30
0
41
1
10
7.64596020340329
20
-2.10233678764914
30
0
0
SPLINE
5
10C
100
AcDbEntity
8
1
62
256
6
ByLayer
370
18
48
1
60
0
100
AcDbSpline
70
4
71
3
72
18
73
14
40
0
40
0
40
0
40
0
40
0.212077939306977
40
0.212077939306977
40
0.38627718066915
40
0.38627718066915
40
0.562162788938249
40
0.562162788938249
40
0.71513931317979
40
0.71513931317979
40
0.917926548134295
40
0.917926548134295
40
1
40
1
40
1
40
1
41
1
10
6.77984103810726
20
-0.418162587868693
30
0
41
1
10
6.82408260138516
20
-0.399637478150481
30
0
41
1
10
6.86870379916701
20
-0.369736662589531
30
0
41
1
10
6.94698165406137
20
-0.294671682067104
30
0
41
1
10
6.98206776768137
20
-0.252205108782221
30
0
41
1
10
7.04764155234528
20
-0.153752959744878
30
0
41
1
10
7.07906453860829
20
-0.0960562919421761
30
0
41
1
10
7.12899940886899
20
0.0164240874456709
30
0
41
1
10
7.14925551711426
20
0.071913902918908
30
0
41
1
10
7.18609225991128
20
0.198566399360658
30
0
41
1
10
7.20002983673311
20
0.271103837732539
30
0
41
1
10
7.20890989020506
20
0.367290879661312
30
0
41
1
10
7.21026036007467
20
0.394739382782717
30
0
41
1
10
7.21039403444036
20
0.421504041776785
30
0
0
SPLINE
5
10D
100
AcDbEntity
8
1
62
256
6
ByLayer
370
18
48
1
60
0
100
AcDbSpline
70
4
71
3
72
16
73
12
40
0
40
0
40
0
40
0
40
0.0762647947695922
40
0.0762647947695922
40
0.388591267886635
40
0.388591267886635
40
0.668410626283
40
0.668410626283
40
0.914934097560589
40
0.914934097560589
40
1
40
1
40
1
40
1
41
1
10
8.51542393151061
20
-2.10233678765044
30
0
41
1
10
8.5233108633382
20
-2.10883717388816
30
0
41
1
10
8.53146781024697
20
-2.11507012385295
30
0
41
1
10
8.57385850784073
20
-2.14499074632502
30
0
41
1
10
8.61259233512055
20
-2.16426157504077
30
0
41
1
10
8.68828357077484
20
-2.1863388485209
30
0
41
1
10
8.72621135890932
20
-2.19091864150263
30
0
41
1
10
8.79421476391775
20
-2.18611169392153
30
0
41
1
10
8.82567996186333
20
-2.17820222216636
30
0
41
1
10
8.86322862269378
20
-2.16053234820635
30
0
41
1
10
8.87256796324857
20
-2.15532906697135
30
0
41
1
10
8.8814343795602
20
-2.14954676283597
30
0
0
SPLINE
5
10E
100
AcDbEntity
8
1
62
256
6
ByLayer
370
18
48
1
60
0
100
AcDbSpline
70
4
71
3
72
16
73
12
40
0
40
0
40
0
40
0
40
0.0620393275787104
40
0.0620393275787104
40
0.284918893962113
40
0.284918893962113
40
0.510542617547761
40
0.510542617547761
40
0.75058033832467
40
0.75058033832467
40
1
40
1
40
1
40
1
41
1
10
9.62471353348786
20
-0.699999999999051
30
0
41
1
10
9.62471353348786
20
-0.691699238883899
30
0
41
1
10
9.62432052942623
20
-0.683389265023948
30
0
41
1
10
9.62074558916598
20
-0.645637166285013
30
0
41
1
10
9.61280527803723
20
-0.616255019810552
30
0
41
1
10
9.58812355838481
20
-0.561976514851466
30
0
41
1
10
9.57098314478765
20
-0.536439935702504
30
0
41
1
10
9.52908870251508
20
-0.490826526130434
30
0
41
1
10
9.50341873258219
20
-0.470611170665364
30
0
41
1
10
9.44696572834511
20
-0.438157821252815
30
0
41
1
10
9.41539750844237
20
-0.425868130221204
30
0
41
1
10
9.38312222890397
20
-0.418162587868693
30
0
0
SPLINE
5
10F
100
AcDbEntity
8
1
62
256
6
ByLayer
370
18
48
1
60
0
100
AcDbSpline
70
4
71
3
72
12
73
8
40
0
40
0
40
0
40
0
40
0.495447747571073
40
0.495447747571073
40
0.900382671304255
40
0.900382671304255
40
1
40
1
40
1
40
1
41
1
10
7.64596020340329
20
0.702336787651035
30
0
41
1
10
7.67375632983303
20
0.651608012957553
30
0
41
1
10
7.71110495253873
20
0.60712335145405
30
0
41
1
10
7.79644286138316
20
0.545109901030003
30
0
41
1
10
7.84235901166875
20
0.523585015261176
30
0
41
1
10
7.90687295131235
20
0.50812420466616
30
0
41
1
10
7.92007255596721
20
0.505591927724225
30
0
41
1
10
7.93359756299481
20
0.503626350896866
30
0
0
SPLINE
5
110
100
AcDbEntity
8
1
62
256
6
ByLayer
370
18
48
1
60
0
100
AcDbSpline
70
4
71
3
72
14
73
10
40
0
40
0
40
0
40
0
40
0.283961749036717
40
0.283961749036717
40
0.570285189259025
40
0.570285189259025
40
0.829451094335663
40
0.829451094335663
40
1
40
1
40
1
40
1
41
1
10
7.21039403444036
20
-1.82150404177492
30
0
41
1
10
7.21055577459867
20
-1.85388811302761
30
0
41
1
10
7.21519068693655
20
-1.88882554195797
30
0
41
1
10
7.23402079537493
20
-1.95850421461307
30
0
41
1
10
7.24863800758033
20
-1.99431482284101
30
0
41
1
10
7.28492066135655
20
-2.05690846986937
30
0
41
1
10
7.30637540155169
20
-2.08514373353233
30
0
41
1
10
7.34591243122847
20
-2.12427613243082
30
0
41
1
10
7.36293717502485
20
-2.13812706135246
30
0
41
1
10
7.38044781181193
20
-2.14954676283597
30
0
0
SPLINE
5
111
100
AcDbEntity
8
1
62
256
6
ByLayer
370
18
48
1
60
0
100
AcDbSpline
70
4
71
3
72
16
73
12
40
0
40
0
40
0
40
0
40
0.0762647947695909
40
0.0762647947695909
40
0.388591267886609
40
0.388591267886609
40
0.668410626283076
40
0.668410626283076
40
0.914934097560665
40
0.914934097560665
40
1
40
1
40
1
40
1
41
1
10
7.64596020340511
20
0.702336787652314
30
0
41
1
10
7.64239840718989
20
0.708837173890032
30
0
41
1
10
7.63850088563953
20
0.715070123854815
30
0
41
1
10
7.61718950442497
20
0.744990746326891
30
0
41
1
10
7.59426221675031
20
0.764261575042639
30
0
41
1
10
7.54346068563035
20
0.786338848522774
30
0
41
1
10
7.51552217884725
20
0.790918641504533
30
0
41
1
10
7.46088670922899
20
0.786111693923402
30
0
41
1
10
7.43362989266285
20
0.778202222168233
30
0
41
1
10
7.39835765210108
20
0.760532348208216
30
0
41
1
10
7.38931422812357
20
0.755329066973218
30
0
41
1
10
7.38044781181196
20
0.749546762837838
30
0
0
SPLINE
5
112
100
AcDbEntity
8
1
62
256
6
ByLayer
370
18
48
1
60
0
100
AcDbSpline
70
4
71
3
72
18
73
14
40
0
40
0
40
0
40
0
40
0.212491310237583
40
0.212491310237583
40
0.386617575420431
40
0.386617575420431
40
0.562425340508144
40
0.562425340508144
40
0.715387118729342
40
0.715387118729342
40
0.918247542726526
40
0.918247542726526
40
1
40
1
40
1
40
1
41
1
10
8.95256923257074
20
0.421504041776785
30
0
41
1
10
8.91949412503209
20
0.352948913298917
30
0
41
1
10
8.8964210381005
20
0.279185025510628
30
0
41
1
10
8.88039646069069
20
0.143022153370993
30
0
41
1
10
8.88281111050173
20
0.0794487600794298
30
0
41
1
10
8.91106208542317
20
-0.0430944604700585
30
0
41
1
10
8.93784150992187
20
-0.103767535678884
30
0
41
1
10
9.00713959364953
20
-0.203704253596811
30
0
41
1
10
9.04785256143066
20
-0.245968222255158
30
0
41
1
10
9.15284377789646
20
-0.32860329430855
30
0
41
1
10
9.2220035429404
20
-0.365481901941479
30
0
41
1
10
9.32299442535833
20
-0.402049329198661
30
0
41
1
10
9.35288872601257
20
-0.410944508263327
30
0
41
1
10
9.38312222890397
20
-0.418162587868693
30
0
0
SPLINE
5
113
100
AcDbEntity
8
1
62
256
6
ByLayer
370
18
48
1
60
0
100
AcDbSpline
70
4
71
3
72
14
73
10
40
0
40
0
40
0
40
0
40
0.282570466285566
40
0.282570466285566
40
0.569068632820149
40
0.569068632820149
40
0.828374842927903
40
0.828374842927903
40
1
40
1
40
1
40
1
41
1
10
6.77984103810726
20
-0.418162587868693
30
0
41
1
10
6.75900367442878
20
-0.426887741768866
30
0
41
1
10
6.73825944860272
20
-0.441542342539037
30
0
41
1
10
6.70063982139172
20
-0.481842143297797
30
0
41
1
10
6.68326674028424
20
-0.508314853497239
30
0
41
1
10
6.65744726586024
20
-0.566652888483873
30
0
41
1
10
6.64795850189722
20
-0.598682456021919
30
0
41
1
10
6.63901836571586
20
-0.654068886478825
30
0
41
1
10
6.63716865788427
20
-0.677127473865283
30
0
41
1
10
6.63716865788427
20
-0.699999999999051
30
0
0
SPLINE
5
114
100
AcDbEntity
8
1
62
256
6
ByLayer
370
18
48
1
60
0
100
AcDbSpline
70
4
71
3
72
16
73
12
40
0
40
0
40
0
40
0
40
0.142319077947431
40
0.142319077947431
40
0.364748229791884
40
0.364748229791884
40
0.59435959846482
40
0.59435959846482
40
0.841957615948588
40
0.841957615948588
40
1
40
1
40
1
40
1
41
1
10
7.38044781181196
20
0.749546762837838
30
0
41
1
10
7.3658646595519
20
0.740036243744612
30
0
41
1
10
7.35163108798267
20
0.728858855000738
30
0
41
1
10
7.31728653890957
20
0.696984072943877
30
0
41
1
10
7.29795163394203
20
0.674004433063089
30
0
41
1
10
7.26459500920888
20
0.624049564507516
30
0
41
1
10
7.25032626033254
20
0.596352739548081
30
0
41
1
10
7.22762310254433
20
0.538409376360477
30
0
41
1
10
7.21942297979231
20
0.507416359621431
30
0
41
1
10
7.21195500260711
20
0.458511057576146
30
0
41
1
10
7.21048465846167
20
0.439649039245893
30
0
41
1
10
7.21039403444036
20
0.421504041776785
30
0
0
SPLINE
5
115
100
AcDbEntity
8
1
62
256
6
ByLayer
370
18
48
1
60
0
100
AcDbSpline
70
4
71
3
72
14
73
10
40
0
40
0
40
0
40
0
40
0.282570466286097
40
0.282570466286097
40
0.569068632820487
40
0.569068632820487
40
0.828374842928026
40
0.828374842928026
40
1
40
1
40
1
40
1
41
1
10
9.38312222890366
20
-0.981837412129494
30
0
41
1
10
9.41966823283974
20
-0.973112258229349
30
0
41
1
10
9.45537190621698
20
-0.958457657459149
30
0
41
1
10
9.51931803976919
20
-0.918157856700304
30
0
41
1
10
9.54840490381272
20
-0.89168514650089
30
0
41
1
10
9.59134123266625
20
-0.833347111514257
30
0
41
1
10
9.60697158167926
20
-0.801317543976182
30
0
41
1
10
9.62167963043441
20
-0.745931113519305
30
0
41
1
10
9.62471353348786
20
-0.722872526132846
30
0
41
1
10
9.62471353348786
20
-0.699999999999051
30
0
0
SPLINE
5
116
100
AcDbEntity
8
1
62
256
6
ByLayer
370
18
48
1
60
0
100
AcDbSpline
70
4
71
3
72
18
73
14
40
0
40
0
40
0
40
0
40
0.212491310234944
40
0.212491310234944
40
0.386617575418315
40
0.386617575418315
40
0.562425340506587
40
0.562425340506587
40
0.715387118727928
40
0.715387118727928
40
0.918247542724688
40
0.918247542724688
40
1
40
1
40
1
40
1
41
1
10
7.21039403444036
20
-1.82150404177492
30
0
41
1
10
7.21005164026616
20
-1.7529489132979
30
0
41
1
10
7.20156427139503
20
-1.67918502551063
30
0
41
1
10
7.17151544428464
20
-1.54302215337188
30
0
41
1
10
7.15219887516662
20
-1.47944876008015
30
0
41
1
10
7.10440277794703
20
-1.35690553953023
30
0
41
1
10
7.07510742550249
20
-1.29623246432112
30
0
41
1
10
7.01609064749849
20
-1.19629574640277
30
0
41
1
10
6.98620798769451
20
-1.15403177774428
30
0
41
1
10
6.91569397174462
20
-1.07139670569066
30
0
41
1
10
6.87349997358967
20
-1.03451809805762
30
0
41
1
10
6.81431791987762
20
-0.997950670799952
30
0
41
1
10
6.79707921539602
20
-0.98905549173503
30
0
41
1
10
6.77984103810746
20
-0.981837412129494
30
0
0
SPLINE
5
117
100
AcDbEntity
8
1
62
256
6
ByLayer
370
18
48
1
60
0
100
AcDbSpline
70
4
71
3
72
16
73
12
40
0
40
0
40
0
40
0
40
0.0624381308002296
40
0.0624381308002296
40
0.2831768045096
40
0.2831768045096
40
0.50668987774657
40
0.50668987774657
40
0.74452527645784
40
0.74452527645784
40
1
40
1
40
1
40
1
41
1
10
7.38044781181193
20
-2.14954676283597
30
0
41
1
10
7.38694501966501
20
-2.15378396877318
30
0
41
1
10
7.39353439537882
20
-2.15770925194471
30
0
41
1
10
7.42347463432981
20
-2.17389408653503
30
0
41
1
10
7.44776676060644
20
-2.18241558862769
30
0
41
1
10
7.49466223456926
20
-2.19038000158051
30
0
41
1
10
7.51783736757091
20
-2.18983232117819
30
0
41
1
10
7.56136262481306
20
-2.18018142671718
30
0
41
1
10
7.58198946020366
20
-2.17044293260287
30
0
41
1
10
7.61837173871396
20
-2.14276136963352
30
0
41
1
10
7.63411067302124
20
-2.12396254037748
30
0
41
1
10
7.64596020340332
20
-2.10233678764914
30
0
0
LINE
5
74
100
AcDbEntity
8
80
62
256
6
ByLayer
370
18
48
1
60
0
100
AcDbLine
10
0
20
0
30
0
11
-5
21
0
31
0
39
0
210
0
220
0
230
1
0
LINE
5
75
100
AcDbEntity
8
81
62
256
6
ByLayer
370
18
48
1
60
0
100
AcDbLine
10
21.6
20
5.25
30
0
11
26.593148
21
5.25
31
0
39
0
210
0
220
0
230
1
0
LINE
5
76
100
AcDbEntity
8
1
62
256
6
ByLayer
370
18
48
1
60
0
100
AcDbLine
10
7.858547
20
-3.7
30
0
11
8.040143
21
-3.7
31
0
39
0
210
0
220
0
230
1
0
LINE
5
78
100
AcDbEntity
8
1
62
256
6
ByLayer
370
18
48
1
60
0
100
AcDbLine
10
8.040143
20
2.3
30
0
11
7.858547
21
2.3
31
0
39
0
210
0
220
0
230
1
0
LINE
5
79
100
AcDbEntity
8
1
62
256
6
ByLayer
370
18
48
1
60
0
100
AcDbLine
10
5
20
5
30
0
11
5
21
-4.921817
31
0
39
0
210
0
220
0
230
1
0
LINE
5
7A
100
AcDbEntity
8
1
62
256
6
ByLayer
370
18
48
1
60
0
100
AcDbLine
10
0
20
5
30
0
11
0.143063
21
5
31
0
39
0
210
0
220
0
230
1
0
LINE
5
7B
100
AcDbEntity
8
1
62
256
6
ByLayer
370
18
48
1
60
0
100
AcDbLine
10
10.944386
20
-4.085352
30
0
11
10.814801
21
-4.177599
31
0
39
0
210
0
220
0
230
1
0
LINE
5
7C
100
AcDbEntity
8
1
62
256
6
ByLayer
370
18
48
1
60
0
100
AcDbLine
10
5
20
5
30
0
11
0.143063
21
5
31
0
39
0
210
0
220
0
230
1
0
LINE
5
7D
100
AcDbEntity
8
1
62
256
6
ByLayer
370
18
48
1
60
0
100
AcDbLine
10
10.722181
20
2.462
30
0
11
10.814801
21
2.462
31
0
39
0
210
0
220
0
230
1
0
LINE
5
7E
100
AcDbEntity
8
1
62
256
6
ByLayer
370
18
48
1
60
0
100
AcDbLine
10
10.814801
20
-4.177599
30
0
11
10.632159
21
-4.307616
31
0
39
0
210
0
220
0
230
1
0
LINE
5
7F
100
AcDbEntity
8
1
62
256
6
ByLayer
370
18
48
1
60
0
100
AcDbLine
10
8.651655
20
5
30
0
11
14.792716
21
5
31
0
39
0
210
0
220
0
230
1
0
LINE
5
80
100
AcDbEntity
8
1
62
256
6
ByLayer
370
18
48
1
60
0
100
AcDbLine
10
8.651655
20
3.5
30
0
11
8.651655
21
5
31
0
39
0
210
0
220
0
230
1
0
LINE
5
81
100
AcDbEntity
8
1
62
256
6
ByLayer
370
18
48
1
60
0
100
AcDbLine
10
0.143063
20
-4.900624
30
0
11
5
21
-4.921817
31
0
39
0
210
0
220
0
230
1
0
LINE
5
82
100
AcDbEntity
8
1
62
256
6
ByLayer
370
18
48
1
60
0
100
AcDbLine
10
6.843904
20
2.7
30
0
11
10.632159
21
2.7
31
0
39
0
210
0
220
0
230
1
0
LINE
5
83
100
AcDbEntity
8
1
62
256
6
ByLayer
370
18
48
1
60
0
100
AcDbLine
10
8.651655
20
3.5
30
0
11
8.606055
21
3.5
31
0
39
0
210
0
220
0
230
1
0
LINE
5
84
100
AcDbEntity
8
1
62
256
6
ByLayer
370
18
48
1
60
0
100
AcDbLine
10
5
20
-4.921817
30
0
11
6.843904
21
-4.921817
31
0
39
0
210
0
220
0
230
1
0
LINE
5
85
100
AcDbEntity
8
1
62
256
6
ByLayer
370
18
48
1
60
0
100
AcDbLine
10
11.42285
20
3.5
30
0
11
14.792716
21
3.5
31
0
39
0
210
0
220
0
230
1
0
LINE
5
86
100
AcDbEntity
8
1
62
256
6
ByLayer
370
18
48
1
60
0
100
AcDbLine
10
10.814801
20
-4.177599
30
0
11
10.814801
21
2.462
31
0
39
0
210
0
220
0
230
1
0
LINE
5
87
100
AcDbEntity
8
1
62
256
6
ByLayer
370
18
48
1
60
0
100
AcDbLine
10
10.722181
20
2.462
30
0
11
10.72799
21
2.7
31
0
39
0
210
0
220
0
230
1
0
LINE
5
88
100
AcDbEntity
8
1
62
256
6
ByLayer
370
18
48
1
60
0
100
AcDbLine
10
6.843904
20
2.7
30
0
11
6.843904
21
2.162381
31
0
39
0
210
0
220
0
230
1
0
LINE
5
89
100
AcDbEntity
8
1
62
256
6
ByLayer
370
18
48
1
60
0
100
AcDbLine
10
10.944386
20
-4.085352
30
0
11
10.944386
21
2.462
31
0
39
0
210
0
220
0
230
1
0
LINE
5
8A
100
AcDbEntity
8
1
62
256
6
ByLayer
370
18
48
1
60
0
100
AcDbLine
10
8.651655
20
5
30
0
11
5
21
5
31
0
39
0
210
0
220
0
230
1
0
LINE
5
8B
100
AcDbEntity
8
1
62
256
6
ByLayer
370
18
48
1
60
0
100
AcDbLine
10
10.632159
20
-2.041162
30
0
11
10.632159
21
-4.307616
31
0
39
0
210
0
220
0
230
1
0
LINE
5
8C
100
AcDbEntity
8
1
62
256
6
ByLayer
370
18
48
1
60
0
100
AcDbLine
10
9.778518
20
-4.915292
30
0
11
6.843904
21
-4.921817
31
0
39
0
210
0
220
0
230
1
0
LINE
5
8D
100
AcDbEntity
8
1
62
256
6
ByLayer
370
18
48
1
60
0
100
AcDbLine
10
10.632159
20
2.7
30
0
11
10.72799
21
2.7
31
0
39
0
210
0
220
0
230
1
0
LINE
5
8E
100
AcDbEntity
8
1
62
256
6
ByLayer
370
18
48
1
60
0
100
AcDbLine
10
0.143063
20
5
30
0
11
0.143063
21
-4.900624
31
0
39
0
210
0
220
0
230
1
0
LINE
5
8F
100
AcDbEntity
8
1
62
256
6
ByLayer
370
18
48
1
60
0
100
AcDbLine
10
0.143063
20
-4.900624
30
0
11
0
21
-4.900397
31
0
39
0
210
0
220
0
230
1
0
LINE
5
90
100
AcDbEntity
8
1
62
256
6
ByLayer
370
18
48
1
60
0
100
AcDbLine
10
8.651655
20
3.5
30
0
11
8.853087
21
3.5
31
0
39
0
210
0
220
0
230
1
0
LINE
5
91
100
AcDbEntity
8
1
62
256
6
ByLayer
370
18
48
1
60
0
100
AcDbLine
10
10.632159
20
2.7
30
0
11
10.632159
21
0.641162
31
0
39
0
210
0
220
0
230
1
0
LINE
5
92
100
AcDbEntity
8
1
62
256
6
ByLayer
370
18
48
1
60
0
100
AcDbLine
10
9.778518
20
-4.915292
30
0
11
10.632159
21
-4.307616
31
0
39
0
210
0
220
0
230
1
0
LINE
5
93
100
AcDbEntity
8
1
62
256
6
ByLayer
370
18
48
1
60
0
100
AcDbLine
10
0
20
-4.900397
30
0
11
0
21
5
31
0
39
0
210
0
220
0
230
1
0
LINE
5
94
100
AcDbEntity
8
1
62
256
6
ByLayer
370
18
48
1
60
0
100
AcDbLine
10
10.814801
20
2.462
30
0
11
10.944386
21
2.462
31
0
39
0
210
0
220
0
230
1
0
LINE
5
95
100
AcDbEntity
8
1
62
256
6
ByLayer
370
18
48
1
60
0
100
AcDbLine
10
6.843904
20
-3.562381
30
0
11
6.843904
21
-4.921817
31
0
39
0
210
0
220
0
230
1
0
LINE
5
96
100
AcDbEntity
8
SK1
62
256
6
ByLayer
370
18
48
1
60
0
100
AcDbLine
10
-0.25
20
5
30
0
11
0
21
5
31
0
39
0
210
0
220
0
230
1
0
LINE
5
98
100
AcDbEntity
8
1
62
256
6
ByLayer
370
18
48
1
60
0
100
AcDbLine
10
11.298583
20
-3.833212
30
0
11
10.944374
21
-4.085361
31
0
39
0
210
0
220
0
230
1
0
LINE
5
99
100
AcDbEntity
8
1
62
256
6
ByLayer
370
18
48
1
60
0
100
AcDbLine
10
11.298583
20
2.462
30
0
11
11.298583
21
-3.833212
31
0
39
0
210
0
220
0
230
1
0
LINE
5
9A
100
AcDbEntity
8
SK1
62
256
6
ByLayer
370
18
48
1
60
0
100
AcDbLine
10
-103.4
20
5
30
0
11
-103.4
21
-4.9
31
0
39
0
210
0
220
0
230
1
0
LINE
5
9B
100
AcDbEntity
8
SK1
62
256
6
ByLayer
370
18
48
1
60
0
100
AcDbLine
10
-103.4
20
-4.9
30
0
11
-0.25
21
-4.9
31
0
39
0
210
0
220
0
230
1
0
LINE
5
9C
100
AcDbEntity
8
SK1
62
256
6
ByLayer
370
18
48
1
60
0
100
AcDbLine
10
0
20
-4.900397
30
0
11
-0.25
21
-4.9
31
0
39
0
210
0
220
0
230
1
0
LINE
5
9D
100
AcDbEntity
8
1
62
256
6
ByLayer
370
18
48
1
60
0
100
AcDbLine
10
11.298583
20
2.462
30
0
11
12.319476
21
2.462
31
0
39
0
210
0
220
0
230
1
0
LINE
5
9E
100
AcDbEntity
8
1
62
256
6
ByLayer
370
18
48
1
60
0
100
AcDbLine
10
10.94434
20
2.462
30
0
11
11.298583
21
2.462
31
0
39
0
210
0
220
0
230
1
0
LINE
5
9F
100
AcDbEntity
8
1
62
256
6
ByLayer
370
18
48
1
60
0
100
AcDbLine
10
17.028461
20
0.245684
30
0
11
11.298583
21
-3.833212
31
0
39
0
210
0
220
0
230
1
0
LINE
5
A0
100
AcDbEntity
8
1
62
256
6
ByLayer
370
18
48
1
60
0
100
AcDbLine
10
12.256147
20
2.7
30
0
11
17.028461
21
2.7
31
0
39
0
210
0
220
0
230
1
0
LINE
5
A1
100
AcDbEntity
8
1
62
256
6
ByLayer
370
18
48
1
60
0
100
AcDbLine
10
17.028461
20
2.7
30
0
11
17.028461
21
0.245684
31
0
39
0
210
0
220
0
230
1
0
LINE
5
A2
100
AcDbEntity
8
SK1
62
256
6
ByLayer
370
18
48
1
60
0
100
AcDbLine
10
0
20
-4.900397
30
0
11
0
21
5
31
0
39
0
210
0
220
0
230
1
0
LINE
5
A3
100
AcDbEntity
8
1
62
256
6
ByLayer
370
18
48
1
60
0
100
AcDbLine
10
15.698646
20
3.623551
30
0
11
14.845135
21
3.623551
31
0
39
0
210
0
220
0
230
1
0
LINE
5
A4
100
AcDbEntity
8
1
62
256
6
ByLayer
370
18
48
1
60
0
100
AcDbLine
10
15.698646
20
3.45
30
0
11
16.806578
21
3.45
31
0
39
0
210
0
220
0
230
1
0
LINE
5
A5
100
AcDbEntity
8
1
62
256
6
ByLayer
370
18
48
1
60
0
100
AcDbLine
10
15.862743
20
4.42101
30
0
11
15.708153
21
4.825146
31
0
39
0
210
0
220
0
230
1
0
LINE
5
A6
100
AcDbEntity
8
1
62
256
6
ByLayer
370
18
48
1
60
0
100
AcDbLine
10
15.698646
20
4.876449
30
0
11
15.698646
21
5.05
31
0
39
0
210
0
220
0
230
1
0
LINE
5
A7
100
AcDbEntity
8
1
62
256
6
ByLayer
370
18
48
1
60
0
100
AcDbLine
10
18.390267
20
5.05
30
0
11
16.806578
21
5.05
31
0
39
0
210
0
220
0
230
1
0
LINE
5
A8
100
AcDbEntity
8
1
62
256
6
ByLayer
370
18
48
1
60
0
100
AcDbLine
10
18.604111
20
5.12794
30
0
11
21.391562
21
5.24981
31
0
39
0
210
0
220
0
230
1
0
LINE
5
A9
100
AcDbEntity
8
1
62
256
6
ByLayer
370
18
48
1
60
0
100
AcDbLine
10
11.267559
20
3.45
30
0
11
15.698646
21
3.45
31
0
39
0
210
0
220
0
230
1
0
LINE
5
AA
100
AcDbEntity
8
1
62
256
6
ByLayer
370
18
48
1
60
0
100
AcDbLine
10
4.837143
20
5.05
30
0
11
6.420831
21
5.05
31
0
39
0
210
0
220
0
230
1
0
LINE
5
AB
100
AcDbEntity
8
1
62
256
6
ByLayer
370
18
48
1
60
0
100
AcDbLine
10
18.390267
20
3.45
30
0
11
16.806578
21
3.45
31
0
39
0
210
0
220
0
230
1
0
LINE
5
AC
100
AcDbEntity
8
1
62
256
6
ByLayer
370
18
48
1
60
0
100
AcDbLine
10
15.698646
20
3.623551
30
0
11
15.698646
21
3.45
31
0
39
0
210
0
220
0
230
1
0
LINE
5
AD
100
AcDbEntity
8
1
62
256
6
ByLayer
370
18
48
1
60
0
100
AcDbLine
10
15.698646
20
4.876449
30
0
11
14.845135
21
4.876449
31
0
39
0
210
0
220
0
230
1
0
LINE
5
AE
100
AcDbEntity
8
1
62
256
6
ByLayer
370
18
48
1
60
0
100
AcDbLine
10
15.708153
20
4.825146
30
0
11
14.867043
21
4.825146
31
0
39
0
210
0
220
0
230
1
0
LINE
5
AF
100
AcDbEntity
8
1
62
256
6
ByLayer
370
18
48
1
60
0
100
AcDbLine
10
4.837143
20
5.05
30
0
11
4.623298
21
5.12794
31
0
39
0
210
0
220
0
230
1
0
LINE
5
B0
100
AcDbEntity
8
1
62
256
6
ByLayer
370
18
48
1
60
0
100
AcDbLine
10
7.418418
20
4.999998
30
0
11
7.418418
21
5.05
31
0
39
0
210
0
220
0
230
1
0
LINE
5
B1
100
AcDbEntity
8
1
62
256
6
ByLayer
370
18
48
1
60
0
100
AcDbLine
10
16.806578
20
3.45
30
0
11
16.806578
21
5.05
31
0
39
0
210
0
220
0
230
1
0
LINE
5
B2
100
AcDbEntity
8
1
62
256
6
ByLayer
370
18
48
1
60
0
100
AcDbLine
10
7.418418
20
5.05
30
0
11
15.698646
21
5.05
31
0
39
0
210
0
220
0
230
1
0
LINE
5
B3
100
AcDbEntity
8
1
62
256
6
ByLayer
370
18
48
1
60
0
100
AcDbLine
10
18.390267
20
3.45
30
0
11
18.604111
21
3.37206
31
0
39
0
210
0
220
0
230
1
0
LINE
5
B4
100
AcDbEntity
8
1
62
256
6
ByLayer
370
18
48
1
60
0
100
AcDbLine
10
21.6
20
5.05
30
0
11
21.6
21
3.45
31
0
39
0
210
0
220
0
230
1
0
LINE
5
B5
100
AcDbEntity
8
1
62
256
6
ByLayer
370
18
48
1
60
0
100
AcDbLine
10
15.708153
20
3.674854
30
0
11
14.867043
21
3.674854
31
0
39
0
210
0
220
0
230
1
0
LINE
5
B6
100
AcDbEntity
8
1
62
256
6
ByLayer
370
18
48
1
60
0
100
AcDbLine
10
6.420831
20
5
30
0
11
6.420831
21
5.05
31
0
39
0
210
0
220
0
230
1
0
LINE
5
B7
100
AcDbEntity
8
1
62
256
6
ByLayer
370
18
48
1
60
0
100
AcDbLine
10
15.862743
20
4.07899
30
0
11
15.708153
21
3.674854
31
0
39
0
210
0
220
0
230
1
0
LINE
5
B8
100
AcDbEntity
8
1
62
256
6
ByLayer
370
18
48
1
60
0
100
AcDbLine
10
18.604111
20
3.37206
30
0
11
21.391562
21
3.25019
31
0
39
0
210
0
220
0
230
1
0
LINE
5
B9
100
AcDbEntity
8
1
62
256
6
ByLayer
370
18
48
1
60
0
100
AcDbLine
10
4.623298
20
5.12794
30
0
11
1.835847
21
5.24981
31
0
39
0
210
0
220
0
230
1
0
LINE
5
BA
100
AcDbEntity
8
1
62
256
6
ByLayer
370
18
48
1
60
0
100
AcDbLine
10
18.390267
20
5.05
30
0
11
18.604111
21
5.12794
31
0
39
0
210
0
220
0
230
1
0
LINE
5
BB
100
AcDbEntity
8
1
62
256
6
ByLayer
370
18
48
1
60
0
100
AcDbLine
10
15.698646
20
5.05
30
0
11
16.806578
21
5.05
31
0
39
0
210
0
220
0
230
1
0
LINE
5
BC
100
AcDbEntity
8
1
62
256
6
ByLayer
370
18
48
1
60
0
100
AcDbLine
10
15.862743
20
4.07899
30
0
11
15.002998
21
4.07899
31
0
39
0
210
0
220
0
230
1
0
LINE
5
BD
100
AcDbEntity
8
1
62
256
6
ByLayer
370
18
48
1
60
0
100
AcDbLine
10
15.862743
20
4.42101
30
0
11
15.00904
21
4.42101
31
0
39
0
210
0
220
0
230
1
0
LINE
5
BE
100
AcDbEntity
8
1
62
256
6
ByLayer
370
18
48
1
60
0
100
AcDbLine
10
1.627409
20
5.05
30
0
11
1.627409
21
5
31
0
39
0
210
0
220
0
230
1
0
LINE
5
BF
100
AcDbEntity
8
1
62
256
6
ByLayer
370
18
48
1
60
0
100
AcDbLine
10
7.418418
20
5.05
30
0
11
6.420831
21
5.05
31
0
39
0
210
0
220
0
230
1
0
LINE
5
C0
100
AcDbEntity
8
1
62
256
6
ByLayer
370
18
48
1
60
0
100
AcDbLine
10
7.285006
20
-1.903626
30
0
11
7.933598
21
-1.903626
31
0
39
0
210
0
220
0
230
1
0
LINE
5
C1
100
AcDbEntity
8
1
62
256
6
ByLayer
370
18
48
1
60
0
100
AcDbLine
10
7.933595
20
0.503626
30
0
11
8.0819
21
0.503626
31
0
39
0
210
0
220
0
230
1
0
LINE
5
C2
100
AcDbEntity
8
1
62
256
6
ByLayer
370
18
48
1
60
0
100
AcDbLine
10
8.0819
20
-1.903626
30
0
11
7.933595
21
-1.903626
31
0
39
0
210
0
220
0
230
1
0
LINE
5
C3
100
AcDbEntity
8
1
62
256
6
ByLayer
370
18
48
1
60
0
100
AcDbLine
10
7.933598
20
0.503626
30
0
11
7.285006
21
0.503626
31
0
39
0
210
0
220
0
230
1
0
LINE
5
C4
100
AcDbEntity
8
1
62
256
6
ByLayer
370
18
48
1
60
0
100
AcDbLine
10
8.660798
20
-0.981837
30
0
11
9.383122
21
-0.981837
31
0
39
0
210
0
220
0
230
1
0
LINE
5
C5
100
AcDbEntity
8
1
62
256
6
ByLayer
370
18
48
1
60
0
100
AcDbLine
10
8.660798
20
-0.418163
30
0
11
9.383122
21
-0.418163
31
0
39
0
210
0
220
0
230
1
0
LINE
5
C6
100
AcDbEntity
8
1
62
256
6
ByLayer
370
18
48
1
60
0
100
AcDbLine
10
8.230245
20
0.421504
30
0
11
8.952569
21
0.421504
31
0
39
0
210
0
220
0
230
1
0
LINE
5
C7
100
AcDbEntity
8
1
62
256
6
ByLayer
370
18
48
1
60
0
100
AcDbLine
10
8.230245
20
-1.821504
30
0
11
8.952569
21
-1.821504
31
0
39
0
210
0
220
0
230
1
0
LINE
5
C8
100
AcDbEntity
8
1
62
256
6
ByLayer
370
18
48
1
60
0
100
AcDbLine
10
7.326309
20
0.702337
30
0
11
7.64596
21
0.702337
31
0
39
0
210
0
220
0
230
1
0
LINE
5
C9
100
AcDbEntity
8
1
62
256
6
ByLayer
370
18
48
1
60
0
100
AcDbLine
10
7.325294
20
-2.102337
30
0
11
7.64596
21
-2.102337
31
0
39
0
210
0
220
0
230
1
0
LINE
5
CA
100
AcDbEntity
8
SK1
62
256
6
ByLayer
370
18
48
1
60
0
100
AcDbLine
10
-0.25
20
-4.9
30
0
11
-0.25
21
5
31
0
39
0
210
0
220
0
230
1
0
LINE
5
CB
100
AcDbEntity
8
SK1
62
256
6
ByLayer
370
18
48
1
60
0
100
AcDbLine
10
-0.25
20
5
30
0
11
-103.4
21
5
31
0
39
0
210
0
220
0
230
1
0
MTEXT
5
118
100
AcDbEntity
8
SK6
62
256
6
ByLayer
370
18
48
1
60
0
100
AcDbMText
10
-67.528426
20
-15.710908
30
0
210
0
220
0
230
1
1
\W0.7023;RF123E10-1010B-S
40
3.5
41
0
44
1.084337
50
0
71
7
72
5
7
iso_b_vert
0
DIMENSION
5
129
100
AcDbEntity
8
2
62
256
6
ByLayer
370
13
48
1
60
0
100
AcDbDimension
2
DimnDraft3D1
10
35.85
20
5.1
30
0
11
35.85
21
15.6
31
0
70
32
71
5
72
1
41
1
210
0
220
0
230
1
3
Standard
100
AcDbAlignedDimension
13
23.1
23
3.1
33
0
14
23.1
24
5.1
34
0
50
90
100
AcDbRotatedDimension
1001
ACAD
1000
DSTYLE
1002
{
1070
    74
1070
     0
1070
   279
1070
     0
1070
   172
1070
     1
1070
   173
1070
     1
1070
   340
1005
119
1070
   271
1070
     3
1070
   272
1070
     3
1070
    77
1070
     1
1070
    73
1070
     0
1070
   171
1070
     4
1070
   274
1070
     4
1070
   177
1070
     2
1070
   176
1070
     2
1070
   178
1070
     7
1070
    78
1070
     8
1070
    41
1041
3.0
1070
   147
1041
2.25
1070
    42
1041
1.5
1070
    44
1041
3.0
1070
   140
1041
4.5
1070
   343
1005
12A
1070
   344
1005
12A
1002
}
0
DIMENSION
5
13E
100
AcDbEntity
8
2
62
256
6
ByLayer
370
13
48
1
60
0
100
AcDbDimension
2
DimnDraft3D2
10
45.85
20
-4.9
30
0
11
45.85
21
15.6
31
0
70
32
71
5
72
1
41
1
210
0
220
0
230
1
3
Standard
100
AcDbAlignedDimension
13
23.1
23
5.1
33
0
14
1.5
24
-4.9
34
0
50
90
100
AcDbRotatedDimension
1001
ACAD
1000
DSTYLE
1002
{
1070
    74
1070
     0
1070
   279
1070
     0
1070
   172
1070
     1
1070
   173
1070
     1
1070
   340
1005
119
1070
   271
1070
     3
1070
   272
1070
     3
1070
    77
1070
     1
1070
    73
1070
     0
1070
   171
1070
     4
1070
   274
1070
     4
1070
   177
1070
     2
1070
   176
1070
     2
1070
   178
1070
     7
1070
    78
1070
     8
1070
    41
1041
3.0
1070
   147
1041
2.25
1070
    42
1041
1.5
1070
    44
1041
3.0
1070
   140
1041
4.5
1070
   343
1005
12A
1070
   344
1005
12A
1002
}
0
DIMENSION
5
14D
100
AcDbEntity
8
SK2
62
256
6
ByLayer
370
13
48
1
60
0
100
AcDbDimension
2
DimnDraft3D3
10
-113.15
20
-4.9
30
0
11
-113.15
21
15.6
31
0
70
32
71
5
72
1
41
1
210
0
220
0
230
1
3
Standard
100
AcDbAlignedDimension
13
-104.9
23
5.1
33
0
14
-104.9
24
-4.9
34
0
50
90
100
AcDbRotatedDimension
1001
ACAD
1000
DSTYLE
1002
{
1070
    74
1070
     0
1070
   279
1070
     0
1070
   172
1070
     1
1070
   173
1070
     1
1070
   340
1005
119
1070
   271
1070
     3
1070
   272
1070
     3
1070
    77
1070
     1
1070
    73
1070
     0
1070
   171
1070
     4
1070
   274
1070
     4
1070
   177
1070
     2
1070
   176
1070
     2
1070
   178
1070
     7
1070
    78
1070
     8
1070
    41
1041
3.0
1070
   147
1041
2.25
1070
    42
1041
1.5
1070
    44
1041
3.0
1070
   140
1041
4.5
1070
   343
1005
12A
1070
   344
1005
12A
1002
}
0
DIMENSION
5
15B
100
AcDbEntity
8
2
62
256
6
ByLayer
370
13
48
1
60
0
100
AcDbDimension
2
DimnDraft3D4
10
21.6
20
-19.15
30
0
11
32.1
21
-19.15
31
0
70
32
71
5
72
1
41
1
210
0
220
0
230
1
3
Standard
100
AcDbAlignedDimension
13
11.6
23
-6.4
33
0
14
21.6
24
1.6
34
0
50
0
100
AcDbRotatedDimension
1001
ACAD
1000
DSTYLE
1002
{
1070
   279
1070
     0
1070
   172
1070
     1
1070
   173
1070
     1
1070
   340
1005
119
1070
   271
1070
     3
1070
   272
1070
     3
1070
    77
1070
     1
1070
    73
1070
     0
1070
   171
1070
     4
1070
   274
1070
     4
1070
   177
1070
     2
1070
   176
1070
     2
1070
   178
1070
     7
1070
    78
1070
     8
1070
    41
1041
3.0
1070
   147
1041
2.25
1070
    42
1041
1.5
1070
    44
1041
3.0
1070
   140
1041
4.5
1070
   343
1005
12A
1070
   344
1005
12A
1002
}
0
DIMENSION
5
169
100
AcDbEntity
8
SK2
62
256
6
ByLayer
370
13
48
1
60
0
100
AcDbDimension
2
DimnDraft3D5
10
-103.4
20
24.85
30
0
11
-47.300658
21
24.85
31
0
70
32
71
5
72
1
41
1
210
0
220
0
230
1
3
Standard
100
AcDbAlignedDimension
13
21.6
23
6.6
33
0
14
-103.4
24
6.6
34
0
50
0
100
AcDbRotatedDimension
1001
ACAD
1000
DSTYLE
1002
{
1070
   279
1070
     0
1070
   172
1070
     1
1070
   173
1070
     1
1070
   340
1005
119
1070
   271
1070
     3
1070
   272
1070
     3
1070
    77
1070
     1
1070
    73
1070
     0
1070
   171
1070
     4
1070
   274
1070
     4
1070
   177
1070
     2
1070
   176
1070
     2
1070
   178
1070
     7
1070
    78
1070
     8
1070
    41
1041
3.0
1070
   147
1041
2.25
1070
    42
1041
1.5
1070
    44
1041
3.0
1070
   140
1041
4.5
1070
   343
1005
12A
1070
   344
1005
12A
1002
}
0
DIMENSION
5
177
100
AcDbEntity
8
2
62
256
6
ByLayer
370
13
48
1
60
0
100
AcDbDimension
2
DimnDraft3D6
10
0
20
14.85
30
0
11
6.080921
21
14.85
31
0
70
32
71
5
72
1
41
1
210
0
220
0
230
1
3
Standard
100
AcDbAlignedDimension
13
21.6
23
5.6
33
0
14
0
24
6.6
34
0
50
0
100
AcDbRotatedDimension
1001
ACAD
1000
DSTYLE
1002
{
1070
   279
1070
     0
1070
   172
1070
     1
1070
   173
1070
     1
1070
   340
1005
119
1070
   271
1070
     3
1070
   272
1070
     3
1070
    77
1070
     1
1070
    73
1070
     0
1070
   171
1070
     4
1070
   274
1070
     4
1070
   177
1070
     2
1070
   176
1070
     2
1070
   178
1070
     7
1070
    78
1070
     8
1070
    41
1041
3.0
1070
   147
1041
2.25
1070
    42
1041
1.5
1070
    44
1041
3.0
1070
   140
1041
4.5
1070
   343
1005
12A
1070
   344
1005
12A
1002
}
0
ENDSEC
0
SECTION
2
OBJECTS
0
DICTIONARY
5
1e1
330
0
100
AcDbDictionary
280
0
281
1
3
ACAD_GROUP
350
1e2
3
ACAD_MLINESTYLE
350
1e3
0
DICTIONARY
5
1e2
330
0
100
AcDbDictionary
280
0
281
1
0
DICTIONARY
5
1e3
330
0
100
AcDbDictionary
280
0
281
1
3
Standard
350
18
0
MLINESTYLE
5
18
330
1e3
100
AcDbMlineStyle
2
Standard
70
0
3

62
256
51
90
52
90
71
2
49
-0.5
62
256
6
ByLayer
49
0.5
62
256
6
ByLayer
0
RASTERVARIABLES
5
1d0
330

100
AcDbRasterVariables
90
0
70
1
71
1
72
1
0
ENDSEC
0
EOF
