0
SECTION
2
HEADER
9
$ACADVER
1
AC1015
9
$DWGCODEPAGE
3
ANSI_1252
9
$HANDSEED
5
19d
9
$ANGBASE
50
0
9
$ANGDIR
70
0
9
$ATTMODE
70
1
9
$AUNITS
70
0
9
$AUPREC
70
0
9
$CECOLOR
62
256
9
$CELTSCALE
40
1
9
$CELTYPE
6
ByLayer
9
$CELWEIGHT
370
18
9
$CLAYER
8
0
9
$CMLJUST
70
0
9
$CMLSCALE
40
1
9
$CMLSTYLE
2
Standard
9
$DIMSTYLE
2
Standard
9
$TEXTSIZE
40
0.2
9
$TEXTSTYLE
7
Standard
9
$LUNITS
70
2
9
$LUPREC
70
4
9
$EXTNAMES
290
1
9
$INSUNITS
70
4
9
$LTSCALE
40
1
9
$LWDISPLAY
290
1
9
$PDMODE
70
0
9
$PDSIZE
40
0
9
$PLINEGEN
70
0
0
ENDSEC
0
SECTION
2
CLASSES
0
CLASS
1
RASTERVARIABLES
2
AcDbRasterVariables
3
ISM
90
0
280
0
281
0
0
ENDSEC
0
SECTION
2
TABLES
0
TABLE
2
VPORT
5
193
100
AcDbSymbolTable
0
VPORT
5
1
100
AcDbSymbolTableRecord
100
AcDbViewportTableRecord
2
*Active
70
0
10
0
20
0
11
1
21
1
12
-1
22
1
13
0
23
0
14
0.5
24
0.5
15
10
25
10
16
0
26
0
36
1
17
0
27
0
37
0
0
ENDTAB
0
TABLE
2
LTYPE
5
194
100
AcDbSymbolTable
0
LTYPE
5
14
100
AcDbSymbolTableRecord
100
AcDbLinetypeTableRecord
70
0
2
ByBlock
3

72
65
73
0
40
0
0
LTYPE
5
15
100
AcDbSymbolTableRecord
100
AcDbLinetypeTableRecord
70
0
2
ByLayer
3

72
65
73
0
40
0
0
LTYPE
5
16
100
AcDbSymbolTableRecord
100
AcDbLinetypeTableRecord
70
0
2
CONTINUOUS
3
Solid line
72
65
73
0
40
0
0
LTYPE
5
6A
100
AcDbSymbolTableRecord
100
AcDbLinetypeTableRecord
70
0
2
CENTER
3
____ _ ____ _ ____ _ ____
72
65
73
4
40
47.5
49
22
74
0
49
-8.5
74
0
49
8.5
74
0
49
-8.5
74
0
0
LTYPE
5
6B
100
AcDbSymbolTableRecord
100
AcDbLinetypeTableRecord
70
0
2
DASHED
3
__ __ __ __ __ __ __ __ __
72
65
73
2
40
25.72
49
12.86
74
0
49
-12.86
74
0
0
ENDTAB
0
TABLE
2
LAYER
5
195
100
AcDbSymbolTable
0
LAYER
5
10
100
AcDbSymbolTableRecord
100
AcDbLayerTableRecord
2
0
70
0
62
7
6
CONTINUOUS
290
1
370
-3
390
0
0
LAYER
5
6D
100
AcDbSymbolTableRecord
100
AcDbLayerTableRecord
2
81
70
0
62
-3
6
CONTINUOUS
290
1
370
-3
390
0
0
LAYER
5
6F
100
AcDbSymbolTableRecord
100
AcDbLayerTableRecord
2
80
70
0
62
-6
6
CONTINUOUS
290
1
370
-3
390
0
0
LAYER
5
74
100
AcDbSymbolTableRecord
100
AcDbLayerTableRecord
2
2
70
0
62
7
6
CONTINUOUS
290
1
370
-3
390
0
0
LAYER
5
78
100
AcDbSymbolTableRecord
100
AcDbLayerTableRecord
2
1
70
0
62
4
6
CONTINUOUS
290
1
370
-3
390
0
0
LAYER
5
86
100
AcDbSymbolTableRecord
100
AcDbLayerTableRecord
2
4
70
0
62
-2
6
CENTER
290
1
370
-3
390
0
0
LAYER
5
17f
100
AcDbSymbolTableRecord
100
AcDbLayerTableRecord
2
SK2
70
0
62
7
6
CONTINUOUS
290
1
370
-3
390
0
0
LAYER
5
180
100
AcDbSymbolTableRecord
100
AcDbLayerTableRecord
2
SK1
70
0
62
4
6
CONTINUOUS
290
1
370
-3
390
0
0
LAYER
5
181
100
AcDbSymbolTableRecord
100
AcDbLayerTableRecord
2
SK4
70
0
62
2
6
CENTER
290
1
370
-3
390
0
0
LAYER
5
182
100
AcDbSymbolTableRecord
100
AcDbLayerTableRecord
2
SK6
70
0
62
5
6
CONTINUOUS
290
1
370
-3
390
0
0
ENDTAB
0
TABLE
2
STYLE
5
196
100
AcDbSymbolTable
0
STYLE
5
11
100
AcDbSymbolTableRecord
100
AcDbTextStyleTableRecord
2
Standard
3
txt
70
0
71
0
40
0
41
1
42
0
50
0
0
STYLE
5
DB
100
AcDbSymbolTableRecord
100
AcDbTextStyleTableRecord
2
iso_b_vert
3
simplex.shx
70
0
71
0
40
0
41
1
42
0
50
0
0
STYLE
5
DC
100
AcDbSymbolTableRecord
100
AcDbTextStyleTableRecord
2
DWGDirectTextStyle
3
simplex
70
0
71
0
40
0
41
1
42
0
50
0
0
ENDTAB
0
TABLE
2
DIMSTYLE
5
197
100
AcDbSymbolTable
100
AcDbDimStyleTable
0
DIMSTYLE
105
27
100
AcDbSymbolTableRecord
100
AcDbDimStyleTableRecord
2
Standard
70
0
3
<>
41
0.18
42
0.0625
44
0.18
140
0.18
147
0.09
73
0
74
0
77
1
271
2
275
0
278
52
280
0
340
11
0
ENDTAB
0
TABLE
2
VIEW
5
198
100
AcDbSymbolTable
0
ENDTAB
0
TABLE
2
UCS
5
199
100
AcDbSymbolTable
0
ENDTAB
0
TABLE
2
APPID
5
19a
100
AcDbSymbolTable
0
APPID
5
12
100
AcDbSymbolTableRecord
100
AcDbRegAppTableRecord
2
ACAD
70
0
0
ENDTAB
0
TABLE
2
BLOCK_RECORD
5
19b
100
AcDbSymbolTable
0
BLOCK_RECORD
5
1F
100
AcDbSymbolTableRecord
100
AcDbBlockTableRecord
2
*Model_Space
340
0
70
0
0
BLOCK_RECORD
5
1B
100
AcDbSymbolTableRecord
100
AcDbBlockTableRecord
2
*Paper_Space
340
0
70
0
0
BLOCK_RECORD
5
23
100
AcDbSymbolTableRecord
100
AcDbBlockTableRecord
2
*Paper_Space0
340
0
70
0
0
BLOCK_RECORD
5
DE
100
AcDbSymbolTableRecord
100
AcDbBlockTableRecord
2
DimnDraft3D1
340
0
70
0
0
BLOCK_RECORD
5
E8
100
AcDbSymbolTableRecord
100
AcDbBlockTableRecord
2
DimnDraft3D2
340
0
70
0
0
BLOCK_RECORD
5
F2
100
AcDbSymbolTableRecord
100
AcDbBlockTableRecord
2
DimnDraft3D3
340
0
70
0
0
BLOCK_RECORD
5
FC
100
AcDbSymbolTableRecord
100
AcDbBlockTableRecord
2
DimnDraft3D4
340
0
70
0
0
BLOCK_RECORD
5
106
100
AcDbSymbolTableRecord
100
AcDbBlockTableRecord
2
DimnDraft3D5
340
0
70
0
0
BLOCK_RECORD
5
110
100
AcDbSymbolTableRecord
100
AcDbBlockTableRecord
2
DimnDraft3D6
340
0
70
0
0
BLOCK_RECORD
5
11B
100
AcDbSymbolTableRecord
100
AcDbBlockTableRecord
2
DimnDraft3D7
340
0
70
0
0
ENDTAB
0
ENDSEC
0
SECTION
2
BLOCKS
0
BLOCK
5
20
100
AcDbEntity
8
0
100
AcDbBlockBegin
2
*Model_Space
70
0
10
0
20
0
30
0
3
*Model_Space
0
ENDBLK
5
21
100
AcDbEntity
8
0
100
AcDbBlockEnd
0
BLOCK
5
1C
100
AcDbEntity
8
0
100
AcDbBlockBegin
2
*Paper_Space
70
0
10
0
20
0
30
0
3
*Paper_Space
0
ENDBLK
5
1D
100
AcDbEntity
8
0
100
AcDbBlockEnd
0
BLOCK
5
24
100
AcDbEntity
8
0
100
AcDbBlockBegin
2
*Paper_Space0
70
0
10
0
20
0
30
0
3
*Paper_Space0
0
ENDBLK
5
25
100
AcDbEntity
8
0
100
AcDbBlockEnd
0
BLOCK
5
E5
100
AcDbEntity
8
0
100
AcDbBlockBegin
2
DimnDraft3D1
70
0
10
0
20
0
30
0
3
DimnDraft3D1
0
MTEXT
5
DF
100
AcDbEntity
8
SK2
62
256
6
ByLayer
370
13
48
1
60
0
100
AcDbMText
10
24.148875
20
-15.438398
30
0
210
0
220
0
230
1
1
\W0.7211;59,91
40
3.5
41
0
44
1.084337
50
0
71
7
72
5
7
iso_b_vert
0
LINE
5
E0
100
AcDbEntity
8
SK2
62
256
6
ByLayer
370
13
48
1
60
0
100
AcDbLine
10
0
20
-1.5875
30
0
11
0
21
-18.313398
31
0
39
0
210
0
220
0
230
1
0
LINE
5
E1
100
AcDbEntity
8
SK2
62
256
6
ByLayer
370
13
48
1
60
0
100
AcDbLine
10
59.91
20
-7.6875
30
0
11
59.91
21
-18.313398
31
0
39
0
210
0
220
0
230
1
0
LINE
5
E2
100
AcDbEntity
8
SK2
62
256
6
ByLayer
370
13
48
1
60
0
100
AcDbLine
10
0
20
-16.313398
30
0
11
59.91
21
-16.313398
31
0
39
0
210
0
220
0
230
1
0
SOLID
5
E3
100
AcDbEntity
8
SK2
62
256
6
ByLayer
370
13
48
1
60
0
100
AcDbTrace
10
0
20
-16.313398
30
0
11
3.499998
21
-15.852615
31
0
12
3.500002
22
-16.774182
32
0
13
0
23
-16.313398
33
0
39
0
210
0
220
0
230
1
0
SOLID
5
E4
100
AcDbEntity
8
SK2
62
256
6
ByLayer
370
13
48
1
60
0
100
AcDbTrace
10
59.91
20
-16.313398
30
0
11
56.410002
21
-16.774182
31
0
12
56.409998
22
-15.852615
32
0
13
59.91
23
-16.313398
33
0
39
0
210
0
220
0
230
1
0
ENDBLK
5
E6
100
AcDbEntity
8
0
100
AcDbBlockEnd
0
BLOCK
5
EF
100
AcDbEntity
8
0
100
AcDbBlockBegin
2
DimnDraft3D2
70
0
10
0
20
0
30
0
3
DimnDraft3D2
0
MTEXT
5
E9
100
AcDbEntity
8
SK2
62
256
6
ByLayer
370
13
48
1
60
0
100
AcDbMText
10
2.432221
20
-34.817985
30
0
210
0
220
0
230
1
1
\W0.6930;107,00
40
3.5
41
0
44
1.084337
50
0
71
7
72
5
7
iso_b_vert
0
LINE
5
EA
100
AcDbEntity
8
SK2
62
256
6
ByLayer
370
13
48
1
60
0
100
AcDbLine
10
-45
20
-8.5875
30
0
11
-45
21
-37.692985
31
0
39
0
210
0
220
0
230
1
0
LINE
5
EB
100
AcDbEntity
8
SK2
62
256
6
ByLayer
370
13
48
1
60
0
100
AcDbLine
10
62
20
-1.5875
30
0
11
62
21
-37.692985
31
0
39
0
210
0
220
0
230
1
0
LINE
5
EC
100
AcDbEntity
8
SK2
62
256
6
ByLayer
370
13
48
1
60
0
100
AcDbLine
10
-45
20
-35.692985
30
0
11
62
21
-35.692985
31
0
39
0
210
0
220
0
230
1
0
SOLID
5
ED
100
AcDbEntity
8
SK2
62
256
6
ByLayer
370
13
48
1
60
0
100
AcDbTrace
10
-45
20
-35.692985
30
0
11
-41.500002
21
-35.232202
31
0
12
-41.499998
22
-36.153769
32
0
13
-45
23
-35.692985
33
0
39
0
210
0
220
0
230
1
0
SOLID
5
EE
100
AcDbEntity
8
SK2
62
256
6
ByLayer
370
13
48
1
60
0
100
AcDbTrace
10
62
20
-35.692985
30
0
11
58.500002
21
-36.153769
31
0
12
58.499998
22
-35.232202
32
0
13
62
23
-35.692985
33
0
39
0
210
0
220
0
230
1
0
ENDBLK
5
F0
100
AcDbEntity
8
0
100
AcDbBlockEnd
0
BLOCK
5
F9
100
AcDbEntity
8
0
100
AcDbBlockBegin
2
DimnDraft3D3
70
0
10
0
20
0
30
0
3
DimnDraft3D3
0
MTEXT
5
F3
100
AcDbEntity
8
SK2
62
256
6
ByLayer
370
13
48
1
60
0
100
AcDbMText
10
38.206316
20
18.584119
30
0
210
0
220
0
230
1
1
\W0.7402;38,69
40
3.5
41
0
44
1.084337
50
0
71
7
72
5
7
iso_b_vert
0
LINE
5
F4
100
AcDbEntity
8
SK2
62
256
6
ByLayer
370
13
48
1
60
0
100
AcDbLine
10
23.31
20
7.6875
30
0
11
23.31
21
19.709119
31
0
39
0
210
0
220
0
230
1
0
LINE
5
F5
100
AcDbEntity
8
SK2
62
256
6
ByLayer
370
13
48
1
60
0
100
AcDbLine
10
62
20
1.5875
30
0
11
62
21
19.709119
31
0
39
0
210
0
220
0
230
1
0
LINE
5
F6
100
AcDbEntity
8
SK2
62
256
6
ByLayer
370
13
48
1
60
0
100
AcDbLine
10
23.31
20
17.709119
30
0
11
62
21
17.709119
31
0
39
0
210
0
220
0
230
1
0
SOLID
5
F7
100
AcDbEntity
8
SK2
62
256
6
ByLayer
370
13
48
1
60
0
100
AcDbTrace
10
23.31
20
17.709119
30
0
11
26.809998
21
18.169903
31
0
12
26.810002
22
17.248335
32
0
13
23.31
23
17.709119
33
0
39
0
210
0
220
0
230
1
0
SOLID
5
F8
100
AcDbEntity
8
SK2
62
256
6
ByLayer
370
13
48
1
60
0
100
AcDbTrace
10
62
20
17.709119
30
0
11
58.500002
21
17.248335
31
0
12
58.499998
22
18.169903
32
0
13
62
23
17.709119
33
0
39
0
210
0
220
0
230
1
0
ENDBLK
5
FA
100
AcDbEntity
8
0
100
AcDbBlockEnd
0
BLOCK
5
103
100
AcDbEntity
8
0
100
AcDbBlockBegin
2
DimnDraft3D4
70
0
10
0
20
0
30
0
3
DimnDraft3D4
0
MTEXT
5
FD
100
AcDbEntity
8
SK2
62
256
6
ByLayer
370
13
48
1
60
0
100
AcDbMText
10
68.840636
20
-18.027503
30
0
210
0
220
0
230
1
1
\W0.7259;2,09
40
3.5
41
0
44
1.084337
50
0
71
7
72
5
7
iso_b_vert
0
LINE
5
FE
100
AcDbEntity
8
SK2
62
256
6
ByLayer
370
13
48
1
60
0
100
AcDbLine
10
62
20
-1.5875
30
0
11
62
21
-20.902503
31
0
39
0
210
0
220
0
230
1
0
LINE
5
FF
100
AcDbEntity
8
SK2
62
256
6
ByLayer
370
13
48
1
60
0
100
AcDbLine
10
59.91
20
-7.6875
30
0
11
59.91
21
-20.902503
31
0
39
0
210
0
220
0
230
1
0
LINE
5
100
100
AcDbEntity
8
SK2
62
256
6
ByLayer
370
13
48
1
60
0
100
AcDbLine
10
51.16
20
-18.902503
30
0
11
75.997215
21
-18.902503
31
0
39
0
210
0
220
0
230
1
0
SOLID
5
101
100
AcDbEntity
8
SK2
62
256
6
ByLayer
370
13
48
1
60
0
100
AcDbTrace
10
62
20
-18.902503
30
0
11
65.499998
21
-18.441719
31
0
12
65.500002
22
-19.363287
32
0
13
62
23
-18.902503
33
0
39
0
210
0
220
0
230
1
0
SOLID
5
102
100
AcDbEntity
8
SK2
62
256
6
ByLayer
370
13
48
1
60
0
100
AcDbTrace
10
59.91
20
-18.902503
30
0
11
56.410002
21
-19.363287
31
0
12
56.409998
22
-18.441719
32
0
13
59.91
23
-18.902503
33
0
39
0
210
0
220
0
230
1
0
ENDBLK
5
104
100
AcDbEntity
8
0
100
AcDbBlockEnd
0
BLOCK
5
10D
100
AcDbEntity
8
0
100
AcDbBlockBegin
2
DimnDraft3D5
70
0
10
0
20
0
30
0
3
DimnDraft3D5
0
MTEXT
5
107
100
AcDbEntity
8
SK2
62
256
6
ByLayer
370
13
48
1
60
0
100
AcDbMText
10
-0.395113
20
-24.468428
30
0
210
0
220
0
230
1
1
\W0.7050;104,91
40
3.5
41
0
44
1.084337
50
0
71
7
72
5
7
iso_b_vert
0
LINE
5
108
100
AcDbEntity
8
SK2
62
256
6
ByLayer
370
13
48
1
60
0
100
AcDbLine
10
-45
20
-8.5875
30
0
11
-45
21
-27.343428
31
0
39
0
210
0
220
0
230
1
0
LINE
5
109
100
AcDbEntity
8
SK2
62
256
6
ByLayer
370
13
48
1
60
0
100
AcDbLine
10
59.91
20
-7.6875
30
0
11
59.91
21
-27.343428
31
0
39
0
210
0
220
0
230
1
0
LINE
5
10A
100
AcDbEntity
8
SK2
62
256
6
ByLayer
370
13
48
1
60
0
100
AcDbLine
10
-45
20
-25.343428
30
0
11
59.91
21
-25.343428
31
0
39
0
210
0
220
0
230
1
0
SOLID
5
10B
100
AcDbEntity
8
SK2
62
256
6
ByLayer
370
13
48
1
60
0
100
AcDbTrace
10
-45
20
-25.343428
30
0
11
-41.500002
21
-24.882645
31
0
12
-41.499998
22
-25.804212
32
0
13
-45
23
-25.343428
33
0
39
0
210
0
220
0
230
1
0
SOLID
5
10C
100
AcDbEntity
8
SK2
62
256
6
ByLayer
370
13
48
1
60
0
100
AcDbTrace
10
59.91
20
-25.343428
30
0
11
56.410002
21
-25.804212
31
0
12
56.409998
22
-24.882645
32
0
13
59.91
23
-25.343428
33
0
39
0
210
0
220
0
230
1
0
ENDBLK
5
10E
100
AcDbEntity
8
0
100
AcDbBlockEnd
0
BLOCK
5
118
100
AcDbEntity
8
0
100
AcDbBlockBegin
2
DimnDraft3D6
70
0
10
0
20
0
30
0
3
DimnDraft3D6
0
MTEXT
5
111
100
AcDbEntity
8
SK2
62
256
6
ByLayer
370
13
48
1
60
0
100
AcDbMText
10
-55.375163
20
26.34918
30
0
210
0
220
0
230
1
1
\W0.7145;14,000
40
3.5
41
0
44
1.084337
50
90
71
7
72
5
7
iso_b_vert
0
MTEXT
5
112
100
AcDbEntity
8
SK2
62
256
6
ByLayer
370
13
48
1
60
0
100
AcDbMText
10
-55.375163
20
21.126524
30
0
210
0
220
0
230
1
1
%%c
40
3.5
41
0
44
1.084337
50
90
71
7
72
5
7
iso_b_vert
0
LINE
5
113
100
AcDbEntity
8
SK2
62
256
6
ByLayer
370
13
48
1
60
0
100
AcDbLine
10
-46.5875
20
-7
30
0
11
-55.625163
21
-7
31
0
39
0
210
0
220
0
230
1
0
LINE
5
114
100
AcDbEntity
8
SK2
62
256
6
ByLayer
370
13
48
1
60
0
100
AcDbLine
10
-46.5875
20
7
30
0
11
-55.625163
21
7
31
0
39
0
210
0
220
0
230
1
0
LINE
5
115
100
AcDbEntity
8
SK2
62
256
6
ByLayer
370
13
48
1
60
0
100
AcDbLine
10
-53.625163
20
-7
30
0
11
-53.625163
21
38.230759
31
0
39
0
210
0
220
0
230
1
0
SOLID
5
116
100
AcDbEntity
8
SK2
62
256
6
ByLayer
370
13
48
1
60
0
100
AcDbTrace
10
-53.625163
20
-7
30
0
11
-54.085946
21
-3.500002
31
0
12
-53.164379
22
-3.499998
32
0
13
-53.625163
23
-7
33
0
39
0
210
0
220
0
230
1
0
SOLID
5
117
100
AcDbEntity
8
SK2
62
256
6
ByLayer
370
13
48
1
60
0
100
AcDbTrace
10
-53.625163
20
7
30
0
11
-53.164379
21
3.500002
31
0
12
-54.085946
22
3.499998
32
0
13
-53.625163
23
7
33
0
39
0
210
0
220
0
230
1
0
ENDBLK
5
119
100
AcDbEntity
8
0
100
AcDbBlockEnd
0
BLOCK
5
123
100
AcDbEntity
8
0
100
AcDbBlockBegin
2
DimnDraft3D7
70
0
10
0
20
0
30
0
3
DimnDraft3D7
0
MTEXT
5
11C
100
AcDbEntity
8
2
62
256
6
ByLayer
370
13
48
1
60
0
100
AcDbMText
10
72.333343
20
24.042266
30
0
210
0
220
0
230
1
1
\W0.6930;12,200
40
3.5
41
0
44
1.084337
50
90
71
7
72
5
7
iso_b_vert
0
MTEXT
5
11D
100
AcDbEntity
8
2
62
256
6
ByLayer
370
13
48
1
60
0
100
AcDbMText
10
72.333343
20
18.81961
30
0
210
0
220
0
230
1
1
%%c
40
3.5
41
0
44
1.084337
50
90
71
7
72
5
7
iso_b_vert
0
LINE
5
11E
100
AcDbEntity
8
2
62
256
6
ByLayer
370
13
48
1
60
0
100
AcDbLine
10
61.4975
20
-6.1
30
0
11
76.083343
21
-6.1
31
0
39
0
210
0
220
0
230
1
0
LINE
5
11F
100
AcDbEntity
8
2
62
256
6
ByLayer
370
13
48
1
60
0
100
AcDbLine
10
61.4975
20
6.1
30
0
11
76.083343
21
6.1
31
0
39
0
210
0
220
0
230
1
0
LINE
5
120
100
AcDbEntity
8
2
62
256
6
ByLayer
370
13
48
1
60
0
100
AcDbLine
10
74.083343
20
-6.1
30
0
11
74.083343
21
35.555424
31
0
39
0
210
0
220
0
230
1
0
SOLID
5
121
100
AcDbEntity
8
2
62
256
6
ByLayer
370
13
48
1
60
0
100
AcDbTrace
10
74.083343
20
-6.1
30
0
11
73.622559
21
-2.600002
31
0
12
74.544126
22
-2.599998
32
0
13
74.083343
23
-6.1
33
0
39
0
210
0
220
0
230
1
0
SOLID
5
122
100
AcDbEntity
8
2
62
256
6
ByLayer
370
13
48
1
60
0
100
AcDbTrace
10
74.083343
20
6.1
30
0
11
74.544126
21
2.600002
31
0
12
73.622559
22
2.599998
32
0
13
74.083343
23
6.1
33
0
39
0
210
0
220
0
230
1
0
ENDBLK
5
124
100
AcDbEntity
8
0
100
AcDbBlockEnd
0
ENDSEC
0
SECTION
2
ENTITIES
0
ARC
5
99
100
AcDbEntity
8
1
62
256
6
ByLayer
370
18
48
1
60
0
100
AcDbCircle
39
0
10
0
20
6.2
30
0
40
0.800000000000003
210
0
220
0
230
1
100
AcDbArc
50
24.554819
51
90
0
ARC
5
9A
100
AcDbEntity
8
1
62
256
6
ByLayer
370
18
48
1
60
0
100
AcDbCircle
39
0
10
0
20
-6.2
30
0
40
0.800000000000003
210
0
220
0
230
1
100
AcDbArc
50
270
51
335.445181
0
ARC
5
9B
100
AcDbEntity
8
1
62
256
6
ByLayer
370
18
48
1
60
0
100
AcDbCircle
39
0
10
-1.455303
20
6.864902
30
0
40
0.799999999999996
210
0
220
0
230
-1
100
AcDbArc
50
269.965623
51
335.445181
0
ARC
5
9C
100
AcDbEntity
8
1
62
256
6
ByLayer
370
18
48
1
60
0
100
AcDbCircle
39
0
10
-1.455303
20
-6.864902
30
0
40
0.799999999999996
210
0
220
0
230
-1
100
AcDbArc
50
24.554819
51
90.034377
0
ELLIPSE
5
9D
100
AcDbEntity
8
1
62
256
6
ByLayer
370
18
48
1
60
0
100
AcDbEllipse
10
4.25
20
-6.048076
30
0
11
0.25
21
0
31
0
210
0
220
0
230
1
40
1
41
1.58070243263015
42
3.12688309421559
0
ELLIPSE
5
9E
100
AcDbEntity
8
1
62
256
6
ByLayer
370
18
48
1
60
0
100
AcDbEllipse
10
4.25
20
6.048076
30
0
11
0.25
21
0
31
0
210
0
220
0
230
1
40
1
41
-3.12688309421555
42
-1.55638909254619
0
ELLIPSE
5
9F
100
AcDbEntity
8
1
62
256
6
ByLayer
370
18
48
1
60
0
100
AcDbEllipse
10
62.000517
20
0.001332
30
0
11
2.23676405236536
21
6.09846210261023
31
0
210
0
220
0
230
-1
40
0.082138
41
2.89624601158827
42
2.98866592397498
0
ELLIPSE
5
A0
100
AcDbEntity
8
1
62
256
6
ByLayer
370
18
48
1
60
0
100
AcDbEllipse
10
62.020287
20
-0.046627
30
0
11
0.135658546018762
21
0.401200806192479
31
0
210
0
220
0
230
-1
40
0.065863
41
-2.32292776271057
42
-1.62056265027167
0
ELLIPSE
5
A1
100
AcDbEntity
8
1
62
256
6
ByLayer
370
13
48
1
60
0
100
AcDbEllipse
10
61.199344
20
2.912454
30
0
11
4.10390870561728
21
-1.77554483702071
31
0
210
0
220
0
230
-1
40
0.450051
41
1.59050978322984
42
1.90855179176511
0
ELLIPSE
5
A2
100
AcDbEntity
8
1
62
256
6
ByLayer
370
13
48
1
60
0
100
AcDbEllipse
10
4.250142
20
0.703264
30
0
11
0.0460918342001167
21
0.0887442551383973
31
0
210
0
220
0
230
1
40
0.056079
41
3.04906028790828
42
-1.6763072848666
0
ELLIPSE
5
A3
100
AcDbEntity
8
1
62
256
6
ByLayer
370
18
48
1
60
0
100
AcDbEllipse
10
60.867196
20
2.912454
30
0
11
0.939251672795909
21
-2.56083816127621
31
0
210
0
220
0
230
-1
40
0.082138
41
-1.56771671248514
42
-0.755280950344975
0
ELLIPSE
5
A4
100
AcDbEntity
8
1
62
256
6
ByLayer
370
18
48
1
60
0
100
AcDbEllipse
10
62.000517
20
-0.001332
30
0
11
2.23676403243349
21
-6.09846204548079
31
0
210
0
220
0
230
-1
40
0.082138
41
-2.98866592325956
42
-2.89624601043427
0
ELLIPSE
5
A5
100
AcDbEntity
8
1
62
256
6
ByLayer
370
13
48
1
60
0
100
AcDbEllipse
10
61.029886
20
2.778162
30
0
11
4.05782242317054
21
-2.08608318870565
31
0
210
0
220
0
230
-1
40
0.482873
41
1.53949524916802
42
1.85130260825346
0
ELLIPSE
5
A6
100
AcDbEntity
8
1
62
256
6
ByLayer
370
13
48
1
60
0
100
AcDbEllipse
10
4.180307
20
0.741423
30
0
11
-0.0500759273293497
21
-0.0865586593132409
31
0
210
0
220
0
230
1
40
0.367009
41
-1.23588942944094
42
-0.234241025327114
0
ELLIPSE
5
A7
100
AcDbEntity
8
1
62
256
6
ByLayer
370
18
48
1
60
0
100
AcDbEllipse
10
62.020287
20
0.046627
30
0
11
0.135658546000645
21
-0.401200806144626
31
0
210
0
220
0
230
-1
40
0.065863
41
1.62056265021324
42
2.32292776273499
0
ELLIPSE
5
A8
100
AcDbEntity
8
1
62
256
6
ByLayer
370
13
48
1
60
0
100
AcDbEllipse
10
60.319518
20
0.888714
30
0
11
0.133113781883896
21
0.268850741253519
31
0
210
0
220
0
230
1
40
0.40558
41
0.884485917130896
42
2.28074931872635
0
ELLIPSE
5
A9
100
AcDbEntity
8
1
62
256
6
ByLayer
370
18
48
1
60
0
100
AcDbEllipse
10
60.867196
20
-2.912454
30
0
11
0.939251672768454
21
2.56083816121347
31
0
210
0
220
0
230
-1
40
0.082138
41
0.75528095034725
42
1.5677167125049
0
ELLIPSE
5
AA
100
AcDbEntity
8
1
62
256
6
ByLayer
370
18
48
1
60
0
100
AcDbEllipse
10
61.860117
20
0.125931
30
0
11
0.0868803724512094
21
0.290676908874852
31
0
210
0
220
0
230
-1
40
0.467765
41
1.66663888473543
42
2.36053717392991
0
POINT
5
6C
100
AcDbEntity
8
81
62
256
6
ByLayer
370
18
48
1
60
0
100
AcDbPoint
10
62
20
0
30
0
39
0
210
0
220
0
230
1
50
360
0
POINT
5
6E
100
AcDbEntity
8
80
62
256
6
ByLayer
370
18
48
1
60
0
100
AcDbPoint
10
0
20
0
30
0
39
0
210
0
220
0
230
1
50
360
0
POINT
5
70
100
AcDbEntity
8
SK2
62
256
6
ByLayer
370
18
48
1
60
1
100
AcDbPoint
10
-45
20
-7
30
0
39
0
210
0
220
0
230
1
50
360
0
POINT
5
72
100
AcDbEntity
8
SK2
62
256
6
ByLayer
370
18
48
1
60
1
100
AcDbPoint
10
-45
20
7
30
0
39
0
210
0
220
0
230
1
50
360
0
POINT
5
73
100
AcDbEntity
8
2
62
256
6
ByLayer
370
18
48
1
60
1
100
AcDbPoint
10
59.91
20
-6.1
30
0
39
0
210
0
220
0
230
1
50
360
0
POINT
5
75
100
AcDbEntity
8
2
62
256
6
ByLayer
370
18
48
1
60
1
100
AcDbPoint
10
59.91
20
6.1
30
0
39
0
210
0
220
0
230
1
50
360
0
SPLINE
5
AB
100
AcDbEntity
8
1
62
256
6
ByLayer
370
18
48
1
60
0
100
AcDbSpline
70
4
71
2
72
6
73
3
40
0
40
0
40
0
40
1
40
1
40
1
41
1
10
5.37371532492421
20
0.0041328861019281
30
0
41
1
10
5.37370623044689
20
0.0041376350854421
30
0
41
1
10
5.37369713596797
20
0.0041425249058022
30
0
0
SPLINE
5
AC
100
AcDbEntity
8
1
62
256
6
ByLayer
370
18
48
1
60
0
100
AcDbSpline
70
4
71
2
72
6
73
3
40
0
40
0
40
0
40
1
40
1
40
1
41
1
10
58.6980761372822
20
-5.83036993450369
30
0
41
1
10
59.2806303402287
20
-5.82917992235224
30
0
41
1
10
59.862139697767
20
-5.83213136827476
30
0
0
SPLINE
5
AD
100
AcDbEntity
8
1
62
256
6
ByLayer
370
18
48
1
60
0
100
AcDbSpline
70
4
71
3
72
32
73
28
40
0
40
0
40
0
40
0
40
0.0301283767625016
40
0.0640647653734533
40
0.0957424551079851
40
0.130119615373109
40
0.161370572436762
40
0.215775286322483
40
0.275131696001133
40
0.308210381062019
40
0.343598950838445
40
0.382011923291844
40
0.423665962950715
40
0.469870418851057
40
0.514603538527124
40
0.547333429622038
40
0.590638480195986
40
0.644773316583389
40
0.696103885363032
40
0.740734241416235
40
0.787311797335803
40
0.833285893415244
40
0.875021137920685
40
0.922588066370953
40
0.969176827339096
40
0.989845519624548
40
1
40
1
40
1
40
1
41
1
10
41.6164173203661
20
5.81099381120737
30
0
41
1
10
41.465024397435
20
5.81179900752807
30
0
41
1
10
41.1442717799234
20
5.81341258812785
30
0
41
1
10
40.6740982540508
20
5.8164566728
30
0
41
1
10
40.1759910150762
20
5.8173906954477
30
0
41
1
10
39.6870645377957
20
5.81704450570291
30
0
41
1
10
39.0768624069718
20
5.81655108359243
30
0
41
1
10
38.3428066247948
20
5.81757395357084
30
0
41
1
10
37.597491605988
20
5.81712976407744
30
0
41
1
10
36.9491670980963
20
5.81677714065847
30
0
41
1
10
36.4069917338403
20
5.81658259367154
30
0
41
1
10
35.8213436349611
20
5.8138344634423
30
0
41
1
10
35.1808209759136
20
5.81394231875384
30
0
41
1
10
34.5082429259139
20
5.81440612878717
30
0
41
1
10
33.8809298257402
20
5.81516140013346
30
0
41
1
10
33.2683252079271
20
5.81631298030956
30
0
41
1
10
32.608033016651
20
5.81328276179636
30
0
41
1
10
31.8534571540123
20
5.81284825876597
30
0
41
1
10
31.0920401184103
20
5.81343654130825
30
0
41
1
10
30.3690994403832
20
5.81375791905575
30
0
41
1
10
29.6732592159297
20
5.81367523206211
30
0
41
1
10
28.9920829267643
20
5.81100609527718
30
0
41
1
10
28.3058817768477
20
5.8113954090195
30
0
41
1
10
27.6165689674696
20
5.81159610938369
30
0
41
1
10
27.0341020343243
20
5.8116489998693
30
0
41
1
10
26.6414440033113
20
5.81150193088578
30
0
41
1
10
26.4851027107684
20
5.81135917825563
30
0
41
1
10
26.4335972237395
20
5.81130328413698
30
0
0
SPLINE
5
AE
100
AcDbEntity
8
1
62
256
6
ByLayer
370
18
48
1
60
0
100
AcDbSpline
70
4
71
2
72
6
73
3
40
0
40
0
40
0
40
1
40
1
40
1
41
1
10
4.25051504358609
20
-5.79736776379357
30
0
41
1
10
5.22004766541795
20
-5.79949174388855
30
0
41
1
10
6.19556644779058
20
-5.79967645793326
30
0
0
SPLINE
5
AF
100
AcDbEntity
8
1
62
256
6
ByLayer
370
18
48
1
60
0
100
AcDbSpline
70
4
71
3
72
38
73
34
40
0
40
0
40
0
40
0
40
0.0452601166481499
40
0.0864854062687382
40
0.121503425051128
40
0.144739573199825
40
0.161272562285562
40
0.176593403192856
40
0.190913585428253
40
0.205963816107359
40
0.222129262123676
40
0.268496628712083
40
0.308794946803895
40
0.34690091402317
40
0.385507063363404
40
0.422499261792043
40
0.465044980752648
40
0.509915037517665
40
0.545808746765866
40
0.576111222295369
40
0.617769964438663
40
0.658726144555979
40
0.695513294109334
40
0.729236636631458
40
0.760186163571154
40
0.789173484997721
40
0.816269895802251
40
0.850408207857187
40
0.883947274007552
40
0.921484478632637
40
0.95273191758013
40
0.986569815085509
40
1
40
1
40
1
40
1
41
1
10
23.3014840681332
20
-5.80901140436799
30
0
41
1
10
23.578361998671
20
-5.80913026589849
30
0
41
1
10
24.1074930415434
20
-5.80936329418043
30
0
41
1
10
24.8511264214468
20
-5.80987215594513
30
0
41
1
10
25.4599276632875
20
-5.81004940735795
30
0
41
1
10
25.9175814849982
20
-5.81048341352661
30
0
41
1
10
26.2547108095766
20
-5.81110738576899
30
0
41
1
10
26.5372717861951
20
-5.81143782168274
30
0
41
1
10
26.8107618782908
20
-5.8115665100589
30
0
41
1
10
27.0894369318703
20
-5.81163201245261
30
0
41
1
10
27.5642428847755
20
-5.81161295448365
30
0
41
1
10
28.1935645146787
20
-5.81146786867899
30
0
41
1
10
28.9571639060761
20
-5.81089373343713
30
0
41
1
10
29.6732592780574
20
-5.81366875993072
30
0
41
1
10
30.3690994243445
20
-5.81375946763549
30
0
41
1
10
31.0920401238653
20
-5.81343646160622
30
0
41
1
10
31.8534571499003
20
-5.81284648731997
30
0
41
1
10
32.6080330264335
20
-5.81328967411238
30
0
41
1
10
33.2877502259647
20
-5.8163832463087
30
0
41
1
10
33.9478180414775
20
-5.81501416304971
30
0
41
1
10
34.6388685111957
20
-5.81432456537664
30
0
41
1
10
35.3696016090185
20
-5.81366052445858
30
0
41
1
10
36.051773426299
20
-5.81480970272807
30
0
41
1
10
36.6726994048393
20
-5.81700417681017
30
0
41
1
10
37.2459071237593
20
-5.81676458692019
30
0
41
1
10
37.7785141087403
20
-5.8173941699016
30
0
41
1
10
38.3307886323612
20
-5.81741648115869
30
0
41
1
10
38.9102215926538
20
-5.81673952209738
30
0
41
1
10
39.5549897438615
20
-5.81681529078352
30
0
41
1
10
40.1770432706308
20
-5.81746916274716
30
0
41
1
10
40.7939065368291
20
-5.81631449996627
30
0
41
1
10
41.2546152498456
20
-5.8118608273075
30
0
41
1
10
41.5426102307285
20
-5.8110413572654
30
0
41
1
10
41.6247725423813
20
-5.8108435399794
30
0
0
SPLINE
5
B0
100
AcDbEntity
8
1
62
256
6
ByLayer
370
18
48
1
60
0
100
AcDbSpline
70
4
71
3
72
12
73
8
40
0
40
0
40
0
40
0
40
0.154323169733189
40
0.320367502416942
40
0.502087393740907
40
0.756211871461731
40
1
40
1
40
1
40
1
41
1
10
42.7816327503916
20
-1.58898931851601
30
0
41
1
10
42.7809435421917
20
-1.58879396479966
30
0
41
1
10
42.7853979056647
20
-1.59111431601366
30
0
41
1
10
42.8226313152277
20
-1.60893362256044
30
0
41
1
10
42.8955796808696
20
-1.64461563008919
30
0
41
1
10
43.0114736649132
20
-1.70236536094296
30
0
41
1
10
43.1042589000587
20
-1.75010649670017
30
0
41
1
10
43.1532118389009
20
-1.77552747556129
30
0
0
SPLINE
5
B1
100
AcDbEntity
8
1
62
256
6
ByLayer
370
18
48
1
60
0
100
AcDbSpline
70
4
71
3
72
10
73
6
40
0
40
0
40
0
40
0
40
0.22464867062458
40
0.624143851769585
40
1
40
1
40
1
40
1
41
1
10
6.37221833659027
20
5.79805693917692
30
0
41
1
10
6.21239584354794
20
5.79758429106587
30
0
41
1
10
5.76890607210643
20
5.79656229849491
30
0
41
1
10
5.05714280876384
20
5.7990575087882
30
0
41
1
10
4.51309870552808
20
5.79797211185726
30
0
41
1
10
4.25049039788865
20
5.79729566529062
30
0
0
SPLINE
5
B2
100
AcDbEntity
8
1
62
256
6
ByLayer
370
13
48
1
60
0
100
AcDbSpline
70
4
71
3
72
10
73
6
40
0
40
0
40
0
40
0
40
0.0749467307164336
40
0.0749467307164336
40
1
40
1
40
1
40
1
41
1
10
4.25056971214218
20
-5.79781727256932
30
0
41
1
10
4.25057266867279
20
-5.79750450280269
30
0
41
1
10
4.25057562761302
20
-5.79691236422613
30
0
41
1
10
4.25061511789374
20
-5.78530199423514
30
0
41
1
10
4.25065186984665
20
-5.73251724721777
30
0
41
1
10
4.25068475884564
20
-5.63605634669887
30
0
0
SPLINE
5
B3
100
AcDbEntity
8
1
62
256
6
ByLayer
370
18
48
1
60
0
100
AcDbSpline
70
4
71
3
72
12
73
8
40
0
40
0
40
0
40
0
40
0.25000000000001
40
0.25000000000001
40
0.50000000000002
40
0.50000000000002
40
1
40
1
40
1
40
1
41
1
10
4.13149400792923
20
0.67148057848658
30
0
41
1
10
4.11155661486146
20
0.682146559582407
30
0
41
1
10
4.09350400545389
20
0.695210714745855
30
0
41
1
10
4.06106513860615
20
0.725993184130232
30
0
41
1
10
4.04688183427072
20
0.743660623260553
30
0
41
1
10
4.0125051596616
20
0.800709418556153
30
0
41
1
10
3.99999958590519
20
0.845009797381266
30
0
41
1
10
3.99999958590519
20
0.889805771903355
30
0
0
SPLINE
5
B4
100
AcDbEntity
8
1
62
256
6
ByLayer
370
18
48
1
60
0
100
AcDbSpline
70
4
71
3
72
18
73
14
40
0
40
0
40
0
40
0
40
0.0903471740894504
40
0.0903471740894504
40
0.27227773927156
40
0.27227773927156
40
0.45420830445367
40
0.45420830445367
40
0.63613886963578
40
0.63613886963578
40
0.81806943481789
40
0.81806943481789
40
1
40
1
40
1
40
1
41
1
10
6.37427118224667
20
5.79788164404079
30
0
41
1
10
6.52042741097395
20
5.79549292528938
30
0
41
1
10
6.66736962003537
20
5.79087182228577
30
0
41
1
10
7.11147742056002
20
5.77067824652841
30
0
41
1
10
7.40935539113531
20
5.74942972252074
30
0
41
1
10
8.00725308305266
20
5.69123015734752
30
0
41
1
10
8.30727710122321
20
5.65425087125973
30
0
41
1
10
8.9094309352156
20
5.56726922742257
30
0
41
1
10
9.2115690652586
20
5.51716982924088
30
0
41
1
10
9.81827205102169
20
5.40485009589074
30
0
41
1
10
10.1228359352552
20
5.34267109498953
30
0
41
1
10
10.7348143703736
20
5.20804031361783
30
0
41
1
10
11.0422154993299
20
5.13567572313971
30
0
41
1
10
11.3514388692416
20
5.05805923179568
30
0
0
SPLINE
5
B5
100
AcDbEntity
8
1
62
256
6
ByLayer
370
18
48
1
60
0
100
AcDbSpline
70
4
71
3
72
24
73
20
40
0
40
0
40
0
40
0
40
0.124999999999998
40
0.124999999999998
40
0.187499999999997
40
0.187499999999997
40
0.249999999999997
40
0.249999999999997
40
0.499999999999997
40
0.499999999999997
40
0.562499999999998
40
0.562499999999998
40
0.624999999999998
40
0.624999999999998
40
0.749999999999998
40
0.749999999999998
40
0.874999999999999
40
0.874999999999999
40
1
40
1
40
1
40
1
41
1
10
59.8777168721382
20
-5.83092497147624
30
0
41
1
10
59.793265642365
20
-5.83082694548301
30
0
41
1
10
59.7128698889848
20
-5.8184927005257
30
0
41
1
10
59.5986526573576
20
-5.78075240774572
30
0
41
1
10
59.5616456240562
20
-5.76495784459073
30
0
41
1
10
59.4898474910944
20
-5.72668278385197
30
0
41
1
10
59.4549476275841
20
-5.70410266409766
30
0
41
1
10
59.2882946537758
20
-5.57534522311391
30
0
41
1
10
59.1787306893185
20
-5.42218319400541
30
0
41
1
10
59.0729493903441
20
-5.16492036149765
30
0
41
1
10
59.0533722107802
20
-5.11013421950486
30
0
41
1
10
59.0175024820464
20
-4.99362779552831
30
0
41
1
10
59.0011775997077
20
-4.93169029592178
30
0
41
1
10
58.9580102495687
20
-4.73816006755882
30
0
41
1
10
58.9366772750594
20
-4.59818993441053
30
0
41
1
10
58.9086791926009
20
-4.29667716666478
30
0
41
1
10
58.9020134360009
20
-4.13513548605869
30
0
41
1
10
58.9037697300346
20
-3.78986200318968
30
0
41
1
10
58.9123378245432
20
-3.60545252821123
30
0
41
1
10
58.9283906763896
20
-3.41438780126569
30
0
0
SPLINE
5
B6
100
AcDbEntity
8
1
62
256
6
ByLayer
370
18
48
1
60
0
100
AcDbSpline
70
4
71
3
72
8
73
4
40
0
40
0
40
0
40
0
40
1
40
1
40
1
40
1
41
1
10
59.9511855978905
20
-5.7948657035372
30
0
41
1
10
59.9224444406136
20
-5.81888150922509
30
0
41
1
10
59.8979334553069
20
-5.83096167474693
30
0
41
1
10
59.8777168721431
20
-5.83092497147624
30
0
0
SPLINE
5
B7
100
AcDbEntity
8
1
62
256
6
ByLayer
370
18
48
1
60
0
100
AcDbSpline
70
4
71
3
72
14
73
10
40
0
40
0
40
0
40
0
40
0.408161732993688
40
0.408161732993688
40
0.612242599490532
40
0.612242599490532
40
0.816323465987376
40
0.816323465987376
40
1
40
1
40
1
40
1
41
1
10
18.9757974365293
20
-5.84162872596005
30
0
41
1
10
19.4031780978824
20
-5.90556985935118
30
0
41
1
10
19.8306757287362
20
-5.95614055188443
30
0
41
1
10
20.4710911024769
20
-6.0129484970663
30
0
41
1
10
20.6844380519722
20
-6.02868876131896
30
0
41
1
10
21.1106893148217
20
-6.05375456397095
30
0
41
1
10
21.3235788799919
20
-6.06305832900401
30
0
41
1
10
21.7287776373107
20
-6.07444639060168
30
0
41
1
10
21.9209136569443
20
-6.07720194190802
30
0
41
1
10
22.1131900331085
20
-6.07731244604153
30
0
0
SPLINE
5
B8
100
AcDbEntity
8
1
62
256
6
ByLayer
370
18
48
1
60
0
100
AcDbSpline
70
4
71
3
72
30
73
26
40
0
40
0
40
0
40
0
40
0.0690098113392338
40
0.0690098113392338
40
0.127196698130531
40
0.127196698130531
40
0.185383584921829
40
0.185383584921829
40
0.243570471713127
40
0.243570471713127
40
0.301757358504425
40
0.301757358504425
40
0.418131132087021
40
0.418131132087021
40
0.534504905669617
40
0.534504905669617
40
0.650878679252213
40
0.650878679252213
40
0.70906556604351
40
0.70906556604351
40
0.767252452834808
40
0.767252452834808
40
0.883626226417405
40
0.883626226417405
40
1
40
1
40
1
40
1
41
1
10
48.9504396616025
20
4.41366141567053
30
0
41
1
10
49.2033672776228
20
4.50779225920573
30
0
41
1
10
49.4562715810156
20
4.59871744232666
30
0
41
1
10
49.922170306225
20
4.76059192590876
30
0
41
1
10
50.1353625849166
20
4.83222464403252
30
0
41
1
10
50.562731338636
20
4.96969350508823
30
0
41
1
10
50.7768276854617
20
5.03572967207629
30
0
41
1
10
51.2043037165572
20
5.16216628565226
30
0
41
1
10
51.4178362365132
20
5.22261287966691
30
0
41
1
10
51.844341390818
20
5.33808365146052
30
0
41
1
10
52.0571909613948
20
5.39320366947612
30
0
41
1
10
52.6960630907819
20
5.54932417507439
30
0
41
1
10
53.1227474208828
20
5.64094392065735
30
0
41
1
10
53.9761623618038
20
5.80059518315213
30
0
41
1
10
54.4028546325447
20
5.86883270840522
30
0
41
1
10
55.2577317731933
20
5.97863826941739
30
0
41
1
10
55.6849251857077
20
6.02057738639937
30
0
41
1
10
56.3244902150848
20
6.06432263365627
30
0
41
1
10
56.5373679319362
20
6.07569640236559
30
0
41
1
10
56.9636977316566
20
6.09179410543007
30
0
41
1
10
57.1771540467448
20
6.09654358155049
30
0
41
1
10
57.817954126799
20
6.10102006616521
30
0
41
1
10
58.2461313684877
20
6.09094710356976
30
0
41
1
10
59.0990644363046
20
6.04431322737915
30
0
41
1
10
59.525730321249
20
6.00807480255546
30
0
41
1
10
59.9524058824914
20
5.95912536331579
30
0
0
SPLINE
5
B9
100
AcDbEntity
8
1
62
256
6
ByLayer
370
18
48
1
60
0
100
AcDbSpline
70
4
71
3
72
16
73
12
40
0
40
0
40
0
40
0
40
0.22455251128962
40
0.22455251128962
40
0.332719030227623
40
0.332719030227623
40
0.440885549165625
40
0.440885549165625
40
0.657218587041632
40
0.657218587041632
40
1
40
1
40
1
40
1
41
1
10
23.466991958519
20
-5.80847815010895
30
0
41
1
10
22.8655540235311
20
-5.8128160627771
30
0
41
1
10
22.2621652851776
20
-5.79236466586448
30
0
41
1
10
21.3628625013923
20
-5.72452996317932
30
0
41
1
10
21.0706154308612
20
-5.6966388617499
30
0
41
1
10
20.4881847599243
20
-5.62974052317836
30
0
41
1
10
20.1976516171225
20
-5.59067623292964
30
0
41
1
10
19.3275421444033
20
-5.45726013523944
30
0
41
1
10
18.749452491275
20
-5.34673449479109
30
0
41
1
10
17.2568521377337
20
-5.00821276990089
30
0
41
1
10
16.3433575458621
20
-4.74916174419315
30
0
41
1
10
15.4256277422984
20
-4.44474072362115
30
0
0
SPLINE
5
BA
100
AcDbEntity
8
1
62
256
6
ByLayer
370
13
48
1
60
0
100
AcDbSpline
70
4
71
3
72
20
73
16
40
0
40
0
40
0
40
0
40
0.0647638669086229
40
0.0647638669086229
40
0.142700211332904
40
0.142700211332904
40
0.220636555757186
40
0.220636555757186
40
0.376509244605748
40
0.376509244605748
40
0.688254622302875
40
0.688254622302875
40
0.844127311151438
40
0.844127311151438
40
1
40
1
40
1
40
1
41
1
10
15.4256277421463
20
-4.44474072357067
30
0
41
1
10
15.1849792390675
20
-4.36491498115382
30
0
41
1
10
14.9440395223033
20
-4.28196959221879
30
0
41
1
10
14.4122817991351
20
-4.09257849491075
30
0
41
1
10
14.1212709595986
20
-3.98476648683334
30
0
41
1
10
13.5378443511177
20
-3.76071063202093
30
0
41
1
10
13.2449247357531
20
-3.64423767037053
30
0
41
1
10
12.3692881941236
20
-3.28552059549674
30
0
41
1
10
11.7885243517584
20
-3.03363769968595
30
0
41
1
10
10.0509343758889
20
-2.24766569331732
30
0
41
1
10
8.89950494024373
20
-1.68212474817966
30
0
41
1
10
7.16465521010161
20
-0.805534501728459
30
0
41
1
10
6.58522674573845
20
-0.508374848545458
30
0
41
1
10
5.42130917295603
20
0.0905033314737125
30
0
41
1
10
4.83552597967676
20
0.39252071677214
30
0
41
1
10
4.25023661572729
20
0.691347287869831
30
0
0
SPLINE
5
BB
100
AcDbEntity
8
1
62
256
6
ByLayer
370
18
48
1
60
0
100
AcDbSpline
70
4
71
3
72
62
73
58
40
0
40
0
40
0
40
0
40
0.0473384203056474
40
0.0473384203056474
40
0.0946768406112947
40
0.0946768406112947
40
0.142015260916942
40
0.142015260916942
40
0.165684471069766
40
0.165684471069766
40
0.189353681222589
40
0.189353681222589
40
0.236692101528237
40
0.236692101528237
40
0.284030521833884
40
0.284030521833884
40
0.331368942139532
40
0.331368942139532
40
0.355038152292355
40
0.355038152292355
40
0.378707362445178
40
0.378707362445178
40
0.473384203056472
40
0.473384203056472
40
0.497053413209295
40
0.497053413209295
40
0.520722623362118
40
0.520722623362118
40
0.568061043667764
40
0.568061043667764
40
0.591730253820588
40
0.591730253820588
40
0.615399463973411
40
0.615399463973411
40
0.662737884279059
40
0.662737884279059
40
0.686407094431883
40
0.686407094431883
40
0.710076304584708
40
0.710076304584708
40
0.757414724890356
40
0.757414724890356
40
0.781083935043181
40
0.781083935043181
40
0.804753145196006
40
0.804753145196006
40
0.852091565501654
40
0.852091565501654
40
0.899429985807303
40
0.899429985807303
40
0.923099195960128
40
0.923099195960128
40
0.946768406112952
40
0.946768406112952
40
0.994106826418601
40
0.994106826418601
40
1
40
1
40
1
40
1
41
1
10
59.8661623753746
20
-6.05394434399921
30
0
41
1
10
59.2849212085647
20
-6.09221640050797
30
0
41
1
10
58.7041418505492
20
-6.10619321725414
30
0
41
1
10
57.540572855388
20
-6.08539454358646
30
0
41
1
10
56.9601866640509
20
-6.05064833425487
30
0
41
1
10
55.8003780093825
20
-5.93360674519411
30
0
41
1
10
55.2207674734817
20
-5.85129350612678
30
0
41
1
10
54.3493208271137
20
-5.69315660964324
30
0
41
1
10
54.0582207568609
20
-5.63459718186638
30
0
41
1
10
53.4769651469771
20
-5.50653089341748
30
0
41
1
10
53.1867097814057
20
-5.43701818580047
30
0
41
1
10
52.3164758356859
20
-5.21260164629277
30
0
41
1
10
51.7370051855969
20
-5.04183135182893
30
0
41
1
10
50.5761575421578
20
-4.66127775608055
30
0
41
1
10
49.993739558097
20
-4.45099347342776
30
0
41
1
10
48.8323513302058
20
-3.99780868155017
30
0
41
1
10
48.2527294983424
20
-3.7548611127327
30
0
41
1
10
47.3825313800529
20
-3.36941494454672
30
0
41
1
10
47.0923598069297
20
-3.23739563935513
30
0
41
1
10
46.5113841345365
20
-2.96690892360246
30
0
41
1
10
46.2202828942348
20
-2.82829840523328
30
0
41
1
10
44.7666061433453
20
-2.12274969986223
30
0
41
1
10
43.6097339861045
20
-1.51839791920008
30
0
41
1
10
42.1555148538638
20
-0.740945316490098
30
0
41
1
10
41.8645554025606
20
-0.584459328735392
30
0
41
1
10
41.2836682476459
20
-0.271317855088881
30
0
41
1
10
40.9934968794565
20
-0.114510476992962
30
0
41
1
10
40.1233041710269
20
0.355701234522314
30
0
41
1
10
39.5435386130636
20
0.668772421497664
30
0
41
1
10
38.6720413866202
20
1.13332875823778
30
0
41
1
10
38.3809531757717
20
1.28748802594433
30
0
41
1
10
37.7992812243774
20
1.5926606347997
30
0
41
1
10
37.5088400786765
20
1.74360069102204
30
0
41
1
10
36.63811722639
20
2.19047064408198
30
0
41
1
10
36.058411707999
20
2.48040558605024
30
0
41
1
10
35.1876831091673
20
2.89933063914285
30
0
41
1
10
34.8972305142777
20
3.03628543276435
30
0
41
1
10
34.3155229492498
20
3.30417131120365
30
0
41
1
10
34.0243842202715
20
3.43503976224608
30
0
41
1
10
33.1527102633446
20
3.81616038778171
30
0
41
1
10
32.5728861537663
20
4.05561954615783
30
0
41
1
10
31.7025261341225
20
4.38932398634086
30
0
41
1
10
31.4123064631394
20
4.49632024606501
30
0
41
1
10
30.8312809651059
20
4.70131577962164
30
0
41
1
10
30.5402314276759
20
4.7993918256677
30
0
41
1
10
29.6673891960305
20
5.07879877021472
30
0
41
1
10
29.0871823971261
20
5.24503574105046
30
0
41
1
10
27.9267984920761
20
5.5344738099804
30
0
41
1
10
27.3465911957429
20
5.65766313330226
30
0
41
1
10
26.4740019754183
20
5.80830576688618
30
0
41
1
10
26.1827604572113
20
5.85282428226091
30
0
41
1
10
25.6015451871322
20
5.92992662440085
30
0
41
1
10
25.3112655091225
20
5.96255747434299
30
0
41
1
10
24.4406730214303
20
6.0424942919486
30
0
41
1
10
23.8607451584714
20
6.07189127373411
30
0
41
1
10
23.2073559247207
20
6.0776986629667
30
0
41
1
10
23.1349938189413
20
6.07796397658237
30
0
41
1
10
23.0626122539112
20
6.07785239274378
30
0
0
SPLINE
5
BC
100
AcDbEntity
8
1
62
256
6
ByLayer
370
18
48
1
60
0
100
AcDbSpline
70
4
71
3
72
8
73
4
40
0
40
0
40
0
40
0
40
1
40
1
40
1
40
1
41
1
10
59.8661623753746
20
6.05394434399921
30
0
41
1
10
59.4039023199006
20
6.08438204176576
30
0
41
1
10
58.9415107440304
20
6.09945499796825
30
0
41
1
10
58.4789883664914
20
6.09911292269041
30
0
0
SPLINE
5
BD
100
AcDbEntity
8
1
62
256
6
ByLayer
370
18
48
1
60
0
100
AcDbSpline
70
4
71
3
72
34
73
30
40
0
40
0
40
0
40
0
40
0.0595196861106335
40
0.0595196861106335
40
0.137893045601415
40
0.137893045601415
40
0.177079725346805
40
0.177079725346805
40
0.216266405092195
40
0.216266405092195
40
0.294639764582975
40
0.294639764582975
40
0.373013124073755
40
0.373013124073755
40
0.451386483564534
40
0.451386483564534
40
0.490573163309925
40
0.490573163309925
40
0.529759843055315
40
0.529759843055315
40
0.686506562036877
40
0.686506562036877
40
0.725693241782267
40
0.725693241782267
40
0.764879921527657
40
0.764879921527657
40
0.843253281018438
40
0.843253281018438
40
1
40
1
40
1
40
1
41
1
10
26.342298460068
20
-5.82698592210468
30
0
41
1
10
25.9006330802518
20
-5.89473641404925
30
0
41
1
10
25.4596518578905
20
-5.94897752546714
30
0
41
1
10
24.4385746535126
20
-6.04262782551652
30
0
41
1
10
23.8584940493624
20
-6.07198378846235
30
0
41
1
10
22.9863724517334
20
-6.0796262881465
30
0
41
1
10
22.6950389636571
20
-6.07609653207419
30
0
41
1
10
22.1133221752678
20
-6.05690781506351
30
0
41
1
10
21.8228444716785
20
-6.04126067476508
30
0
41
1
10
20.9518895416823
20
-5.97637958599913
30
0
41
1
10
20.3719633891207
20
-5.90917850838593
30
0
41
1
10
19.2102057021429
20
-5.72819436934526
30
0
41
1
10
18.6273227297562
20
-5.61410698383887
30
0
41
1
10
17.4649723302475
20
-5.34271373041412
30
0
41
1
10
16.8849648583599
20
-5.18535422228021
30
0
41
1
10
16.0141472837422
20
-4.91931175197033
30
0
41
1
10
15.7237530967171
20
-4.82562072387947
30
0
41
1
10
15.1423280943515
20
-4.62861791173944
30
0
41
1
10
14.8510016682859
20
-4.52519465262128
30
0
41
1
10
13.3961361208488
20
-3.98670151166948
30
0
41
1
10
12.2385731100154
20
-3.48708071112864
30
0
41
1
10
10.7830133043299
20
-2.80091804716861
30
0
41
1
10
10.4918716704996
20
-2.66070313151522
30
0
41
1
10
9.91157184813534
20
-2.37605262109545
30
0
41
1
10
9.62205121450506
20
-2.23148556590368
30
0
41
1
10
8.75467571072537
20
-1.79234435989798
30
0
41
1
10
8.17799680497393
20
-1.49235018121277
30
0
41
1
10
6.44818685437264
20
-0.579003099646542
30
0
41
1
10
5.29576153454866
20
0.0486280627538349
30
0
41
1
10
4.13149400792923
20
0.67148057848658
30
0
0
SPLINE
5
BE
100
AcDbEntity
8
1
62
256
6
ByLayer
370
18
48
1
60
0
100
AcDbSpline
70
4
71
3
72
26
73
22
40
0
40
0
40
0
40
0
40
0.062500000000001
40
0.062500000000001
40
0.125000000000002
40
0.125000000000002
40
0.250000000000004
40
0.250000000000004
40
0.312500000000004
40
0.312500000000004
40
0.375000000000003
40
0.375000000000003
40
0.500000000000003
40
0.500000000000003
40
0.625000000000002
40
0.625000000000002
40
0.750000000000001
40
0.750000000000001
40
0.875000000000001
40
0.875000000000001
40
1
40
1
40
1
40
1
41
1
10
53.5688498155037
20
2.55052340021197
30
0
41
1
10
53.5993153001367
20
2.3942775875752
30
0
41
1
10
53.6405472772266
20
2.23706342163882
30
0
41
1
10
53.7429173758639
20
1.92084470345799
30
0
41
1
10
53.8046036729586
20
1.76078614771191
30
0
41
1
10
54.0120970727319
20
1.29041846884084
30
0
41
1
10
54.1804002476121
20
0.986995783877973
30
0
41
1
10
54.4668986676551
20
0.543396309340068
30
0
41
1
10
54.5685516456148
20
0.397000977546412
30
0
41
1
10
54.778491315507
20
0.112622533476809
30
0
41
1
10
54.8871174679292
20
-0.0259422556962079
30
0
41
1
10
55.2224832511677
20
-0.432232030684759
30
0
41
1
10
55.4586430267992
20
-0.690619019279069
30
0
41
1
10
55.9512939583374
20
-1.18723891431293
30
0
41
1
10
56.208955286966
20
-1.42636149476164
30
0
41
1
10
56.7314549451081
20
-1.87907141352983
30
0
41
1
10
56.9972638820564
20
-2.0936798377565
30
0
41
1
10
57.5367791483049
20
-2.50254906570817
30
0
41
1
10
57.8104926412099
20
-2.69679141241517
30
0
41
1
10
58.3645885174977
20
-3.06809371871125
30
0
41
1
10
58.644967563043
20
-3.24516227823418
30
0
41
1
10
58.9283906763895
20
-3.41438780126569
30
0
0
SPLINE
5
BF
100
AcDbEntity
8
1
62
256
6
ByLayer
370
13
48
1
60
0
100
AcDbSpline
70
4
71
3
72
12
73
8
40
0
40
0
40
0
40
0
40
0.499999999999981
40
0.499999999999981
40
0.749999999999991
40
0.749999999999991
40
1
40
1
40
1
40
1
41
1
10
3.99999958590521
20
0.887732405394388
30
0
41
1
10
3.99999958590521
20
0.856646834545046
30
0
41
1
10
4.01169789735553
20
0.824882327797297
30
0
41
1
10
4.04540796020115
20
0.78394308364912
30
0
41
1
10
4.0595523033104
20
0.771037989814118
30
0
41
1
10
4.09309146920515
20
0.748168820933273
30
0
41
1
10
4.11214209915454
20
0.738334002245324
30
0
41
1
10
4.13384508747401
20
0.730330019129354
30
0
0
SPLINE
5
C0
100
AcDbEntity
8
1
62
256
6
ByLayer
370
18
48
1
60
0
100
AcDbSpline
70
4
71
3
72
22
73
18
40
0
40
0
40
0
40
0
40
0.125
40
0.125
40
0.25
40
0.25
40
0.500000000000002
40
0.500000000000002
40
0.625000000000003
40
0.625000000000003
40
0.750000000000004
40
0.750000000000004
40
0.812500000000003
40
0.812500000000003
40
0.875000000000003
40
0.875000000000003
40
1
40
1
40
1
40
1
41
1
10
11.3514388692362
20
-5.05805923179705
30
0
41
1
10
11.0426414583204
20
-5.13556880546943
30
0
41
1
10
10.7357590714769
20
-5.20781613910751
30
0
41
1
10
10.1249844245532
20
-5.34221470764351
30
0
41
1
10
9.82110694392424
20
-5.4042791057492
30
0
41
1
10
8.91338853122525
20
-5.57246389251694
30
0
41
1
10
8.31329320493111
20
-5.66111107234556
30
0
41
1
10
7.41996557139709
20
-5.74855756043456
30
0
41
1
10
7.12337255885834
20
-5.76988811389984
30
0
41
1
10
6.53265745466933
20
-5.79723547265962
30
0
41
1
10
6.23858074608037
20
-5.80266067936691
30
0
41
1
10
5.8000005158099
20
-5.79614075112849
30
0
41
1
10
5.65407036589758
20
-5.79150969776416
30
0
41
1
10
5.3651587871266
20
-5.77686521792094
30
0
41
1
10
5.22198008028965
20
-5.7668529239333
30
0
41
1
10
4.79692990274179
20
-5.72779284046089
30
0
41
1
10
4.51940027042934
20
-5.68991037770903
30
0
41
1
10
4.25068475984264
20
-5.63605634689674
30
0
0
SPLINE
5
C1
100
AcDbEntity
8
1
62
256
6
ByLayer
370
13
48
1
60
0
100
AcDbSpline
70
4
71
3
72
34
73
30
40
0
40
0
40
0
40
0
40
0.152297391777185
40
0.152297391777185
40
0.228446087665777
40
0.228446087665777
40
0.30459478355437
40
0.30459478355437
40
0.380743479442962
40
0.380743479442962
40
0.418817827387258
40
0.418817827387258
40
0.456892175331555
40
0.456892175331555
40
0.609189567108739
40
0.609189567108739
40
0.685338262997332
40
0.685338262997332
40
0.761486958885924
40
0.761486958885924
40
0.837635654774517
40
0.837635654774517
40
0.913784350663109
40
0.913784350663109
40
0.951858698607405
40
0.951858698607405
40
0.989933046551701
40
0.989933046551701
40
1
40
1
40
1
40
1
41
1
10
4.25023661572726
20
0.691347287869803
30
0
41
1
10
4.25026200316893
20
1.09941819902474
30
0
41
1
10
4.25027743766759
20
1.49755638348688
30
0
41
1
10
4.25029225082812
20
2.07991409999295
30
0
41
1
10
4.25029574305887
20
2.26963984895298
30
0
41
1
10
4.25030099265004
20
2.63771821911763
30
0
41
1
10
4.25030276000729
20
2.8165455250097
30
0
41
1
10
4.25030567625771
20
3.16384457053871
30
0
41
1
10
4.25030682329361
20
3.33231689065334
30
0
41
1
10
4.25030884361036
20
3.57704948864736
30
0
41
1
10
4.2503095693182
20
3.6575168774128
30
0
41
1
10
4.25031122655756
20
3.81413540469248
30
0
41
1
10
4.25031215847153
20
3.89039041302726
30
0
41
1
10
4.25031759582322
20
4.2615902431881
30
0
41
1
10
4.25032451435936
20
4.52664006751121
30
0
41
1
10
4.25034266078964
20
4.87603381541993
30
0
41
1
10
4.25035002853821
20
4.98468461310725
30
0
41
1
10
4.25036748086438
20
5.18178215357514
30
0
41
1
10
4.25037757669671
20
5.27067981937361
30
0
41
1
10
4.25040062770847
20
5.42903284206173
30
0
41
1
10
4.25041348412162
20
5.49775321817128
30
0
41
1
10
4.25044153096616
20
5.61418770632477
30
0
41
1
10
4.25045673892674
20
5.66202073667179
30
0
41
1
10
4.25048105208276
20
5.71815564404508
30
0
41
1
10
4.25048940550263
20
5.73425950033865
30
0
41
1
10
4.25050654917499
20
5.76117917931325
30
0
41
1
10
4.25051536265917
20
5.77200721889037
30
0
41
1
10
4.25052662498936
20
5.78220101474298
30
0
41
1
10
4.25052898747998
20
5.78414206645323
30
0
41
1
10
4.2505313564522
20
5.78589325068609
30
0
0
SPLINE
5
C2
100
AcDbEntity
8
1
62
256
6
ByLayer
370
18
48
1
60
0
100
AcDbSpline
70
4
71
3
72
12
73
8
40
0
40
0
40
0
40
0
40
0.845340868496626
40
0.845340868496626
40
0.974223506070954
40
0.974223506070954
40
1
40
1
40
1
40
1
41
1
10
58.6935969255954
20
-5.83036334549058
30
0
41
1
10
56.790845732335
20
-5.82891600255579
30
0
41
1
10
54.9085733076344
20
-5.57732609578713
30
0
41
1
10
52.7055661002016
20
-5.02412917093659
30
0
41
1
10
52.4129067643227
20
-4.94547673608747
30
0
41
1
10
52.0628850322826
20
-4.84557317665599
30
0
41
1
10
52.0045788177481
20
-4.82873772406666
30
0
41
1
10
51.9463019884874
20
-4.81171929308911
30
0
0
SPLINE
5
C3
100
AcDbEntity
8
1
62
256
6
ByLayer
370
13
48
1
60
0
100
AcDbSpline
70
4
71
3
72
24
73
20
40
0
40
0
40
0
40
0
40
0.0453849362829065
40
0.0453849362829065
40
0.158847240036287
40
0.158847240036287
40
0.385771847543047
40
0.385771847543047
40
0.499234151296427
40
0.499234151296427
40
0.555965303173118
40
0.555965303173118
40
0.612696455049809
40
0.612696455049809
40
0.839621062556577
40
0.839621062556577
40
0.953083366309961
40
0.953083366309961
40
1
40
1
40
1
40
1
41
1
10
51.9463019884543
20
-4.81171929307948
30
0
41
1
10
51.7131942917597
20
-4.74364545830034
30
0
41
1
10
51.4805567609772
20
-4.67264395977375
30
0
41
1
10
50.6676817212052
20
-4.41431733935369
30
0
41
1
10
50.0894888746162
20
-4.21223934907044
30
0
41
1
10
48.3579491594401
20
-3.55993748271814
30
0
41
1
10
47.2073923061629
20
-3.06390939384059
30
0
41
1
10
45.4706879412015
20
-2.25481517904791
30
0
41
1
10
44.8899062651994
20
-1.97436355125163
30
0
41
1
10
44.0138662955295
20
-1.54088642484274
30
0
41
1
10
43.7214353938198
20
-1.39450061527523
30
0
41
1
10
43.1390452816198
20
-1.10052372773137
30
0
41
1
10
42.8485630049992
20
-0.952676570446613
30
0
41
1
10
41.3988894220211
20
-0.2107898144437
30
0
41
1
10
40.247672078827
20
0.390705736253352
30
0
41
1
10
38.5167610936446
20
1.27163343204623
30
0
41
1
10
37.9390988769487
20
1.56170904389921
30
0
41
1
10
37.1196342191695
20
1.9628173813399
30
0
41
1
10
36.8795538036712
20
2.07907225309987
30
0
41
1
10
36.6390033536831
20
2.19402564716327
30
0
0
SPLINE
5
C4
100
AcDbEntity
8
1
62
256
6
ByLayer
370
18
48
1
60
0
100
AcDbSpline
70
4
71
3
72
14
73
10
40
0
40
0
40
0
40
0
40
0.25
40
0.25
40
0.5
40
0.5
40
0.75
40
0.75
40
1
40
1
40
1
40
1
41
1
10
58.9385662451709
20
1.47284720671507
30
0
41
1
10
58.9278590476174
20
1.50168111376198
30
0
41
1
10
58.920580761524
20
1.53144776232719
30
0
41
1
10
58.9166309921744
20
1.5938618412716
30
0
41
1
10
58.9196214437791
20
1.62630944779065
30
0
41
1
10
58.9452550027747
20
1.68421479203957
30
0
41
1
10
58.9682218939979
20
1.70889206439574
30
0
41
1
10
59.0226175061819
20
1.74251201927143
30
0
41
1
10
59.0538212083223
20
1.75255633931619
30
0
41
1
10
59.0854941353377
20
1.75820248838755
30
0
0
SPLINE
5
C5
100
AcDbEntity
8
1
62
256
6
ByLayer
370
18
48
1
60
0
100
AcDbSpline
70
4
71
3
72
8
73
4
40
0
40
0
40
0
40
0
40
1
40
1
40
1
40
1
41
1
10
3.99999958590521
20
-5.88956700874121
30
0
41
1
10
3.99999958590521
20
-5.89679002114221
30
0
41
1
10
3.99999958590516
20
-5.90402120075618
30
0
41
1
10
3.99999958590516
20
-5.91126055284133
30
0
0
SPLINE
5
C6
100
AcDbEntity
8
1
62
256
6
ByLayer
370
18
48
1
60
0
100
AcDbSpline
70
4
71
3
72
16
73
12
40
0
40
0
40
0
40
0
40
0.19638180910203
40
0.19638180910203
40
0.348566452167237
40
0.348566452167237
40
0.500751095232445
40
0.500751095232445
40
0.805120381362859
40
0.805120381362859
40
1
40
1
40
1
40
1
41
1
10
18.9757974372291
20
5.8416287262707
30
0
41
1
10
18.7259052020229
20
5.73069854167051
30
0
41
1
10
18.4758154488128
20
5.61403978525772
30
0
41
1
10
18.030817574039
20
5.39613189818704
30
0
41
1
10
17.8357785557385
20
5.29716333090551
30
0
41
1
10
17.4458101343309
20
5.09290139264073
30
0
41
1
10
17.2522369053834
20
4.9883333960216
30
0
41
1
10
16.6748323339393
20
4.66894033098239
30
0
41
1
10
16.2943866631016
20
4.44830295484036
30
0
41
1
10
15.6719825800351
20
4.08385679439294
30
0
41
1
10
15.4294205603171
20
3.94099155538271
30
0
41
1
10
15.1861070506288
20
3.79952950059604
30
0
0
SPLINE
5
C7
100
AcDbEntity
8
1
62
256
6
ByLayer
370
18
48
1
60
0
100
AcDbSpline
70
4
71
3
72
10
73
6
40
0
40
0
40
0
40
0
40
0.743757726146331
40
0.743757726146331
40
1
40
1
40
1
40
1
41
1
10
11.3514034251229
20
-5.05805483095807
30
0
41
1
10
11.7919045399515
20
-4.94693934169098
30
0
41
1
10
12.2317809035232
20
-4.82408180261214
30
0
41
1
10
12.8224399950788
20
-4.64465549759112
30
0
41
1
10
12.9737129048092
20
-4.59741772454728
30
0
41
1
10
13.1249581369817
20
-4.54900222911618
30
0
0
SPLINE
5
C8
100
AcDbEntity
8
1
62
256
6
ByLayer
370
18
48
1
60
0
100
AcDbSpline
70
4
71
3
72
30
73
26
40
0
40
0
40
0
40
0
40
0.006951363750172
40
0.006951363750172
40
0.117290101111261
40
0.117290101111261
40
0.22762883847235
40
0.22762883847235
40
0.282798207152894
40
0.282798207152894
40
0.337967575833438
40
0.337967575833438
40
0.44830631319453
40
0.44830631319453
40
0.503475681875076
40
0.503475681875076
40
0.558645050555622
40
0.558645050555622
40
0.668983787916716
40
0.668983787916716
40
0.779322525277811
40
0.779322525277811
40
0.889661262638906
40
0.889661262638906
40
1
40
1
40
1
40
1
41
1
10
41.6135585179361
20
5.81119758607952
30
0
41
1
10
41.6412322601145
20
5.81046073677891
30
0
41
1
10
41.6689044229822
20
5.80966039518489
30
0
41
1
10
42.1357907259556
20
5.79503579724144
30
0
41
1
10
42.5748186121688
20
5.76589533032097
30
0
41
1
10
43.4549119898732
20
5.68280764671402
30
0
41
1
10
43.8960560401532
20
5.62835544590698
30
0
41
1
10
44.5560445774418
20
5.52941006193547
30
0
41
1
10
44.7759377766273
20
5.49382764770027
30
0
41
1
10
45.2156411603739
20
5.41590470254891
30
0
41
1
10
45.4354068303485
20
5.37333617619731
30
0
41
1
10
46.0945014655114
20
5.23589708030437
30
0
41
1
10
46.5333662339265
20
5.13135469567982
30
0
41
1
10
47.1931035878465
20
4.95800753451013
30
0
41
1
10
47.4132355601691
20
4.89749936681162
30
0
41
1
10
47.8537877860771
20
4.77148637204337
30
0
41
1
10
48.0742620348167
20
4.70595728429049
30
0
41
1
10
48.7343824281338
20
4.50089454660647
30
0
41
1
10
49.1734106341608
20
4.35218042788867
30
0
41
1
10
50.0520919851511
20
4.03702200510884
30
0
41
1
10
50.4912439430437
20
3.8698990414151
30
0
41
1
10
51.3698623000643
20
3.51883028318633
30
0
41
1
10
51.8106115770839
20
3.33585921296341
30
0
41
1
10
52.6909950803227
20
2.95348240115641
30
0
41
1
10
53.1298333889741
20
2.75446625403421
30
0
41
1
10
53.5688498155041
20
2.55052340021223
30
0
0
SPLINE
5
C9
100
AcDbEntity
8
1
62
256
6
ByLayer
370
18
48
1
60
0
100
AcDbSpline
70
4
71
3
72
44
73
40
40
0
40
0
40
0
40
0
40
0.250000000000011
40
0.250000000000011
40
0.375000000000017
40
0.375000000000017
40
0.437500000000022
40
0.437500000000022
40
0.500000000000027
40
0.500000000000027
40
0.625000000000033
40
0.625000000000033
40
0.687500000000036
40
0.687500000000036
40
0.718750000000038
40
0.718750000000038
40
0.734375000000036
40
0.734375000000036
40
0.750000000000035
40
0.750000000000035
40
0.781250000000032
40
0.781250000000032
40
0.812500000000029
40
0.812500000000029
40
0.828125000000028
40
0.828125000000028
40
0.843750000000027
40
0.843750000000027
40
0.875000000000021
40
0.875000000000021
40
0.906250000000015
40
0.906250000000015
40
0.921875000000012
40
0.921875000000012
40
0.93750000000001
40
0.93750000000001
40
0.968750000000005
40
0.968750000000005
40
1
40
1
40
1
40
1
41
1
10
53.5688498155039
20
2.55052340021197
30
0
41
1
10
54.0717891063869
20
2.19032616979214
30
0
41
1
10
54.5816428579896
20
1.86233276272162
30
0
41
1
10
55.3597749726708
20
1.43252666836261
30
0
41
1
10
55.6213690732946
20
1.29958229690607
30
0
41
1
10
56.0175356905197
20
1.11774982246848
30
0
41
1
10
56.1502247193362
20
1.06008945070755
30
0
41
1
10
56.4169709451155
20
0.951140895426192
30
0
41
1
10
56.5513434475619
20
0.899747742822825
30
0
41
1
10
56.9540915893999
20
0.756993548386276
30
0
41
1
10
57.2220623392061
20
0.676950651794527
30
0
41
1
10
57.6214749212814
20
0.583482310056127
30
0
41
1
10
57.75405050653
20
0.55679500194114
30
0
41
1
10
57.9516214414265
20
0.524099109627315
30
0
41
1
10
58.017259918872
20
0.514421103001695
30
0
41
1
10
58.1153092377032
20
0.501815791946626
30
0
41
1
10
58.1479970734023
20
0.497626348290311
30
0
41
1
10
58.2129070621232
20
0.491221613895078
30
0
41
1
10
58.2451593387091
20
0.488872852995513
30
0
41
1
10
58.3411508263545
20
0.48424817627162
30
0
41
1
10
58.4044027753892
20
0.484418515889047
30
0
41
1
10
58.5271256309768
20
0.493341193072183
30
0
41
1
10
58.5864683194026
20
0.502045214946833
30
0
41
1
10
58.6710346857424
20
0.524448684954336
30
0
41
1
10
58.6984758127572
20
0.533487831524241
30
0
41
1
10
58.7517195625249
20
0.555009686894863
30
0
41
1
10
58.7776585593679
20
0.567633077715243
30
0
41
1
10
58.8508980811038
20
0.611126257919949
30
0
41
1
10
58.8939021582199
20
0.647290800890119
30
0
41
1
10
58.9660646785032
20
0.736668319297536
30
0
41
1
10
58.9938823525717
20
0.788635691103849
30
0
41
1
10
59.0205638806149
20
0.877014231889689
30
0
41
1
10
59.0270389969085
20
0.908603303757104
30
0
41
1
10
59.0345654650579
20
0.974061947999559
30
0
41
1
10
59.0357020666328
20
1.00775428078802
30
0
41
1
10
59.0326678729985
20
1.11119386286478
30
0
41
1
10
59.021774845431
20
1.18382629023446
30
0
41
1
10
58.9881617028824
20
1.32802316800775
30
0
41
1
10
58.9654866925977
20
1.40035188990743
30
0
41
1
10
58.9385662451709
20
1.47284720671507
30
0
0
SPLINE
5
CA
100
AcDbEntity
8
1
62
256
6
ByLayer
370
18
48
1
60
0
100
AcDbSpline
70
4
71
3
72
10
73
6
40
0
40
0
40
0
40
0
40
0.16161259452932
40
0.16161259452932
40
1
40
1
40
1
40
1
41
1
10
12.4324156434231
20
-4.36639116230572
30
0
41
1
10
12.375024033268
20
-4.40645775718298
30
0
41
1
10
12.3173488666763
20
-4.44625895077931
30
0
41
1
10
11.9585279126868
20
-4.6906282492898
30
0
41
1
10
11.6564887367427
20
-4.88189222915059
30
0
41
1
10
11.3514145343382
20
-5.05804841627366
30
0
0
SPLINE
5
CB
100
AcDbEntity
8
1
62
256
6
ByLayer
370
18
48
1
60
0
100
AcDbSpline
70
4
71
3
72
18
73
14
40
0
40
0
40
0
40
0
40
0.182457264607802
40
0.182457264607802
40
0.273731435447278
40
0.273731435447278
40
0.365005606286752
40
0.365005606286752
40
0.547553947965699
40
0.547553947965699
40
0.91265063132359
40
0.91265063132359
40
1
40
1
40
1
40
1
41
1
10
40.795903109325
20
-0.007503502217304
30
0
41
1
10
41.3728315318955
20
-0.310567573540169
30
0
41
1
10
41.9505219381411
20
-0.614050324624344
30
0
41
1
10
42.8205274504362
20
-1.06573471073628
30
0
41
1
10
43.1111916970066
20
-1.21572024520069
30
0
41
1
10
43.6939900957895
20
-1.51378022527928
30
0
41
1
10
43.9866849088954
20
-1.66213307966882
30
0
41
1
10
44.8631760775262
20
-2.10097504957986
30
0
41
1
10
45.4441818400044
20
-2.38442231775795
30
0
41
1
10
47.1815060917339
20
-3.20084159698803
30
0
41
1
10
48.3323066313255
20
-3.6995732696667
30
0
41
1
10
49.7634237381166
20
-4.23908519016715
30
0
41
1
10
50.0399576452314
20
-4.33960582497778
30
0
41
1
10
50.316892017413
20
-4.43624572962113
30
0
0
SPLINE
5
CC
100
AcDbEntity
8
1
62
256
6
ByLayer
370
13
48
1
60
0
100
AcDbSpline
70
4
71
3
72
20
73
16
40
0
40
0
40
0
40
0
40
0.0944489839279795
40
0.0944489839279795
40
0.185004085535179
40
0.185004085535179
40
0.275559187142378
40
0.275559187142378
40
0.637779593571188
40
0.637779593571188
40
0.818889796785593
40
0.818889796785593
40
0.909444898392797
40
0.909444898392797
40
1
40
1
40
1
40
1
41
1
10
50.3168920151536
20
-4.43624572883269
30
0
41
1
10
50.6187129474151
20
-4.54157012713668
30
0
41
1
10
50.9210095539081
20
-4.64228497645638
30
0
41
1
10
51.5144733984643
20
-4.82991714283887
30
0
41
1
10
51.8055838478222
20
-4.91723720675373
30
0
41
1
10
52.3894029678434
20
-5.08234511678765
30
0
41
1
10
52.6822487934385
20
-5.16013311767642
30
0
41
1
10
54.1401337753197
20
-5.5209957014533
30
0
41
1
10
55.2951840981414
20
-5.7226536284704
30
0
41
1
10
57.0284649102237
20
-5.88713315456747
30
0
41
1
10
57.6063747623802
20
-5.91900020089858
30
0
41
1
10
58.4755165841596
20
-5.9315777285955
30
0
41
1
10
58.7656136205719
20
-5.92989207694191
30
0
41
1
10
59.3469380822012
20
-5.91461768306752
30
0
41
1
10
59.638206814834
20
-5.90071132203067
30
0
41
1
10
59.9301381810561
20
-5.88141065874362
30
0
0
SPLINE
5
CD
100
AcDbEntity
8
1
62
256
6
ByLayer
370
18
48
1
60
0
100
AcDbSpline
70
4
71
3
72
20
73
16
40
0
40
0
40
0
40
0
40
0.125
40
0.125
40
0.25
40
0.25
40
0.5
40
0.5
40
0.625
40
0.625
40
0.75
40
0.75
40
0.875
40
0.875
40
1
40
1
40
1
40
1
41
1
10
61.080430366747
20
2.98171592628739
30
0
41
1
10
61.033791944028
20
3.10718113280967
30
0
41
1
10
60.9870979375834
20
3.23254145473138
30
0
41
1
10
60.8935742356713
20
3.48300605800151
30
0
41
1
10
60.8467274601753
20
3.6080894865726
30
0
41
1
10
60.7061044251138
20
3.98310392231355
30
0
41
1
10
60.6122942629612
20
4.23285101702743
30
0
41
1
10
60.4712403035922
20
4.60602510315928
30
0
41
1
10
60.4241471146389
20
4.73009529769533
30
0
41
1
10
60.3298910144626
20
4.97793792368145
30
0
41
1
10
60.2827527862543
20
5.10174216303591
30
0
41
1
10
60.1884471703018
20
5.34855733988957
30
0
41
1
10
60.1412786346668
20
5.47159790420972
30
0
41
1
10
60.046872363552
20
5.71606417003829
30
0
41
1
10
59.999648546656
20
5.83781467868369
30
0
41
1
10
59.9524058824914
20
5.95912536331565
30
0
0
SPLINE
5
CE
100
AcDbEntity
8
1
62
256
6
ByLayer
370
18
48
1
60
0
100
AcDbSpline
70
4
71
3
72
90
73
86
40
0
40
0
40
0
40
0
40
0.03321818411608
40
0.03321818411608
40
0.04982727617412
40
0.04982727617412
40
0.0664363682321599
40
0.0664363682321599
40
0.0996545523482399
40
0.0996545523482399
40
0.13287273646432
40
0.13287273646432
40
0.1660909205804
40
0.1660909205804
40
0.182700012638439
40
0.182700012638439
40
0.199309104696479
40
0.199309104696479
40
0.215918196754519
40
0.215918196754519
40
0.232527288812558
40
0.232527288812558
40
0.265745472928637
40
0.265745472928637
40
0.298963657044716
40
0.298963657044716
40
0.332181841160796
40
0.332181841160796
40
0.348790933218835
40
0.348790933218835
40
0.365400025276875
40
0.365400025276875
40
0.398618209392953
40
0.398618209392953
40
0.431836393509031
40
0.431836393509031
40
0.44844548556707
40
0.44844548556707
40
0.46505457762511
40
0.46505457762511
40
0.498272761741187
40
0.498272761741187
40
0.531490945857265
40
0.531490945857265
40
0.564709129973342
40
0.564709129973342
40
0.581318222031381
40
0.581318222031381
40
0.59792731408942
40
0.59792731408942
40
0.631145498205498
40
0.631145498205498
40
0.664363682321575
40
0.664363682321575
40
0.680972774379614
40
0.680972774379614
40
0.697581866437653
40
0.697581866437653
40
0.730800050553731
40
0.730800050553731
40
0.747409142611769
40
0.747409142611769
40
0.764018234669808
40
0.764018234669808
40
0.797236418785886
40
0.797236418785886
40
0.813845510843924
40
0.813845510843924
40
0.830454602901963
40
0.830454602901963
40
0.847063694960002
40
0.847063694960002
40
0.86367278701804
40
0.86367278701804
40
0.896890971134118
40
0.896890971134118
40
0.930109155250195
40
0.930109155250195
40
0.963327339366273
40
0.963327339366273
40
0.979936431424312
40
0.979936431424312
40
0.99654552348235
40
0.99654552348235
40
1
40
1
40
1
40
1
41
1
10
18.9757974365293
20
5.84162872596005
30
0
41
1
10
19.4031780978822
20
5.90556985935115
30
0
41
1
10
19.8306757287359
20
5.9561405518844
30
0
41
1
10
20.4710911024764
20
6.01294849706628
30
0
41
1
10
20.6844380519717
20
6.0286887613189
30
0
41
1
10
21.110689314821
20
6.0537545639709
30
0
41
1
10
21.3235788799912
20
6.06305832900395
30
0
41
1
10
21.9633601972919
20
6.0810393048063
30
0
41
1
10
22.3908573388685
20
6.07999578832536
30
0
41
1
10
23.2465456276544
20
6.05171111867435
30
0
41
1
10
23.6731919025314
20
6.02423616269536
30
0
41
1
10
24.5270321617911
20
5.94411734273393
30
0
41
1
10
24.9538953441214
20
5.89146361578756
30
0
41
1
10
25.5931887555788
20
5.79296534079231
30
0
41
1
10
25.8061976830905
20
5.75688505305297
30
0
41
1
10
26.2330907606636
20
5.67887818834217
30
0
41
1
10
26.4468259748842
20
5.63687789874504
30
0
41
1
10
26.8747007777686
20
5.54678014674445
30
0
41
1
10
27.0888840621005
20
5.49867285995953
30
0
41
1
10
27.5162614746468
20
5.39649917075633
30
0
41
1
10
27.7294895071878
20
5.34228429213857
30
0
41
1
10
28.3690443218016
20
5.17131425466468
30
0
41
1
10
28.7959024241082
20
5.0469600171869
30
0
41
1
10
29.6492335352423
20
4.77647441402291
30
0
41
1
10
30.0750766566852
20
4.62946904596976
30
0
41
1
10
30.9299917427553
20
4.31749095240409
30
0
41
1
10
31.3585263324969
20
4.15233628533983
30
0
41
1
10
31.9986433525221
20
3.89106085414619
30
0
41
1
10
32.2115993419872
20
3.80145929593519
30
0
41
1
10
32.6377353559439
20
3.61875097256055
30
0
41
1
10
32.8510072290184
20
3.52579375227529
30
0
41
1
10
33.4909953819237
20
3.24153134312743
30
0
41
1
10
33.9178798442518
20
3.04484890999441
30
0
41
1
10
34.7714485478999
20
2.63574043539668
30
0
41
1
10
35.1997169747949
20
2.4256309993012
30
0
41
1
10
35.8404506786945
20
2.10444965823095
30
0
41
1
10
36.0538603428556
20
1.99622546414412
30
0
41
1
10
36.4801718968491
20
1.77713490664917
30
0
41
1
10
36.6929801850526
20
1.66609609975097
30
0
41
1
10
37.3321912578618
20
1.33176375191627
30
0
41
1
10
37.7592139665153
20
1.10699950523679
30
0
41
1
10
38.6135971206707
20
0.651130132799238
30
0
41
1
10
39.0409061956658
20
0.418964563237751
30
0
41
1
10
39.8951087980755
20
-0.041346169308099
30
0
41
1
10
40.3219996500368
20
-0.270839158422206
30
0
41
1
10
40.9611079672232
20
-0.615775993070031
30
0
41
1
10
41.1739057518581
20
-0.730930342517496
30
0
41
1
10
41.6002589834713
20
-0.959306496361648
30
0
41
1
10
41.8137065982953
20
-1.07272949095687
30
0
41
1
10
42.4545229845705
20
-1.41133355469046
30
0
41
1
10
42.8827237581493
20
-1.6354817157324
30
0
41
1
10
43.735876550356
20
-2.07664564106264
30
0
41
1
10
44.1626696726866
20
-2.2913124699069
30
0
41
1
10
44.8024481842157
20
-2.60589472053488
30
0
41
1
10
45.0156366340561
20
-2.7095178551578
30
0
41
1
10
45.4416815723373
20
-2.91456637141047
30
0
41
1
10
45.6546125320255
20
-3.01585933958313
30
0
41
1
10
46.29475481295
20
-3.3134169174059
30
0
41
1
10
46.7233247257705
20
-3.50468219253747
30
0
41
1
10
47.3639875315029
20
-3.78046547842502
30
0
41
1
10
47.5770957480799
20
-3.87071984691161
30
0
41
1
10
48.0032210000052
20
-4.04668922883587
30
0
41
1
10
48.2164182583204
20
-4.13216125758561
30
0
41
1
10
48.8561493048839
20
-4.38152086985488
30
0
41
1
10
49.282785869864
20
-4.53844058733205
30
0
41
1
10
49.9221703062148
20
-4.76059192590526
30
0
41
1
10
50.1353625849062
20
-4.83222464402911
30
0
41
1
10
50.5627313386255
20
-4.96969350508493
30
0
41
1
10
50.7768276854512
20
-5.03572967207307
30
0
41
1
10
51.2043037165466
20
-5.16216628564919
30
0
41
1
10
51.4178362365024
20
-5.2226128796639
30
0
41
1
10
51.8443413908071
20
-5.33808365145768
30
0
41
1
10
52.0571909613838
20
-5.39320366947334
30
0
41
1
10
52.6960630907707
20
-5.54932417507189
30
0
41
1
10
53.1227474208715
20
-5.64094392065502
30
0
41
1
10
53.9761623617922
20
-5.80059518315016
30
0
41
1
10
54.402854632533
20
-5.86883270840346
30
0
41
1
10
55.2577317731813
20
-5.97863826941608
30
0
41
1
10
55.6849251856956
20
-6.02057738639826
30
0
41
1
10
56.3244902150726
20
-6.06432263365554
30
0
41
1
10
56.5373679319238
20
-6.075696402365
30
0
41
1
10
56.9636977316441
20
-6.09179410542973
30
0
41
1
10
57.1771540467321
20
-6.09654358155026
30
0
41
1
10
57.4351801187282
20
-6.09834609340621
30
0
41
1
10
57.4796167319952
20
-6.09851523366959
30
0
41
1
10
57.5240608902637
20
-6.09854295391722
30
0
0
SPLINE
5
CF
100
AcDbEntity
8
1
62
256
6
ByLayer
370
18
48
1
60
0
100
AcDbSpline
70
4
71
3
72
12
73
8
40
0
40
0
40
0
40
0
40
0.250000000000008
40
0.250000000000008
40
0.500000000000016
40
0.500000000000016
40
1
40
1
40
1
40
1
41
1
10
59.9301381810563
20
-5.88141065874359
30
0
41
1
10
59.934983896232
20
-5.86832293469124
30
0
41
1
10
59.939619034558
20
-5.85502547286089
30
0
41
1
10
59.9473018006104
20
-5.83104856731094
30
0
41
1
10
59.9503301360047
20
-5.82040906770956
30
0
41
1
10
59.9558895759928
20
-5.79642959114852
30
0
41
1
10
59.9548633685927
20
-5.79179259740931
30
0
41
1
10
59.9511855978905
20
-5.79486570353723
30
0
0
SPLINE
5
D0
100
AcDbEntity
8
1
62
256
6
ByLayer
370
18
48
1
60
0
100
AcDbSpline
70
4
71
3
72
18
73
14
40
0
40
0
40
0
40
0
40
0.125
40
0.125
40
0.25
40
0.25
40
0.375
40
0.375
40
0.5
40
0.5
40
0.75
40
0.75
40
1
40
1
40
1
40
1
41
1
10
4.25068475884945
20
-5.63605634670645
30
0
41
1
10
4.23627668587204
20
-5.63316878429862
30
0
41
1
10
4.22141605483563
20
-5.63162957003541
30
0
41
1
10
4.19047527639333
20
-5.63213421386121
30
0
41
1
10
4.17425958161107
20
-5.63424464590548
30
0
41
1
10
4.14194288546685
20
-5.64327256833857
30
0
41
1
10
4.12541239079778
20
-5.65039844807885
30
0
41
1
10
4.09477066986548
20
-5.66951566769308
30
0
41
1
10
4.08014622051729
20
-5.68185771467324
30
0
41
1
10
4.04248357460347
20
-5.72349462702479
30
0
41
1
10
4.02519565118411
20
-5.75735487030366
30
0
41
1
10
4.00424670121026
20
-5.82401466190257
30
0
41
1
10
3.9999995859055
20
-5.85722876422804
30
0
41
1
10
3.99999958590519
20
-5.88956700874093
30
0
0
SPLINE
5
D1
100
AcDbEntity
8
1
62
256
6
ByLayer
370
18
48
1
60
0
100
AcDbSpline
70
4
71
3
72
8
73
4
40
0
40
0
40
0
40
0
40
1
40
1
40
1
40
1
41
1
10
59.8661623753746
20
-6.05394434399921
30
0
41
1
10
59.8875071407153
20
-5.99646632685739
30
0
41
1
10
59.9088324138243
20
-5.93895510618674
30
0
41
1
10
59.9301381810563
20
-5.88141065874359
30
0
0
SPLINE
5
D2
100
AcDbEntity
8
1
62
256
6
ByLayer
370
18
48
1
60
0
100
AcDbSpline
70
4
71
3
72
71
73
67
40
0
40
0
40
0
40
0
40
0.124999999999995
40
0.124999999999995
40
0.249999999999991
40
0.249999999999991
40
0.374999999999986
40
0.374999999999986
40
0.499999999999981
40
0.499999999999981
40
0.562499999999979
40
0.562499999999979
40
0.593749999999978
40
0.593749999999978
40
0.624999999999977
40
0.624999999999977
40
0.687499999999974
40
0.687499999999974
40
0.703124999999974
40
0.703124999999974
40
0.710937499999974
40
0.710937499999974
40
0.714843749999974
40
0.714843749999974
40
0.718749999999975
40
0.718749999999975
40
0.720703124999975
40
0.720703124999975
40
0.722656249999974
40
0.722656249999974
40
0.726562499999975
40
0.726562499999975
40
0.734374999999976
40
0.734374999999976
40
0.749999999999977
40
0.749999999999977
40
0.765624999999979
40
0.765624999999979
40
0.78124999999998
40
0.78124999999998
40
0.796874999999982
40
0.796874999999982
40
0.804687499999982
40
0.804687499999982
40
0.812499999999983
40
0.820312499999983
40
0.820312499999983
40
0.828124999999984
40
0.828124999999984
40
0.843749999999985
40
0.843749999999985
40
0.859374999999986
40
0.859374999999986
40
0.874999999999988
40
0.874999999999988
40
0.890624999999989
40
0.890624999999989
40
0.90624999999999
40
0.90624999999999
40
0.937499999999993
40
0.937499999999993
40
0.953124999999995
40
0.953124999999995
40
0.968749999999996
40
0.968749999999996
40
1
40
1
40
1
40
1
41
1
10
18.9757912401369
20
-5.84163824999661
30
0
41
1
10
18.136726445692
20
-5.71629598908282
30
0
41
1
10
17.2883429962509
20
-5.54833439262171
30
0
41
1
10
15.5647079289915
20
-5.15903327174482
30
0
41
1
10
14.6974982133508
20
-4.93955461848228
30
0
41
1
10
12.9451940128152
20
-4.49179732831559
30
0
41
1
10
12.0596366082641
20
-4.26365239112957
30
0
41
1
10
10.2618548084899
20
-3.84034491525208
30
0
41
1
10
9.34963461092687
20
-3.64538275986007
30
0
41
1
10
7.95750978934313
20
-3.40481349778659
30
0
41
1
10
7.48952480513577
20
-3.333202061892
30
0
41
1
10
6.78127484245437
20
-3.24139895842839
30
0
41
1
10
6.54410468772221
20
-3.21339915796278
30
0
41
1
10
6.06961855362007
20
-3.16319318107796
30
0
41
1
10
5.83205823633236
20
-3.14095275521234
30
0
41
1
10
5.11840312970315
20
-3.08323846376871
30
0
41
1
10
4.64117837528801
20
-3.05677106119259
30
0
41
1
10
4.04336184917346
20
-3.03997341775957
30
0
41
1
10
3.92377607796448
20
-3.03742855806183
30
0
41
1
10
3.7443632647433
20
-3.03485283287719
30
0
41
1
10
3.68454934583883
20
-3.03420116186271
30
0
41
1
10
3.59483397400322
20
-3.03353662874304
30
0
41
1
10
3.56491000141716
20
-3.03288553966752
30
0
41
1
10
3.50515933286104
20
-3.0338003352523
30
0
41
1
10
3.47478995616473
20
-3.03693519846794
30
0
41
1
10
3.43168932673822
20
-3.04753105234116
30
0
41
1
10
3.41792628058232
20
-3.05199487747115
30
0
41
1
10
3.39212355108307
20
-3.06357245659038
30
0
41
1
10
3.380242585855
20
-3.07092940824936
30
0
41
1
10
3.34377487691768
20
-3.09170096906541
30
0
41
1
10
3.31957402507248
20
-3.10568703695731
30
0
41
1
10
3.24732058287512
20
-3.14807779160788
30
0
41
1
10
3.1997161246361
20
-3.17685690868822
30
0
41
1
10
3.0589194119932
20
-3.264760921419
30
0
41
1
10
2.96766010568953
20
-3.32548385733986
30
0
41
1
10
2.79147542607916
20
-3.45192351712598
30
0
41
1
10
2.7062739096086
20
-3.51789994094895
30
0
41
1
10
2.54652621240496
20
-3.65356868933696
30
0
41
1
10
2.47169245024128
20
-3.72342501131686
30
0
41
1
10
2.33428690332349
20
-3.86781282777039
30
0
41
1
10
2.27169251180294
20
-3.94233770801281
30
0
41
1
10
2.18946675410908
20
-4.05835504166441
30
0
41
1
10
2.16403328064607
20
-4.09776706628409
30
0
41
1
10
2.11858673779636
20
-4.17634622025278
30
0
41
1
10
2.07824855511399
20
-4.25509326208371
30
0
41
1
10
2.04862511274334
20
-4.33410545423169
30
0
41
1
10
2.02465055663686
20
-4.41321241332253
30
0
41
1
10
2.01546174550632
20
-4.45305636966492
30
0
41
1
10
1.99714824826046
20
-4.57048068853578
30
0
41
1
10
1.99706116075168
20
-4.64597078045833
30
0
41
1
10
2.0190280462802
20
-4.79149658798283
30
0
41
1
10
2.04147023008113
20
-4.8619639254365
30
0
41
1
10
2.10390300089011
20
-4.99266820680808
30
0
41
1
10
2.14384491970867
20
-5.05360321630741
30
0
41
1
10
2.23773866601164
20
-5.16811540467228
30
0
41
1
10
2.29208709971084
20
-5.2219595326192
30
0
41
1
10
2.40998425037881
20
-5.32137241732818
30
0
41
1
10
2.47357532574623
20
-5.3671320806381
30
0
41
1
10
2.67518975921036
20
-5.49489687800255
30
0
41
1
10
2.82389706091186
20
-5.56750768221505
30
0
41
1
10
3.06141699627938
20
-5.66284337304751
30
0
41
1
10
3.14276335255994
20
-5.69219190244613
30
0
41
1
10
3.30785328477776
20
-5.74635377784966
30
0
41
1
10
3.39179106923061
20
-5.77124196090983
30
0
41
1
10
3.64707427629111
20
-5.84023724684604
30
0
41
1
10
3.82185362159794
20
-5.87872148176936
30
0
41
1
10
3.99999958590573
20
-5.91126055284141
30
0
0
SPLINE
5
D3
100
AcDbEntity
8
1
62
256
6
ByLayer
370
18
48
1
60
0
100
AcDbSpline
70
4
71
3
72
12
73
8
40
0
40
0
40
0
40
0
40
0.43878967792682
40
0.43878967792682
40
0.87757935585364
40
0.87757935585364
40
1
40
1
40
1
40
1
41
1
10
18.9757912401369
20
5.84163824999663
30
0
41
1
10
18.1367264456921
20
5.71629598908285
30
0
41
1
10
17.2883429962512
20
5.54833439262174
30
0
41
1
10
15.5647079289921
20
5.1590332717449
30
0
41
1
10
14.6974982133515
20
4.93955461848239
30
0
41
1
10
13.5769030236481
20
4.65321468654474
30
0
41
1
10
13.3317278359673
20
4.59042131633964
30
0
41
1
10
13.0857352425099
20
4.52774664797283
30
0
0
SPLINE
5
D4
100
AcDbEntity
8
1
62
256
6
ByLayer
370
13
48
1
60
0
100
AcDbSpline
70
4
71
3
72
8
73
4
40
0
40
0
40
0
40
0
40
1
40
1
40
1
40
1
41
1
10
4.25023661572726
20
0.691347287869831
30
0
41
1
10
4.20969489089248
20
0.703765032377163
30
0
41
1
10
4.17012069550339
20
0.716951706893752
30
0
41
1
10
4.13384508747401
20
0.730330019129354
30
0
0
SPLINE
5
D5
100
AcDbEntity
8
1
62
256
6
ByLayer
370
18
48
1
60
0
100
AcDbSpline
70
4
71
3
72
82
73
78
40
0
40
0
40
0
40
0
40
0.0175250751325215
40
0.0175250751325215
40
0.0350692702194408
40
0.0350692702194408
40
0.05261346530636
40
0.05261346530636
40
0.0877018554801993
40
0.0877018554801993
40
0.105246050567119
40
0.105246050567119
40
0.122790245654038
40
0.122790245654038
40
0.157878635827876
40
0.157878635827876
40
0.192967026001715
40
0.192967026001715
40
0.210511221088634
40
0.210511221088634
40
0.228055416175553
40
0.228055416175553
40
0.263143806349392
40
0.263143806349392
40
0.29823219652323
40
0.29823219652323
40
0.333320586697069
40
0.333320586697069
40
0.350864781783988
40
0.350864781783988
40
0.368408976870908
40
0.368408976870908
40
0.403497367044747
40
0.403497367044747
40
0.421041562131667
40
0.421041562131667
40
0.438585757218587
40
0.438585757218587
40
0.473674147392426
40
0.473674147392426
40
0.508762537566265
40
0.508762537566265
40
0.526306732653185
40
0.526306732653185
40
0.543850927740105
40
0.543850927740105
40
0.578939317913943
40
0.578939317913943
40
0.596483513000863
40
0.596483513000863
40
0.614027708087783
40
0.614027708087783
40
0.649116098261622
40
0.649116098261622
40
0.666660293348541
40
0.666660293348541
40
0.684204488435461
40
0.684204488435461
40
0.719292878609298
40
0.719292878609298
40
0.736837073696218
40
0.736837073696218
40
0.754381268783137
40
0.754381268783137
40
0.789469658956974
40
0.789469658956974
40
0.824558049130812
40
0.824558049130812
40
0.85964643930465
40
0.85964643930465
40
0.894734829478487
40
0.894734829478487
40
0.929823219652325
40
0.929823219652325
40
0.964911609826162
40
0.964911609826162
40
1
40
1
40
1
40
1
41
1
10
48.9525236805882
20
-4.42435926478211
30
0
41
1
10
48.7330854177811
20
-4.49823056949103
30
0
41
1
10
48.5135671313675
20
-4.56949408539185
30
0
41
1
10
48.0737920981139
20
-4.70609876034806
30
0
41
1
10
47.8533702611566
20
-4.77160948661307
30
0
41
1
10
47.4126617635818
20
-4.89765979577101
30
0
41
1
10
47.1924619226805
20
-4.95818174319584
30
0
41
1
10
46.5325553635558
20
-5.13155650651373
30
0
41
1
10
46.093622655906
20
-5.23609804621887
30
0
41
1
10
45.4344976621223
20
-5.37351688006535
30
0
41
1
10
45.2147341220127
20
-5.41607503723301
30
0
41
1
10
44.7750623438277
20
-5.49397315836245
30
0
41
1
10
44.5551981870235
20
-5.52954397464774
30
0
41
1
10
43.895324378217
20
-5.62845105381481
30
0
41
1
10
43.4540975966707
20
-5.68290226093072
30
0
41
1
10
42.5737966739065
20
-5.76597404310462
30
0
41
1
10
42.1347112689057
20
-5.79509528022547
30
0
41
1
10
41.4758814326992
20
-5.815693703124
30
0
41
1
10
41.2561927784287
20
-5.81837764070877
30
0
41
1
10
40.8165543781246
20
-5.81829935472814
30
0
41
1
10
40.5966170700578
20
-5.81538043500709
30
0
41
1
10
39.9365856975479
20
-5.79684258349579
30
0
41
1
10
39.4957953514562
20
-5.77108243763487
30
0
41
1
10
38.6154258129362
20
-5.69416568793926
30
0
41
1
10
38.1757560218551
20
-5.64330466589806
30
0
41
1
10
37.2974964324764
20
-5.51390117482578
30
0
41
1
10
36.8581635387295
20
-5.43702798323636
30
0
41
1
10
36.1980607299551
20
-5.30158063827608
30
0
41
1
10
35.9778417450648
20
-5.25284771966057
30
0
41
1
10
35.5372849010201
20
-5.15051838421425
30
0
41
1
10
35.3169896635204
20
-5.09664123642258
30
0
41
1
10
34.656682757707
20
-4.9270756886676
30
0
41
1
10
34.2168444345483
20
-4.80345396759017
30
0
41
1
10
33.5576809108053
20
-4.60134502136728
30
0
41
1
10
33.3381594778635
20
-4.53102786462441
30
0
41
1
10
32.8988736373383
20
-4.38412682186276
30
0
41
1
10
32.6790683447349
20
-4.3078478522161
30
0
41
1
10
32.0190852161244
20
-4.07316249877658
30
0
41
1
10
31.5777941611668
20
-3.90834827442924
30
0
41
1
10
30.6975251955702
20
-3.56019094986024
30
0
41
1
10
30.2579304761194
20
-3.37851425439544
30
0
41
1
10
29.5986851885875
20
-3.09379087906868
30
0
41
1
10
29.3789749135926
20
-2.99653061388554
30
0
41
1
10
28.9396925235965
20
-2.79909359452915
30
0
41
1
10
28.7200733382304
20
-2.69890471805505
30
0
41
1
10
28.0605286832541
20
-2.39460215304916
30
0
41
1
10
27.6194311885463
20
-2.18620334582312
30
0
41
1
10
26.9588111954416
20
-1.86612614818694
30
0
41
1
10
26.738979786485
20
-1.75809694748881
30
0
41
1
10
26.2995083844563
20
-1.54022855608764
30
0
41
1
10
26.0798643066018
20
-1.43027298206488
30
0
41
1
10
25.4208031223171
20
-1.09902305168475
30
0
41
1
10
24.9813767342953
20
-0.87625915185518
30
0
41
1
10
24.322311184711
20
-0.537751870610578
30
0
41
1
10
24.1024688791932
20
-0.424531625062968
30
0
41
1
10
23.6622715275778
20
-0.197993779465577
30
0
41
1
10
23.4417682498925
20
-0.084505572322314
30
0
41
1
10
22.7808710051523
20
0.25563253833289
30
0
41
1
10
22.3415684219164
20
0.482640128936055
30
0
41
1
10
21.6827030909266
20
0.819998840300144
30
0
41
1
10
21.463072125973
20
0.931889930320096
30
0
41
1
10
21.023717364084
20
1.15424287947465
30
0
41
1
10
20.8039803565986
20
1.26458615504518
30
0
41
1
10
20.1446763231034
20
1.59416069407459
30
0
41
1
10
19.7049164103438
20
1.81221884564459
30
0
41
1
10
18.8236659018622
20
2.23791509116921
30
0
41
1
10
18.3838323710009
20
2.44554138793015
30
0
41
1
10
17.5057255068982
20
2.84873052142484
30
0
41
1
10
17.0666585144952
20
3.0425936205728
30
0
41
1
10
16.1874866759487
20
3.41803450445994
30
0
41
1
10
15.7476943514993
20
3.59999866387147
30
0
41
1
10
14.8669723885337
20
3.94552478526856
30
0
41
1
10
14.427294675672
20
4.10786204886816
30
0
41
1
10
13.5488907078311
20
4.41315634319162
30
0
41
1
10
13.110277031014
20
4.5572198085444
30
0
41
1
10
12.2317209129197
20
4.82409858483967
30
0
41
1
10
11.7918742473296
20
4.94694698294174
30
0
41
1
10
11.3514034251231
20
5.05805483095801
30
0
0
SPLINE
5
D6
100
AcDbEntity
8
1
62
256
6
ByLayer
370
18
48
1
60
0
100
AcDbSpline
70
4
71
3
72
24
73
20
40
0
40
0
40
0
40
0
40
0.249999999999983
40
0.249999999999983
40
0.374999999999982
40
0.374999999999982
40
0.499999999999981
40
0.499999999999981
40
0.62499999999998
40
0.62499999999998
40
0.749999999999979
40
0.749999999999979
40
0.812499999999984
40
0.812499999999984
40
0.874999999999989
40
0.874999999999989
40
0.937499999999995
40
0.937499999999995
40
1
40
1
40
1
40
1
41
1
10
59.0854941353377
20
1.75820248838755
30
0
41
1
10
59.2957049558555
20
1.79567555263813
30
0
41
1
10
59.5051233362122
20
1.83856186226211
30
0
41
1
10
59.8148640018414
20
1.91682985583137
30
0
41
1
10
59.9173683385865
20
1.94527180067681
30
0
41
1
10
60.1203089025654
20
2.00881898039387
30
0
41
1
10
60.2209836552114
20
2.04396934480644
30
0
41
1
10
60.4181811243365
20
2.12403771019177
30
0
41
1
10
60.5143533574069
20
2.16868491472209
30
0
41
1
10
60.6986635429652
20
2.27351947400501
30
0
41
1
10
60.7875376277082
20
2.33408538464283
30
0
41
1
10
60.9037049911678
20
2.44304180117265
30
0
41
1
10
60.9399874613331
20
2.48298490361796
30
0
41
1
10
61.0024592457704
20
2.56916295353497
30
0
41
1
10
61.0288333777997
20
2.61548593791167
30
0
41
1
10
61.0686046578201
20
2.71586438193677
30
0
41
1
10
61.0810346877697
20
2.76757200056517
30
0
41
1
10
61.0913192037092
20
2.87398792854856
30
0
41
1
10
61.0889164110652
20
2.92872903237165
30
0
41
1
10
61.0804303667492
20
2.98171592628736
30
0
0
SPLINE
5
D7
100
AcDbEntity
8
1
62
256
6
ByLayer
370
18
48
1
60
0
100
AcDbSpline
70
4
71
3
72
20
73
16
40
0
40
0
40
0
40
0
40
0.0619468814630512
40
0.0619468814630512
40
0.233830353000078
40
0.233830353000078
40
0.57759729607413
40
0.57759729607413
40
0.749480767611156
40
0.749480767611156
40
0.83542250337967
40
0.83542250337967
40
0.921364239148183
40
0.921364239148183
40
1
40
1
40
1
40
1
41
1
10
5.32709110193255
20
0.02853136171899
30
0
41
1
10
5.53775531882624
20
-0.0817297250143838
30
0
41
1
10
5.74811600242472
20
-0.191873709878621
30
0
41
1
10
6.54023621213463
20
-0.60615262175989
30
0
41
1
10
7.11989498245765
20
-0.907983832472468
30
0
41
1
10
8.85536889356916
20
-1.79718059682841
30
0
41
1
10
10.0070730613169
20
-2.36935953744813
30
0
41
1
10
11.7454025847256
20
-3.16234029728142
30
0
41
1
10
12.3264687375308
20
-3.41607235360928
30
0
41
1
10
13.2026763801314
20
-3.77683511088682
30
0
41
1
10
13.4958018889433
20
-3.89386822240002
30
0
41
1
10
14.0795528267792
20
-4.11872374117635
30
0
41
1
10
14.3707047601081
20
-4.22678184118979
30
0
41
1
10
14.9271122068636
20
-4.42505822607694
30
0
41
1
10
15.1924728742175
20
-4.51603000750069
30
0
41
1
10
15.4574848966116
20
-4.60308992732664
30
0
0
SPLINE
5
D8
100
AcDbEntity
8
1
62
256
6
ByLayer
370
13
48
1
60
0
100
AcDbSpline
70
4
71
3
72
16
73
12
40
0
40
0
40
0
40
0
40
0.283574670200873
40
0.283574670200873
40
0.467414980286495
40
0.467414980286495
40
0.559335135329306
40
0.559335135329306
40
0.651255290372118
40
0.651255290372118
40
1
40
1
40
1
40
1
41
1
10
15.4574848965572
20
-4.60308992730876
30
0
41
1
10
16.3510090392728
20
-4.89662430935317
30
0
41
1
10
17.2405698101298
20
-5.14568891853142
30
0
41
1
10
18.7094131817871
20
-5.47367118070687
30
0
41
1
10
19.2877320117411
20
-5.58173497052593
30
0
41
1
10
20.1582610599053
20
-5.710689438716
30
0
41
1
10
20.4489473114971
20
-5.748137912337
30
0
41
1
10
21.0317120406421
20
-5.81154109381043
30
0
41
1
10
21.3241818347406
20
-5.83754282866769
30
0
41
1
10
22.7266414011931
20
-5.93364542763268
30
0
41
1
10
23.8243853320586
20
-5.92355977394632
30
0
41
1
10
24.920014512825
20
-5.83089276078596
30
0
0
SPLINE
5
D9
100
AcDbEntity
8
1
62
256
6
ByLayer
370
18
48
1
60
0
100
AcDbSpline
70
4
71
3
72
20
73
16
40
0
40
0
40
0
40
0
40
0.125
40
0.125
40
0.25
40
0.25
40
0.5
40
0.5
40
0.625
40
0.625
40
0.75
40
0.75
40
0.875
40
0.875
40
1
40
1
40
1
40
1
41
1
10
61.080430366747
20
-2.98171592628736
30
0
41
1
10
61.033791944028
20
-3.10718113280967
30
0
41
1
10
60.9870979375834
20
-3.23254145473135
30
0
41
1
10
60.8935742356713
20
-3.48300605800151
30
0
41
1
10
60.8467274601752
20
-3.6080894865726
30
0
41
1
10
60.7061044251137
20
-3.98310392231352
30
0
41
1
10
60.6122942629613
20
-4.2328510170274
30
0
41
1
10
60.4712403035922
20
-4.60602510315931
30
0
41
1
10
60.4241471146389
20
-4.73009529769533
30
0
41
1
10
60.3298910144626
20
-4.97793792368145
30
0
41
1
10
60.2827527862543
20
-5.10174216303591
30
0
41
1
10
60.1884471703018
20
-5.34855733988954
30
0
41
1
10
60.1412786346668
20
-5.47159790420972
30
0
41
1
10
60.046872363552
20
-5.71606417003829
30
0
41
1
10
59.9996485466561
20
-5.83781467868369
30
0
41
1
10
59.9524058824914
20
-5.95912536331565
30
0
0
LINE
5
76
100
AcDbEntity
8
81
62
256
6
ByLayer
370
18
48
1
60
0
100
AcDbLine
10
62
20
0
30
0
11
67
21
0
31
0
39
0
210
0
220
0
230
1
0
LINE
5
77
100
AcDbEntity
8
1
62
256
6
ByLayer
370
18
48
1
60
0
100
AcDbLine
10
4
20
6.066429
30
0
11
1.455783
21
6.064902
31
0
39
0
210
0
220
0
230
1
0
LINE
5
79
100
AcDbEntity
8
1
62
256
6
ByLayer
370
18
48
1
60
0
100
AcDbLine
10
23.080789
20
6.077877
30
0
11
22.114141
21
6.077297
31
0
39
0
210
0
220
0
230
1
0
LINE
5
7A
100
AcDbEntity
8
1
62
256
6
ByLayer
370
18
48
1
60
0
100
AcDbLine
10
58.481804
20
6.099118
30
0
11
57.525954
21
6.098544
31
0
39
0
210
0
220
0
230
1
0
LINE
5
7B
100
AcDbEntity
8
1
62
256
6
ByLayer
370
18
48
1
60
0
100
AcDbLine
10
57.525954
20
-6.098544
30
0
11
58.481507
21
-6.099117
31
0
39
0
210
0
220
0
230
1
0
LINE
5
7C
100
AcDbEntity
8
1
62
256
6
ByLayer
370
18
48
1
60
0
100
AcDbLine
10
22.114141
20
-6.077297
30
0
11
23.080813
21
-6.077877
31
0
39
0
210
0
220
0
230
1
0
LINE
5
7D
100
AcDbEntity
8
1
62
256
6
ByLayer
370
18
48
1
60
0
100
AcDbLine
10
1.455783
20
-6.064902
30
0
11
4
21
-6.066429
31
0
39
0
210
0
220
0
230
1
0
LINE
5
7E
100
AcDbEntity
8
SK1
62
256
6
ByLayer
370
18
48
1
60
0
100
AcDbLine
10
-43.267949
20
7
30
0
11
-45
21
4
31
0
39
0
210
0
220
0
230
1
0
LINE
5
80
100
AcDbEntity
8
SK1
62
256
6
ByLayer
370
18
48
1
60
0
100
AcDbLine
10
-45
20
-4
30
0
11
-43.267949
21
-7
31
0
39
0
210
0
220
0
230
1
0
LINE
5
81
100
AcDbEntity
8
SK1
62
256
6
ByLayer
370
18
48
1
60
0
100
AcDbLine
10
0
20
7
30
0
11
-43.267949
21
7
31
0
39
0
210
0
220
0
230
1
0
LINE
5
82
100
AcDbEntity
8
SK1
62
256
6
ByLayer
370
18
48
1
60
0
100
AcDbLine
10
-43.267949
20
-7
30
0
11
0
21
-7
31
0
39
0
210
0
220
0
230
1
0
LINE
5
83
100
AcDbEntity
8
SK4
62
256
6
ByLayer
370
18
48
0.05
60
0
100
AcDbLine
10
67
20
0
30
0
11
-50
21
0
31
0
39
0
210
0
220
0
230
1
0
LINE
5
85
100
AcDbEntity
8
4
62
256
6
ByLayer
370
18
48
0.05
60
0
100
AcDbLine
10
62
20
0
30
0
11
0
21
0
31
0
39
0
210
0
220
0
230
1
0
LINE
5
87
100
AcDbEntity
8
80
62
256
6
ByLayer
370
18
48
1
60
0
100
AcDbLine
10
0
20
0
30
0
11
-5
21
0
31
0
39
0
210
0
220
0
230
1
0
LINE
5
88
100
AcDbEntity
8
1
62
256
6
ByLayer
370
18
48
1
60
0
100
AcDbLine
10
4.250565
20
-5.798079
30
0
11
4.25057
21
-5.797817
31
0
39
0
210
0
220
0
230
1
0
LINE
5
89
100
AcDbEntity
8
1
62
256
6
ByLayer
370
18
48
1
60
0
100
AcDbLine
10
0
20
-7
30
0
11
0
21
7
31
0
39
0
210
0
220
0
230
1
0
LINE
5
8A
100
AcDbEntity
8
1
62
256
6
ByLayer
370
13
48
1
60
0
100
AcDbLine
10
0.727651
20
6.532451
30
0
11
0.727651
21
-6.532451
31
0
39
0
210
0
220
0
230
1
0
LINE
5
8B
100
AcDbEntity
8
1
62
256
6
ByLayer
370
18
48
1
60
0
100
AcDbLine
10
4
20
0.889806
30
0
11
4
21
6.066429
31
0
39
0
210
0
220
0
230
1
0
LINE
5
8C
100
AcDbEntity
8
1
62
256
6
ByLayer
370
13
48
1
60
0
100
AcDbLine
10
61.695234
20
1.100846
30
0
11
60.319518
21
1.100846
31
0
39
0
210
0
220
0
230
1
0
LINE
5
8D
100
AcDbEntity
8
1
62
256
6
ByLayer
370
18
48
1
60
0
100
AcDbLine
10
61.90831
20
-0.314201
30
0
11
61.695234
21
-1.100846
31
0
39
0
210
0
220
0
230
1
0
LINE
5
8E
100
AcDbEntity
8
1
62
256
6
ByLayer
370
18
48
1
60
0
100
AcDbLine
10
58.928391
20
-3.414388
30
0
11
61.894143
21
-0.109111
31
0
39
0
210
0
220
0
230
1
0
LINE
5
8F
100
AcDbEntity
8
1
62
256
6
ByLayer
370
18
48
1
60
0
100
AcDbLine
10
61.987147
20
0.057661
30
0
11
62
21
0
31
0
39
0
210
0
220
0
230
1
0
LINE
5
90
100
AcDbEntity
8
1
62
256
6
ByLayer
370
13
48
1
60
0
100
AcDbLine
10
1.455783
20
6.064902
30
0
11
1.455783
21
-6.064902
31
0
39
0
210
0
220
0
230
1
0
LINE
5
91
100
AcDbEntity
8
1
62
256
6
ByLayer
370
13
48
1
60
0
100
AcDbLine
10
60.319518
20
1.100846
30
0
11
61.90831
21
0.314201
31
0
39
0
210
0
220
0
230
1
0
LINE
5
92
100
AcDbEntity
8
1
62
256
6
ByLayer
370
13
48
1
60
0
100
AcDbLine
10
60.150059
20
0.754422
30
0
11
61.894143
21
-0.109111
31
0
39
0
210
0
220
0
230
1
0
LINE
5
93
100
AcDbEntity
8
1
62
256
6
ByLayer
370
18
48
1
60
0
100
AcDbLine
10
61.90831
20
0.314201
30
0
11
61.695234
21
1.100846
31
0
39
0
210
0
220
0
230
1
0
LINE
5
94
100
AcDbEntity
8
1
62
256
6
ByLayer
370
18
48
1
60
0
100
AcDbLine
10
62
20
0
30
0
11
59.877717
21
-5.830925
31
0
39
0
210
0
220
0
230
1
0
LINE
5
95
100
AcDbEntity
8
1
62
256
6
ByLayer
370
18
48
1
60
0
100
AcDbLine
10
62
20
0
30
0
11
61.987147
21
-0.057661
31
0
39
0
210
0
220
0
230
1
0
LINE
5
96
100
AcDbEntity
8
SK1
62
256
6
ByLayer
370
18
48
1
60
0
100
AcDbLine
10
-43.267949
20
7
30
0
11
-43.267949
21
-7
31
0
39
0
210
0
220
0
230
1
0
LINE
5
97
100
AcDbEntity
8
SK1
62
256
6
ByLayer
370
18
48
1
60
0
100
AcDbLine
10
-45
20
4
30
0
11
-45
21
-4
31
0
39
0
210
0
220
0
230
1
0
LINE
5
98
100
AcDbEntity
8
SK1
62
256
6
ByLayer
370
18
48
1
60
0
100
AcDbLine
10
0
20
-7
30
0
11
0
21
7
31
0
39
0
210
0
220
0
230
1
0
MTEXT
5
DA
100
AcDbEntity
8
SK6
62
256
6
ByLayer
370
13
48
1
60
0
100
AcDbMText
10
10.629169
20
38.482694
30
0
210
0
220
0
230
1
1
\W0.7542;R840-1220-30-A0A1220
40
3.5
41
0
44
1.084337
50
0
71
8
72
5
7
iso_b_vert
0
DIMENSION
5
E7
100
AcDbEntity
8
SK2
62
256
6
ByLayer
370
13
48
1
60
0
100
AcDbDimension
2
DimnDraft3D1
10
59.91
20
-16.313398
30
0
11
28.160059
21
-16.313398
31
0
70
32
71
5
72
1
41
1
210
0
220
0
230
1
3
Standard
100
AcDbAlignedDimension
13
0
23
-1.5875
33
0
14
59.91
24
-7.6875
34
0
50
0
100
AcDbRotatedDimension
1001
ACAD
1000
DSTYLE
1002
{
1070
   279
1070
     0
1070
   172
1070
     1
1070
   173
1070
     1
1070
   340
1005
DB
1070
   271
1070
     2
1070
   272
1070
     2
1070
    77
1070
     1
1070
    73
1070
     0
1070
   171
1070
     3
1070
   274
1070
     4
1070
   177
1070
    35
1070
   176
1070
    35
1070
   178
1070
    35
1070
    48
1040
-0.005
1070
    41
1041
3.5
1070
   147
1041
1.75
1070
    42
1041
1.5875
1070
    44
1041
2.0
1070
   140
1041
3.5
1070
   343
1005
0
1070
   344
1005
0
1002
}
0
DIMENSION
5
F1
100
AcDbEntity
8
SK2
62
256
6
ByLayer
370
13
48
1
60
0
100
AcDbDimension
2
DimnDraft3D2
10
62
20
-35.692985
30
0
11
7.7513
21
-35.692985
31
0
70
32
71
5
72
1
41
1
210
0
220
0
230
1
3
Standard
100
AcDbAlignedDimension
13
-45
23
-8.5875
33
0
14
62
24
-1.5875
34
0
50
0
100
AcDbRotatedDimension
1001
ACAD
1000
DSTYLE
1002
{
1070
   279
1070
     0
1070
   172
1070
     1
1070
   173
1070
     1
1070
   340
1005
DB
1070
   271
1070
     2
1070
   272
1070
     2
1070
    77
1070
     1
1070
    73
1070
     0
1070
   171
1070
     3
1070
   274
1070
     4
1070
   177
1070
    35
1070
   176
1070
    35
1070
   178
1070
    35
1070
    48
1040
-0.005
1070
    41
1041
3.5
1070
   147
1041
1.75
1070
    42
1041
1.5875
1070
    44
1041
2.0
1070
   140
1041
3.5
1070
   343
1005
0
1070
   344
1005
0
1002
}
0
DIMENSION
5
FB
100
AcDbEntity
8
SK2
62
256
6
ByLayer
370
13
48
1
60
0
100
AcDbDimension
2
DimnDraft3D3
10
62
20
17.709119
30
0
11
42.655
21
17.709119
31
0
70
32
71
5
72
1
41
1
210
0
220
0
230
1
3
Standard
100
AcDbAlignedDimension
13
23.31
23
7.6875
33
0
14
62
24
1.5875
34
0
50
0
100
AcDbRotatedDimension
1001
ACAD
1000
DSTYLE
1002
{
1070
   279
1070
     0
1070
   172
1070
     1
1070
   173
1070
     1
1070
   340
1005
DB
1070
   271
1070
     2
1070
   272
1070
     2
1070
    77
1070
     1
1070
    73
1070
     0
1070
   171
1070
     3
1070
   274
1070
     4
1070
   177
1070
    35
1070
   176
1070
    35
1070
   178
1070
    35
1070
    48
1040
-0.005
1070
    41
1041
3.5
1070
   147
1041
1.75
1070
    42
1041
1.5875
1070
    44
1041
2.0
1070
   140
1041
3.5
1070
   343
1005
0
1070
   344
1005
0
1002
}
0
DIMENSION
5
105
100
AcDbEntity
8
SK2
62
256
6
ByLayer
370
13
48
1
60
0
100
AcDbDimension
2
DimnDraft3D4
10
59.91
20
-18.902503
30
0
11
71.981425
21
-18.902503
31
0
70
32
71
5
72
1
41
1
210
0
220
0
230
1
3
Standard
100
AcDbAlignedDimension
13
62
23
-1.5875
33
0
14
59.91
24
-7.6875
34
0
50
0
100
AcDbRotatedDimension
1001
ACAD
1000
DSTYLE
1002
{
1070
   279
1070
     0
1070
   172
1070
     1
1070
   173
1070
     1
1070
   340
1005
DB
1070
   271
1070
     2
1070
   272
1070
     2
1070
    77
1070
     1
1070
    73
1070
     0
1070
   171
1070
     3
1070
   274
1070
     4
1070
   177
1070
    35
1070
   176
1070
    35
1070
   178
1070
    35
1070
    48
1040
-0.005
1070
    41
1041
3.5
1070
   147
1041
1.75
1070
    42
1041
1.5875
1070
    44
1041
2.0
1070
   140
1041
3.5
1070
   343
1005
0
1070
   344
1005
0
1002
}
0
DIMENSION
5
10F
100
AcDbEntity
8
SK2
62
256
6
ByLayer
370
13
48
1
60
0
100
AcDbDimension
2
DimnDraft3D5
10
59.91
20
-25.343428
30
0
11
4.670676
21
-25.343428
31
0
70
32
71
5
72
1
41
1
210
0
220
0
230
1
3
Standard
100
AcDbAlignedDimension
13
-45
23
-8.5875
33
0
14
59.91
24
-7.6875
34
0
50
0
100
AcDbRotatedDimension
1001
ACAD
1000
DSTYLE
1002
{
1070
   279
1070
     0
1070
   172
1070
     1
1070
   173
1070
     1
1070
   340
1005
DB
1070
   271
1070
     2
1070
   272
1070
     2
1070
    77
1070
     1
1070
    73
1070
     0
1070
   171
1070
     3
1070
   274
1070
     4
1070
   177
1070
    35
1070
   176
1070
    35
1070
   178
1070
    35
1070
    48
1040
-0.005
1070
    41
1041
3.5
1070
   147
1041
1.75
1070
    42
1041
1.5875
1070
    44
1041
2.0
1070
   140
1041
3.5
1070
   343
1005
0
1070
   344
1005
0
1002
}
0
DIMENSION
5
11A
100
AcDbEntity
8
SK2
62
256
6
ByLayer
370
13
48
1
60
0
100
AcDbDimension
2
DimnDraft3D6
10
-55.625163
20
7
30
0
11
-56.250163
21
25.47418
31
0
70
33
71
5
72
1
41
1
210
0
220
0
230
1
3
Standard
100
AcDbAlignedDimension
13
-46.5875
23
-7
33
0
14
-46.5875
24
7
34
0
1001
ACAD
1000
DSTYLE
1002
{
1070
   279
1070
     0
1070
    74
1070
     0
1070
   173
1070
     1
1070
   340
1005
DB
1070
   271
1070
     3
1070
   272
1070
     2
1070
    77
1070
     1
1070
    73
1070
     0
1070
   171
1070
     3
1070
   274
1070
     4
1070
   177
1070
    35
1070
   176
1070
    35
1070
   178
1070
    35
1070
    48
1040
-0.005
1070
    41
1041
3.5
1070
   147
1041
1.75
1070
    42
1041
1.5875
1070
    44
1041
2.0
1070
   140
1041
3.5
1070
   343
1005
0
1070
   344
1005
0
1002
}
0
DIMENSION
5
125
100
AcDbEntity
8
2
62
256
6
ByLayer
370
13
48
1
60
0
100
AcDbDimension
2
DimnDraft3D7
10
76.083343
20
6.1
30
0
11
71.458343
21
23.167266
31
0
70
33
71
5
72
1
41
1
210
0
220
0
230
1
3
Standard
100
AcDbAlignedDimension
13
61.4975
23
-6.1
33
0
14
61.4975
24
6.1
34
0
1001
ACAD
1000
DSTYLE
1002
{
1070
   279
1070
     0
1070
    74
1070
     0
1070
   173
1070
     1
1070
   340
1005
DB
1070
   271
1070
     3
1070
   272
1070
     2
1070
    77
1070
     1
1070
    73
1070
     0
1070
   171
1070
     3
1070
   274
1070
     4
1070
   177
1070
    35
1070
   176
1070
    35
1070
   178
1070
    35
1070
    48
1040
-0.005
1070
    41
1041
3.5
1070
   147
1041
1.75
1070
    42
1041
1.5875
1070
    44
1041
2.0
1070
   140
1041
3.5
1070
   343
1005
0
1070
   344
1005
0
1002
}
0
ENDSEC
0
SECTION
2
OBJECTS
0
DICTIONARY
5
190
330
0
100
AcDbDictionary
280
0
281
1
3
ACAD_GROUP
350
191
3
ACAD_MLINESTYLE
350
192
0
DICTIONARY
5
191
330
0
100
AcDbDictionary
280
0
281
1
0
DICTIONARY
5
192
330
0
100
AcDbDictionary
280
0
281
1
3
Standard
350
18
0
MLINESTYLE
5
18
330
192
100
AcDbMlineStyle
2
Standard
70
0
3

62
256
51
90
52
90
71
2
49
-0.5
62
256
6
ByLayer
49
0.5
62
256
6
ByLayer
0
RASTERVARIABLES
5
17e
330

100
AcDbRasterVariables
90
0
70
1
71
1
72
1
0
ENDSEC
0
EOF
