0
SECTION
2
HEADER
9
$ACADVER
1
AC1015
9
$DWGCODEPAGE
3
ANSI_1252
9
$HANDSEED
5
1b7
9
$ANGBASE
50
0
9
$ANGDIR
70
0
9
$ATTMODE
70
1
9
$AUNITS
70
0
9
$AUPREC
70
0
9
$CECOLOR
62
256
9
$CELTSCALE
40
1
9
$CELTYPE
6
ByLayer
9
$CELWEIGHT
370
18
9
$CLAYER
8
0
9
$CMLJUST
70
0
9
$CMLSCALE
40
1
9
$CMLSTYLE
2
Standard
9
$DIMSTYLE
2
Standard
9
$TEXTSIZE
40
0.2
9
$TEXTSTYLE
7
Standard
9
$LUNITS
70
2
9
$LUPREC
70
4
9
$EXTNAMES
290
1
9
$INSUNITS
70
4
9
$LTSCALE
40
1
9
$LWDISPLAY
290
1
9
$PDMODE
70
0
9
$PDSIZE
40
0
9
$PLINEGEN
70
0
0
ENDSEC
0
SECTION
2
CLASSES
0
CLASS
1
RASTERVARIABLES
2
AcDbRasterVariables
3
ISM
90
0
280
0
281
0
0
ENDSEC
0
SECTION
2
TABLES
0
TABLE
2
VPORT
5
1ad
100
AcDbSymbolTable
0
VPORT
5
1
100
AcDbSymbolTableRecord
100
AcDbViewportTableRecord
2
*Active
70
0
10
0
20
0
11
1
21
1
12
-1
22
1
13
0
23
0
14
0.5
24
0.5
15
10
25
10
16
0
26
0
36
1
17
0
27
0
37
0
0
ENDTAB
0
TABLE
2
LTYPE
5
1ae
100
AcDbSymbolTable
0
LTYPE
5
14
100
AcDbSymbolTableRecord
100
AcDbLinetypeTableRecord
70
0
2
ByBlock
3

72
65
73
0
40
0
0
LTYPE
5
15
100
AcDbSymbolTableRecord
100
AcDbLinetypeTableRecord
70
0
2
ByLayer
3

72
65
73
0
40
0
0
LTYPE
5
16
100
AcDbSymbolTableRecord
100
AcDbLinetypeTableRecord
70
0
2
CONTINUOUS
3
Solid line
72
65
73
0
40
0
0
LTYPE
5
6A
100
AcDbSymbolTableRecord
100
AcDbLinetypeTableRecord
70
0
2
CENTER
3
____ _ ____ _ ____ _ ____
72
65
73
4
40
47.5
49
22
74
0
49
-8.5
74
0
49
8.5
74
0
49
-8.5
74
0
0
LTYPE
5
6B
100
AcDbSymbolTableRecord
100
AcDbLinetypeTableRecord
70
0
2
DASHED
3
__ __ __ __ __ __ __ __ __
72
65
73
2
40
25.72
49
12.86
74
0
49
-12.86
74
0
0
ENDTAB
0
TABLE
2
LAYER
5
1af
100
AcDbSymbolTable
0
LAYER
5
10
100
AcDbSymbolTableRecord
100
AcDbLayerTableRecord
2
0
70
0
62
7
6
CONTINUOUS
290
1
370
-3
390
0
0
LAYER
5
6D
100
AcDbSymbolTableRecord
100
AcDbLayerTableRecord
2
81
70
0
62
-3
6
CONTINUOUS
290
1
370
-3
390
0
0
LAYER
5
6F
100
AcDbSymbolTableRecord
100
AcDbLayerTableRecord
2
80
70
0
62
-6
6
CONTINUOUS
290
1
370
-3
390
0
0
LAYER
5
74
100
AcDbSymbolTableRecord
100
AcDbLayerTableRecord
2
2
70
0
62
7
6
CONTINUOUS
290
1
370
-3
390
0
0
LAYER
5
78
100
AcDbSymbolTableRecord
100
AcDbLayerTableRecord
2
1
70
0
62
4
6
CONTINUOUS
290
1
370
-3
390
0
0
LAYER
5
8A
100
AcDbSymbolTableRecord
100
AcDbLayerTableRecord
2
4
70
0
62
-2
6
CENTER
290
1
370
-3
390
0
0
LAYER
5
199
100
AcDbSymbolTableRecord
100
AcDbLayerTableRecord
2
SK2
70
0
62
7
6
CONTINUOUS
290
1
370
-3
390
0
0
LAYER
5
19a
100
AcDbSymbolTableRecord
100
AcDbLayerTableRecord
2
SK1
70
0
62
4
6
CONTINUOUS
290
1
370
-3
390
0
0
LAYER
5
19b
100
AcDbSymbolTableRecord
100
AcDbLayerTableRecord
2
SK4
70
0
62
2
6
CENTER
290
1
370
-3
390
0
0
LAYER
5
19c
100
AcDbSymbolTableRecord
100
AcDbLayerTableRecord
2
SK6
70
0
62
5
6
CONTINUOUS
290
1
370
-3
390
0
0
ENDTAB
0
TABLE
2
STYLE
5
1b0
100
AcDbSymbolTable
0
STYLE
5
11
100
AcDbSymbolTableRecord
100
AcDbTextStyleTableRecord
2
Standard
3
txt
70
0
71
0
40
0
41
1
42
0
50
0
0
STYLE
5
F5
100
AcDbSymbolTableRecord
100
AcDbTextStyleTableRecord
2
iso_b_vert
3
simplex.shx
70
0
71
0
40
0
41
1
42
0
50
0
0
STYLE
5
F6
100
AcDbSymbolTableRecord
100
AcDbTextStyleTableRecord
2
DWGDirectTextStyle
3
simplex
70
0
71
0
40
0
41
1
42
0
50
0
0
ENDTAB
0
TABLE
2
DIMSTYLE
5
1b1
100
AcDbSymbolTable
100
AcDbDimStyleTable
0
DIMSTYLE
105
27
100
AcDbSymbolTableRecord
100
AcDbDimStyleTableRecord
2
Standard
70
0
3
<>
41
0.18
42
0.0625
44
0.18
140
0.18
147
0.09
73
0
74
0
77
1
271
2
275
0
278
52
280
0
340
11
0
ENDTAB
0
TABLE
2
VIEW
5
1b2
100
AcDbSymbolTable
0
ENDTAB
0
TABLE
2
UCS
5
1b3
100
AcDbSymbolTable
0
ENDTAB
0
TABLE
2
APPID
5
1b4
100
AcDbSymbolTable
0
APPID
5
12
100
AcDbSymbolTableRecord
100
AcDbRegAppTableRecord
2
ACAD
70
0
0
ENDTAB
0
TABLE
2
BLOCK_RECORD
5
1b5
100
AcDbSymbolTable
0
BLOCK_RECORD
5
1F
100
AcDbSymbolTableRecord
100
AcDbBlockTableRecord
2
*Model_Space
340
0
70
0
0
BLOCK_RECORD
5
1B
100
AcDbSymbolTableRecord
100
AcDbBlockTableRecord
2
*Paper_Space
340
0
70
0
0
BLOCK_RECORD
5
23
100
AcDbSymbolTableRecord
100
AcDbBlockTableRecord
2
*Paper_Space0
340
0
70
0
0
BLOCK_RECORD
5
F8
100
AcDbSymbolTableRecord
100
AcDbBlockTableRecord
2
DimnDraft3D1
340
0
70
0
0
BLOCK_RECORD
5
102
100
AcDbSymbolTableRecord
100
AcDbBlockTableRecord
2
DimnDraft3D2
340
0
70
0
0
BLOCK_RECORD
5
10C
100
AcDbSymbolTableRecord
100
AcDbBlockTableRecord
2
DimnDraft3D3
340
0
70
0
0
BLOCK_RECORD
5
116
100
AcDbSymbolTableRecord
100
AcDbBlockTableRecord
2
DimnDraft3D4
340
0
70
0
0
BLOCK_RECORD
5
120
100
AcDbSymbolTableRecord
100
AcDbBlockTableRecord
2
DimnDraft3D5
340
0
70
0
0
BLOCK_RECORD
5
12A
100
AcDbSymbolTableRecord
100
AcDbBlockTableRecord
2
DimnDraft3D6
340
0
70
0
0
BLOCK_RECORD
5
135
100
AcDbSymbolTableRecord
100
AcDbBlockTableRecord
2
DimnDraft3D7
340
0
70
0
0
ENDTAB
0
ENDSEC
0
SECTION
2
BLOCKS
0
BLOCK
5
20
100
AcDbEntity
8
0
100
AcDbBlockBegin
2
*Model_Space
70
0
10
0
20
0
30
0
3
*Model_Space
0
ENDBLK
5
21
100
AcDbEntity
8
0
100
AcDbBlockEnd
0
BLOCK
5
1C
100
AcDbEntity
8
0
100
AcDbBlockBegin
2
*Paper_Space
70
0
10
0
20
0
30
0
3
*Paper_Space
0
ENDBLK
5
1D
100
AcDbEntity
8
0
100
AcDbBlockEnd
0
BLOCK
5
24
100
AcDbEntity
8
0
100
AcDbBlockBegin
2
*Paper_Space0
70
0
10
0
20
0
30
0
3
*Paper_Space0
0
ENDBLK
5
25
100
AcDbEntity
8
0
100
AcDbBlockEnd
0
BLOCK
5
FF
100
AcDbEntity
8
0
100
AcDbBlockBegin
2
DimnDraft3D1
70
0
10
0
20
0
30
0
3
DimnDraft3D1
0
MTEXT
5
F9
100
AcDbEntity
8
SK2
62
256
6
ByLayer
370
13
48
1
60
0
100
AcDbMText
10
44.602559
20
-15.038398
30
0
210
0
220
0
230
1
1
\W0.7261;104,04
40
3.5
41
0
44
1.084337
50
0
71
7
72
5
7
iso_b_vert
0
LINE
5
FA
100
AcDbEntity
8
SK2
62
256
6
ByLayer
370
13
48
1
60
0
100
AcDbLine
10
0
20
-1.5875
30
0
11
0
21
-17.913398
31
0
39
0
210
0
220
0
230
1
0
LINE
5
FB
100
AcDbEntity
8
SK2
62
256
6
ByLayer
370
13
48
1
60
0
100
AcDbLine
10
104.04
20
-7.2875
30
0
11
104.04
21
-17.913398
31
0
39
0
210
0
220
0
230
1
0
LINE
5
FC
100
AcDbEntity
8
SK2
62
256
6
ByLayer
370
13
48
1
60
0
100
AcDbLine
10
0
20
-15.913398
30
0
11
104.04
21
-15.913398
31
0
39
0
210
0
220
0
230
1
0
SOLID
5
FD
100
AcDbEntity
8
SK2
62
256
6
ByLayer
370
13
48
1
60
0
100
AcDbTrace
10
0
20
-15.913398
30
0
11
3.499998
21
-15.452615
31
0
12
3.500002
22
-16.374182
32
0
13
0
23
-15.913398
33
0
39
0
210
0
220
0
230
1
0
SOLID
5
FE
100
AcDbEntity
8
SK2
62
256
6
ByLayer
370
13
48
1
60
0
100
AcDbTrace
10
104.04
20
-15.913398
30
0
11
100.540002
21
-16.374182
31
0
12
100.539998
22
-15.452615
32
0
13
104.04
23
-15.913398
33
0
39
0
210
0
220
0
230
1
0
ENDBLK
5
100
100
AcDbEntity
8
0
100
AcDbBlockEnd
0
BLOCK
5
109
100
AcDbEntity
8
0
100
AcDbBlockBegin
2
DimnDraft3D2
70
0
10
0
20
0
30
0
3
DimnDraft3D2
0
MTEXT
5
103
100
AcDbEntity
8
SK2
62
256
6
ByLayer
370
13
48
1
60
0
100
AcDbMText
10
24.999721
20
-33.817985
30
0
210
0
220
0
230
1
1
\W0.6440;151,00
40
3.5
41
0
44
1.084337
50
0
71
7
72
5
7
iso_b_vert
0
LINE
5
104
100
AcDbEntity
8
SK2
62
256
6
ByLayer
370
13
48
1
60
0
100
AcDbLine
10
-45
20
-7.5875
30
0
11
-45
21
-36.692985
31
0
39
0
210
0
220
0
230
1
0
LINE
5
105
100
AcDbEntity
8
SK2
62
256
6
ByLayer
370
13
48
1
60
0
100
AcDbLine
10
106
20
-1.5875
30
0
11
106
21
-36.692985
31
0
39
0
210
0
220
0
230
1
0
LINE
5
106
100
AcDbEntity
8
SK2
62
256
6
ByLayer
370
13
48
1
60
0
100
AcDbLine
10
-45
20
-34.692985
30
0
11
106
21
-34.692985
31
0
39
0
210
0
220
0
230
1
0
SOLID
5
107
100
AcDbEntity
8
SK2
62
256
6
ByLayer
370
13
48
1
60
0
100
AcDbTrace
10
-45
20
-34.692985
30
0
11
-41.500002
21
-34.232202
31
0
12
-41.499998
22
-35.153769
32
0
13
-45
23
-34.692985
33
0
39
0
210
0
220
0
230
1
0
SOLID
5
108
100
AcDbEntity
8
SK2
62
256
6
ByLayer
370
13
48
1
60
0
100
AcDbTrace
10
106
20
-34.692985
30
0
11
102.500002
21
-35.153769
31
0
12
102.499998
22
-34.232202
32
0
13
106
23
-34.692985
33
0
39
0
210
0
220
0
230
1
0
ENDBLK
5
10A
100
AcDbEntity
8
0
100
AcDbBlockEnd
0
BLOCK
5
113
100
AcDbEntity
8
0
100
AcDbBlockBegin
2
DimnDraft3D3
70
0
10
0
20
0
30
0
3
DimnDraft3D3
0
MTEXT
5
10D
100
AcDbEntity
8
SK2
62
256
6
ByLayer
370
13
48
1
60
0
100
AcDbMText
10
55.408816
20
18.184119
30
0
210
0
220
0
230
1
1
\W0.6713;93,16
40
3.5
41
0
44
1.084337
50
0
71
7
72
5
7
iso_b_vert
0
LINE
5
10E
100
AcDbEntity
8
SK2
62
256
6
ByLayer
370
13
48
1
60
0
100
AcDbLine
10
12.84
20
7.2875
30
0
11
12.84
21
19.309119
31
0
39
0
210
0
220
0
230
1
0
LINE
5
10F
100
AcDbEntity
8
SK2
62
256
6
ByLayer
370
13
48
1
60
0
100
AcDbLine
10
106
20
1.5875
30
0
11
106
21
19.309119
31
0
39
0
210
0
220
0
230
1
0
LINE
5
110
100
AcDbEntity
8
SK2
62
256
6
ByLayer
370
13
48
1
60
0
100
AcDbLine
10
12.84
20
17.309119
30
0
11
106
21
17.309119
31
0
39
0
210
0
220
0
230
1
0
SOLID
5
111
100
AcDbEntity
8
SK2
62
256
6
ByLayer
370
13
48
1
60
0
100
AcDbTrace
10
12.84
20
17.309119
30
0
11
16.339998
21
17.769903
31
0
12
16.340002
22
16.848335
32
0
13
12.84
23
17.309119
33
0
39
0
210
0
220
0
230
1
0
SOLID
5
112
100
AcDbEntity
8
SK2
62
256
6
ByLayer
370
13
48
1
60
0
100
AcDbTrace
10
106
20
17.309119
30
0
11
102.500002
21
16.848335
31
0
12
102.499998
22
17.769903
32
0
13
106
23
17.309119
33
0
39
0
210
0
220
0
230
1
0
ENDBLK
5
114
100
AcDbEntity
8
0
100
AcDbBlockEnd
0
BLOCK
5
11D
100
AcDbEntity
8
0
100
AcDbBlockBegin
2
DimnDraft3D4
70
0
10
0
20
0
30
0
3
DimnDraft3D4
0
MTEXT
5
117
100
AcDbEntity
8
SK2
62
256
6
ByLayer
370
13
48
1
60
0
100
AcDbMText
10
113.278136
20
-17.627503
30
0
210
0
220
0
230
1
1
\W0.6367;1,96
40
3.5
41
0
44
1.084337
50
0
71
7
72
5
7
iso_b_vert
0
LINE
5
118
100
AcDbEntity
8
SK2
62
256
6
ByLayer
370
13
48
1
60
0
100
AcDbLine
10
106
20
-1.5875
30
0
11
106
21
-20.502503
31
0
39
0
210
0
220
0
230
1
0
LINE
5
119
100
AcDbEntity
8
SK2
62
256
6
ByLayer
370
13
48
1
60
0
100
AcDbLine
10
104.04
20
-7.2875
30
0
11
104.04
21
-20.502503
31
0
39
0
210
0
220
0
230
1
0
LINE
5
11A
100
AcDbEntity
8
SK2
62
256
6
ByLayer
370
13
48
1
60
0
100
AcDbLine
10
95.29
20
-18.502503
30
0
11
119.559715
21
-18.502503
31
0
39
0
210
0
220
0
230
1
0
SOLID
5
11B
100
AcDbEntity
8
SK2
62
256
6
ByLayer
370
13
48
1
60
0
100
AcDbTrace
10
106
20
-18.502503
30
0
11
109.499998
21
-18.041719
31
0
12
109.500002
22
-18.963287
32
0
13
106
23
-18.502503
33
0
39
0
210
0
220
0
230
1
0
SOLID
5
11C
100
AcDbEntity
8
SK2
62
256
6
ByLayer
370
13
48
1
60
0
100
AcDbTrace
10
104.04
20
-18.502503
30
0
11
100.540002
21
-18.963287
31
0
12
100.539998
22
-18.041719
32
0
13
104.04
23
-18.502503
33
0
39
0
210
0
220
0
230
1
0
ENDBLK
5
11E
100
AcDbEntity
8
0
100
AcDbBlockEnd
0
BLOCK
5
127
100
AcDbEntity
8
0
100
AcDbBlockBegin
2
DimnDraft3D5
70
0
10
0
20
0
30
0
3
DimnDraft3D5
0
MTEXT
5
121
100
AcDbEntity
8
SK2
62
256
6
ByLayer
370
13
48
1
60
0
100
AcDbMText
10
21.113176
20
-23.468428
30
0
210
0
220
0
230
1
1
\W0.7261;149,04
40
3.5
41
0
44
1.084337
50
0
71
7
72
5
7
iso_b_vert
0
LINE
5
122
100
AcDbEntity
8
SK2
62
256
6
ByLayer
370
13
48
1
60
0
100
AcDbLine
10
-45
20
-7.5875
30
0
11
-45
21
-26.343428
31
0
39
0
210
0
220
0
230
1
0
LINE
5
123
100
AcDbEntity
8
SK2
62
256
6
ByLayer
370
13
48
1
60
0
100
AcDbLine
10
104.04
20
-7.2875
30
0
11
104.04
21
-26.343428
31
0
39
0
210
0
220
0
230
1
0
LINE
5
124
100
AcDbEntity
8
SK2
62
256
6
ByLayer
370
13
48
1
60
0
100
AcDbLine
10
-45
20
-24.343428
30
0
11
104.04
21
-24.343428
31
0
39
0
210
0
220
0
230
1
0
SOLID
5
125
100
AcDbEntity
8
SK2
62
256
6
ByLayer
370
13
48
1
60
0
100
AcDbTrace
10
-45
20
-24.343428
30
0
11
-41.500002
21
-23.882645
31
0
12
-41.499998
22
-24.804212
32
0
13
-45
23
-24.343428
33
0
39
0
210
0
220
0
230
1
0
SOLID
5
126
100
AcDbEntity
8
SK2
62
256
6
ByLayer
370
13
48
1
60
0
100
AcDbTrace
10
104.04
20
-24.343428
30
0
11
100.540002
21
-24.804212
31
0
12
100.539998
22
-23.882645
32
0
13
104.04
23
-24.343428
33
0
39
0
210
0
220
0
230
1
0
ENDBLK
5
128
100
AcDbEntity
8
0
100
AcDbBlockEnd
0
BLOCK
5
132
100
AcDbEntity
8
0
100
AcDbBlockBegin
2
DimnDraft3D6
70
0
10
0
20
0
30
0
3
DimnDraft3D6
0
MTEXT
5
12B
100
AcDbEntity
8
SK2
62
256
6
ByLayer
370
13
48
1
60
0
100
AcDbMText
10
-55.375163
20
25.34918
30
0
210
0
220
0
230
1
1
\W0.6930;12,000
40
3.5
41
0
44
1.084337
50
90
71
7
72
5
7
iso_b_vert
0
MTEXT
5
12C
100
AcDbEntity
8
SK2
62
256
6
ByLayer
370
13
48
1
60
0
100
AcDbMText
10
-55.375163
20
20.126524
30
0
210
0
220
0
230
1
1
%%c
40
3.5
41
0
44
1.084337
50
90
71
7
72
5
7
iso_b_vert
0
LINE
5
12D
100
AcDbEntity
8
SK2
62
256
6
ByLayer
370
13
48
1
60
0
100
AcDbLine
10
-46.5875
20
-6
30
0
11
-55.625163
21
-6
31
0
39
0
210
0
220
0
230
1
0
LINE
5
12E
100
AcDbEntity
8
SK2
62
256
6
ByLayer
370
13
48
1
60
0
100
AcDbLine
10
-46.5875
20
6
30
0
11
-55.625163
21
6
31
0
39
0
210
0
220
0
230
1
0
LINE
5
12F
100
AcDbEntity
8
SK2
62
256
6
ByLayer
370
13
48
1
60
0
100
AcDbLine
10
-53.625163
20
-6
30
0
11
-53.625163
21
36.862338
31
0
39
0
210
0
220
0
230
1
0
SOLID
5
130
100
AcDbEntity
8
SK2
62
256
6
ByLayer
370
13
48
1
60
0
100
AcDbTrace
10
-53.625163
20
-6
30
0
11
-54.085946
21
-2.500002
31
0
12
-53.164379
22
-2.499998
32
0
13
-53.625163
23
-6
33
0
39
0
210
0
220
0
230
1
0
SOLID
5
131
100
AcDbEntity
8
SK2
62
256
6
ByLayer
370
13
48
1
60
0
100
AcDbTrace
10
-53.625163
20
6
30
0
11
-53.164379
21
2.500002
31
0
12
-54.085946
22
2.499998
32
0
13
-53.625163
23
6
33
0
39
0
210
0
220
0
230
1
0
ENDBLK
5
133
100
AcDbEntity
8
0
100
AcDbBlockEnd
0
BLOCK
5
13D
100
AcDbEntity
8
0
100
AcDbBlockBegin
2
DimnDraft3D7
70
0
10
0
20
0
30
0
3
DimnDraft3D7
0
MTEXT
5
136
100
AcDbEntity
8
2
62
256
6
ByLayer
370
13
48
1
60
0
100
AcDbMText
10
116.333343
20
23.642266
30
0
210
0
220
0
230
1
1
\W0.6654;11,400
40
3.5
41
0
44
1.084337
50
90
71
7
72
5
7
iso_b_vert
0
MTEXT
5
137
100
AcDbEntity
8
2
62
256
6
ByLayer
370
13
48
1
60
0
100
AcDbMText
10
116.333343
20
18.41961
30
0
210
0
220
0
230
1
1
%%c
40
3.5
41
0
44
1.084337
50
90
71
7
72
5
7
iso_b_vert
0
LINE
5
138
100
AcDbEntity
8
2
62
256
6
ByLayer
370
13
48
1
60
0
100
AcDbLine
10
105.6275
20
-5.7
30
0
11
120.083343
21
-5.7
31
0
39
0
210
0
220
0
230
1
0
LINE
5
139
100
AcDbEntity
8
2
62
256
6
ByLayer
370
13
48
1
60
0
100
AcDbLine
10
105.6275
20
5.7
30
0
11
120.083343
21
5.7
31
0
39
0
210
0
220
0
230
1
0
LINE
5
13A
100
AcDbEntity
8
2
62
256
6
ByLayer
370
13
48
1
60
0
100
AcDbLine
10
118.083343
20
-5.7
30
0
11
118.083343
21
34.648845
31
0
39
0
210
0
220
0
230
1
0
SOLID
5
13B
100
AcDbEntity
8
2
62
256
6
ByLayer
370
13
48
1
60
0
100
AcDbTrace
10
118.083343
20
-5.7
30
0
11
117.622559
21
-2.200002
31
0
12
118.544126
22
-2.199998
32
0
13
118.083343
23
-5.7
33
0
39
0
210
0
220
0
230
1
0
SOLID
5
13C
100
AcDbEntity
8
2
62
256
6
ByLayer
370
13
48
1
60
0
100
AcDbTrace
10
118.083343
20
5.7
30
0
11
118.544126
21
2.200002
31
0
12
117.622559
22
2.199998
32
0
13
118.083343
23
5.7
33
0
39
0
210
0
220
0
230
1
0
ENDBLK
5
13E
100
AcDbEntity
8
0
100
AcDbBlockEnd
0
ENDSEC
0
SECTION
2
ENTITIES
0
ARC
5
A0
100
AcDbEntity
8
1
62
256
6
ByLayer
370
18
48
1
60
0
100
AcDbCircle
39
0
10
0
20
5.2
30
0
40
0.800000000000004
210
0
220
0
230
1
100
AcDbArc
50
50.700574
51
90
0
ARC
5
A1
100
AcDbEntity
8
1
62
256
6
ByLayer
370
18
48
1
60
0
100
AcDbCircle
39
0
10
0
20
-5.2
30
0
40
0.800000000000004
210
0
220
0
230
1
100
AcDbArc
50
270
51
309.299426
0
ARC
5
A2
100
AcDbEntity
8
1
62
256
6
ByLayer
370
18
48
1
60
0
100
AcDbCircle
39
0
10
-1.013397
20
6.438154
30
0
40
0.8
210
0
220
0
230
-1
100
AcDbArc
50
269.965623
51
309.299426
0
ARC
5
A3
100
AcDbEntity
8
1
62
256
6
ByLayer
370
18
48
1
60
0
100
AcDbCircle
39
0
10
-1.013397
20
-6.438154
30
0
40
0.8
210
0
220
0
230
-1
100
AcDbArc
50
50.700574
51
90.034377
0
ELLIPSE
5
A4
100
AcDbEntity
8
1
62
256
6
ByLayer
370
13
48
1
60
0
100
AcDbEllipse
10
105.275642
20
2.72454
30
0
11
3.86524161455356
21
-1.65394452582362
31
0
210
0
220
0
230
-1
40
0.447788
41
1.59350176509361
42
1.89563470265395
0
ELLIPSE
5
A5
100
AcDbEntity
8
1
62
256
6
ByLayer
370
18
48
1
60
0
100
AcDbEllipse
10
106.000483
20
-0.001245
30
0
11
2.09009037476871
21
-5.69856124352628
31
0
210
0
220
0
230
-1
40
0.082138
41
-2.98782017641144
42
-2.89332392112458
0
ELLIPSE
5
A6
100
AcDbEntity
8
1
62
256
6
ByLayer
370
13
48
1
60
0
100
AcDbEllipse
10
104.447461
20
0.819595
30
0
11
0.133113781883899
21
0.268850741253517
31
0
210
0
220
0
230
1
40
0.40558
41
0.884485917130956
42
2.28074931872629
0
ELLIPSE
5
A7
100
AcDbEntity
8
1
62
256
6
ByLayer
370
18
48
1
60
0
100
AcDbEllipse
10
106.022093
20
0.039961
30
0
11
0.135658546050197
21
-0.401200806273523
31
0
210
0
220
0
230
-1
40
0.065863
41
1.62772381679026
42
2.32292776271287
0
ELLIPSE
5
A8
100
AcDbEntity
8
1
62
256
6
ByLayer
370
18
48
1
60
0
100
AcDbEllipse
10
104.940215
20
-2.72454
30
0
11
0.877661399210684
21
2.39291434751703
31
0
210
0
220
0
230
-1
40
0.082138
41
0.755280950348839
42
1.56676780521605
0
ELLIPSE
5
A9
100
AcDbEntity
8
1
62
256
6
ByLayer
370
18
48
1
60
0
100
AcDbEllipse
10
106.000483
20
0.001245
30
0
11
2.09009031142587
21
5.69856106129975
31
0
210
0
220
0
230
-1
40
0.082138
41
2.89332391714283
42
2.98782017396364
0
ELLIPSE
5
AA
100
AcDbEntity
8
1
62
256
6
ByLayer
370
18
48
1
60
0
100
AcDbEllipse
10
104.940215
20
2.72454
30
0
11
0.877661399174359
21
-2.39291434743272
31
0
210
0
220
0
230
-1
40
0.082138
41
-1.56676780524052
42
-0.755280950346428
0
ELLIPSE
5
AB
100
AcDbEntity
8
1
62
256
6
ByLayer
370
13
48
1
60
0
100
AcDbEllipse
10
105.106183
20
2.590248
30
0
11
3.81962739703913
21
-1.96362966846277
31
0
210
0
220
0
230
-1
40
0.482873
41
1.5394952492368
42
1.84272391682163
0
ELLIPSE
5
AC
100
AcDbEntity
8
1
62
256
6
ByLayer
370
13
48
1
60
0
100
AcDbEllipse
10
7.250137
20
-4.461789
30
0
11
0.0318433224287143
21
0.0947945294661087
31
0
210
0
220
0
230
1
40
0.404963
41
0.690650549425355
42
2.24804564675569
0
ELLIPSE
5
AD
100
AcDbEntity
8
1
62
256
6
ByLayer
370
18
48
1
60
0
100
AcDbEllipse
10
106.022093
20
-0.039961
30
0
11
0.135658546088234
21
0.401200806369338
31
0
210
0
220
0
230
-1
40
0.065863
41
-2.32292776277093
42
-1.62772381698589
0
ELLIPSE
5
AE
100
AcDbEntity
8
1
62
256
6
ByLayer
370
18
48
1
60
0
100
AcDbEllipse
10
105.860253
20
0.120091
30
0
11
0.0868803724522316
21
0.290676908863422
31
0
210
0
220
0
230
-1
40
0.467765
41
1.65947771831979
42
2.36053717392309
0
ELLIPSE
5
AF
100
AcDbEntity
8
1
62
256
6
ByLayer
370
13
48
1
60
0
100
AcDbEllipse
10
7.174984
20
-4.452899
30
0
11
0.0130954622509831
21
-0.0991388363278139
31
0
210
0
220
0
230
1
40
0.621156
41
-2.4331859789511
42
-1.1274745224643
0
POINT
5
6C
100
AcDbEntity
8
81
62
256
6
ByLayer
370
18
48
1
60
0
100
AcDbPoint
10
106
20
0
30
0
39
0
210
0
220
0
230
1
50
360
0
POINT
5
6E
100
AcDbEntity
8
80
62
256
6
ByLayer
370
18
48
1
60
0
100
AcDbPoint
10
0
20
0
30
0
39
0
210
0
220
0
230
1
50
360
0
POINT
5
70
100
AcDbEntity
8
SK2
62
256
6
ByLayer
370
18
48
1
60
1
100
AcDbPoint
10
-45
20
-6
30
0
39
0
210
0
220
0
230
1
50
360
0
POINT
5
72
100
AcDbEntity
8
SK2
62
256
6
ByLayer
370
18
48
1
60
1
100
AcDbPoint
10
-45
20
6
30
0
39
0
210
0
220
0
230
1
50
360
0
POINT
5
73
100
AcDbEntity
8
2
62
256
6
ByLayer
370
18
48
1
60
1
100
AcDbPoint
10
104.04
20
-5.7
30
0
39
0
210
0
220
0
230
1
50
360
0
POINT
5
75
100
AcDbEntity
8
2
62
256
6
ByLayer
370
18
48
1
60
1
100
AcDbPoint
10
104.04
20
5.7
30
0
39
0
210
0
220
0
230
1
50
360
0
SPLINE
5
B0
100
AcDbEntity
8
1
62
256
6
ByLayer
370
18
48
1
60
0
100
AcDbSpline
70
4
71
2
72
6
73
3
40
0
40
0
40
0
40
1
40
1
40
1
41
1
10
57.8998163774022
20
0.0015110279932742
30
0
41
1
10
57.899806246762
20
0.0015166522829588
30
0
41
1
10
57.899796116135
20
0.0015224456663532
30
0
0
SPLINE
5
B1
100
AcDbEntity
8
1
62
256
6
ByLayer
370
18
48
1
60
0
100
AcDbSpline
70
4
71
3
72
12
73
8
40
0
40
0
40
0
40
0
40
0.05376722587915
40
0.319563966610254
40
0.473132417119577
40
0.740133394096632
40
1
40
1
40
1
40
1
41
1
10
29.409166627369
20
-1.35402293382623
30
0
41
1
10
29.4091645154375
20
-1.3540657117901
30
0
41
1
10
29.4110093481292
20
-1.35522778538393
30
0
41
1
10
29.4309277619224
20
-1.36547275056455
30
0
41
1
10
29.5225454818542
20
-1.41445301264116
30
0
41
1
10
29.5489132858895
20
-1.4284265560689
30
0
41
1
10
29.570240301103
20
-1.44063607599631
30
0
41
1
10
29.5757904996843
20
-1.44413774886289
30
0
0
SPLINE
5
B2
100
AcDbEntity
8
1
62
256
6
ByLayer
370
18
48
1
60
0
100
AcDbSpline
70
4
71
3
72
13
73
9
40
0
40
0
40
0
40
0
40
0.0070313508229316
40
0.151478770969802
40
0.318238267438792
40
0.51376740624751
40
0.782075928433261
40
1
40
1
40
1
40
1
41
1
10
59.320779014075
20
-1.33320536101576
30
0
41
1
10
59.3207490838511
20
-1.33319594462665
30
0
41
1
10
59.3203204469976
20
-1.33310275257045
30
0
41
1
10
59.329494985817
20
-1.33802316927117
30
0
41
1
10
59.3743800727803
20
-1.36211080052507
30
0
41
1
10
59.4534945668866
20
-1.40574090079542
30
0
41
1
10
59.5586245067788
20
-1.46490769571253
30
0
41
1
10
59.6408513936658
20
-1.51220454446786
30
0
41
1
10
59.6796893122313
20
-1.53470317254164
30
0
0
SPLINE
5
B3
100
AcDbEntity
8
1
62
256
6
ByLayer
370
18
48
1
60
0
100
AcDbSpline
70
4
71
3
72
34
73
30
40
0
40
0
40
0
40
0
40
0.0623880835057446
40
0.117813158505954
40
0.16109972953668
40
0.190893094064106
40
0.212886902578377
40
0.237239775793537
40
0.264164511004162
40
0.296809664411136
40
0.333281484819358
40
0.376504537217085
40
0.417004588304474
40
0.446890367164385
40
0.472386815677
40
0.505342514904293
40
0.54410642328501
40
0.607631356410698
40
0.661115592820923
40
0.700372372294013
40
0.739989563009008
40
0.800222577969021
40
0.839537064134526
40
0.869944970678601
40
0.897296642959473
40
0.913073651700548
40
0.936738548354973
40
0.968388693596394
40
1
40
1
40
1
40
1
41
1
10
43.1217562934029
20
-5.41044883299597
30
0
41
1
10
43.4329656396442
20
-5.4104888134444
30
0
41
1
10
44.0209036885913
20
-5.41064122050372
30
0
41
1
10
44.8292083315715
20
-5.41123375361821
30
0
41
1
10
45.4691582281815
20
-5.41157555037549
30
0
41
1
10
45.9451360253786
20
-5.41147708984943
30
0
41
1
10
46.3263131936343
20
-5.41166379707892
30
0
41
1
10
46.6931457814036
20
-5.41225636566637
30
0
41
1
10
47.1132961887952
20
-5.41341991697635
30
0
41
1
10
47.594110710129
20
-5.41346000848833
30
0
41
1
10
48.1565339651277
20
-5.41372564359853
30
0
41
1
10
48.758286322872
20
-5.41384609567044
30
0
41
1
10
49.3270419655348
20
-5.41369974102116
30
0
41
1
10
49.8070589516332
20
-5.4141307087788
30
0
41
1
10
50.2493203620957
20
-5.414199721758
30
0
41
1
10
50.7360266667644
20
-5.41396068158559
30
0
41
1
10
51.4131165138105
20
-5.41752711273514
30
0
41
1
10
52.1929775122682
20
-5.4165589921268
30
0
41
1
10
52.9753342519603
20
-5.41499723515014
30
0
41
1
10
53.6379061326999
20
-5.41434668361228
30
0
41
1
10
54.3345752466565
20
-5.41840317908913
30
0
41
1
10
55.030068613172
20
-5.41769784328446
30
0
41
1
10
55.6838137207739
20
-5.41837402049663
30
0
41
1
10
56.1460226644935
20
-5.41353161250615
30
0
41
1
10
56.5209000402575
20
-5.41478343916032
30
0
41
1
10
56.8463656717779
20
-5.4170774467951
30
0
41
1
10
57.2026977299781
20
-5.41876723356356
30
0
41
1
10
57.6366288028731
20
-5.41925442344916
30
0
41
1
10
57.9532625803363
20
-5.41933840228299
30
0
41
1
10
58.1114990456993
20
-5.4192259086818
30
0
0
SPLINE
5
B4
100
AcDbEntity
8
1
62
256
6
ByLayer
370
18
48
1
60
0
100
AcDbSpline
70
4
71
1
72
4
73
2
40
0
40
0
40
1
40
1
41
1
10
87.8513142585532
20
0.0006236556610304
30
0
41
1
10
87.851302798535
20
0.0006307849901077
30
0
0
SPLINE
5
B5
100
AcDbEntity
8
1
62
256
6
ByLayer
370
18
48
1
60
0
100
AcDbSpline
70
4
71
3
72
33
73
29
40
0
40
0
40
0
40
0
40
0.0532981788664982
40
0.106422439503448
40
0.155391418744924
40
0.195479089018099
40
0.227345081824237
40
0.254421264919145
40
0.27746406297214
40
0.302360262877433
40
0.336892642744902
40
0.377480336389671
40
0.411052670909773
40
0.437670092045067
40
0.475873939496453
40
0.528511465396459
40
0.579047991576697
40
0.616512647669195
40
0.649667341309838
40
0.683217780561356
40
0.720385931924532
40
0.765199766952591
40
0.807050973497992
40
0.846931458985657
40
0.892196537764975
40
0.944637625468235
40
0.99866303397699
40
1
40
1
40
1
40
1
41
1
10
13.0976471195723
20
-5.39242858186367
30
0
41
1
10
13.3654613353921
20
-5.39170997219148
30
0
41
1
10
13.9027464334009
20
-5.39088927355618
30
0
41
1
10
14.7051481065849
20
-5.39196376260523
30
0
41
1
10
15.4273231712729
20
-5.39367078463565
30
0
41
1
10
16.0475648712155
20
-5.39450249331483
30
0
41
1
10
16.555876644571
20
-5.39478127646109
30
0
41
1
10
16.9766077731415
20
-5.39471377284431
30
0
41
1
10
17.3616135267213
20
-5.3946133731859
30
0
41
1
10
17.7848547601433
20
-5.39458518743015
30
0
41
1
10
18.2981703584223
20
-5.39480859080354
30
0
41
1
10
18.8559876995818
20
-5.39658990101469
30
0
41
1
10
19.3731926187384
20
-5.39729617411555
30
0
41
1
10
19.8781705390298
20
-5.39642985709699
30
0
41
1
10
20.4809872269869
20
-5.39595086561243
30
0
41
1
10
21.2065755350209
20
-5.39519342065699
30
0
41
1
10
21.9283532786407
20
-5.39857438539465
30
0
41
1
10
22.550149702014
20
-5.3983182606149
30
0
41
1
10
23.0847693964465
20
-5.39886721028876
30
0
41
1
10
23.6178684625785
20
-5.39877518363684
30
0
41
1
10
24.2108043886965
20
-5.39795108499399
30
0
41
1
10
24.8463487464988
20
-5.39861057531178
30
0
41
1
10
25.4957908621755
20
-5.39903584143238
30
0
41
1
10
26.1469473844821
20
-5.40061374767359
30
0
41
1
10
26.8539421018638
20
-5.40275893464707
30
0
41
1
10
27.6175914372685
20
-5.39836786784832
30
0
41
1
10
28.1793242873019
20
-5.39667230611039
30
0
41
1
10
28.4594588451666
20
-5.39820223337517
30
0
41
1
10
28.4662229279739
20
-5.39823999827587
30
0
0
SPLINE
5
B6
100
AcDbEntity
8
1
62
256
6
ByLayer
370
18
48
1
60
0
100
AcDbSpline
70
4
71
1
72
4
73
2
40
0
40
0
40
1
40
1
41
1
10
27.9494082875397
20
0.0017360448947557
30
0
41
1
10
27.9493924401709
20
0.0017452644847538
30
0
0
SPLINE
5
B7
100
AcDbEntity
8
1
62
256
6
ByLayer
370
18
48
1
60
0
100
AcDbSpline
70
4
71
2
72
6
73
3
40
0
40
0
40
0
40
1
40
1
40
1
41
1
10
103.031288964431
20
-5.44651822842829
30
0
41
1
10
103.526758040464
20
-5.44053430098103
30
0
41
1
10
104.022185632009
20
-5.44952878780529
30
0
0
SPLINE
5
B8
100
AcDbEntity
8
1
62
256
6
ByLayer
370
18
48
1
60
0
100
AcDbSpline
70
4
71
3
72
33
73
29
40
0
40
0
40
0
40
0
40
0.0556496639876137
40
0.103367952562515
40
0.138634290760711
40
0.168336018729696
40
0.194992914370218
40
0.242669106653806
40
0.291550338163053
40
0.340141927992897
40
0.392347325308887
40
0.443206440644826
40
0.491822321422163
40
0.535083783348734
40
0.561713359911391
40
0.590643582733809
40
0.629255345376655
40
0.675000121024205
40
0.716513913776944
40
0.752451715628719
40
0.788151599920919
40
0.83103834199936
40
0.872612673267829
40
0.890294879903237
40
0.908249333808493
40
0.934990552903384
40
0.971306990380223
40
1
40
1
40
1
40
1
41
1
10
73.0731709358568
20
-5.42847586069769
30
0
41
1
10
73.3515694461154
20
-5.42860993244636
30
0
41
1
10
73.8687311625081
20
-5.42889163768916
30
0
41
1
10
74.5628672711854
20
-5.42895166355189
30
0
41
1
10
75.1265511334849
20
-5.42961782373592
30
0
41
1
10
75.5845580307474
20
-5.42967675836118
30
0
41
1
10
76.1054135776215
20
-5.42985039488804
30
0
41
1
10
76.7221973707566
20
-5.4304189026023
30
0
41
1
10
77.4488277432117
20
-5.43077190206944
30
0
41
1
10
78.1981300892546
20
-5.43125568760996
30
0
41
1
10
78.9573188814344
20
-5.43158183049565
30
0
41
1
10
79.7166414347539
20
-5.43247381665938
30
0
41
1
10
80.4311914172821
20
-5.43175703766192
30
0
41
1
10
81.0244439008904
20
-5.43228051362735
30
0
41
1
10
81.5191539359046
20
-5.43202996415891
30
0
41
1
10
81.9905718023642
20
-5.43343115518456
30
0
41
1
10
82.557656648255
20
-5.43472940431974
30
0
41
1
10
83.1877387831625
20
-5.43320585215943
30
0
41
1
10
83.8044894662089
20
-5.43275125340244
30
0
41
1
10
84.3708904726088
20
-5.43291510914364
30
0
41
1
10
84.9440987839132
20
-5.4338543754707
30
0
41
1
10
85.5456323054916
20
-5.43530968095894
30
0
41
1
10
86.0569584116527
20
-5.43597250670962
30
0
41
1
10
86.4434711804922
20
-5.4369680002645
30
0
41
1
10
86.7557197284331
20
-5.43756097920553
30
0
41
1
10
87.1612506072516
20
-5.43740122288727
30
0
41
1
10
87.6205595344015
20
-5.43667135042719
30
0
41
1
10
87.9459980555857
20
-5.43642995111344
30
0
41
1
10
88.0896366761061
20
-5.43632987256063
30
0
0
SPLINE
5
B9
100
AcDbEntity
8
1
62
256
6
ByLayer
370
18
48
1
60
0
100
AcDbSpline
70
4
71
3
72
30
73
26
40
0
40
0
40
0
40
0
40
0.0051906764540112
40
0.0749220231230872
40
0.141411028531136
40
0.197850475491029
40
0.250336187954963
40
0.3134982864897
40
0.35985715767701
40
0.398716356063692
40
0.436014096938025
40
0.472910469606862
40
0.516332788967343
40
0.573328016633396
40
0.637387431894361
40
0.68388118491917
40
0.716274357007006
40
0.757131598735845
40
0.806526472049831
40
0.848552080691531
40
0.878850541379379
40
0.906893427991686
40
0.939844909438132
40
0.978625548018938
40
1
40
1
40
1
40
1
41
1
10
28.4602087093012
20
5.39831885769885
30
0
41
1
10
28.4386231291522
20
5.39819440683081
30
0
41
1
10
28.1269388371263
20
5.39651138393353
30
0
41
1
10
27.5228038700838
20
5.39899928549184
30
0
41
1
10
26.7252654584215
20
5.40317333288871
30
0
41
1
10
25.9833065296401
20
5.39957869181765
30
0
41
1
10
25.2589083762309
20
5.39904204928263
30
0
41
1
10
24.575355463168
20
5.39817113800984
30
0
41
1
10
23.9496865489522
20
5.39822170117517
30
0
41
1
10
23.4330076545681
20
5.39895797132766
30
0
41
1
10
22.9562516348331
20
5.39868741886195
30
0
41
1
10
22.4602480139204
20
5.39837382810282
30
0
41
1
10
21.8811793303791
20
5.39838693658643
30
0
41
1
10
21.1875675670868
20
5.39519022312979
30
0
41
1
10
20.4809872180863
20
5.39595546903942
30
0
41
1
10
19.8781705402948
20
5.39642915617998
30
0
41
1
10
19.3731926183853
20
5.39729637922352
30
0
41
1
10
18.8559876997434
20
5.39658982635166
30
0
41
1
10
18.2981703583968
20
5.39480860907918
30
0
41
1
10
17.7848547601459
20
5.3945851842611
30
0
41
1
10
17.3616135266956
20
5.39461337385072
30
0
41
1
10
16.9766077730675
20
5.39471377263914
30
0
41
1
10
16.5558766444042
20
5.39478127653089
30
0
41
1
10
16.1631802631164
20
5.3945659024711
30
0
41
1
10
15.909588285488
20
5.39428879253902
30
0
41
1
10
15.8195660548916
20
5.39417276047715
30
0
0
SPLINE
5
BA
100
AcDbEntity
8
1
62
256
6
ByLayer
370
18
48
1
60
0
100
AcDbSpline
70
4
71
3
72
33
73
29
40
0
40
0
40
0
40
0
40
0.0414620887460103
40
0.0859170019917709
40
0.116129019597023
40
0.135829774808583
40
0.154425377390012
40
0.173781221905977
40
0.203623468360375
40
0.240132845224559
40
0.282562268675017
40
0.319508326106427
40
0.357792801963179
40
0.391701373556853
40
0.436537741308685
40
0.491078103008823
40
0.552454192073945
40
0.604416812116876
40
0.647092120286412
40
0.681108786267553
40
0.72711663649042
40
0.786213223087163
40
0.83883559200358
40
0.881287635015837
40
0.915160502295237
40
0.946916850742304
40
0.975260017930946
40
1
40
1
40
1
40
1
41
1
10
58.1122593880121
20
5.41922204323751
30
0
41
1
10
57.9408971216855
20
5.41937913099656
30
0
41
1
10
57.5859514803604
20
5.41931336118708
30
0
41
1
10
57.1073009997962
20
5.41836319839661
30
0
41
1
10
56.7176906066474
20
5.41649685112875
30
0
41
1
10
56.4441653860923
20
5.41408111405164
30
0
41
1
10
56.2023565386208
20
5.41392623243061
30
0
41
1
10
55.9299699794138
20
5.41633187622301
30
0
41
1
10
55.5875394456793
20
5.41781294406806
30
0
41
1
10
55.1369699693239
20
5.41795182976634
30
0
41
1
10
54.6583620181108
20
5.41816946514604
30
0
41
1
10
54.1719683106127
20
5.41738708420721
30
0
41
1
10
53.7209096881432
20
5.41473215998312
30
0
41
1
10
53.2372172435811
20
5.41484922137104
30
0
41
1
10
52.686334963799
20
5.41529772294837
30
0
41
1
10
52.0219253546801
20
5.41705516235533
30
0
41
1
10
51.3280585486083
20
5.41710620928006
30
0
41
1
10
50.6832359260648
20
5.41380403058943
30
0
41
1
10
50.1514894253851
20
5.41428743778889
30
0
41
1
10
49.6443501846202
20
5.41396368325471
30
0
41
1
10
49.0693697702237
20
5.41369363183895
30
0
41
1
10
48.4174700175149
20
5.41383284425345
30
0
41
1
10
47.7802557522518
20
5.41353510416803
30
0
41
1
10
47.2473090561509
20
5.4134875971381
30
0
41
1
10
46.8006057494585
20
5.41261705209919
30
0
41
1
10
46.4121903380678
20
5.41171930249789
30
0
41
1
10
46.0615822342457
20
5.41152085471057
30
0
41
1
10
45.8421102653753
20
5.41151969764098
30
0
41
1
10
45.739927107606
20
5.41151840535917
30
0
0
SPLINE
5
BB
100
AcDbEntity
8
1
62
256
6
ByLayer
370
18
48
1
60
0
100
AcDbSpline
70
4
71
3
72
28
73
24
40
0
40
0
40
0
40
0
40
0.034747041397128
40
0.0785326383734423
40
0.126125597233674
40
0.162025251269132
40
0.204968937304801
40
0.248856235903128
40
0.286577508244348
40
0.321179747775377
40
0.360168192002925
40
0.408552443194685
40
0.458787370889237
40
0.499756635009673
40
0.530753448743005
40
0.560688060754614
40
0.627217261861344
40
0.701826214392474
40
0.780194664164118
40
0.854308750218695
40
0.904462474024298
40
0.953238524492368
40
1
40
1
40
1
40
1
41
1
10
88.091539662895
20
5.4363282523307
30
0
41
1
10
87.9472667102082
20
5.43642871790226
30
0
41
1
10
87.6211940585488
20
5.43666039763707
30
0
41
1
10
87.097507090128
20
5.43754954119436
30
0
41
1
10
86.5690713209257
20
5.43741281905719
30
0
41
1
10
86.0441093889569
20
5.43591970216968
30
0
41
1
10
85.5345257812135
20
5.43527215612821
30
0
41
1
10
85.0173797234129
20
5.43402949574784
30
0
41
1
10
84.5349172150948
20
5.43316687532246
30
0
41
1
10
84.0728234108443
20
5.43273529601379
30
0
41
1
10
83.5663647303751
20
5.43295299268459
30
0
41
1
10
82.9949967322121
20
5.43342984759889
30
0
41
1
10
82.4154507293155
20
5.43502644849369
30
0
41
1
10
81.9080887296886
20
5.4329139835493
30
0
41
1
10
81.4849932924853
20
5.43210440694253
30
0
41
1
10
80.9557593419763
20
5.43225344032078
30
0
41
1
10
80.2454488260743
20
5.43166433511371
30
0
41
1
10
79.3340272174162
20
5.43286934903443
30
0
41
1
10
78.3911358175134
20
5.43083038713726
30
0
41
1
10
77.5497667631461
20
5.43094533911679
30
0
41
1
10
76.8312564618101
20
5.43039086322557
30
0
41
1
10
76.2264049162282
20
5.43000734375724
30
0
41
1
10
75.8295588148126
20
5.42978089228993
30
0
41
1
10
75.6355045472565
20
5.42971110442352
30
0
0
SPLINE
5
BC
100
AcDbEntity
8
1
62
256
6
ByLayer
370
18
48
1
60
0
100
AcDbSpline
70
4
71
3
72
11
73
7
40
0
40
0
40
0
40
0
40
0.109754094684835
40
0.346638809431038
40
0.676397607188811
40
1
40
1
40
1
40
1
41
1
10
89.2837648644303
20
-1.33855504652493
30
0
41
1
10
89.283746884831
20
-1.338622134991
30
0
41
1
10
89.28668974452
20
-1.34042282050032
30
0
41
1
10
89.3094589060728
20
-1.35325636849296
30
0
41
1
10
89.3944241050704
20
-1.40075001367319
30
0
41
1
10
89.46604467772
20
-1.44199788818901
30
0
41
1
10
89.5068572226389
20
-1.46560038314277
30
0
0
SPLINE
5
BD
100
AcDbEntity
8
1
62
256
6
ByLayer
370
18
48
1
60
0
100
AcDbSpline
70
4
71
3
72
23
73
19
40
0
40
0
40
0
40
0
40
0.125000000000002
40
0.125000000000002
40
0.187500000000003
40
0.187500000000003
40
0.250000000000004
40
0.250000000000004
40
0.500000000000003
40
0.500000000000003
40
0.562500000000003
40
0.562500000000003
40
0.625000000000003
40
0.625000000000003
40
0.750000000000002
40
0.875000000000001
40
0.875000000000001
40
1
40
1
40
1
40
1
41
1
10
104.017470702684
20
-5.44695447779469
30
0
41
1
10
103.938668384975
20
-5.44689848698621
30
0
41
1
10
103.863641050177
20
-5.435458905936
30
0
41
1
10
103.7570404403
20
-5.4003860778835
30
0
41
1
10
103.722499385282
20
-5.38570227292428
30
0
41
1
10
103.655481862655
20
-5.35010882896933
30
0
41
1
10
103.622899811836
20
-5.32910501215201
30
0
41
1
10
103.467250478818
20
-5.20926229248627
30
0
41
1
10
103.364910058397
20
-5.06663591110382
30
0
41
1
10
103.266035193829
20
-4.82711574339081
30
0
41
1
10
103.247731592465
20
-4.77611013977665
30
0
41
1
10
103.214182991386
20
-4.66765156897253
30
0
41
1
10
103.198897511696
20
-4.60996424274288
30
0
41
1
10
103.158433113344
20
-4.42958872672918
30
0
41
1
10
103.118380296138
20
-4.16869494703536
30
0
41
1
10
103.105667421776
20
-3.86768912160608
30
0
41
1
10
103.106994932514
20
-3.54608381751194
30
0
41
1
10
103.114815652053
20
-3.37423216276366
30
0
41
1
10
103.129620646507
20
-3.19611233721901
30
0
0
SPLINE
5
BE
100
AcDbEntity
8
1
62
256
6
ByLayer
370
18
48
1
60
0
100
AcDbSpline
70
4
71
3
72
24
73
20
40
0
40
0
40
0
40
0
40
0.25
40
0.25
40
0.5
40
0.5
40
0.625
40
0.625
40
0.6875
40
0.6875
40
0.75
40
0.75
40
0.8125
40
0.8125
40
0.875
40
0.875
40
0.9375
40
0.9375
40
1
40
1
40
1
40
1
41
1
10
103.340143875784
20
1.61211337442984
30
0
41
1
10
103.533715128741
20
1.64733465985847
30
0
41
1
10
103.726041910377
20
1.68802621827334
30
0
41
1
10
104.103275560015
20
1.78770698318934
30
0
41
1
10
104.288680752816
20
1.84615906503279
30
0
41
1
10
104.556658816145
20
1.9621944056428
30
0
41
1
10
104.644284518695
20
2.00563491562011
30
0
41
1
10
104.771256763828
20
2.08359950978851
30
0
41
1
10
104.812328366524
20
2.1114956733779
30
0
41
1
10
104.890648862033
20
2.17200839756629
30
0
41
1
10
104.928201549252
20
2.20488756454159
30
0
41
1
10
104.997109220043
20
2.27627182565337
30
0
41
1
10
105.028225458301
20
2.31446882408463
30
0
41
1
10
105.08180744138
20
2.39741593592734
30
0
41
1
10
105.104442096099
20
2.44292710175995
30
0
41
1
10
105.136467757597
20
2.53726278053486
30
0
41
1
10
105.146212348872
20
2.58687451231668
30
0
41
1
10
105.152413598794
20
2.68737358123624
30
0
41
1
10
105.149009418334
20
2.73730886769823
30
0
41
1
10
105.140299727887
20
2.78698965355628
30
0
0
SPLINE
5
BF
100
AcDbEntity
8
1
62
256
6
ByLayer
370
18
48
1
60
0
100
AcDbSpline
70
2053
71
3
72
60
73
56
40
0
40
0
40
0
40
0
40
0.03125
40
0.03125
40
0.0625000000000001
40
0.0625000000000001
40
0.0937500000000001
40
0.0937500000000001
40
0.125
40
0.125
40
0.15625
40
0.15625
40
0.1875
40
0.1875
40
0.250000000000001
40
0.250000000000001
40
0.281250000000001
40
0.281250000000001
40
0.312500000000001
40
0.312500000000001
40
0.375000000000002
40
0.375000000000002
40
0.437500000000002
40
0.437500000000002
40
0.468750000000003
40
0.468750000000003
40
0.500000000000003
40
0.500000000000003
40
0.531250000000003
40
0.531250000000003
40
0.562500000000004
40
0.562500000000004
40
0.593750000000004
40
0.593750000000004
40
0.625000000000004
40
0.625000000000004
40
0.656250000000005
40
0.656250000000005
40
0.687500000000005
40
0.687500000000005
40
0.750000000000005
40
0.750000000000005
40
0.781250000000006
40
0.781250000000006
40
0.812500000000006
40
0.812500000000006
40
0.843750000000006
40
0.843750000000006
40
0.875000000000006
40
0.875000000000006
40
0.906250000000006
40
0.906250000000006
40
0.937500000000006
40
0.937500000000006
40
1
40
1
40
1
40
1
41
1
10
104.582474258137
20
-2.99788862256177
30
0
41
1
10
104.610679990907
20
-2.95751905728147
30
0
41
1
10
104.638296129458
20
-2.91427101150399
30
0
41
1
10
104.692247445868
20
-2.82152109275467
30
0
41
1
10
104.71887595138
20
-2.7714055449523
30
0
41
1
10
104.768955896067
20
-2.66693685637867
30
0
41
1
10
104.792346309391
20
-2.61285881072115
30
0
41
1
10
104.83531566584
20
-2.50044266399257
30
0
41
1
10
104.854366084522
20
-2.44330967132714
30
0
41
1
10
104.885983300104
20
-2.33107719129967
30
0
41
1
10
104.898883478776
20
-2.27450125648832
30
0
41
1
10
104.916728225951
20
-2.1688256599376
30
0
41
1
10
104.921923544044
20
-2.11875068116211
30
0
41
1
10
104.926231595864
20
-1.98159629780341
30
0
41
1
10
104.914019465349
20
-1.90964283553427
30
0
41
1
10
104.880000485095
20
-1.83338833526292
30
0
41
1
10
104.865931873123
20
-1.8129410381662
30
0
41
1
10
104.834037211827
20
-1.78215020392648
30
0
41
1
10
104.816117249729
20
-1.7715549875025
30
0
41
1
10
104.756923139664
20
-1.7530177688455
30
0
41
1
10
104.711974218448
20
-1.75847478233965
30
0
41
1
10
104.613012536491
20
-1.80079545719335
30
0
41
1
10
104.560813204293
20
-1.83685892569713
30
0
41
1
10
104.478370979724
20
-1.91366784694122
30
0
41
1
10
104.450343207906
20
-1.94305582818359
30
0
41
1
10
104.394685477969
20
-2.00806662884543
30
0
41
1
10
104.366843670293
20
-2.04387247778993
30
0
41
1
10
104.311131400886
20
-2.12279108876041
30
0
41
1
10
104.282946409546
20
-2.16645478758602
30
0
41
1
10
104.228523375734
20
-2.25933513228807
30
0
41
1
10
104.202238826684
20
-2.30850012693833
30
0
41
1
10
104.151819914496
20
-2.41315058838504
30
0
41
1
10
104.127945904136
20
-2.46824645710723
30
0
41
1
10
104.085190892967
20
-2.58000462595965
30
0
41
1
10
104.065813004252
20
-2.63812002123075
30
0
41
1
10
104.034136232147
20
-2.75098466642905
30
0
41
1
10
104.021501540192
20
-2.80662422509522
30
0
41
1
10
104.003552712289
20
-2.91347351516086
30
0
41
1
10
103.99846999181
20
-2.96298455247145
30
0
41
1
10
103.994063777832
20
-3.10061466559264
30
0
41
1
10
104.006121424319
20
-3.17343208265623
30
0
41
1
10
104.039722502961
20
-3.25057481485075
30
0
41
1
10
104.053590994573
20
-3.27133360030893
30
0
41
1
10
104.085432668251
20
-3.30297441208847
30
0
41
1
10
104.103259821206
20
-3.31382732110936
30
0
41
1
10
104.142322244297
20
-3.32665223462331
30
0
41
1
10
104.163688230478
20
-3.32855015431244
30
0
41
1
10
104.208477739706
20
-3.32384702995012
30
0
41
1
10
104.232014911447
20
-3.31732184633412
30
0
41
1
10
104.281288542752
20
-3.29623676517562
30
0
41
1
10
104.307182170034
20
-3.28152951226846
30
0
41
1
10
104.359759849728
20
-3.24483966122062
30
0
41
1
10
104.386578764832
20
-3.22283673879369
30
0
41
1
10
104.468652034689
20
-3.14567249555054
30
0
41
1
10
104.526062792598
20
-3.07862775312236
30
0
41
1
10
104.582474258137
20
-2.99788862256177
30
0
0
SPLINE
5
C0
100
AcDbEntity
8
1
62
256
6
ByLayer
370
18
48
1
60
0
100
AcDbSpline
70
4
71
3
72
28
73
24
40
0
40
0
40
0
40
0
40
0.0625000000000016
40
0.0625000000000016
40
0.0937500000000024
40
0.0937500000000024
40
0.125000000000003
40
0.125000000000003
40
0.250000000000003
40
0.250000000000003
40
0.375000000000003
40
0.375000000000003
40
0.4375
40
0.4375
40
0.499999999999997
40
0.499999999999997
40
0.624999999999998
40
0.624999999999998
40
0.749999999999999
40
0.749999999999999
40
0.874999999999999
40
0.874999999999999
40
1
40
1
40
1
40
1
41
1
10
98.0620711490014
20
2.74460649297333
30
0
41
1
10
98.073433957469
20
2.59569155102827
30
0
41
1
10
98.0966079509099
20
2.44411974279794
30
0
41
1
10
98.1483111397723
20
2.21295096859643
30
0
41
1
10
98.168374679241
20
2.13525830908853
30
0
41
1
10
98.2140916034889
20
1.97861558265936
30
0
41
1
10
98.2396504345393
20
1.90005654480137
30
0
41
1
10
98.3784971222234
20
1.51084077442584
30
0
41
1
10
98.5259419032093
20
1.20582897304757
30
0
41
1
10
98.8760979183854
20
0.607421375020039
30
0
41
1
10
99.0729301941262
20
0.323761304927302
30
0
41
1
10
99.3916678087419
20
-0.0849454374977654
30
0
41
1
10
99.5019139094607
20
-0.218322798596461
30
0
41
1
10
99.7295856717737
20
-0.479947624112015
30
0
41
1
10
99.8474393442813
20
-0.608612886331997
30
0
41
1
10
100.206746051782
20
-0.983294596341466
30
0
41
1
10
100.454246521648
20
-1.21881549228488
30
0
41
1
10
100.961488372511
20
-1.66792492995538
30
0
41
1
10
101.221272710942
20
-1.88143650374624
30
0
41
1
10
101.751721078679
20
-2.2889662303329
30
0
41
1
10
102.022861778648
20
-2.48321959026467
30
0
41
1
10
102.572463114638
20
-2.85370511754996
30
0
41
1
10
102.849858008041
20
-3.02930791682437
30
0
41
1
10
103.129620646507
20
-3.19611233721901
30
0
0
SPLINE
5
C1
100
AcDbEntity
8
1
62
256
6
ByLayer
370
18
48
1
60
0
100
AcDbSpline
70
4
71
3
72
96
73
92
40
0
40
0
40
0
40
0
40
0.004651682856591
40
0.004651682856591
40
0.0228222670204984
40
0.0228222670204984
40
0.0409928511844058
40
0.0409928511844058
40
0.0591634353483131
40
0.0591634353483131
40
0.095504603676127
40
0.095504603676127
40
0.131845772003941
40
0.131845772003941
40
0.168186940331755
40
0.168186940331755
40
0.186357524495661
40
0.186357524495661
40
0.204528108659568
40
0.204528108659568
40
0.240869276987381
40
0.240869276987381
40
0.259039861151288
40
0.259039861151288
40
0.277210445315194
40
0.277210445315194
40
0.313551613643007
40
0.313551613643007
40
0.331722197806914
40
0.331722197806914
40
0.34989278197082
40
0.34989278197082
40
0.386233950298633
40
0.386233950298633
40
0.40440453446254
40
0.40440453446254
40
0.422575118626446
40
0.422575118626446
40
0.458916286954259
40
0.458916286954259
40
0.477086871118165
40
0.477086871118165
40
0.495257455282072
40
0.495257455282072
40
0.513428039445978
40
0.513428039445978
40
0.531598623609885
40
0.531598623609885
40
0.549769207773791
40
0.549769207773791
40
0.567939791937698
40
0.567939791937698
40
0.604280960265511
40
0.604280960265511
40
0.640622128593325
40
0.640622128593325
40
0.658792712757232
40
0.658792712757232
40
0.676963296921139
40
0.676963296921139
40
0.695133881085046
40
0.695133881085046
40
0.713304465248953
40
0.713304465248953
40
0.749645633576767
40
0.749645633576767
40
0.767816217740674
40
0.767816217740674
40
0.785986801904581
40
0.785986801904581
40
0.822327970232395
40
0.822327970232395
40
0.840498554396301
40
0.840498554396301
40
0.858669138560208
40
0.858669138560208
40
0.876839722724115
40
0.876839722724115
40
0.895010306888022
40
0.895010306888022
40
0.913180891051929
40
0.913180891051929
40
0.931351475215836
40
0.931351475215836
40
0.949522059379743
40
0.949522059379743
40
0.96769264354365
40
0.96769264354365
40
0.985863227707557
40
0.985863227707557
40
1
40
1
40
1
40
1
41
1
10
28.4730909981286
20
5.3981807055797
30
0
41
1
10
28.5295947264257
20
5.39742064858402
30
0
41
1
10
28.5860974610215
20
5.39640188386005
30
0
41
1
10
28.8633054092682
20
5.39015029840547
30
0
41
1
10
29.083928542228
20
5.38153039872094
30
0
41
1
10
29.5254828598506
20
5.35462656596707
30
0
41
1
10
29.7467411549937
20
5.33602152827939
30
0
41
1
10
30.1876648846604
20
5.29044158991348
30
0
41
1
10
30.4076892279759
20
5.26357390150977
30
0
41
1
10
31.0665186842833
20
5.17056847233914
30
0
41
1
10
31.5040160230207
20
5.09176778014265
30
0
41
1
10
32.3764371280653
20
4.9044689610873
30
0
41
1
10
32.8130016753637
20
4.79489085872945
30
0
41
1
10
33.6866887606781
20
4.54686028269953
30
0
41
1
10
34.1238537957904
20
4.40773579728784
30
0
41
1
10
34.7804372321459
20
4.17750370191109
30
0
41
1
10
34.9997915585362
20
4.0977314318333
30
0
41
1
10
35.4398129831251
20
3.93128587222245
30
0
41
1
10
35.6604394503587
20
3.84441993825786
30
0
41
1
10
36.3241582258632
20
3.5739250379473
30
0
41
1
10
36.7661156066437
20
3.38178054524198
30
0
41
1
10
37.4268599906789
20
3.07750360361501
30
0
41
1
10
37.6471953921057
20
2.9741768684072
30
0
41
1
10
38.0882883648279
20
2.76336103792087
30
0
41
1
10
38.3089778056293
20
2.65537914495303
30
0
41
1
10
38.9716518856426
20
2.32442197771982
30
0
41
1
10
39.4148251213749
20
2.0942235590679
30
0
41
1
10
40.0764285634659
20
1.73976315185837
30
0
41
1
10
40.296938498765
20
1.62053527510921
30
0
41
1
10
40.7382352607182
20
1.38076333556989
30
0
41
1
10
40.9588973814963
20
1.26001870591835
30
0
41
1
10
41.6210696337754
20
0.893900831127013
30
0
41
1
10
42.0631761724596
20
0.645263794107962
30
0
41
1
10
42.7261408404061
20
0.268101187270702
30
0
41
1
10
42.9469782535393
20
0.142469315972818
30
0
41
1
10
43.3887868888539
20
-0.107922369960107
30
0
41
1
10
43.6096512135319
20
-0.232898791780116
30
0
41
1
10
44.2719937403825
20
-0.607250550021547
30
0
41
1
10
44.7132814264123
20
-0.855555184173767
30
0
41
1
10
45.3755683600437
20
-1.22521758274718
30
0
41
1
10
45.5968764429643
20
-1.34756692247961
30
0
41
1
10
46.0394669077849
20
-1.5889754047196
30
0
41
1
10
46.2606245084675
20
-1.70823056250438
30
0
41
1
10
46.7026542321493
20
-1.94421029206231
30
0
41
1
10
46.923523935971
20
-2.06106596753256
30
0
41
1
10
47.3649392908355
20
-2.29068314522039
30
0
41
1
10
47.5855006377831
20
-2.40379567170393
30
0
41
1
10
48.0265072427692
20
-2.62674467716965
30
0
41
1
10
48.2472176051984
20
-2.73608660016049
30
0
41
1
10
48.6896024269453
20
-2.94965376552699
30
0
41
1
10
48.9113302925476
20
-3.05411579505372
30
0
41
1
10
49.5753508578693
20
-3.35941535362125
30
0
41
1
10
50.0170392731603
20
-3.55271100465504
30
0
41
1
10
50.8988439726314
20
-3.9173369221491
30
0
41
1
10
51.3403202429888
20
-4.08901648544833
30
0
41
1
10
52.0045106237426
20
-4.32268231679868
30
0
41
1
10
52.2262676541822
20
-4.39690714700498
30
0
41
1
10
52.6678354454792
20
-4.53777306043139
30
0
41
1
10
52.8879766709507
20
-4.6045972682231
30
0
41
1
10
53.3271489558376
20
-4.73123539810695
30
0
41
1
10
53.5463794476273
20
-4.79068037535254
30
0
41
1
10
53.9848479265832
20
-4.9029308375421
30
0
41
1
10
54.2039189933409
20
-4.95574822142444
30
0
41
1
10
54.860447835181
20
-5.09964798121476
30
0
41
1
10
55.2974185142755
20
-5.17836199225025
30
0
41
1
10
55.952312359728
20
-5.27271362588817
30
0
41
1
10
56.1706864804405
20
-5.30004324134083
30
0
41
1
10
56.6084086514329
20
-5.34628418130066
30
0
41
1
10
56.8275818411135
20
-5.36558095280506
30
0
41
1
10
57.4859973252316
20
-5.41149845881458
30
0
41
1
10
57.926433747846
20
-5.42338620406193
30
0
41
1
10
58.5895315947216
20
-5.41556930172584
30
0
41
1
10
58.8109063684779
20
-5.40853483109578
30
0
41
1
10
59.2532462976133
20
-5.38602776111489
30
0
41
1
10
59.4743321521239
20
-5.37044807215793
30
0
41
1
10
59.9163243465644
20
-5.33177282803172
30
0
41
1
10
60.1372297560999
20
-5.30875741931359
30
0
41
1
10
60.5788966392917
20
-5.25230711275611
30
0
41
1
10
60.7996570497736
20
-5.21928691706506
30
0
41
1
10
61.2412033248236
20
-5.14449482384694
30
0
41
1
10
61.462099849892
20
-5.10272969720538
30
0
41
1
10
61.9051056753667
20
-5.01163281594128
30
0
41
1
10
62.1267281628677
20
-4.96224915122161
30
0
41
1
10
62.569320219165
20
-4.85622549247492
30
0
41
1
10
62.7904534803308
20
-4.79993737001382
30
0
41
1
10
63.2323065543092
20
-4.67978498547998
30
0
41
1
10
63.4530053354626
20
-4.61520756595272
30
0
41
1
10
63.8941866663755
20
-4.47761769135764
30
0
41
1
10
64.1147748887452
20
-4.40472334880934
30
0
41
1
10
64.5078892684761
20
-4.26948033662978
30
0
41
1
10
64.6801033331693
20
-4.20832057043043
30
0
41
1
10
64.8525031345134
20
-4.14520880523554
30
0
0
SPLINE
5
C2
100
AcDbEntity
8
1
62
256
6
ByLayer
370
18
48
1
60
0
100
AcDbSpline
70
4
71
3
72
36
73
32
40
0
40
0
40
0
40
0
40
0.0060961574611635
40
0.0060961574611635
40
0.0723564136304179
40
0.0723564136304179
40
0.138616669799673
40
0.138616669799673
40
0.204876925968927
40
0.204876925968927
40
0.271137182138183
40
0.271137182138183
40
0.337397438307437
40
0.337397438307437
40
0.403657694476692
40
0.403657694476692
40
0.469917950645946
40
0.469917950645946
40
0.536178206815202
40
0.536178206815202
40
0.602438462984456
40
0.602438462984456
40
0.734958975322967
40
0.734958975322967
40
0.801219231492226
40
0.801219231492226
40
0.867479487661484
40
0.867479487661484
40
0.933739743830743
40
0.933739743830743
40
1
40
1
40
1
40
1
41
1
10
88.0992407901221
20
5.43624432085164
30
0
41
1
10
88.1195686373779
20
5.43625509704009
30
0
41
1
10
88.1398971119219
20
5.43622972464109
30
0
41
1
10
88.3811920733428
20
5.43550121120055
30
0
41
1
10
88.6021588056175
20
5.43056686827816
30
0
41
1
10
89.0440092511922
20
5.41281369500905
30
0
41
1
10
89.2649038850223
20
5.40038132208559
30
0
41
1
10
89.7066271193673
20
5.36649975382679
30
0
41
1
10
89.9274716877016
20
5.34426165010547
30
0
41
1
10
90.3692469878154
20
5.29091643003983
30
0
41
1
10
90.5903778714503
20
5.25958816476933
30
0
41
1
10
91.0328573133111
20
5.18879144936483
30
0
41
1
10
91.2536682027628
20
5.1493355219412
30
0
41
1
10
91.6944301555626
20
5.0627896297317
30
0
41
1
10
91.9144001098745
20
5.01571361120321
30
0
41
1
10
92.3535693147446
20
4.91450359927032
30
0
41
1
10
92.5727247040514
20
4.86016746064743
30
0
41
1
10
93.0101872499399
20
4.74265033471042
30
0
41
1
10
93.2284603009008
20
4.67987203601083
30
0
41
1
10
93.6655010610885
20
4.5477218946701
30
0
41
1
10
93.8841118833599
20
4.47820944941964
30
0
41
1
10
94.5401125041537
20
4.25925138017297
30
0
41
1
10
94.9777631199069
20
4.09932616105584
30
0
41
1
10
95.6349087928667
20
3.83912299218531
30
0
41
1
10
95.8539758255669
20
3.74888212355259
30
0
41
1
10
96.293531332207
20
3.56329372737602
30
0
41
1
10
96.5138938282239
20
3.4677282090546
30
0
41
1
10
96.9557530199355
20
3.27062914695028
30
0
41
1
10
97.1775897199289
20
3.16888766263077
30
0
41
1
10
97.6203246767371
20
2.96040528864506
30
0
41
1
10
97.8413522864543
20
2.85370960005574
30
0
41
1
10
98.0620711490012
20
2.74460649297342
30
0
0
SPLINE
5
C3
100
AcDbEntity
8
1
62
256
6
ByLayer
370
13
48
1
60
0
100
AcDbSpline
70
4
71
3
72
35
73
31
40
0
40
0
40
0
40
0
40
0.125
40
0.125
40
0.1875
40
0.1875
40
0.25
40
0.3125
40
0.3125
40
0.34375
40
0.34375
40
0.375
40
0.375
40
0.5
40
0.5
40
0.5625
40
0.5625
40
0.625
40
0.625
40
0.6875
40
0.6875
40
0.75
40
0.75
40
0.8125
40
0.8125
40
0.84375
40
0.84375
40
0.875
40
0.875
40
1
40
1
40
1
40
1
41
1
10
7.25022755883688
20
-4.38050301701995
30
0
41
1
10
7.25022067677531
20
-4.15903655156137
30
0
41
1
10
7.25020161158312
20
-3.90783349359327
30
0
41
1
10
7.25016335480123
20
-3.48663482441901
30
0
41
1
10
7.25014907956188
20
-3.33980288728412
30
0
41
1
10
7.2501193220495
20
-3.03667978606356
30
0
41
1
10
7.25008827214626
20
-2.7231843681474
30
0
41
1
10
7.25005746081448
20
-2.38911478693021
30
0
41
1
10
7.25003544936055
20
-2.13065394459807
30
0
41
1
10
7.25002827486466
20
-2.04291652722841
30
0
41
1
10
7.25001456818049
20
-1.86618597819785
30
0
41
1
10
7.25000804011614
20
-1.77727425319222
30
0
41
1
10
7.24997734443005
20
-1.33003801486595
30
0
41
1
10
7.24995908766283
20
-0.963767594567798
30
0
41
1
10
7.24994616322877
20
-0.401611470150385
30
0
41
1
10
7.24994426649744
20
-0.211287225286782
30
0
41
1
10
7.24994588232241
20
0.167893095041592
30
0
41
1
10
7.24994936333218
20
0.357142646692779
30
0
41
1
10
7.24996181572558
20
0.734957382073247
30
0
41
1
10
7.24997076612163
20
0.922372327940963
30
0
41
1
10
7.24999360611463
20
1.29071118814255
30
0
41
1
10
7.25000751329185
20
1.47219974692612
30
0
41
1
10
7.2500397867619
20
1.82984287423704
30
0
41
1
10
7.25005815429688
20
2.00599777815594
30
0
41
1
10
7.25008855636906
20
2.26611702152843
30
0
41
1
10
7.2500991677293
20
2.35213288714974
30
0
41
1
10
7.25012097134922
20
2.52081050997319
30
0
41
1
10
7.25013219239457
20
2.60372742441808
30
0
41
1
10
7.25018953349041
20
3.01132196518165
30
0
41
1
10
7.25023944161447
20
3.31525770521853
30
0
41
1
10
7.25028826149307
20
3.59672197176039
30
0
0
SPLINE
5
C4
100
AcDbEntity
8
1
62
256
6
ByLayer
370
18
48
1
60
0
100
AcDbSpline
70
4
71
3
72
96
73
92
40
0
40
0
40
0
40
0
40
0.0158526257259763
40
0.0158526257259763
40
0.0336195823080464
40
0.0336195823080464
40
0.0513865388901164
40
0.0513865388901164
40
0.0869204520542572
40
0.0869204520542572
40
0.104687408636328
40
0.104687408636328
40
0.122454365218398
40
0.122454365218398
40
0.15798827838254
40
0.15798827838254
40
0.175755234964611
40
0.175755234964611
40
0.193522191546681
40
0.193522191546681
40
0.229056104710822
40
0.229056104710822
40
0.246823061292892
40
0.246823061292892
40
0.264590017874962
40
0.264590017874962
40
0.282356974457032
40
0.282356974457032
40
0.300123931039102
40
0.300123931039102
40
0.317890887621172
40
0.317890887621172
40
0.335657844203242
40
0.335657844203242
40
0.371191757367383
40
0.371191757367383
40
0.388958713949454
40
0.388958713949454
40
0.406725670531524
40
0.406725670531524
40
0.442259583695665
40
0.442259583695665
40
0.460026540277735
40
0.460026540277735
40
0.477793496859805
40
0.477793496859805
40
0.513327410023945
40
0.513327410023945
40
0.531094366606015
40
0.531094366606015
40
0.548861323188085
40
0.548861323188085
40
0.584395236352224
40
0.584395236352224
40
0.602162192934294
40
0.602162192934294
40
0.619929149516363
40
0.619929149516363
40
0.655463062680501
40
0.655463062680501
40
0.673230019262571
40
0.673230019262571
40
0.69099697584464
40
0.69099697584464
40
0.726530889008778
40
0.726530889008778
40
0.744297845590848
40
0.744297845590848
40
0.762064802172917
40
0.762064802172917
40
0.797598715337056
40
0.797598715337056
40
0.815365671919125
40
0.815365671919125
40
0.833132628501195
40
0.833132628501195
40
0.850899585083264
40
0.850899585083264
40
0.868666541665333
40
0.868666541665333
40
0.886433498247402
40
0.886433498247402
40
0.904200454829472
40
0.904200454829472
40
0.939734367993611
40
0.939734367993611
40
0.957501324575681
40
0.957501324575681
40
0.975268281157751
40
0.975268281157751
40
1
40
1
40
1
40
1
41
1
10
34.8710679432148
20
4.11200931685991
30
0
41
1
10
35.0678253325408
20
4.1921143131726
30
0
41
1
10
35.2647825415329
20
4.26996095735134
30
0
41
1
10
35.6825428998719
20
4.43020556074728
30
0
41
1
10
35.9027182144121
20
4.51149920831443
30
0
41
1
10
36.3440935554247
20
4.66516238522385
30
0
41
1
10
36.5649440218935
20
4.7379216332383
30
0
41
1
10
37.2275190881819
20
4.94462369680923
30
0
41
1
10
37.6692565386303
20
5.06708667073298
30
0
41
1
10
38.3307738533492
20
5.2278336184342
30
0
41
1
10
38.5515112569485
20
5.27752368664176
30
0
41
1
10
38.9929702783936
20
5.36712498140722
30
0
41
1
10
39.2134317696235
20
5.40733060284776
30
0
41
1
10
39.8735923444058
20
5.51480717516094
30
0
41
1
10
40.3120663793356
20
5.56903414006626
30
0
41
1
10
40.9662301004833
20
5.62433471685267
30
0
41
1
10
41.1836743382734
20
5.63835300144066
30
0
41
1
10
41.6198468423506
20
5.65723201833535
30
0
41
1
10
41.8382337913124
20
5.662190104118
30
0
41
1
10
42.4938151268364
20
5.66386743498805
30
0
41
1
10
42.9314234657751
20
5.64748737237719
30
0
41
1
10
43.5875888628348
20
5.59554674318767
30
0
41
1
10
43.8061418870311
20
5.57355521472468
30
0
41
1
10
44.2455838657446
20
5.52096236668496
30
0
41
1
10
44.4661611968555
20
5.49031226035243
30
0
41
1
10
44.9086948965992
20
5.4201950254396
30
0
41
1
10
45.1303667044136
20
5.3807617394456
30
0
41
1
10
45.5723986507321
20
5.29336415928469
30
0
41
1
10
45.7930351923912
20
5.24535689718525
30
0
41
1
10
46.2333721009774
20
5.14047202917652
30
0
41
1
10
46.4528846309084
20
5.0834140502011
30
0
41
1
10
46.8934270663278
20
4.96217533872942
30
0
41
1
10
47.1141604352829
20
4.8978185205535
30
0
41
1
10
47.7772040063166
20
4.6932710438287
30
0
41
1
10
48.2211985302734
20
4.54129312587344
30
0
41
1
10
48.8803036223718
20
4.29142684244195
30
0
41
1
10
49.098913750769
20
4.20412131623968
30
0
41
1
10
49.5367019730923
20
4.02475657555451
30
0
41
1
10
49.7556295929201
20
3.93243430271679
30
0
41
1
10
50.4119984016191
20
3.64713290214962
30
0
41
1
10
50.8490334992048
20
3.44588371679512
30
0
41
1
10
51.5026160517075
20
3.1256436789088
30
0
41
1
10
51.7198775721931
20
3.01540515931717
30
0
41
1
10
52.155924770669
20
2.79184912354248
30
0
41
1
10
52.3745473053075
20
2.67832644391848
30
0
41
1
10
53.0316415445889
20
2.33178181820574
30
0
41
1
10
53.471341747723
20
2.09284567950161
30
0
41
1
10
54.1322716992163
20
1.72015015524613
30
0
41
1
10
54.3528076838496
20
1.59283843662456
30
0
41
1
10
54.7940221067418
20
1.33808223486059
30
0
41
1
10
55.0148254761438
20
1.21042636774789
30
0
41
1
10
55.6772281494415
20
0.825690778864839
30
0
41
1
10
56.1188317769101
20
0.566875048528317
30
0
41
1
10
56.7800091461807
20
0.173037322753657
30
0
41
1
10
56.9998873285357
20
0.040288391029577
30
0
41
1
10
57.4412052027405
20
-0.223767546787116
30
0
41
1
10
57.6625390013146
20
-0.355029786988609
30
0
41
1
10
58.3256331647019
20
-0.746229867816083
30
0
41
1
10
58.7673467025525
20
-1.00408329609948
30
0
41
1
10
59.4281480157836
20
-1.38846065542532
30
0
41
1
10
59.6478112119779
20
-1.51667932237882
30
0
41
1
10
60.0883831791123
20
-1.76926799159173
30
0
41
1
10
60.309388142801
20
-1.89358012434715
30
0
41
1
10
60.973553501803
20
-2.26144451669498
30
0
41
1
10
61.4156182780913
20
-2.49870283740148
30
0
41
1
10
62.0763971552423
20
-2.8444603286402
30
0
41
1
10
62.2959648797185
20
-2.95843805893261
30
0
41
1
10
62.7360340984919
20
-3.18042805928042
30
0
41
1
10
62.9566655217497
20
-3.28828247671851
30
0
41
1
10
63.6196979629594
20
-3.60347394614897
30
0
41
1
10
64.0632527764389
20
-3.80242964182762
30
0
41
1
10
64.7244432496521
20
-4.08320653004685
30
0
41
1
10
64.9440725141427
20
-4.17426002606848
30
0
41
1
10
65.3839332836078
20
-4.3487391962872
30
0
41
1
10
65.6043736153184
20
-4.43196994016358
30
0
41
1
10
66.0458338832121
20
-4.5910483887204
30
0
41
1
10
66.2668645987869
20
-4.66688213861363
30
0
41
1
10
66.7092847573262
20
-4.81135793802196
30
0
41
1
10
66.9307173219432
20
-4.8800001850293
30
0
41
1
10
67.3720315249305
20
-5.00959021402835
30
0
41
1
10
67.5918447865041
20
-5.07080776403583
30
0
41
1
10
68.0317343919281
20
-5.18448349759851
30
0
41
1
10
68.2521074339517
20
-5.23677024988737
30
0
41
1
10
68.9138419724495
20
-5.38077185806662
30
0
41
1
10
69.3558268225387
20
-5.45971261450239
30
0
41
1
10
70.0187834960124
20
-5.5526330183763
30
0
41
1
10
70.2390120254489
20
-5.57931917569223
30
0
41
1
10
70.6792301022162
20
-5.62338733076962
30
0
41
1
10
70.8996817184994
20
-5.64071321911868
30
0
41
1
10
71.4272854948032
20
-5.67134779719353
30
0
41
1
10
71.7345518899263
20
-5.68046479720491
30
0
41
1
10
72.0417614820615
20
-5.68078992668862
30
0
0
SPLINE
5
C5
100
AcDbEntity
8
1
62
256
6
ByLayer
370
18
48
1
60
0
100
AcDbSpline
70
4
71
3
72
30
73
26
40
0
40
0
40
0
40
0
40
0.0062468659049097
40
0.0062468659049097
40
0.148211599347065
40
0.148211599347065
40
0.219193966068147
40
0.219193966068147
40
0.290176332789229
40
0.290176332789229
40
0.432141066231385
40
0.432141066231385
40
0.503123432952463
40
0.503123432952463
40
0.574105799673541
40
0.574105799673541
40
0.645088166394618
40
0.645088166394618
40
0.716070533115696
40
0.716070533115696
40
0.787052899836774
40
0.787052899836774
40
0.858035266557851
40
0.858035266557851
40
1
40
1
40
1
40
1
41
1
10
94.8314280072042
20
4.15874564148683
30
0
41
1
10
94.8508387485289
20
4.16667908416989
30
0
41
1
10
94.8702495513592
20
4.17458054675865
30
0
41
1
10
95.3307758686195
20
4.36127064465541
30
0
41
1
10
95.7705559096494
20
4.52456593341142
30
0
41
1
10
96.4269266219757
20
4.7483628872165
30
0
41
1
10
96.6451723126471
20
4.81940312126676
30
0
41
1
10
97.0804150141738
20
4.95436414496623
30
0
41
1
10
97.2977680844208
20
5.01794078547201
30
0
41
1
10
97.951417685677
20
5.19527028495872
30
0
41
1
10
98.3880931795498
20
5.29679324064327
30
0
41
1
10
99.0430628201907
20
5.42501442301426
30
0
41
1
10
99.2613876369823
20
5.463711759868
30
0
41
1
10
99.6978969119263
20
5.5328305804104
30
0
41
1
10
99.9162410756667
20
5.56313769480062
30
0
41
1
10
100.355207350236
20
5.61445205504995
30
0
41
1
10
100.575491227844
20
5.63561972867578
30
0
41
1
10
101.017369647136
20
5.66905644861779
30
0
41
1
10
101.238623067454
20
5.68128142004184
30
0
41
1
10
101.679262191194
20
5.69665575495918
30
0
41
1
10
101.898979573536
20
5.69983147961483
30
0
41
1
10
102.337044137807
20
5.69703629781122
30
0
41
1
10
102.555449571392
20
5.69101730952747
30
0
41
1
10
103.212337397325
20
5.65963375486592
30
0
41
1
10
103.651034081424
20
5.62106537276551
30
0
41
1
10
104.089493316391
20
5.56477968089922
30
0
0
SPLINE
5
C6
100
AcDbEntity
8
1
62
256
6
ByLayer
370
18
48
1
60
0
100
AcDbSpline
70
4
71
3
72
14
73
10
40
0
40
0
40
0
40
0
40
0.25
40
0.25
40
0.5
40
0.5
40
0.75
40
0.75
40
1
40
1
40
1
40
1
41
1
10
7.00000003648765
20
3.75933770117766
30
0
41
1
10
7.00000003648728
20
3.75775334271552
30
0
41
1
10
7.00470729046574
20
3.75356372685877
30
0
41
1
10
7.02777345205928
20
3.73737646992126
30
0
41
1
10
7.04645133508873
20
3.72521311005772
30
0
41
1
10
7.09855899454618
20
3.69211304642195
30
0
41
1
10
7.12990893273849
20
3.67243814838091
30
0
41
1
10
7.19238804223991
20
3.63314637189293
30
0
41
1
10
7.22216503264386
20
3.61439963770553
30
0
41
1
10
7.25028826149887
20
3.59672197176394
30
0
0
SPLINE
5
C7
100
AcDbEntity
8
1
62
256
6
ByLayer
370
18
48
1
60
0
100
AcDbSpline
70
4
71
3
72
108
73
104
40
0
40
0
40
0
40
0
40
0.0014409348114114
40
0.0014409348114114
40
0.0194524660305784
40
0.0194524660305784
40
0.0374639972497454
40
0.0374639972497454
40
0.0554755284689125
40
0.0554755284689125
40
0.0734870596880795
40
0.0734870596880795
40
0.0914985909072466
40
0.0914985909072466
40
0.109510122126414
40
0.109510122126414
40
0.127521653345581
40
0.127521653345581
40
0.145533184564748
40
0.145533184564748
40
0.163544715783915
40
0.163544715783915
40
0.181556247003082
40
0.181556247003082
40
0.199567778222249
40
0.199567778222249
40
0.235590840660581
40
0.235590840660581
40
0.253602371879747
40
0.253602371879747
40
0.271613903098914
40
0.271613903098914
40
0.307636965537244
40
0.307636965537244
40
0.325648496756409
40
0.325648496756409
40
0.343660027975573
40
0.343660027975573
40
0.361671559194738
40
0.361671559194738
40
0.379683090413902
40
0.379683090413902
40
0.397694621633067
40
0.397694621633067
40
0.415706152852231
40
0.415706152852231
40
0.433717684071395
40
0.433717684071395
40
0.451729215290558
40
0.451729215290558
40
0.469740746509722
40
0.469740746509722
40
0.487752277728886
40
0.487752277728886
40
0.523775340167212
40
0.523775340167212
40
0.541786871386375
40
0.541786871386375
40
0.559798402605539
40
0.559798402605539
40
0.577809933824703
40
0.577809933824703
40
0.595821465043867
40
0.595821465043867
40
0.61383299626303
40
0.61383299626303
40
0.631844527482194
40
0.631844527482194
40
0.667867589920521
40
0.667867589920521
40
0.685879121139685
40
0.685879121139685
40
0.703890652358849
40
0.703890652358849
40
0.721902183578012
40
0.721902183578012
40
0.739913714797176
40
0.739913714797176
40
0.75792524601634
40
0.75792524601634
40
0.775936777235503
40
0.775936777235503
40
0.793948308454667
40
0.793948308454667
40
0.811959839673831
40
0.811959839673831
40
0.847982902112158
40
0.847982902112158
40
0.865994433331322
40
0.865994433331322
40
0.884005964550486
40
0.884005964550486
40
0.920029026988813
40
0.920029026988813
40
0.938040558207976
40
0.938040558207976
40
0.956052089427139
40
0.956052089427139
40
0.974063620646302
40
0.974063620646302
40
0.992075151865465
40
0.992075151865465
40
1
40
1
40
1
40
1
41
1
10
94.8355799205661
20
-4.14776994989876
30
0
41
1
10
94.8179463336834
20
-4.15427284689059
30
0
41
1
10
94.8003085965583
20
-4.16075516359817
30
0
41
1
10
94.5621446603718
20
-4.24798698021206
30
0
41
1
10
94.3408540844745
20
-4.32556798243235
30
0
41
1
10
93.8994297198036
20
-4.4732735438528
30
0
41
1
10
93.6789759992472
20
-4.54352013060688
30
0
41
1
10
93.2386462501175
20
-4.6769126821286
30
0
41
1
10
93.0189366173028
20
-4.74020291075811
30
0
41
1
10
92.5790020685254
20
-4.85857493922472
30
0
41
1
10
92.3588285952733
20
-4.91324219336323
30
0
41
1
10
91.9179781569627
20
-5.01493740538868
30
0
41
1
10
91.6973374262548
20
-5.06219004621855
30
0
41
1
10
91.2556039785027
20
-5.14898383496595
30
0
41
1
10
91.0345325067268
20
-5.18849287072945
30
0
41
1
10
90.593610289427
20
-5.25910118739591
30
0
41
1
10
90.3737296567011
20
-5.29030059377249
30
0
41
1
10
89.9337343509256
20
-5.34357816817797
30
0
41
1
10
89.7136677848292
20
-5.36584196361514
30
0
41
1
10
89.2732332592348
20
-5.39985614771314
30
0
41
1
10
89.0528681902911
20
-5.41234574192754
30
0
41
1
10
88.6118965027846
20
-5.43028299721797
30
0
41
1
10
88.3912695637224
20
-5.43533601303611
30
0
41
1
10
87.9497970905119
20
-5.43693229350774
30
0
41
1
10
87.7294050313046
20
-5.43348336265993
30
0
41
1
10
87.0686747317189
20
-5.41000359017926
30
0
41
1
10
86.6283171950192
20
-5.37614129905708
30
0
41
1
10
85.9675027089992
20
-5.29910020046478
30
0
41
1
10
85.747177246143
20
-5.26933253907779
30
0
41
1
10
85.3064515777889
20
-5.20093817545705
30
0
41
1
10
85.0861514976589
20
-5.16219474080174
30
0
41
1
10
84.4241891579666
20
-5.0341600311084
30
0
41
1
10
83.9832391673943
20
-4.93371748431707
30
0
41
1
10
83.3222612382439
20
-4.76060585806371
30
0
41
1
10
83.1019946417554
20
-4.69911395816519
30
0
41
1
10
82.6616162121747
20
-4.56824332309762
30
0
41
1
10
82.4417010952645
20
-4.49886501712075
30
0
41
1
10
82.0009996329704
20
-4.35163410671026
30
0
41
1
10
81.7800057241465
20
-4.2739585153609
30
0
41
1
10
81.3382328784941
20
-4.11387774012087
30
0
41
1
10
81.1175117222378
20
-4.03091979106932
30
0
41
1
10
80.6764262848155
20
-3.85847260247076
30
0
41
1
10
80.456030042403
20
-3.76914015530628
30
0
41
1
10
80.015569890164
20
-3.58443280823906
30
0
41
1
10
79.7956934573766
20
-3.48876298791737
30
0
41
1
10
79.3554073719325
20
-3.29219617406284
30
0
41
1
10
79.1349559445019
20
-3.19098689066902
30
0
41
1
10
78.6932952566751
20
-2.98363048581408
30
0
41
1
10
78.4720161728554
20
-2.87779947684243
30
0
41
1
10
78.0302960431944
20
-2.66205691088842
30
0
41
1
10
77.809692631603
20
-2.5520818091606
30
0
41
1
10
77.3690349095581
20
-2.32734332517191
30
0
41
1
10
77.1491357121013
20
-2.21265890686917
30
0
41
1
10
76.4889672997903
20
-1.86443972879829
30
0
41
1
10
76.0479692090369
20
-1.62645778143491
30
0
41
1
10
75.384979175616
20
-1.26239666869586
30
0
41
1
10
75.1638338522062
20
-1.13983725624658
30
0
41
1
10
74.7226705262372
20
-0.892930871321596
30
0
41
1
10
74.5026268120704
20
-0.768202522753285
30
0
41
1
10
74.0624334281846
20
-0.518337405925166
30
0
41
1
10
73.8422413031141
20
-0.393268437263146
30
0
41
1
10
73.4015471037598
20
-0.142990501715644
30
0
41
1
10
73.1810497661543
20
-0.0177712162229966
30
0
41
1
10
72.7397474153591
20
0.23272792063571
30
0
41
1
10
72.5189393669596
20
0.357992982136835
30
0
41
1
10
72.0769860599744
20
0.608596679964847
30
0
41
1
10
71.8566089842039
20
0.733886291805192
30
0
41
1
10
71.1957794106224
20
1.10670441903173
30
0
41
1
10
70.7551331331351
20
1.35094111464136
30
0
41
1
10
70.0937886341995
20
1.70962955278415
30
0
41
1
10
69.8732573727888
20
1.82794406636972
30
0
41
1
10
69.4320780764337
20
2.06229760045579
30
0
41
1
10
69.2113208209535
20
2.17872229022279
30
0
41
1
10
68.770294788095
20
2.40688884034196
30
0
41
1
10
68.550229477483
20
2.5183571151409
30
0
41
1
10
68.1106821485631
20
2.73671993896912
30
0
41
1
10
67.8912284788278
20
2.84366339822458
30
0
41
1
10
67.4530628012173
20
3.05253423482276
30
0
41
1
10
67.2343322126477
20
3.154377213852
30
0
41
1
10
66.7975275468622
20
3.35315614095347
30
0
41
1
10
66.5796111970967
20
3.45042363516487
30
0
41
1
10
66.1439100785421
20
3.6387251081839
30
0
41
1
10
65.9259749052576
20
3.72921082494571
30
0
41
1
10
65.489721735428
20
3.90428915422186
30
0
41
1
10
65.2714395848064
20
3.98914973121421
30
0
41
1
10
64.6161674651722
20
4.23457390444133
30
0
41
1
10
64.1789386979577
20
4.38699925351702
30
0
41
1
10
63.5214798670388
20
4.59456586379582
30
0
41
1
10
63.3017165987709
20
4.65983273545837
30
0
41
1
10
62.8606298594877
20
4.78164018163884
30
0
41
1
10
62.6391317310756
20
4.83861230437171
30
0
41
1
10
61.9759514719325
20
4.99978099886928
30
0
41
1
10
61.5348998000207
20
5.09262160032895
30
0
41
1
10
60.8744344665126
20
5.20743524882849
30
0
41
1
10
60.6541131686089
20
5.24141836298355
30
0
41
1
10
60.2129158180587
20
5.29998602023912
30
0
41
1
10
59.9920255304743
20
5.32418031216145
30
0
41
1
10
59.5497005571456
20
5.36453939853951
30
0
41
1
10
59.3282418740547
20
5.38109363803562
30
0
41
1
10
58.8863702991922
20
5.40548774056074
30
0
41
1
10
58.6658885013925
20
5.41347277258652
30
0
41
1
10
58.348680578277
20
5.41867841565198
30
0
41
1
10
58.2517411425748
20
5.41945107659836
30
0
41
1
10
58.1547808871094
20
5.41938334382101
30
0
0
SPLINE
5
C8
100
AcDbEntity
8
1
62
256
6
ByLayer
370
18
48
1
60
0
100
AcDbSpline
70
4
71
3
72
52
73
48
40
0
40
0
40
0
40
0
40
0.0150813666853151
40
0.0150813666853151
40
0.0458600739763992
40
0.0458600739763992
40
0.0766387812674829
40
0.0766387812674829
40
0.13819619584965
40
0.13819619584965
40
0.199753610431818
40
0.199753610431818
40
0.261311025013986
40
0.261311025013986
40
0.29208973230507
40
0.29208973230507
40
0.322868439596153
40
0.322868439596153
40
0.384425854178319
40
0.384425854178319
40
0.415204561469403
40
0.415204561469403
40
0.445983268760486
40
0.445983268760486
40
0.507540683342653
40
0.507540683342653
40
0.569098097924821
40
0.569098097924821
40
0.599876805215904
40
0.599876805215904
40
0.630655512506988
40
0.630655512506988
40
0.692212927089156
40
0.692212927089156
40
0.722991634380241
40
0.722991634380241
40
0.753770341671325
40
0.753770341671325
40
0.78454904896241
40
0.78454904896241
40
0.815327756253495
40
0.815327756253495
40
0.876885170835663
40
0.876885170835663
40
0.938442585417832
40
0.938442585417832
40
1
40
1
40
1
40
1
41
1
10
34.9143056897837
20
-4.12802913331638
30
0
41
1
10
34.8059516904058
20
-4.1675828458464
30
0
41
1
10
34.6975998336476
20
-4.20639733938035
30
0
41
1
10
34.3681286606209
20
-4.32234036573843
30
0
41
1
10
34.1464362319879
20
-4.39692669154203
30
0
41
1
10
33.7034713984359
20
-4.5381663332052
30
0
41
1
10
33.4821138977404
20
-4.60481171210611
30
0
41
1
10
32.8183681739967
20
-4.79360868479787
30
0
41
1
10
32.3762362169093
20
-4.90464922865672
30
0
41
1
10
31.4928144022828
20
-5.09403372519679
30
0
41
1
10
31.048975075744
20
-5.17358114470954
30
0
41
1
10
30.163088201008
20
-5.29754120111304
30
0
41
1
10
29.7209091384919
20
-5.34345695189052
30
0
41
1
10
29.0588943750791
20
-5.382654384641
30
0
41
1
10
28.8379941511767
20
-5.3910096051892
30
0
41
1
10
28.3955395696511
20
-5.40037507339449
30
0
41
1
10
28.1740109955029
20
-5.40114318511397
30
0
41
1
10
27.5085797084779
20
-5.39100637298176
30
0
41
1
10
27.0669630194689
20
-5.36813426511586
30
0
41
1
10
26.4086679564184
20
-5.30563219242811
30
0
41
1
10
26.1895492149508
20
-5.27953957834205
30
0
41
1
10
25.7513489445534
20
-5.2198976745243
30
0
41
1
10
25.5322971267135
20
-5.18659769463335
30
0
41
1
10
24.8754500225782
20
-5.07447371383094
30
0
41
1
10
24.4377699844076
20
-4.98378942373472
30
0
41
1
10
23.5634205852761
20
-4.7709798403306
30
0
41
1
10
23.1250870505081
20
-4.64918636356873
30
0
41
1
10
22.4648313461281
20
-4.44416412700861
30
0
41
1
10
22.2443586417153
20
-4.37230887939904
30
0
41
1
10
21.8023811064054
20
-4.22035002820689
30
0
41
1
10
21.5805393294044
20
-4.13981233174368
30
0
41
1
10
20.916435983801
20
-3.88949994939782
30
0
41
1
10
20.4740878650377
20
-3.71190616992257
30
0
41
1
10
19.810383063641
20
-3.4288282560313
30
0
41
1
10
19.5891603253065
20
-3.33172427688746
30
0
41
1
10
19.1466326902302
20
-3.13156993094668
30
0
41
1
10
18.925298931888
20
-3.02817800914812
30
0
41
1
10
18.4826705302842
20
-2.81543941352666
30
0
41
1
10
18.2608373424023
20
-2.70667387193163
30
0
41
1
10
17.8178388661143
20
-2.48663521037409
30
0
41
1
10
17.5965730732037
20
-2.37512681482042
30
0
41
1
10
16.9335981499751
20
-2.03576957816884
30
0
41
1
10
16.4925762017071
20
-1.80342043598139
30
0
41
1
10
15.6129369126341
20
-1.32406306557576
30
0
41
1
10
15.1728222325269
20
-1.08007671760686
30
0
41
1
10
14.2901259834752
20
-0.587688196669745
30
0
41
1
10
13.8476185828639
20
-0.339003631956786
30
0
41
1
10
13.4039336546039
20
-0.0875134780500559
30
0
0
SPLINE
5
C9
100
AcDbEntity
8
1
62
256
6
ByLayer
370
18
48
1
60
0
100
AcDbSpline
70
4
71
3
72
8
73
4
40
0
40
0
40
0
40
0
40
1
40
1
40
1
40
1
41
1
10
104.085968891646
20
-5.4133626332287
30
0
41
1
10
104.059180806758
20
-5.43571863232106
30
0
41
1
10
104.036327627584
20
-5.44697360534545
30
0
41
1
10
104.01747070268
20
-5.44695447779472
30
0
0
SPLINE
5
CA
100
AcDbEntity
8
1
62
256
6
ByLayer
370
18
48
1
60
0
100
AcDbSpline
70
4
71
3
72
36
73
32
40
0
40
0
40
0
40
0
40
0.250000000000008
40
0.250000000000008
40
0.375000000000012
40
0.375000000000012
40
0.437500000000009
40
0.437500000000009
40
0.500000000000006
40
0.500000000000006
40
0.62500000000001
40
0.62500000000001
40
0.750000000000015
40
0.750000000000015
40
0.781250000000011
40
0.781250000000011
40
0.812500000000007
40
0.812500000000007
40
0.843750000000004
40
0.843750000000004
40
0.875
40
0.875
40
0.890625000000002
40
0.890625000000002
40
0.906250000000003
40
0.906250000000003
40
0.937500000000002
40
0.937500000000002
40
0.968750000000001
40
0.968750000000001
40
1
40
1
40
1
40
1
41
1
10
98.0620711490014
20
2.74460649297333
30
0
41
1
10
98.5146659612795
20
2.3728469444043
30
0
41
1
10
98.9785390872283
20
2.03290585772894
30
0
41
1
10
99.6952377855593
20
1.58192645546202
30
0
41
1
10
99.9375870235896
20
1.44133222795972
30
0
41
1
10
100.306995843211
20
1.24704358662365
30
0
41
1
10
100.431055241767
20
1.18510811913023
30
0
41
1
10
100.678721077956
20
1.06842649403353
30
0
41
1
10
100.802630206031
20
1.01350326632334
30
0
41
1
10
101.174605650798
20
0.859857689713465
30
0
41
1
10
101.422920505321
20
0.772280851052841
30
0
41
1
10
101.920313178611
20
0.631341787068692
30
0
41
1
10
102.167932722523
20
0.578497475259582
30
0
41
1
10
102.47203217792
20
0.539406285380096
30
0
41
1
10
102.531938125039
20
0.535789308435199
30
0
41
1
10
102.649479139982
20
0.534542933754153
30
0
41
1
10
102.707075888603
20
0.537412245654991
30
0
41
1
10
102.819029101902
20
0.552792278506672
30
0
41
1
10
102.872414405322
20
0.565178242035046
30
0
41
1
10
102.972435821415
20
0.601812240965614
30
0
41
1
10
103.01951991274
20
0.626173610256586
30
0
41
1
10
103.081476996503
20
0.675303444490424
30
0
41
1
10
103.100383360569
20
0.693476845029664
30
0
41
1
10
103.133853585208
20
0.734292475220855
30
0
41
1
10
103.148012529251
20
0.757351400629631
30
0
41
1
10
103.185091863654
20
0.832082690515165
30
0
41
1
10
103.200901344976
20
0.887760711509173
30
0
41
1
10
103.216236589136
20
1.0088100536239
30
0
41
1
10
103.215478995779
20
1.07323301417068
30
0
41
1
10
103.200423776905
20
1.20512811171406
30
0
41
1
10
103.186031688666
20
1.27317793895347
30
0
41
1
10
103.166931514928
20
1.34103397762934
30
0
0
SPLINE
5
CB
100
AcDbEntity
8
1
62
256
6
ByLayer
370
18
48
1
60
0
100
AcDbSpline
70
4
71
3
72
12
73
8
40
0
40
0
40
0
40
0
40
0.25
40
0.25
40
0.5
40
0.5
40
1
40
1
40
1
40
1
41
1
10
104.065169725082
20
-5.49964555074754
30
0
41
1
10
104.070088190179
20
-5.48643008961344
30
0
41
1
10
104.074810368598
20
-5.47292856073716
30
0
41
1
10
104.082569945081
20
-5.44869134072297
30
0
41
1
10
104.085588985212
20
-5.43797437037955
30
0
41
1
10
104.090899331355
20
-5.41449421333789
30
0
41
1
10
104.089686278913
20
-5.41026028729018
30
0
41
1
10
104.085968891646
20
-5.4133626332287
30
0
0
SPLINE
5
CC
100
AcDbEntity
8
1
62
256
6
ByLayer
370
18
48
1
60
0
100
AcDbSpline
70
4
71
3
72
8
73
4
40
0
40
0
40
0
40
0
40
1
40
1
40
1
40
1
41
1
10
104.006747980218
20
-5.65637002526978
30
0
41
1
10
104.026238528419
20
-5.60416694826321
30
0
41
1
10
104.045712445701
20
-5.5519254621293
30
0
41
1
10
104.065169725082
20
-5.49964555074752
30
0
0
SPLINE
5
CD
100
AcDbEntity
8
1
62
256
6
ByLayer
370
18
48
1
60
0
100
AcDbSpline
70
4
71
3
72
10
73
6
40
0
40
0
40
0
40
0
40
0.64020405115999
40
0.64020405115999
40
1
40
1
40
1
40
1
41
1
10
104.006747980218
20
5.65637002526975
30
0
41
1
10
103.754729153472
20
5.67484423647366
30
0
41
1
10
103.502661405256
20
5.68735731042585
30
0
41
1
10
103.108594153555
20
5.69756610880481
30
0
41
1
10
102.966679390481
20
5.69934724692936
30
0
41
1
10
102.824793878016
20
5.69923805974403
30
0
0
SPLINE
5
CE
100
AcDbEntity
8
1
62
256
6
ByLayer
370
18
48
1
60
0
100
AcDbSpline
70
4
71
3
72
66
73
62
40
0
40
0
40
0
40
0
40
0.0109693980420014
40
0.0109693980420014
40
0.0341121969823172
40
0.0341121969823172
40
0.0572549959226329
40
0.0572549959226329
40
0.103540593803264
40
0.103540593803264
40
0.12668339274358
40
0.12668339274358
40
0.149826191683895
40
0.149826191683895
40
0.196111789564525
40
0.196111789564525
40
0.21925458850484
40
0.21925458850484
40
0.242397387445155
40
0.242397387445155
40
0.288682985325786
40
0.288682985325786
40
0.311825784266101
40
0.311825784266101
40
0.334968583206417
40
0.334968583206417
40
0.381254181087048
40
0.381254181087048
40
0.404396980027363
40
0.404396980027363
40
0.427539778967678
40
0.427539778967678
40
0.473825376848308
40
0.473825376848308
40
0.520110974728938
40
0.520110974728938
40
0.566396572609567
40
0.566396572609567
40
0.612682170490197
40
0.612682170490197
40
0.658967768370826
40
0.658967768370826
40
0.705253366251456
40
0.705253366251456
40
0.751538964132086
40
0.751538964132086
40
0.797824562012716
40
0.797824562012716
40
0.844110159893346
40
0.844110159893346
40
0.867252958833661
40
0.867252958833661
40
0.890395757773977
40
0.890395757773977
40
0.936681355654608
40
0.936681355654608
40
0.959824154594925
40
0.959824154594925
40
0.982966953535241
40
0.982966953535241
40
1
40
1
40
1
40
1
41
1
10
75.6301517429547
20
-5.44762845305442
30
0
41
1
10
75.510635924539
20
-5.46784725284499
30
0
41
1
10
75.3910663579736
20
-5.48679091008611
30
0
41
1
10
75.0190021961959
20
-5.54169514772681
30
0
41
1
10
74.766102682256
20
-5.57318983358886
30
0
41
1
10
74.2614631702278
20
-5.62426800067382
30
0
41
1
10
74.0094679518562
20
-5.64389936312148
30
0
41
1
10
73.2537263990553
20
-5.6849851303302
30
0
41
1
10
72.7502196883856
20
-5.68864626669321
30
0
41
1
10
71.9930863245602
20
-5.65831188857356
30
0
41
1
10
71.7401439278743
20
-5.64220414344408
30
0
41
1
10
71.2353402863232
20
-5.59822760700348
30
0
41
1
10
70.983282585973
20
-5.57035366040139
30
0
41
1
10
70.2274174806388
20
-5.46938301135742
30
0
41
1
10
69.7239151422426
20
-5.37895133488689
30
0
41
1
10
68.9668827194553
20
-5.20970092798925
30
0
41
1
10
68.7139351869318
20
-5.14762714023067
30
0
41
1
10
68.2089550458236
20
-5.01298655874254
30
0
41
1
10
67.9568312136947
20
-4.94039722314091
30
0
41
1
10
67.2008626100776
20
-4.70746103369402
30
0
41
1
10
66.6973811828287
20
-4.53198179819117
30
0
41
1
10
65.9403507821347
20
-4.24094870780269
30
0
41
1
10
65.6874241761317
20
-4.13918403349842
30
0
41
1
10
65.1822991455447
20
-3.9272831634087
30
0
41
1
10
64.9301652177291
20
-3.81716004149635
30
0
41
1
10
64.1741608901851
20
-3.47542384794213
30
0
41
1
10
63.6706310265748
20
-3.23252934571704
30
0
41
1
10
62.9136177361538
20
-2.84892394555428
30
0
41
1
10
62.6607562773598
20
-2.71770719448753
30
0
41
1
10
62.1554451959497
20
-2.44973191709477
30
0
41
1
10
61.9032283990811
20
-2.31314302484273
30
0
41
1
10
61.1470319354762
20
-1.8969323254303
30
0
41
1
10
60.6434640528765
20
-1.61093930312302
30
0
41
1
10
59.6342790449516
20
-1.02703795968569
30
0
41
1
10
59.128230259877
20
-0.72840286648912
30
0
41
1
10
58.1196792177331
20
-0.129682875794401
30
0
41
1
10
57.6160806632969
20
0.170829664384286
30
0
41
1
10
56.6070271763577
20
0.768740459332889
30
0
41
1
10
56.1008844494506
20
1.06683950560893
30
0
41
1
10
55.0920996987809
20
1.6495819135101
30
0
41
1
10
54.5884836593694
20
1.93459770808914
30
0
41
1
10
53.5794752965447
20
2.48663187566942
30
0
41
1
10
53.0733718765764
20
2.75451354745218
30
0
41
1
10
52.0642351652706
20
3.26285976777581
30
0
41
1
10
51.5605216475603
20
3.50378647382161
30
0
41
1
10
50.5516436749753
20
3.95493795374969
30
0
41
1
10
50.0455321856848
20
4.16568034761647
30
0
41
1
10
49.0361287462187
20
4.54895977818677
30
0
41
1
10
48.5323928805147
20
4.72182478440752
30
0
41
1
10
47.7757944998248
20
4.95068054598488
30
0
41
1
10
47.5234678020072
20
5.02192301430534
30
0
41
1
10
47.0180523181527
20
5.15384395158281
30
0
41
1
10
46.7650902618815
20
5.21449560037775
30
0
41
1
10
46.0078409839774
20
5.3794022600425
30
0
41
1
10
45.5040625693383
20
5.46689159054014
30
0
41
1
10
44.747463760189
20
5.56337721883827
30
0
41
1
10
44.4951195742346
20
5.58975366475377
30
0
41
1
10
43.9898154855842
20
5.63075748096782
30
0
41
1
10
43.7367732114894
20
5.6453625746301
30
0
41
1
10
43.2984507187957
20
5.66030994754351
30
0
41
1
10
43.1127696607125
20
5.66341636104502
30
0
41
1
10
42.9271562667228
20
5.66330261369356
30
0
0
SPLINE
5
CF
100
AcDbEntity
8
1
62
256
6
ByLayer
370
18
48
1
60
0
100
AcDbSpline
70
4
71
3
72
22
73
18
40
0
40
0
40
0
40
0
40
0.0377810698723067
40
0.0377810698723067
40
0.125255518065733
40
0.125255518065733
40
0.300204414452586
40
0.300204414452586
40
0.387678862646012
40
0.387678862646012
40
0.47515331083944
40
0.47515331083944
40
0.650102207226293
40
0.650102207226293
40
0.825051103613146
40
0.825051103613146
40
1
40
1
40
1
40
1
41
1
10
15.7865293292883
20
-5.40354610371881
30
0
41
1
10
15.6772818836969
20
-5.42228312464542
30
0
41
1
10
15.5680788493206
20
-5.43995169420555
30
0
41
1
10
15.2063736872998
20
-5.49491576898257
30
0
41
1
10
14.9540688097674
20
-5.52751841560723
30
0
41
1
10
14.1971982653782
20
-5.60773744279285
30
0
41
1
10
13.6927104037658
20
-5.63780396741427
30
0
41
1
10
12.9338763120781
20
-5.64723408719365
30
0
41
1
10
12.6806245446753
20
-5.6444110541384
30
0
41
1
10
12.1752046010718
20
-5.62687303311563
30
0
41
1
10
11.9227596883308
20
-5.61216724919231
30
0
41
1
10
11.1655273608957
20
-5.55043116880688
30
0
41
1
10
10.6608628753995
20
-5.48578806926002
30
0
41
1
10
9.64865782574631
20
-5.31041412523808
30
0
41
1
10
9.14324094545083
20
-5.19992365452936
30
0
41
1
10
8.13367784041304
20
-4.93666648925341
30
0
41
1
10
7.62891526723612
20
-4.78388053515275
30
0
41
1
10
7.12270408667041
20
-4.61106548103365
30
0
0
SPLINE
5
D0
100
AcDbEntity
8
1
62
256
6
ByLayer
370
13
48
1
60
0
100
AcDbSpline
70
4
71
3
72
8
73
4
40
0
40
0
40
0
40
0
40
1
40
1
40
1
40
1
41
1
10
7.12497349098049
20
-4.50277197297996
30
0
41
1
10
7.14848988413814
20
-4.49953307548074
30
0
41
1
10
7.17398955099253
20
-4.50251343389286
30
0
41
1
10
7.20026589714723
20
-4.51114230853147
30
0
0
SPLINE
5
D1
100
AcDbEntity
8
1
62
256
6
ByLayer
370
13
48
1
60
0
100
AcDbSpline
70
4
71
3
72
10
73
6
40
0
40
0
40
0
40
0
40
0.5
40
0.5
40
1
40
1
40
1
40
1
41
1
10
7.25022755883688
20
-4.38050301701995
30
0
41
1
10
7.22833634738694
20
-4.37616456320001
30
0
41
1
10
7.20688337385414
20
-4.37421430882856
30
0
41
1
10
7.16485626378628
20
-4.37495843842004
30
0
41
1
10
7.14419837671574
20
-4.37773155814952
30
0
41
1
10
7.12497349098049
20
-4.38290552530214
30
0
0
SPLINE
5
D2
100
AcDbEntity
8
1
62
256
6
ByLayer
370
18
48
1
60
0
100
AcDbSpline
70
4
71
3
72
20
73
16
40
0
40
0
40
0
40
0
40
0.124999999999999
40
0.124999999999999
40
0.249999999999999
40
0.249999999999999
40
0.374999999999998
40
0.374999999999998
40
0.499999999999998
40
0.499999999999998
40
0.749999999999999
40
0.749999999999999
40
0.874999999999999
40
0.874999999999999
40
1
40
1
40
1
40
1
41
1
10
7.25028826612078
20
3.59672196885867
30
0
41
1
10
7.48604408096688
20
3.44853085755193
30
0
41
1
10
7.72746335938783
20
3.29960449152503
30
0
41
1
10
8.21809712763348
20
2.99926204212602
30
0
41
1
10
8.46735508539226
20
2.847857728848
30
0
41
1
10
8.97198970102565
20
2.54216019660458
30
0
41
1
10
9.22800723727337
20
2.38749341415186
30
0
41
1
10
9.74167869699886
20
2.07749120383269
30
0
41
1
10
9.99927797513814
20
1.92219493196819
30
0
41
1
10
10.774312191613
20
1.45553659963463
30
0
41
1
10
11.2938720792065
20
1.14326797340607
30
0
41
1
10
12.079414719491
20
0.67764013325305
30
0
41
1
10
12.3423390652019
20
0.522922959092028
30
0
41
1
10
12.8708646995752
20
0.215724802589193
30
0
41
1
10
13.1364737088695
20
0.0632136259452238
30
0
41
1
10
13.4039336546028
20
-0.0875134780494591
30
0
0
SPLINE
5
D3
100
AcDbEntity
8
1
62
256
6
ByLayer
370
18
48
1
60
0
100
AcDbSpline
70
4
71
3
72
98
73
94
40
0
40
0
40
0
40
0
40
0.0351701200264763
40
0.0351701200264763
40
0.10557422785825
40
0.10557422785825
40
0.123175254816193
40
0.123175254816193
40
0.140776281774137
40
0.140776281774137
40
0.175978335690023
40
0.175978335690023
40
0.246382443521797
40
0.246382443521797
40
0.281584497437684
40
0.281584497437684
40
0.316786551353571
40
0.316786551353571
40
0.387190659185344
40
0.387190659185344
40
0.422392713101231
40
0.422392713101231
40
0.439993740059175
40
0.439993740059175
40
0.448794253538146
40
0.448794253538146
40
0.453194510277632
40
0.455394638647375
40
0.456494702832247
40
0.456494702832247
40
0.456632210855355
40
0.456632210855355
40
0.456769718878464
40
0.456769718878464
40
0.457044734924682
40
0.457044734924682
40
0.457594767017118
40
0.457594767017118
40
0.461995023756605
40
0.461995023756605
40
0.466395280496092
40
0.466395280496092
40
0.475195793975065
40
0.475195793975065
40
0.492796820933013
40
0.492796820933013
40
0.527998874848908
40
0.527998874848908
40
0.598402982680697
40
0.598402982680697
40
0.668807090512487
40
0.668807090512487
40
0.704009144428381
40
0.704009144428381
40
0.712809657907355
40
0.712809657907355
40
0.717209914646842
40
0.717209914646842
40
0.719410043016585
40
0.719410043016585
40
0.720510107201457
40
0.720510107201457
40
0.721060139293893
40
0.721060139293893
40
0.721610171386329
40
0.721610171386329
40
0.721747679409438
40
0.721747679409438
40
0.721885187432546
40
0.721885187432546
40
0.722160203478764
40
0.7227102355712
40
0.723810299756071
40
0.726010428125814
40
0.7304106848653
40
0.7304106848653
40
0.739211198344271
40
0.739211198344271
40
0.774413252260156
40
0.774413252260156
40
0.809615306176041
40
0.809615306176041
40
0.880019414007811
40
0.880019414007811
40
0.897620440965753
40
0.897620440965753
40
0.915221467923696
40
0.915221467923696
40
0.950423521839581
40
0.950423521839581
40
0.985625575755466
40
0.985625575755466
40
1
40
1
40
1
40
1
41
1
10
19.6516062760915
20
3.98195118716086
30
0
41
1
10
19.4859289006057
20
4.00152172093482
30
0
41
1
10
19.3204488659524
20
4.01531974745134
30
0
41
1
10
18.8238503681609
20
4.03691325785903
30
0
41
1
10
18.4929152201495
20
4.02472283564697
30
0
41
1
10
18.0758840609859
20
3.96869158184583
30
0
41
1
10
17.992249196711
20
3.95543320099162
30
0
41
1
10
17.826132618557
20
3.92505458494262
30
0
41
1
10
17.7434500787994
20
3.90791166897682
30
0
41
1
10
17.496337322827
20
3.85071908699419
30
0
41
1
10
17.332845763321
20
3.80489491726735
30
0
41
1
10
16.8444063417321
20
3.64555402204496
30
0
41
1
10
16.5215058243245
20
3.51009585861371
30
0
41
1
10
16.0336842865124
20
3.270226448757
30
0
41
1
10
15.8702448734531
20
3.18399833704879
30
0
41
1
10
15.5463904678483
20
3.00393432468232
30
0
41
1
10
15.3852971756453
20
2.90978838422674
30
0
41
1
10
14.9026528214688
20
2.61774874098754
30
0
41
1
10
14.5816932401459
20
2.41033347117374
30
0
41
1
10
14.0951594802645
20
2.08924881093904
30
0
41
1
10
13.9317669733155
20
1.98028419630791
30
0
41
1
10
13.6867123731978
20
1.81665331915784
30
0
41
1
10
13.6049969319067
20
1.76205444742231
30
0
41
1
10
13.4822967898868
20
1.68019495285984
30
0
41
1
10
13.4413699441167
20
1.6529110901939
30
0
41
1
10
13.3799592827677
20
1.61202376367257
30
0
41
1
10
13.3492508106931
20
1.59159101086956
30
0
41
1
10
13.3134166488475
20
1.56777505867277
30
0
41
1
10
13.2980572954415
20
1.55757332833562
30
0
41
1
10
13.292297291971
20
1.55374833874373
30
0
41
1
10
13.2914783491522
20
1.55340984920758
30
0
41
1
10
13.2910063176213
20
1.55198777454575
30
0
41
1
10
13.2912917652016
20
1.55123095107208
30
0
41
1
10
13.2922221570419
20
1.54926030911193
30
0
41
1
10
13.2931348577099
20
1.54811528059974
30
0
41
1
10
13.2959413644
20
1.54479713159682
30
0
41
1
10
13.2980197790936
20
1.54278766393503
30
0
41
1
10
13.3171274781712
20
1.52509560675421
30
0
41
1
10
13.336323598569
20
1.51181344668387
30
0
41
1
10
13.3741456002633
20
1.48483610518247
30
0
41
1
10
13.3932903760729
20
1.47167192729177
30
0
41
1
10
13.4509833622941
20
1.43256678833077
30
0
41
1
10
13.489815306526
20
1.40703361243149
30
0
41
1
10
13.606708889939
20
1.33104737315949
30
0
41
1
10
13.6851975601651
20
1.28126570488996
30
0
41
1
10
13.9212053428111
20
1.13302251422763
30
0
41
1
10
14.0793598177803
20
1.03573425721041
30
0
41
1
10
14.5546986724898
20
0.746136464636209
30
0
41
1
10
14.8725735294829
20
0.555934599789168
30
0
41
1
10
15.5079675649261
20
0.178959993822957
30
0
41
1
10
15.8260079471224
20
-0.0073891525705392
30
0
41
1
10
16.3004010755354
20
-0.287238834774826
30
0
41
1
10
16.4583380887618
20
-0.380346555116262
30
0
41
1
10
16.6535131223027
20
-0.497931953596975
30
0
41
1
10
16.6924305553643
20
-0.521514222178439
30
0
41
1
10
16.7502706137037
20
-0.557256901631263
30
0
41
1
10
16.7694611885033
20
-0.569222034546243
30
0
41
1
10
16.7978338230862
20
-0.587415384035467
30
0
41
1
10
16.807228326642
20
-0.59351736846773
30
0
41
1
10
16.8210373128326
20
-0.602843399346028
30
0
41
1
10
16.8255966321345
20
-0.605978777301004
30
0
41
1
10
16.8322458754742
20
-0.610798953593417
30
0
41
1
10
16.8344324780857
20
-0.612424074008231
30
0
41
1
10
16.8386433362
20
-0.61577482623872
30
0
41
1
10
16.8409033457538
20
-0.617495861487669
30
0
41
1
10
16.8425442319025
20
-0.61985702576203
30
0
41
1
10
16.8428483519633
20
-0.620413488188348
30
0
41
1
10
16.8421572037228
20
-0.62106909946948
30
0
41
1
10
16.8414494774314
20
-0.621151579089087
30
0
41
1
10
16.8397864539139
20
-0.621701010692249
30
0
41
1
10
16.8364604837378
20
-0.622798415286525
30
0
41
1
10
16.8287004187804
20
-0.625348811581745
30
0
41
1
10
16.8131824161765
20
-0.630408698876266
30
0
41
1
10
16.7821551915715
20
-0.640364373413149
30
0
41
1
10
16.7555758269629
20
-0.648615097190628
30
0
41
1
10
16.7024334348522
20
-0.664737371620021
30
0
41
1
10
16.6670344842227
20
-0.674977610239523
30
0
41
1
10
16.4902127669796
20
-0.723588553938129
30
0
41
1
10
16.3488130752207
20
-0.754279065243395
30
0
41
1
10
16.0679401739128
20
-0.797921358607454
30
0
41
1
10
15.928466938588
20
-0.810939870756215
30
0
41
1
10
15.510073444145
20
-0.823071708729799
30
0
41
1
10
15.2314964463513
20
-0.795384107597329
30
0
41
1
10
14.8706601055048
20
-0.712096548766056
30
0
41
1
10
14.7976603940674
20
-0.692933213000344
30
0
41
1
10
14.6516616556307
20
-0.650144747975418
30
0
41
1
10
14.578498305194
20
-0.6264923039314
30
0
41
1
10
14.3580235059987
20
-0.5490083065649
30
0
41
1
10
14.2097188583414
20
-0.488639691373805
30
0
41
1
10
13.9079542513858
20
-0.352007885666609
30
0
41
1
10
13.7544831718883
20
-0.27574389890512
30
0
41
1
10
13.5332186516014
20
-0.158461385425795
30
0
41
1
10
13.4686007156147
20
-0.123358446130339
30
0
41
1
10
13.4039198673692
20
-0.0875045712358826
30
0
0
SPLINE
5
D4
100
AcDbEntity
8
1
62
256
6
ByLayer
370
13
48
1
60
0
100
AcDbSpline
70
4
71
3
72
12
73
8
40
0
40
0
40
0
40
0
40
0.500000000000016
40
0.500000000000016
40
0.750000000000008
40
0.750000000000008
40
1
40
1
40
1
40
1
41
1
10
7.00000003648441
20
-4.48141458902677
30
0
41
1
10
7.00000003648438
20
-4.46288897341122
30
0
41
1
10
7.01086556806004
20
-4.44354402322983
30
0
41
1
10
7.04233436816168
20
-4.41788375790713
30
0
41
1
10
7.05559005403921
20
-4.40965225120451
30
0
41
1
10
7.08681793603637
20
-4.39489824310226
30
0
41
1
10
7.10462027951996
20
-4.38838315721068
30
0
41
1
10
7.12497349098049
20
-4.38290552530211
30
0
0
SPLINE
5
D5
100
AcDbEntity
8
1
62
256
6
ByLayer
370
13
48
1
60
0
100
AcDbSpline
70
4
71
3
72
16
73
12
40
0
40
0
40
0
40
0
40
0.201288257852368
40
0.201288257852368
40
0.402576515704737
40
0.402576515704737
40
0.805153031409475
40
0.805153031409475
40
0.90579716033566
40
0.90579716033566
40
1
40
1
40
1
40
1
41
1
10
7.20026589714726
20
-4.5111423085315
30
0
41
1
10
7.71005345452809
20
-4.67855115978802
30
0
41
1
10
8.22063889823681
20
-4.82660812407053
30
0
41
1
10
9.23458516821253
20
-5.0788536216246
30
0
41
1
10
9.73889833151773
20
-5.18339125228218
30
0
41
1
10
11.2488889125815
20
-5.43031856810134
30
0
41
1
10
12.2509340408357
20
-5.50604010968047
30
0
41
1
10
13.5142275930319
20
-5.48529155309333
30
0
41
1
10
13.7673985905461
20
-5.47533344089965
30
0
41
1
10
14.2588589907518
20
-5.44468807141789
30
0
41
1
10
14.4975681461857
20
-5.42467039776565
30
0
41
1
10
14.7356682412521
20
-5.39962159197523
30
0
0
SPLINE
5
D6
100
AcDbEntity
8
1
62
256
6
ByLayer
370
18
48
1
60
0
100
AcDbSpline
70
4
71
3
72
20
73
16
40
0
40
0
40
0
40
0
40
0.004202373444042
40
0.004202373444042
40
0.0955593117136397
40
0.0955593117136397
40
0.460987064792035
40
0.460987064792035
40
0.643700941331231
40
0.643700941331231
40
0.735057879600829
40
0.735057879600829
40
0.826414817870428
40
0.826414817870428
40
1
40
1
40
1
40
1
41
1
10
57.9307629642745
20
-0.0164023281895709
30
0
41
1
10
57.9424665654553
20
-0.023176999716469
30
0
41
1
10
57.9541707127517
20
-0.0299520762363272
30
0
41
1
10
58.2203284613679
20
-0.184021494065263
30
0
41
1
10
58.4746533210836
20
-0.331260901399105
30
0
41
1
10
59.7411185522927
20
-1.06219798296388
30
0
41
1
10
60.743831006657
20
-1.63175972829714
30
0
41
1
10
62.2495111288665
20
-2.43477076483259
30
0
41
1
10
62.7519553114853
20
-2.69350021705583
30
0
41
1
10
63.5086414885649
20
-3.06437807373524
30
0
41
1
10
63.7613344427373
20
-3.18519851292294
30
0
41
1
10
64.2680443895241
20
-3.42059408604717
30
0
41
1
10
64.5225807582277
20
-3.53539826286013
30
0
41
1
10
65.259402938791
20
-3.85658524359064
30
0
41
1
10
65.7394075645088
20
-4.05160968525317
30
0
41
1
10
66.2179142662922
20
-4.23009106810289
30
0
0
SPLINE
5
D7
100
AcDbEntity
8
1
62
256
6
ByLayer
370
13
48
1
60
0
100
AcDbSpline
70
4
71
3
72
18
73
14
40
0
40
0
40
0
40
0
40
0.189251687521708
40
0.189251687521708
40
0.549744244602129
40
0.549744244602129
40
0.639867383872235
40
0.639867383872235
40
0.729990523142339
40
0.729990523142339
40
0.91023680168255
40
0.91023680168255
40
1
40
1
40
1
40
1
41
1
10
66.2179142667709
20
-4.23009106828144
30
0
41
1
10
66.7467494745478
20
-4.4273448137906
30
0
41
1
10
67.273755089566
20
-4.60439255288969
30
0
41
1
10
68.8042033166611
20
-5.05555363347762
30
0
41
1
10
69.8077906493943
20
-5.27230306940288
30
0
41
1
10
71.0776156221557
20
-5.43036909743066
30
0
41
1
10
71.3323118679187
20
-5.45630533805257
30
0
41
1
10
71.8391908612004
20
-5.49630095038324
30
0
41
1
10
72.0919159574339
20
-5.51043043799538
30
0
41
1
10
72.8484860222202
20
-5.53537484311425
30
0
41
1
10
73.3508967632584
20
-5.52881804257822
30
0
41
1
10
74.1027021827827
20
-5.48469347687936
30
0
41
1
10
74.3525258012627
20
-5.46436952351272
30
0
41
1
10
74.6024285314337
20
-5.43843482085842
30
0
0
SPLINE
5
D8
100
AcDbEntity
8
1
62
256
6
ByLayer
370
13
48
1
60
0
100
AcDbSpline
70
4
71
3
72
14
73
10
40
0
40
0
40
0
40
0
40
0.25
40
0.25
40
0.5
40
0.5
40
0.75
40
0.75
40
1
40
1
40
1
40
1
41
1
10
7.00000003648441
20
-4.48141458902677
30
0
41
1
10
7.00000003648441
20
-4.4835920260744
30
0
41
1
10
7.00268429117017
20
-4.48578624942127
30
0
41
1
10
7.0134294946541
20
-4.48995617929029
30
0
41
1
10
7.02133714015287
20
-4.49191312121246
30
0
41
1
10
7.0422219957141
20
-4.49557384062885
30
0
41
1
10
7.05546714601184
20
-4.49730457503969
30
0
41
1
10
7.08673523701515
20
-4.50035589387952
30
0
41
1
10
7.1045682614461
20
-4.50167534851863
30
0
41
1
10
7.12497349098049
20
-4.50277197297996
30
0
0
SPLINE
5
D9
100
AcDbEntity
8
1
62
256
6
ByLayer
370
18
48
1
60
0
100
AcDbSpline
70
4
71
3
72
18
73
14
40
0
40
0
40
0
40
0
40
0.249999999999993
40
0.249999999999993
40
0.374999999999995
40
0.374999999999995
40
0.499999999999996
40
0.499999999999996
40
0.749999999999998
40
0.749999999999998
40
0.874999999999999
40
0.874999999999999
40
1
40
1
40
1
40
1
41
1
10
105.140299727887
20
-2.78698965355613
30
0
41
1
10
105.053322087346
20
-3.02091602944799
30
0
41
1
10
104.966235404581
20
-3.25460958479025
30
0
41
1
10
104.8352951281
20
-3.60448748524763
30
0
41
1
10
104.791579529836
20
-3.72103608092607
30
0
41
1
10
104.704053087935
20
-3.95357689646215
30
0
41
1
10
104.660243724238
20
-4.06943913728085
30
0
41
1
10
104.528824245581
20
-4.417102043158
30
0
41
1
10
104.441204392894
20
-4.64881657075154
30
0
41
1
10
104.309560519544
20
-4.99449453853924
30
0
41
1
10
104.265641305233
20
-5.10938506892433
30
0
41
1
10
104.177615333538
20
-5.33750717161138
30
0
41
1
10
104.133565478174
20
-5.45124208463835
30
0
41
1
10
104.089493316404
20
-5.56477968089769
30
0
0
SPLINE
5
DA
100
AcDbEntity
8
1
62
256
6
ByLayer
370
18
48
1
60
0
100
AcDbSpline
70
4
71
3
72
14
73
10
40
0
40
0
40
0
40
0
40
0.25
40
0.25
40
0.5
40
0.5
40
0.75
40
0.75
40
1
40
1
40
1
40
1
41
1
10
7.12270408667041
20
-4.61106548103365
30
0
41
1
10
7.10392649281687
20
-4.60465501239406
30
0
41
1
10
7.08699028848906
20
-4.59696721510852
30
0
41
1
10
7.05668978248389
20
-4.57903896201063
30
0
41
1
10
7.04344422771348
20
-4.5687808723695
30
0
41
1
10
7.02214626820944
20
-4.54674131940209
30
0
41
1
10
7.01380352856222
20
-4.53463576521798
30
0
41
1
10
7.00280397119187
20
-4.50974413660902
30
0
41
1
10
7.00000003648441
20
-4.4969127813294
30
0
41
1
10
7.00000003648441
20
-4.48367034372271
30
0
0
SPLINE
5
DB
100
AcDbEntity
8
1
62
256
6
ByLayer
370
18
48
1
60
0
100
AcDbSpline
70
4
71
3
72
14
73
10
40
0
40
0
40
0
40
0
40
0.25
40
0.25
40
0.5
40
0.5
40
0.75
40
0.75
40
1
40
1
40
1
40
1
41
1
10
103.166931514928
20
1.34103397762936
30
0
41
1
10
103.158952812416
20
1.3693794342569
30
0
41
1
10
103.155119844035
20
1.39890134647706
30
0
41
1
10
103.159663427291
20
1.45881481537603
30
0
41
1
10
103.168439821723
20
1.48904739202834
30
0
41
1
10
103.200392114362
20
1.54173354074686
30
0
41
1
10
103.223931074841
20
1.56502001406093
30
0
41
1
10
103.278435001011
20
1.59674654406703
30
0
41
1
10
103.309036873792
20
1.60645329536723
30
0
41
1
10
103.340143875784
20
1.61211337442987
30
0
0
SPLINE
5
DC
100
AcDbEntity
8
1
62
256
6
ByLayer
370
18
48
1
60
0
100
AcDbSpline
70
4
71
3
72
64
73
60
40
0
40
0
40
0
40
0
40
0.0624999999999972
40
0.0624999999999972
40
0.124999999999994
40
0.124999999999994
40
0.24999999999999
40
0.24999999999999
40
0.374999999999985
40
0.374999999999985
40
0.49999999999998
40
0.49999999999998
40
0.562499999999978
40
0.562499999999978
40
0.624999999999977
40
0.624999999999977
40
0.687499999999975
40
0.687499999999975
40
0.691406249999975
40
0.691406249999975
40
0.695312499999976
40
0.695312499999976
40
0.699218749999976
40
0.699218749999976
40
0.701171874999976
40
0.701171874999976
40
0.703124999999976
40
0.703124999999976
40
0.718749999999977
40
0.718749999999977
40
0.749999999999978
40
0.749999999999978
40
0.765624999999979
40
0.765624999999979
40
0.781249999999981
40
0.781249999999981
40
0.796874999999982
40
0.796874999999982
40
0.804687499999983
40
0.804687499999983
40
0.812499999999983
40
0.812499999999983
40
0.828124999999985
40
0.828124999999985
40
0.843749999999986
40
0.843749999999986
40
0.859374999999988
40
0.859374999999988
40
0.874999999999989
40
0.874999999999989
40
0.890624999999991
40
0.890624999999991
40
0.906249999999993
40
0.906249999999993
40
0.937499999999995
40
0.937499999999995
40
0.968749999999998
40
0.968749999999998
40
1
40
1
40
1
40
1
41
1
10
19.6516013874438
20
3.98191605669214
30
0
41
1
10
19.287624895268
20
4.13537018100612
30
0
41
1
10
18.9215426887478
20
4.27668717661933
30
0
41
1
10
18.1840944977947
20
4.53609240941526
30
0
41
1
10
17.8123868914558
20
4.65425091208772
30
0
41
1
10
16.6892464048559
20
4.97418077319733
30
0
41
1
10
15.9359549926132
20
5.13943722375231
30
0
41
1
10
14.4086731095349
20
5.38903889704739
30
0
41
1
10
13.6345812372187
20
5.47337145738209
30
0
41
1
10
12.0557970509577
20
5.58538659287572
30
0
41
1
10
11.2511088075351
20
5.61336103949623
30
0
41
1
10
10.0164879481542
20
5.63483176765843
30
0
41
1
10
9.60001925965102
20
5.63857348955031
30
0
41
1
10
8.7642055919919
20
5.64245634872154
30
0
41
1
10
8.34369055273501
20
5.64262491172761
30
0
41
1
10
7.50002949205697
20
5.64195651447639
30
0
41
1
10
7.07703863765607
20
5.64112852240413
30
0
41
1
10
6.62631609041966
20
5.64050340497471
30
0
41
1
10
6.599796621846
20
5.64046737271701
30
0
41
1
10
6.54675903166265
20
5.64039700512529
30
0
41
1
10
6.52023771344943
20
5.64034554912342
30
0
41
1
10
6.46721762847719
20
5.6403859429478
30
0
41
1
10
6.4406849648077
20
5.64047088060849
30
0
41
1
10
6.40418173111337
20
5.64069162897724
30
0
41
1
10
6.39272378063527
20
5.64078955271927
30
0
41
1
10
6.36991765592884
20
5.64096031401485
30
0
41
1
10
6.35854014426894
20
5.64103352566931
30
0
41
1
10
6.25640439792443
20
5.64157859756938
30
0
41
1
10
6.16740747669076
20
5.64126162852915
30
0
41
1
10
5.90680475745876
20
5.63706051679367
30
0
41
1
10
5.74383342943943
20
5.63008522161283
30
0
41
1
10
5.52328143985662
20
5.60866303850983
30
0
41
1
10
5.45374687928256
20
5.59966960084623
30
0
41
1
10
5.32473974433535
20
5.57659066715797
30
0
41
1
10
5.26485880179587
20
5.5623236248093
30
0
41
1
10
5.16207271367603
20
5.52795738316144
30
0
41
1
10
5.11870867648213
20
5.50784211842912
30
0
41
1
10
5.06760595954995
20
5.4721867483299
30
0
41
1
10
5.05285007151386
20
5.45930116757808
30
0
41
1
10
5.02884901689225
20
5.43205843940768
30
0
41
1
10
5.01952875620719
20
5.41768026781637
30
0
41
1
10
4.99946051797585
20
5.37222405991616
30
0
41
1
10
4.99659626064943
20
5.33882624176442
30
0
41
1
10
5.01133619600967
20
5.26552914868276
30
0
41
1
10
5.02877521717375
20
5.22654793102265
30
0
41
1
10
5.08005926441268
20
5.14503421977025
30
0
41
1
10
5.11426045773715
20
5.1020572922387
30
0
41
1
10
5.19487206673909
20
5.01436337717809
30
0
41
1
10
5.24111444130631
20
4.9697036284303
30
0
41
1
10
5.34281338979412
20
4.87887041833542
30
0
41
1
10
5.3982869507272
20
4.83269644589694
30
0
41
1
10
5.51671601501533
20
4.73890856950018
30
0
41
1
10
5.57990239307776
20
4.69113972071881
30
0
41
1
10
5.77603985695461
20
4.5477508710502
30
0
41
1
10
5.91604408272889
20
4.45151279573966
30
0
41
1
10
6.20831073334853
20
4.25716790423633
30
0
41
1
10
6.3606551814832
20
4.15906892636809
30
0
41
1
10
6.67443128201
20
3.96068551923824
30
0
41
1
10
6.83633095884778
20
3.86013798055347
30
0
41
1
10
7.00000003647221
20
3.75948930453916
30
0
0
SPLINE
5
DD
100
AcDbEntity
8
1
62
256
6
ByLayer
370
18
48
1
60
0
100
AcDbSpline
70
4
71
3
72
18
73
14
40
0
40
0
40
0
40
0
40
0.250000000000007
40
0.250000000000007
40
0.375000000000006
40
0.375000000000006
40
0.500000000000005
40
0.500000000000005
40
0.750000000000003
40
0.750000000000003
40
0.875000000000001
40
0.875000000000001
40
1
40
1
40
1
40
1
41
1
10
105.140299727887
20
2.78698965355628
30
0
41
1
10
105.053322087346
20
3.0209160294481
30
0
41
1
10
104.966235404581
20
3.25460958479033
30
0
41
1
10
104.835295128101
20
3.60448748524772
30
0
41
1
10
104.791579529836
20
3.72103608092613
30
0
41
1
10
104.704053087935
20
3.95357689646221
30
0
41
1
10
104.660243724238
20
4.06943913728091
30
0
41
1
10
104.528824245582
20
4.41710204315805
30
0
41
1
10
104.441204392894
20
4.64881657075154
30
0
41
1
10
104.309560519544
20
4.99449453853924
30
0
41
1
10
104.265641305233
20
5.10938506892438
30
0
41
1
10
104.177615333538
20
5.33750717161129
30
0
41
1
10
104.133565478174
20
5.4512420846383
30
0
41
1
10
104.089493316404
20
5.56477968089763
30
0
0
SPLINE
5
DE
100
AcDbEntity
8
1
62
256
6
ByLayer
370
18
48
1
60
0
100
AcDbSpline
70
4
71
3
72
22
73
18
40
0
40
0
40
0
40
0
40
0.0055387371871866
40
0.0055387371871866
40
0.769481000848922
40
0.769481000848922
40
0.817227392327779
40
0.817227392327779
40
0.864973783806637
40
0.864973783806637
40
0.912720175285494
40
0.912720175285494
40
0.936593371024929
40
0.936593371024929
40
0.960466566764364
40
0.960466566764364
40
1
40
1
40
1
40
1
41
1
10
7.93103488653739
20
-5.64229790235885
30
0
41
1
10
7.92797666796832
20
-5.6422955326905
30
0
41
1
10
7.9249183797572
20
-5.6422931361102
30
0
41
1
10
7.50002949205771
20
-5.64195651447642
30
0
41
1
10
7.0770386376569
20
-5.6411285224041
30
0
41
1
10
6.62631609042052
20
-5.64050340497468
30
0
41
1
10
6.59979662184679
20
-5.64046737271701
30
0
41
1
10
6.54675903166347
20
-5.64039700512529
30
0
41
1
10
6.52023771345023
20
-5.64034554912342
30
0
41
1
10
6.46721762847798
20
-5.6403859429478
30
0
41
1
10
6.44068496480844
20
-5.64047088060849
30
0
41
1
10
6.40418173111408
20
-5.64069162897724
30
0
41
1
10
6.39272378063595
20
-5.64078955271927
30
0
41
1
10
6.36991765592953
20
-5.64096031401482
30
0
41
1
10
6.3585401442696
20
-5.64103352566931
30
0
41
1
10
6.32839902587313
20
-5.64119438097472
30
0
41
1
10
6.30968303871919
20
-5.64126033123657
30
0
41
1
10
6.2910467727198
20
-5.6412894395144
30
0
0
SPLINE
5
DF
100
AcDbEntity
8
1
62
256
6
ByLayer
370
18
48
1
60
0
100
AcDbSpline
70
4
71
3
72
16
73
12
40
0
40
0
40
0
40
0
40
0.0756984986395166
40
0.0756984986395166
40
0.326388644287886
40
0.326388644287886
40
0.827768935584625
40
0.827768935584625
40
0.953114008408815
40
0.953114008408815
40
1
40
1
40
1
40
1
41
1
10
103.025794497935
20
-5.44650972983794
30
0
41
1
10
102.873444128532
20
-5.44641963309613
30
0
41
1
10
102.721310697019
20
-5.44423791283032
30
0
41
1
10
102.066246414701
20
-5.42589616250302
30
0
41
1
10
101.565070371992
20
-5.38910363121491
30
0
41
1
10
100.062815349832
20
-5.21289803836598
30
0
41
1
10
99.0629268763496
20
-5.00737541453194
30
0
41
1
10
97.7999792662034
20
-4.64730215973896
30
0
41
1
10
97.5467250579341
20
-4.57013329457402
30
0
41
1
10
97.1975481356458
20
-4.45715227009413
30
0
41
1
10
97.1025863156283
20
-4.42575655873111
30
0
41
1
10
97.007723435901
20
-4.39374234909846
30
0
0
SPLINE
5
E0
100
AcDbEntity
8
1
62
256
6
ByLayer
370
13
48
1
60
0
100
AcDbSpline
70
4
71
3
72
22
73
18
40
0
40
0
40
0
40
0
40
0.0361358548857729
40
0.0361358548857729
40
0.151596074184054
40
0.151596074184054
40
0.382516512780617
40
0.382516512780617
40
0.497976732078899
40
0.497976732078899
40
0.61343695137718
40
0.61343695137718
40
0.844357389973738
40
0.844357389973738
40
0.95981760927202
40
0.95981760927202
40
1
40
1
40
1
40
1
41
1
10
97.0077234358664
20
-4.39374234908678
30
0
41
1
10
96.8489797656701
20
-4.34016972773946
30
0
41
1
10
96.6905131552029
20
-4.28486514297495
30
0
41
1
10
96.0269848428908
20
-4.04599398346809
30
0
41
1
10
95.5243526632188
20
-3.84721960989899
30
0
41
1
10
94.0196081294197
20
-3.20728565179908
30
0
41
1
10
93.0207332831724
20
-2.72248008637405
30
0
41
1
10
91.5113225791348
20
-1.93405845093156
30
0
41
1
10
91.0060819886235
20
-1.66099359769331
30
0
41
1
10
89.9894448129888
20
-1.09988437666402
30
0
41
1
10
89.4843527006632
20
-0.81542135487345
30
0
41
1
10
87.974481643495
20
0.042144206643286
30
0
41
1
10
86.9744403602684
20
0.618181424244398
30
0
41
1
10
85.4667247989641
20
1.45763745637501
30
0
41
1
10
84.9627404023306
20
1.73310164029405
30
0
41
1
10
84.2795862548226
20
2.09525517636624
30
0
41
1
10
84.1026412838655
20
2.1880194700922
30
0
41
1
10
83.925881240522
20
2.27949197371888
30
0
0
SPLINE
5
E1
100
AcDbEntity
8
1
62
256
6
ByLayer
370
18
48
1
60
0
100
AcDbSpline
70
4
71
3
72
12
73
8
40
0
40
0
40
0
40
0
40
0.453113623269318
40
0.453113623269318
40
0.923148409752075
40
0.923148409752075
40
1
40
1
40
1
40
1
41
1
10
43.4788599948431
20
-5.40701259455
30
0
41
1
10
42.510891564074
20
-5.42671365375588
30
0
41
1
10
41.5416265711678
20
-5.36274926434228
30
0
41
1
10
39.5422061955944
20
-5.05962508032633
30
0
41
1
10
38.5370405996874
20
-4.81844972777674
30
0
41
1
10
37.3686154293934
20
-4.4508424512187
30
0
41
1
10
37.2044451949975
20
-4.39718932916827
30
0
41
1
10
37.0402448832735
20
-4.34159736968715
30
0
0
SPLINE
5
E2
100
AcDbEntity
8
1
62
256
6
ByLayer
370
13
48
1
60
0
100
AcDbSpline
70
4
71
3
72
24
73
20
40
0
40
0
40
0
40
0
40
0.193746218808309
40
0.193746218808309
40
0.251650182810681
40
0.251650182810681
40
0.309554146813052
40
0.309554146813052
40
0.425362074817796
40
0.425362074817796
40
0.656977930827286
40
0.656977930827286
40
0.714881894829658
40
0.714881894829658
40
0.77278585883203
40
0.77278585883203
40
0.888593786836774
40
0.888593786836774
40
1
40
1
40
1
40
1
41
1
10
37.0402448839634
20
-4.34159736992075
30
0
41
1
10
36.2001737391014
20
-4.05718133835802
30
0
41
1
10
35.3593153247267
20
-3.72201653030396
30
0
41
1
10
34.2568070898826
20
-3.23050995991448
30
0
41
1
10
34.0019139961759
20
-3.11327487714732
30
0
41
1
10
33.4940809980746
20
-2.87338546515957
30
0
41
1
10
33.2409000585903
20
-2.75062215652545
30
0
41
1
10
32.4830515436547
20
-2.37476857834065
30
0
41
1
10
31.9799329575386
20
-2.11435841470538
30
0
41
1
10
30.4724613281714
20
-1.31128177204073
30
0
41
1
10
29.4702032155947
20
-0.746416736327888
30
0
41
1
10
28.2054550357356
20
-0.0300623095283754
30
0
41
1
10
27.9519102047047
20
0.113725461428629
30
0
41
1
10
27.4432238275706
20
0.401624154515446
30
0
41
1
10
27.1887930830305
20
0.545331860688179
30
0
41
1
10
26.4286768831419
20
0.972376221143776
30
0
41
1
10
25.924463304238
20
1.25246906853769
30
0
41
1
10
24.9375505281381
20
1.7886290362033
30
0
41
1
10
24.4546382937821
20
2.04501258143199
30
0
41
1
10
23.9713867357742
20
2.2926855792353
30
0
0
SPLINE
5
E3
100
AcDbEntity
8
1
62
256
6
ByLayer
370
18
48
1
60
0
100
AcDbSpline
70
4
71
3
72
32
73
28
40
0
40
0
40
0
40
0
40
0.125
40
0.125
40
0.1875
40
0.1875
40
0.25
40
0.25
40
0.375
40
0.375
40
0.4375
40
0.4375
40
0.5
40
0.5
40
0.625
40
0.625
40
0.65625
40
0.65625
40
0.6875
40
0.6875
40
0.75
40
0.75
40
0.875
40
0.875
40
0.9375
40
0.9375
40
1
40
1
40
1
40
1
41
1
10
7.00000003648441
20
3.75933770118635
30
0
41
1
10
7.00000003648441
20
3.47013433064123
30
0
41
1
10
7.00000003648441
20
3.15829285838257
30
0
41
1
10
7.00000003648438
20
2.65708493795387
30
0
41
1
10
7.00000003648441
20
2.48378155556227
30
0
41
1
10
7.00000003648444
20
2.12822356318631
30
0
41
1
10
7.00000003648441
20
1.94767602736186
30
0
41
1
10
7.00000003648441
20
1.3979669834261
30
0
41
1
10
7.00000003648441
20
1.02038251432273
30
0
41
1
10
7.00000003648438
20
0.438743807902171
30
0
41
1
10
7.00000003648444
20
0.244518663992665
30
0
41
1
10
7.00000003648438
20
-0.144617107155625
30
0
41
1
10
7.00000003648441
20
-0.340282832228496
30
0
41
1
10
7.00000003648444
20
-0.919321835988001
30
0
41
1
10
7.00000003648441
20
-1.29673705931802
30
0
41
1
10
7.00000003648441
20
-1.75787670587366
30
0
41
1
10
7.00000003648438
20
-1.84956790008587
30
0
41
1
10
7.00000003648438
20
-2.03185867924486
30
0
41
1
10
7.00000003648441
20
-2.1227209508543
30
0
41
1
10
7.00000003648441
20
-2.39131186593818
30
0
41
1
10
7.00000003648444
20
-2.56501343557596
30
0
41
1
10
7.00000003648441
20
-3.07053356155083
30
0
41
1
10
7.00000003648441
20
-3.38693181600632
30
0
41
1
10
7.00000003648441
20
-3.82955796846431
30
0
41
1
10
7.00000003648441
20
-3.97053704079821
30
0
41
1
10
7.00000003648441
20
-4.23702354574601
30
0
41
1
10
7.00000003648444
20
-4.36293671993624
30
0
41
1
10
7.00000003648441
20
-4.48141458902677
30
0
0
SPLINE
5
E4
100
AcDbEntity
8
1
62
256
6
ByLayer
370
18
48
1
60
0
100
AcDbSpline
70
4
71
3
72
60
73
56
40
0
40
0
40
0
40
0
40
0.0485837541455549
40
0.0485837541455549
40
0.0971675082911099
40
0.0971675082911099
40
0.145751262436665
40
0.145751262436665
40
0.19433501658222
40
0.19433501658222
40
0.242918770727775
40
0.242918770727775
40
0.29150252487333
40
0.29150252487333
40
0.340086279018885
40
0.340086279018885
40
0.364378156091661
40
0.364378156091661
40
0.388670033164437
40
0.388670033164437
40
0.437253787309991
40
0.437253787309991
40
0.461545664382766
40
0.461545664382766
40
0.485837541455541
40
0.485837541455541
40
0.534421295601093
40
0.534421295601093
40
0.558713172673867
40
0.558713172673867
40
0.583005049746642
40
0.583005049746642
40
0.631588803892193
40
0.631588803892193
40
0.655880680964968
40
0.655880680964968
40
0.680172558037744
40
0.680172558037744
40
0.728756312183295
40
0.728756312183295
40
0.75304818925607
40
0.75304818925607
40
0.777340066328844
40
0.777340066328844
40
0.825923820474394
40
0.825923820474394
40
0.850215697547169
40
0.850215697547169
40
0.874507574619944
40
0.874507574619944
40
0.923091328765495
40
0.923091328765495
40
0.971675082911046
40
0.971675082911046
40
1
40
1
40
1
40
1
41
1
10
104.006747980218
20
-5.65637002526978
30
0
41
1
10
103.502617473098
20
-5.69332525430218
30
0
41
1
10
102.998452783598
20
-5.70641989919869
30
0
41
1
10
101.988427459748
20
-5.68466911734472
30
0
41
1
10
101.485085932713
20
-5.64987142522961
30
0
41
1
10
100.478397918239
20
-5.53350230439639
30
0
41
1
10
99.9749777307098
20
-5.45196347558763
30
0
41
1
10
98.9648376237828
20
-5.2431607168688
30
0
41
1
10
98.4612256541828
20
-5.1165797302867
30
0
41
1
10
97.4543786520127
20
-4.8219761436246
30
0
41
1
10
96.9509968639019
20
-4.65395401881355
30
0
41
1
10
95.9411234584024
20
-4.27907958891325
30
0
41
1
10
95.4371861088354
20
-4.07313550505802
30
0
41
1
10
94.4302510226287
20
-3.62969286188661
30
0
41
1
10
93.9268699117018
20
-3.39202721738653
30
0
41
1
10
93.1695705959055
20
-3.01456267359848
30
0
41
1
10
92.9169605872888
20
-2.88535706661898
30
0
41
1
10
92.4127754790477
20
-2.6217256446196
30
0
41
1
10
92.160966200806
20
-2.48713934576981
30
0
41
1
10
91.4057089158783
20
-2.07611444919644
30
0
41
1
10
90.9023967730046
20
-1.79246512997318
30
0
41
1
10
90.1452326233167
20
-1.35639643772322
30
0
41
1
10
89.8924864701188
20
-1.20928740955546
30
0
41
1
10
89.3881573782583
20
-0.91347403488416
30
0
41
1
10
89.1363106051909
20
-0.764572531259859
30
0
41
1
10
88.3810108385468
20
-0.31607703832114
30
0
41
1
10
87.8777176609257
20
-0.0148277506738168
30
0
41
1
10
87.1206537311991
20
0.436252354736268
30
0
41
1
10
86.8678147955787
20
0.586558459113462
30
0
41
1
10
86.3633349035714
20
0.885035621680004
30
0
41
1
10
86.1114337095319
20
1.03337079630961
30
0
41
1
10
85.3559987182352
20
1.47443920202315
30
0
41
1
10
84.852698539335
20
1.76318254726667
30
0
41
1
10
84.0959241860763
20
2.18457178091097
30
0
41
1
10
83.8431064287498
20
2.32315537681592
30
0
41
1
10
83.3384609820534
20
2.59448430570376
30
0
41
1
10
83.0864400392244
20
2.72734955892611
30
0
41
1
10
82.330671734791
20
3.11669992006114
30
0
41
1
10
81.8273503458283
20
3.36413269655108
30
0
41
1
10
81.0706991208515
20
3.71355378307342
30
0
41
1
10
80.8178782250056
20
3.82645815264959
30
0
41
1
10
80.3130604776167
20
4.04355653720066
30
0
41
1
10
80.0609945568983
20
4.14781284497823
30
0
41
1
10
79.3051735070023
20
4.44702438903443
30
0
41
1
10
78.8018667302185
20
4.62850324747504
30
0
41
1
10
78.0452415288903
20
4.87105559330951
30
0
41
1
10
77.7924393474244
20
4.94700596579858
30
0
41
1
10
77.2874675009173
20
5.0882104409321
30
0
41
1
10
77.0353673693886
20
5.15344199668053
30
0
41
1
10
76.279482057938
20
5.33258236414125
30
0
41
1
10
75.7761200824896
20
5.42995925070659
30
0
41
1
10
74.7674167366001
20
5.57883134381891
30
0
41
1
10
74.2615472089439
20
5.63019656532833
30
0
41
1
10
73.4636469096546
20
5.67357199014293
30
0
41
1
10
73.1700079941048
20
5.68146820143352
30
0
41
1
10
72.8762805786448
20
5.68127383641377
30
0
0
SPLINE
5
E5
100
AcDbEntity
8
1
62
256
6
ByLayer
370
18
48
1
60
0
100
AcDbSpline
70
4
71
3
72
58
73
54
40
0
40
0
40
0
40
0
40
0.0214806115624013
40
0.0214806115624013
40
0.0446277127143949
40
0.0446277127143949
40
0.0677748138663882
40
0.0677748138663882
40
0.114069016170376
40
0.114069016170376
40
0.160363218474363
40
0.160363218474363
40
0.252951623082337
40
0.252951623082337
40
0.345540027690311
40
0.345540027690311
40
0.438128432298286
40
0.438128432298286
40
0.484422634602273
40
0.484422634602273
40
0.530716836906261
40
0.530716836906261
40
0.553863938058255
40
0.553863938058255
40
0.577011039210249
40
0.577011039210249
40
0.623305241514237
40
0.623305241514237
40
0.646452342666232
40
0.646452342666232
40
0.669599443818227
40
0.669599443818227
40
0.715893646122216
40
0.715893646122216
40
0.739040747274211
40
0.739040747274211
40
0.762187848426204
40
0.762187848426204
40
0.808482050730192
40
0.808482050730192
40
0.831629151882186
40
0.831629151882186
40
0.85477625303418
40
0.85477625303418
40
0.901070455338169
40
0.901070455338169
40
0.924217556490163
40
0.924217556490163
40
0.947364657642157
40
0.947364657642157
40
0.993658859946146
40
0.993658859946146
40
1
40
1
40
1
40
1
41
1
10
45.7018346326915
20
-5.42673805760097
30
0
41
1
10
45.4678260315685
20
-5.46650294138848
30
0
41
1
10
45.2339225676978
20
-5.50133714746701
30
0
41
1
10
44.7478391022874
20
-5.56333384895299
30
0
41
1
10
44.495659780059
20
-5.58969753068627
30
0
41
1
10
43.9908527035582
20
-5.63068557375257
30
0
41
1
10
43.7379498616281
20
-5.64530808698197
30
0
41
1
10
42.9796818595089
20
-5.67120903164039
30
0
41
1
10
42.4756203705936
20
-5.66455852568555
30
0
41
1
10
41.4670374775257
20
-5.60403274044708
30
0
41
1
10
40.9623238058131
20
-5.55004825166549
30
0
41
1
10
39.4452236403154
20
-5.31821243383249
30
0
41
1
10
38.4396733094916
20
-5.07235297165491
30
0
41
1
10
36.416036165616
20
-4.41593484515965
30
0
41
1
10
35.4107469790071
20
-4.00994046582545
30
0
41
1
10
33.3869746673584
20
-3.07240981143491
30
0
41
1
10
32.3813002967361
20
-2.54664034820311
30
0
41
1
10
30.8637141394602
20
-1.70338461954248
30
0
41
1
10
30.3586925215709
20
-1.41435212664803
30
0
41
1
10
29.3500150926727
20
-0.827515431454373
30
0
41
1
10
28.8457731933716
20
-0.529634432625414
30
0
41
1
10
28.0872010181392
20
-0.0800407306700777
30
0
41
1
10
27.8341125539796
20
0.0701776551662761
30
0
41
1
10
27.3289994491264
20
0.369487333315107
30
0
41
1
10
27.0767081679115
20
0.51873879920737
30
0
41
1
10
26.3200156043619
20
0.964253676529921
30
0
41
1
10
25.8157672691733
20
1.25823123963082
30
0
41
1
10
25.0573759843842
20
1.69072219024346
30
0
41
1
10
24.8041935922307
20
1.83345228485538
30
0
41
1
10
24.2989296782396
20
2.11402940191078
30
0
41
1
10
24.0465758899169
20
2.25205603046263
30
0
41
1
10
23.2897748760993
20
2.6584875677803
30
0
41
1
10
22.7855902980141
20
2.91924623405805
30
0
41
1
10
22.0273314205613
20
3.29129136314131
30
0
41
1
10
21.7740678235299
20
3.41216449825228
30
0
41
1
10
21.2686629119369
20
3.64592843330823
30
0
41
1
10
21.0162923491298
20
3.75897188213367
30
0
41
1
10
20.2593967128486
20
4.08565000020349
30
0
41
1
10
19.7551125983434
20
4.28688047494671
30
0
41
1
10
18.9969044388387
20
4.56121796325124
30
0
41
1
10
18.7436410874092
20
4.64816310047439
30
0
41
1
10
18.2381104287348
20
4.81170533458555
30
0
41
1
10
17.9856952142788
20
4.88839305191439
30
0
41
1
10
17.2287054962228
20
5.10260676484864
30
0
41
1
10
16.7244092457867
20
5.22432418154389
30
0
41
1
10
15.9662647558757
20
5.37363488546507
30
0
41
1
10
15.713012002069
20
5.41790984963353
30
0
41
1
10
15.2073208784699
20
5.49478981051806
30
0
41
1
10
14.9548569222711
20
5.52742386923268
30
0
41
1
10
14.1977559089696
20
5.60770032504343
30
0
41
1
10
13.6934425628511
20
5.63775604806173
30
0
41
1
10
13.1188331831594
20
5.6449408700862
30
0
41
1
10
13.0495727316207
20
5.64535993368028
30
0
41
1
10
12.980290732621
20
5.64533213174158
30
0
0
SPLINE
5
E6
100
AcDbEntity
8
1
62
256
6
ByLayer
370
18
48
1
60
0
100
AcDbSpline
70
4
71
3
72
18
73
14
40
0
40
0
40
0
40
0
40
0.0645722095472191
40
0.0645722095472191
40
0.450077971816481
40
0.450077971816481
40
0.642830852951113
40
0.642830852951113
40
0.739207293518428
40
0.739207293518428
40
0.835583734085743
40
0.835583734085743
40
1
40
1
40
1
40
1
41
1
10
27.9085669440151
20
0.0253030742557883
30
0
41
1
10
28.0787295345316
20
-0.0728851803341968
30
0
41
1
10
28.2485540822296
20
-0.170899339041654
30
0
41
1
10
29.4303332785555
20
-0.852114599192248
30
0
41
1
10
30.4327760445884
20
-1.42553940432467
30
0
41
1
10
31.9407406796934
20
-2.23849042368894
30
0
41
1
10
32.4440375964485
20
-2.50172504785974
30
0
41
1
10
33.2022856854736
20
-2.88102281950211
30
0
41
1
10
33.4556176713724
20
-3.00480839352323
30
0
41
1
10
33.963804245262
20
-3.2464785139579
30
0
41
1
10
34.2188671023739
20
-3.36445553875365
30
0
41
1
10
34.905659905851
20
-3.67203407174293
30
0
41
1
10
35.3365307862682
20
-3.85425654008526
30
0
41
1
10
35.7662586873634
20
-4.02381093883886
30
0
0
SPLINE
5
E7
100
AcDbEntity
8
1
62
256
6
ByLayer
370
13
48
1
60
0
100
AcDbSpline
70
4
71
3
72
14
73
10
40
0
40
0
40
0
40
0
40
0.197623803309237
40
0.197623803309237
40
0.542213284938685
40
0.542213284938685
40
0.886802766568133
40
0.886802766568133
40
1
40
1
40
1
40
1
41
1
10
35.7662586874865
20
-4.02381093888746
30
0
41
1
10
36.3441110349275
20
-4.25180964943817
30
0
41
1
10
36.9198966462333
20
-4.45690194630168
30
0
41
1
10
38.5004817991403
20
-4.95023280162067
30
0
41
1
10
39.5063339684356
20
-5.18679479713521
30
0
41
1
10
41.5434408260984
20
-5.48164961911823
30
0
41
1
10
42.5487422924071
20
-5.53573323037287
30
0
41
1
10
43.8829145324418
20
-5.48588119211081
30
0
41
1
10
44.2127355057741
20
-5.46368311373965
30
0
41
1
10
44.5429115601355
20
-5.43167969047312
30
0
0
SPLINE
5
E8
100
AcDbEntity
8
1
62
256
6
ByLayer
370
18
48
1
60
0
100
AcDbSpline
70
4
71
3
72
16
73
12
40
0
40
0
40
0
40
0
40
0.138517309474753
40
0.138517309474753
40
0.329575543005753
40
0.329575543005753
40
0.520633776536751
40
0.520633776536751
40
0.902750243598751
40
0.902750243598751
40
1
40
1
40
1
40
1
41
1
10
87.8728254113182
20
-0.0119817008276186
30
0
41
1
10
88.2366669395545
20
-0.223258071286295
30
0
41
1
10
88.6008382876558
20
-0.434748337667145
30
0
41
1
10
89.4694443318286
20
-0.936104175318007
30
0
41
1
10
89.9749738708364
20
-1.22498166746251
30
0
41
1
10
90.9923932175888
20
-1.79372330460231
30
0
41
1
10
91.4975177833569
20
-2.06974770990843
30
0
41
1
10
93.0071449678863
20
-2.86568710983377
30
0
41
1
10
94.0061275699381
20
-3.35304144509965
30
0
41
1
10
95.265070176778
20
-3.88858491205642
30
0
41
1
10
95.5207610622293
20
-3.99331878786245
30
0
41
1
10
95.7769693822592
20
-4.09382869912045
30
0
0
SPLINE
5
E9
100
AcDbEntity
8
1
62
256
6
ByLayer
370
13
48
1
60
0
100
AcDbSpline
70
4
71
3
72
20
73
16
40
0
40
0
40
0
40
0
40
0.0894180810607367
40
0.0894180810607367
40
0.180476272954664
40
0.180476272954664
40
0.271534464848592
40
0.271534464848592
40
0.635767232424299
40
0.635767232424299
40
0.817883616212149
40
0.817883616212149
40
0.908941808106074
40
0.908941808106074
40
1
40
1
40
1
40
1
41
1
10
95.776969382707
20
-4.09382869929618
30
0
41
1
10
96.0241115165787
20
-4.1907819674
30
0
41
1
10
96.2717351130703
20
-4.28380492021103
30
0
41
1
10
96.7729129280538
20
-4.46306035666439
30
0
41
1
10
97.0267386253729
20
-4.54922792927044
30
0
41
1
10
97.5351104884042
20
-4.71188462351171
30
0
41
1
10
97.7883686352492
20
-4.78798734171073
30
0
41
1
10
99.0510722338115
20
-5.14195580011969
30
0
41
1
10
100.049902839708
20
-5.34012327247382
30
0
41
1
10
101.549739467355
20
-5.50268341159412
30
0
41
1
10
102.049987656041
20
-5.53448796718578
30
0
41
1
10
102.80311391417
20
-5.54761321512339
30
0
41
1
10
103.054610268211
20
-5.54622332350985
30
0
41
1
10
103.558863164846
20
-5.53174399898063
30
0
41
1
10
103.811675695139
20
-5.5182737228358
30
0
41
1
10
104.065169725082
20
-5.49964555074746
30
0
0
SPLINE
5
EA
100
AcDbEntity
8
1
62
256
6
ByLayer
370
18
48
1
60
0
100
AcDbSpline
70
4
71
3
72
56
73
52
40
0
40
0
40
0
40
0
40
0.0588512248809587
40
0.0588512248809587
40
0.117702449761918
40
0.117702449761918
40
0.176553674642876
40
0.176553674642876
40
0.235404899523835
40
0.235404899523835
40
0.264830511964315
40
0.264830511964315
40
0.294256124404795
40
0.294256124404795
40
0.353107349285755
40
0.353107349285755
40
0.382532961726235
40
0.382532961726235
40
0.411958574166715
40
0.411958574166715
40
0.441384186607195
40
0.441384186607195
40
0.470809799047675
40
0.470809799047675
40
0.500235411488156
40
0.500235411488156
40
0.529661023928636
40
0.529661023928636
40
0.588512248809596
40
0.588512248809596
40
0.617937861250076
40
0.617937861250076
40
0.647363473690557
40
0.647363473690557
40
0.70621469857152
40
0.70621469857152
40
0.735640311012001
40
0.735640311012001
40
0.765065923452482
40
0.765065923452482
40
0.823917148333445
40
0.823917148333445
40
0.853342760773927
40
0.853342760773927
40
0.882768373214409
40
0.882768373214409
40
0.941619598095372
40
0.941619598095372
40
0.971045210535853
40
0.971045210535853
40
1
40
1
40
1
40
1
41
1
10
19.6515941512686
20
3.98195261938753
30
0
41
1
10
20.0929665150812
20
3.7942976992201
30
0
41
1
10
20.5338666627584
20
3.59752887647858
30
0
41
1
10
21.412458596157
20
3.18385078794301
30
0
41
1
10
21.8500774465109
20
2.96680304056858
30
0
41
1
10
22.7211596836154
20
2.5107513000051
30
0
41
1
10
23.1579832434397
20
2.27680958222834
30
0
41
1
10
24.0331915275794
20
1.79608243857757
30
0
41
1
10
24.4713253979445
20
1.54889963003433
30
0
41
1
10
25.1284701198493
20
1.16585205291898
30
0
41
1
10
25.348116672586
20
1.03714448503968
30
0
41
1
10
25.7894751947998
20
0.779242263518
30
0
41
1
10
26.0112936039587
20
0.649519111171543
30
0
41
1
10
26.675585651291
20
0.259775873413929
30
0
41
1
10
27.1173604491684
20
-0.0011451108191523
30
0
41
1
10
27.7773298946857
20
-0.395937313124648
30
0
41
1
10
27.9974247301425
20
-0.52716299727993
30
0
41
1
10
28.4389464203192
20
-0.786981842415514
30
0
41
1
10
28.660135322492
20
-0.91597799211263
30
0
41
1
10
29.1030864435231
20
-1.17262267992328
30
0
41
1
10
29.3247648931322
20
-1.30021843533706
30
0
41
1
10
29.7659434212103
20
-1.55291361622375
30
0
41
1
10
29.98576004098
20
-1.67820019730206
30
0
41
1
10
30.4236883722894
20
-1.92685760480461
30
0
41
1
10
30.6422474003331
20
-2.04946848956243
30
0
41
1
10
31.0799096658598
20
-2.28919284249261
30
0
41
1
10
31.298752416758
20
-2.40674001904611
30
0
41
1
10
31.954907729078
20
-2.7532000317035
30
0
41
1
10
32.3918337432333
20
-2.97600142581433
30
0
41
1
10
33.0453874936645
20
-3.29909210858733
30
0
41
1
10
33.2631956439611
20
-3.40452973810838
30
0
41
1
10
33.7005701447187
20
-3.60838320931683
30
0
41
1
10
33.9198197696824
20
-3.70725137399566
30
0
41
1
10
34.5788192133982
20
-3.9952941643046
30
0
41
1
10
35.0202208566967
20
-4.17615193643744
30
0
41
1
10
35.6825428998719
20
-4.4302055607472
30
0
41
1
10
35.9027182144119
20
-4.51149920831438
30
0
41
1
10
36.3440935554246
20
-4.66516238522379
30
0
41
1
10
36.5649440218934
20
-4.73792163323827
30
0
41
1
10
37.2275190881817
20
-4.94462369680917
30
0
41
1
10
37.6692565386302
20
-5.06708667073292
30
0
41
1
10
38.3307738533491
20
-5.22783361843418
30
0
41
1
10
38.5515112569483
20
-5.27752368664173
30
0
41
1
10
38.9929702783934
20
-5.36712498140716
30
0
41
1
10
39.2134317696234
20
-5.40733060284774
30
0
41
1
10
39.8735923444057
20
-5.51480717516091
30
0
41
1
10
40.3120663793354
20
-5.56903414006624
30
0
41
1
10
40.9662301004832
20
-5.62433471685267
30
0
41
1
10
41.1836743382732
20
-5.63835300144063
30
0
41
1
10
41.6163573646552
20
-5.657080981973
30
0
41
1
10
41.8312452903335
20
-5.66203029362387
30
0
41
1
10
42.0462714165136
20
-5.66271899742299
30
0
0
SPLINE
5
EB
100
AcDbEntity
8
1
62
256
6
ByLayer
370
18
48
1
60
0
100
AcDbSpline
70
4
71
3
72
94
73
90
40
0
40
0
40
0
40
0
40
0.0089798414509756
40
0.0089798414509756
40
0.0267286084010367
40
0.0267286084010367
40
0.0444773753510977
40
0.0444773753510977
40
0.0622261423011588
40
0.0622261423011588
40
0.0799749092512198
40
0.0799749092512198
40
0.0977236762012809
40
0.0977236762012809
40
0.133221210101402
40
0.133221210101402
40
0.150969977051463
40
0.150969977051463
40
0.168718744001523
40
0.168718744001523
40
0.204216277901645
40
0.204216277901645
40
0.221965044851705
40
0.221965044851705
40
0.239713811801766
40
0.239713811801766
40
0.275211345701888
40
0.275211345701888
40
0.292960112651949
40
0.292960112651949
40
0.31070887960201
40
0.31070887960201
40
0.346206413502132
40
0.346206413502132
40
0.363955180452193
40
0.363955180452193
40
0.381703947402254
40
0.381703947402254
40
0.417201481302377
40
0.417201481302377
40
0.434950248252438
40
0.434950248252438
40
0.452699015202499
40
0.452699015202499
40
0.488196549102619
40
0.488196549102619
40
0.523694083002739
40
0.523694083002739
40
0.5414428499528
40
0.5414428499528
40
0.559191616902861
40
0.559191616902861
40
0.594689150802982
40
0.594689150802982
40
0.630186684703102
40
0.630186684703102
40
0.647935451653161
40
0.647935451653161
40
0.665684218603221
40
0.665684218603221
40
0.701181752503341
40
0.701181752503341
40
0.718930519453402
40
0.718930519453402
40
0.736679286403462
40
0.736679286403462
40
0.772176820303582
40
0.772176820303582
40
0.789925587253642
40
0.789925587253642
40
0.807674354203703
40
0.807674354203703
40
0.843171888103822
40
0.843171888103822
40
0.86092065505388
40
0.86092065505388
40
0.878669422003939
40
0.878669422003939
40
0.914166955904056
40
0.914166955904056
40
0.931915722854115
40
0.931915722854115
40
0.949664489804174
40
0.949664489804174
40
0.967413256754234
40
0.967413256754234
40
0.985162023704293
40
0.985162023704293
40
1
40
1
40
1
40
1
41
1
10
64.8302798713445
20
4.12632149566102
30
0
41
1
10
64.9415360701117
20
4.17224704841493
30
0
41
1
10
65.0527309445636
20
4.21736146655419
30
0
41
1
10
65.3839332836075
20
4.34873919628706
30
0
41
1
10
65.6043736153181
20
4.43196994016347
30
0
41
1
10
66.0458338832119
20
4.59104838872031
30
0
41
1
10
66.2668645987866
20
4.66688213861352
30
0
41
1
10
66.7092847573259
20
4.81135793802187
30
0
41
1
10
66.930717321943
20
4.88000018502919
30
0
41
1
10
67.3720315249303
20
5.00959021402826
30
0
41
1
10
67.5918447865038
20
5.07080776403575
30
0
41
1
10
68.0317343919278
20
5.18448349759842
30
0
41
1
10
68.2521074339514
20
5.23677024988729
30
0
41
1
10
68.9138419724493
20
5.38077185806657
30
0
41
1
10
69.3558268225384
20
5.45971261450234
30
0
41
1
10
70.0187834960121
20
5.55263301837624
30
0
41
1
10
70.2390120254486
20
5.57931917569221
30
0
41
1
10
70.6792301022159
20
5.62338733076959
30
0
41
1
10
70.8996817184991
20
5.64071321911865
30
0
41
1
10
71.5613903453587
20
5.67913440847093
30
0
41
1
10
72.0030086852444
20
5.68676722578331
30
0
41
1
10
72.6648694914078
20
5.67088254150156
30
0
41
1
10
72.8853863603533
20
5.66093833347398
30
0
41
1
10
73.3261394321667
20
5.63181247725819
30
0
41
1
10
73.5467767191145
20
5.61277897545276
30
0
41
1
10
74.2088005889701
20
5.54255889719465
30
0
41
1
10
74.6503021781626
20
5.47834564459615
30
0
41
1
10
75.3114790450128
20
5.35514571804345
30
0
41
1
10
75.5315029383316
20
5.30944389393082
30
0
41
1
10
75.9720380146346
20
5.20925820053537
30
0
41
1
10
76.1932371154111
20
5.15513480743226
30
0
41
1
10
76.8547523113495
20
4.98170772051361
30
0
41
1
10
77.2942608247463
20
4.85113261496417
30
0
41
1
10
77.9500557954322
20
4.63206278649847
30
0
41
1
10
78.1679354525907
20
4.55499845841285
30
0
41
1
10
78.6030906556569
20
4.39352232940092
30
0
41
1
10
78.8210210414528
20
4.30981970229408
30
0
41
1
10
79.4754513872036
20
4.04967051145422
30
0
41
1
10
79.912466650283
20
3.86411879231451
30
0
41
1
10
80.5678058221583
20
3.56581646005895
30
0
41
1
10
80.7861451549412
20
3.4629229601997
30
0
41
1
10
81.2230260840519
20
3.250556901582
30
0
41
1
10
81.4422726083153
20
3.14208089420777
30
0
41
1
10
82.1024644833328
20
2.80999514645856
30
0
41
1
10
82.5463649261603
20
2.57880305665634
30
0
41
1
10
83.4283838820162
20
2.0999557017613
30
0
41
1
10
83.866631309883
20
1.85015356880146
30
0
41
1
10
84.5278286086354
20
1.47252308138118
30
0
41
1
10
84.7485722288944
20
1.34571385135717
30
0
41
1
10
85.1904843944344
20
1.08981025821856
30
0
41
1
10
85.4118721186213
20
0.960588193313214
30
0
41
1
10
86.0744085833943
20
0.570114080377863
30
0
41
1
10
86.5129149386944
20
0.304284860091997
30
0
41
1
10
87.3941626421732
20
-0.220553620415529
30
0
41
1
10
87.8357668072827
20
-0.481473465704681
30
0
41
1
10
88.4982720403269
20
-0.872916575318214
30
0
41
1
10
88.7191320103124
20
-1.00345019487051
30
0
41
1
10
89.1591071440387
20
-1.2635356431154
30
0
41
1
10
89.3790987373937
20
-1.39211706767114
30
0
41
1
10
90.0401319253435
20
-1.77189369466436
30
0
41
1
10
90.4814754501076
20
-2.01840717684061
30
0
41
1
10
91.1430780784757
20
-2.38036735531608
30
0
41
1
10
91.3635402003961
20
-2.49971420732783
30
0
41
1
10
91.8042416843331
20
-2.73581859065464
30
0
41
1
10
92.0244639313463
20
-2.85133462730243
30
0
41
1
10
92.6859709906402
20
-3.18832242151353
30
0
41
1
10
93.127291474744
20
-3.40169544566254
30
0
41
1
10
93.7883372621594
20
-3.70682579247841
30
0
41
1
10
94.0085348229758
20
-3.80602277887596
30
0
41
1
10
94.4484917764318
20
-3.99939363502449
30
0
41
1
10
94.6691019899116
20
-4.09303850121006
30
0
41
1
10
95.3307758686192
20
-4.36127064465532
30
0
41
1
10
95.7705559096491
20
-4.52456593341131
30
0
41
1
10
96.4269266219753
20
-4.74836288721639
30
0
41
1
10
96.6451723126468
20
-4.81940312126667
30
0
41
1
10
97.0804150141737
20
-4.95436414496615
30
0
41
1
10
97.2977680844205
20
-5.01794078547192
30
0
41
1
10
97.9514176856767
20
-5.19527028495864
30
0
41
1
10
98.3880931795495
20
-5.29679324064321
30
0
41
1
10
99.0430628201905
20
-5.4250144230142
30
0
41
1
10
99.2613876369821
20
-5.46371175986795
30
0
41
1
10
99.6978969119259
20
-5.53283058041035
30
0
41
1
10
99.9162410756663
20
-5.56313769480056
30
0
41
1
10
100.355207350236
20
-5.6144520550499
30
0
41
1
10
100.575491227844
20
-5.63561972867575
30
0
41
1
10
101.017369647135
20
-5.66905644861777
30
0
41
1
10
101.238623067454
20
-5.68128142004184
30
0
41
1
10
101.643129871496
20
-5.69539506258207
30
0
41
1
10
101.826896252402
20
-5.69866850530607
30
0
41
1
10
102.010193323321
20
-5.69875276478967
30
0
0
SPLINE
5
EC
100
AcDbEntity
8
1
62
256
6
ByLayer
370
18
48
1
60
0
100
AcDbSpline
70
4
71
3
72
16
73
12
40
0
40
0
40
0
40
0
40
0.130339440227815
40
0.130339440227815
40
0.264712572627885
40
0.264712572627885
40
0.399085705027953
40
0.399085705027953
40
0.936578234628245
40
0.936578234628245
40
1
40
1
40
1
40
1
41
1
10
73.0977861634367
20
-5.42849026446672
30
0
41
1
10
72.8539837526102
20
-5.4286484015698
30
0
41
1
10
72.6098826984939
20
-5.42348112605154
30
0
41
1
10
72.1132015739418
20
-5.40212448135836
30
0
41
1
10
71.8605452343708
20
-5.38557100308523
30
0
41
1
10
71.3538296578902
20
-5.34096975631499
30
0
41
1
10
71.0992488041812
20
-5.31285048937775
30
0
41
1
10
69.8304701684557
20
-5.14463356633013
30
0
41
1
10
68.8272334195631
20
-4.92194321387288
30
0
41
1
10
67.7055369156833
20
-4.58710934728339
30
0
41
1
10
67.5871416238973
20
-4.55070335033815
30
0
41
1
10
67.4687187680365
20
-4.51324846060964
30
0
0
SPLINE
5
ED
100
AcDbEntity
8
1
62
256
6
ByLayer
370
13
48
1
60
0
100
AcDbSpline
70
4
71
3
72
26
73
22
40
0
40
0
40
0
40
0
40
0.195134219800274
40
0.195134219800274
40
0.250444098267752
40
0.250444098267752
40
0.305753976735231
40
0.305753976735231
40
0.41637373367019
40
0.41637373367019
40
0.637613247540109
40
0.637613247540109
40
0.692923126007588
40
0.692923126007588
40
0.748233004475068
40
0.748233004475068
40
0.858852761410027
40
0.858852761410027
40
0.969472518344987
40
0.969472518344987
40
1
40
1
40
1
40
1
41
1
10
67.4687187678888
20
-4.51324846056298
30
0
41
1
10
66.5835208638591
20
-4.23327725362734
30
0
41
1
10
65.6967828449591
20
-3.89470022077026
30
0
41
1
10
64.5468134577814
20
-3.39460234818867
30
0
41
1
10
64.2925388002385
20
-3.280320911649
30
0
41
1
10
63.7862010050567
20
-3.04619565594351
30
0
41
1
10
63.5336696971308
20
-2.92614523375784
30
0
41
1
10
62.7773968587979
20
-2.55799504620438
30
0
41
1
10
62.2751364138001
20
-2.30164543491731
30
0
41
1
10
60.7699286218353
20
-1.50732708810051
30
0
41
1
10
59.7673904659754
20
-0.94564479959152
30
0
41
1
10
58.5013998635578
20
-0.22711458079371
30
0
41
1
10
58.2471681017186
20
-0.0824748665262689
30
0
41
1
10
57.7386351108743
20
0.20659432322347
30
0
41
1
10
57.484623125381
20
0.350860437739072
30
0
41
1
10
56.7227680630663
20
0.781830977007502
30
0
41
1
10
56.215233111911
20
1.06693572957138
30
0
41
1
10
55.1977645001623
20
1.62726742519229
30
0
41
1
10
54.6900582100553
20
1.90095948977591
30
0
41
1
10
54.0415518737973
20
2.23826879506751
30
0
41
1
10
53.9012076633238
20
2.31058041003342
30
0
41
1
10
53.7608793248078
20
2.38212759018654
30
0
0
SPLINE
5
EE
100
AcDbEntity
8
1
62
256
6
ByLayer
370
18
48
1
60
0
100
AcDbSpline
70
4
71
3
72
12
73
8
40
0
40
0
40
0
40
0
40
0.487310911634915
40
0.487310911634915
40
0.743655455817458
40
0.743655455817458
40
1
40
1
40
1
40
1
41
1
10
13.1588209992589
20
-5.39247414597529
30
0
41
1
10
12.1994396678338
20
-5.39068053554965
30
0
41
1
10
11.2469844389804
20
-5.30732940357626
30
0
41
1
10
9.78733703590228
20
-5.06032324744666
30
0
41
1
10
9.28321628808305
20
-4.95348426529296
30
0
41
1
10
8.26982910407378
20
-4.69775823034848
30
0
41
1
10
7.75962174033441
20
-4.54851736452397
30
0
41
1
10
7.25022755883714
20
-4.38050301702006
30
0
0
SPLINE
5
EF
100
AcDbEntity
8
1
62
256
6
ByLayer
370
13
48
1
60
0
100
AcDbSpline
70
4
71
3
72
8
73
4
40
0
40
0
40
0
40
0
40
1
40
1
40
1
40
1
41
1
10
7.12270408667044
20
-4.61106548103334
30
0
41
1
10
7.12345361286452
20
-4.57497137906546
30
0
41
1
10
7.12421006620289
20
-4.53887359322715
30
0
41
1
10
7.12497349098049
20
-4.50277197297996
30
0
0
SPLINE
5
F0
100
AcDbEntity
8
SK1
62
256
6
ByLayer
370
18
48
1
60
0
100
AcDbSpline
70
4
71
3
72
10
73
6
40
0
40
0
40
0
40
0
40
0.5
40
0.5
40
1
40
1
40
1
40
1
41
1
10
-43.7
20
-4.74663930355598
30
0
41
1
10
-43.9194066643506
20
-4.38523524704473
30
0
41
1
10
-44.1380460883857
20
-4.02342950243431
30
0
41
1
10
-44.5722311260931
20
-3.29825503343667
30
0
41
1
10
-44.787887135766
20
-2.93493758324567
30
0
41
1
10
-45
20
-2.56981905831469
30
0
0
SPLINE
5
F1
100
AcDbEntity
8
SK1
62
256
6
ByLayer
370
18
48
1
60
0
100
AcDbSpline
70
4
71
3
72
14
73
10
40
0
40
0
40
0
40
0
40
0.499999999999998
40
0.499999999999998
40
0.749999999999999
40
0.749999999999999
40
0.875
40
0.875
40
1
40
1
40
1
40
1
41
1
10
-43.7
20
-5.67638093842732
30
0
41
1
10
-43.6789021434844
20
-5.71113307757042
30
0
41
1
10
-43.6585587767126
20
-5.74364955950472
30
0
41
1
10
-43.6303722414292
20
-5.7863332915046
30
0
41
1
10
-43.6214260646625
20
-5.799433842762
30
0
41
1
10
-43.6102968606991
20
-5.8143555017335
30
0
41
1
10
-43.6069058574071
20
-5.81862135760522
30
0
41
1
10
-43.6017309986994
20
-5.82399228765988
30
0
41
1
10
-43.6
20
-5.82500427656413
30
0
41
1
10
-43.6
20
-5.82299044405724
30
0
0
SPLINE
5
F2
100
AcDbEntity
8
SK1
62
256
6
ByLayer
370
18
48
1
60
0
100
AcDbSpline
70
4
71
3
72
14
73
10
40
0
40
0
40
0
40
0
40
0.125000000000005
40
0.125000000000005
40
0.25000000000001
40
0.25000000000001
40
0.500000000000009
40
0.500000000000009
40
1
40
1
40
1
40
1
41
1
10
-43.6
20
-4.9676281399756
30
0
41
1
10
-43.6
20
-4.96171705251825
30
0
41
1
10
-43.6017220508865
20
-4.95337963184386
30
0
41
1
10
-43.6068954324577
20
-4.93533353753512
30
0
41
1
10
-43.610237321167
20
-4.92583355320309
30
0
41
1
10
-43.6215324998379
20
-4.89653284132359
30
0
41
1
10
-43.6303471072619
20
-4.87692678907237
30
0
41
1
10
-43.658490206513
20
-4.81850179183132
30
0
41
1
10
-43.678793979422
20
-4.78156960926032
30
0
41
1
10
-43.7
20
-4.74663930355598
30
0
0
SPLINE
5
F3
100
AcDbEntity
8
SK1
62
256
6
ByLayer
370
18
48
1
60
0
100
AcDbSpline
70
4
71
3
72
10
73
6
40
0
40
0
40
0
40
0
40
0.5
40
0.5
40
1
40
1
40
1
40
1
41
1
10
-45
20
-3.49956069318597
30
0
41
1
10
-44.7879558642864
20
-3.86456091291157
30
0
41
1
10
-44.5723067007185
20
-4.22786985164646
30
0
41
1
10
-44.1380805577028
20
-4.95311415877421
30
0
41
1
10
-43.919419630997
20
-5.31495552340971
30
0
41
1
10
-43.7
20
-5.67638093842726
30
0
0
LINE
5
76
100
AcDbEntity
8
81
62
256
6
ByLayer
370
18
48
1
60
0
100
AcDbLine
10
106
20
0
30
0
11
111
21
0
31
0
39
0
210
0
220
0
230
1
0
LINE
5
77
100
AcDbEntity
8
1
62
256
6
ByLayer
370
18
48
1
60
0
100
AcDbLine
10
6.267513
20
5.641307
30
0
11
1.013877
21
5.638155
31
0
39
0
210
0
220
0
230
1
0
LINE
5
79
100
AcDbEntity
8
1
62
256
6
ByLayer
370
18
48
1
60
0
100
AcDbLine
10
12.976675
20
5.645332
30
0
11
7.89459
21
5.642283
31
0
39
0
210
0
220
0
230
1
0
LINE
5
7A
100
AcDbEntity
8
1
62
256
6
ByLayer
370
18
48
1
60
0
100
AcDbLine
10
72.877465
20
5.681273
30
0
11
72.046948
21
5.680774
31
0
39
0
210
0
220
0
230
1
0
LINE
5
7B
100
AcDbEntity
8
1
62
256
6
ByLayer
370
18
48
1
60
0
100
AcDbLine
10
102.827607
20
5.699243
30
0
11
102.004564
21
5.698749
31
0
39
0
210
0
220
0
230
1
0
LINE
5
7C
100
AcDbEntity
8
1
62
256
6
ByLayer
370
18
48
1
60
0
100
AcDbLine
10
102.004564
20
-5.698749
30
0
11
102.827098
21
-5.699243
31
0
39
0
210
0
220
0
230
1
0
LINE
5
7D
100
AcDbEntity
8
1
62
256
6
ByLayer
370
18
48
1
60
0
100
AcDbLine
10
72.046948
20
-5.680774
30
0
11
72.877409
21
-5.681273
31
0
39
0
210
0
220
0
230
1
0
LINE
5
7E
100
AcDbEntity
8
1
62
256
6
ByLayer
370
18
48
1
60
0
100
AcDbLine
10
7.89459
20
-5.642283
30
0
11
12.976805
21
-5.645332
31
0
39
0
210
0
220
0
230
1
0
LINE
5
7F
100
AcDbEntity
8
1
62
256
6
ByLayer
370
18
48
1
60
0
100
AcDbLine
10
1.013877
20
-5.638155
30
0
11
6.267513
21
-5.641307
31
0
39
0
210
0
220
0
230
1
0
LINE
5
80
100
AcDbEntity
8
SK1
62
256
6
ByLayer
370
18
48
1
60
0
100
AcDbLine
10
0
20
6
30
0
11
-43.556624
21
6
31
0
39
0
210
0
220
0
230
1
0
LINE
5
82
100
AcDbEntity
8
SK1
62
256
6
ByLayer
370
18
48
1
60
0
100
AcDbLine
10
-43.556624
20
-6
30
0
11
0
21
-6
31
0
39
0
210
0
220
0
230
1
0
LINE
5
83
100
AcDbEntity
8
SK1
62
256
6
ByLayer
370
18
48
1
60
0
100
AcDbLine
10
-43.556624
20
6
30
0
11
-45
21
3.5
31
0
39
0
210
0
220
0
230
1
0
LINE
5
84
100
AcDbEntity
8
SK1
62
256
6
ByLayer
370
18
48
1
60
0
100
AcDbLine
10
-45
20
-3.5
30
0
11
-43.556624
21
-6
31
0
39
0
210
0
220
0
230
1
0
LINE
5
85
100
AcDbEntity
8
1
62
256
6
ByLayer
370
18
48
1
60
0
100
AcDbLine
10
42.926911
20
5.663302
30
0
11
42.087927
21
5.662799
31
0
39
0
210
0
220
0
230
1
0
LINE
5
86
100
AcDbEntity
8
1
62
256
6
ByLayer
370
18
48
1
60
0
100
AcDbLine
10
42.087927
20
-5.662799
30
0
11
42.927169
21
-5.663303
31
0
39
0
210
0
220
0
230
1
0
LINE
5
87
100
AcDbEntity
8
SK4
62
256
6
ByLayer
370
18
48
0.05
60
0
100
AcDbLine
10
111
20
0
30
0
11
-50
21
0
31
0
39
0
210
0
220
0
230
1
0
LINE
5
89
100
AcDbEntity
8
4
62
256
6
ByLayer
370
18
48
0.05
60
0
100
AcDbLine
10
106
20
0
30
0
11
0
21
0
31
0
39
0
210
0
220
0
230
1
0
LINE
5
8B
100
AcDbEntity
8
80
62
256
6
ByLayer
370
18
48
1
60
0
100
AcDbLine
10
0
20
0
30
0
11
-5
21
0
31
0
39
0
210
0
220
0
230
1
0
LINE
5
8C
100
AcDbEntity
8
1
62
256
6
ByLayer
370
13
48
1
60
0
100
AcDbLine
10
104.447461
20
1.031727
30
0
11
105.910116
21
0.307535
31
0
39
0
210
0
220
0
230
1
0
LINE
5
8D
100
AcDbEntity
8
1
62
256
6
ByLayer
370
13
48
1
60
0
100
AcDbLine
10
104.278003
20
0.685303
30
0
11
105.894279
21
-0.114951
31
0
39
0
210
0
220
0
230
1
0
LINE
5
8E
100
AcDbEntity
8
1
62
256
6
ByLayer
370
18
48
1
60
0
100
AcDbLine
10
106
20
0
30
0
11
105.987993
21
-0.053867
31
0
39
0
210
0
220
0
230
1
0
LINE
5
8F
100
AcDbEntity
8
1
62
256
6
ByLayer
370
18
48
1
60
0
100
AcDbLine
10
0
20
-6
30
0
11
0
21
6
31
0
39
0
210
0
220
0
230
1
0
LINE
5
90
100
AcDbEntity
8
1
62
256
6
ByLayer
370
18
48
1
60
0
100
AcDbLine
10
105.987993
20
0.053867
30
0
11
106
21
0
31
0
39
0
210
0
220
0
230
1
0
LINE
5
91
100
AcDbEntity
8
1
62
256
6
ByLayer
370
13
48
1
60
0
100
AcDbLine
10
1.013877
20
5.638155
30
0
11
1.013877
21
-5.638155
31
0
39
0
210
0
220
0
230
1
0
LINE
5
92
100
AcDbEntity
8
1
62
256
6
ByLayer
370
13
48
1
60
0
100
AcDbLine
10
105.713956
20
1.031727
30
0
11
104.447461
21
1.031727
31
0
39
0
210
0
220
0
230
1
0
LINE
5
93
100
AcDbEntity
8
1
62
256
6
ByLayer
370
18
48
1
60
0
100
AcDbLine
10
106
20
0
30
0
11
104.017471
21
-5.446954
31
0
39
0
210
0
220
0
230
1
0
LINE
5
94
100
AcDbEntity
8
1
62
256
6
ByLayer
370
18
48
1
60
0
100
AcDbLine
10
105.910116
20
0.307535
30
0
11
105.713956
21
1.031727
31
0
39
0
210
0
220
0
230
1
0
LINE
5
95
100
AcDbEntity
8
1
62
256
6
ByLayer
370
18
48
1
60
0
100
AcDbLine
10
105.910116
20
-0.307535
30
0
11
105.713956
21
-1.031727
31
0
39
0
210
0
220
0
230
1
0
LINE
5
96
100
AcDbEntity
8
1
62
256
6
ByLayer
370
18
48
1
60
0
100
AcDbLine
10
7
20
-4.48367
30
0
11
7
21
3.759489
31
0
39
0
210
0
220
0
230
1
0
LINE
5
97
100
AcDbEntity
8
1
62
256
6
ByLayer
370
18
48
1
60
0
100
AcDbLine
10
103.129621
20
-3.196112
30
0
11
105.894279
21
-0.114951
31
0
39
0
210
0
220
0
230
1
0
LINE
5
98
100
AcDbEntity
8
1
62
256
6
ByLayer
370
13
48
1
60
0
100
AcDbLine
10
0.506698
20
5.819077
30
0
11
0.506698
21
-5.819077
31
0
39
0
210
0
220
0
230
1
0
LINE
5
99
100
AcDbEntity
8
SK1
62
256
6
ByLayer
370
18
48
1
60
0
100
AcDbLine
10
-45
20
-2.569733
30
0
11
-45
21
-3.499561
31
0
39
0
210
0
220
0
230
1
0
LINE
5
9A
100
AcDbEntity
8
SK1
62
256
6
ByLayer
370
18
48
1
60
0
100
AcDbLine
10
-43.556624
20
6
30
0
11
-43.556624
21
-6
31
0
39
0
210
0
220
0
230
1
0
LINE
5
9B
100
AcDbEntity
8
SK1
62
256
6
ByLayer
370
18
48
1
60
0
100
AcDbLine
10
0
20
-6
30
0
11
0
21
6
31
0
39
0
210
0
220
0
230
1
0
LINE
5
9C
100
AcDbEntity
8
SK1
62
256
6
ByLayer
370
18
48
1
60
0
100
AcDbLine
10
-45
20
-3.5
30
0
11
-45
21
-3.499561
31
0
39
0
210
0
220
0
230
1
0
LINE
5
9D
100
AcDbEntity
8
SK1
62
256
6
ByLayer
370
18
48
1
60
0
100
AcDbLine
10
-43.6
20
-5.82299
30
0
11
-43.6
21
-4.967628
31
0
39
0
210
0
220
0
230
1
0
LINE
5
9E
100
AcDbEntity
8
SK1
62
256
6
ByLayer
370
18
48
1
60
0
100
AcDbLine
10
-45
20
3.5
30
0
11
-45
21
-2.569819
31
0
39
0
210
0
220
0
230
1
0
LINE
5
9F
100
AcDbEntity
8
SK1
62
256
6
ByLayer
370
13
48
1
60
0
100
AcDbLine
10
-43.7
20
-4.746615
30
0
11
-43.7
21
-5.676381
31
0
39
0
210
0
220
0
230
1
0
MTEXT
5
F4
100
AcDbEntity
8
SK6
62
256
6
ByLayer
370
13
48
1
60
0
100
AcDbMText
10
32.629169
20
38.082694
30
0
210
0
220
0
230
1
1
\W0.7343;R840-1140-70-A1A1220
40
3.5
41
0
44
1.084337
50
0
71
8
72
5
7
iso_b_vert
0
DIMENSION
5
101
100
AcDbEntity
8
SK2
62
256
6
ByLayer
370
13
48
1
60
0
100
AcDbDimension
2
DimnDraft3D1
10
104.04
20
-15.913398
30
0
11
50.290059
21
-15.913398
31
0
70
32
71
5
72
1
41
1
210
0
220
0
230
1
3
Standard
100
AcDbAlignedDimension
13
0
23
-1.5875
33
0
14
104.04
24
-7.2875
34
0
50
0
100
AcDbRotatedDimension
1001
ACAD
1000
DSTYLE
1002
{
1070
   279
1070
     0
1070
   172
1070
     1
1070
   173
1070
     1
1070
   340
1005
F5
1070
   271
1070
     2
1070
   272
1070
     2
1070
    77
1070
     1
1070
    73
1070
     0
1070
   171
1070
     3
1070
   274
1070
     4
1070
   177
1070
    35
1070
   176
1070
    35
1070
   178
1070
    35
1070
    48
1040
-0.005
1070
    41
1041
3.5
1070
   147
1041
1.75
1070
    42
1041
1.5875
1070
    44
1041
2.0
1070
   140
1041
3.5
1070
   343
1005
0
1070
   344
1005
0
1002
}
0
DIMENSION
5
10B
100
AcDbEntity
8
SK2
62
256
6
ByLayer
370
13
48
1
60
0
100
AcDbDimension
2
DimnDraft3D2
10
106
20
-34.692985
30
0
11
29.8813
21
-34.692985
31
0
70
32
71
5
72
1
41
1
210
0
220
0
230
1
3
Standard
100
AcDbAlignedDimension
13
-45
23
-7.5875
33
0
14
106
24
-1.5875
34
0
50
0
100
AcDbRotatedDimension
1001
ACAD
1000
DSTYLE
1002
{
1070
   279
1070
     0
1070
   172
1070
     1
1070
   173
1070
     1
1070
   340
1005
F5
1070
   271
1070
     2
1070
   272
1070
     2
1070
    77
1070
     1
1070
    73
1070
     0
1070
   171
1070
     3
1070
   274
1070
     4
1070
   177
1070
    35
1070
   176
1070
    35
1070
   178
1070
    35
1070
    48
1040
-0.005
1070
    41
1041
3.5
1070
   147
1041
1.75
1070
    42
1041
1.5875
1070
    44
1041
2.0
1070
   140
1041
3.5
1070
   343
1005
0
1070
   344
1005
0
1002
}
0
DIMENSION
5
115
100
AcDbEntity
8
SK2
62
256
6
ByLayer
370
13
48
1
60
0
100
AcDbDimension
2
DimnDraft3D3
10
106
20
17.309119
30
0
11
59.42
21
17.309119
31
0
70
32
71
5
72
1
41
1
210
0
220
0
230
1
3
Standard
100
AcDbAlignedDimension
13
12.84
23
7.2875
33
0
14
106
24
1.5875
34
0
50
0
100
AcDbRotatedDimension
1001
ACAD
1000
DSTYLE
1002
{
1070
   279
1070
     0
1070
   172
1070
     1
1070
   173
1070
     1
1070
   340
1005
F5
1070
   271
1070
     2
1070
   272
1070
     2
1070
    77
1070
     1
1070
    73
1070
     0
1070
   171
1070
     3
1070
   274
1070
     4
1070
   177
1070
    35
1070
   176
1070
    35
1070
   178
1070
    35
1070
    48
1040
-0.005
1070
    41
1041
3.5
1070
   147
1041
1.75
1070
    42
1041
1.5875
1070
    44
1041
2.0
1070
   140
1041
3.5
1070
   343
1005
0
1070
   344
1005
0
1002
}
0
DIMENSION
5
11F
100
AcDbEntity
8
SK2
62
256
6
ByLayer
370
13
48
1
60
0
100
AcDbDimension
2
DimnDraft3D4
10
104.04
20
-18.502503
30
0
11
115.981425
21
-18.502503
31
0
70
32
71
5
72
1
41
1
210
0
220
0
230
1
3
Standard
100
AcDbAlignedDimension
13
106
23
-1.5875
33
0
14
104.04
24
-7.2875
34
0
50
0
100
AcDbRotatedDimension
1001
ACAD
1000
DSTYLE
1002
{
1070
   279
1070
     0
1070
   172
1070
     1
1070
   173
1070
     1
1070
   340
1005
F5
1070
   271
1070
     2
1070
   272
1070
     2
1070
    77
1070
     1
1070
    73
1070
     0
1070
   171
1070
     3
1070
   274
1070
     4
1070
   177
1070
    35
1070
   176
1070
    35
1070
   178
1070
    35
1070
    48
1040
-0.005
1070
    41
1041
3.5
1070
   147
1041
1.75
1070
    42
1041
1.5875
1070
    44
1041
2.0
1070
   140
1041
3.5
1070
   343
1005
0
1070
   344
1005
0
1002
}
0
DIMENSION
5
129
100
AcDbEntity
8
SK2
62
256
6
ByLayer
370
13
48
1
60
0
100
AcDbDimension
2
DimnDraft3D5
10
104.04
20
-24.343428
30
0
11
26.800676
21
-24.343428
31
0
70
32
71
5
72
1
41
1
210
0
220
0
230
1
3
Standard
100
AcDbAlignedDimension
13
-45
23
-7.5875
33
0
14
104.04
24
-7.2875
34
0
50
0
100
AcDbRotatedDimension
1001
ACAD
1000
DSTYLE
1002
{
1070
   279
1070
     0
1070
   172
1070
     1
1070
   173
1070
     1
1070
   340
1005
F5
1070
   271
1070
     2
1070
   272
1070
     2
1070
    77
1070
     1
1070
    73
1070
     0
1070
   171
1070
     3
1070
   274
1070
     4
1070
   177
1070
    35
1070
   176
1070
    35
1070
   178
1070
    35
1070
    48
1040
-0.005
1070
    41
1041
3.5
1070
   147
1041
1.75
1070
    42
1041
1.5875
1070
    44
1041
2.0
1070
   140
1041
3.5
1070
   343
1005
0
1070
   344
1005
0
1002
}
0
DIMENSION
5
134
100
AcDbEntity
8
SK2
62
256
6
ByLayer
370
13
48
1
60
0
100
AcDbDimension
2
DimnDraft3D6
10
-55.625163
20
6
30
0
11
-56.250163
21
24.47418
31
0
70
33
71
5
72
1
41
1
210
0
220
0
230
1
3
Standard
100
AcDbAlignedDimension
13
-46.5875
23
-6
33
0
14
-46.5875
24
6
34
0
1001
ACAD
1000
DSTYLE
1002
{
1070
   279
1070
     0
1070
    74
1070
     0
1070
   173
1070
     1
1070
   340
1005
F5
1070
   271
1070
     3
1070
   272
1070
     2
1070
    77
1070
     1
1070
    73
1070
     0
1070
   171
1070
     3
1070
   274
1070
     4
1070
   177
1070
    35
1070
   176
1070
    35
1070
   178
1070
    35
1070
    48
1040
-0.005
1070
    41
1041
3.5
1070
   147
1041
1.75
1070
    42
1041
1.5875
1070
    44
1041
2.0
1070
   140
1041
3.5
1070
   343
1005
0
1070
   344
1005
0
1002
}
0
DIMENSION
5
13F
100
AcDbEntity
8
2
62
256
6
ByLayer
370
13
48
1
60
0
100
AcDbDimension
2
DimnDraft3D7
10
120.083343
20
5.7
30
0
11
115.458343
21
22.767266
31
0
70
33
71
5
72
1
41
1
210
0
220
0
230
1
3
Standard
100
AcDbAlignedDimension
13
105.6275
23
-5.7
33
0
14
105.6275
24
5.7
34
0
1001
ACAD
1000
DSTYLE
1002
{
1070
   279
1070
     0
1070
    74
1070
     0
1070
   173
1070
     1
1070
   340
1005
F5
1070
   271
1070
     3
1070
   272
1070
     2
1070
    77
1070
     1
1070
    73
1070
     0
1070
   171
1070
     3
1070
   274
1070
     4
1070
   177
1070
    35
1070
   176
1070
    35
1070
   178
1070
    35
1070
    48
1040
-0.005
1070
    41
1041
3.5
1070
   147
1041
1.75
1070
    42
1041
1.5875
1070
    44
1041
2.0
1070
   140
1041
3.5
1070
   343
1005
0
1070
   344
1005
0
1002
}
0
ENDSEC
0
SECTION
2
OBJECTS
0
DICTIONARY
5
1aa
330
0
100
AcDbDictionary
280
0
281
1
3
ACAD_GROUP
350
1ab
3
ACAD_MLINESTYLE
350
1ac
0
DICTIONARY
5
1ab
330
0
100
AcDbDictionary
280
0
281
1
0
DICTIONARY
5
1ac
330
0
100
AcDbDictionary
280
0
281
1
3
Standard
350
18
0
MLINESTYLE
5
18
330
1ac
100
AcDbMlineStyle
2
Standard
70
0
3

62
256
51
90
52
90
71
2
49
-0.5
62
256
6
ByLayer
49
0.5
62
256
6
ByLayer
0
RASTERVARIABLES
5
198
330

100
AcDbRasterVariables
90
0
70
1
71
1
72
1
0
ENDSEC
0
EOF
