0
SECTION
2
HEADER
9
$ACADVER
1
AC1015
9
$DWGCODEPAGE
3
ANSI_1252
9
$HANDSEED
5
1a0
9
$ANGBASE
50
0
9
$ANGDIR
70
0
9
$ATTMODE
70
1
9
$AUNITS
70
0
9
$AUPREC
70
0
9
$CECOLOR
62
256
9
$CELTSCALE
40
1
9
$CELTYPE
6
ByLayer
9
$CELWEIGHT
370
18
9
$CLAYER
8
0
9
$CMLJUST
70
0
9
$CMLSCALE
40
1
9
$CMLSTYLE
2
Standard
9
$DIMSTYLE
2
Standard
9
$TEXTSIZE
40
0.2
9
$TEXTSTYLE
7
Standard
9
$LUNITS
70
2
9
$LUPREC
70
4
9
$EXTNAMES
290
1
9
$INSUNITS
70
4
9
$LTSCALE
40
1
9
$LWDISPLAY
290
1
9
$PDMODE
70
0
9
$PDSIZE
40
0
9
$PLINEGEN
70
0
0
ENDSEC
0
SECTION
2
CLASSES
0
CLASS
1
RASTERVARIABLES
2
AcDbRasterVariables
3
ISM
90
0
280
0
281
0
0
ENDSEC
0
SECTION
2
TABLES
0
TABLE
2
VPORT
5
196
100
AcDbSymbolTable
0
VPORT
5
1
100
AcDbSymbolTableRecord
100
AcDbViewportTableRecord
2
*Active
70
0
10
0
20
0
11
1
21
1
12
-1
22
1
13
0
23
0
14
0.5
24
0.5
15
10
25
10
16
0
26
0
36
1
17
0
27
0
37
0
0
ENDTAB
0
TABLE
2
LTYPE
5
197
100
AcDbSymbolTable
0
LTYPE
5
14
100
AcDbSymbolTableRecord
100
AcDbLinetypeTableRecord
70
0
2
ByBlock
3

72
65
73
0
40
0
0
LTYPE
5
15
100
AcDbSymbolTableRecord
100
AcDbLinetypeTableRecord
70
0
2
ByLayer
3

72
65
73
0
40
0
0
LTYPE
5
16
100
AcDbSymbolTableRecord
100
AcDbLinetypeTableRecord
70
0
2
CONTINUOUS
3
Solid line
72
65
73
0
40
0
0
LTYPE
5
6A
100
AcDbSymbolTableRecord
100
AcDbLinetypeTableRecord
70
0
2
CENTER
3
____ _ ____ _ ____ _ ____
72
65
73
4
40
47.5
49
22
74
0
49
-8.5
74
0
49
8.5
74
0
49
-8.5
74
0
0
LTYPE
5
6B
100
AcDbSymbolTableRecord
100
AcDbLinetypeTableRecord
70
0
2
DASHED
3
__ __ __ __ __ __ __ __ __
72
65
73
2
40
25.72
49
12.86
74
0
49
-12.86
74
0
0
ENDTAB
0
TABLE
2
LAYER
5
198
100
AcDbSymbolTable
0
LAYER
5
10
100
AcDbSymbolTableRecord
100
AcDbLayerTableRecord
2
0
70
0
62
7
6
CONTINUOUS
290
1
370
-3
390
0
0
LAYER
5
6D
100
AcDbSymbolTableRecord
100
AcDbLayerTableRecord
2
81
70
0
62
-3
6
CONTINUOUS
290
1
370
-3
390
0
0
LAYER
5
6F
100
AcDbSymbolTableRecord
100
AcDbLayerTableRecord
2
80
70
0
62
-6
6
CONTINUOUS
290
1
370
-3
390
0
0
LAYER
5
74
100
AcDbSymbolTableRecord
100
AcDbLayerTableRecord
2
2
70
0
62
7
6
CONTINUOUS
290
1
370
-3
390
0
0
LAYER
5
78
100
AcDbSymbolTableRecord
100
AcDbLayerTableRecord
2
1
70
0
62
4
6
CONTINUOUS
290
1
370
-3
390
0
0
LAYER
5
88
100
AcDbSymbolTableRecord
100
AcDbLayerTableRecord
2
4
70
0
62
-2
6
CENTER
290
1
370
-3
390
0
0
LAYER
5
182
100
AcDbSymbolTableRecord
100
AcDbLayerTableRecord
2
SK2
70
0
62
7
6
CONTINUOUS
290
1
370
-3
390
0
0
LAYER
5
183
100
AcDbSymbolTableRecord
100
AcDbLayerTableRecord
2
SK1
70
0
62
4
6
CONTINUOUS
290
1
370
-3
390
0
0
LAYER
5
184
100
AcDbSymbolTableRecord
100
AcDbLayerTableRecord
2
SK4
70
0
62
2
6
CENTER
290
1
370
-3
390
0
0
LAYER
5
185
100
AcDbSymbolTableRecord
100
AcDbLayerTableRecord
2
SK6
70
0
62
5
6
CONTINUOUS
290
1
370
-3
390
0
0
ENDTAB
0
TABLE
2
STYLE
5
199
100
AcDbSymbolTable
0
STYLE
5
11
100
AcDbSymbolTableRecord
100
AcDbTextStyleTableRecord
2
Standard
3
txt
70
0
71
0
40
0
41
1
42
0
50
0
0
STYLE
5
DE
100
AcDbSymbolTableRecord
100
AcDbTextStyleTableRecord
2
iso_b_vert
3
simplex.shx
70
0
71
0
40
0
41
1
42
0
50
0
0
STYLE
5
DF
100
AcDbSymbolTableRecord
100
AcDbTextStyleTableRecord
2
DWGDirectTextStyle
3
simplex
70
0
71
0
40
0
41
1
42
0
50
0
0
ENDTAB
0
TABLE
2
DIMSTYLE
5
19a
100
AcDbSymbolTable
100
AcDbDimStyleTable
0
DIMSTYLE
105
27
100
AcDbSymbolTableRecord
100
AcDbDimStyleTableRecord
2
Standard
70
0
3
<>
41
0.18
42
0.0625
44
0.18
140
0.18
147
0.09
73
0
74
0
77
1
271
2
275
0
278
52
280
0
340
11
0
ENDTAB
0
TABLE
2
VIEW
5
19b
100
AcDbSymbolTable
0
ENDTAB
0
TABLE
2
UCS
5
19c
100
AcDbSymbolTable
0
ENDTAB
0
TABLE
2
APPID
5
19d
100
AcDbSymbolTable
0
APPID
5
12
100
AcDbSymbolTableRecord
100
AcDbRegAppTableRecord
2
ACAD
70
0
0
ENDTAB
0
TABLE
2
BLOCK_RECORD
5
19e
100
AcDbSymbolTable
0
BLOCK_RECORD
5
1F
100
AcDbSymbolTableRecord
100
AcDbBlockTableRecord
2
*Model_Space
340
0
70
0
0
BLOCK_RECORD
5
1B
100
AcDbSymbolTableRecord
100
AcDbBlockTableRecord
2
*Paper_Space
340
0
70
0
0
BLOCK_RECORD
5
23
100
AcDbSymbolTableRecord
100
AcDbBlockTableRecord
2
*Paper_Space0
340
0
70
0
0
BLOCK_RECORD
5
E1
100
AcDbSymbolTableRecord
100
AcDbBlockTableRecord
2
DimnDraft3D1
340
0
70
0
0
BLOCK_RECORD
5
EB
100
AcDbSymbolTableRecord
100
AcDbBlockTableRecord
2
DimnDraft3D2
340
0
70
0
0
BLOCK_RECORD
5
F5
100
AcDbSymbolTableRecord
100
AcDbBlockTableRecord
2
DimnDraft3D3
340
0
70
0
0
BLOCK_RECORD
5
FF
100
AcDbSymbolTableRecord
100
AcDbBlockTableRecord
2
DimnDraft3D4
340
0
70
0
0
BLOCK_RECORD
5
109
100
AcDbSymbolTableRecord
100
AcDbBlockTableRecord
2
DimnDraft3D5
340
0
70
0
0
BLOCK_RECORD
5
113
100
AcDbSymbolTableRecord
100
AcDbBlockTableRecord
2
DimnDraft3D6
340
0
70
0
0
BLOCK_RECORD
5
11E
100
AcDbSymbolTableRecord
100
AcDbBlockTableRecord
2
DimnDraft3D7
340
0
70
0
0
ENDTAB
0
ENDSEC
0
SECTION
2
BLOCKS
0
BLOCK
5
20
100
AcDbEntity
8
0
100
AcDbBlockBegin
2
*Model_Space
70
0
10
0
20
0
30
0
3
*Model_Space
0
ENDBLK
5
21
100
AcDbEntity
8
0
100
AcDbBlockEnd
0
BLOCK
5
1C
100
AcDbEntity
8
0
100
AcDbBlockBegin
2
*Paper_Space
70
0
10
0
20
0
30
0
3
*Paper_Space
0
ENDBLK
5
1D
100
AcDbEntity
8
0
100
AcDbBlockEnd
0
BLOCK
5
24
100
AcDbEntity
8
0
100
AcDbBlockBegin
2
*Paper_Space0
70
0
10
0
20
0
30
0
3
*Paper_Space0
0
ENDBLK
5
25
100
AcDbEntity
8
0
100
AcDbBlockEnd
0
BLOCK
5
E8
100
AcDbEntity
8
0
100
AcDbBlockBegin
2
DimnDraft3D1
70
0
10
0
20
0
30
0
3
DimnDraft3D1
0
MTEXT
5
E2
100
AcDbEntity
8
SK2
62
256
6
ByLayer
370
13
48
1
60
0
100
AcDbMText
10
30.356375
20
-14.638398
30
0
210
0
220
0
230
1
1
\W0.6110;71,18
40
3.5
41
0
44
1.084337
50
0
71
7
72
5
7
iso_b_vert
0
LINE
5
E3
100
AcDbEntity
8
SK2
62
256
6
ByLayer
370
13
48
1
60
0
100
AcDbLine
10
0
20
-1.5875
30
0
11
0
21
-17.513398
31
0
39
0
210
0
220
0
230
1
0
LINE
5
E4
100
AcDbEntity
8
SK2
62
256
6
ByLayer
370
13
48
1
60
0
100
AcDbLine
10
71.18
20
-6.8875
30
0
11
71.18
21
-17.513398
31
0
39
0
210
0
220
0
230
1
0
LINE
5
E5
100
AcDbEntity
8
SK2
62
256
6
ByLayer
370
13
48
1
60
0
100
AcDbLine
10
0
20
-15.513398
30
0
11
71.18
21
-15.513398
31
0
39
0
210
0
220
0
230
1
0
SOLID
5
E6
100
AcDbEntity
8
SK2
62
256
6
ByLayer
370
13
48
1
60
0
100
AcDbTrace
10
0
20
-15.513398
30
0
11
3.499998
21
-15.052615
31
0
12
3.500002
22
-15.974182
32
0
13
0
23
-15.513398
33
0
39
0
210
0
220
0
230
1
0
SOLID
5
E7
100
AcDbEntity
8
SK2
62
256
6
ByLayer
370
13
48
1
60
0
100
AcDbTrace
10
71.18
20
-15.513398
30
0
11
67.680002
21
-15.974182
31
0
12
67.679998
22
-15.052615
32
0
13
71.18
23
-15.513398
33
0
39
0
210
0
220
0
230
1
0
ENDBLK
5
E9
100
AcDbEntity
8
0
100
AcDbBlockEnd
0
BLOCK
5
F2
100
AcDbEntity
8
0
100
AcDbBlockBegin
2
DimnDraft3D2
70
0
10
0
20
0
30
0
3
DimnDraft3D2
0
MTEXT
5
EC
100
AcDbEntity
8
SK2
62
256
6
ByLayer
370
13
48
1
60
0
100
AcDbMText
10
8.639721
20
-33.817985
30
0
210
0
220
0
230
1
1
\W0.6440;118,00
40
3.5
41
0
44
1.084337
50
0
71
7
72
5
7
iso_b_vert
0
LINE
5
ED
100
AcDbEntity
8
SK2
62
256
6
ByLayer
370
13
48
1
60
0
100
AcDbLine
10
-45
20
-7.5875
30
0
11
-45
21
-36.692985
31
0
39
0
210
0
220
0
230
1
0
LINE
5
EE
100
AcDbEntity
8
SK2
62
256
6
ByLayer
370
13
48
1
60
0
100
AcDbLine
10
73
20
-1.5875
30
0
11
73
21
-36.692985
31
0
39
0
210
0
220
0
230
1
0
LINE
5
EF
100
AcDbEntity
8
SK2
62
256
6
ByLayer
370
13
48
1
60
0
100
AcDbLine
10
-45
20
-34.692985
30
0
11
73
21
-34.692985
31
0
39
0
210
0
220
0
230
1
0
SOLID
5
F0
100
AcDbEntity
8
SK2
62
256
6
ByLayer
370
13
48
1
60
0
100
AcDbTrace
10
-45
20
-34.692985
30
0
11
-41.500002
21
-34.232202
31
0
12
-41.499998
22
-35.153769
32
0
13
-45
23
-34.692985
33
0
39
0
210
0
220
0
230
1
0
SOLID
5
F1
100
AcDbEntity
8
SK2
62
256
6
ByLayer
370
13
48
1
60
0
100
AcDbTrace
10
73
20
-34.692985
30
0
11
69.500002
21
-35.153769
31
0
12
69.499998
22
-34.232202
32
0
13
73
23
-34.692985
33
0
39
0
210
0
220
0
230
1
0
ENDBLK
5
F3
100
AcDbEntity
8
0
100
AcDbBlockEnd
0
BLOCK
5
FC
100
AcDbEntity
8
0
100
AcDbBlockBegin
2
DimnDraft3D3
70
0
10
0
20
0
30
0
3
DimnDraft3D3
0
MTEXT
5
F6
100
AcDbEntity
8
SK2
62
256
6
ByLayer
370
13
48
1
60
0
100
AcDbMText
10
40.957105
20
17.784119
30
0
210
0
220
0
230
1
1
\W0.7581;54,82
40
3.5
41
0
44
1.084337
50
0
71
7
72
5
7
iso_b_vert
0
LINE
5
F7
100
AcDbEntity
8
SK2
62
256
6
ByLayer
370
13
48
1
60
0
100
AcDbLine
10
18.18
20
6.8875
30
0
11
18.18
21
18.909119
31
0
39
0
210
0
220
0
230
1
0
LINE
5
F8
100
AcDbEntity
8
SK2
62
256
6
ByLayer
370
13
48
1
60
0
100
AcDbLine
10
73
20
1.5875
30
0
11
73
21
18.909119
31
0
39
0
210
0
220
0
230
1
0
LINE
5
F9
100
AcDbEntity
8
SK2
62
256
6
ByLayer
370
13
48
1
60
0
100
AcDbLine
10
18.18
20
16.909119
30
0
11
73
21
16.909119
31
0
39
0
210
0
220
0
230
1
0
SOLID
5
FA
100
AcDbEntity
8
SK2
62
256
6
ByLayer
370
13
48
1
60
0
100
AcDbTrace
10
18.18
20
16.909119
30
0
11
21.679998
21
17.369903
31
0
12
21.680002
22
16.448335
32
0
13
18.18
23
16.909119
33
0
39
0
210
0
220
0
230
1
0
SOLID
5
FB
100
AcDbEntity
8
SK2
62
256
6
ByLayer
370
13
48
1
60
0
100
AcDbTrace
10
73
20
16.909119
30
0
11
69.500002
21
16.448335
31
0
12
69.499998
22
17.369903
32
0
13
73
23
16.909119
33
0
39
0
210
0
220
0
230
1
0
ENDBLK
5
FD
100
AcDbEntity
8
0
100
AcDbBlockEnd
0
BLOCK
5
106
100
AcDbEntity
8
0
100
AcDbBlockBegin
2
DimnDraft3D4
70
0
10
0
20
0
30
0
3
DimnDraft3D4
0
MTEXT
5
100
100
AcDbEntity
8
SK2
62
256
6
ByLayer
370
13
48
1
60
0
100
AcDbMText
10
80.278136
20
-17.227503
30
0
210
0
220
0
230
1
1
\W0.6367;1,82
40
3.5
41
0
44
1.084337
50
0
71
7
72
5
7
iso_b_vert
0
LINE
5
101
100
AcDbEntity
8
SK2
62
256
6
ByLayer
370
13
48
1
60
0
100
AcDbLine
10
73
20
-1.5875
30
0
11
73
21
-20.102503
31
0
39
0
210
0
220
0
230
1
0
LINE
5
102
100
AcDbEntity
8
SK2
62
256
6
ByLayer
370
13
48
1
60
0
100
AcDbLine
10
71.18
20
-6.8875
30
0
11
71.18
21
-20.102503
31
0
39
0
210
0
220
0
230
1
0
LINE
5
103
100
AcDbEntity
8
SK2
62
256
6
ByLayer
370
13
48
1
60
0
100
AcDbLine
10
62.43
20
-18.102503
30
0
11
86.559715
21
-18.102503
31
0
39
0
210
0
220
0
230
1
0
SOLID
5
104
100
AcDbEntity
8
SK2
62
256
6
ByLayer
370
13
48
1
60
0
100
AcDbTrace
10
73
20
-18.102503
30
0
11
76.499998
21
-17.641719
31
0
12
76.500002
22
-18.563287
32
0
13
73
23
-18.102503
33
0
39
0
210
0
220
0
230
1
0
SOLID
5
105
100
AcDbEntity
8
SK2
62
256
6
ByLayer
370
13
48
1
60
0
100
AcDbTrace
10
71.18
20
-18.102503
30
0
11
67.680002
21
-18.563287
31
0
12
67.679998
22
-17.641719
32
0
13
71.18
23
-18.102503
33
0
39
0
210
0
220
0
230
1
0
ENDBLK
5
107
100
AcDbEntity
8
0
100
AcDbBlockEnd
0
BLOCK
5
110
100
AcDbEntity
8
0
100
AcDbBlockBegin
2
DimnDraft3D5
70
0
10
0
20
0
30
0
3
DimnDraft3D5
0
MTEXT
5
10A
100
AcDbEntity
8
SK2
62
256
6
ByLayer
370
13
48
1
60
0
100
AcDbMText
10
5.996597
20
-23.468428
30
0
210
0
220
0
230
1
1
\W0.5949;116,18
40
3.5
41
0
44
1.084337
50
0
71
7
72
5
7
iso_b_vert
0
LINE
5
10B
100
AcDbEntity
8
SK2
62
256
6
ByLayer
370
13
48
1
60
0
100
AcDbLine
10
-45
20
-7.5875
30
0
11
-45
21
-26.343428
31
0
39
0
210
0
220
0
230
1
0
LINE
5
10C
100
AcDbEntity
8
SK2
62
256
6
ByLayer
370
13
48
1
60
0
100
AcDbLine
10
71.18
20
-6.8875
30
0
11
71.18
21
-26.343428
31
0
39
0
210
0
220
0
230
1
0
LINE
5
10D
100
AcDbEntity
8
SK2
62
256
6
ByLayer
370
13
48
1
60
0
100
AcDbLine
10
-45
20
-24.343428
30
0
11
71.18
21
-24.343428
31
0
39
0
210
0
220
0
230
1
0
SOLID
5
10E
100
AcDbEntity
8
SK2
62
256
6
ByLayer
370
13
48
1
60
0
100
AcDbTrace
10
-45
20
-24.343428
30
0
11
-41.500002
21
-23.882645
31
0
12
-41.499998
22
-24.804212
32
0
13
-45
23
-24.343428
33
0
39
0
210
0
220
0
230
1
0
SOLID
5
10F
100
AcDbEntity
8
SK2
62
256
6
ByLayer
370
13
48
1
60
0
100
AcDbTrace
10
71.18
20
-24.343428
30
0
11
67.680002
21
-24.804212
31
0
12
67.679998
22
-23.882645
32
0
13
71.18
23
-24.343428
33
0
39
0
210
0
220
0
230
1
0
ENDBLK
5
111
100
AcDbEntity
8
0
100
AcDbBlockEnd
0
BLOCK
5
11B
100
AcDbEntity
8
0
100
AcDbBlockBegin
2
DimnDraft3D6
70
0
10
0
20
0
30
0
3
DimnDraft3D6
0
MTEXT
5
114
100
AcDbEntity
8
SK2
62
256
6
ByLayer
370
13
48
1
60
0
100
AcDbMText
10
-55.375163
20
25.34918
30
0
210
0
220
0
230
1
1
\W0.6930;12,000
40
3.5
41
0
44
1.084337
50
90
71
7
72
5
7
iso_b_vert
0
MTEXT
5
115
100
AcDbEntity
8
SK2
62
256
6
ByLayer
370
13
48
1
60
0
100
AcDbMText
10
-55.375163
20
20.126524
30
0
210
0
220
0
230
1
1
%%c
40
3.5
41
0
44
1.084337
50
90
71
7
72
5
7
iso_b_vert
0
LINE
5
116
100
AcDbEntity
8
SK2
62
256
6
ByLayer
370
13
48
1
60
0
100
AcDbLine
10
-46.5875
20
-6
30
0
11
-55.625163
21
-6
31
0
39
0
210
0
220
0
230
1
0
LINE
5
117
100
AcDbEntity
8
SK2
62
256
6
ByLayer
370
13
48
1
60
0
100
AcDbLine
10
-46.5875
20
6
30
0
11
-55.625163
21
6
31
0
39
0
210
0
220
0
230
1
0
LINE
5
118
100
AcDbEntity
8
SK2
62
256
6
ByLayer
370
13
48
1
60
0
100
AcDbLine
10
-53.625163
20
-6
30
0
11
-53.625163
21
36.862338
31
0
39
0
210
0
220
0
230
1
0
SOLID
5
119
100
AcDbEntity
8
SK2
62
256
6
ByLayer
370
13
48
1
60
0
100
AcDbTrace
10
-53.625163
20
-6
30
0
11
-54.085946
21
-2.500002
31
0
12
-53.164379
22
-2.499998
32
0
13
-53.625163
23
-6
33
0
39
0
210
0
220
0
230
1
0
SOLID
5
11A
100
AcDbEntity
8
SK2
62
256
6
ByLayer
370
13
48
1
60
0
100
AcDbTrace
10
-53.625163
20
6
30
0
11
-53.164379
21
2.500002
31
0
12
-54.085946
22
2.499998
32
0
13
-53.625163
23
6
33
0
39
0
210
0
220
0
230
1
0
ENDBLK
5
11C
100
AcDbEntity
8
0
100
AcDbBlockEnd
0
BLOCK
5
126
100
AcDbEntity
8
0
100
AcDbBlockBegin
2
DimnDraft3D7
70
0
10
0
20
0
30
0
3
DimnDraft3D7
0
MTEXT
5
11F
100
AcDbEntity
8
2
62
256
6
ByLayer
370
13
48
1
60
0
100
AcDbMText
10
83.333343
20
23.242266
30
0
210
0
220
0
230
1
1
\W0.6930;10,600
40
3.5
41
0
44
1.084337
50
90
71
7
72
5
7
iso_b_vert
0
MTEXT
5
120
100
AcDbEntity
8
2
62
256
6
ByLayer
370
13
48
1
60
0
100
AcDbMText
10
83.333343
20
18.01961
30
0
210
0
220
0
230
1
1
%%c
40
3.5
41
0
44
1.084337
50
90
71
7
72
5
7
iso_b_vert
0
LINE
5
121
100
AcDbEntity
8
2
62
256
6
ByLayer
370
13
48
1
60
0
100
AcDbLine
10
72.7675
20
-5.3
30
0
11
87.083343
21
-5.3
31
0
39
0
210
0
220
0
230
1
0
LINE
5
122
100
AcDbEntity
8
2
62
256
6
ByLayer
370
13
48
1
60
0
100
AcDbLine
10
72.7675
20
5.3
30
0
11
87.083343
21
5.3
31
0
39
0
210
0
220
0
230
1
0
LINE
5
123
100
AcDbEntity
8
2
62
256
6
ByLayer
370
13
48
1
60
0
100
AcDbLine
10
85.083343
20
-5.3
30
0
11
85.083343
21
34.755424
31
0
39
0
210
0
220
0
230
1
0
SOLID
5
124
100
AcDbEntity
8
2
62
256
6
ByLayer
370
13
48
1
60
0
100
AcDbTrace
10
85.083343
20
-5.3
30
0
11
84.622559
21
-1.800002
31
0
12
85.544126
22
-1.799998
32
0
13
85.083343
23
-5.3
33
0
39
0
210
0
220
0
230
1
0
SOLID
5
125
100
AcDbEntity
8
2
62
256
6
ByLayer
370
13
48
1
60
0
100
AcDbTrace
10
85.083343
20
5.3
30
0
11
85.544126
21
1.800002
31
0
12
84.622559
22
1.799998
32
0
13
85.083343
23
5.3
33
0
39
0
210
0
220
0
230
1
0
ENDBLK
5
127
100
AcDbEntity
8
0
100
AcDbBlockEnd
0
ENDSEC
0
SECTION
2
ENTITIES
0
ARC
5
99
100
AcDbEntity
8
1
62
256
6
ByLayer
370
18
48
1
60
0
100
AcDbCircle
39
0
10
0
20
5.2
30
0
40
0.800000000000004
210
0
220
0
230
1
100
AcDbArc
50
32.431888
51
90
0
ARC
5
9A
100
AcDbEntity
8
1
62
256
6
ByLayer
370
18
48
1
60
0
100
AcDbCircle
39
0
10
-1.350447
20
-6.058075
30
0
40
0.799999999999998
210
0
220
0
230
-1
100
AcDbArc
50
32.431888
51
90.034377
0
ARC
5
9B
100
AcDbEntity
8
1
62
256
6
ByLayer
370
18
48
1
60
0
100
AcDbCircle
39
0
10
0
20
-5.2
30
0
40
0.800000000000004
210
0
220
0
230
1
100
AcDbArc
50
270
51
327.568112
0
ARC
5
9C
100
AcDbEntity
8
1
62
256
6
ByLayer
370
18
48
1
60
0
100
AcDbCircle
39
0
10
-1.350447
20
6.058075
30
0
40
0.799999999999998
210
0
220
0
230
-1
100
AcDbArc
50
269.965623
51
327.568112
0
ELLIPSE
5
9D
100
AcDbEntity
8
1
62
256
6
ByLayer
370
18
48
1
60
0
100
AcDbEllipse
10
73.023904
20
0.033273
30
0
11
0.135658546009015
21
-0.401200806166985
31
0
210
0
220
0
230
-1
40
0.065863
41
1.63494400355393
42
2.32292776271738
0
ELLIPSE
5
9E
100
AcDbEntity
8
1
62
256
6
ByLayer
370
18
48
1
60
0
100
AcDbEllipse
10
72.005507
20
2.565158
30
0
11
0.816071125523836
21
-2.22499053352181
31
0
210
0
220
0
230
-1
40
0.082138
41
-1.5610712172503
42
-0.755280950346759
0
ELLIPSE
5
9F
100
AcDbEntity
8
1
62
256
6
ByLayer
370
13
48
1
60
0
100
AcDbEllipse
10
72.294278
20
2.565158
30
0
11
3.62651591072961
21
-1.53245971047668
31
0
210
0
220
0
230
-1
40
0.445196
41
1.59686328080298
42
1.8964331780828
0
ELLIPSE
5
A0
100
AcDbEntity
8
1
62
256
6
ByLayer
370
18
48
1
60
0
100
AcDbEllipse
10
73.000449
20
-0.001158
30
0
11
1.94341674259945
21
-5.2986605073825
31
0
210
0
220
0
230
-1
40
0.082138
41
-2.98543111024254
42
-2.89019801969652
0
ELLIPSE
5
A1
100
AcDbEntity
8
1
62
256
6
ByLayer
370
13
48
1
60
0
100
AcDbEllipse
10
72.124819
20
2.430866
30
0
11
3.5814323697551
21
-1.8411761478323
31
0
210
0
220
0
230
-1
40
0.482873
41
1.53949524921149
42
1.8346518860575
0
ELLIPSE
5
A2
100
AcDbEntity
8
1
62
256
6
ByLayer
370
18
48
1
60
0
100
AcDbEllipse
10
72.86039
20
0.114233
30
0
11
0.0868803724541602
21
0.290676908846678
31
0
210
0
220
0
230
-1
40
0.467765
41
1.65225753134657
42
2.36053717390993
0
ELLIPSE
5
A3
100
AcDbEntity
8
1
62
256
6
ByLayer
370
13
48
1
60
0
100
AcDbEllipse
10
4.178781
20
-4.1312
30
0
11
-0.0117236823501567
21
0.0993103986103803
31
0
210
0
220
0
230
1
40
0.595921
41
0.710323678396159
42
2.04013659232845
0
ELLIPSE
5
A4
100
AcDbEntity
8
1
62
256
6
ByLayer
370
13
48
1
60
0
100
AcDbEllipse
10
4.250198
20
-4.139292
30
0
11
0.0302787589031287
21
0.0953058065349966
31
0
210
0
220
0
230
1
40
0.381966
41
0.691012522705216
42
2.24722497524951
0
ELLIPSE
5
A5
100
AcDbEntity
8
1
62
256
6
ByLayer
370
18
48
1
60
0
100
AcDbEllipse
10
73.023904
20
-0.033273
30
0
11
0.135658545999229
21
0.401200806141548
31
0
210
0
220
0
230
-1
40
0.065863
41
-2.3229277627235
42
-1.63494400351805
0
ELLIPSE
5
A6
100
AcDbEntity
8
1
62
256
6
ByLayer
370
18
48
1
60
0
100
AcDbEllipse
10
73.000449
20
0.001158
30
0
11
1.94341678111771
21
5.29866061817982
31
0
210
0
220
0
230
-1
40
0.082138
41
2.8901980223336
42
2.98543111186885
0
ELLIPSE
5
A7
100
AcDbEntity
8
1
62
256
6
ByLayer
370
18
48
1
60
0
100
AcDbEllipse
10
72.005507
20
-2.565158
30
0
11
0.816071125530257
21
2.22499053353662
31
0
210
0
220
0
230
-1
40
0.082138
41
0.75528095034736
42
1.5610712172458
0
ELLIPSE
5
A8
100
AcDbEntity
8
1
62
256
6
ByLayer
370
13
48
1
60
0
100
AcDbEllipse
10
71.517743
20
0.779006
30
0
11
0.133113781883896
21
0.268850741253519
31
0
210
0
220
0
230
1
40
0.40558
41
0.884485917130893
42
2.28074931872647
0
POINT
5
6C
100
AcDbEntity
8
81
62
256
6
ByLayer
370
18
48
1
60
0
100
AcDbPoint
10
73
20
0
30
0
39
0
210
0
220
0
230
1
50
360
0
POINT
5
6E
100
AcDbEntity
8
80
62
256
6
ByLayer
370
18
48
1
60
0
100
AcDbPoint
10
0
20
0
30
0
39
0
210
0
220
0
230
1
50
360
0
POINT
5
70
100
AcDbEntity
8
SK2
62
256
6
ByLayer
370
18
48
1
60
1
100
AcDbPoint
10
-45
20
-6
30
0
39
0
210
0
220
0
230
1
50
360
0
POINT
5
72
100
AcDbEntity
8
SK2
62
256
6
ByLayer
370
18
48
1
60
1
100
AcDbPoint
10
-45
20
6
30
0
39
0
210
0
220
0
230
1
50
360
0
POINT
5
73
100
AcDbEntity
8
2
62
256
6
ByLayer
370
18
48
1
60
1
100
AcDbPoint
10
71.18
20
-5.3
30
0
39
0
210
0
220
0
230
1
50
360
0
POINT
5
75
100
AcDbEntity
8
2
62
256
6
ByLayer
370
18
48
1
60
1
100
AcDbPoint
10
71.18
20
5.3
30
0
39
0
210
0
220
0
230
1
50
360
0
SPLINE
5
A9
100
AcDbEntity
8
1
62
256
6
ByLayer
370
18
48
1
60
0
100
AcDbSpline
70
4
71
3
72
31
73
27
40
0
40
0
40
0
40
0
40
0.0510455282630404
40
0.0957594481118886
40
0.132531043756983
40
0.162050311025694
40
0.206782244213662
40
0.262506984372139
40
0.309530233828112
40
0.338422377855945
40
0.372352524156873
40
0.41289801580083
40
0.451965568843916
40
0.485257415082852
40
0.516624874460567
40
0.561622451837347
40
0.627439454650726
40
0.672848864560701
40
0.72203481182832
40
0.777162849769376
40
0.821204427972761
40
0.860946224665478
40
0.913586059666893
40
0.961872302462954
40
0.999419325061635
40
1
40
1
40
1
40
1
41
1
10
55.2723736097088
20
5.05078994282525
30
0
41
1
10
55.0587915709844
20
5.04994839727854
30
0
41
1
10
54.660926311329
20
5.0491205380176
30
0
41
1
10
54.1263058670354
20
5.05284028788523
30
0
41
1
10
53.6703757280048
20
5.05289428057537
30
0
41
1
10
53.2094469482141
20
5.05327300228083
30
0
41
1
10
52.6715398382894
20
5.0513079797372
30
0
41
1
10
52.0602677132246
20
5.05067381305682
30
0
41
1
10
51.514903126562
20
5.0511776851794
30
0
41
1
10
51.0598595364985
20
5.05089397994928
30
0
41
1
10
50.6315465997097
20
5.04985954185278
30
0
41
1
10
50.16112942618
20
5.04962113061967
30
0
41
1
10
49.693342625598
20
5.04996923915786
30
0
41
1
10
49.2635734738992
20
5.05016773741647
30
0
41
1
10
48.8092063893342
20
5.04959728153409
30
0
41
1
10
48.220235125181
20
5.04845621635849
30
0
41
1
10
47.5722535506388
20
5.04899011547084
30
0
41
1
10
46.9098285341495
20
5.04844037651193
30
0
41
1
10
46.288661155576
20
5.0473646508008
30
0
41
1
10
45.6752059425137
20
5.047800831242
30
0
41
1
10
45.0996497397596
20
5.04783009492405
30
0
41
1
10
44.5342988287508
20
5.04692536297364
30
0
41
1
10
43.9521300569342
20
5.04677400979665
30
0
41
1
10
43.3761089939711
20
5.04700112193325
30
0
41
1
10
43.0235055045228
20
5.04593817375408
30
0
41
1
10
42.8660667183552
20
5.04555343482141
30
0
41
1
10
42.863668548531
20
5.04554759570524
30
0
0
SPLINE
5
AA
100
AcDbEntity
8
1
62
256
6
ByLayer
370
18
48
1
60
0
100
AcDbSpline
70
4
71
3
72
13
73
9
40
0
40
0
40
0
40
0
40
0.0138971823904479
40
0.296571633326146
40
0.553498141184783
40
0.617481481136479
40
0.71362017478507
40
1
40
1
40
1
40
1
41
1
10
56.6584736025664
20
-1.39470304705071
30
0
41
1
10
56.6585432557536
20
-1.39474662381775
30
0
41
1
10
56.6610633552976
20
-1.39612527611678
30
0
41
1
10
56.7081396436922
20
-1.41720812675882
30
0
41
1
10
56.7319236702746
20
-1.42769395829237
30
0
41
1
10
56.7600754000837
20
-1.44191012747902
30
0
41
1
10
56.8423375792661
20
-1.4836609593043
30
0
41
1
10
56.9211402448917
20
-1.5251867433654
30
0
41
1
10
56.995876993908
20
-1.56496758937422
30
0
0
SPLINE
5
AB
100
AcDbEntity
8
1
62
256
6
ByLayer
370
18
48
1
60
0
100
AcDbSpline
70
4
71
3
72
36
73
32
40
0
40
0
40
0
40
0
40
0.0514349944902197
40
0.0961690578911367
40
0.133995025485671
40
0.161140300680612
40
0.180386726855165
40
0.207497904744066
40
0.244170579035214
40
0.277354650966168
40
0.303391825985318
40
0.335933921361349
40
0.377618075166572
40
0.416623497615663
40
0.44662468401557
40
0.480103952632263
40
0.522020047185415
40
0.563760712442232
40
0.597280955291434
40
0.641553304149689
40
0.692080191910149
40
0.735558596691755
40
0.770383385161275
40
0.805256342343245
40
0.846377730610758
40
0.879889833305968
40
0.9103973991721
40
0.934458874783135
40
0.961760538027201
40
0.990301050825058
40
1
40
1
40
1
40
1
41
1
10
10.1728418082532
20
-5.02644335495364
30
0
41
1
10
10.4286468270096
20
-5.02638946796142
30
0
41
1
10
10.9071933195142
20
-5.02652540309504
30
0
41
1
10
11.582690680778
20
-5.02692944245575
30
0
41
1
10
12.1240691668654
20
-5.02830101534954
30
0
41
1
10
12.5459316585541
20
-5.02826173707291
30
0
41
1
10
12.9136948754622
20
-5.02873076803414
30
0
41
1
10
13.3298721142103
20
-5.02882812578841
30
0
41
1
10
13.8158983072197
20
-5.02902168950069
30
0
41
1
10
14.2965403201164
20
-5.02957029990779
30
0
41
1
10
14.7564867130679
20
-5.03012871587339
30
0
41
1
10
15.2590380867095
20
-5.03039575892507
30
0
41
1
10
15.8265940230459
20
-5.03074951915181
30
0
41
1
10
16.3814048145328
20
-5.03202175458253
30
0
41
1
10
16.8950991520651
20
-5.03193447249086
30
0
41
1
10
17.423378346303
20
-5.03159546114483
30
0
41
1
10
18.0105111920601
20
-5.0322349747062
30
0
41
1
10
18.5978010512368
20
-5.03368627190446
30
0
41
1
10
19.1970620575467
20
-5.03313053997036
30
0
41
1
10
19.839630374703
20
-5.03294573823567
30
0
41
1
10
20.534421214818
20
-5.03599909983484
30
0
41
1
10
21.175041847909
20
-5.03397314910336
30
0
41
1
10
21.7420272232753
20
-5.03427071134107
30
0
41
1
10
22.296536522347
20
-5.03564254157121
30
0
41
1
10
22.8457875900855
20
-5.03653091165677
30
0
41
1
10
23.3723714924554
20
-5.03583843292691
30
0
41
1
10
23.8147345775785
20
-5.03585412835463
30
0
41
1
10
24.2208753135862
20
-5.03626999514469
30
0
41
1
10
24.6109299911003
20
-5.0360470599478
30
0
41
1
10
24.9319628638409
20
-5.03233068674385
30
0
41
1
10
25.1222303632019
20
-5.03197975253357
30
0
41
1
10
25.1706610270213
20
-5.03198353280609
30
0
0
SPLINE
5
AC
100
AcDbEntity
8
1
62
256
6
ByLayer
370
18
48
1
60
0
100
AcDbSpline
70
4
71
3
72
8
73
4
40
0
40
0
40
0
40
0
40
1
40
1
40
1
40
1
41
1
10
25.3273531966581
20
-5.03228720075711
30
0
41
1
10
25.36704321716
20
-5.03242987171467
30
0
41
1
10
25.406833516947
20
-5.03261681564948
30
0
41
1
10
25.4467139217347
20
-5.03283503644832
30
0
0
SPLINE
5
AD
100
AcDbEntity
8
1
62
256
6
ByLayer
370
18
48
1
60
0
100
AcDbSpline
70
4
71
3
72
35
73
31
40
0
40
0
40
0
40
0
40
0.0363197634335542
40
0.0661597626623188
40
0.094598411773116
40
0.122202620846646
40
0.149134734738973
40
0.177105407118924
40
0.217082779428136
40
0.255428880226314
40
0.288917619481142
40
0.331680113923354
40
0.380360958095913
40
0.419851537313658
40
0.461171135292716
40
0.511772208500815
40
0.546037642684997
40
0.573766883672111
40
0.605392873633024
40
0.640226970961159
40
0.671724255496718
40
0.698700567594993
40
0.727471414050911
40
0.766450903433379
40
0.812893456211872
40
0.84934574977047
40
0.889233320826258
40
0.91728655931241
40
0.955856971475777
40
1
40
1
40
1
40
1
41
1
10
40.1280458307064
20
-5.0444615222506
30
0
41
1
10
40.2962505579021
20
-5.04329171613526
30
0
41
1
10
40.6081879949468
20
-5.04210266922627
30
0
41
1
10
41.0887074596436
20
-5.0416495526764
30
0
41
1
10
41.5008957850372
20
-5.0453386268384
30
0
41
1
10
41.9113760927368
20
-5.04556774992867
30
0
41
1
10
42.32158174086
20
-5.04573964553592
30
0
41
1
10
42.7939282696656
20
-5.04626177376406
30
0
41
1
10
43.322986261169
20
-5.04678200944241
30
0
41
1
10
43.8795339135406
20
-5.04689481383861
30
0
41
1
10
44.4499439560535
20
-5.04675384451647
30
0
41
1
10
45.0717595501356
20
-5.04790257368586
30
0
41
1
10
45.7236620641368
20
-5.0477646767944
30
0
41
1
10
46.3676588206087
20
-5.04768711554163
30
0
41
1
10
47.0219072095513
20
-5.04871555496374
30
0
41
1
10
47.649507327853
20
-5.04879133174475
30
0
41
1
10
48.2098337183401
20
-5.04866879892833
30
0
41
1
10
48.6758581264058
20
-5.04922629348465
30
0
41
1
10
49.1446830797661
20
-5.05019618533385
30
0
41
1
10
49.6322717497758
20
-5.05001177929796
30
0
41
1
10
50.0967126281652
20
-5.04967938003546
30
0
41
1
10
50.5309758766854
20
-5.04974436593469
30
0
41
1
10
51.0024812559104
20
-5.05080599025047
30
0
41
1
10
51.5708835811773
20
-5.05126002190764
30
0
41
1
10
52.1775130938504
20
-5.05054065267669
30
0
41
1
10
52.7886864910663
20
-5.05181042669568
30
0
41
1
10
53.3082372492769
20
-5.05339654741439
30
0
41
1
10
53.8381024450948
20
-5.05275229636342
30
0
41
1
10
54.389559849529
20
-5.05216876240638
30
0
41
1
10
54.8012116957158
20
-5.05241170962279
30
0
41
1
10
55.0209126997095
20
-5.05268045852327
30
0
0
SPLINE
5
AE
100
AcDbEntity
8
1
62
256
6
ByLayer
370
18
48
1
60
0
100
AcDbSpline
70
4
71
3
72
12
73
8
40
0
40
0
40
0
40
0
40
0.0019622961335418
40
0.182474644334139
40
0.454204828881107
40
0.710548982454243
40
1
40
1
40
1
40
1
41
1
10
26.6878153808275
20
-1.38496348666288
30
0
41
1
10
26.6878218477155
20
-1.38496713274372
30
0
41
1
10
26.688484668869
20
-1.38533338488236
30
0
41
1
10
26.7044032307628
20
-1.39256550809054
30
0
41
1
10
26.7937227039715
20
-1.43508449475246
30
0
41
1
10
26.8996903028025
20
-1.48680206490135
30
0
41
1
10
26.968217708669
20
-1.52257323906548
30
0
41
1
10
27.0043160754023
20
-1.5419467849355
30
0
0
SPLINE
5
AF
100
AcDbEntity
8
1
62
256
6
ByLayer
370
18
48
1
60
0
100
AcDbSpline
70
4
71
3
72
28
73
24
40
0
40
0
40
0
40
0
40
0.0333512080852063
40
0.0985349472584496
40
0.151393407285914
40
0.200937172372967
40
0.264025317754451
40
0.311301100109787
40
0.354712428172622
40
0.405364080743254
40
0.461416512056364
40
0.507260774702444
40
0.543794361606633
40
0.590159824795415
40
0.644079772058753
40
0.685886678037706
40
0.727037678236531
40
0.781039513000455
40
0.830434753523341
40
0.86931350145933
40
0.91832933496955
40
0.969428841006465
40
1
40
1
40
1
40
1
41
1
10
25.4471850152269
20
5.03283566375629
30
0
41
1
10
25.3057994052645
20
5.03236061516603
30
0
41
1
10
24.889675825077
20
5.03137416202867
30
0
41
1
10
24.2744012569948
20
5.03766185225527
30
0
41
1
10
23.5691734490382
20
5.03528515723565
30
0
41
1
10
22.8717284199159
20
5.03674842653262
30
0
41
1
10
22.1967434726819
20
5.03530926883118
30
0
41
1
10
21.5519566859706
20
5.03380226587376
30
0
41
1
10
20.9554941843983
20
5.03490292135936
30
0
41
1
10
20.32576606103
20
5.03526334809234
30
0
41
1
10
19.6819842700243
20
5.03283608852837
30
0
41
1
10
19.0988595059298
20
5.03322576809489
30
0
41
1
10
18.556176309447
20
5.03364423724659
30
0
41
1
10
17.9795480127163
20
5.03214908280523
30
0
41
1
10
17.3806633422043
20
5.03158894740022
30
0
41
1
10
16.8037638691166
20
5.03201986875771
30
0
41
1
10
16.2265177986578
20
5.03182214118172
30
0
41
1
10
15.6172921669559
20
5.03042957787801
30
0
41
1
10
15.0176469070884
20
5.03034719948627
30
0
41
1
10
14.4389858750584
20
5.02977300394113
30
0
41
1
10
13.853274721314
20
5.02900528558328
30
0
41
1
10
13.302137717513
20
5.02886595563282
30
0
41
1
10
12.9585118932506
20
5.02867482520673
30
0
41
1
10
12.8296428726883
20
5.02859135659924
30
0
0
SPLINE
5
B0
100
AcDbEntity
8
1
62
256
6
ByLayer
370
18
48
1
60
0
100
AcDbSpline
70
4
71
2
72
6
73
3
40
0
40
0
40
0
40
1
40
1
40
1
41
1
10
70.1611007983832
20
-5.06251701716204
30
0
41
1
10
70.6588137779081
20
-5.06021540118613
30
0
41
1
10
71.1562345669907
20
-5.06489369463958
30
0
0
SPLINE
5
B1
100
AcDbEntity
8
1
62
256
6
ByLayer
370
18
48
1
60
0
100
AcDbSpline
70
4
71
3
72
44
73
40
40
0
40
0
40
0
40
0
40
0.033597634787592
40
0.033597634787592
40
0.067195269575184
40
0.067195269575184
40
0.134390539150367
40
0.134390539150367
40
0.167988173937959
40
0.167988173937959
40
0.20158580872555
40
0.20158580872555
40
0.268781078300734
40
0.268781078300734
40
0.335976347875918
40
0.335976347875918
40
0.36957398266351
40
0.36957398266351
40
0.403171617451102
40
0.403171617451102
40
0.537562156601469
40
0.537562156601469
40
0.571159791389062
40
0.571159791389062
40
0.604757426176654
40
0.604757426176654
40
0.671952695751838
40
0.671952695751838
40
0.739147965327022
40
0.739147965327022
40
0.772745600114615
40
0.772745600114615
40
0.789544417508411
40
0.789544417508411
40
0.806343234902207
40
0.806343234902207
40
0.940733774052579
40
0.940733774052579
40
1
40
1
40
1
40
1
41
1
10
71.1483698438669
20
-5.25785305385565
30
0
41
1
10
70.7972552271762
20
-5.28224729317284
30
0
41
1
10
70.4462972576881
20
-5.29585540800534
30
0
41
1
10
69.7438341921256
20
-5.30150563413574
30
0
41
1
10
69.3919171473871
20
-5.29351138475553
30
0
41
1
10
68.3384631486445
20
-5.23735928522302
30
0
41
1
10
67.6384238602248
20
-5.15716204984017
30
0
41
1
10
66.5859736731612
20
-4.97494694994688
30
0
41
1
10
66.2339571923869
20
-4.90371068842649
30
0
41
1
10
65.5323267531078
20
-4.74212868593327
30
0
41
1
10
65.1828936066279
20
-4.65189242362564
30
0
41
1
10
64.1373071909279
20
-4.3546178515993
30
0
41
1
10
63.443880605474
20
-4.12098544079029
30
0
41
1
10
62.0564607690001
20
-3.59246394892131
30
0
41
1
10
61.3624405345422
20
-3.29764130715154
30
0
41
1
10
60.3155376178798
20
-2.81623195474742
30
0
41
1
10
59.9655116701979
20
-2.64935042939652
30
0
41
1
10
59.2623166925501
20
-2.30411948350704
30
0
41
1
10
58.9116285007957
20
-2.12697202510694
30
0
41
1
10
57.1651077261592
20
-1.22553125990081
30
0
41
1
10
55.7854304981541
20
-0.450830279642588
30
0
41
1
10
54.0439993465847
20
0.513832620651414
30
0
41
1
10
53.694840977044
20
0.70652080670007
30
0
41
1
10
52.9937897054418
20
1.08959112678045
30
0
41
1
10
52.6413170602129
20
1.28040707805371
30
0
41
1
10
51.5906591894297
20
1.84059706190632
30
0
41
1
10
50.8950792538516
20
2.1987702581315
30
0
41
1
10
49.5069216910999
20
2.87425237473013
30
0
41
1
10
48.8137937505228
20
3.19067279297752
30
0
41
1
10
47.7706860222062
20
3.6258280324991
30
0
41
1
10
47.4223282584239
20
3.76416815824507
30
0
41
1
10
46.8979931572208
20
3.96039982541774
30
0
41
1
10
46.7229091047802
20
4.02392426688306
30
0
41
1
10
46.372075599387
20
4.14710191768498
30
0
41
1
10
46.1960839104806
20
4.20684810265905
30
0
41
1
10
44.6145588119025
20
4.72413759428741
30
0
41
1
10
43.232265876483
20
5.03613543897859
30
0
41
1
10
41.2300582302188
20
5.24855316238441
30
0
41
1
10
40.6159045507107
20
5.28156664505499
30
0
41
1
10
39.9976688532661
20
5.2812626605303
30
0
0
SPLINE
5
B2
100
AcDbEntity
8
1
62
256
6
ByLayer
370
18
48
1
60
0
100
AcDbSpline
70
4
71
3
72
18
73
14
40
0
40
0
40
0
40
0
40
0.0421450009123442
40
0.0421450009123442
40
0.281608750684258
40
0.281608750684258
40
0.401340625570215
40
0.401340625570215
40
0.521072500456172
40
0.521072500456172
40
0.760536250228086
40
0.760536250228086
40
1
40
1
40
1
40
1
41
1
10
12.887801596369
20
-5.032805031386
30
0
41
1
10
12.7655841194385
20
-5.05256299138316
30
0
41
1
10
12.6433761290494
20
-5.07107730772773
30
0
41
1
10
11.8267147534743
20
-5.18640191584069
30
0
41
1
10
11.1318488444357
20
-5.24394517958461
30
0
41
1
10
10.0831809674625
20
-5.26680652213972
30
0
41
1
10
9.73259868396323
20
-5.26385486091215
30
0
41
1
10
9.02836988798325
20
-5.23632709257413
30
0
41
1
10
8.67720154737128
20
-5.21183874063323
30
0
41
1
10
7.62635663760113
20
-5.1072253290418
30
0
41
1
10
6.92900339301707
20
-4.99578868744493
30
0
41
1
10
5.53227850203947
20
-4.69478930596034
30
0
41
1
10
4.83295667123264
20
-4.50528617881258
30
0
41
1
10
4.12914843641713
20
-4.27892853502328
30
0
0
SPLINE
5
B3
100
AcDbEntity
8
1
62
256
6
ByLayer
370
13
48
1
60
0
100
AcDbSpline
70
4
71
3
72
12
73
8
40
0
40
0
40
0
40
0
40
0.500000000000002
40
0.500000000000002
40
0.750000000000001
40
0.750000000000001
40
1
40
1
40
1
40
1
41
1
10
4.000357694369
20
-4.15295361179741
30
0
41
1
10
4.00255881634482
20
-4.13500890919124
30
0
41
1
10
4.01504566425942
20
-4.11696905236678
30
0
41
1
10
4.04796942644927
20
-4.09290757919916
30
0
41
1
10
4.06159405819196
20
-4.08520390191859
30
0
41
1
10
4.09323070264139
20
-4.07148372085013
30
0
41
1
10
4.11108489129447
20
-4.06546764400312
30
0
41
1
10
4.13130233082685
20
-4.06046361536406
30
0
0
SPLINE
5
B4
100
AcDbEntity
8
1
62
256
6
ByLayer
370
18
48
1
60
0
100
AcDbSpline
70
4
71
3
72
18
73
14
40
0
40
0
40
0
40
0
40
0.250000000000001
40
0.250000000000001
40
0.375000000000001
40
0.375000000000001
40
0.500000000000001
40
0.500000000000001
40
0.749999999999999
40
0.749999999999999
40
0.875
40
0.875
40
1
40
1
40
1
40
1
41
1
10
10.0434458358074
20
0.0170730606756422
30
0
41
1
10
9.54256947548194
20
0.280366979070919
30
0
41
1
10
9.0471113114977
20
0.549413730311215
30
0
41
1
10
8.30979305392219
20
0.956082921294836
30
0
41
1
10
8.06502147794606
20
1.09215704450136
30
0
41
1
10
7.57710900250746
20
1.36484526876401
30
0
41
1
10
7.33397268726873
20
1.50145917873132
30
0
41
1
10
6.60693881713993
20
1.91154733261075
30
0
41
1
10
6.12525838603415
20
2.18507281257061
30
0
41
1
10
5.40903888643393
20
2.59595301523919
30
0
41
1
10
5.17117853544033
20
2.733175484984
30
0
41
1
10
4.70470755373063
20
3.00516218664544
30
0
41
1
10
4.47536908657562
20
3.1403123196782
30
0
41
1
10
4.25146032241878
20
3.27509458248102
30
0
0
SPLINE
5
B5
100
AcDbEntity
8
1
62
256
6
ByLayer
370
18
48
1
60
0
100
AcDbSpline
70
4
71
3
72
90
73
86
40
0
40
0
40
0
40
0
40
0.0136900882820155
40
0.0136900882820155
40
0.0375820876204091
40
0.0375820876204091
40
0.0614740869588027
40
0.0614740869588027
40
0.0853660862971962
40
0.0853660862971962
40
0.10925808563559
40
0.10925808563559
40
0.133150084973983
40
0.133150084973983
40
0.157042084312377
40
0.157042084312377
40
0.18093408365077
40
0.18093408365077
40
0.204826082989164
40
0.204826082989164
40
0.228718082327558
40
0.228718082327558
40
0.252610081665951
40
0.252610081665951
40
0.276502081004345
40
0.276502081004345
40
0.300394080342739
40
0.300394080342739
40
0.324286079681132
40
0.324286079681132
40
0.348178079019526
40
0.348178079019526
40
0.372070078357919
40
0.372070078357919
40
0.395962077696313
40
0.395962077696313
40
0.419854077034706
40
0.419854077034706
40
0.467638075711494
40
0.467638075711494
40
0.491530075049887
40
0.491530075049887
40
0.515422074388281
40
0.515422074388281
40
0.539314073726674
40
0.539314073726674
40
0.563206073065068
40
0.563206073065068
40
0.587098072403461
40
0.587098072403461
40
0.610990071741855
40
0.610990071741855
40
0.634882071080249
40
0.634882071080249
40
0.658774070418642
40
0.658774070418642
40
0.682666069757036
40
0.682666069757036
40
0.706558069095429
40
0.706558069095429
40
0.730450068433823
40
0.730450068433823
40
0.754342067772216
40
0.754342067772216
40
0.77823406711061
40
0.77823406711061
40
0.802126066449004
40
0.802126066449004
40
0.826018065787397
40
0.826018065787397
40
0.849910065125791
40
0.849910065125791
40
0.873802064464184
40
0.873802064464184
40
0.897694063802578
40
0.897694063802578
40
0.921586063140971
40
0.921586063140971
40
0.945478062479365
40
0.945478062479365
40
0.969370061817759
40
0.969370061817759
40
0.993262061156152
40
0.993262061156152
40
1
40
1
40
1
40
1
41
1
10
61.815033885455
20
-3.81880908828239
30
0
41
1
10
61.6491779680397
20
-3.87641416485027
30
0
41
1
10
61.4831641583683
20
-3.9321542908105
30
0
41
1
10
61.026919575088
20
-4.07984186658092
30
0
41
1
10
60.7365892286843
20
-4.16778793036735
30
0
41
1
10
60.1574987381982
20
-4.33298175037825
30
0
41
1
10
59.8684759451409
20
-4.41035393184666
30
0
41
1
10
59.2898194719153
20
-4.55252799076732
30
0
41
1
10
59.0003678351092
20
-4.61753220719268
30
0
41
1
10
58.4212017592378
20
-4.73488781850247
30
0
41
1
10
58.1316201279819
20
-4.78740378334987
30
0
41
1
10
57.5516676655037
20
-4.87819857985551
30
0
41
1
10
57.2617780668743
20
-4.91599530654807
30
0
41
1
10
56.6826091880356
20
-4.97655049384838
30
0
41
1
10
56.3931297551845
20
-5.00068776844012
30
0
41
1
10
55.8146282213433
20
-5.03639590845435
30
0
41
1
10
55.5256904589606
20
-5.04767488180937
30
0
41
1
10
54.94658106793
20
-5.05489452276754
30
0
41
1
10
54.6564131578557
20
-5.05132228428712
30
0
41
1
10
54.0759015508907
20
-5.03128878848159
30
0
41
1
10
53.7862929777224
20
-5.01457276774505
30
0
41
1
10
53.2078540540714
20
-4.96651016063595
30
0
41
1
10
52.9186509439676
20
-4.93451178038865
30
0
41
1
10
52.3399022988733
20
-4.85790027402462
30
0
41
1
10
52.0503865470442
20
-4.81371491027221
30
0
41
1
10
51.4712192747926
20
-4.71177522378829
30
0
41
1
10
51.1813214306994
20
-4.65360525655925
30
0
41
1
10
50.6013311748721
20
-4.52409393343805
30
0
41
1
10
50.3115450846179
20
-4.45355570140765
30
0
41
1
10
49.7324185787156
20
-4.30120241473694
30
0
41
1
10
49.4431999794333
20
-4.21906157757186
30
0
41
1
10
48.8649461832068
20
-4.04179657464485
30
0
41
1
10
48.5754690826765
20
-3.9470597090658
30
0
41
1
10
47.9956525864802
20
-3.74834988368761
30
0
41
1
10
47.7050152659773
20
-3.6439175146065
30
0
41
1
10
47.1252768290729
20
-3.42467073455444
30
0
41
1
10
46.836182921684
20
-3.30940594665785
30
0
41
1
10
45.9681873647854
20
-2.95214651259758
30
0
41
1
10
45.38939848349
20
-2.69927462297312
30
0
41
1
10
44.5203743100757
20
-2.29356539453059
30
0
41
1
10
44.2298755642857
20
-2.15521510444552
30
0
41
1
10
43.6499463338837
20
-1.87447223640251
30
0
41
1
10
43.3602746141935
20
-1.73158934041231
30
0
41
1
10
42.7815495171683
20
-1.4404778384986
30
0
41
1
10
42.4926245362562
20
-1.29188057335716
30
0
41
1
10
41.9136988493793
20
-0.993322054982485
30
0
41
1
10
41.6238970155734
20
-0.842878397651987
30
0
41
1
10
41.0435177710814
20
-0.539151756995324
30
0
41
1
10
40.7531649337001
20
-0.385844520485307
30
0
41
1
10
40.1741562415851
20
-0.078570808980885
30
0
41
1
10
39.8846663278069
20
0.0747056224516598
30
0
41
1
10
39.3056431768578
20
0.380276124244944
30
0
41
1
10
39.016122066164
20
0.532577940715385
30
0
41
1
10
38.4370078487932
20
0.836097522530764
30
0
41
1
10
38.1475639775463
20
0.987618972482892
30
0
41
1
10
37.5671431275057
20
1.28699867339273
30
0
41
1
10
37.2768914483264
20
1.43474474803426
30
0
41
1
10
36.6974529166331
20
1.72528530177982
30
0
41
1
10
36.4081503272921
20
1.86803304156265
30
0
41
1
10
35.8299165128619
20
2.14945043038208
30
0
41
1
10
35.5405860660505
20
2.28717361015921
30
0
41
1
10
34.9612251238958
20
2.5556933431989
30
0
41
1
10
34.6711078608741
20
2.68627567651919
30
0
41
1
10
34.0905076424781
20
2.94043045213453
30
0
41
1
10
33.8009821820848
20
3.06429893705681
30
0
41
1
10
33.2217443020415
20
3.30230997254799
30
0
41
1
10
32.9321809806193
20
3.41672261158956
30
0
41
1
10
32.3530906683186
20
3.63413526944069
30
0
41
1
10
32.063567046915
20
3.73823534810393
30
0
41
1
10
31.4844619556013
20
3.93763851234624
30
0
41
1
10
31.1941172151566
20
4.03225445450838
30
0
41
1
10
30.6135578526771
20
4.2080865081777
30
0
41
1
10
30.3236622714069
20
4.28943538803441
30
0
41
1
10
29.7444610692692
20
4.44217556144483
30
0
41
1
10
29.4553970094335
20
4.51328036684021
30
0
41
1
10
28.8765330750898
20
4.64200042655881
30
0
41
1
10
28.5868403410325
20
4.69871641438164
30
0
41
1
10
28.0067795343447
20
4.79948806915922
30
0
41
1
10
27.7161856464119
20
4.84434244464677
30
0
41
1
10
27.1364603058778
20
4.92086915573464
30
0
41
1
10
26.8468333814388
20
4.95242505266995
30
0
41
1
10
26.2676920681323
20
4.99914779617342
30
0
41
1
10
25.9781408949114
20
5.01550851765495
30
0
41
1
10
25.6069902509914
20
5.02866308057912
30
0
41
1
10
25.525366195495
20
5.03104103118861
30
0
41
1
10
25.4437417896194
20
5.03288062192306
30
0
0
SPLINE
5
B6
100
AcDbEntity
8
1
62
256
6
ByLayer
370
18
48
1
60
0
100
AcDbSpline
70
4
71
3
72
12
73
8
40
0
40
0
40
0
40
0
40
0.250000000000014
40
0.250000000000014
40
0.500000000000028
40
0.500000000000028
40
1
40
1
40
1
40
1
41
1
10
4.1291484364171
20
-4.27892853502328
30
0
41
1
10
4.11111012885937
20
-4.2731270842946
30
0
41
1
10
4.09465888452348
20
-4.26614687241107
30
0
41
1
10
4.06482393311128
20
-4.24984225609202
30
0
41
1
10
4.05145592972636
20
-4.24044645363017
30
0
41
1
10
4.01824461379073
20
-4.21006245388466
30
0
41
1
10
4.00450457907323
20
-4.18620793686665
30
0
41
1
10
4.00094507074161
20
-4.16121975751003
30
0
0
SPLINE
5
B7
100
AcDbEntity
8
1
62
256
6
ByLayer
370
18
48
1
60
0
100
AcDbSpline
70
4
71
3
72
58
73
54
40
0
40
0
40
0
40
0
40
0.0398295312642213
40
0.0398295312642213
40
0.0796590625284427
40
0.0796590625284427
40
0.119488593792664
40
0.119488593792664
40
0.159318125056885
40
0.159318125056885
40
0.199147656321107
40
0.199147656321107
40
0.238977187585328
40
0.238977187585328
40
0.278806718849549
40
0.278806718849549
40
0.318636250113771
40
0.318636250113771
40
0.358465781377992
40
0.358465781377992
40
0.398295312642214
40
0.398295312642214
40
0.438124843906435
40
0.438124843906435
40
0.477954375170656
40
0.477954375170656
40
0.517783906434878
40
0.517783906434878
40
0.557613437699099
40
0.557613437699099
40
0.59744296896332
40
0.59744296896332
40
0.637272500227542
40
0.637272500227542
40
0.677102031491763
40
0.677102031491763
40
0.716931562755984
40
0.716931562755984
40
0.756761094020206
40
0.756761094020206
40
0.796590625284427
40
0.796590625284427
40
0.836420156548648
40
0.836420156548648
40
0.87624968781287
40
0.87624968781287
40
0.916079219077091
40
0.916079219077091
40
0.955908750341312
40
0.955908750341312
40
0.995738281605534
40
0.995738281605534
40
1
40
1
40
1
40
1
41
1
10
10.0436018839135
20
0.0169846799345521
30
0
41
1
10
10.3339574408019
20
-0.136485803395317
30
0
41
1
10
10.6240461268895
20
-0.289230090990458
30
0
41
1
10
11.2036375203074
20
-0.593242904929667
30
0
41
1
10
11.4931388068296
20
-0.744562257031504
30
0
41
1
10
12.0718776218073
20
-1.04546052396489
30
0
41
1
10
12.3609821731269
20
-1.19525601396578
30
0
41
1
10
12.9404859077229
20
-1.48988665518607
30
0
41
1
10
13.2308270678047
20
-1.63514410101115
30
0
41
1
10
13.8117684667932
20
-1.92144314499609
30
0
41
1
10
14.1015998977749
20
-2.06237901956621
30
0
41
1
10
14.6805005505114
20
-2.33845656856758
30
0
41
1
10
14.9700126000003
20
-2.47270134608908
30
0
41
1
10
15.5491941352129
20
-2.73379366078058
30
0
41
1
10
15.8388364317077
20
-2.8609069168044
30
0
41
1
10
16.4182238985215
20
-3.10814328273801
30
0
41
1
10
16.708216981435
20
-3.227894216783
30
0
41
1
10
17.2889015341697
20
-3.45669419323119
30
0
41
1
10
17.578953870378
20
-3.56598803114031
30
0
41
1
10
18.158461711064
20
-3.77565204793248
30
0
41
1
10
18.4478235789576
20
-3.87589437293261
30
0
41
1
10
19.0263938772255
20
-4.06426587193914
30
0
41
1
10
19.3160517008014
20
-4.1523887610862
30
0
41
1
10
19.8960532881314
20
-4.31780894227705
30
0
41
1
10
20.186671473569
20
-4.39574624198991
30
0
41
1
10
20.7668394858479
20
-4.53792837588784
30
0
41
1
10
21.0561527717609
20
-4.601999157504
30
0
41
1
10
21.6352447567754
20
-4.71740933948891
30
0
41
1
10
21.9247971696083
20
-4.7688676294585
30
0
41
1
10
22.503804564296
20
-4.85978638182624
30
0
41
1
10
22.7932375108023
20
-4.89824426005777
30
0
41
1
10
23.3725488218061
20
-4.96077574551833
30
0
41
1
10
23.6631556245562
20
-4.98501374044372
30
0
41
1
10
24.2434706829658
20
-5.02071337979243
30
0
41
1
10
24.5332625343075
20
-5.03246282277809
30
0
41
1
10
25.1121329723435
20
-5.03978674876447
30
0
41
1
10
25.4011372627268
20
-5.03598910707302
30
0
41
1
10
25.980139940596
20
-5.01540740675154
30
0
41
1
10
26.2699013454028
20
-4.99901605798098
30
0
41
1
10
26.8499615285739
20
-4.95212575965587
30
0
41
1
10
27.1405229857096
20
-4.92039210442906
30
0
41
1
10
27.7199569483399
20
-4.8437845636744
30
0
41
1
10
28.0096070996901
20
-4.79902862641563
30
0
41
1
10
28.5888162995647
20
-4.69834109546997
30
0
41
1
10
28.8783095923624
20
-4.64163461892625
30
0
41
1
10
29.4573290309974
20
-4.51282133110743
30
0
41
1
10
29.7467122651589
20
-4.44161587280888
30
0
41
1
10
30.3269830710728
20
-4.28852536732495
30
0
41
1
10
30.6176293708132
20
-4.20690886583824
30
0
41
1
10
31.1973781451169
20
-4.0312106367478
30
0
41
1
10
31.4867829511752
20
-3.93686184326242
30
0
41
1
10
31.8068883251892
20
-3.82661499849416
30
0
41
1
10
31.8378307933411
20
-3.81590792097811
30
0
41
1
10
31.8687754487197
20
-3.80514956847614
30
0
0
SPLINE
5
B8
100
AcDbEntity
8
1
62
256
6
ByLayer
370
18
48
1
60
0
100
AcDbSpline
70
4
71
3
72
30
73
26
40
0
40
0
40
0
40
0
40
0.080190580189308
40
0.080190580189308
40
0.163809618353916
40
0.163809618353916
40
0.247428656518525
40
0.247428656518525
40
0.331047694683133
40
0.331047694683133
40
0.414666732847742
40
0.414666732847742
40
0.49828577101235
40
0.49828577101235
40
0.581904809176958
40
0.581904809176958
40
0.665523847341567
40
0.665523847341567
40
0.749142885506175
40
0.749142885506175
40
0.832761923670783
40
0.832761923670783
40
0.916380961835392
40
0.916380961835392
40
1
40
1
40
1
40
1
41
1
10
55.274169634434
20
5.05076660025324
30
0
41
1
10
55.5516264921247
20
5.04666609380243
30
0
41
1
10
55.8287543283895
20
5.0355593309375
30
0
41
1
10
56.3958151661653
20
5.00048481635807
30
0
41
1
10
56.6856919622568
20
4.97628565798991
30
0
41
1
10
57.2660204137507
20
4.91549353226276
30
0
41
1
10
57.5560741717683
20
4.87757106861727
30
0
41
1
10
58.1345727845224
20
4.78687837815264
30
0
41
1
10
58.42365448386
20
4.73442212103657
30
0
41
1
10
59.0022090935045
20
4.61712758775428
30
0
41
1
10
59.2915548286196
20
4.55212724165281
30
0
41
1
10
59.8703843344843
20
4.40985926231605
30
0
41
1
10
60.1596875583966
20
4.33238808592131
30
0
41
1
10
60.7397121029388
20
4.16686607554766
30
0
41
1
10
61.0295093485514
20
4.07903011957882
30
0
41
1
10
61.6083385313521
20
3.8916082661616
30
0
41
1
10
61.8974149025204
20
3.79193778539332
30
0
41
1
10
62.4751373456724
20
3.58145081864336
30
0
41
1
10
62.7641013972714
20
3.47115498149455
30
0
41
1
10
63.3430290202164
20
3.24182208292478
30
0
41
1
10
63.6330638893451
20
3.12242115014777
30
0
41
1
10
64.2129614198672
20
2.87469702897448
30
0
41
1
10
64.5021049555907
20
2.74635646067597
30
0
41
1
10
65.0805034064341
20
2.48373254350389
30
0
41
1
10
65.3697403271185
20
2.34941062264602
30
0
41
1
10
65.6589602290707
20
2.21181276628531
30
0
0
SPLINE
5
B9
100
AcDbEntity
8
1
62
256
6
ByLayer
370
18
48
1
60
0
100
AcDbSpline
70
4
71
3
72
22
73
18
40
0
40
0
40
0
40
0
40
0.125000000000001
40
0.125000000000001
40
0.250000000000002
40
0.250000000000002
40
0.500000000000004
40
0.500000000000004
40
0.625000000000003
40
0.625000000000003
40
0.750000000000002
40
0.750000000000002
40
0.875000000000001
40
0.875000000000001
40
0.937500000000001
40
0.937500000000001
40
1
40
1
40
1
40
1
41
1
10
72.1961919737947
20
-2.61054751153841
30
0
41
1
10
72.1561000696981
20
-2.71862136199638
30
0
41
1
10
72.1159462364773
20
-2.82662493235165
30
0
41
1
10
72.0355407614151
20
-3.04225404901658
30
0
41
1
10
71.9952692471753
20
-3.14985994785522
30
0
41
1
10
71.8743844788705
20
-3.47246458917556
30
0
41
1
10
71.7937362122438
20
-3.68735710814767
30
0
41
1
10
71.6724202204488
20
-4.00865347408106
30
0
41
1
10
71.6319183583132
20
-4.1155813894045
30
0
41
1
10
71.5508980126876
20
-4.32836100387235
30
0
41
1
10
71.5103757854303
20
-4.43450454197111
30
0
41
1
10
71.4293142557228
20
-4.64644277646175
30
0
41
1
10
71.3887721631965
20
-4.75218047233139
30
0
41
1
10
71.3279176369121
20
-4.90994148048318
30
0
41
1
10
71.3076255807043
20
-4.96238110076581
30
0
41
1
10
71.2670185917097
20
-5.06679297883002
30
0
41
1
10
71.2467024163526
20
-5.11873985122782
30
0
41
1
10
71.2263847184588
20
-5.17065561860139
30
0
0
SPLINE
5
BA
100
AcDbEntity
8
1
62
256
6
ByLayer
370
18
48
1
60
0
100
AcDbSpline
70
4
71
3
72
60
73
56
40
0
40
0
40
0
40
0
40
0.124999999999991
40
0.124999999999991
40
0.249999999999982
40
0.249999999999982
40
0.374999999999973
40
0.374999999999973
40
0.499999999999963
40
0.499999999999963
40
0.562499999999959
40
0.562499999999959
40
0.624999999999955
40
0.624999999999955
40
0.687499999999951
40
0.687499999999951
40
0.70312499999995
40
0.70312499999995
40
0.70703124999995
40
0.70703124999995
40
0.71093749999995
40
0.71093749999995
40
0.71289062499995
40
0.71289062499995
40
0.714843749999951
40
0.718749999999951
40
0.718749999999951
40
0.749999999999955
40
0.749999999999955
40
0.78124999999996
40
0.78124999999996
40
0.789062499999962
40
0.789062499999962
40
0.796874999999963
40
0.804687499999964
40
0.804687499999964
40
0.812499999999966
40
0.812499999999966
40
0.828124999999968
40
0.828124999999968
40
0.843749999999971
40
0.843749999999971
40
0.859374999999974
40
0.859374999999974
40
0.874999999999977
40
0.874999999999977
40
0.890624999999979
40
0.890624999999979
40
0.906249999999982
40
0.906249999999982
40
0.937499999999988
40
0.937499999999988
40
0.968749999999994
40
0.968749999999994
40
1
40
1
40
1
40
1
41
1
10
16.8112750433967
20
3.67442818405948
30
0
41
1
10
16.0786985453388
20
3.96539380483716
30
0
41
1
10
15.3372610374951
20
4.20942112675201
30
0
41
1
10
13.8320652472473
20
4.6120825903655
30
0
41
1
10
13.0754829748964
20
4.76835198860826
30
0
41
1
10
11.545164195315
20
5.00589744177083
30
0
41
1
10
10.7713459955442
20
5.08713764111707
30
0
41
1
10
9.19868061063596
20
5.19689513861911
30
0
41
1
10
8.39983133074298
20
5.22565946854988
30
0
41
1
10
7.17911246305039
20
5.24908814304951
30
0
41
1
10
6.76804379236418
20
5.25361780358941
30
0
41
1
10
5.9399838095602
20
5.25899743946951
30
0
41
1
10
5.52450433779055
20
5.25985700866218
30
0
41
1
10
4.69049857236939
20
5.26026037171445
30
0
41
1
10
4.27167723680265
20
5.25980902333973
30
0
41
1
10
3.74742451969024
20
5.25930426444276
30
0
41
1
10
3.64250714968062
20
5.25920372244076
30
0
41
1
10
3.51138233761878
20
5.25908570474851
30
0
41
1
10
3.48511342193586
20
5.25905253179963
30
0
41
1
10
3.43285957253187
20
5.25904671228886
30
0
41
1
10
3.40686104818855
20
5.25907663668349
30
0
41
1
10
3.36825703582008
20
5.25916030747968
30
0
41
1
10
3.35642100599199
20
5.25919547766767
30
0
41
1
10
3.33350220524707
20
5.25924249572881
30
0
41
1
10
3.29920454187646
20
5.25927382061454
30
0
41
1
10
3.26515357592257
20
5.25918315618244
30
0
41
1
10
3.06187884854489
20
5.2581131775967
30
0
41
1
10
2.88773808706941
20
5.25349941607729
30
0
41
1
10
2.56963792053386
20
5.23135559162142
30
0
41
1
10
2.42438795605315
20
5.21409655664328
30
0
41
1
10
2.27152445391192
20
5.17721370102959
30
0
41
1
10
2.24242478538452
20
5.16901943128215
30
0
41
1
10
2.18882256316425
20
5.15112806509291
30
0
41
1
10
2.1394912921053
20
5.13166551194416
30
0
41
1
10
2.0994089626281
20
5.10867234794944
30
0
41
1
10
2.06437656767002
20
5.08368305249931
30
0
41
1
10
2.04933121718989
20
5.0700949442564
30
0
41
1
10
2.0132630765489
20
5.02695783070999
30
0
41
1
10
2.00094180092231
20
4.9949319134015
30
0
41
1
10
1.99916244250156
20
4.92398281742388
30
0
41
1
10
2.01005536386199
20
4.88481889503029
30
0
41
1
10
2.05147703208109
20
4.80323900197135
30
0
41
1
10
2.0820501204519
20
4.76023539600291
30
0
41
1
10
2.15856395341609
20
4.67133578763705
30
0
41
1
10
2.20382072302684
20
4.62612868124012
30
0
41
1
10
2.30485578181964
20
4.53430224320866
30
0
41
1
10
2.36066114062481
20
4.48768244440294
30
0
41
1
10
2.48064481749736
20
4.39309785652915
30
0
41
1
10
2.54500262451879
20
4.3450274569077
30
0
41
1
10
2.74499881202445
20
4.20124273674162
30
0
41
1
10
2.88840855585173
20
4.10511461870573
30
0
41
1
10
3.18826238875042
20
3.91151089959172
30
0
41
1
10
3.34481071019394
20
3.81404767011884
30
0
41
1
10
3.66749019040202
20
3.61737348550668
30
0
41
1
10
3.83310917130842
20
3.51850491705031
30
0
41
1
10
4.00042554855361
20
3.4198198332831
30
0
0
SPLINE
5
BB
100
AcDbEntity
8
1
62
256
6
ByLayer
370
18
48
1
60
0
100
AcDbSpline
70
4
71
3
72
85
73
81
40
0
40
0
40
0
40
0
40
0.0386106395739884
40
0.0386106395739884
40
0.108662390409879
40
0.108662390409879
40
0.178714141245769
40
0.178714141245769
40
0.248765892081659
40
0.248765892081659
40
0.283791767499604
40
0.283791767499604
40
0.318817642917549
40
0.318817642917549
40
0.388869393753439
40
0.388869393753439
40
0.423895269171384
40
0.423895269171384
40
0.458921144589329
40
0.458921144589329
40
0.46111026180295
40
0.461657541106356
40
0.461657541106356
40
0.461794360932207
40
0.461794360932207
40
0.461931180758059
40
0.461931180758059
40
0.462204820409761
40
0.462204820409761
40
0.463299379016572
40
0.463299379016572
40
0.467677613443816
40
0.467677613443816
40
0.476434082298304
40
0.476434082298304
40
0.49394702000728
40
0.49394702000728
40
0.528972895425232
40
0.528972895425232
40
0.599024646261136
40
0.599024646261136
40
0.66907639709704
40
0.66907639709704
40
0.704102272514992
40
0.704102272514992
40
0.71285874136948
40
0.71285874136948
40
0.717236975796724
40
0.717236975796724
40
0.721615210223968
40
0.721615210223968
40
0.722709768830779
40
0.722709768830779
40
0.723257048134184
40
0.723257048134184
40
0.723393867960035
40
0.723393867960035
40
0.723530687785887
40
0.723530687785887
40
0.723804327437589
40
0.725993444651211
40
0.730371679078455
40
0.730371679078455
40
0.739128147932942
40
0.739128147932942
40
0.774154023350891
40
0.774154023350891
40
0.80917989876884
40
0.80917989876884
40
0.844205774186789
40
0.844205774186789
40
0.879231649604738
40
0.879231649604738
40
0.949283400440635
40
0.949283400440635
40
0.96679633814961
40
0.96679633814961
40
0.984309275858584
40
0.984309275858584
40
1
40
1
40
1
40
1
41
1
10
16.8112823987251
20
3.6744519867209
30
0
41
1
10
16.6260213644698
20
3.69224602583395
30
0
41
1
10
16.440811315639
20
3.70398966208938
30
0
41
1
10
15.9192056168758
20
3.71752698242094
30
0
41
1
10
15.5821043199586
20
3.70329201620629
30
0
41
1
10
14.90427461713
20
3.61960676866687
30
0
41
1
10
14.5706639319247
20
3.55098647390776
30
0
41
1
10
13.9082265764723
20
3.36270387400455
30
0
41
1
10
13.5793575936939
20
3.24310989012818
30
0
41
1
10
13.0840140645763
20
3.03070674247456
30
0
41
1
10
12.9185514918453
20
2.95443084585517
30
0
41
1
10
12.5859371354414
20
2.79203379467379
30
0
41
1
10
12.420328433426
20
2.70666670868931
30
0
41
1
10
11.9261811837592
20
2.44166973320969
30
0
41
1
10
11.5993498190786
20
2.25275491511565
30
0
41
1
10
11.1075073515209
20
1.95992109585103
30
0
41
1
10
10.9433048459456
20
1.86071554013245
30
0
41
1
10
10.6135650555698
20
1.66044588641279
30
0
41
1
10
10.4477240191559
20
1.5591948373746
30
0
41
1
10
10.2712287877204
20
1.45182354347096
30
0
41
1
10
10.2582506157531
20
1.44392999407376
30
0
41
1
10
10.2452720720893
20
1.43603873874878
30
0
41
1
10
10.2420274198102
20
1.43406604506836
30
0
41
1
10
10.2413515687103
20
1.43371510173856
30
0
41
1
10
10.2401122091362
20
1.43283131459191
30
0
41
1
10
10.2401282487697
20
1.43193549846333
30
0
41
1
10
10.2409065532773
20
1.42988583396266
30
0
41
1
10
10.241885596946
20
1.42877090715101
30
0
41
1
10
10.2467118628426
20
1.42335878596313
30
0
41
1
10
10.2512999297519
20
1.4197763536705
30
0
41
1
10
10.2741261371042
20
1.40185238195878
30
0
41
1
10
10.29356737376
20
1.38906955093296
30
0
41
1
10
10.3518339118405
20
1.35072463254053
30
0
41
1
10
10.3913312069052
20
1.32615446462364
30
0
41
1
10
10.5102062932465
20
1.25307086821587
30
0
41
1
10
10.590152604814
20
1.20546628884264
30
0
41
1
10
10.830502022415
20
1.06377664040343
30
0
41
1
10
10.9915893186428
20
0.970992226011674
30
0
41
1
10
11.4756765476766
20
0.694889915053921
30
0
41
1
10
11.7994952867113
20
0.513881779837561
30
0
41
1
10
12.4467396738645
20
0.155050968644673
30
0
41
1
10
12.7706802269739
20
-0.0222937532921037
30
0
41
1
10
13.2542706538775
20
-0.288539428293603
30
0
41
1
10
13.4152608976302
20
-0.377121223104183
30
0
41
1
10
13.6146974238615
20
-0.488879510659984
30
0
41
1
10
13.6544882993
20
-0.511290337350573
30
0
41
1
10
13.7137812138012
20
-0.545182494900928
30
0
41
1
10
13.7334800236314
20
-0.556523718830704
30
0
41
1
10
13.7725731796798
20
-0.579425912123924
30
0
41
1
10
13.7921124642302
20
-0.590918229981071
30
0
41
1
10
13.8154521346334
20
-0.605916059963732
30
0
41
1
10
13.8200764961951
20
-0.608941295506497
30
0
41
1
10
13.8266237497833
20
-0.613711474835299
30
0
41
1
10
13.8288897809928
20
-0.61530292548963
30
0
41
1
10
13.8309155308139
20
-0.617641108280537
30
0
41
1
10
13.8313494773399
20
-0.61816961935574
30
0
41
1
10
13.8310263434831
20
-0.619017530491448
30
0
41
1
10
13.8301833316034
20
-0.619067150503469
30
0
41
1
10
13.828371452082
20
-0.619576233765514
30
0
41
1
10
13.8175001969611
20
-0.622626078423053
30
0
41
1
10
13.7873025506013
20
-0.630981496139583
30
0
41
1
10
13.7583147238912
20
-0.638703090052672
30
0
41
1
10
13.7003369125488
20
-0.653744379458175
30
0
41
1
10
13.6616939586112
20
-0.663232980634888
30
0
41
1
10
13.4684853731899
20
-0.707946063442108
30
0
41
1
10
13.3137843086982
20
-0.734974282321161
30
0
41
1
10
13.0052646753631
20
-0.770518002214885
30
0
41
1
10
12.851127963655
20
-0.779125096369171
30
0
41
1
10
12.5410365514265
20
-0.777541965408062
30
0
41
1
10
12.3850851924576
20
-0.767348218486291
30
0
41
1
10
12.0689251929745
20
-0.727535186611192
30
0
41
1
10
11.9108526642884
20
-0.698171573402391
30
0
41
1
10
11.4338043455847
20
-0.583399853002248
30
0
41
1
10
11.111637654054
20
-0.471116920332918
30
0
41
1
10
10.6936761848328
20
-0.293330399389276
30
0
41
1
10
10.6091814521776
20
-0.255836931252986
30
0
41
1
10
10.4404498100824
20
-0.17828617642445
30
0
41
1
10
10.3559958626842
20
-0.138142453294279
30
0
41
1
10
10.1955737151905
20
-0.0597795550497722
30
0
41
1
10
10.1196337775441
20
-0.0217981614036944
30
0
41
1
10
10.0435301088231
20
0.0170212912141778
30
0
0
SPLINE
5
BC
100
AcDbEntity
8
1
62
256
6
ByLayer
370
18
48
1
60
0
100
AcDbSpline
70
4
71
3
72
88
73
84
40
0
40
0
40
0
40
0
40
0.0071863551264226
40
0.0071863551264226
40
0.0300023109031586
40
0.0300023109031586
40
0.0528182666798945
40
0.0528182666798945
40
0.0756342224566304
40
0.0756342224566304
40
0.0984501782333664
40
0.0984501782333664
40
0.121266134010102
40
0.121266134010102
40
0.144082089786838
40
0.144082089786838
40
0.166898045563574
40
0.166898045563574
40
0.18971400134031
40
0.18971400134031
40
0.235345912893782
40
0.235345912893782
40
0.258161868670518
40
0.258161868670518
40
0.280977824447254
40
0.280977824447254
40
0.30379378022399
40
0.30379378022399
40
0.326609736000726
40
0.326609736000726
40
0.349425691777462
40
0.349425691777462
40
0.372241647554198
40
0.372241647554198
40
0.395057603330933
40
0.395057603330933
40
0.417873559107669
40
0.417873559107669
40
0.463505470661141
40
0.463505470661141
40
0.486321426437878
40
0.486321426437878
40
0.509137382214614
40
0.509137382214614
40
0.531953337991351
40
0.531953337991351
40
0.554769293768087
40
0.554769293768087
40
0.577585249544823
40
0.577585249544823
40
0.60040120532156
40
0.60040120532156
40
0.646033116875033
40
0.646033116875033
40
0.657441094763402
40
0.657441094763402
40
0.668849072651771
40
0.668849072651771
40
0.691665028428507
40
0.691665028428507
40
0.714480984205243
40
0.714480984205243
40
0.73729693998198
40
0.73729693998198
40
0.760112895758716
40
0.760112895758716
40
0.782928851535453
40
0.782928851535453
40
0.828560763088925
40
0.828560763088925
40
0.874192674642398
40
0.874192674642398
40
0.897008630419134
40
0.897008630419134
40
0.919824586195871
40
0.919824586195871
40
0.942640541972607
40
0.942640541972607
40
0.965456497749344
40
0.965456497749344
40
0.98827245352608
40
0.98827245352608
40
1
40
1
40
1
40
1
41
1
10
31.8557472053222
20
3.80490766773818
30
0
41
1
10
31.9448971152162
20
3.83919901638947
30
0
41
1
10
32.034014988695
20
3.87304513031921
30
0
41
1
10
32.4059210535424
20
4.01251034242506
30
0
41
1
10
32.6894302128812
20
4.11279538961904
30
0
41
1
10
33.2576985540249
20
4.3021359044981
30
0
41
1
10
33.5422698827136
20
4.39124465708105
30
0
41
1
10
34.1093626617076
20
4.55795674587978
30
0
41
1
10
34.3918338890642
20
4.63594768234842
30
0
41
1
10
34.9580478100258
20
4.77816239696404
30
0
41
1
10
35.2415311710666
20
4.84269595316476
30
0
41
1
10
35.8086844819337
20
4.95915848763701
30
0
41
1
10
36.0923634284969
20
5.01107838631381
30
0
41
1
10
36.6595259751471
20
5.10214669449397
30
0
41
1
10
36.9432291465288
20
5.14077622905981
30
0
41
1
10
37.5105273255953
20
5.20389714288487
30
0
41
1
10
37.7940782786887
20
5.22856724836493
30
0
41
1
10
38.3605295489231
20
5.26423883652899
30
0
41
1
10
38.6430220278469
20
5.27523785274869
30
0
41
1
10
39.4924294967874
20
5.28693315685661
30
0
41
1
10
40.062737958797
20
5.26681240244912
30
0
41
1
10
40.9119792691182
20
5.19463113128211
30
0
41
1
10
41.1945171493131
20
5.16350210599919
30
0
41
1
10
41.7610259916656
20
5.08823298843564
30
0
41
1
10
42.0445568099555
20
5.0439777522509
30
0
41
1
10
42.6117051613159
20
4.94194967381421
30
0
41
1
10
42.8953018556187
20
4.88391722432911
30
0
41
1
10
43.4623622333591
20
4.75473304813212
30
0
41
1
10
43.7460715732549
20
4.68429843369464
30
0
41
1
10
44.3131167488598
20
4.53149999248208
30
0
41
1
10
44.5964798675311
20
4.44915314922073
30
0
41
1
10
45.1624368748737
20
4.271989065794
30
0
41
1
10
45.4448570619658
20
4.17690835902073
30
0
41
1
10
46.0119098809268
20
3.97740895969776
30
0
41
1
10
46.296426722988
20
3.87242173307166
30
0
41
1
10
46.8644129667253
20
3.65233537019699
30
0
41
1
10
47.1477120685967
20
3.53714494452836
30
0
41
1
10
47.9958101664
20
3.17628070706789
30
0
41
1
10
48.5628519097904
20
2.92113213490703
30
0
41
1
10
49.4134908297043
20
2.51330481576215
30
0
41
1
10
49.6969496378086
20
2.37228122036095
30
0
41
1
10
50.2640580195094
20
2.08704136390529
30
0
41
1
10
50.5476561834262
20
1.94237771475099
30
0
41
1
10
51.1143786494138
20
1.64808789905308
30
0
41
1
10
51.3975148757189
20
1.49848094342048
30
0
41
1
10
51.9629072806956
20
1.19350021594948
30
0
41
1
10
52.2458744294033
20
1.03936071063356
30
0
41
1
10
52.8135514876786
20
0.729984552529771
30
0
41
1
10
53.0981089247368
20
0.574169154434827
30
0
41
1
10
53.6652772392798
20
0.261061564364354
30
0
41
1
10
53.9478056092153
20
0.102862186346584
30
0
41
1
10
54.7962511656039
20
-0.369354980711705
30
0
41
1
10
55.3635966080461
20
-0.679989166315153
30
0
41
1
10
56.072301739158
20
-1.06778118932618
30
0
41
1
10
56.2140322345147
20
-1.14544675685758
30
0
41
1
10
56.4974517125124
20
-1.29923075937441
30
0
41
1
10
56.6392156927657
20
-1.37536041443712
30
0
41
1
10
57.0644627793048
20
-1.60186831534591
30
0
41
1
10
57.347913286074
20
-1.75034966489025
30
0
41
1
10
57.9142539428186
20
-2.04309017391435
30
0
41
1
10
58.1968966133904
20
-2.18775038404703
30
0
41
1
10
58.7624029702771
20
-2.47141633783008
30
0
41
1
10
59.0460219885271
20
-2.60921072656876
30
0
41
1
10
59.6142612200425
20
-2.87797502325409
30
0
41
1
10
59.8982932990428
20
-3.00861388341573
30
0
41
1
10
60.4645688987163
20
-3.2624852138766
30
0
41
1
10
60.7467961080176
20
-3.38602687765737
30
0
41
1
10
61.5958143488004
20
-3.739435412251
30
0
41
1
10
62.1631137006232
20
-3.95530011218517
30
0
41
1
10
63.2968050163198
20
-4.34915564127033
30
0
41
1
10
63.8639110772875
20
-4.52084878105202
30
0
41
1
10
64.7127545375723
20
-4.74368218948135
30
0
41
1
10
64.9949712948594
20
-4.81238983623078
30
0
41
1
10
65.561322399998
20
-4.93593552941317
30
0
41
1
10
65.845524148507
20
-4.99106745458786
30
0
41
1
10
66.4134691812228
20
-5.08813597979656
30
0
41
1
10
66.6968876739459
20
-5.13001681994052
30
0
41
1
10
67.2621603734779
20
-5.20047213802832
30
0
41
1
10
67.5446782311907
20
-5.22873218965796
30
0
41
1
10
68.1108237657937
20
-5.27118463798158
30
0
41
1
10
68.3941474381286
20
-5.28549822359972
30
0
41
1
10
68.8231389897644
20
-5.29668045964263
30
0
41
1
10
68.9687725795876
20
-5.29863084090485
30
0
41
1
10
69.1144103817935
20
-5.29871879384015
30
0
0
SPLINE
5
BD
100
AcDbEntity
8
1
62
256
6
ByLayer
370
18
48
1
60
0
100
AcDbSpline
70
4
71
3
72
12
73
8
40
0
40
0
40
0
40
0
40
0.250000000000011
40
0.250000000000011
40
0.500000000000021
40
0.500000000000021
40
1
40
1
40
1
40
1
41
1
10
71.2003975537508
20
-5.11763932894399
30
0
41
1
10
71.2052551684119
20
-5.10452944541197
30
0
41
1
10
71.2099034167937
20
-5.09119693263881
30
0
41
1
10
71.2175830699514
20
-5.06720363835075
30
0
41
1
10
71.2205966170704
20
-5.05657390193838
30
0
41
1
10
71.2260572561685
20
-5.03281280899736
30
0
41
1
10
71.2249683723982
20
-5.02832952097887
30
0
41
1
10
71.2212805236684
20
-5.03141801425463
30
0
0
SPLINE
5
BE
100
AcDbEntity
8
1
62
256
6
ByLayer
370
18
48
1
60
0
100
AcDbSpline
70
4
71
3
72
40
73
36
40
0
40
0
40
0
40
0
40
0.250000000000005
40
0.250000000000005
40
0.375000000000008
40
0.375000000000008
40
0.437500000000006
40
0.437500000000006
40
0.500000000000005
40
0.500000000000005
40
0.625000000000003
40
0.625000000000003
40
0.687499999999999
40
0.687499999999999
40
0.718749999999999
40
0.718749999999999
40
0.75
40
0.75
40
0.781250000000001
40
0.781250000000001
40
0.812500000000001
40
0.812500000000001
40
0.843750000000002
40
0.843750000000002
40
0.875000000000003
40
0.875000000000003
40
0.890625000000003
40
0.890625000000003
40
0.906250000000003
40
0.906250000000003
40
0.937500000000002
40
0.937500000000002
40
0.968750000000001
40
0.968750000000001
40
1
40
1
40
1
40
1
41
1
10
65.6589602290708
20
2.21181276628528
30
0
41
1
10
66.0927709821505
20
1.89758394280057
30
0
41
1
10
66.5328010043602
20
1.61110567390602
30
0
41
1
10
67.2051114435866
20
1.23611685831401
30
0
41
1
10
67.4312389092885
20
1.12015166899255
30
0
41
1
10
67.7738886645878
20
0.961636062938055
30
0
41
1
10
67.8886842672449
20
0.911381120288041
30
0
41
1
10
68.1195317719782
20
0.816476878494342
30
0
41
1
10
68.2359301064581
20
0.771711037382858
30
0
41
1
10
68.5837243196588
20
0.647893631535624
30
0
41
1
10
68.8140781124094
20
0.579006632628307
30
0
41
1
10
69.1570202962405
20
0.499104411037365
30
0
41
1
10
69.2709030699921
20
0.476373873138726
30
0
41
1
10
69.4410181132021
20
0.448696210055147
30
0
41
1
10
69.497604323079
20
0.440545609063605
30
0
41
1
10
69.6105279843393
20
0.426495892851847
30
0
41
1
10
69.6670417024966
20
0.420047363764155
30
0
41
1
10
69.7785573600421
20
0.412640753360563
30
0
41
1
10
69.8336186295323
20
0.411683165879651
30
0
41
1
10
69.9408698918331
20
0.417304387700966
30
0
41
1
10
69.9934997239005
20
0.42395423335185
30
0
41
1
10
70.0920482833762
20
0.448714728894913
30
0
41
1
10
70.1383379281556
20
0.466128134680417
30
0
41
1
10
70.2239797413947
20
0.512654003261304
30
0
41
1
10
70.2636631786742
20
0.542394668534314
30
0
41
1
10
70.3130167171981
20
0.59664385387984
30
0
41
1
10
70.3278713065733
20
0.616353660407384
30
0
41
1
10
70.3540491371974
20
0.659371317752459
30
0
41
1
10
70.3653950085718
20
0.682856487797636
30
0
41
1
10
70.3925929409652
20
0.756735007927091
30
0
41
1
10
70.4020539710106
20
0.811441963522782
30
0
41
1
10
70.4036416256406
20
0.929803004830035
30
0
41
1
10
70.3964784914566
20
0.990765241892717
30
0
41
1
10
70.3718507461492
20
1.11499641443592
30
0
41
1
10
70.3540379024482
20
1.17844308303475
30
0
41
1
10
70.3324791335825
20
1.24152645231874
30
0
0
SPLINE
5
BF
100
AcDbEntity
8
1
62
256
6
ByLayer
370
18
48
1
60
0
100
AcDbSpline
70
4
71
3
72
22
73
18
40
0
40
0
40
0
40
0
40
0.125
40
0.125
40
0.25
40
0.25
40
0.499999999999999
40
0.499999999999999
40
0.624999999999999
40
0.624999999999999
40
0.749999999999999
40
0.749999999999999
40
0.874999999999999
40
0.874999999999999
40
0.9375
40
0.9375
40
1
40
1
40
1
40
1
41
1
10
72.1961919737947
20
2.61054751153844
30
0
41
1
10
72.156100069698
20
2.71862136199641
30
0
41
1
10
72.1159462364773
20
2.82662493235171
30
0
41
1
10
72.0355407614151
20
3.04225404901661
30
0
41
1
10
71.9952692471753
20
3.14985994785525
30
0
41
1
10
71.8743844788705
20
3.47246458917559
30
0
41
1
10
71.7937362122439
20
3.68735710814772
30
0
41
1
10
71.6724202204488
20
4.00865347408109
30
0
41
1
10
71.6319183583132
20
4.1155813894045
30
0
41
1
10
71.5508980126876
20
4.32836100387237
30
0
41
1
10
71.5103757854304
20
4.43450454197111
30
0
41
1
10
71.4293142557229
20
4.64644277646178
30
0
41
1
10
71.3887721631966
20
4.75218047233142
30
0
41
1
10
71.3279176369122
20
4.90994148048318
30
0
41
1
10
71.3076255807043
20
4.96238110076581
30
0
41
1
10
71.2670185917097
20
5.06679297883002
30
0
41
1
10
71.2467024163525
20
5.11873985122782
30
0
41
1
10
71.2263847184588
20
5.17065561860139
30
0
0
SPLINE
5
C0
100
AcDbEntity
8
1
62
256
6
ByLayer
370
18
48
1
60
0
100
AcDbSpline
70
4
71
3
72
16
73
12
40
0
40
0
40
0
40
0
40
0.249999999999999
40
0.249999999999999
40
0.374999999999999
40
0.374999999999999
40
0.499999999999999
40
0.499999999999999
40
0.75
40
0.75
40
1
40
1
40
1
40
1
41
1
10
70.3324791335825
20
1.24152645231874
30
0
41
1
10
70.3226162874768
20
1.27038624329069
30
0
41
1
10
70.3164648868419
20
1.30029622912824
30
0
41
1
10
70.3156411978827
20
1.34692978289667
30
0
41
1
10
70.3168086417419
20
1.36239027106851
30
0
41
1
10
70.3226698349007
20
1.39309206987645
30
0
41
1
10
70.327299855899
20
1.40857753109492
30
0
41
1
10
70.3473174059677
20
1.45227177104371
30
0
41
1
10
70.3701533932563
20
1.47630721673244
30
0
41
1
10
70.4253686940177
20
1.51015205333644
30
0
41
1
10
70.4560922718957
20
1.51999642285705
30
0
41
1
10
70.487719910549
20
1.52574728992639
30
0
0
SPLINE
5
C1
100
AcDbEntity
8
1
62
256
6
ByLayer
370
18
48
1
60
0
100
AcDbSpline
70
4
71
3
72
14
73
10
40
0
40
0
40
0
40
0
40
0.595754061004871
40
0.595754061004871
40
0.865791474846443
40
0.865791474846443
40
0.933300828306823
40
0.933300828306823
40
1
40
1
40
1
40
1
41
1
10
4.54549824666427
20
-5.25999921545358
30
0
41
1
10
4.31473898014877
20
-5.25986511628008
30
0
41
1
10
4.08359536852149
20
-5.25962793511019
30
0
41
1
10
3.74742451968686
20
-5.25930426444276
30
0
41
1
10
3.64250714967724
20
-5.25920372244076
30
0
41
1
10
3.51138233761534
20
-5.25908570474849
30
0
41
1
10
3.48511342193234
20
-5.25905253179963
30
0
41
1
10
3.43317312253203
20
-5.25904674720894
30
0
41
1
10
3.40748508481215
20
-5.25907592316537
30
0
41
1
10
3.38205172894487
20
-5.25913042012667
30
0
0
SPLINE
5
C2
100
AcDbEntity
8
1
62
256
6
ByLayer
370
18
48
1
60
0
100
AcDbSpline
70
4
71
3
72
23
73
19
40
0
40
0
40
0
40
0
40
0.124999999999996
40
0.124999999999996
40
0.187499999999996
40
0.187499999999996
40
0.249999999999995
40
0.249999999999995
40
0.499999999999995
40
0.499999999999995
40
0.562499999999996
40
0.562499999999996
40
0.624999999999997
40
0.624999999999997
40
0.749999999999998
40
0.874999999999999
40
0.874999999999999
40
1
40
1
40
1
40
1
41
1
10
71.157236107473
20
-5.06295218411583
30
0
41
1
10
71.0841143722956
20
-5.06289478949293
30
0
41
1
10
71.0144888452053
20
-5.05228908729012
30
0
41
1
10
70.9155531818316
20
-5.01977871755631
30
0
41
1
10
70.8834939657212
20
-5.00616821869519
30
0
41
1
10
70.8212880194189
20
-4.97317711541689
30
0
41
1
10
70.7910445518951
20
-4.95370979908574
30
0
41
1
10
70.6465675570098
20
-4.84264743847456
30
0
41
1
10
70.5515213786474
20
-4.71046471870636
30
0
41
1
10
70.4596172384697
20
-4.48846569767312
30
0
41
1
10
70.4425989613073
20
-4.44119070541862
30
0
41
1
10
70.4113946551951
20
-4.34066424959207
30
0
41
1
10
70.3971728404701
20
-4.2872018458533
30
0
41
1
10
70.3595054084442
20
-4.12005995660795
30
0
41
1
10
70.3221489067797
20
-3.87829336753259
30
0
41
1
10
70.3101055665792
20
-3.59932306608422
30
0
41
1
10
70.3110625230207
20
-3.30124573615518
30
0
41
1
10
70.3181671279992
20
-3.14196351168627
30
0
41
1
10
70.3317412537353
20
-2.97686349511099
30
0
0
SPLINE
5
C3
100
AcDbEntity
8
1
62
256
6
ByLayer
370
18
48
1
60
0
100
AcDbSpline
70
4
71
3
72
34
73
30
40
0
40
0
40
0
40
0
40
0.0625000000000001
40
0.0625000000000001
40
0.125
40
0.1875
40
0.1875
40
0.21875
40
0.21875
40
0.25
40
0.25
40
0.375
40
0.375
40
0.4375
40
0.4375
40
0.46875
40
0.46875
40
0.5
40
0.5
40
0.625
40
0.625
40
0.6875
40
0.6875
40
0.75
40
0.8125
40
0.8125
40
0.875
40
0.875
40
1
40
1
40
1
40
1
41
1
10
4.000357694369
20
-4.15295361179744
30
0
41
1
10
4.00036005589149
20
-4.0432561927467
30
0
41
1
10
4.0003623241405
20
-3.92601672326742
30
0
41
1
10
4.00036663881119
20
-3.68055499810555
30
0
41
1
10
4.00037074566731
20
-3.42358878929383
30
0
41
1
10
4.00037452280245
20
-3.14408517218377
30
0
41
1
10
4.00037726186486
20
-2.92592268745366
30
0
41
1
10
4.00037815923486
20
-2.85177673142127
30
0
41
1
10
4.00037992748011
20
-2.70058723019764
30
0
41
1
10
4.00038080079804
20
-2.62331656255108
30
0
41
1
10
4.00038507815395
20
-2.23276408972663
30
0
41
1
10
4.00038821491285
20
-1.90777074901666
30
0
41
1
10
4.00039273182267
20
-1.40204192946257
30
0
41
1
10
4.00039420505482
20
-1.23040248492916
30
0
41
1
10
4.00039638826837
20
-0.968207309246594
30
0
41
1
10
4.00039711189064
20
-0.879964158488491
30
0
41
1
10
4.00039853684208
20
-0.703911881069729
30
0
41
1
10
4.00039924028061
20
-0.615852381231491
30
0
41
1
10
4.00040271975328
20
-0.175390882372312
30
0
41
1
10
4.00040538924571
20
0.17749814822767
30
0
41
1
10
4.00040928346266
20
0.70761853913325
30
0
41
1
10
4.00041056750922
20
0.885270888147517
30
0
41
1
10
4.00041303774671
20
1.23339273443324
30
0
41
1
10
4.00041542108713
20
1.57577556204657
30
0
41
1
10
4.0004176065608
20
1.90691972669353
30
0
41
1
10
4.00041966877959
20
2.23239062879085
30
0
41
1
10
4.00042064173331
20
2.39289727081575
30
0
41
1
10
4.00042329507929
20
2.86141731664239
30
0
41
1
10
4.00042468734046
20
3.15142992681908
30
0
41
1
10
4.00042554856006
20
3.41981983327932
30
0
0
SPLINE
5
C4
100
AcDbEntity
8
1
62
256
6
ByLayer
370
13
48
1
60
0
100
AcDbSpline
70
4
71
3
72
30
73
26
40
0
40
0
40
0
40
0
40
0.125
40
0.125
40
0.1875
40
0.1875
40
0.25
40
0.312499999999999
40
0.312499999999999
40
0.375
40
0.375
40
0.5
40
0.5
40
0.5625
40
0.5625
40
0.624999999999999
40
0.624999999999999
40
0.687499999999999
40
0.687499999999999
40
0.75
40
0.8125
40
0.8125
40
0.875
40
0.875
40
1
40
1
40
1
40
1
41
1
10
4.25033061749139
20
-4.05847810144849
30
0
41
1
10
4.25041373737494
20
-3.85328267828081
30
0
41
1
10
4.25048805737038
20
-3.62149037407332
30
0
41
1
10
4.25059111444594
20
-3.23413230862752
30
0
41
1
10
4.25062384255054
20
-3.09906232593752
30
0
41
1
10
4.25068613700878
20
-2.8206553747944
30
0
41
1
10
4.25074552947464
20
-2.53301303685268
30
0
41
1
10
4.25080072417353
20
-2.22708228408359
30
0
41
1
10
4.25085451490258
20
-1.91180478549006
30
0
41
1
10
4.25088078623509
20
-1.74890407091445
30
0
41
1
10
4.25095669132747
20
-1.25704080399893
30
0
41
1
10
4.25100409057211
20
-0.921736924503449
30
0
41
1
10
4.25107323421742
20
-0.407748069747868
30
0
41
1
10
4.25109603030825
20
-0.23381457934201
30
0
41
1
10
4.2511406401299
20
0.113847133137341
30
0
41
1
10
4.25116242442826
20
0.287299505972129
30
0
41
1
10
4.25120504356693
20
0.633447816752721
30
0
41
1
10
4.25122586511316
20
0.806076864190487
30
0
41
1
10
4.25126578109206
20
1.14472441835454
30
0
41
1
10
4.25130415745804
20
1.47827619494598
30
0
41
1
10
4.251339019504
20
1.80177196734411
30
0
41
1
10
4.25137169439654
20
2.12014630915684
30
0
41
1
10
4.25138699244235
20
2.27746209238947
30
0
41
1
10
4.25142778228224
20
2.73165173263851
30
0
41
1
10
4.25144858293402
20
3.01366198044835
30
0
41
1
10
4.2514603176383
20
3.27509458478408
30
0
0
SPLINE
5
C5
100
AcDbEntity
8
1
62
256
6
ByLayer
370
13
48
1
60
0
100
AcDbSpline
70
4
71
3
72
18
73
14
40
0
40
0
40
0
40
0
40
0.275672114050972
40
0.275672114050972
40
0.413508171076458
40
0.413508171076458
40
0.482426199589201
40
0.482426199589201
40
0.551344228101944
40
0.551344228101944
40
0.827016342152915
40
0.827016342152915
40
1
40
1
40
1
40
1
41
1
10
4.20285554920787
20
-4.18993541519757
30
0
41
1
10
4.90658393352726
20
-4.40811053464083
30
0
41
1
10
5.60711799076222
20
-4.59031300370017
30
0
41
1
10
6.65840950754264
20
-4.8066250038265
30
0
41
1
10
7.00892950834267
20
-4.86920814210129
30
0
41
1
10
7.53554495819577
20
-4.9482430817875
30
0
41
1
10
7.7112242997153
20
-4.97211627417772
30
0
41
1
10
8.06304149781141
20
-5.0148196508656
30
0
41
1
10
8.23926120315733
20
-5.03364694261649
30
0
41
1
10
9.11756575013226
20
-5.11455679483282
30
0
41
1
10
9.81449579796674
20
-5.13754857618795
30
0
41
1
10
10.9461176028068
20
-5.10869151731177
30
0
41
1
10
11.3816913951328
20
-5.08150386439186
30
0
41
1
10
11.8174318683284
20
-5.03848324701264
30
0
0
SPLINE
5
C6
100
AcDbEntity
8
1
62
256
6
ByLayer
370
18
48
1
60
0
100
AcDbSpline
70
4
71
3
72
18
73
14
40
0
40
0
40
0
40
0
40
0.437896856248182
40
0.437896856248182
40
0.687056058042287
40
0.687056058042287
40
0.749345858490813
40
0.749345858490813
40
0.81163565893934
40
0.81163565893934
40
0.936215259836388
40
0.936215259836388
40
1
40
1
40
1
40
1
41
1
10
54.9882273854703
20
-0.0093744005986309
30
0
41
1
10
56.2182899322266
20
-0.674219688672508
30
0
41
1
10
57.4320146465406
20
-1.32992803875825
30
0
41
1
10
59.3423660233392
20
-2.28686248778723
30
0
41
1
10
60.0361909305803
20
-2.61947530399186
30
0
41
1
10
60.9095094151351
20
-3.0086673335793
30
0
41
1
10
61.0844931621981
20
-3.08515173251752
30
0
41
1
10
61.4352271802388
20
-3.23518395419779
30
0
41
1
10
61.6112387694802
20
-3.3088502862685
30
0
41
1
10
62.1379384324531
20
-3.52413767541131
30
0
41
1
10
62.4875266354959
20
-3.66015644599636
30
0
41
1
10
63.0144918496461
20
-3.85379052563093
30
0
41
1
10
63.1926581934866
20
-3.91726892917887
30
0
41
1
10
63.3706091060427
20
-3.97859927774314
30
0
0
SPLINE
5
C7
100
AcDbEntity
8
1
62
256
6
ByLayer
370
13
48
1
60
0
100
AcDbSpline
70
4
71
3
72
16
73
12
40
0
40
0
40
0
40
0
40
0.465811974788197
40
0.465811974788197
40
0.599358981091147
40
0.599358981091147
40
0.732905987394099
40
0.732905987394099
40
0.866452993697049
40
0.866452993697049
40
1
40
1
40
1
40
1
41
1
10
63.3706091045403
20
-3.97859927722533
30
0
41
1
10
64.582900034579
20
-4.39641239347608
30
0
41
1
10
65.7851927594608
20
-4.71453388667712
30
0
41
1
10
67.3443108507612
20
-4.97229406156032
30
0
41
1
10
67.6925544831023
20
-5.02006254402212
30
0
41
1
10
68.3915007962432
20
-5.09553797834991
30
0
41
1
10
68.7428991466627
20
-5.12327415788141
30
0
41
1
10
69.4457000366368
20
-5.15771300081909
30
0
41
1
10
69.7966280380191
20
-5.16443809665319
30
0
41
1
10
70.4983807289454
20
-5.15682561813884
30
0
41
1
10
70.8492264727342
20
-5.14207714603987
30
0
41
1
10
71.200397553751
20
-5.11763932894399
30
0
0
SPLINE
5
C8
100
AcDbEntity
8
1
62
256
6
ByLayer
370
18
48
1
60
0
100
AcDbSpline
70
4
71
3
72
24
73
20
40
0
40
0
40
0
40
0
40
0.25
40
0.25
40
0.5
40
0.5
40
0.625
40
0.625
40
0.6875
40
0.6875
40
0.75
40
0.75
40
0.8125
40
0.8125
40
0.875
40
0.875
40
0.9375
40
0.9375
40
1
40
1
40
1
40
1
41
1
10
70.487719910549
20
1.52574728992636
30
0
41
1
10
70.669485971766
20
1.55879789061242
30
0
41
1
10
70.849619501455
20
1.59652357681253
30
0
41
1
10
71.2043918191804
20
1.68820532910766
30
0
41
1
10
71.37919865731
20
1.74161591131752
30
0
41
1
10
71.6330543567195
20
1.8472645797051
30
0
41
1
10
71.7163489912697
20
1.88682610439716
30
0
41
1
10
71.837274504141
20
1.95779556916736
30
0
41
1
10
71.8763701669355
20
1.9831311225488
30
0
41
1
10
71.9513226575727
20
2.03832670398157
30
0
41
1
10
71.9874236305677
20
2.0684120210816
30
0
41
1
10
72.0537497622017
20
2.13370701812718
30
0
41
1
10
72.083933296067
20
2.16879419815797
30
0
41
1
10
72.1363404010814
20
2.24554808122537
30
0
41
1
10
72.1586378442641
20
2.28780470551789
30
0
41
1
10
72.1904797360467
20
2.37572826912014
30
0
41
1
10
72.2004267341287
20
2.42254564557649
30
0
41
1
10
72.2072165802033
20
2.51657850503983
30
0
41
1
10
72.2042892225568
20
2.56374645551091
30
0
41
1
10
72.1961919737947
20
2.61054751153844
30
0
0
SPLINE
5
C9
100
AcDbEntity
8
1
62
256
6
ByLayer
370
18
48
1
60
0
100
AcDbSpline
70
4
71
3
72
8
73
4
40
0
40
0
40
0
40
0
40
1
40
1
40
1
40
1
41
1
10
71.2212805236673
20
-5.03141801425562
30
0
41
1
10
71.196219109432
20
-5.05240640479411
30
0
41
1
10
71.1748517639056
20
-5.06297198668153
30
0
41
1
10
71.1572361074689
20
-5.06295218411586
30
0
0
SPLINE
5
CA
100
AcDbEntity
8
1
62
256
6
ByLayer
370
18
48
1
60
0
100
AcDbSpline
70
4
71
3
72
8
73
4
40
0
40
0
40
0
40
0
40
1
40
1
40
1
40
1
41
1
10
4.00094507074144
20
-4.16121975750804
30
0
41
1
10
4.00055431872144
20
-4.15847663102795
30
0
41
1
10
4.0003576348999
20
-4.15571607189577
30
0
41
1
10
4.00035769436903
20
-4.1529536117973
30
0
0
SPLINE
5
CB
100
AcDbEntity
8
1
62
256
6
ByLayer
370
13
48
1
60
0
100
AcDbSpline
70
4
71
3
72
8
73
4
40
0
40
0
40
0
40
0
40
1
40
1
40
1
40
1
41
1
10
4.1291484364171
20
-4.27892853502289
30
0
41
1
10
4.12986065997879
20
-4.24673879901817
30
0
41
1
10
4.13057861871377
20
-4.21454566784033
30
0
41
1
10
4.13130233082683
20
-4.1823490228571
30
0
0
SPLINE
5
CC
100
AcDbEntity
8
1
62
256
6
ByLayer
370
18
48
1
60
0
100
AcDbSpline
70
4
71
3
72
24
73
20
40
0
40
0
40
0
40
0
40
0.0624999999999984
40
0.0624999999999984
40
0.124999999999997
40
0.124999999999997
40
0.249999999999992
40
0.249999999999992
40
0.31249999999999
40
0.31249999999999
40
0.374999999999989
40
0.374999999999989
40
0.49999999999999
40
0.49999999999999
40
0.624999999999992
40
0.624999999999992
40
0.749999999999993
40
0.749999999999993
40
1
40
1
40
1
40
1
41
1
10
65.6589602290699
20
2.21181276628488
30
0
41
1
10
65.6856223445333
20
2.07574803709463
30
0
41
1
10
65.7216703165558
20
1.93882000998821
30
0
41
1
10
65.8111349173557
20
1.66336641109689
30
0
41
1
10
65.8650139343894
20
1.52397277198841
30
0
41
1
10
66.0460568823472
20
1.11456929316276
30
0
41
1
10
66.1928511834187
20
0.850403348735568
30
0
41
1
10
66.4427126239342
20
0.464124052328799
30
0
41
1
10
66.5313229333827
20
0.336695516689105
30
0
41
1
10
66.7142388728469
20
0.0892298319980682
30
0
41
1
10
66.8088666995918
20
-0.0313776904791609
30
0
41
1
10
67.10100339237
20
-0.385063004705017
30
0
41
1
10
67.3068074976591
20
-0.609962107019612
30
0
41
1
10
67.7368270433648
20
-1.04160765957525
30
0
41
1
10
67.9617677533943
20
-1.24918310482815
30
0
41
1
10
68.4174658639681
20
-1.64191263267648
30
0
41
1
10
68.6492723254345
20
-1.82806983032756
30
0
41
1
10
69.3546116194935
20
-2.36095442748464
30
0
41
1
10
69.837918278912
20
-2.6824716310843
30
0
41
1
10
70.3317412537353
20
-2.97686349511099
30
0
0
SPLINE
5
CD
100
AcDbEntity
8
1
62
256
6
ByLayer
370
18
48
1
60
0
100
AcDbSpline
70
4
71
3
72
8
73
4
40
0
40
0
40
0
40
0
40
1
40
1
40
1
40
1
41
1
10
71.1483698438669
20
-5.25785305385565
30
0
41
1
10
71.1657273701438
20
-5.21114153995384
30
0
41
1
10
71.1830704309716
20
-5.16440231395453
30
0
41
1
10
71.2003975537508
20
-5.11763932894399
30
0
0
SPLINE
5
CE
100
AcDbEntity
8
1
62
256
6
ByLayer
370
18
48
1
60
0
100
AcDbSpline
70
4
71
3
72
18
73
14
40
0
40
0
40
0
40
0
40
0.0191829706503681
40
0.0191829706503681
40
0.312052501652904
40
0.312052501652904
40
0.458487267154175
40
0.458487267154175
40
0.53170464990481
40
0.53170464990481
40
0.604922032655445
40
0.604922032655445
40
1
40
1
40
1
40
1
41
1
10
25.0178975869198
20
0.0016451871283039
30
0
41
1
10
25.0633718783562
20
-0.0228475651580595
30
0
41
1
10
25.1088443904949
20
-0.0473400538165833
30
0
41
1
10
25.8485408373339
20
-0.445727494487414
30
0
41
1
10
26.5426648105351
20
-0.818964672885642
30
0
41
1
10
27.5890456167559
20
-1.36769969891694
30
0
41
1
10
27.9387378191513
20
-1.54869604926611
30
0
41
1
10
28.4653507478759
20
-1.8159387930923
30
0
41
1
10
28.6414873641052
20
-1.90443739062894
30
0
41
1
10
28.9929671746826
20
-2.0790863422128
30
0
41
1
10
29.1683337326151
20
-2.16524755559379
30
0
41
1
10
30.2880865527746
20
-2.70807394471714
30
0
41
1
10
31.2241101169163
20
-3.128481579794
30
0
41
1
10
32.1604756821722
20
-3.49856894004211
30
0
0
SPLINE
5
CF
100
AcDbEntity
8
1
62
256
6
ByLayer
370
13
48
1
60
0
100
AcDbSpline
70
4
71
3
72
20
73
16
40
0
40
0
40
0
40
0
40
0.143141776927668
40
0.143141776927668
40
0.253079950590126
40
0.253079950590126
40
0.363018124252584
40
0.363018124252584
40
0.582894471577497
40
0.582894471577497
40
0.802770818902409
40
0.802770818902409
40
0.912708992564865
40
0.912708992564865
40
1
40
1
40
1
40
1
41
1
10
32.1604756820186
20
-3.4985689399814
30
0
41
1
10
32.6123573318466
20
-3.67716979112032
30
0
41
1
10
33.0643186317266
20
-3.84405134561624
30
0
41
1
10
33.8653320288694
20
-4.11584602372528
30
0
41
1
10
34.2139234269147
20
-4.2261734695341
30
0
41
1
10
34.9134303089914
20
-4.4299880867253
30
0
41
1
10
35.2648098165516
20
-4.5236383645811
30
0
41
1
10
36.3201077895625
20
-4.77656841029625
30
0
41
1
10
37.0223370396479
20
-4.90718949801348
30
0
41
1
10
38.4296128507855
20
-5.08710048680018
30
0
41
1
10
39.1306418738697
20
-5.1358723934911
30
0
41
1
10
40.1840041555895
20
-5.14623848909952
30
0
41
1
10
40.5361091210195
20
-5.13917239370056
30
0
41
1
10
41.1662243579962
20
-5.10780685396108
30
0
41
1
10
41.4441885207413
20
-5.08739943449896
30
0
41
1
10
41.721495982776
20
-5.06062945625771
30
0
0
SPLINE
5
D0
100
AcDbEntity
8
1
62
256
6
ByLayer
370
13
48
1
60
0
100
AcDbSpline
70
4
71
3
72
8
73
4
40
0
40
0
40
0
40
0
40
1
40
1
40
1
40
1
41
1
10
4.13130233082685
20
-4.1823490228571
30
0
41
1
10
4.1537206845982
20
-4.17956997463963
30
0
41
1
10
4.17804325339242
20
-4.18224292229289
30
0
41
1
10
4.20285554920784
20
-4.18993541519754
30
0
0
SPLINE
5
D1
100
AcDbEntity
8
1
62
256
6
ByLayer
370
18
48
1
60
0
100
AcDbSpline
70
4
71
3
72
16
73
12
40
0
40
0
40
0
40
0
40
0.0523191711549161
40
0.0523191711549161
40
0.381489095835633
40
0.381489095835633
40
0.710659020516351
40
0.710659020516351
40
0.875243982856712
40
0.875243982856712
40
1
40
1
40
1
40
1
41
1
10
40.1998849279363
20
-5.04450026067369
30
0
41
1
10
40.0882035299766
20
-5.04439485508038
30
0
41
1
10
39.9765620672629
20
-5.04325161000727
30
0
41
1
10
39.1632097929198
20
-5.02733544338437
30
0
41
1
10
38.4625157101704
20
-4.97263029552161
30
0
41
1
10
37.0560982301418
20
-4.78284472215498
30
0
41
1
10
36.3543096910998
20
-4.64834514007401
30
0
41
1
10
35.2996655575261
20
-4.39123664740589
30
0
41
1
10
34.9485601645223
20
-4.29648112851481
30
0
41
1
10
34.3340100064986
20
-4.11587468719557
30
0
41
1
10
34.0696786782669
20
-4.03332232763032
30
0
41
1
10
33.8057708241158
20
-3.94637727665273
30
0
0
SPLINE
5
D2
100
AcDbEntity
8
1
62
256
6
ByLayer
370
13
48
1
60
0
100
AcDbSpline
70
4
71
3
72
28
73
24
40
0
40
0
40
0
40
0
40
0.0194688039157616
40
0.0194688039157616
40
0.341270981137778
40
0.341270981137778
40
0.381496253290527
40
0.381496253290527
40
0.421721525443277
40
0.421721525443277
40
0.502172069748776
40
0.502172069748776
40
0.663073158359778
40
0.663073158359778
40
0.823974246970779
40
0.823974246970779
40
0.904424791276281
40
0.904424791276281
40
0.944650063429033
40
0.944650063429033
40
0.984875335581785
40
0.984875335581785
40
1
40
1
40
1
40
1
41
1
10
33.8057717737929
20
-3.94637758952601
30
0
41
1
10
33.7215176333205
20
-3.9186198721745
30
0
41
1
10
33.6373066551878
20
-3.89041443265322
30
0
41
1
10
32.1617920061078
20
-3.38831348188819
30
0
41
1
10
30.7802838492039
20
-2.79505812845588
30
0
41
1
10
29.205339791117
20
-2.03971247483975
30
0
41
1
10
29.0300592542572
20
-1.95456369076396
30
0
41
1
10
28.678762651128
20
-1.78209589231327
30
0
41
1
10
28.5027520834161
20
-1.69478160866007
30
0
41
1
10
27.9764666193294
20
-1.43122469989567
30
0
41
1
10
27.6269547719485
20
-1.25288247662664
30
0
41
1
10
26.5810260352137
20
-0.712705826003685
30
0
41
1
10
25.8870452768254
20
-0.346051292615357
30
0
41
1
10
24.4989244359874
20
0.387239739655001
30
0
41
1
10
23.8046483121208
20
0.753612656020124
30
0
41
1
10
22.7577054099283
20
1.29269555126959
30
0
41
1
10
22.4077778060924
20
1.47059494957387
30
0
41
1
10
21.8807852705831
20
1.73343388180464
30
0
41
1
10
21.7047501042826
20
1.82039270347704
30
0
41
1
10
21.3538381495033
20
1.99178548760429
30
0
41
1
10
21.1787141687651
20
2.07634375070239
30
0
41
1
10
20.9381152962473
20
2.19099245555142
30
0
41
1
10
20.8724090852331
20
2.22214705869195
30
0
41
1
10
20.8067386079648
20
2.25312349430405
30
0
0
SPLINE
5
D3
100
AcDbEntity
8
1
62
256
6
ByLayer
370
13
48
1
60
0
100
AcDbSpline
70
4
71
3
72
12
73
8
40
0
40
0
40
0
40
0
40
0.5
40
0.5
40
0.75
40
0.75
40
1
40
1
40
1
40
1
41
1
10
4.00094507074161
20
-4.16121975750798
30
0
41
1
10
4.00440489116798
20
-4.16565940095612
30
0
41
1
10
4.0174346081389
20
-4.1698804323095
30
0
41
1
10
4.05019692891375
20
-4.17531198409006
30
0
41
1
10
4.06361679309941
20
-4.17701477564481
30
0
41
1
10
4.09444285366524
20
-4.17999655675493
30
0
41
1
10
4.11176309817665
20
-4.18128342146764
30
0
41
1
10
4.13130233082685
20
-4.1823490228571
30
0
0
SPLINE
5
D4
100
AcDbEntity
8
1
62
256
6
ByLayer
370
18
48
1
60
0
100
AcDbSpline
70
4
71
3
72
10
73
6
40
0
40
0
40
0
40
0
40
0.869560985311617
40
0.869560985311617
40
1
40
1
40
1
40
1
41
1
10
71.1483698438669
20
5.25785305385565
30
0
41
1
10
70.7977383147487
20
5.28221372990521
30
0
41
1
10
70.4471317618219
20
5.29582705142005
30
0
41
1
10
70.0434681804313
20
5.29909875269104
30
0
41
1
10
69.990805702752
20
5.2992823858776
30
0
41
1
10
69.9381385897402
20
5.2992233338399
30
0
0
SPLINE
5
D5
100
AcDbEntity
8
1
62
256
6
ByLayer
370
18
48
1
60
0
100
AcDbSpline
70
4
71
3
72
48
73
44
40
0
40
0
40
0
40
0
40
0.0285164828910078
40
0.0285164828910078
40
0.0605215084160706
40
0.0605215084160706
40
0.0925265339411335
40
0.0925265339411335
40
0.156536584991259
40
0.156536584991259
40
0.220546636041385
40
0.220546636041385
40
0.28455668709151
40
0.28455668709151
40
0.316561712616574
40
0.316561712616574
40
0.348566738141637
40
0.348566738141637
40
0.412576789191764
40
0.412576789191764
40
0.476586840241892
40
0.476586840241892
40
0.508591865766955
40
0.508591865766955
40
0.540596891292019
40
0.540596891292019
40
0.668616993392272
40
0.668616993392272
40
0.700622018917335
40
0.700622018917335
40
0.732627044442398
40
0.732627044442398
40
0.796637095492525
40
0.796637095492525
40
0.860647146542652
40
0.860647146542652
40
0.892652172067716
40
0.892652172067716
40
0.908654684830248
40
0.908654684830248
40
0.92465719759278
40
0.92465719759278
40
1
40
1
40
1
40
1
41
1
10
42.775532289856
20
-5.05996170129805
30
0
41
1
10
42.4627501871485
20
-5.10960200301986
30
0
41
1
10
42.1504335247819
20
-5.15098947528293
30
0
41
1
10
41.4878777227842
20
-5.22110898636836
30
0
41
1
10
41.1376664812457
20
-5.24766677066924
30
0
41
1
10
40.4365067890889
20
-5.27944752018723
30
0
41
1
10
40.0852651479193
20
-5.28466998105839
30
0
41
1
10
39.031071762478
20
-5.26799337240257
30
0
41
1
10
38.3311050376518
20
-5.21388705207784
30
0
41
1
10
36.9289652474129
20
-5.02232516917476
30
0
41
1
10
36.2251477463016
20
-4.88434636234584
30
0
41
1
10
34.8229646735444
20
-4.5325778894975
30
0
41
1
10
34.1229046822208
20
-4.31884807069466
30
0
41
1
10
33.0685031830543
20
-3.94694680761475
30
0
41
1
10
32.7176305119022
20
-3.81493755851284
30
0
41
1
10
32.01907144312
20
-3.5372288411059
30
0
41
1
10
31.6708959542893
20
-3.39143038661058
30
0
41
1
10
30.6282788807602
20
-2.93542694282479
30
0
41
1
10
29.9355055756408
20
-2.60698093218019
30
0
41
1
10
28.5475136259287
20
-1.91252609268537
30
0
41
1
10
27.8520644304276
20
-1.54689681363041
30
0
41
1
10
26.8011704173154
20
-0.979796074482437
30
0
41
1
10
26.4488207649689
20
-0.787318820553992
30
0
41
1
10
25.7483619527455
20
-0.402373006772194
30
0
41
1
10
25.3994368482967
20
-0.209428103180926
30
0
41
1
10
23.6589123297559
20
0.753239028737909
30
0
41
1
10
22.2793749407627
20
1.51629445617488
30
0
41
1
10
20.5326623149173
20
2.39165302208733
30
0
41
1
10
20.1817392354391
20
2.56311393610318
30
0
41
1
10
19.4788218932742
20
2.89528531066327
30
0
41
1
10
19.1288495781802
20
3.05501815087098
30
0
41
1
10
18.081889406438
20
3.51337812484289
30
0
41
1
10
17.3881605347453
20
3.79158010519026
30
0
41
1
10
16.0008483415344
20
4.28319366919209
30
0
41
1
10
15.3074920560438
20
4.49688888626153
30
0
41
1
10
14.2618679484827
20
4.76237377246341
30
0
41
1
10
13.9124089488049
20
4.8417143864306
30
0
41
1
10
13.3861789646287
20
4.9462110514379
30
0
41
1
10
13.2101631356564
20
4.97866234274582
30
0
41
1
10
12.8588741906972
20
5.03830968902878
30
0
41
1
10
12.6835981634025
20
5.06551600224873
30
0
41
1
10
11.6848080768784
20
5.20585750545945
30
0
41
1
10
10.8676881860804
20
5.263503389097
30
0
41
1
10
10.0510440424484
20
5.26326182300045
30
0
0
SPLINE
5
D6
100
AcDbEntity
8
1
62
256
6
ByLayer
370
18
48
1
60
0
100
AcDbSpline
70
4
71
3
72
54
73
50
40
0
40
0
40
0
40
0
40
0.0761383581921871
40
0.0761383581921871
40
0.114207537288281
40
0.114207537288281
40
0.152276716384376
40
0.152276716384376
40
0.19034589548047
40
0.19034589548047
40
0.228415074576564
40
0.228415074576564
40
0.266484253672658
40
0.266484253672658
40
0.304553432768753
40
0.304553432768753
40
0.380691790960941
40
0.380691790960941
40
0.418760970057035
40
0.418760970057035
40
0.45683014915313
40
0.45683014915313
40
0.494899328249224
40
0.494899328249224
40
0.532968507345318
40
0.532968507345318
40
0.571037686441412
40
0.571037686441412
40
0.609106865537506
40
0.609106865537506
40
0.685245223729696
40
0.685245223729696
40
0.723314402825791
40
0.723314402825791
40
0.761383581921885
40
0.761383581921885
40
0.799452761017979
40
0.799452761017979
40
0.837521940114073
40
0.837521940114073
40
0.875591119210168
40
0.875591119210168
40
0.913660298306262
40
0.913660298306262
40
0.951729477402356
40
0.951729477402356
40
0.98979865649845
40
0.98979865649845
40
1
40
1
40
1
40
1
41
1
10
16.8112774962005
20
3.67445245759947
30
0
41
1
10
17.3786577726507
20
3.44814674567297
30
0
41
1
10
17.9467172036145
20
3.20667073320121
30
0
41
1
10
18.7965556412713
20
2.81779120127962
30
0
41
1
10
19.0791078804795
20
2.68308008741292
30
0
41
1
10
19.6461446777091
20
2.40871035159523
30
0
41
1
10
19.9306000604983
20
2.26858867802082
30
0
41
1
10
20.4993367199787
20
1.98230774237632
30
0
41
1
10
20.7831318807752
20
1.83641411090437
30
0
41
1
10
21.3491544292106
20
1.53834198132688
30
0
41
1
10
21.6321169599971
20
1.38742241676638
30
0
41
1
10
22.1990669654293
20
1.08385948506398
30
0
41
1
10
22.4827811391058
20
0.930743640500509
30
0
41
1
10
23.0502350661304
20
0.621004397380375
30
0
41
1
10
23.3339044518988
20
0.463442797893691
30
0
41
1
10
24.1851225202597
20
-0.0077824128898669
30
0
41
1
10
24.7529070588918
20
-0.318929100017584
30
0
41
1
10
25.6019056308869
20
-0.786871231940097
30
0
41
1
10
25.8847030283452
20
-0.94260006560566
30
0
41
1
10
26.4524024804001
20
-1.24905248318407
30
0
41
1
10
26.737174917932
20
-1.40073597764493
30
0
41
1
10
27.3051290793366
20
-1.70026284082405
30
0
41
1
10
27.5882082731939
20
-1.84864542730253
30
0
41
1
10
28.153982319932
20
-2.14014233467032
30
0
41
1
10
28.4373865670445
20
-2.28208714927985
30
0
41
1
10
29.0044772741075
20
-2.55974406195981
30
0
41
1
10
29.2881921175507
20
-2.69540696243851
30
0
41
1
10
29.8555191982744
20
-2.96098474153368
30
0
41
1
10
30.1391367195499
20
-3.09116487128341
30
0
41
1
10
30.9903289288893
20
-3.46445281418758
30
0
41
1
10
31.5574471787089
20
-3.69433164058412
30
0
41
1
10
32.4059210535427
20
-4.0125103424252
30
0
41
1
10
32.6894302128816
20
-4.11279538961918
30
0
41
1
10
33.2576985540252
20
-4.30213590449821
30
0
41
1
10
33.542269882714
20
-4.39124465708116
30
0
41
1
10
34.109362661708
20
-4.55795674587989
30
0
41
1
10
34.3918338890646
20
-4.63594768234853
30
0
41
1
10
34.9580478100261
20
-4.77816239696412
30
0
41
1
10
35.241531171067
20
-4.84269595316485
30
0
41
1
10
35.8086844819341
20
-4.95915848763707
30
0
41
1
10
36.0923634284973
20
-5.0110783863139
30
0
41
1
10
36.6595259751476
20
-5.10214669449402
30
0
41
1
10
36.9432291465293
20
-5.14077622905987
30
0
41
1
10
37.5105273255958
20
-5.20389714288493
30
0
41
1
10
37.7940782786892
20
-5.22856724836498
30
0
41
1
10
38.3605295489236
20
-5.26423883652902
30
0
41
1
10
38.6430220278473
20
-5.27523785274869
30
0
41
1
10
39.0020293525619
20
-5.28018094542571
30
0
41
1
10
39.0779733223649
20
-5.28072443211661
30
0
41
1
10
39.1539700746357
20
-5.28076654916438
30
0
0
SPLINE
5
D7
100
AcDbEntity
8
1
62
256
6
ByLayer
370
18
48
1
60
0
100
AcDbSpline
70
4
71
3
72
24
73
20
40
0
40
0
40
0
40
0
40
0.0964982242332463
40
0.0964982242332463
40
0.277198579386596
40
0.277198579386596
40
0.367548756963272
40
0.367548756963272
40
0.457898934539947
40
0.457898934539947
40
0.548249112116623
40
0.548249112116623
40
0.638599289693298
40
0.638599289693298
40
0.728949467269974
40
0.728949467269974
40
0.819299644846649
40
0.819299644846649
40
1
40
1
40
1
40
1
41
1
10
61.8217097342644
20
3.82041193708736
30
0
41
1
10
62.124412243745
20
3.93649933977
30
0
41
1
10
62.4272504935659
20
4.04706383560344
30
0
41
1
10
63.2968050163207
20
4.3491556412707
30
0
41
1
10
63.8639110772884
20
4.52084878105234
30
0
41
1
10
64.7127545375733
20
4.74368218948158
30
0
41
1
10
64.9949712948604
20
4.81238983623103
30
0
41
1
10
65.5613223999991
20
4.93593552941337
30
0
41
1
10
65.845524148508
20
4.99106745458806
30
0
41
1
10
66.4134691812238
20
5.08813597979673
30
0
41
1
10
66.6968876739469
20
5.13001681994066
30
0
41
1
10
67.262160373479
20
5.2004721380284
30
0
41
1
10
67.5446782311917
20
5.22873218965808
30
0
41
1
10
68.1108237657949
20
5.27118463798163
30
0
41
1
10
68.3941474381297
20
5.28549822359977
30
0
41
1
10
68.9608445958002
20
5.30026993963412
30
0
41
1
10
69.2441576603014
20
5.30066874617691
30
0
41
1
10
70.0942906461727
20
5.28054102138768
30
0
41
1
10
70.6612772987237
20
5.23952510634786
30
0
41
1
10
71.2263847184468
20
5.17065561860338
30
0
0
SPLINE
5
D8
100
AcDbEntity
8
1
62
256
6
ByLayer
370
18
48
1
60
0
100
AcDbSpline
70
4
71
3
72
14
73
10
40
0
40
0
40
0
40
0
40
0.25
40
0.25
40
0.5
40
0.5
40
0.75
40
0.75
40
1
40
1
40
1
40
1
41
1
10
4.25146031763836
20
3.2750945853586
30
0
41
1
10
4.22386631977682
20
3.29170483948033
30
0
41
1
10
4.1942891135831
20
3.3093268996185
30
0
41
1
10
4.13378585542199
20
3.34470327174063
30
0
41
1
10
4.10316993957986
20
3.36223403721061
30
0
41
1
10
4.05185143790936
20
3.39110536520633
30
0
41
1
10
4.0328726262328
20
3.40154068611861
30
0
41
1
10
4.00811588867808
20
3.41524565457962
30
0
41
1
10
4.00202106754526
20
3.41868963790205
30
0
41
1
10
4.00042554856009
20
3.41981983327929
30
0
0
SPLINE
5
D9
100
AcDbEntity
8
1
62
256
6
ByLayer
370
13
48
1
60
0
100
AcDbSpline
70
4
71
3
72
8
73
4
40
0
40
0
40
0
40
0
40
1
40
1
40
1
40
1
41
1
10
4.13130233082688
20
-4.06046361536406
30
0
41
1
10
4.1682636976083
20
-4.05131528885994
30
0
41
1
10
4.20880950750814
20
-4.05069959158564
30
0
41
1
10
4.25033061749139
20
-4.05847810144849
30
0
0
SPLINE
5
DA
100
AcDbEntity
8
1
62
256
6
ByLayer
370
18
48
1
60
0
100
AcDbSpline
70
4
71
3
72
14
73
10
40
0
40
0
40
0
40
0
40
0.185778545124166
40
0.185778545124166
40
0.374386961459219
40
0.374386961459219
40
0.562995377794272
40
0.562995377794272
40
1
40
1
40
1
40
1
41
1
10
70.1531167736744
20
-5.06249351099029
30
0
41
1
10
69.8076705451344
20
-5.06222849945783
30
0
41
1
10
69.4621712334852
20
-5.05196244842566
30
0
41
1
10
68.7650254029519
20
-5.01118529400583
30
0
41
1
10
68.4139545508173
20
-4.98037664561843
30
0
41
1
10
67.7154481327246
20
-4.89925908393849
30
0
41
1
10
67.3673765999649
20
-4.84891502131825
30
0
41
1
10
66.2154760058941
20
-4.65077452624601
30
0
41
1
10
65.4148344369907
20
-4.46174325015579
30
0
41
1
10
64.6126540753996
20
-4.2275089862714
30
0
0
SPLINE
5
DB
100
AcDbEntity
8
1
62
256
6
ByLayer
370
13
48
1
60
0
100
AcDbSpline
70
4
71
3
72
24
73
20
40
0
40
0
40
0
40
0
40
0.12672274003499
40
0.12672274003499
40
0.202018229934784
40
0.202018229934784
40
0.239665974884682
40
0.239665974884682
40
0.27731371983458
40
0.27731371983458
40
0.427904699634172
40
0.427904699634172
40
0.729086659233354
40
0.729086659233354
40
0.80438214913315
40
0.80438214913315
40
0.879677639032947
40
0.879677639032947
40
1
40
1
40
1
40
1
41
1
10
64.6126540754291
20
-4.22750898628004
30
0
41
1
10
64.0299706627911
20
-4.05736717432447
30
0
41
1
10
63.4464753523378
20
-3.86337536143907
30
0
41
1
10
62.5116115379294
20
-3.5194104974791
30
0
41
1
10
62.1621316645645
20
-3.38354180766524
30
0
41
1
10
61.6356433943106
20
-3.16893860628753
30
0
41
1
10
61.4597786848139
20
-3.09560563320201
30
0
41
1
10
61.1092949991903
20
-2.94637656816508
30
0
41
1
10
60.9344197994874
20
-2.87036452278906
30
0
41
1
10
60.0615784377578
20
-2.48387141812847
30
0
41
1
10
59.3679665967202
20
-2.15443421991978
30
0
41
1
10
57.2900881617446
20
-1.12567961497422
30
0
41
1
10
55.9094392274426
20
-0.384537655019074
30
0
41
1
10
54.1534985474526
20
0.544034779314899
30
0
41
1
10
53.8026197036847
20
0.728828753036197
30
0
41
1
10
53.1040393255449
20
1.09279567606737
30
0
41
1
10
52.7558020582425
20
1.27229800736015
30
0
41
1
10
51.8529202045695
20
1.73084997167402
30
0
41
1
10
51.2989561914399
20
2.00429501455343
30
0
41
1
10
50.7448372210388
20
2.26651114517546
30
0
0
SPLINE
5
DC
100
AcDbEntity
8
1
62
256
6
ByLayer
370
18
48
1
60
0
100
AcDbSpline
70
4
71
3
72
14
73
10
40
0
40
0
40
0
40
0
40
0.300453379365727
40
0.300453379365727
40
0.475340034524294
40
0.475340034524294
40
0.650226689682862
40
0.650226689682862
40
1
40
1
40
1
40
1
41
1
10
10.2595711609983
20
-5.02653737988243
30
0
41
1
10
9.66201043044677
20
-5.02624314219744
30
0
41
1
10
9.06287187782476
20
-4.99638757368706
30
0
41
1
10
8.10852416435995
20
-4.90148114955676
30
0
41
1
10
7.75624484907672
20
-4.85629580255065
30
0
41
1
10
7.05451722444394
20
-4.74686014975424
30
0
41
1
10
6.70420732461855
20
-4.68251339793423
30
0
41
1
10
5.6535652494274
20
-4.46168503952308
30
0
41
1
10
4.95348949720608
20
-4.2774952570899
30
0
41
1
10
4.25033061749133
20
-4.05847810144846
30
0
0
LINE
5
76
100
AcDbEntity
8
81
62
256
6
ByLayer
370
18
48
1
60
0
100
AcDbLine
10
73
20
0
30
0
11
78
21
0
31
0
39
0
210
0
220
0
230
1
0
LINE
5
77
100
AcDbEntity
8
1
62
256
6
ByLayer
370
18
48
1
60
0
100
AcDbLine
10
3.311763
20
5.259251
30
0
11
1.350927
21
5.258075
31
0
39
0
210
0
220
0
230
1
0
LINE
5
79
100
AcDbEntity
8
1
62
256
6
ByLayer
370
18
48
1
60
0
100
AcDbLine
10
10.045236
20
5.263291
30
0
11
4.462928
21
5.259942
31
0
39
0
210
0
220
0
230
1
0
LINE
5
7A
100
AcDbEntity
8
1
62
256
6
ByLayer
370
18
48
1
60
0
100
AcDbLine
10
39.995403
20
5.281261
30
0
11
39.154637
21
5.280757
31
0
39
0
210
0
220
0
230
1
0
LINE
5
7B
100
AcDbEntity
8
1
62
256
6
ByLayer
370
18
48
1
60
0
100
AcDbLine
10
69.946384
20
5.299232
30
0
11
69.113691
21
5.298732
31
0
39
0
210
0
220
0
230
1
0
LINE
5
7C
100
AcDbEntity
8
1
62
256
6
ByLayer
370
18
48
1
60
0
100
AcDbLine
10
69.113691
20
-5.298732
30
0
11
69.945998
21
-5.299232
31
0
39
0
210
0
220
0
230
1
0
LINE
5
7D
100
AcDbEntity
8
1
62
256
6
ByLayer
370
18
48
1
60
0
100
AcDbLine
10
39.154637
20
-5.280757
30
0
11
39.995524
21
-5.281262
31
0
39
0
210
0
220
0
230
1
0
LINE
5
7E
100
AcDbEntity
8
1
62
256
6
ByLayer
370
18
48
1
60
0
100
AcDbLine
10
4.462928
20
-5.259942
30
0
11
10.045412
21
-5.263291
31
0
39
0
210
0
220
0
230
1
0
LINE
5
7F
100
AcDbEntity
8
1
62
256
6
ByLayer
370
18
48
1
60
0
100
AcDbLine
10
1.350927
20
-5.258075
30
0
11
3.311763
21
-5.259251
31
0
39
0
210
0
220
0
230
1
0
LINE
5
80
100
AcDbEntity
8
SK1
62
256
6
ByLayer
370
18
48
1
60
0
100
AcDbLine
10
0
20
6
30
0
11
-43.556624
21
6
31
0
39
0
210
0
220
0
230
1
0
LINE
5
82
100
AcDbEntity
8
SK1
62
256
6
ByLayer
370
18
48
1
60
0
100
AcDbLine
10
-43.556624
20
-6
30
0
11
0
21
-6
31
0
39
0
210
0
220
0
230
1
0
LINE
5
83
100
AcDbEntity
8
SK1
62
256
6
ByLayer
370
18
48
1
60
0
100
AcDbLine
10
-43.556624
20
6
30
0
11
-45
21
3.5
31
0
39
0
210
0
220
0
230
1
0
LINE
5
84
100
AcDbEntity
8
SK1
62
256
6
ByLayer
370
18
48
1
60
0
100
AcDbLine
10
-45
20
-3.5
30
0
11
-43.556624
21
-6
31
0
39
0
210
0
220
0
230
1
0
LINE
5
85
100
AcDbEntity
8
SK4
62
256
6
ByLayer
370
18
48
0.05
60
0
100
AcDbLine
10
78
20
0
30
0
11
-50
21
0
31
0
39
0
210
0
220
0
230
1
0
LINE
5
87
100
AcDbEntity
8
4
62
256
6
ByLayer
370
18
48
0.05
60
0
100
AcDbLine
10
73
20
0
30
0
11
0
21
0
31
0
39
0
210
0
220
0
230
1
0
LINE
5
89
100
AcDbEntity
8
80
62
256
6
ByLayer
370
18
48
1
60
0
100
AcDbLine
10
0
20
0
30
0
11
-5
21
0
31
0
39
0
210
0
220
0
230
1
0
LINE
5
8A
100
AcDbEntity
8
1
62
256
6
ByLayer
370
13
48
1
60
0
100
AcDbLine
10
72.72495
20
0.991138
30
0
11
71.517743
21
0.991138
31
0
39
0
210
0
220
0
230
1
0
LINE
5
8B
100
AcDbEntity
8
1
62
256
6
ByLayer
370
18
48
1
60
0
100
AcDbLine
10
73
20
0
30
0
11
71.157236
21
-5.062952
31
0
39
0
210
0
220
0
230
1
0
LINE
5
8C
100
AcDbEntity
8
1
62
256
6
ByLayer
370
18
48
1
60
0
100
AcDbLine
10
72.911927
20
0.300848
30
0
11
72.72495
21
0.991138
31
0
39
0
210
0
220
0
230
1
0
LINE
5
8D
100
AcDbEntity
8
1
62
256
6
ByLayer
370
18
48
1
60
0
100
AcDbLine
10
73
20
0
30
0
11
72.988838
21
-0.050075
31
0
39
0
210
0
220
0
230
1
0
LINE
5
8E
100
AcDbEntity
8
1
62
256
6
ByLayer
370
13
48
1
60
0
100
AcDbLine
10
71.348284
20
0.644714
30
0
11
72.894416
21
-0.120809
31
0
39
0
210
0
220
0
230
1
0
LINE
5
8F
100
AcDbEntity
8
1
62
256
6
ByLayer
370
13
48
1
60
0
100
AcDbLine
10
0.675224
20
5.629037
30
0
11
0.675224
21
-5.629037
31
0
39
0
210
0
220
0
230
1
0
LINE
5
90
100
AcDbEntity
8
1
62
256
6
ByLayer
370
18
48
1
60
0
100
AcDbLine
10
72.911927
20
-0.300848
30
0
11
72.72495
21
-0.991138
31
0
39
0
210
0
220
0
230
1
0
LINE
5
91
100
AcDbEntity
8
1
62
256
6
ByLayer
370
13
48
1
60
0
100
AcDbLine
10
71.517743
20
0.991138
30
0
11
72.911927
21
0.300848
31
0
39
0
210
0
220
0
230
1
0
LINE
5
92
100
AcDbEntity
8
1
62
256
6
ByLayer
370
18
48
1
60
0
100
AcDbLine
10
70.331741
20
-2.976863
30
0
11
72.894416
21
-0.120809
31
0
39
0
210
0
220
0
230
1
0
LINE
5
93
100
AcDbEntity
8
1
62
256
6
ByLayer
370
13
48
1
60
0
100
AcDbLine
10
1.350927
20
5.258075
30
0
11
1.350927
21
-5.258075
31
0
39
0
210
0
220
0
230
1
0
LINE
5
94
100
AcDbEntity
8
1
62
256
6
ByLayer
370
18
48
1
60
0
100
AcDbLine
10
72.988838
20
0.050075
30
0
11
73
21
0
31
0
39
0
210
0
220
0
230
1
0
LINE
5
95
100
AcDbEntity
8
1
62
256
6
ByLayer
370
18
48
1
60
0
100
AcDbLine
10
0
20
-6
30
0
11
0
21
6
31
0
39
0
210
0
220
0
230
1
0
LINE
5
96
100
AcDbEntity
8
SK1
62
256
6
ByLayer
370
18
48
1
60
0
100
AcDbLine
10
0
20
-6
30
0
11
0
21
6
31
0
39
0
210
0
220
0
230
1
0
LINE
5
97
100
AcDbEntity
8
SK1
62
256
6
ByLayer
370
18
48
1
60
0
100
AcDbLine
10
-43.556624
20
6
30
0
11
-43.556624
21
-6
31
0
39
0
210
0
220
0
230
1
0
LINE
5
98
100
AcDbEntity
8
SK1
62
256
6
ByLayer
370
18
48
1
60
0
100
AcDbLine
10
-45
20
3.5
30
0
11
-45
21
-3.5
31
0
39
0
210
0
220
0
230
1
0
MTEXT
5
DD
100
AcDbEntity
8
SK6
62
256
6
ByLayer
370
13
48
1
60
0
100
AcDbMText
10
16.129169
20
37.682694
30
0
210
0
220
0
230
1
1
\W0.7542;R840-1060-50-A0A1220
40
3.5
41
0
44
1.084337
50
0
71
8
72
5
7
iso_b_vert
0
DIMENSION
5
EA
100
AcDbEntity
8
SK2
62
256
6
ByLayer
370
13
48
1
60
0
100
AcDbDimension
2
DimnDraft3D1
10
71.18
20
-15.513398
30
0
11
33.930059
21
-15.513398
31
0
70
32
71
5
72
1
41
1
210
0
220
0
230
1
3
Standard
100
AcDbAlignedDimension
13
0
23
-1.5875
33
0
14
71.18
24
-6.8875
34
0
50
0
100
AcDbRotatedDimension
1001
ACAD
1000
DSTYLE
1002
{
1070
   279
1070
     0
1070
   172
1070
     1
1070
   173
1070
     1
1070
   340
1005
DE
1070
   271
1070
     2
1070
   272
1070
     2
1070
    77
1070
     1
1070
    73
1070
     0
1070
   171
1070
     3
1070
   274
1070
     4
1070
   177
1070
    35
1070
   176
1070
    35
1070
   178
1070
    35
1070
    48
1040
-0.005
1070
    41
1041
3.5
1070
   147
1041
1.75
1070
    42
1041
1.5875
1070
    44
1041
2.0
1070
   140
1041
3.5
1070
   343
1005
0
1070
   344
1005
0
1002
}
0
DIMENSION
5
F4
100
AcDbEntity
8
SK2
62
256
6
ByLayer
370
13
48
1
60
0
100
AcDbDimension
2
DimnDraft3D2
10
73
20
-34.692985
30
0
11
13.5213
21
-34.692985
31
0
70
32
71
5
72
1
41
1
210
0
220
0
230
1
3
Standard
100
AcDbAlignedDimension
13
-45
23
-7.5875
33
0
14
73
24
-1.5875
34
0
50
0
100
AcDbRotatedDimension
1001
ACAD
1000
DSTYLE
1002
{
1070
   279
1070
     0
1070
   172
1070
     1
1070
   173
1070
     1
1070
   340
1005
DE
1070
   271
1070
     2
1070
   272
1070
     2
1070
    77
1070
     1
1070
    73
1070
     0
1070
   171
1070
     3
1070
   274
1070
     4
1070
   177
1070
    35
1070
   176
1070
    35
1070
   178
1070
    35
1070
    48
1040
-0.005
1070
    41
1041
3.5
1070
   147
1041
1.75
1070
    42
1041
1.5875
1070
    44
1041
2.0
1070
   140
1041
3.5
1070
   343
1005
0
1070
   344
1005
0
1002
}
0
DIMENSION
5
FE
100
AcDbEntity
8
SK2
62
256
6
ByLayer
370
13
48
1
60
0
100
AcDbDimension
2
DimnDraft3D3
10
73
20
16.909119
30
0
11
45.59
21
16.909119
31
0
70
32
71
5
72
1
41
1
210
0
220
0
230
1
3
Standard
100
AcDbAlignedDimension
13
18.18
23
6.8875
33
0
14
73
24
1.5875
34
0
50
0
100
AcDbRotatedDimension
1001
ACAD
1000
DSTYLE
1002
{
1070
   279
1070
     0
1070
   172
1070
     1
1070
   173
1070
     1
1070
   340
1005
DE
1070
   271
1070
     2
1070
   272
1070
     2
1070
    77
1070
     1
1070
    73
1070
     0
1070
   171
1070
     3
1070
   274
1070
     4
1070
   177
1070
    35
1070
   176
1070
    35
1070
   178
1070
    35
1070
    48
1040
-0.005
1070
    41
1041
3.5
1070
   147
1041
1.75
1070
    42
1041
1.5875
1070
    44
1041
2.0
1070
   140
1041
3.5
1070
   343
1005
0
1070
   344
1005
0
1002
}
0
DIMENSION
5
108
100
AcDbEntity
8
SK2
62
256
6
ByLayer
370
13
48
1
60
0
100
AcDbDimension
2
DimnDraft3D4
10
71.18
20
-18.102503
30
0
11
82.981425
21
-18.102503
31
0
70
32
71
5
72
1
41
1
210
0
220
0
230
1
3
Standard
100
AcDbAlignedDimension
13
73
23
-1.5875
33
0
14
71.18
24
-6.8875
34
0
50
0
100
AcDbRotatedDimension
1001
ACAD
1000
DSTYLE
1002
{
1070
   279
1070
     0
1070
   172
1070
     1
1070
   173
1070
     1
1070
   340
1005
DE
1070
   271
1070
     2
1070
   272
1070
     2
1070
    77
1070
     1
1070
    73
1070
     0
1070
   171
1070
     3
1070
   274
1070
     4
1070
   177
1070
    35
1070
   176
1070
    35
1070
   178
1070
    35
1070
    48
1040
-0.005
1070
    41
1041
3.5
1070
   147
1041
1.75
1070
    42
1041
1.5875
1070
    44
1041
2.0
1070
   140
1041
3.5
1070
   343
1005
0
1070
   344
1005
0
1002
}
0
DIMENSION
5
112
100
AcDbEntity
8
SK2
62
256
6
ByLayer
370
13
48
1
60
0
100
AcDbDimension
2
DimnDraft3D5
10
71.18
20
-24.343428
30
0
11
10.440676
21
-24.343428
31
0
70
32
71
5
72
1
41
1
210
0
220
0
230
1
3
Standard
100
AcDbAlignedDimension
13
-45
23
-7.5875
33
0
14
71.18
24
-6.8875
34
0
50
0
100
AcDbRotatedDimension
1001
ACAD
1000
DSTYLE
1002
{
1070
   279
1070
     0
1070
   172
1070
     1
1070
   173
1070
     1
1070
   340
1005
DE
1070
   271
1070
     2
1070
   272
1070
     2
1070
    77
1070
     1
1070
    73
1070
     0
1070
   171
1070
     3
1070
   274
1070
     4
1070
   177
1070
    35
1070
   176
1070
    35
1070
   178
1070
    35
1070
    48
1040
-0.005
1070
    41
1041
3.5
1070
   147
1041
1.75
1070
    42
1041
1.5875
1070
    44
1041
2.0
1070
   140
1041
3.5
1070
   343
1005
0
1070
   344
1005
0
1002
}
0
DIMENSION
5
11D
100
AcDbEntity
8
SK2
62
256
6
ByLayer
370
13
48
1
60
0
100
AcDbDimension
2
DimnDraft3D6
10
-55.625163
20
6
30
0
11
-56.250163
21
24.47418
31
0
70
33
71
5
72
1
41
1
210
0
220
0
230
1
3
Standard
100
AcDbAlignedDimension
13
-46.5875
23
-6
33
0
14
-46.5875
24
6
34
0
1001
ACAD
1000
DSTYLE
1002
{
1070
   279
1070
     0
1070
    74
1070
     0
1070
   173
1070
     1
1070
   340
1005
DE
1070
   271
1070
     3
1070
   272
1070
     2
1070
    77
1070
     1
1070
    73
1070
     0
1070
   171
1070
     3
1070
   274
1070
     4
1070
   177
1070
    35
1070
   176
1070
    35
1070
   178
1070
    35
1070
    48
1040
-0.005
1070
    41
1041
3.5
1070
   147
1041
1.75
1070
    42
1041
1.5875
1070
    44
1041
2.0
1070
   140
1041
3.5
1070
   343
1005
0
1070
   344
1005
0
1002
}
0
DIMENSION
5
128
100
AcDbEntity
8
2
62
256
6
ByLayer
370
13
48
1
60
0
100
AcDbDimension
2
DimnDraft3D7
10
87.083343
20
5.3
30
0
11
82.458343
21
22.367266
31
0
70
33
71
5
72
1
41
1
210
0
220
0
230
1
3
Standard
100
AcDbAlignedDimension
13
72.7675
23
-5.3
33
0
14
72.7675
24
5.3
34
0
1001
ACAD
1000
DSTYLE
1002
{
1070
   279
1070
     0
1070
    74
1070
     0
1070
   173
1070
     1
1070
   340
1005
DE
1070
   271
1070
     3
1070
   272
1070
     2
1070
    77
1070
     1
1070
    73
1070
     0
1070
   171
1070
     3
1070
   274
1070
     4
1070
   177
1070
    35
1070
   176
1070
    35
1070
   178
1070
    35
1070
    48
1040
-0.005
1070
    41
1041
3.5
1070
   147
1041
1.75
1070
    42
1041
1.5875
1070
    44
1041
2.0
1070
   140
1041
3.5
1070
   343
1005
0
1070
   344
1005
0
1002
}
0
ENDSEC
0
SECTION
2
OBJECTS
0
DICTIONARY
5
193
330
0
100
AcDbDictionary
280
0
281
1
3
ACAD_GROUP
350
194
3
ACAD_MLINESTYLE
350
195
0
DICTIONARY
5
194
330
0
100
AcDbDictionary
280
0
281
1
0
DICTIONARY
5
195
330
0
100
AcDbDictionary
280
0
281
1
3
Standard
350
18
0
MLINESTYLE
5
18
330
195
100
AcDbMlineStyle
2
Standard
70
0
3

62
256
51
90
52
90
71
2
49
-0.5
62
256
6
ByLayer
49
0.5
62
256
6
ByLayer
0
RASTERVARIABLES
5
181
330

100
AcDbRasterVariables
90
0
70
1
71
1
72
1
0
ENDSEC
0
EOF
