0
SECTION
2
HEADER
9
$ACADVER
1
AC1015
9
$DWGCODEPAGE
3
ANSI_1252
9
$HANDSEED
5
1b2
9
$ANGBASE
50
0
9
$ANGDIR
70
0
9
$ATTMODE
70
1
9
$AUNITS
70
0
9
$AUPREC
70
0
9
$CECOLOR
62
256
9
$CELTSCALE
40
1
9
$CELTYPE
6
ByLayer
9
$CELWEIGHT
370
18
9
$CLAYER
8
0
9
$CMLJUST
70
0
9
$CMLSCALE
40
1
9
$CMLSTYLE
2
Standard
9
$DIMSTYLE
2
Standard
9
$TEXTSIZE
40
0.2
9
$TEXTSTYLE
7
Standard
9
$LUNITS
70
2
9
$LUPREC
70
4
9
$EXTNAMES
290
1
9
$INSUNITS
70
4
9
$LTSCALE
40
1
9
$LWDISPLAY
290
1
9
$PDMODE
70
0
9
$PDSIZE
40
0
9
$PLINEGEN
70
0
0
ENDSEC
0
SECTION
2
CLASSES
0
CLASS
1
RASTERVARIABLES
2
AcDbRasterVariables
3
ISM
90
0
280
0
281
0
0
ENDSEC
0
SECTION
2
TABLES
0
TABLE
2
VPORT
5
1a8
100
AcDbSymbolTable
0
VPORT
5
1
100
AcDbSymbolTableRecord
100
AcDbViewportTableRecord
2
*Active
70
0
10
0
20
0
11
1
21
1
12
-1
22
1
13
0
23
0
14
0.5
24
0.5
15
10
25
10
16
0
26
0
36
1
17
0
27
0
37
0
0
ENDTAB
0
TABLE
2
LTYPE
5
1a9
100
AcDbSymbolTable
0
LTYPE
5
14
100
AcDbSymbolTableRecord
100
AcDbLinetypeTableRecord
70
0
2
ByBlock
3

72
65
73
0
40
0
0
LTYPE
5
15
100
AcDbSymbolTableRecord
100
AcDbLinetypeTableRecord
70
0
2
ByLayer
3

72
65
73
0
40
0
0
LTYPE
5
16
100
AcDbSymbolTableRecord
100
AcDbLinetypeTableRecord
70
0
2
CONTINUOUS
3
Solid line
72
65
73
0
40
0
0
LTYPE
5
6A
100
AcDbSymbolTableRecord
100
AcDbLinetypeTableRecord
70
0
2
CENTER
3
____ _ ____ _ ____ _ ____
72
65
73
4
40
47.5
49
22
74
0
49
-8.5
74
0
49
8.5
74
0
49
-8.5
74
0
0
LTYPE
5
6B
100
AcDbSymbolTableRecord
100
AcDbLinetypeTableRecord
70
0
2
DASHED
3
__ __ __ __ __ __ __ __ __
72
65
73
2
40
25.72
49
12.86
74
0
49
-12.86
74
0
0
ENDTAB
0
TABLE
2
LAYER
5
1aa
100
AcDbSymbolTable
0
LAYER
5
10
100
AcDbSymbolTableRecord
100
AcDbLayerTableRecord
2
0
70
0
62
7
6
CONTINUOUS
290
1
370
-3
390
0
0
LAYER
5
6D
100
AcDbSymbolTableRecord
100
AcDbLayerTableRecord
2
81
70
0
62
-3
6
CONTINUOUS
290
1
370
-3
390
0
0
LAYER
5
6F
100
AcDbSymbolTableRecord
100
AcDbLayerTableRecord
2
80
70
0
62
-6
6
CONTINUOUS
290
1
370
-3
390
0
0
LAYER
5
74
100
AcDbSymbolTableRecord
100
AcDbLayerTableRecord
2
2
70
0
62
7
6
CONTINUOUS
290
1
370
-3
390
0
0
LAYER
5
78
100
AcDbSymbolTableRecord
100
AcDbLayerTableRecord
2
1
70
0
62
4
6
CONTINUOUS
290
1
370
-3
390
0
0
LAYER
5
88
100
AcDbSymbolTableRecord
100
AcDbLayerTableRecord
2
4
70
0
62
-2
6
CENTER
290
1
370
-3
390
0
0
LAYER
5
194
100
AcDbSymbolTableRecord
100
AcDbLayerTableRecord
2
SK2
70
0
62
7
6
CONTINUOUS
290
1
370
-3
390
0
0
LAYER
5
195
100
AcDbSymbolTableRecord
100
AcDbLayerTableRecord
2
SK1
70
0
62
4
6
CONTINUOUS
290
1
370
-3
390
0
0
LAYER
5
196
100
AcDbSymbolTableRecord
100
AcDbLayerTableRecord
2
SK4
70
0
62
2
6
CENTER
290
1
370
-3
390
0
0
LAYER
5
197
100
AcDbSymbolTableRecord
100
AcDbLayerTableRecord
2
SK6
70
0
62
5
6
CONTINUOUS
290
1
370
-3
390
0
0
ENDTAB
0
TABLE
2
STYLE
5
1ab
100
AcDbSymbolTable
0
STYLE
5
11
100
AcDbSymbolTableRecord
100
AcDbTextStyleTableRecord
2
Standard
3
txt
70
0
71
0
40
0
41
1
42
0
50
0
0
STYLE
5
F0
100
AcDbSymbolTableRecord
100
AcDbTextStyleTableRecord
2
iso_b_vert
3
simplex.shx
70
0
71
0
40
0
41
1
42
0
50
0
0
STYLE
5
F1
100
AcDbSymbolTableRecord
100
AcDbTextStyleTableRecord
2
DWGDirectTextStyle
3
simplex
70
0
71
0
40
0
41
1
42
0
50
0
0
ENDTAB
0
TABLE
2
DIMSTYLE
5
1ac
100
AcDbSymbolTable
100
AcDbDimStyleTable
0
DIMSTYLE
105
27
100
AcDbSymbolTableRecord
100
AcDbDimStyleTableRecord
2
Standard
70
0
3
<>
41
0.18
42
0.0625
44
0.18
140
0.18
147
0.09
73
0
74
0
77
1
271
2
275
0
278
52
280
0
340
11
0
ENDTAB
0
TABLE
2
VIEW
5
1ad
100
AcDbSymbolTable
0
ENDTAB
0
TABLE
2
UCS
5
1ae
100
AcDbSymbolTable
0
ENDTAB
0
TABLE
2
APPID
5
1af
100
AcDbSymbolTable
0
APPID
5
12
100
AcDbSymbolTableRecord
100
AcDbRegAppTableRecord
2
ACAD
70
0
0
ENDTAB
0
TABLE
2
BLOCK_RECORD
5
1b0
100
AcDbSymbolTable
0
BLOCK_RECORD
5
1F
100
AcDbSymbolTableRecord
100
AcDbBlockTableRecord
2
*Model_Space
340
0
70
0
0
BLOCK_RECORD
5
1B
100
AcDbSymbolTableRecord
100
AcDbBlockTableRecord
2
*Paper_Space
340
0
70
0
0
BLOCK_RECORD
5
23
100
AcDbSymbolTableRecord
100
AcDbBlockTableRecord
2
*Paper_Space0
340
0
70
0
0
BLOCK_RECORD
5
F3
100
AcDbSymbolTableRecord
100
AcDbBlockTableRecord
2
DimnDraft3D1
340
0
70
0
0
BLOCK_RECORD
5
FD
100
AcDbSymbolTableRecord
100
AcDbBlockTableRecord
2
DimnDraft3D2
340
0
70
0
0
BLOCK_RECORD
5
107
100
AcDbSymbolTableRecord
100
AcDbBlockTableRecord
2
DimnDraft3D3
340
0
70
0
0
BLOCK_RECORD
5
111
100
AcDbSymbolTableRecord
100
AcDbBlockTableRecord
2
DimnDraft3D4
340
0
70
0
0
BLOCK_RECORD
5
11B
100
AcDbSymbolTableRecord
100
AcDbBlockTableRecord
2
DimnDraft3D5
340
0
70
0
0
BLOCK_RECORD
5
125
100
AcDbSymbolTableRecord
100
AcDbBlockTableRecord
2
DimnDraft3D6
340
0
70
0
0
BLOCK_RECORD
5
130
100
AcDbSymbolTableRecord
100
AcDbBlockTableRecord
2
DimnDraft3D7
340
0
70
0
0
ENDTAB
0
ENDSEC
0
SECTION
2
BLOCKS
0
BLOCK
5
20
100
AcDbEntity
8
0
100
AcDbBlockBegin
2
*Model_Space
70
0
10
0
20
0
30
0
3
*Model_Space
0
ENDBLK
5
21
100
AcDbEntity
8
0
100
AcDbBlockEnd
0
BLOCK
5
1C
100
AcDbEntity
8
0
100
AcDbBlockBegin
2
*Paper_Space
70
0
10
0
20
0
30
0
3
*Paper_Space
0
ENDBLK
5
1D
100
AcDbEntity
8
0
100
AcDbBlockEnd
0
BLOCK
5
24
100
AcDbEntity
8
0
100
AcDbBlockBegin
2
*Paper_Space0
70
0
10
0
20
0
30
0
3
*Paper_Space0
0
ENDBLK
5
25
100
AcDbEntity
8
0
100
AcDbBlockEnd
0
BLOCK
5
FA
100
AcDbEntity
8
0
100
AcDbBlockBegin
2
DimnDraft3D1
70
0
10
0
20
0
30
0
3
DimnDraft3D1
0
MTEXT
5
F4
100
AcDbEntity
8
SK2
62
256
6
ByLayer
370
13
48
1
60
0
100
AcDbMText
10
40.551375
20
-14.438398
30
0
210
0
220
0
230
1
1
\W0.7317;93,25
40
3.5
41
0
44
1.084337
50
0
71
7
72
5
7
iso_b_vert
0
LINE
5
F5
100
AcDbEntity
8
SK2
62
256
6
ByLayer
370
13
48
1
60
0
100
AcDbLine
10
0
20
-1.5875
30
0
11
0
21
-17.313398
31
0
39
0
210
0
220
0
230
1
0
LINE
5
F6
100
AcDbEntity
8
SK2
62
256
6
ByLayer
370
13
48
1
60
0
100
AcDbLine
10
93.25
20
-6.6875
30
0
11
93.25
21
-17.313398
31
0
39
0
210
0
220
0
230
1
0
LINE
5
F7
100
AcDbEntity
8
SK2
62
256
6
ByLayer
370
13
48
1
60
0
100
AcDbLine
10
0
20
-15.313398
30
0
11
93.25
21
-15.313398
31
0
39
0
210
0
220
0
230
1
0
SOLID
5
F8
100
AcDbEntity
8
SK2
62
256
6
ByLayer
370
13
48
1
60
0
100
AcDbTrace
10
0
20
-15.313398
30
0
11
3.499998
21
-14.852615
31
0
12
3.500002
22
-15.774182
32
0
13
0
23
-15.313398
33
0
39
0
210
0
220
0
230
1
0
SOLID
5
F9
100
AcDbEntity
8
SK2
62
256
6
ByLayer
370
13
48
1
60
0
100
AcDbTrace
10
93.25
20
-15.313398
30
0
11
89.750002
21
-15.774182
31
0
12
89.749998
22
-14.852615
32
0
13
93.25
23
-15.313398
33
0
39
0
210
0
220
0
230
1
0
ENDBLK
5
FB
100
AcDbEntity
8
0
100
AcDbBlockEnd
0
BLOCK
5
104
100
AcDbEntity
8
0
100
AcDbBlockBegin
2
DimnDraft3D2
70
0
10
0
20
0
30
0
3
DimnDraft3D2
0
MTEXT
5
FE
100
AcDbEntity
8
SK2
62
256
6
ByLayer
370
13
48
1
60
0
100
AcDbMText
10
19.088011
20
-33.817985
30
0
210
0
220
0
230
1
1
\W0.7145;140,00
40
3.5
41
0
44
1.084337
50
0
71
7
72
5
7
iso_b_vert
0
LINE
5
FF
100
AcDbEntity
8
SK2
62
256
6
ByLayer
370
13
48
1
60
0
100
AcDbLine
10
-45
20
-7.5875
30
0
11
-45
21
-36.692985
31
0
39
0
210
0
220
0
230
1
0
LINE
5
100
100
AcDbEntity
8
SK2
62
256
6
ByLayer
370
13
48
1
60
0
100
AcDbLine
10
95
20
-1.5875
30
0
11
95
21
-36.692985
31
0
39
0
210
0
220
0
230
1
0
LINE
5
101
100
AcDbEntity
8
SK2
62
256
6
ByLayer
370
13
48
1
60
0
100
AcDbLine
10
-45
20
-34.692985
30
0
11
95
21
-34.692985
31
0
39
0
210
0
220
0
230
1
0
SOLID
5
102
100
AcDbEntity
8
SK2
62
256
6
ByLayer
370
13
48
1
60
0
100
AcDbTrace
10
-45
20
-34.692985
30
0
11
-41.500002
21
-34.232202
31
0
12
-41.499998
22
-35.153769
32
0
13
-45
23
-34.692985
33
0
39
0
210
0
220
0
230
1
0
SOLID
5
103
100
AcDbEntity
8
SK2
62
256
6
ByLayer
370
13
48
1
60
0
100
AcDbTrace
10
95
20
-34.692985
30
0
11
91.500002
21
-35.153769
31
0
12
91.499998
22
-34.232202
32
0
13
95
23
-34.692985
33
0
39
0
210
0
220
0
230
1
0
ENDBLK
5
105
100
AcDbEntity
8
0
100
AcDbBlockEnd
0
BLOCK
5
10E
100
AcDbEntity
8
0
100
AcDbBlockBegin
2
DimnDraft3D3
70
0
10
0
20
0
30
0
3
DimnDraft3D3
0
MTEXT
5
108
100
AcDbEntity
8
SK2
62
256
6
ByLayer
370
13
48
1
60
0
100
AcDbMText
10
48.876316
20
17.584119
30
0
210
0
220
0
230
1
1
\W0.7317;83,35
40
3.5
41
0
44
1.084337
50
0
71
7
72
5
7
iso_b_vert
0
LINE
5
109
100
AcDbEntity
8
SK2
62
256
6
ByLayer
370
13
48
1
60
0
100
AcDbLine
10
11.65
20
6.6875
30
0
11
11.65
21
18.709119
31
0
39
0
210
0
220
0
230
1
0
LINE
5
10A
100
AcDbEntity
8
SK2
62
256
6
ByLayer
370
13
48
1
60
0
100
AcDbLine
10
95
20
1.5875
30
0
11
95
21
18.709119
31
0
39
0
210
0
220
0
230
1
0
LINE
5
10B
100
AcDbEntity
8
SK2
62
256
6
ByLayer
370
13
48
1
60
0
100
AcDbLine
10
11.65
20
16.709119
30
0
11
95
21
16.709119
31
0
39
0
210
0
220
0
230
1
0
SOLID
5
10C
100
AcDbEntity
8
SK2
62
256
6
ByLayer
370
13
48
1
60
0
100
AcDbTrace
10
11.65
20
16.709119
30
0
11
15.149998
21
17.169903
31
0
12
15.150002
22
16.248335
32
0
13
11.65
23
16.709119
33
0
39
0
210
0
220
0
230
1
0
SOLID
5
10D
100
AcDbEntity
8
SK2
62
256
6
ByLayer
370
13
48
1
60
0
100
AcDbTrace
10
95
20
16.709119
30
0
11
91.500002
21
16.248335
31
0
12
91.499998
22
17.169903
32
0
13
95
23
16.709119
33
0
39
0
210
0
220
0
230
1
0
ENDBLK
5
10F
100
AcDbEntity
8
0
100
AcDbBlockEnd
0
BLOCK
5
118
100
AcDbEntity
8
0
100
AcDbBlockBegin
2
DimnDraft3D4
70
0
10
0
20
0
30
0
3
DimnDraft3D4
0
MTEXT
5
112
100
AcDbEntity
8
SK2
62
256
6
ByLayer
370
13
48
1
60
0
100
AcDbMText
10
102.278136
20
-17.027503
30
0
210
0
220
0
230
1
1
\W0.6367;1,75
40
3.5
41
0
44
1.084337
50
0
71
7
72
5
7
iso_b_vert
0
LINE
5
113
100
AcDbEntity
8
SK2
62
256
6
ByLayer
370
13
48
1
60
0
100
AcDbLine
10
95
20
-1.5875
30
0
11
95
21
-19.902503
31
0
39
0
210
0
220
0
230
1
0
LINE
5
114
100
AcDbEntity
8
SK2
62
256
6
ByLayer
370
13
48
1
60
0
100
AcDbLine
10
93.25
20
-6.6875
30
0
11
93.25
21
-19.902503
31
0
39
0
210
0
220
0
230
1
0
LINE
5
115
100
AcDbEntity
8
SK2
62
256
6
ByLayer
370
13
48
1
60
0
100
AcDbLine
10
84.5
20
-17.902503
30
0
11
108.559715
21
-17.902503
31
0
39
0
210
0
220
0
230
1
0
SOLID
5
116
100
AcDbEntity
8
SK2
62
256
6
ByLayer
370
13
48
1
60
0
100
AcDbTrace
10
95
20
-17.902503
30
0
11
98.499998
21
-17.441719
31
0
12
98.500002
22
-18.363287
32
0
13
95
23
-17.902503
33
0
39
0
210
0
220
0
230
1
0
SOLID
5
117
100
AcDbEntity
8
SK2
62
256
6
ByLayer
370
13
48
1
60
0
100
AcDbTrace
10
93.25
20
-17.902503
30
0
11
89.750002
21
-18.363287
31
0
12
89.749998
22
-17.441719
32
0
13
93.25
23
-17.902503
33
0
39
0
210
0
220
0
230
1
0
ENDBLK
5
119
100
AcDbEntity
8
0
100
AcDbBlockEnd
0
BLOCK
5
122
100
AcDbEntity
8
0
100
AcDbBlockBegin
2
DimnDraft3D5
70
0
10
0
20
0
30
0
3
DimnDraft3D5
0
MTEXT
5
11C
100
AcDbEntity
8
SK2
62
256
6
ByLayer
370
13
48
1
60
0
100
AcDbMText
10
16.191597
20
-23.468428
30
0
210
0
220
0
230
1
1
\W0.6930;138,25
40
3.5
41
0
44
1.084337
50
0
71
7
72
5
7
iso_b_vert
0
LINE
5
11D
100
AcDbEntity
8
SK2
62
256
6
ByLayer
370
13
48
1
60
0
100
AcDbLine
10
-45
20
-7.5875
30
0
11
-45
21
-26.343428
31
0
39
0
210
0
220
0
230
1
0
LINE
5
11E
100
AcDbEntity
8
SK2
62
256
6
ByLayer
370
13
48
1
60
0
100
AcDbLine
10
93.25
20
-6.6875
30
0
11
93.25
21
-26.343428
31
0
39
0
210
0
220
0
230
1
0
LINE
5
11F
100
AcDbEntity
8
SK2
62
256
6
ByLayer
370
13
48
1
60
0
100
AcDbLine
10
-45
20
-24.343428
30
0
11
93.25
21
-24.343428
31
0
39
0
210
0
220
0
230
1
0
SOLID
5
120
100
AcDbEntity
8
SK2
62
256
6
ByLayer
370
13
48
1
60
0
100
AcDbTrace
10
-45
20
-24.343428
30
0
11
-41.500002
21
-23.882645
31
0
12
-41.499998
22
-24.804212
32
0
13
-45
23
-24.343428
33
0
39
0
210
0
220
0
230
1
0
SOLID
5
121
100
AcDbEntity
8
SK2
62
256
6
ByLayer
370
13
48
1
60
0
100
AcDbTrace
10
93.25
20
-24.343428
30
0
11
89.750002
21
-24.804212
31
0
12
89.749998
22
-23.882645
32
0
13
93.25
23
-24.343428
33
0
39
0
210
0
220
0
230
1
0
ENDBLK
5
123
100
AcDbEntity
8
0
100
AcDbBlockEnd
0
BLOCK
5
12D
100
AcDbEntity
8
0
100
AcDbBlockBegin
2
DimnDraft3D6
70
0
10
0
20
0
30
0
3
DimnDraft3D6
0
MTEXT
5
126
100
AcDbEntity
8
SK2
62
256
6
ByLayer
370
13
48
1
60
0
100
AcDbMText
10
-55.375163
20
25.34918
30
0
210
0
220
0
230
1
1
\W0.6930;12,000
40
3.5
41
0
44
1.084337
50
90
71
7
72
5
7
iso_b_vert
0
MTEXT
5
127
100
AcDbEntity
8
SK2
62
256
6
ByLayer
370
13
48
1
60
0
100
AcDbMText
10
-55.375163
20
20.126524
30
0
210
0
220
0
230
1
1
%%c
40
3.5
41
0
44
1.084337
50
90
71
7
72
5
7
iso_b_vert
0
LINE
5
128
100
AcDbEntity
8
SK2
62
256
6
ByLayer
370
13
48
1
60
0
100
AcDbLine
10
-46.5875
20
-6
30
0
11
-55.625163
21
-6
31
0
39
0
210
0
220
0
230
1
0
LINE
5
129
100
AcDbEntity
8
SK2
62
256
6
ByLayer
370
13
48
1
60
0
100
AcDbLine
10
-46.5875
20
6
30
0
11
-55.625163
21
6
31
0
39
0
210
0
220
0
230
1
0
LINE
5
12A
100
AcDbEntity
8
SK2
62
256
6
ByLayer
370
13
48
1
60
0
100
AcDbLine
10
-53.625163
20
-6
30
0
11
-53.625163
21
36.862338
31
0
39
0
210
0
220
0
230
1
0
SOLID
5
12B
100
AcDbEntity
8
SK2
62
256
6
ByLayer
370
13
48
1
60
0
100
AcDbTrace
10
-53.625163
20
-6
30
0
11
-54.085946
21
-2.500002
31
0
12
-53.164379
22
-2.499998
32
0
13
-53.625163
23
-6
33
0
39
0
210
0
220
0
230
1
0
SOLID
5
12C
100
AcDbEntity
8
SK2
62
256
6
ByLayer
370
13
48
1
60
0
100
AcDbTrace
10
-53.625163
20
6
30
0
11
-53.164379
21
2.500002
31
0
12
-54.085946
22
2.499998
32
0
13
-53.625163
23
6
33
0
39
0
210
0
220
0
230
1
0
ENDBLK
5
12E
100
AcDbEntity
8
0
100
AcDbBlockEnd
0
BLOCK
5
138
100
AcDbEntity
8
0
100
AcDbBlockBegin
2
DimnDraft3D7
70
0
10
0
20
0
30
0
3
DimnDraft3D7
0
MTEXT
5
131
100
AcDbEntity
8
2
62
256
6
ByLayer
370
13
48
1
60
0
100
AcDbMText
10
105.333343
20
23.042266
30
0
210
0
220
0
230
1
1
\W0.6930;10,200
40
3.5
41
0
44
1.084337
50
90
71
7
72
5
7
iso_b_vert
0
MTEXT
5
132
100
AcDbEntity
8
2
62
256
6
ByLayer
370
13
48
1
60
0
100
AcDbMText
10
105.333343
20
17.81961
30
0
210
0
220
0
230
1
1
%%c
40
3.5
41
0
44
1.084337
50
90
71
7
72
5
7
iso_b_vert
0
LINE
5
133
100
AcDbEntity
8
2
62
256
6
ByLayer
370
13
48
1
60
0
100
AcDbLine
10
94.8375
20
-5.1
30
0
11
109.083343
21
-5.1
31
0
39
0
210
0
220
0
230
1
0
LINE
5
134
100
AcDbEntity
8
2
62
256
6
ByLayer
370
13
48
1
60
0
100
AcDbLine
10
94.8375
20
5.1
30
0
11
109.083343
21
5.1
31
0
39
0
210
0
220
0
230
1
0
LINE
5
135
100
AcDbEntity
8
2
62
256
6
ByLayer
370
13
48
1
60
0
100
AcDbLine
10
107.083343
20
-5.1
30
0
11
107.083343
21
34.555424
31
0
39
0
210
0
220
0
230
1
0
SOLID
5
136
100
AcDbEntity
8
2
62
256
6
ByLayer
370
13
48
1
60
0
100
AcDbTrace
10
107.083343
20
-5.1
30
0
11
106.622559
21
-1.600002
31
0
12
107.544126
22
-1.599998
32
0
13
107.083343
23
-5.1
33
0
39
0
210
0
220
0
230
1
0
SOLID
5
137
100
AcDbEntity
8
2
62
256
6
ByLayer
370
13
48
1
60
0
100
AcDbTrace
10
107.083343
20
5.1
30
0
11
107.544126
21
1.600002
31
0
12
106.622559
22
1.599998
32
0
13
107.083343
23
5.1
33
0
39
0
210
0
220
0
230
1
0
ENDBLK
5
139
100
AcDbEntity
8
0
100
AcDbBlockEnd
0
ENDSEC
0
SECTION
2
ENTITIES
0
ARC
5
9F
100
AcDbEntity
8
1
62
256
6
ByLayer
370
18
48
1
60
0
100
AcDbCircle
39
0
10
0
20
5.2
30
0
40
0.800000000000001
210
0
220
0
230
1
100
AcDbArc
50
23.769845
51
90
0
ARC
5
A0
100
AcDbEntity
8
1
62
256
6
ByLayer
370
18
48
1
60
0
100
AcDbCircle
39
0
10
0
20
-5.2
30
0
40
0.800000000000001
210
0
220
0
230
1
100
AcDbArc
50
270
51
336.230155
0
ARC
5
A1
100
AcDbEntity
8
1
62
256
6
ByLayer
370
18
48
1
60
0
100
AcDbCircle
39
0
10
-1.464275
20
-5.844902
30
0
40
0.800000000000001
210
0
220
0
230
-1
100
AcDbArc
50
23.769845
51
90.034377
0
ARC
5
A2
100
AcDbEntity
8
1
62
256
6
ByLayer
370
18
48
1
60
0
100
AcDbCircle
39
0
10
-1.464275
20
5.844902
30
0
40
0.800000000000001
210
0
220
0
230
-1
100
AcDbArc
50
269.965623
51
336.230155
0
ELLIPSE
5
A3
100
AcDbEntity
8
1
62
256
6
ByLayer
370
18
48
1
60
0
100
AcDbEllipse
10
6.25
20
5.069601
30
0
11
0.25
21
0
31
0
210
0
220
0
230
1
40
1
41
-3.12539515755257
42
-1.55716823486688
0
ELLIPSE
5
A4
100
AcDbEntity
8
1
62
256
6
ByLayer
370
18
48
1
60
0
100
AcDbEllipse
10
6.25
20
-5.069601
30
0
11
0.25
21
0
31
0
210
0
220
0
230
1
40
1
41
1.57685517799762
42
3.12539515755264
0
ELLIPSE
5
A5
100
AcDbEntity
8
1
62
256
6
ByLayer
370
18
48
1
60
0
100
AcDbEllipse
10
94.860459
20
0.111296
30
0
11
0.0868803724536151
21
0.290676908854363
31
0
210
0
220
0
230
-1
40
0.467765
41
1.64862472479032
42
2.36053717391065
0
ELLIPSE
5
A6
100
AcDbEntity
8
1
62
256
6
ByLayer
370
13
48
1
60
0
100
AcDbEllipse
10
93.555741
20
0.75729
30
0
11
0.133113781883907
21
0.268850741253513
31
0
210
0
220
0
230
1
40
0.40558
41
0.884485917130962
42
2.28074931872635
0
ELLIPSE
5
A7
100
AcDbEntity
8
1
62
256
6
ByLayer
370
18
48
1
60
0
100
AcDbEllipse
10
95.000432
20
-0.001114
30
0
11
1.87007990469079
21
-5.0987100737639
31
0
210
0
220
0
230
-1
40
0.082138
41
-2.98425076187401
42
-2.88878907016549
0
ELLIPSE
5
A8
100
AcDbEntity
8
1
62
256
6
ByLayer
370
18
48
1
60
0
100
AcDbEllipse
10
95.000432
20
0.001114
30
0
11
1.87008001869807
21
5.09871040143188
31
0
210
0
220
0
230
-1
40
0.082138
41
2.88878907831854
42
2.98425076691468
0
ELLIPSE
5
A9
100
AcDbEntity
8
1
62
256
6
ByLayer
370
13
48
1
60
0
100
AcDbEllipse
10
94.306453
20
2.484045
30
0
11
3.50712760460608
21
-1.47176811008788
31
0
210
0
220
0
230
-1
40
0.443753
41
1.59870446341154
42
1.89801649087459
0
ELLIPSE
5
AA
100
AcDbEntity
8
1
62
256
6
ByLayer
370
18
48
1
60
0
100
AcDbEllipse
10
95.024812
20
0.029921
30
0
11
0.135658546037211
21
-0.40120080623953
31
0
210
0
220
0
230
-1
40
0.065863
41
1.63857681025268
42
2.32292776273342
0
ELLIPSE
5
AB
100
AcDbEntity
8
1
62
256
6
ByLayer
370
13
48
1
60
0
100
AcDbEllipse
10
94.136994
20
2.349753
30
0
11
3.46233485560338
21
-1.7799493873441
31
0
210
0
220
0
230
-1
40
0.482873
41
1.53949524915095
42
1.83093528850455
0
ELLIPSE
5
AC
100
AcDbEntity
8
1
62
256
6
ByLayer
370
18
48
1
60
0
100
AcDbEllipse
10
94.038538
20
-2.484045
30
0
11
0.785275988696673
21
2.14102862656207
31
0
210
0
220
0
230
-1
40
0.082138
41
0.755280950347254
42
1.56026996964599
0
ELLIPSE
5
AD
100
AcDbEntity
8
1
62
256
6
ByLayer
370
18
48
1
60
0
100
AcDbEllipse
10
95.024812
20
-0.029921
30
0
11
0.135658545901284
21
0.401200805889089
31
0
210
0
220
0
230
-1
40
0.065863
41
-2.32292776270246
42
-1.63857680968291
0
ELLIPSE
5
AE
100
AcDbEntity
8
1
62
256
6
ByLayer
370
18
48
1
60
0
100
AcDbEllipse
10
94.038538
20
2.484045
30
0
11
0.78527598866152
21
-2.14102862648056
31
0
210
0
220
0
230
-1
40
0.082138
41
-1.56026996967277
42
-0.755280950345535
0
POINT
5
6C
100
AcDbEntity
8
81
62
256
6
ByLayer
370
18
48
1
60
0
100
AcDbPoint
10
95
20
0
30
0
39
0
210
0
220
0
230
1
50
360
0
POINT
5
6E
100
AcDbEntity
8
80
62
256
6
ByLayer
370
18
48
1
60
0
100
AcDbPoint
10
0
20
0
30
0
39
0
210
0
220
0
230
1
50
360
0
POINT
5
70
100
AcDbEntity
8
SK2
62
256
6
ByLayer
370
18
48
1
60
1
100
AcDbPoint
10
-45
20
-6
30
0
39
0
210
0
220
0
230
1
50
360
0
POINT
5
72
100
AcDbEntity
8
SK2
62
256
6
ByLayer
370
18
48
1
60
1
100
AcDbPoint
10
-45
20
6
30
0
39
0
210
0
220
0
230
1
50
360
0
POINT
5
73
100
AcDbEntity
8
2
62
256
6
ByLayer
370
18
48
1
60
1
100
AcDbPoint
10
93.25
20
-5.1
30
0
39
0
210
0
220
0
230
1
50
360
0
POINT
5
75
100
AcDbEntity
8
2
62
256
6
ByLayer
370
18
48
1
60
1
100
AcDbPoint
10
93.25
20
5.1
30
0
39
0
210
0
220
0
230
1
50
360
0
SPLINE
5
AF
100
AcDbEntity
8
1
62
256
6
ByLayer
370
18
48
1
60
0
100
AcDbSpline
70
4
71
3
72
29
73
25
40
0
40
0
40
0
40
0
40
0.0029375526566209
40
0.0282582421757381
40
0.0473006055331512
40
0.068333516540669
40
0.0913669955726252
40
0.153313805891125
40
0.224513912853177
40
0.279974952705681
40
0.324882739241201
40
0.35517806838011
40
0.387658475326413
40
0.429204880311941
40
0.50901495414333
40
0.579667012561129
40
0.641378284588542
40
0.716858565452878
40
0.756209922523383
40
0.789582141619958
40
0.820741475210567
40
0.868594247133314
40
0.935963942565272
40
1
40
1
40
1
40
1
41
1
10
17.0114212303086
20
4.83149727231557
30
0
41
1
10
17.0008845057687
20
4.83149549940617
30
0
41
1
10
16.8995251686806
20
4.83147197783808
30
0
41
1
10
16.7298625000368
20
4.83127733745602
30
0
41
1
10
16.4953177224347
20
4.83090610033926
30
0
41
1
10
16.268950850479
20
4.83043159452637
30
0
41
1
10
15.8886899871348
20
4.82982092415412
30
0
41
1
10
15.3284833045951
20
4.8298456530606
30
0
41
1
10
14.6519592728411
20
4.83071325199379
30
0
41
1
10
14.0365565377011
20
4.8299068472673
30
0
41
1
10
13.5678758903888
20
4.82882192713734
30
0
41
1
10
13.1816215750083
20
4.82870297632653
30
0
41
1
10
12.807431122801
20
4.82853399001556
30
0
41
1
10
12.255639405683
20
4.82807400760569
30
0
41
1
10
11.5669699139228
20
4.8277756349392
30
0
41
1
10
10.8058773694573
20
4.82414137819706
30
0
41
1
10
10.0604817351004
20
4.82441060740575
30
0
41
1
10
9.42723546520466
20
4.82466540587933
30
0
41
1
10
8.89563737607739
20
4.82479607454965
30
0
41
1
10
8.52302021453104
20
4.82472678343808
30
0
41
1
10
8.11989948462229
20
4.82446786768472
30
0
41
1
10
7.59487559935806
20
4.82376967476841
30
0
41
1
10
6.9518791354094
20
4.82213832277043
30
0
41
1
10
6.48056302262185
20
4.82046340048922
30
0
41
1
10
6.25088497775087
20
4.81951973929
30
0
0
SPLINE
5
B0
100
AcDbEntity
8
1
62
256
6
ByLayer
370
18
48
1
60
0
100
AcDbSpline
70
4
71
3
72
15
73
11
40
0
40
0
40
0
40
0
40
0.041194854632119
40
0.35404201397036
40
0.506653023206394
40
0.609262228652154
40
0.632624369645201
40
0.766258764366625
40
0.910217957157274
40
1
40
1
40
1
40
1
41
1
10
18.9389077372915
20
-1.40901865154794
30
0
41
1
10
18.9387032394446
20
-1.40894319609211
30
0
41
1
10
18.9393432080178
20
-1.40911762759234
30
0
41
1
10
18.964676102615
20
-1.41839553747977
30
0
41
1
10
18.9529662392357
20
-1.41403248801237
30
0
41
1
10
18.948942840684
20
-1.41241714196121
30
0
41
1
10
19.0032472376941
20
-1.43763379136487
30
0
41
1
10
19.119535020496
20
-1.49291461720591
30
0
41
1
10
19.2565629796498
20
-1.56058073299533
30
0
41
1
10
19.3510846144657
20
-1.60881827499347
30
0
41
1
10
19.3879128621057
20
-1.62782574946306
30
0
0
SPLINE
5
B1
100
AcDbEntity
8
1
62
256
6
ByLayer
370
18
48
1
60
0
100
AcDbSpline
70
4
71
3
72
10
73
6
40
0
40
0
40
0
40
0
40
0.0301428449076112
40
0.814645763073988
40
1
40
1
40
1
40
1
41
1
10
48.8845507518498
20
-1.40733863285672
30
0
41
1
10
48.8845512972864
20
-1.40734412587557
30
0
41
1
10
48.8853017933796
20
-1.40775681628398
30
0
41
1
10
48.9105420376231
20
-1.41709323685979
30
0
41
1
10
48.9170330848397
20
-1.41989756827397
30
0
41
1
10
48.9168740444222
20
-1.41984300538815
30
0
0
SPLINE
5
B2
100
AcDbEntity
8
1
62
256
6
ByLayer
370
18
48
1
60
0
100
AcDbSpline
70
4
71
3
72
12
73
8
40
0
40
0
40
0
40
0
40
0.0620988962513997
40
0.1776459138574
40
0.38373020383707
40
0.700603012375319
40
1
40
1
40
1
40
1
41
1
10
48.9037187430317
20
-1.41429174335042
30
0
41
1
10
48.9037058167885
20
-1.41431851879923
30
0
41
1
10
48.9056151422117
20
-1.41527208331939
30
0
41
1
10
48.9275895612991
20
-1.42535937600331
30
0
41
1
10
49.0134290475411
20
-1.46586694083422
30
0
41
1
10
49.1295271073869
20
-1.52269307576364
30
0
41
1
10
49.2261210901298
20
-1.571348216155
30
0
41
1
10
49.2749356745258
20
-1.5962615174108
30
0
0
SPLINE
5
B3
100
AcDbEntity
8
1
62
256
6
ByLayer
370
18
48
1
60
0
100
AcDbSpline
70
4
71
3
72
15
73
11
40
0
40
0
40
0
40
0
40
0.0809312211716181
40
0.352028850786387
40
0.498566129078096
40
0.636560144070246
40
0.70026004849763
40
0.768195336736224
40
0.88193339636476
40
1
40
1
40
1
40
1
41
1
10
78.8282233672117
20
-1.40502824471014
30
0
41
1
10
78.8271168132436
20
-1.40464990082881
30
0
41
1
10
78.8277203077048
20
-1.40484499732628
30
0
41
1
10
78.8564962228128
20
-1.41549690762437
30
0
41
1
10
78.8684528970095
20
-1.42053752241395
30
0
41
1
10
78.8781552913682
20
-1.42541109680238
30
0
41
1
10
78.9213824026715
20
-1.44591045654394
30
0
41
1
10
78.9848300540535
20
-1.47643914912337
30
0
41
1
10
79.0926087586201
20
-1.5291815213628
30
0
41
1
10
79.1779927333204
20
-1.57229811620414
30
0
41
1
10
79.2243865514498
20
-1.59596592883494
30
0
0
SPLINE
5
B4
100
AcDbEntity
8
1
62
256
6
ByLayer
370
18
48
1
60
0
100
AcDbSpline
70
4
71
2
72
6
73
3
40
0
40
0
40
0
40
1
40
1
40
1
41
1
10
77.0225255634483
20
0.0043180364694138
30
0
41
1
10
77.0225056384419
20
0.0043283910246714
30
0
41
1
10
77.0224857134872
20
0.0043390263550691
30
0
0
SPLINE
5
B5
100
AcDbEntity
8
1
62
256
6
ByLayer
370
18
48
1
60
0
100
AcDbSpline
70
4
71
3
72
36
73
32
40
0
40
0
40
0
40
0
40
0.0562336936712982
40
0.105172675113045
40
0.146652443163631
40
0.178484272620166
40
0.202147129444055
40
0.235898573904129
40
0.275597289203921
40
0.311258591211086
40
0.347963547192258
40
0.379814130227326
40
0.40799335881803
40
0.435166625684804
40
0.47263212995038
40
0.515625936253099
40
0.554999371989182
40
0.592053862315195
40
0.635666194347701
40
0.682660377034775
40
0.719817837282373
40
0.747573756708315
40
0.770599498635384
40
0.801796013048705
40
0.835318937851369
40
0.863905406411356
40
0.887580127194976
40
0.907526248051138
40
0.934371340296456
40
0.970648786508097
40
1
40
1
40
1
40
1
41
1
10
62.1899125184506
20
-4.85258257164571
30
0
41
1
10
62.463720937295
20
-4.85225431517719
30
0
41
1
10
62.976224434867
20
-4.85208263912207
30
0
41
1
10
63.7009606212577
20
-4.85279047431411
30
0
41
1
10
64.2919324347896
20
-4.85452459756513
30
0
41
1
10
64.7700618011689
20
-4.8548136317047
30
0
41
1
10
65.2076293330813
20
-4.85514137505862
30
0
41
1
10
65.6852148282238
20
-4.85502657435913
30
0
41
1
10
66.2213147770572
20
-4.85477954486439
30
0
41
1
10
66.7720773300097
20
-4.85571234214197
30
0
41
1
10
67.2842202390049
20
-4.85700134760518
30
0
41
1
10
67.7596057744891
20
-4.85691903174384
30
0
41
1
10
68.1881601432931
20
-4.85666529717781
30
0
41
1
10
68.6442958528864
20
-4.85646204962012
30
0
41
1
10
69.1732501780782
20
-4.85680589972199
30
0
41
1
10
69.7621448295568
20
-4.85967961168794
30
0
41
1
10
70.3489747087199
20
-4.85941433076329
30
0
41
1
10
70.9388736727217
20
-4.85897505772184
30
0
41
1
10
71.5662667177005
20
-4.85715301931205
30
0
41
1
10
72.1941114457577
20
-4.86010399230832
30
0
41
1
10
72.7440526428586
20
-4.85916950356958
30
0
41
1
10
73.1762195817398
20
-4.85829528386572
30
0
41
1
10
73.579090836153
20
-4.85765156090483
30
0
41
1
10
74.0102967367347
20
-4.85745902965235
30
0
41
1
10
74.4688430379285
20
-4.85817442910886
30
0
41
1
10
74.8904027473976
20
-4.86206020101338
30
0
41
1
10
75.2452478945072
20
-4.86361694949665
30
0
41
1
10
75.5915318829667
20
-4.86450968424637
30
0
41
1
10
75.9997703584377
20
-4.86510018771895
30
0
41
1
10
76.4542107658599
20
-4.86462577815587
30
0
41
1
10
76.7767338434135
20
-4.86381269443837
30
0
41
1
10
76.9209762073877
20
-4.86332822936876
30
0
0
SPLINE
5
B6
100
AcDbEntity
8
1
62
256
6
ByLayer
370
18
48
1
60
0
100
AcDbSpline
70
4
71
3
72
31
73
27
40
0
40
0
40
0
40
0
40
0.0519349824114277
40
0.0969021715075708
40
0.129504250525232
40
0.150669302963407
40
0.172148723084854
40
0.22875054801865
40
0.272745528262287
40
0.321450233304815
40
0.389219807878383
40
0.444881445942374
40
0.496243757635548
40
0.554869823561139
40
0.591483714111656
40
0.626073151988334
40
0.656891110631162
40
0.683243854458328
40
0.707847844304956
40
0.741584043392824
40
0.78195277848102
40
0.816184288487447
40
0.862513793882373
40
0.917855913440914
40
0.983197706632066
40
1
40
1
40
1
40
1
41
1
10
32.3174001272985
20
-4.83454703054963
30
0
41
1
10
32.5741616522441
20
-4.83483776979347
30
0
41
1
10
33.0532634799536
20
-4.83533142762454
30
0
41
1
10
33.693691073689
20
-4.83587955979939
30
0
41
1
10
34.1819056697128
20
-4.83620987668493
30
0
41
1
10
34.5539978014199
20
-4.83655796018661
30
0
41
1
10
35.0447694492996
20
-4.83729830436317
30
0
41
1
10
35.6484083305936
20
-4.83874519575446
30
0
41
1
10
36.3867141251043
20
-4.83843451347047
30
0
41
1
10
37.180193425111
20
-4.83762933976357
30
0
41
1
10
38.0314020468701
20
-4.84197329290245
30
0
41
1
10
38.8957422305142
20
-4.84082570193075
30
0
41
1
10
39.7148804910305
20
-4.83889565442971
30
0
41
1
10
40.439816427605
20
-4.84332056795037
30
0
41
1
10
41.0818200618329
20
-4.84351259739358
30
0
41
1
10
41.5863112498156
20
-4.84310136277048
30
0
41
1
10
42.0400613955738
20
-4.84257352194814
30
0
41
1
10
42.4444330039543
20
-4.84260181050269
30
0
41
1
10
42.8632415925124
20
-4.84338530744361
30
0
41
1
10
43.3513228143433
20
-4.8461871581265
30
0
41
1
10
43.8871594418811
20
-4.8454553044694
30
0
41
1
10
44.4847187473393
20
-4.8446747034838
30
0
41
1
10
45.1578389036482
20
-4.84360575426567
30
0
41
1
10
45.9782103482495
20
-4.84830075705077
30
0
41
1
10
46.6588185332884
20
-4.845103303256
30
0
41
1
10
47.0630405983318
20
-4.84559924838493
30
0
41
1
10
47.1457061702474
20
-4.84570352886647
30
0
0
SPLINE
5
B7
100
AcDbEntity
8
1
62
256
6
ByLayer
370
18
48
1
60
0
100
AcDbSpline
70
4
71
2
72
6
73
3
40
0
40
0
40
0
40
1
40
1
40
1
41
1
10
92.226404416232
20
-4.870610066599
30
0
41
1
10
92.728516310469
20
-4.86666043764234
30
0
41
1
10
93.2306245229318
20
-4.87330061016615
30
0
0
SPLINE
5
B8
100
AcDbEntity
8
1
62
256
6
ByLayer
370
18
48
1
60
0
100
AcDbSpline
70
4
71
3
72
29
73
25
40
0
40
0
40
0
40
0
40
0.0160094365701504
40
0.090492892184902
40
0.151849293277008
40
0.203849828149713
40
0.253081956733692
40
0.312959242568951
40
0.363002718709487
40
0.405167042313208
40
0.450960183643302
40
0.502324128137307
40
0.563240728560187
40
0.621074790716224
40
0.659464620452767
40
0.693622195432308
40
0.740283204560351
40
0.795362467747795
40
0.844436999993644
40
0.88641060825679
40
0.915709681588935
40
0.94814100281119
40
0.982347857412708
40
1
40
1
40
1
40
1
41
1
10
77.0587741534722
20
4.86241830986538
30
0
41
1
10
76.9935980065536
20
4.86257357643078
30
0
41
1
10
76.6251420232789
20
4.86340156420303
30
0
41
1
10
76.0027057097451
20
4.86464875915755
30
0
41
1
10
75.240184912225
20
4.86457536194462
30
0
41
1
10
74.5755240410193
20
4.85863782758966
30
0
41
1
10
73.917720260883
20
4.85718637397832
30
0
41
1
10
73.267538989737
20
4.85796752968633
30
0
41
1
10
72.6463313152505
20
4.85971602365535
30
0
41
1
10
72.0826282037449
20
4.85917800215023
30
0
41
1
10
71.5135387599622
20
4.85744364970708
30
0
41
1
10
70.867850530719
20
4.85909373249061
30
0
41
1
10
70.1729776988011
20
4.85969739421702
30
0
41
1
10
69.5311003457296
20
4.85880858948323
30
0
41
1
10
68.9985257624576
20
4.85651963824407
30
0
41
1
10
68.5116016560688
20
4.856520491617
30
0
41
1
10
67.9565024515605
20
4.85676903280836
30
0
41
1
10
67.3404585538627
20
4.85718020310657
30
0
41
1
10
66.7435701205344
20
4.85560760950597
30
0
41
1
10
66.2519962935285
20
4.85489036282951
30
0
41
1
10
65.8283881720549
20
4.85498302680597
30
0
41
1
10
65.4365152443544
20
4.85508087029282
30
0
41
1
10
65.0922157683572
20
4.8550838902851
30
0
41
1
10
64.8803824432831
20
4.854991936028
30
0
41
1
10
64.8082785275066
20
4.85494511134442
30
0
0
SPLINE
5
B9
100
AcDbEntity
8
1
62
256
6
ByLayer
370
18
48
1
60
0
100
AcDbSpline
70
4
71
3
72
30
73
26
40
0
40
0
40
0
40
0
40
0.0082912365185956
40
0.0776944227086734
40
0.138547617211956
40
0.190418775252302
40
0.238248957042721
40
0.299821509654431
40
0.345993740060628
40
0.378894537499136
40
0.411356483406726
40
0.449747031236921
40
0.493332680155144
40
0.539685633576683
40
0.587269224852179
40
0.632652939675987
40
0.672769040539289
40
0.715464984038073
40
0.766973468174399
40
0.822117940887724
40
0.864805577451163
40
0.892042784890161
40
0.923660571193253
40
0.963798720712928
40
1
40
1
40
1
40
1
41
1
10
47.1587640239641
20
4.84549831946376
30
0
41
1
10
47.1250834498656
20
4.84545269197994
30
0
41
1
10
46.8094264705568
20
4.84505398617711
30
0
41
1
10
46.2392053461261
20
4.84766531279388
30
0
41
1
10
45.5039973927568
20
4.84515353678111
30
0
41
1
10
44.8466792134353
20
4.84399417174185
30
0
41
1
10
44.1884312265097
20
4.84499642685859
30
0
41
1
10
43.5524138785177
20
4.8465106587777
30
0
41
1
10
42.9776658368649
20
4.84394466334115
30
0
41
1
10
42.521835334066
20
4.84263642092358
30
0
41
1
10
42.0978149384951
20
4.84253131595048
30
0
41
1
10
41.6301263720457
20
4.84306448770178
30
0
41
1
10
41.105668170458
20
4.84344238090478
30
0
41
1
10
40.5436356106276
20
4.84363332071405
30
0
41
1
10
39.9742668954376
20
4.83966948923759
30
0
41
1
10
39.4303745867985
20
4.83995979200051
30
0
41
1
10
38.9064607763592
20
4.84065693918654
30
0
41
1
10
38.3575161862953
20
4.84143808040079
30
0
41
1
10
37.7471623822588
20
4.84054914821297
30
0
41
1
10
37.13683760302
20
4.83793411303438
30
0
41
1
10
36.6256978533963
20
4.83825954720416
30
0
41
1
10
36.2107494849555
20
4.8384661733196
30
0
41
1
10
35.8061665607049
20
4.83860320358221
30
0
41
1
10
35.3649849927724
20
4.83812993114572
30
0
41
1
10
35.0530012617991
20
4.83740552059501
30
0
41
1
10
34.9050532804958
20
4.83712538808726
30
0
0
SPLINE
5
BA
100
AcDbEntity
8
1
62
256
6
ByLayer
370
18
48
1
60
0
100
AcDbSpline
70
4
71
3
72
8
73
4
40
0
40
0
40
0
40
0
40
1
40
1
40
1
40
1
41
1
10
31.2930225281323
20
0.362212295793654
30
0
41
1
10
31.2926932801974
20
0.362613746635986
30
0
41
1
10
31.2902094421252
20
0.364101419114576
30
0
41
1
10
31.2840331764212
20
0.367351098728136
30
0
0
SPLINE
5
BB
100
AcDbEntity
8
1
62
256
6
ByLayer
370
18
48
1
60
0
100
AcDbSpline
70
4
71
3
72
28
73
24
40
0
40
0
40
0
40
0
40
0.0526450059894993
40
0.11392957722549
40
0.160858785144543
40
0.193644956262276
40
0.219040885459064
40
0.281302735159058
40
0.348885056098463
40
0.398295429384861
40
0.449008681588149
40
0.507840590775659
40
0.570799906224203
40
0.614572550664288
40
0.648151362174101
40
0.682146193730518
40
0.733224637792584
40
0.791671325686942
40
0.84495797127926
40
0.907165038832369
40
0.958548965671879
40
0.975950278273962
40
1
40
1
40
1
40
1
41
1
10
6.25088635368022
20
-4.81953621578364
30
0
41
1
10
6.43970294679778
20
-4.82030230723623
30
0
41
1
10
6.8483283436922
20
-4.82178212082263
30
0
41
1
10
7.4253288070806
20
-4.82339393668548
30
0
41
1
10
7.93104854216011
20
-4.82425060455029
30
0
41
1
10
8.3080669266036
20
-4.8246052355029
30
0
41
1
10
8.74008521522498
20
-4.82480895521979
30
0
41
1
10
9.29691506682187
20
-4.82472715508965
30
0
41
1
10
9.93989249418533
20
-4.82442989536904
30
0
41
1
10
10.541333870772
20
-4.82424524632674
30
0
41
1
10
11.1114863380585
20
-4.82534418856983
30
0
41
1
10
11.7302430410493
20
-4.82786817147536
30
0
41
1
10
12.3240665005595
20
-4.82812280563354
30
0
41
1
10
12.8273378908768
20
-4.82855217502595
30
0
41
1
10
13.2267203731037
20
-4.82871098407645
30
0
41
1
10
13.6523154866863
20
-4.82889263713605
30
0
41
1
10
14.1671036696496
20
-4.83032385666633
30
0
41
1
10
14.7510911345462
20
-4.83051028566379
30
0
41
1
10
15.3750005113451
20
-4.82987766257094
30
0
41
1
10
15.9735643461563
20
-4.82976617036371
30
0
41
1
10
16.4434408267075
20
-4.83085011440574
30
0
41
1
10
16.7763866172595
20
-4.83133548851424
30
0
41
1
10
16.9250677298921
20
-4.83145990917828
30
0
41
1
10
17.0113350929888
20
-4.83150263937154
30
0
0
SPLINE
5
BC
100
AcDbEntity
8
1
62
256
6
ByLayer
370
18
48
1
60
0
100
AcDbSpline
70
4
71
3
72
16
73
12
40
0
40
0
40
0
40
0
40
0.278732802960869
40
0.278732802960869
40
0.518597803153673
40
0.518597803153673
40
0.638530303250075
40
0.638530303250075
40
0.758462803346476
40
0.758462803346476
40
1
40
1
40
1
40
1
41
1
10
62.2459989211173
20
-4.85252405226788
30
0
41
1
10
61.7224861521241
20
-4.85144372859929
30
0
41
1
10
61.198714038284
20
-4.82840727613825
30
0
41
1
10
60.2213959870415
20
-4.7448462587443
30
0
41
1
10
59.7680543868139
20
-4.6899781656
30
0
41
1
10
59.0846029464279
20
-4.58339106767014
30
0
41
1
10
58.8559280743221
20
-4.5437439496894
30
0
41
1
10
58.4004137062185
20
-4.45700153518305
30
0
41
1
10
58.1732469570556
20
-4.4098764732754
30
0
41
1
10
57.4898373949919
20
-4.25703594078564
30
0
41
1
10
57.0347483105873
20
-4.14034829265691
30
0
41
1
10
56.5804145605232
20
-4.01023048407856
30
0
0
SPLINE
5
BD
100
AcDbEntity
8
1
62
256
6
ByLayer
370
13
48
1
60
0
100
AcDbSpline
70
4
71
3
72
22
73
18
40
0
40
0
40
0
40
0
40
0.0965693829183766
40
0.0965693829183766
40
0.291064050149092
40
0.291064050149092
40
0.388311383764451
40
0.388311383764451
40
0.48555871737981
40
0.48555871737981
40
0.680053384610529
40
0.680053384610529
40
0.874548051841247
40
0.874548051841247
40
0.971795385456605
40
0.971795385456605
40
1
40
1
40
1
40
1
41
1
10
56.5804145606986
20
-4.01023048412887
30
0
41
1
10
56.1323716452743
20
-3.88191432382982
30
0
41
1
10
55.6850632918537
20
-3.74053734391723
30
0
41
1
10
54.3367135944382
20
-3.27831641939244
30
0
41
1
10
53.4345690338461
20
-2.92164401159511
30
0
41
1
10
52.0699295472619
20
-2.32874316988824
30
0
41
1
10
51.6125477023567
20
-2.12147697784121
30
0
41
1
10
50.7000163158145
20
-1.69520895637658
30
0
41
1
10
50.2440348935408
20
-1.47548098627846
30
0
41
1
10
48.8739931014787
20
-0.80211949037394
30
0
41
1
10
47.969392232204
20
-0.341457642633856
30
0
41
1
10
46.165999621816
20
0.57506590084688
30
0
41
1
10
45.2662233694331
20
1.02970403013779
30
0
41
1
10
43.9095522701182
20
1.68652678874068
30
0
41
1
10
43.4559882932414
20
1.90093556244605
30
0
41
1
10
42.8679836725346
20
2.16936865990914
30
0
41
1
10
42.7355133129109
20
2.22923899176104
30
0
41
1
10
42.6031006005805
20
2.28843269098877
30
0
0
SPLINE
5
BE
100
AcDbEntity
8
1
62
256
6
ByLayer
370
18
48
1
60
0
100
AcDbSpline
70
4
71
3
72
26
73
22
40
0
40
0
40
0
40
0
40
0.124999999999986
40
0.124999999999986
40
0.156249999999985
40
0.156249999999985
40
0.187499999999984
40
0.187499999999984
40
0.249999999999983
40
0.249999999999983
40
0.312499999999981
40
0.312499999999981
40
0.374999999999979
40
0.374999999999979
40
0.499999999999983
40
0.499999999999983
40
0.624999999999987
40
0.624999999999987
40
0.749999999999992
40
0.749999999999992
40
1
40
1
40
1
40
1
41
1
10
87.9670118633816
20
1.95402167618963
30
0
41
1
10
88.0321515442126
20
1.69807320773964
30
0
41
1
10
88.128858966424
20
1.44314611747396
30
0
41
1
10
88.2824531194116
20
1.12554558670834
30
0
41
1
10
88.3149063806929
20
1.06194755858746
30
0
41
1
10
88.3820846192835
20
0.936524455342123
30
0
41
1
10
88.4168981210007
20
0.87450130197027
30
0
41
1
10
88.5247110210811
20
0.690327941250047
30
0
41
1
10
88.6010705119885
20
0.570066916389578
30
0
41
1
10
88.7615329726873
20
0.333898569583084
30
0
41
1
10
88.8456403145341
20
0.217993705786796
30
0
41
1
10
89.0207287327491
20
-0.0099513250115137
30
0
41
1
10
89.1119987849483
20
-0.122319359406958
30
0
41
1
10
89.3931302705986
20
-0.451795580731783
30
0
41
1
10
89.5886808850761
20
-0.659725134935627
30
0
41
1
10
89.9922872880307
20
-1.05755433259242
30
0
41
1
10
90.2003789250378
20
-1.24740228977529
30
0
41
1
10
90.6270032942498
20
-1.61204427409854
30
0
41
1
10
90.846110185628
20
-1.78721050426006
30
0
41
1
10
91.5135010184374
20
-2.28966569215501
30
0
41
1
10
91.9685406264462
20
-2.59230336384616
30
0
41
1
10
92.4319427052976
20
-2.86820360713673
30
0
0
SPLINE
5
BF
100
AcDbEntity
8
1
62
256
6
ByLayer
370
18
48
1
60
0
100
AcDbSpline
70
4
71
3
72
18
73
14
40
0
40
0
40
0
40
0
40
0.125000000000001
40
0.125000000000001
40
0.250000000000001
40
0.250000000000001
40
0.375000000000002
40
0.375000000000002
40
0.500000000000003
40
0.500000000000003
40
0.750000000000001
40
0.750000000000001
40
1
40
1
40
1
40
1
41
1
10
6.25185517257319
20
-1.60801086163153
30
0
41
1
10
6.46944819753773
20
-1.7672508016544
30
0
41
1
10
6.69158813419722
20
-1.91626433122846
30
0
41
1
10
7.14236165502376
20
-2.19896170753077
30
0
41
1
10
7.37102744018691
20
-2.33258075721463
30
0
41
1
10
7.83359497392053
20
-2.58700830478833
30
0
41
1
10
8.06772357170141
20
-2.70791378627592
30
0
41
1
10
8.53955657869338
20
-2.93807882891295
30
0
41
1
10
8.77601510836323
20
-3.04673606765721
30
0
41
1
10
9.48689731487079
20
-3.35574774406052
30
0
41
1
10
9.96278108240318
20
-3.53920686013123
30
0
41
1
10
10.9195624049637
20
-3.86824915218051
30
0
41
1
10
11.4003743110623
20
-4.01530934829739
30
0
41
1
10
11.8851805159009
20
-4.14155733040911
30
0
0
SPLINE
5
C0
100
AcDbEntity
8
1
62
256
6
ByLayer
370
18
48
1
60
0
100
AcDbSpline
70
4
71
3
72
8
73
4
40
0
40
0
40
0
40
0
40
1
40
1
40
1
40
1
41
1
10
93.2888601214861
20
-4.84050928607954
30
0
41
1
10
93.2646945965159
20
-4.86077291606836
30
0
41
1
10
93.2440914135709
20
-4.87098409354249
30
0
41
1
10
93.2271083908029
20
-4.87097966340971
30
0
0
SPLINE
5
C1
100
AcDbEntity
8
1
62
256
6
ByLayer
370
13
48
1
60
0
100
AcDbSpline
70
4
71
3
72
30
73
26
40
0
40
0
40
0
40
0
40
0.0023795338607867
40
0.0023795338607867
40
0.168649611550655
40
0.168649611550655
40
0.210217130973123
40
0.210217130973123
40
0.25178465039559
40
0.25178465039559
40
0.334919689240524
40
0.418054728085459
40
0.418054728085459
40
0.501189766930393
40
0.501189766930393
40
0.584324805775328
40
0.584324805775328
40
0.667459844620262
40
0.750594883465197
40
0.750594883465197
40
0.792162402887664
40
0.792162402887664
40
0.833729922310131
40
0.833729922310131
40
1
40
1
40
1
40
1
41
1
10
6.25095406830735
20
-4.81960392126902
30
0
41
1
10
6.25095510168865
20
-4.81960343329143
30
0
41
1
10
6.25095613381922
20
-4.81959611477333
30
0
41
1
10
6.25102919846452
20
-4.81859378189938
30
0
41
1
10
6.25109526238987
20
-4.78454552976223
30
0
41
1
10
6.25117479171365
20
-4.69956695816833
30
0
41
1
10
6.2511905672408
20
-4.68037949762874
30
0
41
1
10
6.25122154309003
20
-4.63812598810159
30
0
41
1
10
6.25123678372663
20
-4.61502553068294
30
0
41
1
10
6.25128190064652
20
-4.53990785860609
30
0
41
1
10
6.251340458665
20
-4.42427024065313
30
0
41
1
10
6.25139688803481
20
-4.27804032686262
30
0
41
1
10
6.25145255622516
20
-4.11621592126747
30
0
41
1
10
6.25148009215772
20
-4.02717082703941
30
0
41
1
10
6.25153375095803
20
-3.83543976194679
30
0
41
1
10
6.25155997427569
20
-3.73239800812308
30
0
41
1
10
6.25161029412564
20
-3.51552355066704
30
0
41
1
10
6.25165868258236
20
-3.28721786739129
30
0
41
1
10
6.25170262607392
20
-3.0364432303196
30
0
41
1
10
6.25173349526548
20
-2.83981860781998
30
0
41
1
10
6.25174343477215
20
-2.77285039065887
30
0
41
1
10
6.25176251475796
20
-2.63600628065007
30
0
41
1
10
6.2517716628688
20
-2.56603676645207
30
0
41
1
10
6.25181463553687
20
-2.21289851862449
30
0
41
1
10
6.25184075418329
20
-1.91700097023462
30
0
41
1
10
6.25185517021427
20
-1.60801086162448
30
0
0
SPLINE
5
C2
100
AcDbEntity
8
1
62
256
6
ByLayer
370
18
48
1
60
0
100
AcDbSpline
70
4
71
3
72
12
73
8
40
0
40
0
40
0
40
0
40
0.249999999999998
40
0.249999999999998
40
0.499999999999997
40
0.499999999999997
40
1
40
1
40
1
40
1
41
1
10
6.13282351483434
20
4.61459221850942
30
0
41
1
10
6.11529469298509
20
4.61835192977458
30
0
41
1
10
6.09920814831247
20
4.62284835153008
30
0
41
1
10
6.06981735458581
20
4.63319415810946
30
0
41
1
10
6.05647624812562
20
4.639102355875
30
0
41
1
10
6.02278752182335
20
4.6578983654716
30
0
41
1
10
6.00792943771643
20
4.67229482496344
30
0
41
1
10
6.00244603896428
20
4.68674963790778
30
0
0
SPLINE
5
C3
100
AcDbEntity
8
1
62
256
6
ByLayer
370
18
48
1
60
0
100
AcDbSpline
70
4
71
3
72
20
73
16
40
0
40
0
40
0
40
0
40
0.333893656679777
40
0.333893656679777
40
0.501932712266988
40
0.501932712266988
40
0.585952240060593
40
0.585952240060593
40
0.669971767854198
40
0.669971767854198
40
0.838010823441408
40
0.838010823441408
40
0.922030351235014
40
0.922030351235014
40
1
40
1
40
1
40
1
41
1
10
17.114591161243
20
0.0080732904946217
30
0
41
1
10
18.0117770989256
20
-0.455209308919223
30
0
41
1
10
18.9060781111006
20
-0.917678190382759
30
0
41
1
10
20.2577041013833
20
-1.58890736774006
30
0
41
1
10
20.7113701334036
20
-1.80968699762653
30
0
41
1
10
21.3950989974078
20
-2.13204791498683
30
0
41
1
10
21.6238603676897
20
-2.23816872713695
30
0
41
1
10
22.0808223756412
20
-2.44605979110719
30
0
41
1
10
22.3090316036567
20
-2.54787933395784
30
0
41
1
10
22.9931897836685
20
-2.8463695863181
30
0
41
1
10
23.4486735492154
20
-3.03604920290633
30
0
41
1
10
24.1324755966173
20
-3.30428511709726
30
0
41
1
10
24.3605092250544
20
-3.39097420215401
30
0
41
1
10
24.8005982019759
20
-3.55251077246237
30
0
41
1
10
25.0128457159602
20
-3.62787618500022
30
0
41
1
10
25.2248038448858
20
-3.70040275881698
30
0
0
SPLINE
5
C4
100
AcDbEntity
8
1
62
256
6
ByLayer
370
13
48
1
60
0
100
AcDbSpline
70
4
71
3
72
18
73
14
40
0
40
0
40
0
40
0
40
0.0055983208117117
40
0.0055983208117117
40
0.316591824870402
40
0.316591824870402
40
0.627585328929092
40
0.627585328929092
40
0.783082080958437
40
0.783082080958437
40
0.938578832987782
40
0.938578832987782
40
1
40
1
40
1
40
1
41
1
10
25.2248038447309
20
-3.70040275876397
30
0
41
1
10
25.2412502577066
20
-3.70603029468708
30
0
41
1
10
25.2576949284008
20
-3.71164073900121
30
0
41
1
10
26.187543682131
20
-4.02793965835485
30
0
41
1
10
27.0916221653478
20
-4.28399541763477
30
0
41
1
10
28.8961376379134
20
-4.6752382792146
30
0
41
1
10
29.7966849592216
20
-4.81011985292292
30
0
41
1
10
31.1560422827703
20
-4.91406980712154
30
0
41
1
10
31.6106359615063
20
-4.93230524282509
30
0
41
1
10
32.5247324927996
20
-4.93467660424773
30
0
41
1
10
32.9810584639613
20
-4.91880127304626
30
0
41
1
10
33.6167377825182
20
-4.87337446656585
30
0
41
1
10
33.7966854687876
20
-4.85790409567798
30
0
41
1
10
33.9766469645562
20
-4.8398429288502
30
0
0
SPLINE
5
C5
100
AcDbEntity
8
1
62
256
6
ByLayer
370
18
48
1
60
0
100
AcDbSpline
70
4
71
3
72
16
73
12
40
0
40
0
40
0
40
0
40
0.332161424491736
40
0.332161424491736
40
0.415871450081846
40
0.415871450081846
40
0.499581475671956
40
0.499581475671956
40
0.667001526852176
40
0.667001526852176
40
1
40
1
40
1
40
1
41
1
10
76.9802274492687
20
0.0263158008391429
30
0
41
1
10
77.8848227631092
20
-0.444129770112426
30
0
41
1
10
78.785855006141
20
-0.913620762037795
30
0
41
1
10
79.919240729718
20
-1.48141603687225
30
0
41
1
10
80.1476162608193
20
-1.59464010762628
30
0
41
1
10
80.6027698845154
20
-1.81715244433531
30
0
41
1
10
80.8298207851467
20
-1.92665114618205
30
0
41
1
10
81.5096711242315
20
-2.24947298551453
30
0
41
1
10
81.9612221506136
20
-2.45704220137677
30
0
41
1
10
83.3088370536641
20
-3.0500775182939
30
0
41
1
10
84.2027176899068
20
-3.40865392981021
30
0
41
1
10
85.1013880848786
20
-3.71928366555576
30
0
0
SPLINE
5
C6
100
AcDbEntity
8
1
62
256
6
ByLayer
370
13
48
1
60
0
100
AcDbSpline
70
4
71
3
72
20
73
16
40
0
40
0
40
0
40
0
40
0.0018299868285386
40
0.0018299868285386
40
0.168191655690446
40
0.168191655690446
40
0.251372490121404
40
0.251372490121404
40
0.334553324552362
40
0.334553324552362
40
0.667276662276186
40
0.667276662276186
40
0.833638331138093
40
0.833638331138093
40
1
40
1
40
1
40
1
41
1
10
85.1013880858881
20
-3.71928366590473
30
0
41
1
10
85.1063581313187
20
-3.72100158596439
30
0
41
1
10
85.1113283232478
20
-3.7227180395366
30
0
41
1
10
85.5681456372121
20
-3.88034003681037
30
0
41
1
10
86.0212384802972
20
-4.02409442371763
30
0
41
1
10
86.7041341944822
20
-4.21938481853263
30
0
41
1
10
86.9326938919559
20
-4.28117861099358
30
0
41
1
10
87.3883554151429
20
-4.39690914416505
30
0
41
1
10
87.6156417187699
20
-4.4509053490118
30
0
41
1
10
88.7499567791097
20
-4.70132042653225
30
0
41
1
10
89.6506321065833
20
-4.83917288840692
30
0
41
1
10
91.0034597750131
20
-4.94714086528253
30
0
41
1
10
91.4546757112369
20
-4.966670457003
30
0
41
1
10
92.3592803883024
20
-4.97207483178727
30
0
41
1
10
92.8127352711323
20
-4.95747724161615
30
0
41
1
10
93.2679441915372
20
-4.92669137345908
30
0
0
SPLINE
5
C7
100
AcDbEntity
8
1
62
256
6
ByLayer
370
18
48
1
60
0
100
AcDbSpline
70
4
71
3
72
14
73
10
40
0
40
0
40
0
40
0
40
0.25
40
0.25
40
0.5
40
0.5
40
0.75
40
0.75
40
1
40
1
40
1
40
1
41
1
10
92.4158583193787
20
1.19196499982309
30
0
41
1
10
92.4047916520955
20
1.2211346866298
30
0
41
1
10
92.3971695817124
20
1.25128432491567
30
0
41
1
10
92.3922643763363
20
1.31452538842009
30
0
41
1
10
92.3949740434885
20
1.34782839454442
30
0
41
1
10
92.4198051012947
20
1.40685227651258
30
0
41
1
10
92.4426564618653
20
1.43231184842799
30
0
41
1
10
92.4974235651435
20
1.46708886911324
30
0
41
1
10
92.5287894813553
20
1.47745328831257
30
0
41
1
10
92.5607725169379
20
1.48336899358159
30
0
0
SPLINE
5
C8
100
AcDbEntity
8
1
62
256
6
ByLayer
370
18
48
1
60
0
100
AcDbSpline
70
4
71
3
72
8
73
4
40
0
40
0
40
0
40
0
40
1
40
1
40
1
40
1
41
1
10
6.00244603896434
20
4.68674963790673
30
0
41
1
10
6.0014363842478
20
4.68941119339931
30
0
41
1
10
6.00092355986015
20
4.69209141489594
30
0
41
1
10
6.00092375731086
20
4.69475092075888
30
0
0
SPLINE
5
C9
100
AcDbEntity
8
1
62
256
6
ByLayer
370
18
48
1
60
0
100
AcDbSpline
70
4
71
3
72
22
73
18
40
0
40
0
40
0
40
0
40
0.124999999999993
40
0.124999999999993
40
0.249999999999986
40
0.249999999999986
40
0.499999999999983
40
0.499999999999983
40
0.624999999999987
40
0.624999999999987
40
0.749999999999991
40
0.749999999999991
40
0.874999999999995
40
0.874999999999995
40
0.937499999999998
40
0.937499999999998
40
1
40
1
40
1
40
1
41
1
10
94.2226549873411
20
-2.52600583818435
30
0
41
1
10
94.1842398126793
20
-2.62941819812011
30
0
41
1
10
94.1457279490585
20
-2.73273678138762
30
0
41
1
10
94.0687226447314
20
-2.93929880985871
30
0
41
1
10
94.0302090329792
20
-3.04249759368318
30
0
41
1
10
93.9146076711137
20
-3.35163981059975
30
0
41
1
10
93.8374728137709
20
-3.55722979549392
30
0
41
1
10
93.7215065416968
20
-3.86363407055092
30
0
41
1
10
93.6827925237313
20
-3.965329195263
30
0
41
1
10
93.6053542838442
20
-4.1686428838301
30
0
41
1
10
93.5666210214124
20
-4.27019361622848
30
0
41
1
10
93.4890839846956
20
-4.47276602661418
30
0
41
1
10
93.4502832337054
20
-4.5738103885538
30
0
41
1
10
93.3919751017692
20
-4.72457406353624
30
0
41
1
10
93.3725202291176
20
-4.77468734927032
30
0
41
1
10
93.3335549864322
20
-4.87449752075168
30
0
41
1
10
93.3140495238033
20
-4.9242312270348
30
0
41
1
10
93.2945425222457
20
-4.97395338664967
30
0
0
SPLINE
5
CA
100
AcDbEntity
8
1
62
256
6
ByLayer
370
18
48
1
60
0
100
AcDbSpline
70
4
71
3
72
20
73
16
40
0
40
0
40
0
40
0
40
0.25
40
0.25
40
0.5
40
0.5
40
0.625
40
0.625
40
0.75
40
0.75
40
0.875
40
0.875
40
0.9375
40
0.9375
40
1
40
1
40
1
40
1
41
1
10
92.5607725169379
20
1.48336899358159
30
0
41
1
10
92.7368459135374
20
1.51593620619991
30
0
41
1
10
92.9121678295529
20
1.55304316730886
30
0
41
1
10
93.2580765309379
20
1.64293637522468
30
0
41
1
10
93.4295687891853
20
1.69552042354783
30
0
41
1
10
93.6754857170012
20
1.79792262004872
30
0
41
1
10
93.7555961922237
20
1.8360286397243
30
0
41
1
10
93.9094473524938
20
1.92608700907246
30
0
41
1
10
93.9828023107645
20
1.97769004179116
30
0
41
1
10
94.1109968998497
20
2.10266994182615
30
0
41
1
10
94.164125115347
20
2.17486840158554
30
0
41
1
10
94.2122965275626
20
2.30185351290365
30
0
41
1
10
94.2224039733397
20
2.34554880877545
30
0
41
1
10
94.2309444419497
20
2.43565775511445
30
0
41
1
10
94.2291990465871
20
2.48133649496572
30
0
41
1
10
94.2226549873414
20
2.52600583818432
30
0
0
SPLINE
5
CB
100
AcDbEntity
8
1
62
256
6
ByLayer
370
18
48
1
60
0
100
AcDbSpline
70
4
71
3
72
38
73
34
40
0
40
0
40
0
40
0
40
0.25000000000002
40
0.25000000000002
40
0.50000000000004
40
0.50000000000004
40
0.562500000000043
40
0.562500000000043
40
0.625000000000045
40
0.625000000000045
40
0.687500000000047
40
0.687500000000047
40
0.718750000000043
40
0.718750000000043
40
0.750000000000039
40
0.750000000000039
40
0.781250000000036
40
0.781250000000036
40
0.812500000000032
40
0.812500000000032
40
0.843750000000028
40
0.843750000000028
40
0.875000000000024
40
0.875000000000024
40
0.890625000000022
40
0.890625000000022
40
0.90625000000002
40
0.90625000000002
40
0.937500000000013
40
0.937500000000013
40
0.968750000000007
40
0.968750000000007
40
1
40
1
40
1
40
1
41
1
10
87.9670118633816
20
1.95402167618954
30
0
41
1
10
88.389005600914
20
1.66860380074701
30
0
41
1
10
88.815029940168
20
1.40902870006713
30
0
41
1
10
89.6778905554509
20
0.959200765231429
30
0
41
1
10
90.1145783161175
20
0.767995703763035
30
0
41
1
10
90.6693791529655
20
0.586316738967867
30
0
41
1
10
90.7810862918049
20
0.552830273002201
30
0
41
1
10
91.0034807554336
20
0.49287657594283
30
0
41
1
10
91.1142659785631
20
0.466358956111406
30
0
41
1
10
91.3349466994042
20
0.420793859219401
30
0
41
1
10
91.4448072824131
20
0.401765411842064
30
0
41
1
10
91.6082917442723
20
0.37939450190396
30
0
41
1
10
91.6625809601155
20
0.372963969571941
30
0
41
1
10
91.7706476651731
20
0.36224533577635
30
0
41
1
10
91.8245679596897
20
0.35749494585437
30
0
41
1
10
91.9306218049902
20
0.354285852796608
30
0
41
1
10
91.9827008077787
20
0.355471161446019
30
0
41
1
10
92.0839446955666
20
0.365077154022202
30
0
41
1
10
92.1335166388909
20
0.373532326080948
30
0
41
1
10
92.2268886156918
20
0.400922119644235
30
0
41
1
10
92.2696574216083
20
0.420603615985755
30
0
41
1
10
92.3476543164815
20
0.471491027818956
30
0
41
1
10
92.383101745269
20
0.503435130273346
30
0
41
1
10
92.426101023945
20
0.560065910162621
30
0
41
1
10
92.4388403011477
20
0.58042266517748
30
0
41
1
10
92.460772553723
20
0.624428850857157
30
0
41
1
10
92.4699954867446
20
0.648263558171067
30
0
41
1
10
92.4913129806904
20
0.722621771743604
30
0
41
1
10
92.4974674401659
20
0.776534389209559
30
0
41
1
10
92.4950983374922
20
0.891772348739039
30
0
41
1
10
92.4866767317029
20
0.950667448097647
30
0
41
1
10
92.4587154411622
20
1.07041811270648
30
0
41
1
10
92.4388095917946
20
1.13146969341702
30
0
41
1
10
92.4158583193787
20
1.19196499982309
30
0
0
SPLINE
5
CC
100
AcDbEntity
8
1
62
256
6
ByLayer
370
18
48
1
60
0
100
AcDbSpline
70
4
71
3
72
26
73
22
40
0
40
0
40
0
40
0
40
0.0201412883122047
40
0.0201412883122047
40
0.183451073593504
40
0.183451073593504
40
0.265105966234153
40
0.265105966234153
40
0.305933412554478
40
0.305933412554478
40
0.346760858874803
40
0.346760858874803
40
0.510070644156102
40
0.510070644156102
40
0.591725536796752
40
0.591725536796752
40
0.673380429437401
40
0.673380429437401
40
0.836690214718701
40
0.836690214718701
40
1
40
1
40
1
40
1
41
1
10
6.0009678883045
20
-5.04762119700226
30
0
41
1
10
6.00096871519659
20
-5.04760342586462
30
0
41
1
10
6.00096953527805
20
-5.04706516099145
30
0
41
1
10
6.00097694457679
20
-5.03738245147818
30
0
41
1
10
6.00098296067094
20
-4.99489595754446
30
0
41
1
10
6.00099159670438
20
-4.88218796735819
30
0
41
1
10
6.00099440852156
20
-4.83639322278921
30
0
41
1
10
6.00099856929756
20
-4.75502461107814
30
0
41
1
10
6.00099995020054
20
-4.72569589079015
30
0
41
1
10
6.00100267165143
20
-4.66334871620842
30
0
41
1
10
6.00100401422745
20
-4.63030353953516
30
0
41
1
10
6.00101065114742
20
-4.45589110350292
30
0
41
1
10
6.00101573087912
20
-4.28723697386391
30
0
41
1
10
6.001023124792
20
-3.99048830586793
30
0
41
1
10
6.00102556255589
20
-3.8835473728017
30
0
41
1
10
6.00103026203473
20
-3.65839490132569
30
0
41
1
10
6.00103252589113
20
-3.54022710472753
30
0
41
1
10
6.00103902454333
20
-3.16936598559303
30
0
41
1
10
6.0010429797166
20
-2.90048173164186
30
0
41
1
10
6.00104965298232
20
-2.31764669925383
30
0
41
1
10
6.00105225452589
20
-2.01325980934553
30
0
41
1
10
6.00105381923893
20
-1.69696620383431
30
0
0
SPLINE
5
CD
100
AcDbEntity
8
1
62
256
6
ByLayer
370
18
48
1
60
0
100
AcDbSpline
70
4
71
3
72
98
73
94
40
0
40
0
40
0
40
0
40
0.0032157200537366
40
0.0032157200537366
40
0.0188260812897824
40
0.0188260812897824
40
0.0500468037618731
40
0.0500468037618731
40
0.065657164997918
40
0.065657164997918
40
0.0812675262339629
40
0.0812675262339629
40
0.112488248706052
40
0.112488248706052
40
0.128098609942096
40
0.128098609942096
40
0.143708971178141
40
0.143708971178141
40
0.174929693650231
40
0.174929693650231
40
0.190540054886276
40
0.190540054886276
40
0.206150416122321
40
0.206150416122321
40
0.237371138594413
40
0.237371138594413
40
0.252981499830459
40
0.252981499830459
40
0.268591861066505
40
0.268591861066505
40
0.299812583538596
40
0.299812583538596
40
0.331033306010688
40
0.331033306010688
40
0.362254028482779
40
0.362254028482779
40
0.393474750954871
40
0.393474750954871
40
0.409085112190917
40
0.409085112190917
40
0.424695473426963
40
0.424695473426963
40
0.455916195899056
40
0.455916195899056
40
0.471526557135101
40
0.471526557135101
40
0.487136918371147
40
0.487136918371147
40
0.518357640843239
40
0.518357640843239
40
0.533968002079284
40
0.533968002079284
40
0.54957836331533
40
0.54957836331533
40
0.580799085787422
40
0.580799085787422
40
0.596409447023467
40
0.596409447023467
40
0.612019808259513
40
0.612019808259513
40
0.643240530731605
40
0.643240530731605
40
0.65885089196765
40
0.65885089196765
40
0.674461253203696
40
0.674461253203696
40
0.705681975675788
40
0.705681975675788
40
0.721292336911834
40
0.721292336911834
40
0.73690269814788
40
0.73690269814788
40
0.768123420619973
40
0.768123420619973
40
0.799344143092067
40
0.799344143092067
40
0.83056486556416
40
0.83056486556416
40
0.861785588036253
40
0.861785588036253
40
0.877395949272299
40
0.877395949272299
40
0.893006310508346
40
0.893006310508346
40
0.924227032980439
40
0.924227032980439
40
0.939837394216485
40
0.939837394216485
40
0.955447755452532
40
0.955447755452532
40
0.986668477924625
40
0.986668477924625
40
1
40
1
40
1
40
1
41
1
10
23.896290687951
20
3.62994627372146
30
0
41
1
10
23.9361854279802
20
3.64481741512071
30
0
41
1
10
23.9760896747252
20
3.65957971844023
30
0
41
1
10
24.2098055087551
20
3.7453059359008
30
0
41
1
10
24.4039229610402
20
3.81371511071131
30
0
41
1
10
24.9868324670925
20
4.01157195809503
30
0
41
1
10
25.3766993369485
20
4.13380305995042
30
0
41
1
10
25.9600498277452
20
4.30254419302187
30
0
41
1
10
26.153960780789
20
4.35641982571258
30
0
41
1
10
26.5415418854116
20
4.45852329606308
30
0
41
1
10
26.7355480286374
20
4.50645669390334
30
0
41
1
10
27.3178982033636
20
4.64143465938145
30
0
41
1
10
27.7065107799205
20
4.7197668142361
30
0
41
1
10
28.2891105698437
20
4.82032618140977
30
0
41
1
10
28.4832410100211
20
4.85101486913211
30
0
41
1
10
28.871359295738
20
4.90655740164593
30
0
41
1
10
29.0657580993248
20
4.93123278438304
30
0
41
1
10
29.6490110927929
20
4.99543290211645
30
0
41
1
10
30.0378566222047
20
5.02561400187699
30
0
41
1
10
30.6201944293618
20
5.05246524116544
30
0
41
1
10
30.8141571093322
20
5.05832651003081
30
0
41
1
10
31.2016470858472
20
5.06374660608063
30
0
41
1
10
31.3951196766361
20
5.06327196685751
30
0
41
1
10
31.9773007503888
20
5.05236425659567
30
0
41
1
10
32.3675315110578
20
5.03254813237831
30
0
41
1
10
32.9510656023496
20
4.98427619704438
30
0
41
1
10
33.1453255267436
20
4.9650877624095
30
0
41
1
10
33.5332052262218
20
4.92038595628736
30
0
41
1
10
33.7266381977542
20
4.89476568311605
30
0
41
1
10
34.3076027447265
20
4.80904651929632
30
0
41
1
10
34.6961329248438
20
4.74047001636521
30
0
41
1
10
35.4739051609818
20
4.57994490614973
30
0
41
1
10
35.8635471612825
20
4.48768738391169
30
0
41
1
10
36.6388453763907
20
4.27970714373575
30
0
41
1
10
37.0270769792753
20
4.16602655510079
30
0
41
1
10
37.8037425356608
20
3.91908634372379
30
0
41
1
10
38.1920905440101
20
3.78573190831162
30
0
41
1
10
38.7738360363292
20
3.56932371914502
30
0
41
1
10
38.9678847681904
20
3.49458677406634
30
0
41
1
10
39.356839698698
20
3.34201117193672
30
0
41
1
10
39.5513212566186
20
3.2639903984464
30
0
41
1
10
40.1344773677114
20
3.02439745658722
30
0
41
1
10
40.5228740469706
20
2.85734341718927
30
0
41
1
10
41.1040796158387
20
2.59430063362231
30
0
41
1
10
41.2974227151702
20
2.50425574587385
30
0
41
1
10
41.6850971179327
20
2.32233236876976
30
0
41
1
10
41.8793287803547
20
2.23030896808589
30
0
41
1
10
42.462798098816
20
1.95044278852228
30
0
41
1
10
42.8528196665987
20
1.75885563710906
30
0
41
1
10
43.4349295150992
20
1.4641765883122
30
0
41
1
10
43.6284941863184
20
1.36440439879911
30
0
41
1
10
44.0155811766134
20
1.16338875610188
30
0
41
1
10
44.2094250807744
20
1.06273970722589
30
0
41
1
10
44.7915021797649
20
0.759767832096003
30
0
41
1
10
45.1802341773453
20
0.556347113884556
30
0
41
1
10
45.7634752271703
20
0.247359017158146
30
0
41
1
10
45.9579897853518
20
0.143624702842573
30
0
41
1
10
46.3458511796288
20
-0.064557682492989
30
0
41
1
10
46.5396719421966
20
-0.168420531820885
30
0
41
1
10
47.1218183729408
20
-0.477434604009204
30
0
41
1
10
47.510222574771
20
-0.681174501200502
30
0
41
1
10
48.0923419883728
20
-0.985174540485815
30
0
41
1
10
48.2863058720055
20
-1.08622743308052
30
0
41
1
10
48.6739498050457
20
-1.28799568866407
30
0
41
1
10
48.8675871710937
20
-1.38878487723986
30
0
41
1
10
49.4505114597596
20
-1.68615957229562
30
0
41
1
10
49.8399746134583
20
-1.87886143620878
30
0
41
1
10
50.4224765081682
20
-2.16076295826193
30
0
41
1
10
50.6164689685623
20
-2.25356190774889
30
0
41
1
10
51.0039681845386
20
-2.43700912106479
30
0
41
1
10
51.1972880354477
20
-2.52795618727188
30
0
41
1
10
51.7781794613639
20
-2.79475733180982
30
0
41
1
10
52.1669591892368
20
-2.96422457347768
30
0
41
1
10
52.9458332308834
20
-3.28928604510506
30
0
41
1
10
53.3342057116054
20
-3.44435247903593
30
0
41
1
10
54.1082238725895
20
-3.73867851712856
30
0
41
1
10
54.4961500531909
20
-3.87511548063202
30
0
41
1
10
55.2728113198275
20
-4.12848611341573
30
0
41
1
10
55.66169681036
20
-4.24557687385561
30
0
41
1
10
56.2440111545442
20
-4.40676376057559
30
0
41
1
10
56.4377641961588
20
-4.45779110223293
30
0
41
1
10
56.825839989097
20
-4.55339147412974
30
0
41
1
10
57.0199594299352
20
-4.59816883575257
30
0
41
1
10
57.6022580136043
20
-4.72383556034617
30
0
41
1
10
57.9903867232266
20
-4.79610908668818
30
0
41
1
10
58.5716532113091
20
-4.88738078949885
30
0
41
1
10
58.765095037825
20
-4.91498591312401
30
0
41
1
10
59.1531361236089
20
-4.96363940642476
30
0
41
1
10
59.3477853755761
20
-4.98478344854956
30
0
41
1
10
59.9313504447215
20
-5.03879717929891
30
0
41
1
10
60.3199408895084
20
-5.06232651357988
30
0
41
1
10
60.8730088910087
20
-5.078163625201
30
0
41
1
10
61.0382198967135
20
-5.08061891842138
30
0
41
1
10
61.2034257327233
20
-5.08074438990346
30
0
0
SPLINE
5
CE
100
AcDbEntity
8
1
62
256
6
ByLayer
370
18
48
1
60
0
100
AcDbSpline
70
4
71
3
72
28
73
24
40
0
40
0
40
0
40
0
40
0.0174412724761311
40
0.0174412724761311
40
0.14026111341662
40
0.14026111341662
40
0.201671033886863
40
0.201671033886863
40
0.263080954357107
40
0.263080954357107
40
0.385900795297588
40
0.385900795297588
40
0.50872063623807
40
0.50872063623807
40
0.631540477178551
40
0.631540477178551
40
0.754360318119031
40
0.754360318119031
40
0.815770238589272
40
0.815770238589272
40
0.877180159059513
40
0.877180159059513
40
1
40
1
40
1
40
1
41
1
10
83.8188409854818
20
3.65590834420505
30
0
41
1
10
83.8738034208082
20
3.67653370540626
30
0
41
1
10
83.9287758502442
20
3.69694669968032
30
0
41
1
10
84.3711005405164
20
3.85918859342232
30
0
41
1
10
84.7590813534245
20
3.99067526199539
30
0
41
1
10
85.3409402911053
20
4.17361225521145
30
0
41
1
10
85.5348854270129
20
4.23218156382546
30
0
41
1
10
85.9226289527063
20
4.34454171469287
30
0
41
1
10
86.116267494441
20
4.39850101629227
30
0
41
1
10
86.698385341872
20
4.55148518675361
30
0
41
1
10
87.0868190746034
20
4.64094884492604
30
0
41
1
10
87.8626942086763
20
4.79713319137764
30
0
41
1
10
88.250047553309
20
4.86385689654006
30
0
41
1
10
89.0234745116134
20
4.97376823766513
30
0
41
1
10
89.4120478998765
20
5.01592819494454
30
0
41
1
10
90.1900042243646
20
5.07543007679993
30
0
41
1
10
90.5783650298337
20
5.09276692355184
30
0
41
1
10
91.159159286761
20
5.09978308001169
30
0
41
1
10
91.3525812535323
20
5.09890633976161
30
0
41
1
10
91.7404722062171
20
5.09083182189519
30
0
41
1
10
91.9347278661243
20
5.0836487585778
30
0
41
1
10
92.5181034488059
20
5.05272611834161
30
0
41
1
10
92.9070536615884
20
5.01969703868573
30
0
41
1
10
93.2945425222456
20
4.9739533866497
30
0
0
SPLINE
5
CF
100
AcDbEntity
8
1
62
256
6
ByLayer
370
18
48
1
60
0
100
AcDbSpline
70
4
71
3
72
8
73
4
40
0
40
0
40
0
40
0
40
1
40
1
40
1
40
1
41
1
10
93.219075832478
20
5.05868224041836
30
0
41
1
10
92.8144469493247
20
5.08602985190768
30
0
41
1
10
92.4094444138305
20
5.09954174895796
30
0
41
1
10
92.0040942716339
20
5.09922514148334
30
0
0
SPLINE
5
D0
100
AcDbEntity
8
1
62
256
6
ByLayer
370
18
48
1
60
0
100
AcDbSpline
70
4
71
3
72
58
73
54
40
0
40
0
40
0
40
0
40
0.0071781539582804
40
0.0071781539582804
40
0.0486719419942073
40
0.0486719419942073
40
0.0901657300301343
40
0.0901657300301343
40
0.110912624048098
40
0.110912624048098
40
0.131659518066061
40
0.131659518066061
40
0.173153306101989
40
0.173153306101989
40
0.193900200119952
40
0.193900200119952
40
0.214647094137916
40
0.214647094137916
40
0.297634670209769
40
0.297634670209769
40
0.318381564227731
40
0.318381564227731
40
0.339128458245694
40
0.339128458245694
40
0.380622246281619
40
0.380622246281619
40
0.422116034317544
40
0.422116034317544
40
0.463609822353468
40
0.463609822353468
40
0.505103610389394
40
0.505103610389394
40
0.546597398425318
40
0.546597398425318
40
0.588091186461243
40
0.588091186461243
40
0.629584974497168
40
0.629584974497168
40
0.712572550569017
40
0.712572550569017
40
0.754066338604941
40
0.754066338604941
40
0.795560126640866
40
0.795560126640866
40
0.837053914676791
40
0.837053914676791
40
0.878547702712715
40
0.878547702712715
40
0.92004149074864
40
0.92004149074864
40
0.961535278784564
40
0.961535278784564
40
1
40
1
40
1
40
1
41
1
10
64.895590357234
20
-4.85901889521037
30
0
41
1
10
64.8169893635074
20
-4.87127049039799
30
0
41
1
10
64.7383994122995
20
-4.88302440409933
30
0
41
1
10
64.2058219063349
20
-4.95928778391917
30
0
41
1
10
63.7528466230465
20
-5.00754003409921
30
0
41
1
10
62.8470856479869
20
-5.0699217453591
30
0
41
1
10
62.3941263683041
20
-5.08400565497863
30
0
41
1
10
61.7130781096054
20
-5.07922430556863
30
0
41
1
10
61.4856474308169
20
-5.07330145925769
30
0
41
1
10
61.0316808235366
20
-5.05285155660769
30
0
41
1
10
60.8049976820235
20
-5.03832247329845
30
0
41
1
10
60.1252900877373
20
-4.98198789503826
30
0
41
1
10
59.6725378720737
20
-4.92746670549596
30
0
41
1
10
58.9925257254761
20
-4.82095549594271
30
0
41
1
10
58.7657037122805
20
-4.78133540978538
30
0
41
1
10
58.3116472189056
20
-4.69387541968925
30
0
41
1
10
58.084290482959
20
-4.64599243157329
30
0
41
1
10
56.9495824496475
20
-4.38750691571531
30
0
41
1
10
56.0452346280353
20
-4.11957895694539
30
0
41
1
10
54.9100865137356
20
-3.71757756777785
30
0
41
1
10
54.6826802538152
20
-3.63384375067278
30
0
41
1
10
54.2287033518114
20
-3.4607284653523
30
0
41
1
10
54.0019342076632
20
-3.37127889836867
30
0
41
1
10
53.3219206951962
20
-3.09481447874595
30
0
41
1
10
52.8691046647333
20
-2.89948585486118
30
0
41
1
10
51.962434958212
20
-2.48990549756564
30
0
41
1
10
51.5076245592652
20
-2.27542821966097
30
0
41
1
10
50.5995425989015
20
-1.83354094206229
30
0
41
1
10
50.1465454124074
20
-1.60590680850439
30
0
41
1
10
49.2404057338436
20
-1.14126403589526
30
0
41
1
10
48.7871728988733
20
-0.904423222840649
30
0
41
1
10
47.8784288360576
20
-0.425283411072627
30
0
41
1
10
47.4241512210166
20
-0.183212060859745
30
0
41
1
10
46.5176174722046
20
0.299295944873847
30
0
41
1
10
46.0646814808453
20
0.53996472768651
30
0
41
1
10
45.1574923948718
20
1.01640984556008
30
0
41
1
10
44.7025864297469
20
1.25295436724352
30
0
41
1
10
43.3408168873828
20
1.94564819542967
30
0
41
1
10
42.4362168509069
20
2.3847272573388
30
0
41
1
10
41.0729576820235
20
2.98995640231953
30
0
41
1
10
40.6186770942454
20
3.18185940751297
30
0
41
1
10
39.7119334225438
20
3.54217703690333
30
0
41
1
10
39.2589239083902
20
3.71076327188575
30
0
41
1
10
38.3516907592687
20
4.02216472069111
30
0
41
1
10
37.8965266702519
20
4.16502947084785
30
0
41
1
10
36.9885249559468
20
4.4208004213879
30
0
41
1
10
36.535367124279
20
4.53382475031916
30
0
41
1
10
35.6288030640556
20
4.72855648086792
30
0
41
1
10
35.1753375478996
20
4.81021517186622
30
0
41
1
10
34.2660197561127
20
4.94057471629449
30
0
41
1
10
33.8119220269574
20
4.98900943217771
30
0
41
1
10
32.9382489415559
20
5.0493546922699
30
0
41
1
10
32.5182137639916
20
5.06370731032547
30
0
41
1
10
32.0976225232666
20
5.06328015448494
30
0
0
SPLINE
5
D1
100
AcDbEntity
8
1
62
256
6
ByLayer
370
13
48
1
60
0
100
AcDbSpline
70
4
71
3
72
12
73
8
40
0
40
0
40
0
40
0
40
0.338712556212364
40
0.338712556212364
40
0.674154724487025
40
0.674154724487025
40
1
40
1
40
1
40
1
41
1
10
6.25058305428701
20
4.59676312122855
30
0
41
1
10
6.25063105469403
20
4.64661374941238
30
0
41
1
10
6.25067652902487
20
4.68813092655469
30
0
41
1
10
6.2507631417935
20
4.75442696053838
30
0
41
1
10
6.25080437864023
20
4.77933135958187
30
0
41
1
10
6.25088248748344
20
4.81177013774919
30
0
41
1
10
6.25091899886306
20
4.81962068950571
30
0
41
1
10
6.25095406969771
20
4.81960392060833
30
0
0
SPLINE
5
D2
100
AcDbEntity
8
1
62
256
6
ByLayer
370
18
48
1
60
0
100
AcDbSpline
70
4
71
3
72
77
73
73
40
0
40
0
40
0
40
0
40
0.0363063700821744
40
0.0363063700821744
40
0.106841642339467
40
0.106841642339467
40
0.142109278468113
40
0.142109278468113
40
0.177376914596759
40
0.177376914596759
40
0.247912186854052
40
0.247912186854052
40
0.283179822982698
40
0.283179822982698
40
0.318447459111344
40
0.318447459111344
40
0.388982731368637
40
0.388982731368637
40
0.459518003625929
40
0.459518003625929
40
0.459793532033184
40
0.459793532033184
40
0.459931296236812
40
0.459931296236812
40
0.460069060440439
40
0.460069060440439
40
0.460620117254949
40
0.460620117254949
40
0.461722230883969
40
0.461722230883969
40
0.463926458142009
40
0.463926458142009
40
0.468334912658089
40
0.468334912658089
40
0.477151821690249
40
0.477151821690249
40
0.494785639754569
40
0.494785639754569
40
0.530053275883209
40
0.530053275883209
40
0.60058854814049
40
0.60058854814049
40
0.67112382039777
40
0.67112382039777
40
0.68875763846209
40
0.68875763846209
40
0.70639145652641
40
0.70639145652641
40
0.71079991104249
40
0.71079991104249
40
0.71300413830053
40
0.71300413830053
40
0.71410625192955
40
0.71410625192955
40
0.714381780336805
40
0.714381780336805
40
0.71465730874406
40
0.71520836555857
40
0.724025274590731
40
0.741659092655053
40
0.741659092655053
40
0.812194364912341
40
0.812194364912341
40
0.847462001040985
40
0.847462001040985
40
0.882729637169629
40
0.882729637169629
40
0.917997273298273
40
0.917997273298273
40
0.953264909426917
40
0.953264909426917
40
1
40
1
40
1
40
1
41
1
10
18.77244952123
20
-1.3139802184578
30
0
41
1
10
18.5975347880965
20
-1.22770278202009
30
0
41
1
10
18.4226969485611
20
-1.14367230099216
30
0
41
1
10
17.9080391097653
20
-0.904485248868525
30
0
41
1
10
17.5680990218884
20
-0.756962721251824
30
0
41
1
10
17.054999274172
20
-0.558917345538305
30
0
41
1
10
16.8837105180393
20
-0.496952963395387
30
0
41
1
10
16.5441812894241
20
-0.383718769159685
30
0
41
1
10
16.3753721193732
20
-0.332224896900726
30
0
41
1
10
15.8707754612193
20
-0.194419109876605
30
0
41
1
10
15.536846380051
20
-0.124839491896722
30
0
41
1
10
15.0347563460495
20
-0.058125099916424
30
0
41
1
10
14.8671854507247
20
-0.042148394621961
30
0
41
1
10
14.5307435047258
20
-0.0232704764211746
30
0
41
1
10
14.3619523949924
20
-0.020421553013108
30
0
41
1
10
13.8580450846619
20
-0.0317451278185956
30
0
41
1
10
13.5228454137744
20
-0.065744995668183
30
0
41
1
10
12.8507633084253
20
-0.183970714617459
30
0
41
1
10
12.514739899833
20
-0.268056758903356
30
0
41
1
10
12.1771767702598
20
-0.374434149929613
30
0
41
1
10
12.1758632937782
20
-0.37484840149088
30
0
41
1
10
12.1738930787618
20
-0.375470275614276
30
0
41
1
10
12.1731069439391
20
-0.375555252381048
30
0
41
1
10
12.1721543441436
20
-0.37633758707517
30
0
41
1
10
12.1724647863042
20
-0.376989185003282
30
0
41
1
10
12.1742188515582
20
-0.379553599061666
30
0
41
1
10
12.176606009809
20
-0.38118046199034
30
0
41
1
10
12.1833182484217
20
-0.386103898071383
30
0
41
1
10
12.1881202931684
20
-0.389159507179045
30
0
41
1
10
12.2026385515401
20
-0.398199166176141
30
0
41
1
10
12.2125872137935
20
-0.40398451001505
30
0
41
1
10
12.2426307128846
20
-0.421168080045533
30
0
41
1
10
12.2629819185948
20
-0.432340135191026
30
0
41
1
10
12.3242682227178
20
-0.465603134323203
30
0
41
1
10
12.3655181616674
20
-0.48740650469037
30
0
41
1
10
12.4896322373356
20
-0.552528501748498
30
0
41
1
10
12.5729157003388
20
-0.595497329894755
30
0
41
1
10
12.8232447805414
20
-0.72415789816921
30
0
41
1
10
12.9908754175421
20
-0.809544237035112
30
0
41
1
10
13.4945460919527
20
-1.06613017329667
30
0
41
1
10
13.8312369356653
20
-1.23796382875466
30
0
41
1
10
14.5043280014021
20
-1.58603436482557
30
0
41
1
10
14.84095004477
20
-1.76176492859349
30
0
41
1
10
15.2594083236778
20
-1.98775420161709
30
0
41
1
10
15.3429896241655
20
-2.03327865844392
30
0
41
1
10
15.5096048787767
20
-2.12550982029632
30
0
41
1
10
15.5928210709722
20
-2.17191594388692
30
0
41
1
10
15.6952577258395
20
-2.23280213628942
30
0
41
1
10
15.7156713335706
20
-2.24512100876964
30
0
41
1
10
15.7457984827583
20
-2.26439968972133
30
0
41
1
10
15.7557967648554
20
-2.27091798895779
30
0
41
1
10
15.7702465502813
20
-2.28150048240161
30
0
41
1
10
15.7752556541482
20
-2.28491322338894
30
0
41
1
10
15.780049817083
20
-2.29069161301584
30
0
41
1
10
15.7812493550478
20
-2.29251636767833
30
0
41
1
10
15.778829249244
20
-2.29441843474243
30
0
41
1
10
15.7751990647994
20
-2.29727119222116
30
0
41
1
10
15.7328462539804
20
-2.33054108712818
30
0
41
1
10
15.6142239495874
20
-2.42331271904896
30
0
41
1
10
15.4979919780321
20
-2.5128702651098
30
0
41
1
10
15.1099937630069
20
-2.80785316052834
30
0
41
1
10
14.8012391526104
20
-3.03016786812702
30
0
41
1
10
14.3302035330865
20
-3.33007413152228
30
0
41
1
10
14.1714406078521
20
-3.4245690134494
30
0
41
1
10
13.854411710745
20
-3.59705579099176
30
0
41
1
10
13.6955559046004
20
-3.67544788224197
30
0
41
1
10
13.3753842424558
20
-3.81508116659163
30
0
41
1
10
13.2140641720893
20
-3.87631508436624
30
0
41
1
10
12.8873340661343
20
-3.98057121250233
30
0
41
1
10
12.7216585420163
20
-4.02363829444624
30
0
41
1
10
12.3313951403545
20
-4.10183537646938
30
0
41
1
10
12.1087867691129
20
-4.12910066778818
30
0
41
1
10
11.8851488753783
20
-4.14158284367844
30
0
0
SPLINE
5
D3
100
AcDbEntity
8
1
62
256
6
ByLayer
370
18
48
1
60
0
100
AcDbSpline
70
4
71
3
72
23
73
19
40
0
40
0
40
0
40
0
40
0.125000000000002
40
0.125000000000002
40
0.1875
40
0.1875
40
0.249999999999998
40
0.249999999999998
40
0.499999999999995
40
0.499999999999995
40
0.562499999999996
40
0.562499999999996
40
0.624999999999996
40
0.624999999999996
40
0.749999999999998
40
0.874999999999999
40
0.874999999999999
40
1
40
1
40
1
40
1
41
1
10
93.2271083907987
20
-4.87097966340971
30
0
41
1
10
93.1567998137433
20
-4.87095827774178
30
0
41
1
10
93.0898434712271
20
-4.86082133301207
30
0
41
1
10
92.9946889667945
20
-4.82968318635321
30
0
41
1
10
92.9638529241478
20
-4.816641940095
30
0
41
1
10
92.9040163432182
20
-4.78502070839198
30
0
41
1
10
92.8749218941787
20
-4.76635735681123
30
0
41
1
10
92.7359066922238
20
-4.65984446812246
30
0
41
1
10
92.6444211237612
20
-4.53300797235377
30
0
41
1
10
92.5559080853648
20
-4.31992765039377
30
0
41
1
10
92.5395142396901
20
-4.27454989426883
30
0
41
1
10
92.5094464893803
20
-4.17805488266265
30
0
41
1
10
92.4957356287313
20
-4.12672783736141
30
0
41
1
10
92.4593985217366
20
-3.96621605522529
30
0
41
1
10
92.4233171257647
20
-3.73402609597639
30
0
41
1
10
92.411554881165
20
-3.46610040979232
30
0
41
1
10
92.4122760034538
20
-3.17983106582375
30
0
41
1
10
92.4189989239573
20
-3.02682894919005
30
0
41
1
10
92.4319427052976
20
-2.86820360713673
30
0
0
SPLINE
5
D4
100
AcDbEntity
8
1
62
256
6
ByLayer
370
18
48
1
60
0
100
AcDbSpline
70
4
71
3
72
14
73
10
40
0
40
0
40
0
40
0
40
0.25
40
0.25
40
0.5
40
0.5
40
0.75
40
0.75
40
1
40
1
40
1
40
1
41
1
10
6.00105381923996
20
-1.69696620383007
30
0
41
1
10
6.00350705577807
20
-1.66816290401471
30
0
41
1
10
6.01036149237751
20
-1.64045474550213
30
0
41
1
10
6.03593451012409
20
-1.59332003698972
30
0
41
1
10
6.05507239918202
20
-1.57386392630303
30
0
41
1
10
6.10563621812111
20
-1.55393247454168
30
0
41
1
10
6.13568345142633
20
-1.55434243515751
30
0
41
1
10
6.19566118992517
20
-1.57193042282068
30
0
41
1
10
6.2246300468565
20
-1.58808684343444
30
0
41
1
10
6.25185517021438
20
-1.60801085990528
30
0
0
SPLINE
5
D5
100
AcDbEntity
8
1
62
256
6
ByLayer
370
18
48
1
60
0
100
AcDbSpline
70
4
71
3
72
22
73
18
40
0
40
0
40
0
40
0
40
0.124999999999993
40
0.124999999999993
40
0.249999999999986
40
0.249999999999986
40
0.499999999999983
40
0.499999999999983
40
0.624999999999987
40
0.624999999999987
40
0.749999999999991
40
0.749999999999991
40
0.874999999999995
40
0.874999999999995
40
0.937499999999997
40
0.937499999999997
40
1
40
1
40
1
40
1
41
1
10
94.2226549873411
20
2.5260058381844
30
0
41
1
10
94.1842398126793
20
2.62941819812016
30
0
41
1
10
94.1457279490585
20
2.73273678138762
30
0
41
1
10
94.0687226447314
20
2.93929880985874
30
0
41
1
10
94.0302090329791
20
3.04249759368321
30
0
41
1
10
93.9146076711137
20
3.35163981059978
30
0
41
1
10
93.8374728137709
20
3.55722979549395
30
0
41
1
10
93.7215065416969
20
3.86363407055094
30
0
41
1
10
93.6827925237313
20
3.96532919526302
30
0
41
1
10
93.6053542838442
20
4.1686428838301
30
0
41
1
10
93.5666210214124
20
4.27019361622851
30
0
41
1
10
93.4890839846955
20
4.47276602661421
30
0
41
1
10
93.4502832337054
20
4.57381038855382
30
0
41
1
10
93.3919751017692
20
4.72457406353624
30
0
41
1
10
93.3725202291177
20
4.77468734927035
30
0
41
1
10
93.3335549864322
20
4.8744975207517
30
0
41
1
10
93.3140495238032
20
4.9242312270348
30
0
41
1
10
93.2945425222457
20
4.97395338664967
30
0
0
SPLINE
5
D6
100
AcDbEntity
8
1
62
256
6
ByLayer
370
18
48
1
60
0
100
AcDbSpline
70
4
71
3
72
13
73
9
40
0
40
0
40
0
40
0
40
0.266505629543078
40
0.266505629543078
40
0.533011259086155
40
0.799516888629233
40
0.799516888629233
40
1
40
1
40
1
40
1
41
1
10
6.00092375731086
20
4.69475092076087
30
0
41
1
10
6.00092839504984
20
4.75721762200268
30
0
41
1
10
6.00093283753466
20
4.81180607901126
30
0
41
1
10
6.00094126894683
20
4.90371258971356
30
0
41
1
10
6.00094926955876
20
4.97872510975193
30
0
41
1
10
6.00095658698962
20
5.02068829525595
30
0
41
1
10
6.00096277017005
20
5.04286126691548
30
0
41
1
10
6.00096535553166
20
5.04766181922147
30
0
41
1
10
6.00096787753856
20
5.04762139896249
30
0
0
SPLINE
5
D7
100
AcDbEntity
8
1
62
256
6
ByLayer
370
18
48
1
60
0
100
AcDbSpline
70
4
71
3
72
12
73
8
40
0
40
0
40
0
40
0
40
0.249999999999984
40
0.249999999999984
40
0.499999999999967
40
0.499999999999967
40
1
40
1
40
1
40
1
41
1
10
93.2679441915374
20
-4.92669137345905
30
0
41
1
10
93.2727732288003
20
-4.91363100198816
30
0
41
1
10
93.2773867004439
20
-4.90037772750429
30
0
41
1
10
93.2850282602139
20
-4.87649771903759
30
0
41
1
10
93.2880380981145
20
-4.86590755161444
30
0
41
1
10
93.2935590987485
20
-4.84205090430862
30
0
41
1
10
93.2925338193166
20
-4.83742876315958
30
0
41
1
10
93.2888601214861
20
-4.84050928607945
30
0
0
SPLINE
5
D8
100
AcDbEntity
8
1
62
256
6
ByLayer
370
18
48
1
60
0
100
AcDbSpline
70
4
71
3
72
8
73
4
40
0
40
0
40
0
40
0
40
1
40
1
40
1
40
1
41
1
10
93.219075832478
20
-5.05868224041836
30
0
41
1
10
93.2353790960124
20
-5.01470662371239
30
0
41
1
10
93.251668946924
20
-4.97070858203713
30
0
41
1
10
93.2679441915374
20
-4.92669137345899
30
0
0
SPLINE
5
D9
100
AcDbEntity
8
1
62
256
6
ByLayer
370
18
48
1
60
0
100
AcDbSpline
70
4
71
3
72
96
73
92
40
0
40
0
40
0
40
0
40
0.0162458275761508
40
0.0162458275761508
40
0.0486701576706625
40
0.0486701576706625
40
0.0810944877651743
40
0.0810944877651743
40
0.0973066528124302
40
0.0973066528124302
40
0.113518817859686
40
0.113518817859686
40
0.145943147954198
40
0.145943147954198
40
0.17836747804871
40
0.17836747804871
40
0.194579643095965
40
0.194579643095965
40
0.210791808143221
40
0.210791808143221
40
0.243216138237733
40
0.243216138237733
40
0.259428303284989
40
0.259428303284989
40
0.275640468332244
40
0.275640468332244
40
0.308064798426755
40
0.308064798426755
40
0.32427696347401
40
0.32427696347401
40
0.340489128521265
40
0.340489128521265
40
0.372913458615774
40
0.372913458615774
40
0.389125623663028
40
0.389125623663028
40
0.405337788710282
40
0.405337788710282
40
0.43776211880479
40
0.43776211880479
40
0.453974283852045
40
0.453974283852045
40
0.470186448899299
40
0.470186448899299
40
0.502610778993808
40
0.502610778993808
40
0.535035109088317
40
0.535035109088317
40
0.551247274135572
40
0.551247274135572
40
0.567459439182827
40
0.567459439182827
40
0.599883769277338
40
0.599883769277338
40
0.616095934324593
40
0.616095934324593
40
0.632308099371848
40
0.632308099371848
40
0.664732429466358
40
0.664732429466358
40
0.680944594513612
40
0.680944594513612
40
0.697156759560867
40
0.697156759560867
40
0.729581089655376
40
0.729581089655376
40
0.745793254702631
40
0.745793254702631
40
0.762005419749886
40
0.762005419749886
40
0.794429749844397
40
0.794429749844397
40
0.826854079938907
40
0.826854079938907
40
0.859278410033418
40
0.859278410033418
40
0.891702740127929
40
0.891702740127929
40
0.907914905175185
40
0.907914905175185
40
0.92412707022244
40
0.92412707022244
40
0.940339235269695
40
0.940339235269695
40
0.956551400316951
40
0.956551400316951
40
0.972763565364206
40
0.972763565364206
40
0.988975730411462
40
0.988975730411462
40
1
40
1
40
1
40
1
41
1
10
83.811477726852
20
-3.65078243278043
30
0
41
1
10
83.61317465138
20
-3.71799531756076
30
0
41
1
10
83.4147147384261
20
-3.78289734652333
30
0
41
1
10
82.8190084715916
20
-3.96920226237077
30
0
41
1
10
82.4227890469801
20
-4.08261303336403
30
0
41
1
10
81.631513257909
20
-4.2886144372352
30
0
41
1
10
81.2368673357538
20
-4.38149332878086
30
0
41
1
10
80.6433763026845
20
-4.50183336768251
30
0
41
1
10
80.4453704758692
20
-4.53906546598282
30
0
41
1
10
80.048914815488
20
-4.60584123981488
30
0
41
1
10
79.8503283482416
20
-4.63579043695125
30
0
41
1
10
79.2551091868031
20
-4.7187700165351
30
0
41
1
10
78.8595983941958
20
-4.76361050159736
30
0
41
1
10
78.0678229028304
20
-4.82924001928527
30
0
41
1
10
77.6717116867408
20
-4.85038387678443
30
0
41
1
10
77.077263575348
20
-4.86339012957564
30
0
41
1
10
76.8790556635322
20
-4.8645808233874
30
0
41
1
10
76.4825938691839
20
-4.86031061708763
30
0
41
1
10
76.2842325708413
20
-4.85482619353573
30
0
41
1
10
75.6896704729063
20
-4.82814521490431
30
0
41
1
10
75.2936564885468
20
-4.79735695152928
30
0
41
1
10
74.6999583723992
20
-4.72919379852081
30
0
41
1
10
74.5020693812527
20
-4.7033250533658
30
0
41
1
10
74.1064055632824
20
-4.6472915442952
30
0
41
1
10
73.9087097690145
20
-4.6166494331944
30
0
41
1
10
73.3147132470835
20
-4.51656679155641
30
0
41
1
10
72.9171804767213
20
-4.43888591368011
30
0
41
1
10
72.3225101606206
20
-4.30466012343001
30
0
41
1
10
72.1245340899279
20
-4.25615414557566
30
0
41
1
10
71.7288855747879
20
-4.15410426197062
30
0
41
1
10
71.531313718412
20
-4.10079931264207
30
0
41
1
10
70.9383283806305
20
-3.93362079715175
30
0
41
1
10
70.5425185559624
20
-3.81256983303655
30
0
41
1
10
69.9478803504715
20
-3.61520189208838
30
0
41
1
10
69.7493876052622
20
-3.54681740549211
30
0
41
1
10
69.3525709004715
20
-3.40424270944189
30
0
41
1
10
69.1545502581302
20
-3.33033348714628
30
0
41
1
10
68.5607893054261
20
-3.10410352915903
30
0
41
1
10
68.1648461976024
20
-2.94692139278851
30
0
41
1
10
67.5708419583299
20
-2.69993281292574
30
0
41
1
10
67.3728266058927
20
-2.61572812846796
30
0
41
1
10
66.9767162322843
20
-2.44318450436856
30
0
41
1
10
66.7786415202921
20
-2.35479002443751
30
0
41
1
10
66.1842889248873
20
-2.08478645971275
30
0
41
1
10
65.7870936122941
20
-1.90046725998133
30
0
41
1
10
64.9943963892563
20
-1.52415028787681
30
0
41
1
10
64.5984533856894
20
-1.33178151900765
30
0
41
1
10
64.0051971978919
20
-1.03626464560148
30
0
41
1
10
63.8074594042515
20
-0.936879936301978
30
0
41
1
10
63.4113634401271
20
-0.737909949623457
30
0
41
1
10
63.2130859594627
20
-0.638121611096636
30
0
41
1
10
62.6175755282119
20
-0.337596770855782
30
0
41
1
10
62.2204799369652
20
-0.136151855386316
30
0
41
1
10
61.6269531993975
20
0.166842620283546
30
0
41
1
10
61.4294075339474
20
0.268099066662188
30
0
41
1
10
61.0338667055147
20
0.4693030159888
30
0
41
1
10
60.8359747670512
20
0.569417330092733
30
0
41
1
10
60.2419477660678
20
0.868306874209139
30
0
41
1
10
59.8454990041397
20
1.06573768117377
30
0
41
1
10
59.2501104318457
20
1.35868260441831
30
0
41
1
10
59.0521206591934
20
1.45570620364464
30
0
41
1
10
58.6561717951961
20
1.64694423634029
30
0
41
1
10
58.4581760652322
20
1.74135993153456
30
0
41
1
10
57.8641881037322
20
2.02066427904862
30
0
41
1
10
57.4681965981912
20
2.20188761251381
30
0
41
1
10
56.8742922422223
20
2.46553555674663
30
0
41
1
10
56.6764357840028
20
2.55218154440919
30
0
41
1
10
56.280328351022
20
2.72168607806361
30
0
41
1
10
56.0818244118428
20
2.80438851737881
30
0
41
1
10
55.486382802541
20
3.04735405496271
30
0
41
1
10
55.0898673678759
20
3.20141278109611
30
0
41
1
10
54.2978451196593
20
3.49333604130211
30
0
41
1
10
53.9027895279761
20
3.63112577084789
30
0
41
1
10
53.1104044317829
20
3.88408049572684
30
0
41
1
10
52.7128339179739
20
4.00198671705891
30
0
41
1
10
51.9191691640478
20
4.216615801877
30
0
41
1
10
51.5238029376111
20
4.3138999033373
30
0
41
1
10
50.930194120054
20
4.43976233237379
30
0
41
1
10
50.7322343217018
20
4.47835966419444
30
0
41
1
10
50.3361036196488
20
4.55118929474651
30
0
41
1
10
50.1379551465512
20
4.58497363233872
30
0
41
1
10
49.741495662109
20
4.64682688159846
30
0
41
1
10
49.5431793225919
20
4.67496387130629
30
0
41
1
10
49.1464556746164
20
4.72517634363294
30
0
41
1
10
48.9482170060519
20
4.74718583260875
30
0
41
1
10
48.551984887119
20
4.78397884097529
30
0
41
1
10
48.3539552362999
20
4.79861147013477
30
0
41
1
10
47.9579110893282
20
4.8217276730575
30
0
41
1
10
47.7598828428234
20
4.83078359230294
30
0
41
1
10
47.4272526807763
20
4.84114403110234
30
0
41
1
10
47.292627232226
20
4.84400168751759
30
0
41
1
10
47.1580267596712
20
4.8454586366627
30
0
0
SPLINE
5
DA
100
AcDbEntity
8
1
62
256
6
ByLayer
370
18
48
1
60
0
100
AcDbSpline
70
4
71
3
72
32
73
28
40
0
40
0
40
0
40
0
40
0.0099011549987901
40
0.0099011549987901
40
0.108911039498908
40
0.108911039498908
40
0.158415981748969
40
0.158415981748969
40
0.207920923999028
40
0.207920923999028
40
0.306930808499149
40
0.306930808499149
40
0.35643575074921
40
0.35643575074921
40
0.40594069299927
40
0.40594069299927
40
0.50495057749939
40
0.50495057749939
40
0.603960461999512
40
0.603960461999512
40
0.702970346499634
40
0.702970346499634
40
0.801980230999756
40
0.801980230999756
40
0.900990115499878
40
0.900990115499878
40
1
40
1
40
1
40
1
41
1
10
23.8995021198186
20
-3.63364828645885
30
0
41
1
10
23.8599219141331
20
-3.64689751186441
30
0
41
1
10
23.8203371648032
20
-3.66005078410001
30
0
41
1
10
23.3848395642658
20
-3.80363271810404
30
0
41
1
10
22.9885382218957
20
-3.92464710925404
30
0
41
1
10
22.3935009125403
20
-4.09093982866906
30
0
41
1
10
22.1949850599394
20
-4.14377196164637
30
0
41
1
10
21.7979928917935
20
-4.24322142400675
30
0
41
1
10
21.5998776411495
20
-4.29008444860875
30
0
41
1
10
21.005214852088
20
-4.42306322831902
30
0
41
1
10
20.6088192032554
20
-4.50058132226334
30
0
41
1
10
20.014365718045
20
-4.59940822668551
30
0
41
1
10
19.8162254336226
20
-4.62949493842299
30
0
41
1
10
19.4200262046823
20
-4.683250254028
30
0
41
1
10
19.2220468230566
20
-4.70662298934732
30
0
41
1
10
18.6270584788625
20
-4.76759329943738
30
0
41
1
10
18.2292258857009
20
-4.79738260551994
30
0
41
1
10
17.4357642785749
20
-4.83142466553272
30
0
41
1
10
17.0398240778352
20
-4.83594803735699
30
0
41
1
10
16.2480368731747
20
-4.81829435638844
30
0
41
1
10
15.8513940306033
20
-4.79677869851216
30
0
41
1
10
15.0565814287892
20
-4.73102934064153
30
0
41
1
10
14.6594287869781
20
-4.68621973854889
30
0
41
1
10
13.8677320800274
20
-4.56993457114029
30
0
41
1
10
13.4717885424863
20
-4.49964247732876
30
0
41
1
10
12.6790604840759
20
-4.33788340319668
30
0
41
1
10
12.2822867819822
20
-4.24570772835614
30
0
41
1
10
11.8851488791182
20
-4.14158284346971
30
0
0
SPLINE
5
DB
100
AcDbEntity
8
1
62
256
6
ByLayer
370
18
48
1
60
0
100
AcDbSpline
70
4
71
3
72
16
73
12
40
0
40
0
40
0
40
0
40
0.321006154763272
40
0.321006154763272
40
0.485371765922771
40
0.485371765922771
40
0.649737377082271
40
0.649737377082271
40
0.97846859940127
40
0.97846859940127
40
1
40
1
40
1
40
1
41
1
10
47.097260780654
20
-0.0088845680964198
30
0
41
1
10
47.9780532427783
20
-0.465753865985818
30
0
41
1
10
48.8619481820435
20
-0.923610589912386
30
0
41
1
10
50.211227574201
20
-1.59667106304627
30
0
41
1
10
50.6674180113519
20
-1.81946952758946
30
0
41
1
10
51.5804079223601
20
-2.25098842975345
30
0
41
1
10
52.0380656082465
20
-2.46043558945041
30
0
41
1
10
53.4031403298838
20
-3.05834110903044
30
0
41
1
10
54.305342825404
20
-3.41634112273033
30
0
41
1
10
55.2654283690825
20
-3.74495462569198
30
0
41
1
10
55.3244462242546
20
-3.76493854783314
30
0
41
1
10
55.3834652550489
20
-3.78470338399657
30
0
0
SPLINE
5
DC
100
AcDbEntity
8
1
62
256
6
ByLayer
370
13
48
1
60
0
100
AcDbSpline
70
4
71
3
72
18
73
14
40
0
40
0
40
0
40
0
40
0.300531573425591
40
0.300531573425591
40
0.380930503996143
40
0.380930503996143
40
0.461329434566696
40
0.461329434566696
40
0.622127295707801
40
0.622127295707801
40
0.943723017990014
40
0.943723017990014
40
1
40
1
40
1
40
1
41
1
10
55.3834662030172
20
-3.7847037014609
30
0
41
1
10
56.2255214541434
20
-4.06669887956016
30
0
41
1
10
57.0678160194388
20
-4.30409644224517
30
0
41
1
10
58.1425726464367
20
-4.53954488192795
30
0
41
1
10
58.3698426162492
20
-4.58554159900399
30
0
41
1
10
58.8256121232191
20
-4.66977888124279
30
0
41
1
10
59.0544190211828
20
-4.70804631963762
30
0
41
1
10
59.7381151153709
20
-4.81017447742312
30
0
41
1
10
60.191572015436
20
-4.86166345659817
30
0
41
1
10
61.5478854358417
20
-4.96636564659954
30
0
41
1
10
62.4475094614667
20
-4.96978699406955
30
0
41
1
10
63.5069391290158
20
-4.89583910798845
30
0
41
1
10
63.6648122201515
20
-4.88282173304327
30
0
41
1
10
63.8228125908715
20
-4.86779554744055
30
0
0
SPLINE
5
DD
100
AcDbEntity
8
1
62
256
6
ByLayer
370
18
48
1
60
0
100
AcDbSpline
70
4
71
3
72
38
73
34
40
0
40
0
40
0
40
0
40
0.0934231236791965
40
0.0934231236791965
40
0.186846247358393
40
0.186846247358393
40
0.23355780919799
40
0.23355780919799
40
0.280269371037587
40
0.280269371037587
40
0.373692494716781
40
0.373692494716781
40
0.420404056556378
40
0.420404056556378
40
0.467115618395975
40
0.467115618395975
40
0.560538742075169
40
0.560538742075169
40
0.607250303914765
40
0.607250303914765
40
0.65396186575436
40
0.65396186575436
40
0.747384989433554
40
0.747384989433554
40
0.794096551273151
40
0.794096551273151
40
0.840808113112748
40
0.840808113112748
40
0.934231236791942
40
0.934231236791942
40
0.98094279863154
40
0.98094279863154
40
1
40
1
40
1
40
1
41
1
10
18.7724495213812
20
-1.31398021853235
30
0
41
1
10
19.160822953785
20
-1.51522589807266
30
0
41
1
10
19.5497177178573
20
-1.70998423540931
30
0
41
1
10
20.3269769355361
20
-2.08991280899045
30
0
41
1
10
20.7153431711309
20
-2.27507001050148
30
0
41
1
10
21.2966900164881
20
-2.54672314238701
30
0
41
1
10
21.4903958246189
20
-2.63603512489758
30
0
41
1
10
21.8790089331149
20
-2.80999616400888
30
0
41
1
10
22.0738302429462
20
-2.89504609421314
30
0
41
1
10
22.6582761690568
20
-3.14441477977436
30
0
41
1
10
23.0472335438637
20
-3.30270729732095
30
0
41
1
10
23.6288280798377
20
-3.52924659288317
30
0
41
1
10
23.8222167652847
20
-3.6031396293433
30
0
41
1
10
24.2098055087551
20
-3.7453059359008
30
0
41
1
10
24.4039229610403
20
-3.81371511071131
30
0
41
1
10
24.9868324670925
20
-4.01157195809503
30
0
41
1
10
25.3766993369485
20
-4.13380305995042
30
0
41
1
10
25.9600498277452
20
-4.30254419302187
30
0
41
1
10
26.153960780789
20
-4.35641982571255
30
0
41
1
10
26.5415418854115
20
-4.45852329606305
30
0
41
1
10
26.7355480286374
20
-4.50645669390334
30
0
41
1
10
27.3178982033636
20
-4.64143465938145
30
0
41
1
10
27.7065107799205
20
-4.7197668142361
30
0
41
1
10
28.2891105698437
20
-4.82032618140977
30
0
41
1
10
28.4832410100211
20
-4.85101486913211
30
0
41
1
10
28.871359295738
20
-4.90655740164593
30
0
41
1
10
29.0657580993248
20
-4.93123278438304
30
0
41
1
10
29.6490110927929
20
-4.99543290211645
30
0
41
1
10
30.0378566222047
20
-5.02561400187699
30
0
41
1
10
30.6201944293617
20
-5.05246524116544
30
0
41
1
10
30.8141571093322
20
-5.05832651003081
30
0
41
1
10
31.0869454245509
20
-5.06214219291132
30
0
41
1
10
31.1659434124495
20
-5.06271775406577
30
0
41
1
10
31.244954471092
20
-5.06276483207034
30
0
0
SPLINE
5
DE
100
AcDbEntity
8
1
62
256
6
ByLayer
370
18
48
1
60
0
100
AcDbSpline
70
4
71
3
72
92
73
88
40
0
40
0
40
0
40
0
40
0.0276680657835203
40
0.0276680657835203
40
0.0588605699131166
40
0.0588605699131166
40
0.0744568219779151
40
0.0744568219779151
40
0.0900530740427138
40
0.0900530740427138
40
0.121245578172312
40
0.121245578172312
40
0.136841830237111
40
0.136841830237111
40
0.152438082301911
40
0.152438082301911
40
0.183630586431509
40
0.183630586431509
40
0.199226838496308
40
0.199226838496308
40
0.214823090561108
40
0.214823090561108
40
0.246015594690706
40
0.246015594690706
40
0.277208098820305
40
0.277208098820305
40
0.308400602949904
40
0.308400602949904
40
0.323996855014704
40
0.323996855014704
40
0.339593107079503
40
0.339593107079503
40
0.370785611209102
40
0.370785611209102
40
0.386381863273901
40
0.386381863273901
40
0.401978115338701
40
0.401978115338701
40
0.4331706194683
40
0.4331706194683
40
0.4643631235979
40
0.4643631235979
40
0.4955556277275
40
0.4955556277275
40
0.526748131857099
40
0.526748131857099
40
0.542344383921899
40
0.542344383921899
40
0.5579406359867
40
0.5579406359867
40
0.5891331401163
40
0.5891331401163
40
0.604729392181101
40
0.604729392181101
40
0.620325644245902
40
0.620325644245902
40
0.651518148375503
40
0.651518148375503
40
0.667114400440303
40
0.667114400440303
40
0.682710652505104
40
0.682710652505104
40
0.713903156634703
40
0.713903156634703
40
0.745095660764303
40
0.745095660764303
40
0.776288164893903
40
0.776288164893903
40
0.791884416958702
40
0.791884416958702
40
0.807480669023502
40
0.807480669023502
40
0.8386731731531
40
0.8386731731531
40
0.854269425217899
40
0.854269425217899
40
0.869865677282698
40
0.869865677282698
40
0.901058181412296
40
0.901058181412296
40
0.932250685541894
40
0.932250685541894
40
0.963443189671492
40
0.963443189671492
40
0.99463569380109
40
0.99463569380109
40
1
40
1
40
1
40
1
41
1
10
53.8524335453638
20
3.6409899044294
30
0
41
1
10
54.1958925273707
20
3.76938602200664
30
0
41
1
10
54.5400274978915
20
3.88942964358353
30
0
41
1
10
55.2728113198275
20
4.1284861134157
30
0
41
1
10
55.66169681036
20
4.24557687385558
30
0
41
1
10
56.2440111545442
20
4.40676376057559
30
0
41
1
10
56.4377641961588
20
4.45779110223293
30
0
41
1
10
56.825839989097
20
4.55339147412974
30
0
41
1
10
57.0199594299352
20
4.59816883575255
30
0
41
1
10
57.6022580136043
20
4.72383556034617
30
0
41
1
10
57.9903867232266
20
4.79610908668818
30
0
41
1
10
58.5716532113093
20
4.88738078949885
30
0
41
1
10
58.765095037825
20
4.91498591312401
30
0
41
1
10
59.1531361236089
20
4.96363940642476
30
0
41
1
10
59.3477853755763
20
4.98478344854956
30
0
41
1
10
59.9313504447216
20
5.03879717929891
30
0
41
1
10
60.3199408895085
20
5.0623265135799
30
0
41
1
10
60.9012982181377
20
5.07897369056406
30
0
41
1
10
61.0946926253651
20
5.08139158736927
30
0
41
1
10
61.4815986385568
20
5.07981696465461
30
0
41
1
10
61.6754307576665
20
5.07585183604402
30
0
41
1
10
62.2577047672942
20
5.054628503972
30
0
41
1
10
62.6474704009906
20
5.0280299192911
30
0
41
1
10
63.4246352735512
20
4.94973327553984
30
0
41
1
10
63.8110257230838
20
4.89753151452956
30
0
41
1
10
64.5863158361077
20
4.77039784471424
30
0
41
1
10
64.9745929007689
20
4.69539847357211
30
0
41
1
10
65.5570095733658
20
4.56514847186475
30
0
41
1
10
65.7511540826511
20
4.51876063013694
30
0
41
1
10
66.1393270773025
20
4.41977068352455
30
0
41
1
10
66.3332244980673
20
4.36711248379322
30
0
41
1
10
66.9153322521296
20
4.20261976301927
30
0
41
1
10
67.3036999554961
20
4.08344618566079
30
0
41
1
10
67.8856157027139
20
3.88955742194221
30
0
41
1
10
68.0794917744231
20
3.82240295380603
30
0
41
1
10
68.4669182651816
20
3.68279189902529
30
0
41
1
10
68.6602820672602
20
3.61007375933991
30
0
41
1
10
69.2415321277297
20
3.38599349226061
30
0
41
1
10
69.6313851989265
20
3.22907072289985
30
0
41
1
10
70.4085654589811
20
2.90035456933691
30
0
41
1
10
70.7962061413791
20
2.72820599471109
30
0
41
1
10
71.5696099896375
20
2.36796823225521
30
0
41
1
10
71.9575388540753
20
2.18343632751413
30
0
41
1
10
72.7348673047511
20
1.80426771250825
30
0
41
1
10
73.1244591234643
20
1.6093170067175
30
0
41
1
10
73.705396017659
20
1.30922644434631
30
0
41
1
10
73.8987600493163
20
1.20811605156268
30
0
41
1
10
74.286238897432
20
1.00615911104299
30
0
41
1
10
74.4801463629221
20
0.904936351297721
30
0
41
1
10
75.0620617390191
20
0.599984998823999
30
0
41
1
10
75.4502717919646
20
0.395001142294461
30
0
41
1
10
76.0321773473554
20
0.0833850324772811
30
0
41
1
10
76.2260678785773
20
-0.0215756680893264
30
0
41
1
10
76.6141417503607
20
-0.229603699941066
30
0
41
1
10
76.8082747436568
20
-0.332868767033659
30
0
41
1
10
77.3905618029084
20
-0.641218075256319
30
0
41
1
10
77.7786323778726
20
-0.844812784208642
30
0
41
1
10
78.3597067975191
20
-1.1487964402159
30
0
41
1
10
78.5530957271106
20
-1.25012407221521
30
0
41
1
10
78.9401211817525
20
-1.45119266276117
30
0
41
1
10
79.1340944483343
20
-1.550323460919
30
0
41
1
10
79.7170654461151
20
-1.84414152901204
30
0
41
1
10
80.1064828437115
20
-2.03509081290068
30
0
41
1
10
80.8821135735009
20
-2.40746512944227
30
0
41
1
10
81.2680736422955
20
-2.5903147530241
30
0
41
1
10
82.043130810245
20
-2.93807719392169
30
0
41
1
10
82.4316304395716
20
-3.10409362267424
30
0
41
1
10
83.0148909338578
20
-3.34274538865157
30
0
41
1
10
83.209246274845
20
-3.42048295244447
30
0
41
1
10
83.5968282867827
20
-3.57209790774977
30
0
41
1
10
83.7901171861858
20
-3.64608758027029
30
0
41
1
10
84.3711005405164
20
-3.85918859342229
30
0
41
1
10
84.7590813534245
20
-3.99067526199539
30
0
41
1
10
85.3409402911053
20
-4.17361225521145
30
0
41
1
10
85.5348854270129
20
-4.23218156382546
30
0
41
1
10
85.9226289527064
20
-4.34454171469289
30
0
41
1
10
86.1162674944409
20
-4.39850101629227
30
0
41
1
10
86.698385341872
20
-4.55148518675361
30
0
41
1
10
87.0868190746035
20
-4.64094884492607
30
0
41
1
10
87.8626942086764
20
-4.79713319137764
30
0
41
1
10
88.2500475533089
20
-4.86385689654011
30
0
41
1
10
89.0234745116136
20
-4.9737682376651
30
0
41
1
10
89.4120478998765
20
-5.01592819494454
30
0
41
1
10
90.1900042243646
20
-5.07543007679993
30
0
41
1
10
90.5783650298337
20
-5.09276692355184
30
0
41
1
10
91.0321489560864
20
-5.09824875982619
30
0
41
1
10
91.0987158761016
20
-5.09867276800273
30
0
41
1
10
91.1652904285373
20
-5.09871862120585
30
0
0
SPLINE
5
DF
100
AcDbEntity
8
1
62
256
6
ByLayer
370
18
48
1
60
0
100
AcDbSpline
70
2053
71
3
72
62
73
58
40
0
40
0
40
0
40
0
40
0.0312500000000023
40
0.0312500000000023
40
0.0625000000000046
40
0.0625000000000046
40
0.0937500000000069
40
0.0937500000000069
40
0.125000000000009
40
0.125000000000009
40
0.156250000000011
40
0.156250000000011
40
0.187500000000014
40
0.187500000000014
40
0.218750000000016
40
0.218750000000016
40
0.250000000000018
40
0.250000000000018
40
0.28125000000002
40
0.28125000000002
40
0.312500000000023
40
0.312500000000023
40
0.375000000000027
40
0.375000000000027
40
0.437500000000031
40
0.437500000000031
40
0.46875000000003
40
0.46875000000003
40
0.500000000000029
40
0.500000000000029
40
0.531250000000028
40
0.531250000000028
40
0.562500000000026
40
0.562500000000026
40
0.593750000000025
40
0.593750000000025
40
0.625000000000024
40
0.625000000000024
40
0.656250000000023
40
0.656250000000023
40
0.687500000000022
40
0.687500000000022
40
0.75000000000002
40
0.75000000000002
40
0.781250000000017
40
0.781250000000017
40
0.812500000000015
40
0.812500000000015
40
0.843750000000012
40
0.843750000000012
40
0.87500000000001
40
0.87500000000001
40
0.906250000000007
40
0.906250000000007
40
0.937500000000005
40
0.937500000000005
40
1
40
1
40
1
40
1
41
1
10
93.345391636336
20
-2.07433806367764
30
0
41
1
10
93.3171329869257
20
-2.1137998930048
30
0
41
1
10
93.2894076425388
20
-2.15621196389748
30
0
41
1
10
93.2351218649664
20
-2.24748038308212
30
0
41
1
10
93.2082639421284
20
-2.29694607341588
30
0
41
1
10
93.1576114671217
20
-2.40039671015239
30
0
41
1
10
93.1338813527886
20
-2.45410396378895
30
0
41
1
10
93.0901089145985
20
-2.56609766779494
30
0
41
1
10
93.0706132771934
20
-2.623156505758
30
0
41
1
10
93.0379941542903
20
-2.73561830949481
30
0
41
1
10
93.0245315139927
20
-2.79247484930397
30
0
41
1
10
93.0054760288525
20
-2.89906095573761
30
0
41
1
10
92.9996181613266
20
-2.94980612381684
30
0
41
1
10
92.9953579976291
20
-3.0428841126633
30
0
41
1
10
92.9969033427462
20
-3.08447541569132
30
0
41
1
10
93.0065908292454
20
-3.15877771684177
30
0
41
1
10
93.0146271522055
20
-3.19047510895794
30
0
41
1
10
93.035991720893
20
-3.24386193855045
30
0
41
1
10
93.049446523963
20
-3.26563983870366
30
0
41
1
10
93.0802443989825
20
-3.29898501085961
30
0
41
1
10
93.0976733581555
20
-3.31081983826948
30
0
41
1
10
93.1555942031335
20
-3.33289797367047
30
0
41
1
10
93.1999901825577
20
-3.32942513567991
30
0
41
1
10
93.2981026121451
20
-3.29041286594372
30
0
41
1
10
93.350069520065
20
-3.25562322182617
30
0
41
1
10
93.432419957748
20
-3.18033477446559
30
0
41
1
10
93.4603219681117
20
-3.15152716932852
30
0
41
1
10
93.5159249221598
20
-3.0874984462732
30
0
41
1
10
93.543792612816
20
-3.05213440070597
30
0
41
1
10
93.5996738974616
20
-2.97402519990058
30
0
41
1
10
93.6279462159078
20
-2.93080888753803
30
0
41
1
10
93.6824812547329
20
-2.83915872656925
30
0
41
1
10
93.7089297696303
20
-2.79054755148002
30
0
41
1
10
93.7599213382013
20
-2.68684319157424
30
0
41
1
10
93.7841179847874
20
-2.63233255575099
30
0
41
1
10
93.827886898421
20
-2.52121525007587
30
0
41
1
10
93.8479293418117
20
-2.46324320871838
30
0
41
1
10
93.8811302103327
20
-2.35017628236474
30
0
41
1
10
93.8946105593982
20
-2.29432018073084
30
0
41
1
10
93.9144114634624
20
-2.18598918355221
30
0
41
1
10
93.920377906648
20
-2.13564320272823
30
0
41
1
10
93.9272402106763
20
-1.99532107629256
30
0
41
1
10
93.9163970077442
20
-1.92030322427777
30
0
41
1
10
93.8840567517059
20
-1.84070200376396
30
0
41
1
10
93.8705303861987
20
-1.81918981760779
30
0
41
1
10
93.839308982726
20
-1.78614069463367
30
0
41
1
10
93.8217447457024
20
-1.77461587672943
30
0
41
1
10
93.78315384852
20
-1.76042772807617
30
0
41
1
10
93.7620281961103
20
-1.75784221012094
30
0
41
1
10
93.7176966566473
20
-1.76109845971396
30
0
41
1
10
93.6943627369747
20
-1.7668659459936
30
0
41
1
10
93.6454503236465
20
-1.78635460905204
30
0
41
1
10
93.6197638177799
20
-1.80019468878902
30
0
41
1
10
93.5675714498771
20
-1.83506135726526
30
0
41
1
10
93.5409060508328
20
-1.85612510284778
30
0
41
1
10
93.45916521243
20
-1.93044353129776
30
0
41
1
10
93.4019089351566
20
-1.99541440502332
30
0
41
1
10
93.345391636336
20
-2.07433806367764
30
0
0
SPLINE
5
E0
100
AcDbEntity
8
1
62
256
6
ByLayer
370
18
48
1
60
0
100
AcDbSpline
70
4
71
3
72
54
73
50
40
0
40
0
40
0
40
0
40
0.043631914555001
40
0.043631914555001
40
0.087263829110002
40
0.087263829110002
40
0.130895743665003
40
0.130895743665003
40
0.174527658220004
40
0.174527658220004
40
0.218159572775005
40
0.218159572775005
40
0.239975530052505
40
0.239975530052505
40
0.261791487330006
40
0.261791487330006
40
0.305423401885009
40
0.305423401885009
40
0.32723935916251
40
0.32723935916251
40
0.34905531644001
40
0.34905531644001
40
0.436319145550018
40
0.436319145550018
40
0.45813510282752
40
0.45813510282752
40
0.479951060105022
40
0.479951060105022
40
0.523582974660027
40
0.523582974660027
40
0.567214889215032
40
0.567214889215032
40
0.610846803770038
40
0.610846803770038
40
0.654478718325043
40
0.654478718325043
40
0.698110632880048
40
0.698110632880048
40
0.741742547435053
40
0.741742547435053
40
0.785374461990058
40
0.785374461990058
40
0.872638291100068
40
0.872638291100068
40
0.916270205655073
40
0.916270205655073
40
0.959902120210077
40
0.959902120210077
40
1
40
1
40
1
40
1
41
1
10
93.219075832478
20
-5.05868224041836
30
0
41
1
10
92.7659458391097
20
-5.08930789154891
30
0
41
1
10
92.3128462155202
20
-5.10257057291622
30
0
41
1
10
91.4050505985373
20
-5.09447121903611
30
0
41
1
10
90.951164847875
20
-5.07308264502794
30
0
41
1
10
90.0440826737045
20
-4.99618808127815
30
0
41
1
10
89.5898632440532
20
-4.94055109913825
30
0
41
1
10
88.6828020151937
20
-4.79627420684986
30
0
41
1
10
88.2302995664072
20
-4.7077556828084
30
0
41
1
10
87.3251917188735
20
-4.49965134365809
30
0
41
1
10
86.8726137217606
20
-4.38004879652723
30
0
41
1
10
86.1921906525077
20
-4.17857482541785
30
0
41
1
10
85.9649926453785
20
-4.10769483879915
30
0
41
1
10
85.5114529039674
20
-3.95935879687067
30
0
41
1
10
85.2849332979914
20
-3.88184747511647
30
0
41
1
10
84.6057516695098
20
-3.63977460224052
30
0
41
1
10
84.1534464763032
20
-3.46569563757586
30
0
41
1
10
83.4741413986796
20
-3.18765069243733
30
0
41
1
10
83.247563945678
20
-3.09215053556446
30
0
41
1
10
82.7938630501514
20
-2.89587519620631
30
0
41
1
10
82.5666480710101
20
-2.79505024067058
30
0
41
1
10
81.4327460723648
20
-2.28052825875443
30
0
41
1
10
80.5292954425774
20
-1.83451944595481
30
0
41
1
10
79.3950640461121
20
-1.25028343106641
30
0
41
1
10
79.1678913323929
20
-1.1321176553673
30
0
41
1
10
78.7143956878662
20
-0.894605860511916
30
0
41
1
10
78.4878701269853
20
-0.775144913083068
30
0
41
1
10
77.8085804945617
20
-0.415360710611281
30
0
41
1
10
77.356095560494
20
-0.173650977164471
30
0
41
1
10
76.4499341249333
20
0.309824674621666
30
0
41
1
10
75.9954262671604
20
0.552056860941917
30
0
41
1
10
75.0882666465098
20
1.03020391956787
30
0
41
1
10
74.635637133979
20
1.2661317545072
30
0
41
1
10
73.7303955316807
20
1.72825991858673
30
0
41
1
10
73.2775864062459
20
1.95410396975697
30
0
41
1
10
72.3695807332282
20
2.39177304414952
30
0
41
1
10
71.9156917292256
20
2.60322490866622
30
0
41
1
10
71.0099578972736
20
3.00627961697617
30
0
41
1
10
70.5573669832836
20
3.19792949604445
30
0
41
1
10
69.6510072867345
20
3.55890241441401
30
0
41
1
10
69.1964425118096
20
3.72853316883729
30
0
41
1
10
67.8358030254152
20
4.19635584903071
30
0
41
1
10
66.9320279062511
20
4.45396264238778
30
0
41
1
10
65.5699080855066
20
4.7471587208513
30
0
41
1
10
65.1161216972286
20
4.82885633989994
30
0
41
1
10
64.2100734452895
20
4.95875786274107
30
0
41
1
10
63.757437928659
20
5.00711585536226
30
0
41
1
10
62.8877373417903
20
5.06722022542848
30
0
41
1
10
62.4699371466454
20
5.08154344787636
30
0
41
1
10
62.0528980341319
20
5.08125323070922
30
0
0
SPLINE
5
E1
100
AcDbEntity
8
1
62
256
6
ByLayer
370
18
48
1
60
0
100
AcDbSpline
70
4
71
3
72
46
73
42
40
0
40
0
40
0
40
0
40
0.0045500138214324
40
0.0045500138214324
40
0.0519523941156497
40
0.0519523941156497
40
0.0993547744098674
40
0.0993547744098674
40
0.146757154704085
40
0.146757154704085
40
0.194159534998302
40
0.194159534998302
40
0.24156191529252
40
0.24156191529252
40
0.288964295586737
40
0.288964295586737
40
0.336366675880955
40
0.336366675880955
40
0.43117143646939
40
0.43117143646939
40
0.478573816763607
40
0.478573816763607
40
0.525976197057825
40
0.525976197057825
40
0.573378577352042
40
0.573378577352042
40
0.62078095764626
40
0.62078095764626
40
0.668183337940477
40
0.668183337940477
40
0.715585718234695
40
0.715585718234695
40
0.762988098528912
40
0.762988098528912
40
0.81039047882313
40
0.81039047882313
40
0.857792859117347
40
0.857792859117347
40
0.905195239411565
40
0.905195239411565
40
1
40
1
40
1
40
1
41
1
10
34.8603247062503
20
-4.85485043663587
30
0
41
1
10
34.8167551934254
20
-4.86142381259663
30
0
41
1
10
34.7731964149768
20
-4.86784289338573
30
0
41
1
10
34.2759888777568
20
-4.93936174454296
30
0
41
1
10
33.8230126380344
20
-4.98795956443655
30
0
41
1
10
32.9164437308925
20
-5.05113770309694
30
0
41
1
10
32.4624284168047
20
-5.06569962418877
30
0
41
1
10
31.5532313518258
20
-5.06022923423598
30
0
41
1
10
31.0997995722527
20
-5.04024029106671
30
0
41
1
10
30.1933124081255
20
-4.9663330778946
30
0
41
1
10
29.7402070475997
20
-4.91242435886087
30
0
41
1
10
28.8322130073325
20
-4.77145307293233
30
0
41
1
10
28.3770671085454
20
-4.68424932017095
30
0
41
1
10
27.4697120739467
20
-4.47918706744534
30
0
41
1
10
27.016636974982
20
-4.36127692414303
30
0
41
1
10
26.1097575004805
20
-4.09656545847065
30
0
41
1
10
25.6554499936694
20
-3.94957449203227
30
0
41
1
10
24.2918268567301
20
-3.46940815632257
30
0
41
1
10
23.3871500742991
20
-3.09936388873783
30
0
41
1
10
22.0247536836136
20
-2.48701039837584
30
0
41
1
10
21.5696117511608
20
-2.27325803025337
30
0
41
1
10
20.6622025484156
20
-1.83314786309359
30
0
41
1
10
20.2090730982423
20
-1.60647304022353
30
0
41
1
10
19.301974648968
20
-1.14345575628937
30
0
41
1
10
18.8474201622332
20
-0.9067201462328
30
0
41
1
10
17.9383362876436
20
-0.428744880267914
30
0
41
1
10
17.4848447035066
20
-0.188150292366146
30
0
41
1
10
16.5779663713928
20
0.292469161787182
30
0
41
1
10
16.1246414319301
20
0.53261109622855
30
0
41
1
10
15.2160942887189
20
1.00853021601773
30
0
41
1
10
14.7609125266995
20
1.24416495845745
30
0
41
1
10
13.8533817905927
20
1.70399231860057
30
0
41
1
10
13.4002177176594
20
1.92866233568583
30
0
41
1
10
12.492955040285
20
2.36373498491628
30
0
41
1
10
12.038162884848
20
2.57437074734491
30
0
41
1
10
11.1288524555808
20
2.97647946380789
30
0
41
1
10
10.6752286149905
20
3.16790207163476
30
0
41
1
10
9.76752893864139
20
3.52776367214099
30
0
41
1
10
9.31315118919582
20
3.69630195562311
30
0
41
1
10
7.94833460202349
20
4.16288018229849
30
0
41
1
10
7.04217166996449
20
4.41954850523581
30
0
41
1
10
6.13282351483306
20
4.61459221850967
30
0
0
SPLINE
5
E2
100
AcDbEntity
8
1
62
256
6
ByLayer
370
18
48
1
60
0
100
AcDbSpline
70
4
71
3
72
90
73
86
40
0
40
0
40
0
40
0
40
0.022307293102414
40
0.022307293102414
40
0.0545861203064988
40
0.0545861203064988
40
0.0707255339085413
40
0.0707255339085413
40
0.0868649475105837
40
0.0868649475105837
40
0.119143774714668
40
0.119143774714668
40
0.135283188316711
40
0.135283188316711
40
0.151422601918754
40
0.151422601918754
40
0.18370142912284
40
0.18370142912284
40
0.199840842724883
40
0.199840842724883
40
0.215980256326926
40
0.215980256326926
40
0.248259083531012
40
0.248259083531012
40
0.280537910735097
40
0.280537910735097
40
0.312816737939183
40
0.312816737939183
40
0.345095565143269
40
0.345095565143269
40
0.377374392347354
40
0.377374392347354
40
0.40965321955144
40
0.40965321955144
40
0.425792633153483
40
0.425792633153483
40
0.441932046755526
40
0.441932046755526
40
0.474210873959611
40
0.474210873959611
40
0.506489701163696
40
0.506489701163696
40
0.538768528367781
40
0.538768528367781
40
0.554907941969823
40
0.554907941969823
40
0.571047355571866
40
0.571047355571866
40
0.603326182775953
40
0.603326182775953
40
0.63560500998004
40
0.63560500998004
40
0.667883837184126
40
0.667883837184126
40
0.700162664388213
40
0.700162664388213
40
0.716302077990256
40
0.716302077990256
40
0.7324414915923
40
0.7324414915923
40
0.764720318796387
40
0.764720318796387
40
0.796999146000475
40
0.796999146000475
40
0.813138559602519
40
0.813138559602519
40
0.829277973204563
40
0.829277973204563
40
0.845417386806606
40
0.845417386806606
40
0.86155680040865
40
0.86155680040865
40
0.877696214010694
40
0.877696214010694
40
0.893835627612738
40
0.893835627612738
40
0.909975041214781
40
0.909975041214781
40
0.926114454816825
40
0.926114454816825
40
0.958393282020913
40
0.958393282020913
40
0.990672109225
40
0.990672109225
40
1
40
1
40
1
40
1
41
1
10
17.0096604454668
20
4.83150255567355
30
0
41
1
10
17.283201941429
20
4.83197677266267
30
0
41
1
10
17.5568253836387
20
4.82620587289182
30
0
41
1
10
18.2271941484419
20
4.7975055867343
30
0
41
1
10
18.6243455209358
20
4.76782534343403
30
0
41
1
10
19.2196949329359
20
4.70688676133963
30
0
41
1
10
19.4177537481922
20
4.6835339706418
30
0
41
1
10
19.8140094267348
20
4.62981992813451
30
0
41
1
10
20.0121329033208
20
4.59975688057702
30
0
41
1
10
20.6064159978444
20
4.50102555819998
30
0
41
1
10
21.0025346884432
20
4.42360490039391
30
0
41
1
10
21.5965487763114
20
4.29085734611101
30
0
41
1
10
21.7944143546308
20
4.24407838743031
30
0
41
1
10
22.1908069058301
20
4.14485734084127
30
0
41
1
10
22.3895552539734
20
4.09200903994261
30
0
41
1
10
22.985220560323
20
3.92564027993444
30
0
41
1
10
23.3817360111171
20
3.80460556301264
30
0
41
1
10
23.9756338947658
20
3.60887493153501
30
0
41
1
10
24.1733891602391
20
3.54114417179801
30
0
41
1
10
24.5689777645297
20
3.40174852440944
30
0
41
1
10
24.7669445517428
20
3.33015371338436
30
0
41
1
10
25.3614744485929
20
3.10779854161567
30
0
41
1
10
25.7591551429034
20
2.950436559629
30
0
41
1
10
26.5528913392532
20
2.62117549663787
30
0
41
1
10
26.9484053359154
20
2.44917106737847
30
0
41
1
10
27.7404820703555
20
2.09545376959264
30
0
41
1
10
28.1367176863933
20
1.91248480000755
30
0
41
1
10
28.9296580125772
20
1.53665789299427
30
0
41
1
10
29.3265120537157
20
1.34272696409229
30
0
41
1
10
30.119904403337
20
0.952196728189165
30
0
41
1
10
30.5161770981565
20
0.754664842495515
30
0
41
1
10
31.3081977606514
20
0.355903624165705
30
0
41
1
10
31.7035318407139
20
0.153890483128237
30
0
41
1
10
32.2979118330963
20
-0.148097678904691
30
0
41
1
10
32.4962530268129
20
-0.248612030906742
30
0
41
1
10
32.8934460099535
20
-0.449352807500418
30
0
41
1
10
33.0920608547474
20
-0.549387468059365
30
0
41
1
10
33.6869557545402
20
-0.847930835825338
30
0
41
1
10
34.0823856129212
20
-1.04591944403882
30
0
41
1
10
34.8736584472732
20
-1.43528736447016
30
0
41
1
10
35.2696547479589
20
-1.62665270875934
30
0
41
1
10
36.0628292140814
20
-1.99920804205704
30
0
41
1
10
36.4601332432926
20
-2.18122665781201
30
0
41
1
10
37.0543977286287
20
-2.44534519810995
30
0
41
1
10
37.2525269057214
20
-2.53165774139649
30
0
41
1
10
37.648713245916
20
-2.70160139404163
30
0
41
1
10
37.8467491242679
20
-2.78529756020927
30
0
41
1
10
38.4409021570133
20
-3.02849801476833
30
0
41
1
10
38.8369189832189
20
-3.18237232239676
30
0
41
1
10
39.6296892647195
20
-3.4748723455526
30
0
41
1
10
40.0274353859334
20
-3.61243006381025
30
0
41
1
10
40.8206004164383
20
-3.87124525512468
30
0
41
1
10
41.2165403821668
20
-3.98824630570701
30
0
41
1
10
42.0077831060849
20
-4.20298609286891
30
0
41
1
10
42.4040948544233
20
-4.29912114466686
30
0
41
1
10
42.9996210195133
20
-4.42883097835525
30
0
41
1
10
43.1983784086499
20
-4.46988220395389
30
0
41
1
10
43.5950725309943
20
-4.54436164466514
30
0
41
1
10
43.7931430287254
20
-4.5782071566189
30
0
41
1
10
44.3867130064331
20
-4.67090743817235
30
0
41
1
10
44.7822524995406
20
-4.72013514852901
30
0
41
1
10
45.5743087635497
20
-4.79650819731327
30
0
41
1
10
45.970438709672
20
-4.82438513584046
30
0
41
1
10
46.5654176377835
20
-4.84367654851008
30
0
41
1
10
46.7636615429484
20
-4.84670097511878
30
0
41
1
10
47.159996872326
20
-4.84646478022597
30
0
41
1
10
47.3581473567036
20
-4.84324065314095
30
0
41
1
10
47.7543328991953
20
-4.83101069082124
30
0
41
1
10
47.9523792368483
20
-4.82199762167235
30
0
41
1
10
48.3483212607031
20
-4.79899177202896
30
0
41
1
10
48.5462139425159
20
-4.78444176359756
30
0
41
1
10
48.9419607481279
20
-4.74783753887479
30
0
41
1
10
49.1397350197811
20
-4.72595376282143
30
0
41
1
10
49.5359072271322
20
-4.67595494523349
30
0
41
1
10
49.7343765308465
20
-4.64787220919052
30
0
41
1
10
50.1316167498765
20
-4.5860256910527
30
0
41
1
10
50.330071206482
20
-4.55224773019796
30
0
41
1
10
50.726659833769
20
-4.47943372687539
30
0
41
1
10
50.9247862257776
20
-4.44084833434158
30
0
41
1
10
51.5185986710216
20
-4.3151221989452
30
0
41
1
10
51.9136991396077
20
-4.21799038890265
30
0
41
1
10
52.7061507966589
20
-4.00389708695619
30
0
41
1
10
53.1034433310052
20
-3.88619973962807
30
0
41
1
10
53.6149566139247
20
-3.72303996916747
30
0
41
1
10
53.7295066107975
20
-3.68552544885674
30
0
41
1
10
53.843980310222
20
-3.64715126196418
30
0
0
SPLINE
5
E3
100
AcDbEntity
8
1
62
256
6
ByLayer
370
18
48
1
60
0
100
AcDbSpline
70
4
71
3
72
28
73
24
40
0
40
0
40
0
40
0
40
0.0199319678796865
40
0.0199319678796865
40
0.128828415893051
40
0.128828415893051
40
0.237724863906415
40
0.237724863906415
40
0.292173087913097
40
0.292173087913097
40
0.346621311919779
40
0.346621311919779
40
0.455517759933149
40
0.455517759933149
40
0.56441420794652
40
0.56441420794652
40
0.673310655959889
40
0.673310655959889
40
0.782207103973259
40
0.782207103973259
40
0.89110355198663
40
0.89110355198663
40
1
40
1
40
1
40
1
41
1
10
77.0499231630336
20
4.86261984982835
30
0
41
1
10
77.1225856035649
20
4.86191473867089
30
0
41
1
10
77.1952703555364
20
4.86077770179725
30
0
41
1
10
77.6650416685218
20
4.85068679053495
30
0
41
1
10
78.0615805401544
20
4.82963395553639
30
0
41
1
10
78.8535406999592
20
4.76423420227789
30
0
41
1
10
79.2487892989741
20
4.71952936982487
30
0
41
1
10
79.8431377915262
20
4.63685214921529
30
0
41
1
10
80.0413456837203
20
4.60701924815433
30
0
41
1
10
80.4381249784438
20
4.54037915788749
30
0
41
1
10
80.6368853832858
20
4.50308564299985
30
0
41
1
10
81.2319037149186
20
4.38262466814211
30
0
41
1
10
81.6271421659318
20
4.28967985569969
30
0
41
1
10
82.4188165518298
20
4.08371903070201
30
0
41
1
10
82.814848619401
20
3.97041863641917
30
0
41
1
10
83.6073966580689
20
3.72272039033018
30
0
41
1
10
84.0041040526889
20
3.58742560948824
30
0
41
1
10
84.7971002412378
20
3.301796678259
30
0
41
1
10
85.1933354751998
20
3.15145393631588
30
0
41
1
10
85.9851726169266
20
2.83415534606064
30
0
41
1
10
86.3803923109213
20
2.66633280117105
30
0
41
1
10
87.1728785976539
20
2.31861078300133
30
0
41
1
10
87.5705882456199
20
2.1388694689872
30
0
41
1
10
87.9670118633816
20
1.9540216761896
30
0
0
SPLINE
5
E4
100
AcDbEntity
8
1
62
256
6
ByLayer
370
18
48
1
60
0
100
AcDbSpline
70
4
71
3
72
63
73
59
40
0
40
0
40
0
40
0
40
0.0625000000000042
40
0.0625000000000042
40
0.125000000000009
40
0.125000000000009
40
0.250000000000019
40
0.250000000000019
40
0.375000000000028
40
0.375000000000028
40
0.500000000000037
40
0.500000000000037
40
0.562500000000042
40
0.562500000000042
40
0.625000000000046
40
0.625000000000046
40
0.687500000000051
40
0.687500000000051
40
0.695312500000052
40
0.699218750000052
40
0.699218750000052
40
0.703125000000053
40
0.703125000000053
40
0.707031250000053
40
0.707031250000053
40
0.708984375000054
40
0.708984375000054
40
0.710937500000054
40
0.710937500000054
40
0.718750000000052
40
0.718750000000052
40
0.734375000000049
40
0.734375000000049
40
0.750000000000047
40
0.750000000000047
40
0.781250000000042
40
0.781250000000042
40
0.796875000000039
40
0.796875000000039
40
0.812500000000036
40
0.812500000000036
40
0.828125000000033
40
0.828125000000033
40
0.84375000000003
40
0.84375000000003
40
0.859375000000027
40
0.859375000000027
40
0.875000000000024
40
0.875000000000024
40
0.906250000000018
40
0.906250000000018
40
0.921875000000014
40
0.921875000000014
40
0.937500000000011
40
0.937500000000011
40
0.968750000000006
40
0.968750000000006
40
1
40
1
40
1
40
1
41
1
10
18.7724403277485
20
-1.31400529685507
30
0
41
1
10
18.4027258474909
20
-1.12377126234239
30
0
41
1
10
18.0308085509302
20
-0.935675318559703
30
0
41
1
10
17.2819099419343
20
-0.56563873849359
30
0
41
1
10
16.9045182155885
20
-0.383519464138885
30
0
41
1
10
15.7659117635973
20
0.148545529635356
30
0
41
1
10
15.0028751171345
20
0.481966693897135
30
0
41
1
10
13.460707389681
20
1.08685739510094
30
0
41
1
10
12.6815046415537
20
1.35811786040918
30
0
41
1
10
11.1001053900522
20
1.82432734889568
30
0
41
1
10
10.2979101846873
20
2.01933528904914
30
0
41
1
10
9.07420946347918
20
2.2500868897296
30
0
41
1
10
8.66292847706544
20
2.31676822711742
30
0
41
1
10
7.83322858249323
20
2.4292245155051
30
0
41
1
10
7.41684390529613
20
2.47472681327861
30
0
41
1
10
6.58198292674282
20
2.54422502203346
30
0
41
1
10
6.16308763616476
20
2.56826687247545
30
0
41
1
10
5.69105456968097
20
2.58294672332522
30
0
41
1
10
5.61237168793161
20
2.58513499608455
30
0
41
1
10
5.53367264337012
20
2.58693387082059
30
0
41
1
10
5.48120300934553
20
2.5880463485872
30
0
41
1
10
5.45486028717937
20
2.58936165549349
30
0
41
1
10
5.40267013587817
20
2.58700459493147
30
0
41
1
10
5.37642511487874
20
2.58342946961636
30
0
41
1
10
5.33975342145953
20
2.57206636402006
30
0
41
1
10
5.32841068894459
20
2.5668378959156
30
0
41
1
10
5.30622272339525
20
2.55555380254592
30
0
41
1
10
5.29515058131673
20
2.54986962903143
30
0
41
1
10
5.2399016282242
20
2.5212327046963
30
0
41
1
10
5.19608448277975
20
2.49764436310019
30
0
41
1
10
5.0661692961487
20
2.42478851553679
30
0
41
1
10
4.98149317352355
20
2.3733939925302
30
0
41
1
10
4.81685612273526
20
2.2635985728781
30
0
41
1
10
4.73662370425566
20
2.20496113467064
30
0
41
1
10
4.50825757772304
20
2.01842627403761
30
0
41
1
10
4.37113867741246
20
1.88007638732398
30
0
41
1
10
4.20218276915003
20
1.63752425626021
30
0
41
1
10
4.15212589002377
20
1.5501368268996
30
0
41
1
10
4.07254524620123
20
1.36855283363354
30
0
41
1
10
4.04224070848821
20
1.27304818284412
30
0
41
1
10
4.00430002610318
20
1.07419428860132
30
0
41
1
10
3.99714604741487
20
0.973864581654851
30
0
41
1
10
4.0049157516037
20
0.771421997393617
30
0
41
1
10
4.02022784179309
20
0.668522339769538
30
0
41
1
10
4.06885206766378
20
0.469934455602811
30
0
41
1
10
4.10204592545858
20
0.373143347245673
30
0
41
1
10
4.18263976514513
20
0.183532593154382
30
0
41
1
10
4.23011556354183
20
0.0908483848016317
30
0
41
1
10
4.38535137892168
20
-0.175177622050711
30
0
41
1
10
4.50684780900988
20
-0.3398129522148
30
0
41
1
10
4.70583985798504
20
-0.574896222153171
30
0
41
1
10
4.77503251956125
20
-0.651153285701355
30
0
41
1
10
4.91633690913434
20
-0.798444327075259
30
0
41
1
10
4.98869053577269
20
-0.86976224828814
30
0
41
1
10
5.20989267841918
20
-1.07799790666056
30
0
41
1
10
5.36283264277617
20
-1.20926302138432
30
0
41
1
10
5.67650328711716
20
-1.46081732967974
30
0
41
1
10
5.8372666807488
20
-1.58106356257363
30
0
41
1
10
6.0010538192391
20
-1.69696620384286
30
0
0
SPLINE
5
E5
100
AcDbEntity
8
1
62
256
6
ByLayer
370
18
48
1
60
0
100
AcDbSpline
70
4
71
3
72
16
73
12
40
0
40
0
40
0
40
0
40
0.284743974269649
40
0.284743974269649
40
0.75269040973851
40
0.75269040973851
40
0.869677018605723
40
0.869677018605723
40
0.986663627472935
40
0.986663627472935
40
1
40
1
40
1
40
1
41
1
10
92.2227045617164
20
-4.87059735983482
30
0
41
1
10
91.6716954785956
20
-4.87032732282267
30
0
41
1
10
91.1224888826145
20
-4.84555578637179
30
0
41
1
10
89.6718130964876
20
-4.71711125368267
30
0
41
1
10
88.7711301447563
20
-4.572907448259
30
0
41
1
10
87.6369964137965
20
-4.31682329470365
30
0
41
1
10
87.4097591973728
20
-4.26180840438246
30
0
41
1
10
86.9542341988073
20
-4.14428555528039
30
0
41
1
10
86.725834960484
20
-4.08173785160551
30
0
41
1
10
86.4724109901649
20
-4.00851502580673
30
0
41
1
10
86.4464840488396
20
-4.0009793565518
30
0
41
1
10
86.4205636963452
20
-3.99340140917252
30
0
0
SPLINE
5
E6
100
AcDbEntity
8
1
62
256
6
ByLayer
370
13
48
1
60
0
100
AcDbSpline
70
4
71
3
72
26
73
22
40
0
40
0
40
0
40
0
40
0.0941399556649359
40
0.0941399556649359
40
0.29380042782123
40
0.29380042782123
40
0.393630663899375
40
0.393630663899375
40
0.443545781938447
40
0.443545781938447
40
0.493460899977519
40
0.493460899977519
40
0.693121372133801
40
0.693121372133801
40
0.743036490172873
40
0.743036490172873
40
0.792951608211943
40
0.792951608211943
40
0.892781844290086
40
0.892781844290086
40
1
40
1
40
1
40
1
41
1
10
86.4205636963286
20
-3.99340140916763
30
0
41
1
10
85.9917375826811
20
-3.86803190561668
30
0
41
1
10
85.5647148563526
20
-3.73109072371921
30
0
41
1
10
84.2353199531742
20
-3.27130598158132
30
0
41
1
10
83.3365806651667
20
-2.91215882076301
30
0
41
1
10
81.9841460629587
20
-2.32149624100842
30
0
41
1
10
81.5326529107747
20
-2.11589991151288
30
0
41
1
10
80.8529355666804
20
-1.79673973423402
30
0
41
1
10
80.6259373494844
20
-1.68857415074069
30
0
41
1
10
80.1709029941586
20
-1.46899498845724
30
0
41
1
10
79.9425956017119
20
-1.35739811218156
30
0
41
1
10
78.8025422439574
20
-0.794648215991799
30
0
41
1
10
77.8946542098408
20
-0.329641147835247
30
0
41
1
10
76.7552421083358
20
0.25092692998453
30
0
41
1
10
76.5268515036854
20
0.367167044415851
30
0
41
1
10
76.0709220524116
20
0.598382653115777
30
0
41
1
10
75.8435316057901
20
0.713290455521872
30
0
41
1
10
75.1627138114314
20
1.05516085531977
30
0
41
1
10
74.7106140577755
20
1.2791753617071
30
0
41
1
10
73.775069391464
20
1.73314669616696
30
0
41
1
10
73.2914850315073
20
1.96164023049226
30
0
41
1
10
72.8077515124314
20
2.1817348644278
30
0
0
SPLINE
5
E7
100
AcDbEntity
8
1
62
256
6
ByLayer
370
18
48
1
60
0
100
AcDbSpline
70
4
71
3
72
14
73
10
40
0
40
0
40
0
40
0
40
0.0354235869510262
40
0.0354235869510262
40
0.266846746154748
40
0.266846746154748
40
0.729693064562194
40
0.729693064562194
40
1
40
1
40
1
40
1
41
1
10
32.3157498369888
20
-4.8345397227049
30
0
41
1
10
32.2458603291975
20
-4.83447453287485
30
0
41
1
10
32.1759560380595
20
-4.8340194356189
30
0
41
1
10
31.6492556839262
20
-4.82764672682987
30
0
41
1
10
31.1948567058515
20
-4.80547988885513
30
0
41
1
10
29.8359255561146
20
-4.69085316202023
30
0
41
1
10
28.9354105154446
20
-4.55045435005761
30
0
41
1
10
27.5064152487993
20
-4.23452783828716
30
0
41
1
10
26.9789344646686
20
-4.09804297041731
30
0
41
1
10
26.4494009799839
20
-3.9427390308696
30
0
0
SPLINE
5
E8
100
AcDbEntity
8
1
62
256
6
ByLayer
370
13
48
1
60
0
100
AcDbSpline
70
4
71
3
72
30
73
26
40
0
40
0
40
0
40
0
40
0.0822848146691734
40
0.0822848146691734
40
0.131736026872118
40
0.131736026872118
40
0.181187239075062
40
0.181187239075062
40
0.280089663480951
40
0.280089663480951
40
0.329540875683894
40
0.329540875683894
40
0.378992087886837
40
0.378992087886837
40
0.477894512292723
40
0.477894512292723
40
0.675699361104498
40
0.675699361104498
40
0.774601785510386
40
0.774601785510386
40
0.82405299771333
40
0.82405299771333
40
0.873504209916273
40
0.873504209916273
40
1
40
1
40
1
40
1
41
1
10
26.4494009797415
20
-3.94273903079849
30
0
41
1
10
26.0722147628356
20
-3.83211617667328
30
0
41
1
10
25.6939870672755
20
-3.71194509039057
30
0
41
1
10
25.08595907957
20
-3.50495409016381
30
0
41
1
10
24.8573463006419
20
-3.42404576752688
30
0
41
1
10
24.401042756272
20
-3.25692536247462
30
0
41
1
10
24.1731111775539
20
-3.17057952049993
30
0
41
1
10
23.4896204376603
20
-2.90370585287903
30
0
41
1
10
23.0343388621192
20
-2.71538852102969
30
0
41
1
10
22.3505053467644
20
-2.4196043711128
30
0
41
1
10
22.1224043973918
20
-2.31880509585284
30
0
41
1
10
21.6656608817405
20
-2.11321400750677
30
0
41
1
10
21.4370310703802
20
-2.00836302502157
30
0
41
1
10
20.7536202386989
20
-1.69005942166297
30
0
41
1
10
20.3000998173579
20
-1.47234993976596
30
0
41
1
10
18.942909741155
20
-0.808463926368972
30
0
41
1
10
18.0428074086542
20
-0.351186487646572
30
0
41
1
10
16.688347307603
20
0.333987853921343
30
0
41
1
10
16.2361934518309
20
0.5623530037563
30
0
41
1
10
15.5556227848737
20
0.902144353136578
30
0
41
1
10
15.3283637135081
20
1.01492458481434
30
0
41
1
10
14.8727883563206
20
1.23900635385562
30
0
41
1
10
14.6440807506042
20
1.3505008443656
30
0
41
1
10
13.8318954127113
20
1.74193082312433
30
0
41
1
10
13.2517268322991
20
2.01340592650996
30
0
41
1
10
12.6732734877566
20
2.27142762676584
30
0
0
SPLINE
5
E9
100
AcDbEntity
8
SK1
62
256
6
ByLayer
370
18
48
1
60
0
100
AcDbSpline
70
4
71
3
72
10
73
6
40
0
40
0
40
0
40
0
40
0.5
40
0.5
40
1
40
1
40
1
40
1
41
1
10
-45
20
3.13958199537632
30
0
41
1
10
-45
20
3.10448085637824
30
0
41
1
10
-45
20
3.06226620001124
30
0
41
1
10
-45
20
2.96643713785136
30
0
41
1
10
-45
20
2.91254642463582
30
0
41
1
10
-45
20
2.85526468639043
30
0
0
SPLINE
5
EA
100
AcDbEntity
8
SK1
62
256
6
ByLayer
370
18
48
1
60
0
100
AcDbSpline
70
4
71
3
72
14
73
10
40
0
40
0
40
0
40
0
40
0.25
40
0.25
40
0.5
40
0.5
40
0.75
40
0.75
40
1
40
1
40
1
40
1
41
1
10
-44.9999999999889
20
2.85526468637838
30
0
41
1
10
-44.9782314858012
20
2.87579556960998
30
0
41
1
10
-44.9593695072027
20
2.89785221624706
30
0
41
1
10
-44.9317178691466
20
2.94606463452541
30
0
41
1
10
-44.923545420959
20
2.97172283692757
30
0
41
1
10
-44.9226628396575
20
3.02351838933396
30
0
41
1
10
-44.9300883793469
20
3.04938907163293
30
0
41
1
10
-44.9574454474918
20
3.09734690111458
30
0
41
1
10
-44.9772442314719
20
3.11962326484635
30
0
41
1
10
-44.9999999999994
20
3.13958199537609
30
0
0
SPLINE
5
EB
100
AcDbEntity
8
SK1
62
256
6
ByLayer
370
18
48
1
60
0
100
AcDbSpline
70
4
71
3
72
10
73
6
40
0
40
0
40
0
40
0
40
0.5
40
0.5
40
1
40
1
40
1
40
1
41
1
10
-45
20
1.46794815036617
30
0
41
1
10
-44.7879272347742
20
1.74950612997256
30
0
41
1
10
-44.5722135635742
20
2.02980423905137
30
0
41
1
10
-44.1380211281578
20
2.58913114641803
30
0
41
1
10
-43.9193934819041
20
2.86817202894451
30
0
41
1
10
-43.7
20
3.14690157654891
30
0
0
SPLINE
5
EC
100
AcDbEntity
8
SK1
62
256
6
ByLayer
370
18
48
1
60
0
100
AcDbSpline
70
4
71
3
72
14
73
10
40
0
40
0
40
0
40
0
40
0.499999999999997
40
0.499999999999997
40
0.749999999999996
40
0.749999999999996
40
0.874999999999998
40
0.874999999999998
40
1
40
1
40
1
40
1
41
1
10
-43.7
20
3.14690157654886
30
0
41
1
10
-43.6789021434844
20
3.17370545399771
30
0
41
1
10
-43.6585587767127
20
3.20469083337088
30
0
41
1
10
-43.6303722414292
20
3.25856085552698
30
0
41
1
10
-43.6214260646625
20
3.27772198736679
30
0
41
1
10
-43.6102968606991
20
3.30769968908615
30
0
41
1
10
-43.6069058574072
20
3.31808599554171
30
0
41
1
10
-43.6017309986994
20
3.3390055097166
30
0
41
1
10
-43.6
20
3.34949216246247
30
0
41
1
10
-43.6
20
3.35847703660696
30
0
0
SPLINE
5
ED
100
AcDbEntity
8
SK1
62
256
6
ByLayer
370
18
48
1
60
0
100
AcDbSpline
70
4
71
3
72
10
73
6
40
0
40
0
40
0
40
0
40
0.5
40
0.5
40
1
40
1
40
1
40
1
41
1
10
-43.7
20
4.89223972816191
30
0
41
1
10
-43.9194028252284
20
4.61349831028429
30
0
41
1
10
-44.1380349803589
20
4.33445152837251
30
0
41
1
10
-44.5722177279898
20
3.77513695130517
30
0
41
1
10
-44.7878762790972
20
3.49491193278752
30
0
41
1
10
-45
20
3.21328630197917
30
0
0
SPLINE
5
EE
100
AcDbEntity
8
SK1
62
256
6
ByLayer
370
18
48
1
60
0
100
AcDbSpline
70
4
71
3
72
14
73
10
40
0
40
0
40
0
40
0
40
0.125000000000001
40
0.125000000000001
40
0.250000000000001
40
0.250000000000001
40
0.499999999999999
40
0.499999999999999
40
1
40
1
40
1
40
1
41
1
10
-43.6
20
4.96418813609091
30
0
41
1
10
-43.6
20
4.97010890008474
30
0
41
1
10
-43.6017220508865
20
4.97340359026998
30
0
41
1
10
-43.6068954324577
20
4.97627719241709
30
0
41
1
10
-43.610237321167
20
4.97596985544234
30
0
41
1
10
-43.6215324998379
20
4.9721183726781
30
0
41
1
10
-43.6303471072619
20
4.96584844806117
30
0
41
1
10
-43.658490206513
20
4.94172392708739
30
0
41
1
10
-43.678793979422
20
4.9191810231853
30
0
41
1
10
-43.7
20
4.89223972816191
30
0
0
LINE
5
76
100
AcDbEntity
8
81
62
256
6
ByLayer
370
18
48
1
60
0
100
AcDbLine
10
95
20
0
30
0
11
100
21
0
31
0
39
0
210
0
220
0
230
1
0
LINE
5
77
100
AcDbEntity
8
1
62
256
6
ByLayer
370
18
48
1
60
0
100
AcDbLine
10
6.000964
20
5.047624
30
0
11
1.464755
21
5.044902
31
0
39
0
210
0
220
0
230
1
0
LINE
5
79
100
AcDbEntity
8
1
62
256
6
ByLayer
370
18
48
1
60
0
100
AcDbLine
10
32.104991
20
5.063286
30
0
11
31.246276
21
5.062771
31
0
39
0
210
0
220
0
230
1
0
LINE
5
7A
100
AcDbEntity
8
1
62
256
6
ByLayer
370
18
48
1
60
0
100
AcDbLine
10
62.055485
20
5.081256
30
0
11
61.207349
21
5.080748
31
0
39
0
210
0
220
0
230
1
0
LINE
5
7B
100
AcDbEntity
8
1
62
256
6
ByLayer
370
18
48
1
60
0
100
AcDbLine
10
92.007216
20
5.099228
30
0
11
91.168381
21
5.098724
31
0
39
0
210
0
220
0
230
1
0
LINE
5
7C
100
AcDbEntity
8
1
62
256
6
ByLayer
370
18
48
1
60
0
100
AcDbLine
10
91.168381
20
-5.098724
30
0
11
92.006449
21
-5.099227
31
0
39
0
210
0
220
0
230
1
0
LINE
5
7D
100
AcDbEntity
8
1
62
256
6
ByLayer
370
18
48
1
60
0
100
AcDbLine
10
61.207349
20
-5.080748
30
0
11
62.054366
21
-5.081256
31
0
39
0
210
0
220
0
230
1
0
LINE
5
7E
100
AcDbEntity
8
1
62
256
6
ByLayer
370
18
48
1
60
0
100
AcDbLine
10
31.246276
20
-5.062771
30
0
11
32.105151
21
-5.063286
31
0
39
0
210
0
220
0
230
1
0
LINE
5
7F
100
AcDbEntity
8
1
62
256
6
ByLayer
370
18
48
1
60
0
100
AcDbLine
10
1.464755
20
-5.044902
30
0
11
6.000964
21
-5.047624
31
0
39
0
210
0
220
0
230
1
0
LINE
5
80
100
AcDbEntity
8
SK1
62
256
6
ByLayer
370
18
48
1
60
0
100
AcDbLine
10
0
20
6
30
0
11
-43.556624
21
6
31
0
39
0
210
0
220
0
230
1
0
LINE
5
82
100
AcDbEntity
8
SK1
62
256
6
ByLayer
370
18
48
1
60
0
100
AcDbLine
10
-43.556624
20
-6
30
0
11
0
21
-6
31
0
39
0
210
0
220
0
230
1
0
LINE
5
83
100
AcDbEntity
8
SK1
62
256
6
ByLayer
370
18
48
1
60
0
100
AcDbLine
10
-43.556624
20
6
30
0
11
-45
21
3.5
31
0
39
0
210
0
220
0
230
1
0
LINE
5
84
100
AcDbEntity
8
SK1
62
256
6
ByLayer
370
18
48
1
60
0
100
AcDbLine
10
-45
20
-3.5
30
0
11
-43.556624
21
-6
31
0
39
0
210
0
220
0
230
1
0
LINE
5
85
100
AcDbEntity
8
SK4
62
256
6
ByLayer
370
18
48
0.05
60
0
100
AcDbLine
10
100
20
0
30
0
11
-50
21
0
31
0
39
0
210
0
220
0
230
1
0
LINE
5
87
100
AcDbEntity
8
4
62
256
6
ByLayer
370
18
48
0.05
60
0
100
AcDbLine
10
95
20
0
30
0
11
0
21
0
31
0
39
0
210
0
220
0
230
1
0
LINE
5
89
100
AcDbEntity
8
80
62
256
6
ByLayer
370
18
48
1
60
0
100
AcDbLine
10
0
20
0
30
0
11
-5
21
0
31
0
39
0
210
0
220
0
230
1
0
LINE
5
8A
100
AcDbEntity
8
1
62
256
6
ByLayer
370
18
48
1
60
0
100
AcDbLine
10
61.240563
20
0.363971
30
0
11
61.239877
21
0.364519
31
0
39
0
210
0
220
0
230
1
0
LINE
5
8B
100
AcDbEntity
8
1
62
256
6
ByLayer
370
18
48
1
60
0
100
AcDbLine
10
94.989261
20
0.04818
30
0
11
95
21
0
31
0
39
0
210
0
220
0
230
1
0
LINE
5
8C
100
AcDbEntity
8
1
62
256
6
ByLayer
370
13
48
1
60
0
100
AcDbLine
10
93.386282
20
0.622998
30
0
11
94.894485
21
-0.123745
31
0
39
0
210
0
220
0
230
1
0
LINE
5
8D
100
AcDbEntity
8
1
62
256
6
ByLayer
370
18
48
1
60
0
100
AcDbLine
10
94.912835
20
-0.297496
30
0
11
94.730832
21
-0.969422
31
0
39
0
210
0
220
0
230
1
0
LINE
5
8E
100
AcDbEntity
8
1
62
256
6
ByLayer
370
18
48
1
60
0
100
AcDbLine
10
0
20
-6
30
0
11
0
21
6
31
0
39
0
210
0
220
0
230
1
0
LINE
5
8F
100
AcDbEntity
8
1
62
256
6
ByLayer
370
13
48
1
60
0
100
AcDbLine
10
93.555741
20
0.969422
30
0
11
94.912835
21
0.297496
31
0
39
0
210
0
220
0
230
1
0
LINE
5
90
100
AcDbEntity
8
1
62
256
6
ByLayer
370
18
48
1
60
0
100
AcDbLine
10
95
20
0
30
0
11
93.227108
21
-4.87098
31
0
39
0
210
0
220
0
230
1
0
LINE
5
91
100
AcDbEntity
8
1
62
256
6
ByLayer
370
13
48
1
60
0
100
AcDbLine
10
1.464755
20
5.044902
30
0
11
1.464755
21
-5.044902
31
0
39
0
210
0
220
0
230
1
0
LINE
5
92
100
AcDbEntity
8
1
62
256
6
ByLayer
370
13
48
1
60
0
100
AcDbLine
10
0.732138
20
5.522451
30
0
11
0.732138
21
-5.522451
31
0
39
0
210
0
220
0
230
1
0
LINE
5
93
100
AcDbEntity
8
1
62
256
6
ByLayer
370
18
48
1
60
0
100
AcDbLine
10
94.912835
20
0.297496
30
0
11
94.730832
21
0.969422
31
0
39
0
210
0
220
0
230
1
0
LINE
5
94
100
AcDbEntity
8
1
62
256
6
ByLayer
370
13
48
1
60
0
100
AcDbLine
10
94.730832
20
0.969422
30
0
11
93.555741
21
0.969422
31
0
39
0
210
0
220
0
230
1
0
LINE
5
95
100
AcDbEntity
8
1
62
256
6
ByLayer
370
18
48
1
60
0
100
AcDbLine
10
92.431943
20
-2.868204
30
0
11
94.894485
21
-0.123745
31
0
39
0
210
0
220
0
230
1
0
LINE
5
96
100
AcDbEntity
8
1
62
256
6
ByLayer
370
18
48
1
60
0
100
AcDbLine
10
95
20
0
30
0
11
94.989261
21
-0.04818
31
0
39
0
210
0
220
0
230
1
0
LINE
5
97
100
AcDbEntity
8
SK1
62
256
6
ByLayer
370
18
48
1
60
0
100
AcDbLine
10
-45
20
3.5
30
0
11
-45
21
3.213286
31
0
39
0
210
0
220
0
230
1
0
LINE
5
98
100
AcDbEntity
8
SK1
62
256
6
ByLayer
370
13
48
1
60
0
100
AcDbLine
10
-43.7
20
4.89224
30
0
11
-43.7
21
3.146867
31
0
39
0
210
0
220
0
230
1
0
LINE
5
99
100
AcDbEntity
8
SK1
62
256
6
ByLayer
370
18
48
1
60
0
100
AcDbLine
10
0
20
-6
30
0
11
0
21
6
31
0
39
0
210
0
220
0
230
1
0
LINE
5
9A
100
AcDbEntity
8
SK1
62
256
6
ByLayer
370
18
48
1
60
0
100
AcDbLine
10
-45
20
3.213286
30
0
11
-45
21
3.139582
31
0
39
0
210
0
220
0
230
1
0
LINE
5
9B
100
AcDbEntity
8
SK1
62
256
6
ByLayer
370
18
48
1
60
0
100
AcDbLine
10
-45
20
1.467948
30
0
11
-45
21
-3.5
31
0
39
0
210
0
220
0
230
1
0
LINE
5
9C
100
AcDbEntity
8
SK1
62
256
6
ByLayer
370
18
48
1
60
0
100
AcDbLine
10
-43.6
20
3.358477
30
0
11
-43.6
21
4.964188
31
0
39
0
210
0
220
0
230
1
0
LINE
5
9D
100
AcDbEntity
8
SK1
62
256
6
ByLayer
370
18
48
1
60
0
100
AcDbLine
10
-45
20
2.855265
30
0
11
-45
21
1.467919
31
0
39
0
210
0
220
0
230
1
0
LINE
5
9E
100
AcDbEntity
8
SK1
62
256
6
ByLayer
370
18
48
1
60
0
100
AcDbLine
10
-43.556624
20
6
30
0
11
-43.556624
21
-6
31
0
39
0
210
0
220
0
230
1
0
MTEXT
5
EF
100
AcDbEntity
8
SK6
62
256
6
ByLayer
370
13
48
1
60
0
100
AcDbMText
10
27.129169
20
37.482694
30
0
210
0
220
0
230
1
1
\W0.7415;R840-1020-70-A1A1220
40
3.5
41
0
44
1.084337
50
0
71
8
72
5
7
iso_b_vert
0
DIMENSION
5
FC
100
AcDbEntity
8
SK2
62
256
6
ByLayer
370
13
48
1
60
0
100
AcDbDimension
2
DimnDraft3D1
10
93.25
20
-15.313398
30
0
11
45.000059
21
-15.313398
31
0
70
32
71
5
72
1
41
1
210
0
220
0
230
1
3
Standard
100
AcDbAlignedDimension
13
0
23
-1.5875
33
0
14
93.25
24
-6.6875
34
0
50
0
100
AcDbRotatedDimension
1001
ACAD
1000
DSTYLE
1002
{
1070
   279
1070
     0
1070
   172
1070
     1
1070
   173
1070
     1
1070
   340
1005
F0
1070
   271
1070
     2
1070
   272
1070
     2
1070
    77
1070
     1
1070
    73
1070
     0
1070
   171
1070
     3
1070
   274
1070
     4
1070
   177
1070
    35
1070
   176
1070
    35
1070
   178
1070
    35
1070
    48
1040
-0.005
1070
    41
1041
3.5
1070
   147
1041
1.75
1070
    42
1041
1.5875
1070
    44
1041
2.0
1070
   140
1041
3.5
1070
   343
1005
0
1070
   344
1005
0
1002
}
0
DIMENSION
5
106
100
AcDbEntity
8
SK2
62
256
6
ByLayer
370
13
48
1
60
0
100
AcDbDimension
2
DimnDraft3D2
10
95
20
-34.692985
30
0
11
24.5913
21
-34.692985
31
0
70
32
71
5
72
1
41
1
210
0
220
0
230
1
3
Standard
100
AcDbAlignedDimension
13
-45
23
-7.5875
33
0
14
95
24
-1.5875
34
0
50
0
100
AcDbRotatedDimension
1001
ACAD
1000
DSTYLE
1002
{
1070
   279
1070
     0
1070
   172
1070
     1
1070
   173
1070
     1
1070
   340
1005
F0
1070
   271
1070
     2
1070
   272
1070
     2
1070
    77
1070
     1
1070
    73
1070
     0
1070
   171
1070
     3
1070
   274
1070
     4
1070
   177
1070
    35
1070
   176
1070
    35
1070
   178
1070
    35
1070
    48
1040
-0.005
1070
    41
1041
3.5
1070
   147
1041
1.75
1070
    42
1041
1.5875
1070
    44
1041
2.0
1070
   140
1041
3.5
1070
   343
1005
0
1070
   344
1005
0
1002
}
0
DIMENSION
5
110
100
AcDbEntity
8
SK2
62
256
6
ByLayer
370
13
48
1
60
0
100
AcDbDimension
2
DimnDraft3D3
10
95
20
16.709119
30
0
11
53.325
21
16.709119
31
0
70
32
71
5
72
1
41
1
210
0
220
0
230
1
3
Standard
100
AcDbAlignedDimension
13
11.65
23
6.6875
33
0
14
95
24
1.5875
34
0
50
0
100
AcDbRotatedDimension
1001
ACAD
1000
DSTYLE
1002
{
1070
   279
1070
     0
1070
   172
1070
     1
1070
   173
1070
     1
1070
   340
1005
F0
1070
   271
1070
     2
1070
   272
1070
     2
1070
    77
1070
     1
1070
    73
1070
     0
1070
   171
1070
     3
1070
   274
1070
     4
1070
   177
1070
    35
1070
   176
1070
    35
1070
   178
1070
    35
1070
    48
1040
-0.005
1070
    41
1041
3.5
1070
   147
1041
1.75
1070
    42
1041
1.5875
1070
    44
1041
2.0
1070
   140
1041
3.5
1070
   343
1005
0
1070
   344
1005
0
1002
}
0
DIMENSION
5
11A
100
AcDbEntity
8
SK2
62
256
6
ByLayer
370
13
48
1
60
0
100
AcDbDimension
2
DimnDraft3D4
10
93.25
20
-17.902503
30
0
11
104.981425
21
-17.902503
31
0
70
32
71
5
72
1
41
1
210
0
220
0
230
1
3
Standard
100
AcDbAlignedDimension
13
95
23
-1.5875
33
0
14
93.25
24
-6.6875
34
0
50
0
100
AcDbRotatedDimension
1001
ACAD
1000
DSTYLE
1002
{
1070
   279
1070
     0
1070
   172
1070
     1
1070
   173
1070
     1
1070
   340
1005
F0
1070
   271
1070
     2
1070
   272
1070
     2
1070
    77
1070
     1
1070
    73
1070
     0
1070
   171
1070
     3
1070
   274
1070
     4
1070
   177
1070
    35
1070
   176
1070
    35
1070
   178
1070
    35
1070
    48
1040
-0.005
1070
    41
1041
3.5
1070
   147
1041
1.75
1070
    42
1041
1.5875
1070
    44
1041
2.0
1070
   140
1041
3.5
1070
   343
1005
0
1070
   344
1005
0
1002
}
0
DIMENSION
5
124
100
AcDbEntity
8
SK2
62
256
6
ByLayer
370
13
48
1
60
0
100
AcDbDimension
2
DimnDraft3D5
10
93.25
20
-24.343428
30
0
11
21.510676
21
-24.343428
31
0
70
32
71
5
72
1
41
1
210
0
220
0
230
1
3
Standard
100
AcDbAlignedDimension
13
-45
23
-7.5875
33
0
14
93.25
24
-6.6875
34
0
50
0
100
AcDbRotatedDimension
1001
ACAD
1000
DSTYLE
1002
{
1070
   279
1070
     0
1070
   172
1070
     1
1070
   173
1070
     1
1070
   340
1005
F0
1070
   271
1070
     2
1070
   272
1070
     2
1070
    77
1070
     1
1070
    73
1070
     0
1070
   171
1070
     3
1070
   274
1070
     4
1070
   177
1070
    35
1070
   176
1070
    35
1070
   178
1070
    35
1070
    48
1040
-0.005
1070
    41
1041
3.5
1070
   147
1041
1.75
1070
    42
1041
1.5875
1070
    44
1041
2.0
1070
   140
1041
3.5
1070
   343
1005
0
1070
   344
1005
0
1002
}
0
DIMENSION
5
12F
100
AcDbEntity
8
SK2
62
256
6
ByLayer
370
13
48
1
60
0
100
AcDbDimension
2
DimnDraft3D6
10
-55.625163
20
6
30
0
11
-56.250163
21
24.47418
31
0
70
33
71
5
72
1
41
1
210
0
220
0
230
1
3
Standard
100
AcDbAlignedDimension
13
-46.5875
23
-6
33
0
14
-46.5875
24
6
34
0
1001
ACAD
1000
DSTYLE
1002
{
1070
   279
1070
     0
1070
    74
1070
     0
1070
   173
1070
     1
1070
   340
1005
F0
1070
   271
1070
     3
1070
   272
1070
     2
1070
    77
1070
     1
1070
    73
1070
     0
1070
   171
1070
     3
1070
   274
1070
     4
1070
   177
1070
    35
1070
   176
1070
    35
1070
   178
1070
    35
1070
    48
1040
-0.005
1070
    41
1041
3.5
1070
   147
1041
1.75
1070
    42
1041
1.5875
1070
    44
1041
2.0
1070
   140
1041
3.5
1070
   343
1005
0
1070
   344
1005
0
1002
}
0
DIMENSION
5
13A
100
AcDbEntity
8
2
62
256
6
ByLayer
370
13
48
1
60
0
100
AcDbDimension
2
DimnDraft3D7
10
109.083343
20
5.1
30
0
11
104.458343
21
22.167266
31
0
70
33
71
5
72
1
41
1
210
0
220
0
230
1
3
Standard
100
AcDbAlignedDimension
13
94.8375
23
-5.1
33
0
14
94.8375
24
5.1
34
0
1001
ACAD
1000
DSTYLE
1002
{
1070
   279
1070
     0
1070
    74
1070
     0
1070
   173
1070
     1
1070
   340
1005
F0
1070
   271
1070
     3
1070
   272
1070
     2
1070
    77
1070
     1
1070
    73
1070
     0
1070
   171
1070
     3
1070
   274
1070
     4
1070
   177
1070
    35
1070
   176
1070
    35
1070
   178
1070
    35
1070
    48
1040
-0.005
1070
    41
1041
3.5
1070
   147
1041
1.75
1070
    42
1041
1.5875
1070
    44
1041
2.0
1070
   140
1041
3.5
1070
   343
1005
0
1070
   344
1005
0
1002
}
0
ENDSEC
0
SECTION
2
OBJECTS
0
DICTIONARY
5
1a5
330
0
100
AcDbDictionary
280
0
281
1
3
ACAD_GROUP
350
1a6
3
ACAD_MLINESTYLE
350
1a7
0
DICTIONARY
5
1a6
330
0
100
AcDbDictionary
280
0
281
1
0
DICTIONARY
5
1a7
330
0
100
AcDbDictionary
280
0
281
1
3
Standard
350
18
0
MLINESTYLE
5
18
330
1a7
100
AcDbMlineStyle
2
Standard
70
0
3

62
256
51
90
52
90
71
2
49
-0.5
62
256
6
ByLayer
49
0.5
62
256
6
ByLayer
0
RASTERVARIABLES
5
193
330

100
AcDbRasterVariables
90
0
70
1
71
1
72
1
0
ENDSEC
0
EOF
