0
SECTION
2
HEADER
9
$ACADVER
1
AC1015
9
$DWGCODEPAGE
3
ANSI_1252
9
$HANDSEED
5
19e
9
$ANGBASE
50
0
9
$ANGDIR
70
0
9
$ATTMODE
70
1
9
$AUNITS
70
0
9
$AUPREC
70
0
9
$CECOLOR
62
256
9
$CELTSCALE
40
1
9
$CELTYPE
6
ByLayer
9
$CELWEIGHT
370
18
9
$CLAYER
8
0
9
$CMLJUST
70
0
9
$CMLSCALE
40
1
9
$CMLSTYLE
2
Standard
9
$DIMSTYLE
2
Standard
9
$TEXTSIZE
40
0.2
9
$TEXTSTYLE
7
Standard
9
$LUNITS
70
2
9
$LUPREC
70
4
9
$EXTNAMES
290
1
9
$INSUNITS
70
4
9
$LTSCALE
40
1
9
$LWDISPLAY
290
1
9
$PDMODE
70
0
9
$PDSIZE
40
0
9
$PLINEGEN
70
0
0
ENDSEC
0
SECTION
2
CLASSES
0
CLASS
1
RASTERVARIABLES
2
AcDbRasterVariables
3
ISM
90
0
280
0
281
0
0
ENDSEC
0
SECTION
2
TABLES
0
TABLE
2
VPORT
5
194
100
AcDbSymbolTable
0
VPORT
5
1
100
AcDbSymbolTableRecord
100
AcDbViewportTableRecord
2
*Active
70
0
10
0
20
0
11
1
21
1
12
-1
22
1
13
0
23
0
14
0.5
24
0.5
15
10
25
10
16
0
26
0
36
1
17
0
27
0
37
0
0
ENDTAB
0
TABLE
2
LTYPE
5
195
100
AcDbSymbolTable
0
LTYPE
5
14
100
AcDbSymbolTableRecord
100
AcDbLinetypeTableRecord
70
0
2
ByBlock
3

72
65
73
0
40
0
0
LTYPE
5
15
100
AcDbSymbolTableRecord
100
AcDbLinetypeTableRecord
70
0
2
ByLayer
3

72
65
73
0
40
0
0
LTYPE
5
16
100
AcDbSymbolTableRecord
100
AcDbLinetypeTableRecord
70
0
2
CONTINUOUS
3
Solid line
72
65
73
0
40
0
0
LTYPE
5
6A
100
AcDbSymbolTableRecord
100
AcDbLinetypeTableRecord
70
0
2
CENTER
3
____ _ ____ _ ____ _ ____
72
65
73
4
40
47.5
49
22
74
0
49
-8.5
74
0
49
8.5
74
0
49
-8.5
74
0
0
LTYPE
5
6B
100
AcDbSymbolTableRecord
100
AcDbLinetypeTableRecord
70
0
2
DASHED
3
__ __ __ __ __ __ __ __ __
72
65
73
2
40
25.72
49
12.86
74
0
49
-12.86
74
0
0
ENDTAB
0
TABLE
2
LAYER
5
196
100
AcDbSymbolTable
0
LAYER
5
10
100
AcDbSymbolTableRecord
100
AcDbLayerTableRecord
2
0
70
0
62
7
6
CONTINUOUS
290
1
370
-3
390
0
0
LAYER
5
6D
100
AcDbSymbolTableRecord
100
AcDbLayerTableRecord
2
81
70
0
62
-3
6
CONTINUOUS
290
1
370
-3
390
0
0
LAYER
5
6F
100
AcDbSymbolTableRecord
100
AcDbLayerTableRecord
2
80
70
0
62
-6
6
CONTINUOUS
290
1
370
-3
390
0
0
LAYER
5
74
100
AcDbSymbolTableRecord
100
AcDbLayerTableRecord
2
2
70
0
62
7
6
CONTINUOUS
290
1
370
-3
390
0
0
LAYER
5
78
100
AcDbSymbolTableRecord
100
AcDbLayerTableRecord
2
1
70
0
62
4
6
CONTINUOUS
290
1
370
-3
390
0
0
LAYER
5
8A
100
AcDbSymbolTableRecord
100
AcDbLayerTableRecord
2
4
70
0
62
-2
6
CENTER
290
1
370
-3
390
0
0
LAYER
5
180
100
AcDbSymbolTableRecord
100
AcDbLayerTableRecord
2
SK2
70
0
62
7
6
CONTINUOUS
290
1
370
-3
390
0
0
LAYER
5
181
100
AcDbSymbolTableRecord
100
AcDbLayerTableRecord
2
SK1
70
0
62
4
6
CONTINUOUS
290
1
370
-3
390
0
0
LAYER
5
182
100
AcDbSymbolTableRecord
100
AcDbLayerTableRecord
2
SK4
70
0
62
2
6
CENTER
290
1
370
-3
390
0
0
LAYER
5
183
100
AcDbSymbolTableRecord
100
AcDbLayerTableRecord
2
SK6
70
0
62
5
6
CONTINUOUS
290
1
370
-3
390
0
0
ENDTAB
0
TABLE
2
STYLE
5
197
100
AcDbSymbolTable
0
STYLE
5
11
100
AcDbSymbolTableRecord
100
AcDbTextStyleTableRecord
2
Standard
3
txt
70
0
71
0
40
0
41
1
42
0
50
0
0
STYLE
5
DC
100
AcDbSymbolTableRecord
100
AcDbTextStyleTableRecord
2
iso_b_vert
3
simplex.shx
70
0
71
0
40
0
41
1
42
0
50
0
0
STYLE
5
DD
100
AcDbSymbolTableRecord
100
AcDbTextStyleTableRecord
2
DWGDirectTextStyle
3
simplex
70
0
71
0
40
0
41
1
42
0
50
0
0
ENDTAB
0
TABLE
2
DIMSTYLE
5
198
100
AcDbSymbolTable
100
AcDbDimStyleTable
0
DIMSTYLE
105
27
100
AcDbSymbolTableRecord
100
AcDbDimStyleTableRecord
2
Standard
70
0
3
<>
41
0.18
42
0.0625
44
0.18
140
0.18
147
0.09
73
0
74
0
77
1
271
2
275
0
278
52
280
0
340
11
0
ENDTAB
0
TABLE
2
VIEW
5
199
100
AcDbSymbolTable
0
ENDTAB
0
TABLE
2
UCS
5
19a
100
AcDbSymbolTable
0
ENDTAB
0
TABLE
2
APPID
5
19b
100
AcDbSymbolTable
0
APPID
5
12
100
AcDbSymbolTableRecord
100
AcDbRegAppTableRecord
2
ACAD
70
0
0
ENDTAB
0
TABLE
2
BLOCK_RECORD
5
19c
100
AcDbSymbolTable
0
BLOCK_RECORD
5
1F
100
AcDbSymbolTableRecord
100
AcDbBlockTableRecord
2
*Model_Space
340
0
70
0
0
BLOCK_RECORD
5
1B
100
AcDbSymbolTableRecord
100
AcDbBlockTableRecord
2
*Paper_Space
340
0
70
0
0
BLOCK_RECORD
5
23
100
AcDbSymbolTableRecord
100
AcDbBlockTableRecord
2
*Paper_Space0
340
0
70
0
0
BLOCK_RECORD
5
DF
100
AcDbSymbolTableRecord
100
AcDbBlockTableRecord
2
DimnDraft3D1
340
0
70
0
0
BLOCK_RECORD
5
E9
100
AcDbSymbolTableRecord
100
AcDbBlockTableRecord
2
DimnDraft3D2
340
0
70
0
0
BLOCK_RECORD
5
F3
100
AcDbSymbolTableRecord
100
AcDbBlockTableRecord
2
DimnDraft3D3
340
0
70
0
0
BLOCK_RECORD
5
FD
100
AcDbSymbolTableRecord
100
AcDbBlockTableRecord
2
DimnDraft3D4
340
0
70
0
0
BLOCK_RECORD
5
107
100
AcDbSymbolTableRecord
100
AcDbBlockTableRecord
2
DimnDraft3D5
340
0
70
0
0
BLOCK_RECORD
5
111
100
AcDbSymbolTableRecord
100
AcDbBlockTableRecord
2
DimnDraft3D6
340
0
70
0
0
BLOCK_RECORD
5
11C
100
AcDbSymbolTableRecord
100
AcDbBlockTableRecord
2
DimnDraft3D7
340
0
70
0
0
ENDTAB
0
ENDSEC
0
SECTION
2
BLOCKS
0
BLOCK
5
20
100
AcDbEntity
8
0
100
AcDbBlockBegin
2
*Model_Space
70
0
10
0
20
0
30
0
3
*Model_Space
0
ENDBLK
5
21
100
AcDbEntity
8
0
100
AcDbBlockEnd
0
BLOCK
5
1C
100
AcDbEntity
8
0
100
AcDbBlockBegin
2
*Paper_Space
70
0
10
0
20
0
30
0
3
*Paper_Space
0
ENDBLK
5
1D
100
AcDbEntity
8
0
100
AcDbBlockEnd
0
BLOCK
5
24
100
AcDbEntity
8
0
100
AcDbBlockBegin
2
*Paper_Space0
70
0
10
0
20
0
30
0
3
*Paper_Space0
0
ENDBLK
5
25
100
AcDbEntity
8
0
100
AcDbBlockEnd
0
BLOCK
5
E6
100
AcDbEntity
8
0
100
AcDbBlockBegin
2
DimnDraft3D1
70
0
10
0
20
0
30
0
3
DimnDraft3D1
0
MTEXT
5
E0
100
AcDbEntity
8
SK2
62
256
6
ByLayer
370
13
48
1
60
0
100
AcDbMText
10
25.486375
20
-14.288398
30
0
210
0
220
0
230
1
1
\W0.6563;61,31
40
3.5
41
0
44
1.084337
50
0
71
7
72
5
7
iso_b_vert
0
LINE
5
E1
100
AcDbEntity
8
SK2
62
256
6
ByLayer
370
13
48
1
60
0
100
AcDbLine
10
0
20
-1.5875
30
0
11
0
21
-17.163398
31
0
39
0
210
0
220
0
230
1
0
LINE
5
E2
100
AcDbEntity
8
SK2
62
256
6
ByLayer
370
13
48
1
60
0
100
AcDbLine
10
61.31
20
-6.5375
30
0
11
61.31
21
-17.163398
31
0
39
0
210
0
220
0
230
1
0
LINE
5
E3
100
AcDbEntity
8
SK2
62
256
6
ByLayer
370
13
48
1
60
0
100
AcDbLine
10
0
20
-15.163398
30
0
11
61.31
21
-15.163398
31
0
39
0
210
0
220
0
230
1
0
SOLID
5
E4
100
AcDbEntity
8
SK2
62
256
6
ByLayer
370
13
48
1
60
0
100
AcDbTrace
10
0
20
-15.163398
30
0
11
3.499998
21
-14.702615
31
0
12
3.500002
22
-15.624182
32
0
13
0
23
-15.163398
33
0
39
0
210
0
220
0
230
1
0
SOLID
5
E5
100
AcDbEntity
8
SK2
62
256
6
ByLayer
370
13
48
1
60
0
100
AcDbTrace
10
61.31
20
-15.163398
30
0
11
57.810002
21
-15.624182
31
0
12
57.809998
22
-14.702615
32
0
13
61.31
23
-15.163398
33
0
39
0
210
0
220
0
230
1
0
ENDBLK
5
E7
100
AcDbEntity
8
0
100
AcDbBlockEnd
0
BLOCK
5
F0
100
AcDbEntity
8
0
100
AcDbBlockBegin
2
DimnDraft3D2
70
0
10
0
20
0
30
0
3
DimnDraft3D2
0
MTEXT
5
EA
100
AcDbEntity
8
SK2
62
256
6
ByLayer
370
13
48
1
60
0
100
AcDbMText
10
5.832221
20
-32.817985
30
0
210
0
220
0
230
1
1
\W0.6930;103,00
40
3.5
41
0
44
1.084337
50
0
71
7
72
5
7
iso_b_vert
0
LINE
5
EB
100
AcDbEntity
8
SK2
62
256
6
ByLayer
370
13
48
1
60
0
100
AcDbLine
10
-40
20
-6.5875
30
0
11
-40
21
-35.692985
31
0
39
0
210
0
220
0
230
1
0
LINE
5
EC
100
AcDbEntity
8
SK2
62
256
6
ByLayer
370
13
48
1
60
0
100
AcDbLine
10
63
20
-1.5875
30
0
11
63
21
-35.692985
31
0
39
0
210
0
220
0
230
1
0
LINE
5
ED
100
AcDbEntity
8
SK2
62
256
6
ByLayer
370
13
48
1
60
0
100
AcDbLine
10
-40
20
-33.692985
30
0
11
63
21
-33.692985
31
0
39
0
210
0
220
0
230
1
0
SOLID
5
EE
100
AcDbEntity
8
SK2
62
256
6
ByLayer
370
13
48
1
60
0
100
AcDbTrace
10
-40
20
-33.692985
30
0
11
-36.500002
21
-33.232202
31
0
12
-36.499998
22
-34.153769
32
0
13
-40
23
-33.692985
33
0
39
0
210
0
220
0
230
1
0
SOLID
5
EF
100
AcDbEntity
8
SK2
62
256
6
ByLayer
370
13
48
1
60
0
100
AcDbTrace
10
63
20
-33.692985
30
0
11
59.500002
21
-34.153769
31
0
12
59.499998
22
-33.232202
32
0
13
63
23
-33.692985
33
0
39
0
210
0
220
0
230
1
0
ENDBLK
5
F1
100
AcDbEntity
8
0
100
AcDbBlockEnd
0
BLOCK
5
FA
100
AcDbEntity
8
0
100
AcDbBlockBegin
2
DimnDraft3D3
70
0
10
0
20
0
30
0
3
DimnDraft3D3
0
MTEXT
5
F4
100
AcDbEntity
8
SK2
62
256
6
ByLayer
370
13
48
1
60
0
100
AcDbMText
10
33.831316
20
17.434119
30
0
210
0
220
0
230
1
1
\W0.6181;51,19
40
3.5
41
0
44
1.084337
50
0
71
7
72
5
7
iso_b_vert
0
LINE
5
F5
100
AcDbEntity
8
SK2
62
256
6
ByLayer
370
13
48
1
60
0
100
AcDbLine
10
11.81
20
6.5375
30
0
11
11.81
21
18.559119
31
0
39
0
210
0
220
0
230
1
0
LINE
5
F6
100
AcDbEntity
8
SK2
62
256
6
ByLayer
370
13
48
1
60
0
100
AcDbLine
10
63
20
1.5875
30
0
11
63
21
18.559119
31
0
39
0
210
0
220
0
230
1
0
LINE
5
F7
100
AcDbEntity
8
SK2
62
256
6
ByLayer
370
13
48
1
60
0
100
AcDbLine
10
11.81
20
16.559119
30
0
11
63
21
16.559119
31
0
39
0
210
0
220
0
230
1
0
SOLID
5
F8
100
AcDbEntity
8
SK2
62
256
6
ByLayer
370
13
48
1
60
0
100
AcDbTrace
10
11.81
20
16.559119
30
0
11
15.309998
21
17.019903
31
0
12
15.310002
22
16.098335
32
0
13
11.81
23
16.559119
33
0
39
0
210
0
220
0
230
1
0
SOLID
5
F9
100
AcDbEntity
8
SK2
62
256
6
ByLayer
370
13
48
1
60
0
100
AcDbTrace
10
63
20
16.559119
30
0
11
59.500002
21
16.098335
31
0
12
59.499998
22
17.019903
32
0
13
63
23
16.559119
33
0
39
0
210
0
220
0
230
1
0
ENDBLK
5
FB
100
AcDbEntity
8
0
100
AcDbBlockEnd
0
BLOCK
5
104
100
AcDbEntity
8
0
100
AcDbBlockBegin
2
DimnDraft3D4
70
0
10
0
20
0
30
0
3
DimnDraft3D4
0
MTEXT
5
FE
100
AcDbEntity
8
SK2
62
256
6
ByLayer
370
13
48
1
60
0
100
AcDbMText
10
70.278136
20
-16.877503
30
0
210
0
220
0
230
1
1
\W0.6463;1,69
40
3.5
41
0
44
1.084337
50
0
71
7
72
5
7
iso_b_vert
0
LINE
5
FF
100
AcDbEntity
8
SK2
62
256
6
ByLayer
370
13
48
1
60
0
100
AcDbLine
10
63
20
-1.5875
30
0
11
63
21
-19.752503
31
0
39
0
210
0
220
0
230
1
0
LINE
5
100
100
AcDbEntity
8
SK2
62
256
6
ByLayer
370
13
48
1
60
0
100
AcDbLine
10
61.31
20
-6.5375
30
0
11
61.31
21
-19.752503
31
0
39
0
210
0
220
0
230
1
0
LINE
5
101
100
AcDbEntity
8
SK2
62
256
6
ByLayer
370
13
48
1
60
0
100
AcDbLine
10
52.56
20
-17.752503
30
0
11
76.559715
21
-17.752503
31
0
39
0
210
0
220
0
230
1
0
SOLID
5
102
100
AcDbEntity
8
SK2
62
256
6
ByLayer
370
13
48
1
60
0
100
AcDbTrace
10
63
20
-17.752503
30
0
11
66.499998
21
-17.291719
31
0
12
66.500002
22
-18.213287
32
0
13
63
23
-17.752503
33
0
39
0
210
0
220
0
230
1
0
SOLID
5
103
100
AcDbEntity
8
SK2
62
256
6
ByLayer
370
13
48
1
60
0
100
AcDbTrace
10
61.31
20
-17.752503
30
0
11
57.810002
21
-18.213287
31
0
12
57.809998
22
-17.291719
32
0
13
61.31
23
-17.752503
33
0
39
0
210
0
220
0
230
1
0
ENDBLK
5
105
100
AcDbEntity
8
0
100
AcDbBlockEnd
0
BLOCK
5
10E
100
AcDbEntity
8
0
100
AcDbBlockBegin
2
DimnDraft3D5
70
0
10
0
20
0
30
0
3
DimnDraft3D5
0
MTEXT
5
108
100
AcDbEntity
8
SK2
62
256
6
ByLayer
370
13
48
1
60
0
100
AcDbMText
10
3.626597
20
-22.468428
30
0
210
0
220
0
230
1
1
\W0.6303;101,31
40
3.5
41
0
44
1.084337
50
0
71
7
72
5
7
iso_b_vert
0
LINE
5
109
100
AcDbEntity
8
SK2
62
256
6
ByLayer
370
13
48
1
60
0
100
AcDbLine
10
-40
20
-6.5875
30
0
11
-40
21
-25.343428
31
0
39
0
210
0
220
0
230
1
0
LINE
5
10A
100
AcDbEntity
8
SK2
62
256
6
ByLayer
370
13
48
1
60
0
100
AcDbLine
10
61.31
20
-6.5375
30
0
11
61.31
21
-25.343428
31
0
39
0
210
0
220
0
230
1
0
LINE
5
10B
100
AcDbEntity
8
SK2
62
256
6
ByLayer
370
13
48
1
60
0
100
AcDbLine
10
-40
20
-23.343428
30
0
11
61.31
21
-23.343428
31
0
39
0
210
0
220
0
230
1
0
SOLID
5
10C
100
AcDbEntity
8
SK2
62
256
6
ByLayer
370
13
48
1
60
0
100
AcDbTrace
10
-40
20
-23.343428
30
0
11
-36.500002
21
-22.882645
31
0
12
-36.499998
22
-23.804212
32
0
13
-40
23
-23.343428
33
0
39
0
210
0
220
0
230
1
0
SOLID
5
10D
100
AcDbEntity
8
SK2
62
256
6
ByLayer
370
13
48
1
60
0
100
AcDbTrace
10
61.31
20
-23.343428
30
0
11
57.810002
21
-23.804212
31
0
12
57.809998
22
-22.882645
32
0
13
61.31
23
-23.343428
33
0
39
0
210
0
220
0
230
1
0
ENDBLK
5
10F
100
AcDbEntity
8
0
100
AcDbBlockEnd
0
BLOCK
5
119
100
AcDbEntity
8
0
100
AcDbBlockBegin
2
DimnDraft3D6
70
0
10
0
20
0
30
0
3
DimnDraft3D6
0
MTEXT
5
112
100
AcDbEntity
8
SK2
62
256
6
ByLayer
370
13
48
1
60
0
100
AcDbMText
10
-50.375163
20
24.34918
30
0
210
0
220
0
230
1
1
\W0.6930;10,000
40
3.5
41
0
44
1.084337
50
90
71
7
72
5
7
iso_b_vert
0
MTEXT
5
113
100
AcDbEntity
8
SK2
62
256
6
ByLayer
370
13
48
1
60
0
100
AcDbMText
10
-50.375163
20
19.126524
30
0
210
0
220
0
230
1
1
%%c
40
3.5
41
0
44
1.084337
50
90
71
7
72
5
7
iso_b_vert
0
LINE
5
114
100
AcDbEntity
8
SK2
62
256
6
ByLayer
370
13
48
1
60
0
100
AcDbLine
10
-41.5875
20
-5
30
0
11
-50.625163
21
-5
31
0
39
0
210
0
220
0
230
1
0
LINE
5
115
100
AcDbEntity
8
SK2
62
256
6
ByLayer
370
13
48
1
60
0
100
AcDbLine
10
-41.5875
20
5
30
0
11
-50.625163
21
5
31
0
39
0
210
0
220
0
230
1
0
LINE
5
116
100
AcDbEntity
8
SK2
62
256
6
ByLayer
370
13
48
1
60
0
100
AcDbLine
10
-48.625163
20
-5
30
0
11
-48.625163
21
35.862338
31
0
39
0
210
0
220
0
230
1
0
SOLID
5
117
100
AcDbEntity
8
SK2
62
256
6
ByLayer
370
13
48
1
60
0
100
AcDbTrace
10
-48.625163
20
-5
30
0
11
-49.085946
21
-1.500002
31
0
12
-48.164379
22
-1.499998
32
0
13
-48.625163
23
-5
33
0
39
0
210
0
220
0
230
1
0
SOLID
5
118
100
AcDbEntity
8
SK2
62
256
6
ByLayer
370
13
48
1
60
0
100
AcDbTrace
10
-48.625163
20
5
30
0
11
-48.164379
21
1.500002
31
0
12
-49.085946
22
1.499998
32
0
13
-48.625163
23
5
33
0
39
0
210
0
220
0
230
1
0
ENDBLK
5
11A
100
AcDbEntity
8
0
100
AcDbBlockEnd
0
BLOCK
5
124
100
AcDbEntity
8
0
100
AcDbBlockBegin
2
DimnDraft3D7
70
0
10
0
20
0
30
0
3
DimnDraft3D7
0
MTEXT
5
11D
100
AcDbEntity
8
2
62
256
6
ByLayer
370
13
48
1
60
0
100
AcDbMText
10
73.333343
20
22.892266
30
0
210
0
220
0
230
1
1
\W0.7317;9,900
40
3.5
41
0
44
1.084337
50
90
71
7
72
5
7
iso_b_vert
0
MTEXT
5
11E
100
AcDbEntity
8
2
62
256
6
ByLayer
370
13
48
1
60
0
100
AcDbMText
10
73.333343
20
17.66961
30
0
210
0
220
0
230
1
1
%%c
40
3.5
41
0
44
1.084337
50
90
71
7
72
5
7
iso_b_vert
0
LINE
5
11F
100
AcDbEntity
8
2
62
256
6
ByLayer
370
13
48
1
60
0
100
AcDbLine
10
62.8975
20
-4.95
30
0
11
77.083343
21
-4.95
31
0
39
0
210
0
220
0
230
1
0
LINE
5
120
100
AcDbEntity
8
2
62
256
6
ByLayer
370
13
48
1
60
0
100
AcDbLine
10
62.8975
20
4.95
30
0
11
77.083343
21
4.95
31
0
39
0
210
0
220
0
230
1
0
LINE
5
121
100
AcDbEntity
8
2
62
256
6
ByLayer
370
13
48
1
60
0
100
AcDbLine
10
75.083343
20
-4.95
30
0
11
75.083343
21
32.664635
31
0
39
0
210
0
220
0
230
1
0
SOLID
5
122
100
AcDbEntity
8
2
62
256
6
ByLayer
370
13
48
1
60
0
100
AcDbTrace
10
75.083343
20
-4.95
30
0
11
74.622559
21
-1.450002
31
0
12
75.544126
22
-1.449998
32
0
13
75.083343
23
-4.95
33
0
39
0
210
0
220
0
230
1
0
SOLID
5
123
100
AcDbEntity
8
2
62
256
6
ByLayer
370
13
48
1
60
0
100
AcDbTrace
10
75.083343
20
4.95
30
0
11
75.544126
21
1.450002
31
0
12
74.622559
22
1.449998
32
0
13
75.083343
23
4.95
33
0
39
0
210
0
220
0
230
1
0
ENDBLK
5
125
100
AcDbEntity
8
0
100
AcDbBlockEnd
0
ENDSEC
0
SECTION
2
ENTITIES
0
ELLIPSE
5
9B
100
AcDbEntity
8
1
62
256
6
ByLayer
370
18
48
1
60
0
100
AcDbEllipse
10
63.031724
20
0.031022
30
0
11
0.140634105023426
21
-0.431000092826061
31
0
210
0
220
0
230
-1
40
0.07518
41
1.63559958516083
42
2.31001430907649
0
ELLIPSE
5
9C
100
AcDbEntity
8
1
62
256
6
ByLayer
370
13
48
1
60
0
100
AcDbEllipse
10
4.172335
20
-3.380729
30
0
11
-0.0001834351469024
21
0.0999998317575929
31
0
210
0
220
0
230
1
40
0.64693
41
0.925026632228924
42
2.2108950859912
0
ELLIPSE
5
9D
100
AcDbEntity
8
1
62
256
6
ByLayer
370
18
48
1
60
0
100
AcDbEllipse
10
62.859953
20
0.132939
30
0
11
0.0727819104927984
21
0.301917195714939
31
0
210
0
220
0
230
-1
40
0.478434
41
1.73791252233393
42
2.45976119972971
0
ELLIPSE
5
9E
100
AcDbEntity
8
1
62
256
6
ByLayer
370
18
48
1
60
0
100
AcDbEllipse
10
62.067841
20
2.361549
30
0
11
0.764631829589389
21
-2.07763150711105
31
0
210
0
220
0
230
-1
40
0.098637
41
-1.55347756447431
42
-0.749112684719764
0
ELLIPSE
5
9F
100
AcDbEntity
8
1
62
256
6
ByLayer
370
13
48
1
60
0
100
AcDbEllipse
10
62.591646
20
2.361549
30
0
11
2.80624273470329
21
-1.52874243482168
31
0
210
0
220
0
230
-1
40
0.502083
41
1.53004713206635
42
1.86026610933508
0
ELLIPSE
5
A0
100
AcDbEntity
8
1
62
256
6
ByLayer
370
18
48
1
60
0
100
AcDbEllipse
10
63.031724
20
-0.031022
30
0
11
0.140634104913392
21
0.431000092539271
31
0
210
0
220
0
230
-1
40
0.07518
41
-2.31001430903149
42
-1.63559958471421
0
ELLIPSE
5
A1
100
AcDbEntity
8
1
62
256
6
ByLayer
370
13
48
1
60
0
100
AcDbEllipse
10
4.250203
20
-3.398469
30
0
11
0.0391662251341764
21
0.0920109059228254
31
0
210
0
220
0
230
1
40
0.365161
41
0.85914723389567
42
2.41521627667141
0
ELLIPSE
5
A2
100
AcDbEntity
8
1
62
256
6
ByLayer
370
13
48
1
60
0
100
AcDbEllipse
10
61.939049
20
0.679342
30
0
11
0.153082081612418
21
0.258003636193773
31
0
210
0
220
0
230
1
40
0.454519
41
0.917105603404854
42
2.31336900500025
0
ELLIPSE
5
A3
100
AcDbEntity
8
1
62
256
6
ByLayer
370
13
48
1
60
0
100
AcDbEllipse
10
62.40174
20
2.238352
30
0
11
2.7307460225982
21
-1.88019628907776
31
0
210
0
220
0
230
-1
40
0.533762
41
1.44484622740749
42
1.7577192208755
0
ELLIPSE
5
A4
100
AcDbEntity
8
1
62
256
6
ByLayer
370
18
48
1
60
0
100
AcDbEllipse
10
63.000431
20
0.001081
30
0
11
1.82091256197527
21
4.94772144231579
31
0
210
0
220
0
230
-1
40
0.098637
41
2.88131639119761
42
2.98011039249111
0
ELLIPSE
5
A5
100
AcDbEntity
8
1
62
256
6
ByLayer
370
18
48
1
60
0
100
AcDbEllipse
10
62.067841
20
-2.361549
30
0
11
0.764631829563015
21
2.07763150705183
31
0
210
0
220
0
230
-1
40
0.098637
41
0.749112684718522
42
1.55347756449443
0
ELLIPSE
5
A6
100
AcDbEntity
8
1
62
256
6
ByLayer
370
18
48
1
60
0
100
AcDbEllipse
10
63.000431
20
-0.001081
30
0
11
1.82091254270919
21
-4.94772138618317
31
0
210
0
220
0
230
-1
40
0.098637
41
-2.98011039157583
42
-2.88131638971264
0
POINT
5
6C
100
AcDbEntity
8
81
62
256
6
ByLayer
370
18
48
1
60
0
100
AcDbPoint
10
63
20
0
30
0
39
0
210
0
220
0
230
1
50
360
0
POINT
5
6E
100
AcDbEntity
8
80
62
256
6
ByLayer
370
18
48
1
60
0
100
AcDbPoint
10
0
20
0
30
0
39
0
210
0
220
0
230
1
50
360
0
POINT
5
70
100
AcDbEntity
8
SK2
62
256
6
ByLayer
370
18
48
1
60
1
100
AcDbPoint
10
-40
20
-5
30
0
39
0
210
0
220
0
230
1
50
360
0
POINT
5
72
100
AcDbEntity
8
SK2
62
256
6
ByLayer
370
18
48
1
60
1
100
AcDbPoint
10
-40
20
5
30
0
39
0
210
0
220
0
230
1
50
360
0
POINT
5
73
100
AcDbEntity
8
2
62
256
6
ByLayer
370
18
48
1
60
1
100
AcDbPoint
10
61.31
20
-4.95
30
0
39
0
210
0
220
0
230
1
50
360
0
POINT
5
75
100
AcDbEntity
8
2
62
256
6
ByLayer
370
18
48
1
60
1
100
AcDbPoint
10
61.31
20
4.95
30
0
39
0
210
0
220
0
230
1
50
360
0
SPLINE
5
A7
100
AcDbEntity
8
1
62
256
6
ByLayer
370
18
48
1
60
0
100
AcDbSpline
70
4
71
3
72
26
73
22
40
0
40
0
40
0
40
0
40
0.0062766654135713
40
0.0490431073046895
40
0.08749134641569
40
0.1276230175715
40
0.169344256292288
40
0.208852035270898
40
0.24611999218074
40
0.287023776653242
40
0.356302708664484
40
0.417182091198793
40
0.485410456476398
40
0.551181369961579
40
0.621519909547108
40
0.699836486909695
40
0.767909563669614
40
0.843482485047625
40
0.922650675709724
40
0.998309337546934
40
1
40
1
40
1
40
1
41
1
10
48.3530325731454
20
4.71656013900503
30
0
41
1
10
48.3316092091134
20
4.71643680801429
30
0
41
1
10
48.1637801668532
20
4.71557903569195
30
0
41
1
10
47.8392007925353
20
4.7159187043442
30
0
41
1
10
47.4253539047804
20
4.71874187012074
30
0
41
1
10
46.9956615003225
20
4.7180740517442
30
0
41
1
10
46.5624579390231
20
4.71866733541805
30
0
41
1
10
46.13890002828
20
4.71910630560566
30
0
41
1
10
45.7183655369037
20
4.71809593579354
30
0
41
1
10
45.1914083816701
20
4.71668566714862
30
0
41
1
10
44.5800767088404
20
4.71783844983108
30
0
41
1
10
43.8710936287777
20
4.71644881743615
30
0
41
1
10
43.1746483314167
20
4.71598601537383
30
0
41
1
10
42.4443952491421
20
4.71679042667313
30
0
41
1
10
41.6780912903802
20
4.71472268207629
30
0
41
1
10
40.9035625623433
20
4.71561403123005
30
0
41
1
10
40.1103247642156
20
4.71411121435548
30
0
41
1
10
39.3140464228965
20
4.71458291377365
30
0
41
1
10
38.4907063665067
20
4.71331120794272
30
0
41
1
10
37.9312389054642
20
4.71346464442877
30
0
41
1
10
37.6548906951846
20
4.71334121528386
30
0
41
1
10
37.6488504792212
20
4.71333842217237
30
0
0
SPLINE
5
A8
100
AcDbEntity
8
1
62
256
6
ByLayer
370
18
48
1
60
0
100
AcDbSpline
70
4
71
3
72
12
73
8
40
0
40
0
40
0
40
0
40
0.0117392367648353
40
0.0964003829224784
40
0.223005462715284
40
0.621741808781128
40
1
40
1
40
1
40
1
41
1
10
23.6916762791672
20
-0.996442436759992
30
0
41
1
10
23.691642257192
20
-0.996423414950925
30
0
41
1
10
23.6915269555038
20
-0.996359071844552
30
0
41
1
10
23.6945165638144
20
-0.998036069325366
30
0
41
1
10
23.7295227456212
20
-1.0179994396766
30
0
41
1
10
23.7969700234341
20
-1.0577065061984
30
0
41
1
10
23.8646444943633
20
-1.09870559272886
30
0
41
1
10
23.9006994749775
20
-1.12077459430807
30
0
0
SPLINE
5
A9
100
AcDbEntity
8
1
62
256
6
ByLayer
370
18
48
1
60
0
100
AcDbSpline
70
4
71
3
72
32
73
28
40
0
40
0
40
0
40
0
40
0.0609350854297249
40
0.106745229088777
40
0.137645538654255
40
0.161100675552507
40
0.184475716616232
40
0.207781415029332
40
0.230328836838735
40
0.268006602619149
40
0.307195385233888
40
0.355198183503287
40
0.411603776069882
40
0.460138811192928
40
0.510887295227889
40
0.566057279638346
40
0.616622717284248
40
0.667161066009159
40
0.705973875728181
40
0.735562402611475
40
0.775028265675855
40
0.820803660136975
40
0.854663961183362
40
0.886512294138979
40
0.927720750119211
40
0.981164922750609
40
1
40
1
40
1
40
1
41
1
10
10.4104204474714
20
-4.69653112747977
30
0
41
1
10
10.6706338397787
20
-4.69675813938025
30
0
41
1
10
11.1264725353863
20
-4.69712435075201
30
0
41
1
10
11.714146011612
20
-4.69759202756441
30
0
41
1
10
12.1419484057896
20
-4.69781411712196
30
0
41
1
10
12.4736567514077
20
-4.69814413755711
30
0
41
1
10
12.7731595204418
20
-4.69857394458364
30
0
41
1
10
13.0687758604002
20
-4.69883736245271
30
0
41
1
10
13.4254500185088
20
-4.69897117555868
30
0
41
1
10
13.8499759332741
20
-4.69890473179359
30
0
41
1
10
14.3831714750969
20
-4.69980527975312
30
0
41
1
10
14.9963731137679
20
-4.70051921055085
30
0
41
1
10
15.6493789202537
20
-4.69959344657517
30
0
41
1
10
16.3145025409208
20
-4.70191389435831
30
0
41
1
10
16.9728570066777
20
-4.7011464384986
30
0
41
1
10
17.6388342055188
20
-4.70057097882491
30
0
41
1
10
18.3071214101711
20
-4.70320315372484
30
0
41
1
10
18.9024653518779
20
-4.70194659870614
30
0
41
1
10
19.4101446408204
20
-4.70262820558014
30
0
41
1
10
19.8708458252237
20
-4.7044288404756
30
0
41
1
10
20.3608082721137
20
-4.70387396588589
30
0
41
1
10
20.870948998983
20
-4.70345936220252
30
0
41
1
10
21.3424470198459
20
-4.70418045912382
30
0
41
1
10
21.8020879855307
20
-4.70480561000724
30
0
41
1
10
22.3275588138212
20
-4.70505156358522
30
0
41
1
10
22.814365533589
20
-4.70449528845961
30
0
41
1
10
23.1214885717232
20
-4.70508455387059
30
0
41
1
10
23.2016231344275
20
-4.7052640376757
30
0
0
SPLINE
5
AA
100
AcDbEntity
8
1
62
256
6
ByLayer
370
18
48
1
60
0
100
AcDbSpline
70
4
71
3
72
29
73
25
40
0
40
0
40
0
40
0
40
0.0571262802672304
40
0.101511817515065
40
0.133164357882509
40
0.157748210221864
40
0.180541113024694
40
0.201554463194624
40
0.250374510319467
40
0.302324378064114
40
0.364857730963122
40
0.421185283936396
40
0.485988894551336
40
0.544191020900462
40
0.614965592236946
40
0.681952654484458
40
0.752361023117679
40
0.818571481908796
40
0.852135052384685
40
0.88815175067563
40
0.923226300884627
40
0.956660278052117
40
0.993137383160026
40
1
40
1
40
1
40
1
41
1
10
35.4103127453283
20
-4.71160473032285
30
0
41
1
10
35.6570099446823
20
-4.71181796135912
30
0
41
1
10
36.0954034974691
20
-4.71219261263261
30
0
41
1
10
36.6704023019519
20
-4.71231374528361
30
0
41
1
10
37.1050861113784
20
-4.71286622057002
30
0
41
1
10
37.4459372206886
20
-4.71322523647495
30
0
41
1
10
37.7412922283086
20
-4.71340304409873
30
0
41
1
10
38.1413469737762
20
-4.7134586471507
30
0
41
1
10
38.6673181303466
20
-4.71367220521392
30
0
41
1
10
39.3726132279832
20
-4.7145302232324
30
0
41
1
10
40.1103224914742
20
-4.71411497313812
30
0
41
1
10
40.9035632292469
20
-4.71561579068884
30
0
41
1
10
41.6780911906359
20
-4.71470981132364
30
0
41
1
10
42.5150183252035
20
-4.71702842257395
30
0
41
1
10
43.3613795469389
20
-4.71536545597908
30
0
41
1
10
44.2604454601694
20
-4.71804604630523
30
0
41
1
10
45.1398370640979
20
-4.71627656671873
30
0
41
1
10
45.8747695636744
20
-4.71898172892759
30
0
41
1
10
46.4613939118068
20
-4.71885960182547
30
0
41
1
10
46.9128187991952
20
-4.71809477001054
30
0
41
1
10
47.3651388376639
20
-4.7186760922595
30
0
41
1
10
47.7988468249534
20
-4.71646202158658
30
0
41
1
10
48.1419928299002
20
-4.71544122159571
30
0
41
1
10
48.3214068313658
20
-4.71637789591841
30
0
41
1
10
48.3497256588515
20
-4.71654921020769
30
0
0
SPLINE
5
AB
100
AcDbEntity
8
1
62
256
6
ByLayer
370
18
48
1
60
0
100
AcDbSpline
70
4
71
3
72
10
73
6
40
0
40
0
40
0
40
0
40
0.209930178027658
40
0.488053316821606
40
1
40
1
40
1
40
1
41
1
10
48.7694169129537
20
-1.0403928696183
30
0
41
1
10
48.7697136947755
20
-1.04053125029219
30
0
41
1
10
48.7725914160048
20
-1.04188140441923
30
0
41
1
10
48.7581148555947
20
-1.03310767469887
30
0
41
1
10
48.7882371307048
20
-1.05156527801719
30
0
41
1
10
48.8178135861705
20
-1.06979657570389
30
0
0
SPLINE
5
AC
100
AcDbEntity
8
1
62
256
6
ByLayer
370
18
48
1
60
0
100
AcDbSpline
70
4
71
3
72
32
73
28
40
0
40
0
40
0
40
0
40
0.0027687809025609
40
0.0418163367652718
40
0.0878640131999723
40
0.138131935470687
40
0.178788936068846
40
0.214162276588683
40
0.252714140364317
40
0.300705261989728
40
0.350525897005043
40
0.387842098694583
40
0.4212295707329
40
0.459941364154061
40
0.504292374315911
40
0.556166361551918
40
0.621283809552013
40
0.675296014777445
40
0.705839597645705
40
0.74845097955556
40
0.79914217711214
40
0.839201083204986
40
0.876304546996528
40
0.924912402101674
40
0.97398770330775
40
0.993779221849893
40
1
40
1
40
1
40
1
41
1
10
23.3927827955318
20
4.7034741699014
30
0
41
1
10
23.3834709235748
20
4.70341289536785
30
0
41
1
10
23.2424859820358
20
4.7025200268709
30
0
41
1
10
22.9097769680245
20
4.69993754317866
30
0
41
1
10
22.447626137203
20
4.70503658460723
30
0
41
1
10
21.9519743450712
20
4.70524053424433
30
0
41
1
10
21.4979296560669
20
4.70525778414458
30
0
41
1
10
21.0849461849912
20
4.70365317534174
30
0
41
1
10
20.6456758592018
20
4.70356763571917
30
0
41
1
10
20.1543035788951
20
4.70436393621634
30
0
41
1
10
19.6673973818318
20
4.70372621669753
30
0
41
1
10
19.233110457601
20
4.70228532253142
30
0
41
1
10
18.8388554836536
20
4.70228982174047
30
0
41
1
10
18.4196330996402
20
4.70298904397663
30
0
41
1
10
17.9343696047435
20
4.70284814935579
30
0
41
1
10
17.3525692036022
20
4.70031704661855
30
0
41
1
10
16.7370308104177
20
4.70174261754158
30
0
41
1
10
16.1984802163903
20
4.70130300462898
30
0
41
1
10
15.7400852516165
20
4.70003718890175
30
0
41
1
10
15.2941807342273
20
4.70006755571276
30
0
41
1
10
14.8141187773214
20
4.70027639253104
30
0
41
1
10
14.3531542376454
20
4.69965996386031
30
0
41
1
10
13.9011420372745
20
4.69896138263167
30
0
41
1
10
13.4150928249247
20
4.69897591311334
30
0
41
1
10
12.9918821925137
20
4.69882153750723
30
0
41
1
10
12.7213224093135
20
4.69849442390412
30
0
41
1
10
12.6278137477689
20
4.69835219912264
30
0
41
1
10
12.6054561619288
20
4.6983174894655
30
0
0
SPLINE
5
AD
100
AcDbEntity
8
1
62
256
6
ByLayer
370
18
48
1
60
0
100
AcDbSpline
70
4
71
2
72
6
73
3
40
0
40
0
40
0
40
1
40
1
40
1
41
1
10
60.4785783584202
20
-4.72661756417591
30
0
41
1
10
60.8784905011784
20
-4.7245656697994
30
0
41
1
10
61.2780984479638
20
-4.72850968675215
30
0
0
SPLINE
5
AE
100
AcDbEntity
8
1
62
256
6
ByLayer
370
18
48
1
60
0
100
AcDbSpline
70
4
71
3
72
8
73
4
40
0
40
0
40
0
40
0
40
1
40
1
40
1
40
1
41
1
10
61.2816739702697
20
-4.91114837139639
30
0
41
1
10
61.2975187344034
20
-4.86904392581602
30
0
41
1
10
61.3133473252253
20
-4.82690377130265
30
0
41
1
10
61.3291581311532
20
-4.78473221081282
30
0
0
SPLINE
5
AF
100
AcDbEntity
8
1
62
256
6
ByLayer
370
18
48
1
60
0
100
AcDbSpline
70
4
71
3
72
10
73
6
40
0
40
0
40
0
40
0
40
0.894468873224372
40
0.894468873224372
40
1
40
1
40
1
40
1
41
1
10
61.2816739702697
20
4.91114837139637
30
0
41
1
10
60.9823052161181
20
4.93428993965884
30
0
41
1
10
60.6829821454567
20
4.9469227860136
30
0
41
1
10
60.3479117041898
20
4.94928491458654
30
0
41
1
10
60.3125389360608
20
4.94938686117382
30
0
41
1
10
60.2771575411961
20
4.94934177439083
30
0
0
SPLINE
5
B0
100
AcDbEntity
8
1
62
256
6
ByLayer
370
18
48
1
60
0
100
AcDbSpline
70
4
71
3
72
50
73
46
40
0
40
0
40
0
40
0
40
0.0499786678976384
40
0.0499786678976384
40
0.0826231714387092
40
0.0826231714387092
40
0.0989454232092441
40
0.0989454232092441
40
0.115267674979779
40
0.115267674979779
40
0.180556682061919
40
0.180556682061919
40
0.24584568914406
40
0.24584568914406
40
0.27849019268513
40
0.27849019268513
40
0.3111346962262
40
0.3111346962262
40
0.441712710390479
40
0.441712710390479
40
0.458034962161014
40
0.458034962161014
40
0.474357213931548
40
0.474357213931548
40
0.507001717472618
40
0.507001717472618
40
0.572290724554757
40
0.572290724554757
40
0.637579731636896
40
0.637579731636896
40
0.670224235177965
40
0.670224235177965
40
0.702868738719035
40
0.702868738719035
40
0.833446752883315
40
0.833446752883315
40
0.849769004653849
40
0.849769004653849
40
0.866091256424384
40
0.866091256424384
40
0.898735759965454
40
0.898735759965454
40
0.964024767047593
40
0.964024767047593
40
1
40
1
40
1
40
1
41
1
10
37.6370399742104
20
-4.7217281158743
30
0
41
1
10
37.1835549006931
20
-4.80338159636662
30
0
41
1
10
36.729918232716
20
-4.862035043352
30
0
41
1
10
35.976745841469
20
-4.91953769794898
30
0
41
1
10
35.6783283748849
20
-4.93204823040614
30
0
41
1
10
35.2285983969581
20
-4.93507072305667
30
0
41
1
10
35.0781958821906
20
-4.93344273338789
30
0
41
1
10
34.7785105559733
20
-4.92495072400362
30
0
41
1
10
34.6290080682638
20
-4.9180932088432
30
0
41
1
10
33.8828550638709
20
-4.87094265172314
30
0
41
1
10
33.2901774564756
20
-4.79210969074717
30
0
41
1
10
32.1052651085877
20
-4.556840752694
30
0
41
1
10
31.5129387365587
20
-4.40045998187256
30
0
41
1
10
30.6187326476759
20
-4.11082495206438
30
0
41
1
10
30.319518880594
20
-4.00511124347869
30
0
41
1
10
29.7185795277471
20
-3.77608644132073
30
0
41
1
10
29.4196580767831
20
-3.6537659768232
30
0
41
1
10
27.9295633250993
20
-3.00745886127621
30
0
41
1
10
26.752407698383
20
-2.37906433664409
30
0
41
1
10
25.4086889356842
20
-1.59621440795769
30
0
41
1
10
25.2591149722838
20
-1.50817613518606
30
0
41
1
10
24.9592349309438
20
-1.33025996184531
30
0
41
1
10
24.8087724593706
20
-1.240273644897
30
0
41
1
10
24.3590364683276
20
-0.969449666229792
30
0
41
1
10
24.0605720277125
20
-0.787270032222949
30
0
41
1
10
23.1676912760877
20
-0.238406693803199
30
0
41
1
10
22.5756269821728
20
0.130336839878879
30
0
41
1
10
21.3900046655575
20
0.860585317226281
30
0
41
1
10
20.7963685326637
20
1.22196200715882
30
0
41
1
10
19.8985823881298
20
1.74839333177425
30
0
41
1
10
19.5973637696312
20
1.92163366185107
30
0
41
1
10
18.9988940274962
20
2.25686926033464
30
0
41
1
10
18.700869043177
20
2.4193415031439
30
0
41
1
10
17.2141530700861
20
3.20275093289126
30
0
41
1
10
16.0361732818328
20
3.73757271246117
30
0
41
1
10
14.6862904363694
20
4.18870793147332
30
0
41
1
10
14.5357758765315
20
4.23679527589232
30
0
41
1
10
14.2358296518456
20
4.32808289843985
30
0
41
1
10
14.086204531333
20
4.37134566843588
30
0
41
1
10
13.6381430325028
20
4.49390237340063
30
0
41
1
10
13.3405100694086
20
4.56595794869733
30
0
41
1
10
12.4492108224696
20
4.75267576881197
30
0
41
1
10
11.8574943959249
20
4.83805891107417
30
0
41
1
10
10.9367285959536
20
4.9073719458425
30
0
41
1
10
10.6090947717309
20
4.91966431433323
30
0
41
1
10
10.2802198112747
20
4.91934923839887
30
0
0
SPLINE
5
B1
100
AcDbEntity
8
1
62
256
6
ByLayer
370
18
48
1
60
0
100
AcDbSpline
70
4
71
3
72
24
73
20
40
0
40
0
40
0
40
0
40
0.124999999999999
40
0.124999999999999
40
0.1875
40
0.1875
40
0.250000000000001
40
0.250000000000001
40
0.374999999999999
40
0.374999999999999
40
0.499999999999997
40
0.499999999999997
40
0.624999999999996
40
0.624999999999996
40
0.687499999999995
40
0.687499999999995
40
0.749999999999994
40
0.749999999999994
40
1
40
1
40
1
40
1
41
1
10
57.2539160035615
20
1.93411093331727
30
0
41
1
10
57.2940406215231
20
1.71564436060251
30
0
41
1
10
57.3549815719373
20
1.49534612552924
30
0
41
1
10
57.4741701935957
20
1.16245461305005
30
0
41
1
10
57.5188149682167
20
1.05055154945916
30
0
41
1
10
57.6151135273876
20
0.830288879478445
30
0
41
1
10
57.6668627349712
20
0.721544982771235
30
0
41
1
10
57.8318536766169
20
0.399068438209809
30
0
41
1
10
57.9549232724593
20
0.188864706544166
30
0
41
1
10
58.2230442675624
20
-0.222017289380801
30
0
41
1
10
58.3652363651181
20
-0.418498831529405
30
0
41
1
10
58.662452580738
20
-0.797323502636743
30
0
41
1
10
58.8175189690584
20
-0.979620057921125
30
0
41
1
10
59.0584220550757
20
-1.24391603047562
30
0
41
1
10
59.14011458344
20
-1.33048152354914
30
0
41
1
10
59.3061253726298
20
-1.50071945864167
30
0
41
1
10
59.3905557025345
20
-1.58449111399369
30
0
41
1
10
59.8157691170712
20
-1.99345390528623
30
0
41
1
10
60.1677376341373
20
-2.29178319919936
30
0
41
1
10
60.5292847110874
20
-2.56669668647962
30
0
0
SPLINE
5
B2
100
AcDbEntity
8
1
62
256
6
ByLayer
370
18
48
1
60
0
100
AcDbSpline
70
4
71
3
72
32
73
28
40
0
40
0
40
0
40
0
40
0.0625000000000004
40
0.0625000000000004
40
0.125000000000001
40
0.187500000000001
40
0.187500000000001
40
0.218750000000001
40
0.218750000000001
40
0.250000000000001
40
0.250000000000001
40
0.375000000000001
40
0.375000000000001
40
0.437500000000001
40
0.437500000000001
40
0.500000000000001
40
0.500000000000001
40
0.625000000000001
40
0.625000000000001
40
0.6875
40
0.6875
40
0.75
40
0.8125
40
0.8125
40
0.875
40
0.875
40
1
40
1
40
1
40
1
41
1
10
4.00150282302246
20
-3.3726665623611
30
0
41
1
10
4.00150664181285
20
-3.24892751343174
30
0
41
1
10
4.00151017230456
20
-3.118709723281
30
0
41
1
10
4.00151666588363
20
-2.8498835865322
30
0
41
1
10
4.00152261331112
20
-2.57218582905367
30
0
41
1
10
4.00152774131851
20
-2.27712825678407
30
0
41
1
10
4.0015313746548
20
-2.04926109874205
30
0
41
1
10
4.00153255026027
20
-1.97220758856946
30
0
41
1
10
4.00153484571669
20
-1.81586758547516
30
0
41
1
10
4.00153596874276
20
-1.73634304960541
30
0
41
1
10
4.00154143351151
20
-1.33661794226882
30
0
41
1
10
4.00154534433887
20
-1.01009038579574
30
0
41
1
10
4.00155121417069
20
-0.510475507124823
30
0
41
1
10
4.00155316874032
20
-0.342286982053423
30
0
41
1
10
4.00155716437683
20
-0.0024988324850028
30
0
41
1
10
4.00155918468471
20
0.167275649689117
30
0
41
1
10
4.00156535024595
20
0.671243505516401
30
0
41
1
10
4.00156963646782
20
1.00227212931122
30
0
41
1
10
4.00157649600357
20
1.49126840503465
30
0
41
1
10
4.00157885595115
20
1.65322654017641
30
0
41
1
10
4.0015835901693
20
1.96713536568768
30
0
41
1
10
4.00158836464092
20
2.27295844834632
30
0
41
1
10
4.00159313249222
20
2.56287489789298
30
0
41
1
10
4.00159782654947
20
2.84471667137709
30
0
41
1
10
4.00160014954875
20
2.98235822855824
30
0
41
1
10
4.00160673826949
20
3.37561569633803
30
0
41
1
10
4.00161064198485
20
3.61223633964485
30
0
41
1
10
4.00161358307287
20
3.82378764692504
30
0
0
SPLINE
5
B3
100
AcDbEntity
8
1
62
256
6
ByLayer
370
13
48
1
60
0
100
AcDbSpline
70
4
71
3
72
10
73
6
40
0
40
0
40
0
40
0
40
0.5
40
0.5
40
1
40
1
40
1
40
1
41
1
10
4.12055884672336
20
-3.32064251497135
30
0
41
1
10
4.14033418473045
20
-3.31716923688714
30
0
41
1
10
4.16170864194206
20
-3.31606363714695
30
0
41
1
10
4.2053173887677
20
-3.31844144321931
30
0
41
1
10
4.22759439346015
20
-3.32185162065795
30
0
41
1
10
4.25033748240557
20
-3.32754798812985
30
0
0
SPLINE
5
B4
100
AcDbEntity
8
1
62
256
6
ByLayer
370
13
48
1
60
0
100
AcDbSpline
70
4
71
3
72
10
73
6
40
0
40
0
40
0
40
0
40
0.5
40
0.5
40
1
40
1
40
1
40
1
41
1
10
4.00399864999278
20
-3.39276214814737
30
0
41
1
10
4.01008965550426
20
-3.4024024256635
30
0
41
1
10
4.02291999837612
20
-3.41151717768383
30
0
41
1
10
4.06204682304983
20
-3.42792275206679
30
0
41
1
10
4.08821163162924
20
-3.43511331015699
30
0
41
1
10
4.12055884672336
20
-3.44055151429916
30
0
0
SPLINE
5
B5
100
AcDbEntity
8
1
62
256
6
ByLayer
370
13
48
1
60
0
100
AcDbSpline
70
4
71
3
72
8
73
4
40
0
40
0
40
0
40
0
40
1
40
1
40
1
40
1
41
1
10
4.11854386071064
20
-3.51247680780375
30
0
41
1
10
4.11920973119089
20
-3.48850526279094
30
0
41
1
10
4.11988137886428
20
-3.46453021042066
30
0
41
1
10
4.12055884672336
20
-3.44055151429913
30
0
0
SPLINE
5
B6
100
AcDbEntity
8
1
62
256
6
ByLayer
370
18
48
1
60
0
100
AcDbSpline
70
4
71
3
72
56
73
52
40
0
40
0
40
0
40
0
40
0.0776036556795383
40
0.0776036556795383
40
0.116405483519308
40
0.116405483519308
40
0.155207311359077
40
0.155207311359077
40
0.194009139198846
40
0.194009139198846
40
0.232810967038615
40
0.232810967038615
40
0.271612794878384
40
0.271612794878384
40
0.310414622718153
40
0.310414622718153
40
0.349216450557923
40
0.349216450557923
40
0.388018278397692
40
0.388018278397692
40
0.426820106237461
40
0.426820106237461
40
0.46562193407723
40
0.46562193407723
40
0.504423761916999
40
0.504423761916999
40
0.543225589756768
40
0.543225589756768
40
0.582027417596538
40
0.582027417596538
40
0.620829245436307
40
0.620829245436307
40
0.659631073276076
40
0.659631073276076
40
0.698432901115845
40
0.698432901115845
40
0.737234728955614
40
0.737234728955614
40
0.776036556795384
40
0.776036556795384
40
0.814838384635153
40
0.814838384635153
40
0.853640212474922
40
0.853640212474922
40
0.892442040314691
40
0.892442040314691
40
0.93124386815446
40
0.93124386815446
40
0.970045695994229
40
0.970045695994229
40
1
40
1
40
1
40
1
41
1
10
9.31918000590812
20
0.758071440776178
30
0
41
1
10
9.82291787826728
20
0.464520412994546
30
0
41
1
10
10.3230560558961
20
0.169742157457762
30
0
41
1
10
11.0698965229334
20
-0.271723845528982
30
0
41
1
10
11.3182207297815
20
-0.418827764591583
30
0
41
1
10
11.8152465245727
20
-0.709941175548664
30
0
41
1
10
12.0637490147851
20
-0.854319985632856
30
0
41
1
10
12.5607475040477
20
-1.14096645359416
30
0
41
1
10
12.8091432567871
20
-1.28338582429183
30
0
41
1
10
13.306734416506
20
-1.56427540575706
30
0
41
1
10
13.556280020329
20
-1.70225341823618
30
0
41
1
10
14.0567201812412
20
-1.97375129298456
30
0
41
1
10
14.3075196710198
20
-2.10750987563407
30
0
41
1
10
14.8107847718224
20
-2.36968969586837
30
0
41
1
10
15.061460414424
20
-2.49692423911196
30
0
41
1
10
15.5617920142667
20
-2.74190756781565
30
0
41
1
10
15.8113944192951
20
-2.86016199748579
30
0
41
1
10
16.3094763836673
20
-3.08868148791402
30
0
41
1
10
16.5577904270142
20
-3.19830846324837
30
0
41
1
10
17.0540765428826
20
-3.40730496211131
30
0
41
1
10
17.3023878479866
20
-3.50650316289742
30
0
41
1
10
17.7991733378123
20
-3.69555049277599
30
0
41
1
10
18.0475976939421
20
-3.78552657813182
30
0
41
1
10
18.5449333927857
20
-3.95262388601199
30
0
41
1
10
18.7938453011845
20
-4.03048309424608
30
0
41
1
10
19.2936603473029
20
-4.17469283393658
30
0
41
1
10
19.5442639066197
20
-4.24159918844802
30
0
41
1
10
20.0471509256095
20
-4.3627068071182
30
0
41
1
10
20.2984499882992
20
-4.416072146548
30
0
41
1
10
20.7985407959717
20
-4.50941952351877
30
0
41
1
10
21.0481780734103
20
-4.5493458277769
30
0
41
1
10
21.5464974671743
20
-4.61699816037248
30
0
41
1
10
21.7950891767839
20
-4.64368701847448
30
0
41
1
10
22.2914622058939
20
-4.68246799928497
30
0
41
1
10
22.5393106827932
20
-4.69502462584194
30
0
41
1
10
23.035850286799
20
-4.70755652082414
30
0
41
1
10
23.2842562195487
20
-4.70801947465176
30
0
41
1
10
23.781587985308
20
-4.69220263779019
30
0
41
1
10
24.0304313678996
20
-4.67669234326084
30
0
41
1
10
24.5294015728202
20
-4.63305317181849
30
0
41
1
10
24.7797657868562
20
-4.60530484670298
30
0
41
1
10
25.2821594238478
20
-4.53614524502879
30
0
41
1
10
25.5341124318586
20
-4.4932485242291
30
0
41
1
10
26.0359703466257
20
-4.39434345477747
30
0
41
1
10
26.2865082583354
20
-4.33846933210907
30
0
41
1
10
26.7882365514284
20
-4.21591314247155
30
0
41
1
10
27.0391541251996
20
-4.14842579623664
30
0
41
1
10
27.5413196874002
20
-3.99908081548048
30
0
41
1
10
27.7927246161627
20
-3.91777683919454
30
0
41
1
10
28.238026954584
20
-3.7649183957175
30
0
41
1
10
28.4319716210253
20
-3.69548397376977
30
0
41
1
10
28.6257864939853
20
-3.62255173123867
30
0
0
SPLINE
5
B7
100
AcDbEntity
8
1
62
256
6
ByLayer
370
18
48
1
60
0
100
AcDbSpline
70
4
71
3
72
30
73
26
40
0
40
0
40
0
40
0
40
0.0749318581875576
40
0.0749318581875576
40
0.159028961988689
40
0.159028961988689
40
0.24312606578982
40
0.24312606578982
40
0.327223169590951
40
0.327223169590951
40
0.411320273392082
40
0.411320273392082
40
0.495417377193213
40
0.495417377193213
40
0.579514480994344
40
0.579514480994344
40
0.663611584795475
40
0.663611584795475
40
0.747708688596607
40
0.747708688596607
40
0.831805792397738
40
0.831805792397738
40
0.915902896198869
40
0.915902896198869
40
1
40
1
40
1
40
1
41
1
10
48.3463779493841
20
4.71691343739039
30
0
41
1
10
48.5690889256937
20
4.71275451728542
30
0
41
1
10
48.792580560819
20
4.70316619140718
30
0
41
1
10
49.2681938186211
20
4.67259528912561
30
0
41
1
10
49.5187616683744
20
4.64994143660604
30
0
41
1
10
50.0178494765137
20
4.58903954264625
30
0
41
1
10
50.2662981767754
20
4.5510612158412
30
0
41
1
10
50.7630091181232
20
4.46245502199073
30
0
41
1
10
51.0111907159161
20
4.41176886105811
30
0
41
1
10
51.5071096542141
20
4.29809716610373
30
0
41
1
10
51.7548504697484
20
4.23510499266499
30
0
41
1
10
52.2501557341915
20
4.09734890782596
30
0
41
1
10
52.4980394734752
20
4.02296126974329
30
0
41
1
10
52.994921513094
20
3.86229659866322
30
0
41
1
10
53.2438082621945
20
3.77571068320489
30
0
41
1
10
53.7426967130001
20
3.59024000789694
30
0
41
1
10
53.9925430684333
20
3.49133911160257
30
0
41
1
10
54.4947942380513
20
3.28354535901883
30
0
41
1
10
54.7462337643257
20
3.17485626030961
30
0
41
1
10
55.2478656051598
20
2.94849223520896
30
0
41
1
10
55.4983389828334
20
2.8307333518884
30
0
41
1
10
55.9989825217053
20
2.58680957880736
30
0
41
1
10
56.249522114524
20
2.46114150525548
30
0
41
1
10
56.7515460817537
20
2.20282716561661
30
0
41
1
10
57.0033577121118
20
2.06974405412876
30
0
41
1
10
57.2539160035612
20
1.93411093331741
30
0
0
SPLINE
5
B8
100
AcDbEntity
8
1
62
256
6
ByLayer
370
18
48
1
60
0
100
AcDbSpline
70
4
71
3
72
8
73
4
40
0
40
0
40
0
40
0
40
1
40
1
40
1
40
1
41
1
10
4.00399864999326
20
-3.39276214815365
30
0
41
1
10
4.00234843298961
20
-3.38616128435126
30
0
41
1
10
4.00150261491379
20
-3.3794098334721
30
0
41
1
10
4.00150282302246
20
-3.37266656235838
30
0
0
SPLINE
5
B9
100
AcDbEntity
8
1
62
256
6
ByLayer
370
18
48
1
60
0
100
AcDbSpline
70
4
71
3
72
68
73
64
40
0
40
0
40
0
40
0
40
0.0341868876484161
40
0.0341868876484161
40
0.110862550688836
40
0.110862550688836
40
0.149200382209046
40
0.149200382209046
40
0.187538213729256
40
0.187538213729256
40
0.264213876769676
40
0.264213876769676
40
0.340889539810096
40
0.340889539810096
40
0.417565202850517
40
0.417565202850517
40
0.494240865890937
40
0.494240865890937
40
0.499033094830963
40
0.499632123448466
40
0.499931637757218
40
0.499931637757218
40
0.500231152065969
40
0.500231152065969
40
0.501429209300976
40
0.501429209300976
40
0.503825323770989
40
0.503825323770989
40
0.513409781651042
40
0.513409781651042
40
0.532578697411147
40
0.532578697411147
40
0.570916528931357
40
0.570916528931357
40
0.647592191971778
40
0.647592191971778
40
0.724267855012198
40
0.724267855012198
40
0.762605686532408
40
0.762605686532408
40
0.781774602292513
40
0.781774602292513
40
0.78656683123254
40
0.78656683123254
40
0.788962945702553
40
0.788962945702553
40
0.790161002937559
40
0.790161002937559
40
0.790460517246311
40
0.790460517246311
40
0.790760031555062
40
0.791359060172566
40
0.800943518052619
40
0.800943518052619
40
0.839281349572832
40
0.839281349572832
40
0.877619181093046
40
0.877619181093046
40
0.915957012613259
40
0.915957012613259
40
0.954294844133472
40
0.954294844133472
40
1
40
1
40
1
40
1
41
1
10
14.3301379623398
20
4.06868724524446
30
0
41
1
10
14.2086559295058
20
4.0733396135625
30
0
41
1
10
14.0873077667541
20
4.07388528203066
30
0
41
1
10
13.6939357424852
20
4.06052085162261
30
0
41
1
10
13.422139438317
20
4.02766650492987
30
0
41
1
10
13.0107729669699
20
3.93414094946917
30
0
41
1
10
12.8743684359318
20
3.89587200344903
30
0
41
1
10
12.6047200956158
20
3.80622759656379
30
0
41
1
10
12.471057945313
20
3.75476449101171
30
0
41
1
10
12.071886195327
20
3.58183357716777
30
0
41
1
10
11.8082048371283
20
3.44175568188527
30
0
41
1
10
11.2757699649171
20
3.12245585730037
30
0
41
1
10
11.0141321390059
20
2.94785255059466
30
0
41
1
10
10.490340923483
20
2.58339306248359
30
0
41
1
10
10.2276817541083
20
2.39308590813926
30
0
41
1
10
9.69583803593355
20
2.00944392269926
30
0
41
1
10
9.43039166692751
20
1.8188056730134
30
0
41
1
10
9.14568185542925
20
1.62230647623753
30
0
41
1
10
9.1268369808605
20
1.60933249043498
30
0
41
1
10
9.10694049753326
20
1.59567468935509
30
0
41
1
10
9.10379883486763
20
1.59351918024186
30
0
41
1
10
9.10170436809193
20
1.59208239394843
30
0
41
1
10
9.10221950963296
20
1.59067105535127
30
0
41
1
10
9.10532885923718
20
1.58581323364436
30
0
41
1
10
9.10917080535955
20
1.58296796231349
30
0
41
1
10
9.12002882496117
20
1.57411473780687
30
0
41
1
10
9.12769337280665
20
1.56866205588295
30
0
41
1
10
9.16629968982244
20
1.54177126101675
30
0
41
1
10
9.198401632154
20
1.5217874340922
30
0
41
1
10
9.29487059511163
20
1.46209427079208
30
0
41
1
10
9.36000161848878
20
1.42347649408268
30
0
41
1
10
9.5559244676605
20
1.30856796319736
30
0
41
1
10
9.68746839936455
20
1.23350783250274
30
0
41
1
10
10.082827758644
20
1.01038939974782
30
0
41
1
10
10.3475159342794
20
0.864505401240592
30
0
41
1
10
10.8764600226156
20
0.575904992196428
30
0
41
1
10
11.1413703791747
20
0.433726648620819
30
0
41
1
10
11.5367041658315
20
0.221167871639551
30
0
41
1
10
11.6682563903167
20
0.150535355940662
30
0
41
1
10
11.8640839574751
20
0.044397552718209
30
0
41
1
10
11.9292700503938
20
0.0090468949222782
30
0
41
1
10
12.009121453994
20
-0.0357277641801943
30
0
41
1
10
12.0250215154288
20
-0.0447158892958441
30
0
41
1
10
12.0483479561855
20
-0.0583696481409959
30
0
41
1
10
12.0560683314618
20
-0.0629385288845015
30
0
41
1
10
12.0670998012022
20
-0.0699794229692259
30
0
41
1
10
12.0709971859404
20
-0.0723343398525742
30
0
41
1
10
12.0743072297225
20
-0.0755046042961567
30
0
41
1
10
12.074780093038
20
-0.0762716338351481
30
0
41
1
10
12.0729517516957
20
-0.0766351647074544
30
0
41
1
10
12.0702093473289
20
-0.0771791164038405
30
0
41
1
10
12.0382185144609
20
-0.0834781211532345
30
0
41
1
10
12.0071823788165
20
-0.0890785477313614
30
0
41
1
10
11.8613288501456
20
-0.113106949759953
30
0
41
1
10
11.7450885552627
20
-0.124884777556446
30
0
41
1
10
11.5145898834344
20
-0.132970294621629
30
0
41
1
10
11.4003793347579
20
-0.129327301717524
30
0
41
1
10
11.172442086558
20
-0.106461996657572
30
0
41
1
10
11.0587239315488
20
-0.0872393222834944
30
0
41
1
10
10.8297441973415
20
-0.0326486235122445
30
0
41
1
10
10.7138272390855
20
0.0030008387048497
30
0
41
1
10
10.4594970807587
20
0.0980223433726053
30
0
41
1
10
10.3210452942601
20
0.160529835086578
30
0
41
1
10
10.1799726604217
20
0.233154621937388
30
0
0
SPLINE
5
BA
100
AcDbEntity
8
1
62
256
6
ByLayer
370
18
48
1
60
0
100
AcDbSpline
70
4
71
3
72
12
73
8
40
0
40
0
40
0
40
0
40
0.206108395688659
40
0.206108395688659
40
0.510105552175793
40
0.510105552175793
40
1
40
1
40
1
40
1
41
1
10
60.7696868187449
20
-4.72358290866464
30
0
41
1
10
60.3642774123231
20
-4.73222544809568
30
0
41
1
10
59.9589302177124
20
-4.7224054385249
30
0
41
1
10
58.9533044943548
20
-4.65249239486701
30
0
41
1
10
58.3593351330531
20
-4.57124261770863
30
0
41
1
10
56.8144677564705
20
-4.26401690229088
30
0
41
1
10
55.8663515010939
20
-3.97964728155998
30
0
41
1
10
54.9075790842391
20
-3.61263216932636
30
0
0
SPLINE
5
BB
100
AcDbEntity
8
1
62
256
6
ByLayer
370
13
48
1
60
0
100
AcDbSpline
70
4
71
3
72
26
73
22
40
0
40
0
40
0
40
0
40
0.0643570495593658
40
0.0643570495593658
40
0.105771859159763
40
0.105771859159763
40
0.14718666876016
40
0.14718666876016
40
0.23001628796095
40
0.23001628796095
40
0.395675526362535
40
0.395675526362535
40
0.561334764764119
40
0.561334764764119
40
0.602749574364516
40
0.602749574364516
40
0.644164383964913
40
0.644164383964913
40
0.72699400316571
40
0.72699400316571
40
1
40
1
40
1
40
1
41
1
10
54.9075800181317
20
-3.61263252681752
30
0
41
1
10
54.6764464641004
20
-3.5241553303625
30
0
41
1
10
54.4446936179951
20
-3.43087511688398
30
0
41
1
10
54.0624213487731
20
-3.26995329555078
30
0
41
1
10
53.9125426217495
20
-3.20508179730928
30
0
41
1
10
53.6138806015022
20
-3.07249554879206
30
0
41
1
10
53.4648685185543
20
-3.0046880959417
30
0
41
1
10
53.0185828563306
20
-2.79704875326084
30
0
41
1
10
52.7220259735357
20
-2.65304290868178
30
0
41
1
10
51.8342544580816
20
-2.20602192233417
30
0
41
1
10
51.2446042346132
20
-1.88833995473689
30
0
41
1
10
50.061822407922
20
-1.22600738267386
30
0
41
1
10
49.4687119539036
20
-0.88131825760982
30
0
41
1
10
48.7209152924025
20
-0.44020451523204
30
0
41
1
10
48.5709137624443
20
-0.35143680314377
30
0
41
1
10
48.2719653702657
20
-0.174335827371891
30
0
41
1
10
48.1227969964954
20
-0.0858609908576113
30
0
41
1
10
47.6760243097913
20
0.179024977592292
30
0
41
1
10
47.3791403629315
20
0.354865091916423
30
0
41
1
10
46.1065356245607
20
1.10509754284593
30
0
41
1
10
45.1356607442878
20
1.66450767412309
30
0
41
1
10
44.1538204253991
20
2.18029327986798
30
0
0
SPLINE
5
BC
100
AcDbEntity
8
1
62
256
6
ByLayer
370
18
48
1
60
0
100
AcDbSpline
70
4
71
3
72
14
73
10
40
0
40
0
40
0
40
0
40
0.166126508373993
40
0.166126508373993
40
0.50759913769847
40
0.50759913769847
40
0.849071767022948
40
0.849071767022948
40
1
40
1
40
1
40
1
41
1
10
10.4803942155338
20
-4.69658315309039
30
0
41
1
10
10.1888345098089
20
-4.69645143830388
30
0
41
1
10
9.8985508369864
20
-4.68689907025197
30
0
41
1
10
9.01393319631572
20
-4.62947840060963
30
0
41
1
10
8.42217249034331
20
-4.55189006218387
30
0
41
1
10
7.23783213394262
20
-4.32285238072771
30
0
41
1
10
6.64540897772048
20
-4.1713326268044
30
0
41
1
10
5.78492107951942
20
-3.90285577203775
30
0
41
1
10
5.51986889082281
20
-3.81360211764229
30
0
41
1
10
5.25464954924598
20
-3.71808271398044
30
0
0
SPLINE
5
BD
100
AcDbEntity
8
1
62
256
6
ByLayer
370
13
48
1
60
0
100
AcDbSpline
70
4
71
3
72
10
73
6
40
0
40
0
40
0
40
0
40
0.103955203143661
40
0.103955203143661
40
1
40
1
40
1
40
1
41
1
10
5.25464954774569
20
-3.71808271344017
30
0
41
1
10
5.21984170428689
20
-3.70554658228551
30
0
41
1
10
5.18503098172172
20
-3.69290252742218
30
0
41
1
10
4.85016519079005
20
-3.5702496399791
30
0
41
1
10
4.55034120517268
20
-3.45258141854552
30
0
41
1
10
4.25033748240548
20
-3.32754798812985
30
0
0
SPLINE
5
BE
100
AcDbEntity
8
1
62
256
6
ByLayer
370
18
48
1
60
0
100
AcDbSpline
70
4
71
3
72
16
73
12
40
0
40
0
40
0
40
0
40
0.250000000000001
40
0.250000000000001
40
0.375000000000001
40
0.375000000000001
40
0.500000000000001
40
0.500000000000001
40
0.75
40
0.75
40
1
40
1
40
1
40
1
41
1
10
4.25126594072492
20
3.62496035064436
30
0
41
1
10
4.22541387363242
20
3.63826861800575
30
0
41
1
10
4.19858123250285
20
3.65320268699608
30
0
41
1
10
4.15668635191506
20
3.67895466491871
30
0
41
1
10
4.14282447550338
20
3.68787698170263
30
0
41
1
10
4.11536339275384
20
3.70656315582249
30
0
41
1
10
4.10180459611692
20
3.71632266918505
30
0
41
1
10
4.06432201626396
20
3.74519577014192
30
0
41
1
10
4.04278313976971
20
3.76465894290112
30
0
41
1
10
4.01316581629112
20
3.79830113053561
30
0
41
1
10
4.00484517954774
20
3.81242007784678
30
0
41
1
10
4.0016135830729
20
3.82378764692501
30
0
0
SPLINE
5
BF
100
AcDbEntity
8
1
62
256
6
ByLayer
370
18
48
1
60
0
100
AcDbSpline
70
4
71
3
72
56
73
52
40
0
40
0
40
0
40
0
40
0.0726244860045601
40
0.0726244860045601
40
0.10893672900684
40
0.10893672900684
40
0.14524897200912
40
0.14524897200912
40
0.1815612150114
40
0.1815612150114
40
0.21787345801368
40
0.21787345801368
40
0.254185701015961
40
0.254185701015961
40
0.290497944018241
40
0.290497944018241
40
0.3631224300228
40
0.3631224300228
40
0.39943467302508
40
0.39943467302508
40
0.435746916027359
40
0.435746916027359
40
0.472059159029639
40
0.472059159029639
40
0.508371402031919
40
0.508371402031919
40
0.544683645034198
40
0.544683645034198
40
0.580995888036478
40
0.580995888036478
40
0.617308131038758
40
0.617308131038758
40
0.653620374041037
40
0.653620374041037
40
0.726244860045597
40
0.726244860045597
40
0.762557103047876
40
0.762557103047876
40
0.798869346050156
40
0.798869346050156
40
0.835181589052436
40
0.835181589052436
40
0.871493832054716
40
0.871493832054716
40
0.907806075056995
40
0.907806075056995
40
0.944118318059275
40
0.944118318059275
40
0.980430561061555
40
0.980430561061555
40
1
40
1
40
1
40
1
41
1
10
14.3301105707583
20
4.06868829418377
30
0
41
1
10
14.8239605540498
20
3.89564082750309
30
0
41
1
10
15.3164180212249
20
3.70302940763742
30
0
41
1
10
16.0502009833999
20
3.38310912836133
30
0
41
1
10
16.2936684647919
20
3.27082516576132
30
0
41
1
10
16.7817668529883
20
3.03919197774354
30
0
41
1
10
17.0260778502779
20
2.91949853832691
30
0
41
1
10
17.5147160162132
20
2.67176191217331
30
0
41
1
10
17.759009308945
20
2.54366698328198
30
0
41
1
10
18.2474508965791
20
2.27864291551592
30
0
41
1
10
18.4924224546458
20
2.14289532091996
30
0
41
1
10
18.9844724738388
20
1.86589853035926
30
0
41
1
10
19.2315396923412
20
1.72425553602233
30
0
41
1
10
19.726269511219
20
1.43453589925397
30
0
41
1
10
19.9719044242133
20
1.28676076028361
30
0
41
1
10
20.7085429570797
20
0.842759877290433
30
0
41
1
10
21.1985688919065
20
0.544700245298515
30
0
41
1
10
21.9294131995582
20
0.0902686794212855
30
0
41
1
10
22.1730378353546
20
-0.0612689982924906
30
0
41
1
10
22.6615341229623
20
-0.362445600576479
30
0
41
1
10
22.9061219415556
20
-0.512550753929389
30
0
41
1
10
23.3955802592972
20
-0.812449054785588
30
0
41
1
10
23.640055753568
20
-0.962893229265063
30
0
41
1
10
24.1313282164624
20
-1.26011711122018
30
0
41
1
10
24.3785762269591
20
-1.4069150677114
30
0
41
1
10
24.8734862689315
20
-1.69667185571896
30
0
41
1
10
25.1199198146786
20
-1.83882934508247
30
0
41
1
10
25.610303451781
20
-2.11840769012437
30
0
41
1
10
25.8547110276396
20
-2.25508657072032
30
0
41
1
10
26.343904856287
20
-2.51956261298707
30
0
41
1
10
26.5883208137197
20
-2.64793127545087
30
0
41
1
10
27.076383578668
20
-2.89753773606392
30
0
41
1
10
27.3196862628395
20
-3.01920452976714
30
0
41
1
10
28.0506822047774
20
-3.37031583973444
30
0
41
1
10
28.5408937591433
20
-3.58441714189365
30
0
41
1
10
29.2774948087605
20
-3.87867120250337
30
0
41
1
10
29.5237552331393
20
-3.97208871280037
30
0
41
1
10
30.0183331995198
20
-4.14596686720378
30
0
41
1
10
30.2648950255778
20
-4.22648255513855
30
0
41
1
10
30.7561789529598
20
-4.37530951722766
30
0
41
1
10
31.0006314149666
20
-4.4437930446868
30
0
41
1
10
31.4886743361207
20
-4.5677095425614
30
0
41
1
10
31.7329271875509
20
-4.62275189821136
30
0
41
1
10
32.2212054553102
20
-4.71977889230328
30
0
41
1
10
32.4652592852278
20
-4.76174116940931
30
0
41
1
10
32.9527862117849
20
-4.83255611779705
30
0
41
1
10
33.1961779849971
20
-4.86135272379724
30
0
41
1
10
33.685396667763
20
-4.90473740359772
30
0
41
1
10
33.930761345089
20
-4.91952336350011
30
0
41
1
10
34.3091987464094
20
-4.93158739313634
30
0
41
1
10
34.4419273736478
20
-4.93378740155197
30
0
41
1
10
34.5747655480269
20
-4.93391952317981
30
0
0
SPLINE
5
C0
100
AcDbEntity
8
1
62
256
6
ByLayer
370
18
48
1
60
0
100
AcDbSpline
70
4
71
3
72
26
73
22
40
0
40
0
40
0
40
0
40
0.0502462820336702
40
0.0502462820336702
40
0.145221653830303
40
0.145221653830303
40
0.240197025626936
40
0.240197025626936
40
0.430147769220205
40
0.430147769220205
40
0.525123141016838
40
0.525123141016838
40
0.62009851281347
40
0.62009851281347
40
0.715073884610102
40
0.715073884610102
40
0.810049256406735
40
0.810049256406735
40
0.905024628203368
40
0.905024628203368
40
1
40
1
40
1
40
1
41
1
10
53.6245788553982
20
3.62286263940257
30
0
41
1
10
53.7534773875776
20
3.67771216968975
30
0
41
1
10
53.8824951352017
20
3.7311301020041
30
0
41
1
10
54.2563516815152
20
3.88068564098776
30
0
41
1
10
54.5015923710987
20
3.97307008404357
30
0
41
1
10
54.9931436296697
20
4.14727969998984
30
0
41
1
10
55.2396544450261
20
4.22941958853718
30
0
41
1
10
55.9791232136152
20
4.45742782211329
30
0
41
1
10
56.4705677667135
20
4.58159188123085
30
0
41
1
10
57.2026899875517
20
4.72974605013221
30
0
41
1
10
57.4457503994873
20
4.77268012637697
30
0
41
1
10
57.9332053214978
20
4.84429472547609
30
0
41
1
10
58.1771530692942
20
4.8732390186311
30
0
41
1
10
58.6650497009524
20
4.91758877988613
30
0
41
1
10
58.9088700659695
20
4.93300297524522
30
0
41
1
10
59.3967450262405
20
4.94982550119224
30
0
41
1
10
59.6416705956954
20
4.95117101308154
30
0
41
1
10
60.1333597528949
20
4.93983702586621
30
0
41
1
10
60.3803906677826
20
4.92713134534472
30
0
41
1
10
60.8742308038434
20
4.88732130066956
30
0
41
1
10
61.1200143700118
20
4.86013045281277
30
0
41
1
10
61.3664412939865
20
4.82621756460958
30
0
0
SPLINE
5
C1
100
AcDbEntity
8
1
62
256
6
ByLayer
370
13
48
1
60
0
100
AcDbSpline
70
4
71
3
72
22
73
18
40
0
40
0
40
0
40
0
40
0.116077076212238
40
0.116077076212238
40
0.232154152424475
40
0.232154152424475
40
0.464308304848948
40
0.464308304848948
40
0.696462457273421
40
0.696462457273421
40
0.812539533485658
40
0.812539533485658
40
0.870578071591776
40
0.870578071591776
40
0.928616609697894
40
0.928616609697894
40
1
40
1
40
1
40
1
41
1
10
4.19860729526511
20
-3.45775666879285
30
0
41
1
10
4.49889730330227
20
-3.58321621294925
30
0
41
1
10
4.79899103730713
20
-3.70101065140923
30
0
41
1
10
5.39963159486791
20
-3.920493958441
30
0
41
1
10
5.69991242267531
20
-4.02204185335543
30
0
41
1
10
6.59562433386034
20
-4.29910514518201
30
0
41
1
10
7.1882980713867
20
-4.44800510184675
30
0
41
1
10
8.37315580420804
20
-4.66962518631107
30
0
41
1
10
8.96517042266015
20
-4.7424847738323
30
0
41
1
10
9.85837938192122
20
-4.79188459972838
30
0
41
1
10
10.1569571644951
20
-4.79835615471004
30
0
41
1
10
10.6069302651125
20
-4.79275922466044
30
0
41
1
10
10.7571997895605
20
-4.78833184067943
30
0
41
1
10
11.0566211764576
20
-4.7744300626608
30
0
41
1
10
11.2060111061455
20
-4.76495472627855
30
0
41
1
10
11.5385449812961
20
-4.7382608617354
30
0
41
1
10
11.7215655971029
20
-4.71978151193707
30
0
41
1
10
11.9043112852154
20
-4.6976162072302
30
0
0
SPLINE
5
C2
100
AcDbEntity
8
1
62
256
6
ByLayer
370
18
48
1
60
0
100
AcDbSpline
70
4
71
3
72
24
73
20
40
0
40
0
40
0
40
0
40
0.0214082915394706
40
0.0214082915394706
40
0.0786494821630447
40
0.0786494821630447
40
0.13589067278662
40
0.13589067278662
40
0.364855435280922
40
0.364855435280922
40
0.593820197775225
40
0.593820197775225
40
0.708302579022379
40
0.708302579022379
40
0.765543769645957
40
0.765543769645957
40
0.822784960269536
40
0.822784960269536
40
1
40
1
40
1
40
1
41
1
10
47.7808955554767
20
0.0023615491703595
30
0
41
1
10
47.8365723671675
20
-0.0313328750544599
30
0
41
1
10
47.8922825559186
20
-0.0650502699866422
30
0
41
1
10
48.0970802934985
20
-0.188993482901964
30
0
41
1
10
48.246388224615
20
-0.279335148665155
30
0
41
1
10
48.5456402585467
20
-0.460086776327842
30
0
41
1
10
48.695783027698
20
-0.550628482277943
30
0
41
1
10
49.4439248723028
20
-1.00009356454805
30
0
41
1
10
50.0372140304256
20
-1.35031714872858
30
0
41
1
10
51.2204016785088
20
-2.02156854274682
30
0
41
1
10
51.8102474458974
20
-2.34267122226802
30
0
41
1
10
52.6984775807903
20
-2.79320323094186
30
0
41
1
10
52.9952253133321
20
-2.93808976046748
30
0
41
1
10
53.4418807703088
20
-3.1466176100293
30
0
41
1
10
53.591030060498
20
-3.21464893641289
30
0
41
1
10
53.8899968492299
20
-3.347538637463
30
0
41
1
10
54.0400676631101
20
-3.41249970881708
30
0
41
1
10
54.6534333624625
20
-3.67042474322301
30
0
41
1
10
55.1136401261387
20
-3.84623688871466
30
0
41
1
10
55.5722500527636
20
-4.00160682024853
30
0
0
SPLINE
5
C3
100
AcDbEntity
8
1
62
256
6
ByLayer
370
13
48
1
60
0
100
AcDbSpline
70
4
71
3
72
16
73
12
40
0
40
0
40
0
40
0
40
0.380040189555474
40
0.380040189555474
40
0.535030142166606
40
0.535030142166606
40
0.690020094777737
40
0.690020094777737
40
0.845010047388869
40
0.845010047388869
40
1
40
1
40
1
40
1
41
1
10
55.5722509993597
20
-4.00160714094054
30
0
41
1
10
56.2987039750707
20
-4.24771810071778
30
0
41
1
10
57.0211502364586
20
-4.44253630089085
30
0
41
1
10
58.0427280509169
20
-4.6373191978517
30
0
41
1
10
58.3392750507868
20
-4.6843457992878
30
0
41
1
10
58.934403496873
20
-4.75889553217093
30
0
41
1
10
59.2332687218329
20
-4.78643359489612
30
0
41
1
10
59.8329857363193
20
-4.82111410993846
30
0
41
1
10
60.132283173592
20
-4.82818740559637
30
0
41
1
10
60.7306711988251
20
-4.82183333224495
30
0
41
1
10
61.0297759340791
20
-4.80808361275379
30
0
41
1
10
61.3291581311536
20
-4.78473221081279
30
0
0
SPLINE
5
C4
100
AcDbEntity
8
1
62
256
6
ByLayer
370
18
48
1
60
0
100
AcDbSpline
70
4
71
3
72
12
73
8
40
0
40
0
40
0
40
0
40
0.250000000000004
40
0.250000000000004
40
0.500000000000008
40
0.500000000000008
40
1
40
1
40
1
40
1
41
1
10
61.3291581311532
20
-4.78473221081282
30
0
41
1
10
61.3341566527089
20
-4.77139984463844
30
0
41
1
10
61.3389051898652
20
-4.75771864707721
30
0
41
1
10
61.3464802393164
20
-4.73326957741409
30
0
41
1
10
61.3492711717037
20
-4.72255625588599
30
0
41
1
10
61.3536549591089
20
-4.699579603335
30
0
41
1
10
61.3517251414041
20
-4.69569868703539
30
0
41
1
10
61.3474734826901
20
-4.69877164260529
30
0
0
SPLINE
5
C5
100
AcDbEntity
8
1
62
256
6
ByLayer
370
18
48
1
60
0
100
AcDbSpline
70
4
71
3
72
68
73
64
40
0
40
0
40
0
40
0
40
0.0625000000000041
40
0.0625000000000041
40
0.125000000000008
40
0.125000000000008
40
0.250000000000017
40
0.250000000000017
40
0.375000000000026
40
0.375000000000026
40
0.437500000000031
40
0.437500000000031
40
0.500000000000037
40
0.500000000000037
40
0.562500000000042
40
0.562500000000042
40
0.625000000000047
40
0.625000000000047
40
0.65625000000005
40
0.65625000000005
40
0.66015625000005
40
0.66015625000005
40
0.66406250000005
40
0.66406250000005
40
0.667968750000049
40
0.667968750000049
40
0.669921875000049
40
0.669921875000049
40
0.671875000000049
40
0.671875000000049
40
0.687500000000047
40
0.687500000000047
40
0.718750000000043
40
0.718750000000043
40
0.73437500000004
40
0.73437500000004
40
0.750000000000038
40
0.750000000000038
40
0.757812500000037
40
0.757812500000037
40
0.765625000000036
40
0.765625000000036
40
0.781250000000033
40
0.781250000000033
40
0.789062500000032
40
0.789062500000032
40
0.796875000000031
40
0.796875000000031
40
0.812500000000028
40
0.812500000000028
40
0.828125000000026
40
0.828125000000026
40
0.843750000000023
40
0.843750000000023
40
0.85937500000002
40
0.85937500000002
40
0.875000000000018
40
0.875000000000018
40
0.906250000000013
40
0.906250000000013
40
0.937500000000009
40
0.937500000000009
40
1
40
1
40
1
40
1
41
1
10
14.330149531592
20
4.06864921686486
30
0
41
1
10
14.0146172903066
20
4.17868231524733
30
0
41
1
10
13.6973896331031
20
4.27692527149227
30
0
41
1
10
13.0582969856905
20
4.45095787592777
30
0
41
1
10
12.7358375174604
20
4.52683646748633
30
0
41
1
10
11.7632524371709
20
4.72139684302198
30
0
41
1
10
11.1107540210748
20
4.80626685829233
30
0
41
1
10
9.78469327942372
20
4.9064953637118
30
0
41
1
10
9.11101600105812
20
4.92192229092404
30
0
41
1
10
8.07666094298867
20
4.91555933373641
30
0
41
1
10
7.72793380993761
20
4.90859210649205
30
0
41
1
10
7.02167420118457
20
4.8891694168837
30
0
41
1
10
6.66359582577792
20
4.87670505281699
30
0
41
1
10
5.94045048961164
20
4.85048553647809
30
0
41
1
10
5.57649541968357
20
4.83679255661875
30
0
41
1
10
4.84349978719644
20
4.8117811005956
30
0
41
1
10
4.47474828869477
20
4.80048252290905
30
0
41
1
10
3.92000476604028
20
4.78734414618557
30
0
41
1
10
3.73473274689292
20
4.78358850518185
30
0
41
1
10
3.52588890565008
20
4.78019279079535
30
0
41
1
10
3.50267829800785
20
4.77982696783019
30
0
41
1
10
3.45624556786487
20
4.77911865269579
30
0
41
1
10
3.43286736337913
20
4.77864541855928
30
0
41
1
10
3.3867216763278
20
4.77937797199334
30
0
41
1
10
3.36339188709826
20
4.78041660522808
30
0
41
1
10
3.3317025305744
20
4.78353708049033
30
0
41
1
10
3.32187998581429
20
4.78488124293921
30
0
41
1
10
3.30184755001213
20
4.78738698179419
30
0
41
1
10
3.29185068285818
20
4.78863878301607
30
0
41
1
10
3.20205642863303
20
4.79989359920506
30
0
41
1
10
3.12337363524765
20
4.80983534288183
30
0
41
1
10
2.89343811128489
20
4.83885557329862
30
0
41
1
10
2.74774331378347
20
4.85725122308614
30
0
41
1
10
2.54574165046392
20
4.88099227828113
30
0
41
1
10
2.48095825732014
20
4.88827448583521
30
0
41
1
10
2.35960778304326
20
4.90068587341298
30
0
41
1
10
2.30369383682043
20
4.90575091769082
30
0
41
1
10
2.22835832610787
20
4.9109976405056
30
0
41
1
10
2.20467408302201
20
4.91235259534176
30
0
41
1
10
2.16047214703642
20
4.91413363321965
30
0
41
1
10
2.13985704951756
20
4.91455733712127
30
0
41
1
10
2.08423307848753
20
4.91419313917396
30
0
41
1
10
2.05534111811903
20
4.91180095416613
30
0
41
1
10
2.0249009385906
20
4.90446918011392
30
0
41
1
10
2.01690609821981
20
4.90140047042766
30
0
41
1
10
2.00535194450299
20
4.89391435506298
30
0
41
1
10
2.00179634997002
20
4.88946147613652
30
0
41
1
10
1.99802095716345
20
4.87424703958987
30
0
41
1
10
2.00449701328054
20
4.86165299133287
30
0
41
1
10
2.03305031784487
20
4.83179773175974
30
0
41
1
10
2.05539707796197
20
4.81439097403737
30
0
41
1
10
2.11175495414099
20
4.77640685392052
30
0
41
1
10
2.14579519249864
20
4.75574142176441
30
0
41
1
10
2.22314665484725
20
4.71148092280407
30
0
41
1
10
2.26654873392252
20
4.68784315105634
30
0
41
1
10
2.36066453333564
20
4.63808541060817
30
0
41
1
10
2.41080983426073
20
4.6122622102136
30
0
41
1
10
2.56844252682535
20
4.53229579653666
30
0
41
1
10
2.68302107627977
20
4.47567426910973
30
0
41
1
10
2.92489044953595
20
4.35682511354605
30
0
41
1
10
3.05280448990177
20
4.29431790783312
30
0
41
1
10
3.44598635470464
20
4.1014692141114
30
0
41
1
10
3.7203972854291
20
3.96585663254234
30
0
41
1
10
4.00161358306695
20
3.823787646928
30
0
0
SPLINE
5
C6
100
AcDbEntity
8
1
62
256
6
ByLayer
370
18
48
1
60
0
100
AcDbSpline
70
4
71
3
72
86
73
82
40
0
40
0
40
0
40
0
40
0.012823370656222
40
0.012823370656222
40
0.0365701538178544
40
0.0365701538178544
40
0.0603169369794868
40
0.0603169369794868
40
0.0840637201411191
40
0.0840637201411191
40
0.107810503302752
40
0.107810503302752
40
0.131557286464384
40
0.131557286464384
40
0.155304069626016
40
0.155304069626016
40
0.179050852787649
40
0.179050852787649
40
0.202797635949281
40
0.202797635949281
40
0.250291202272547
40
0.250291202272547
40
0.274037985434179
40
0.274037985434179
40
0.297784768595811
40
0.297784768595811
40
0.321531551757444
40
0.321531551757444
40
0.345278334919076
40
0.345278334919076
40
0.369025118080709
40
0.369025118080709
40
0.392771901242341
40
0.392771901242341
40
0.440265467565607
40
0.440265467565607
40
0.46401225072724
40
0.46401225072724
40
0.487759033888873
40
0.487759033888873
40
0.511505817050506
40
0.511505817050506
40
0.535252600212139
40
0.535252600212139
40
0.558999383373772
40
0.558999383373772
40
0.582746166535405
40
0.582746166535405
40
0.606492949697037
40
0.606492949697037
40
0.63023973285867
40
0.63023973285867
40
0.677733299181935
40
0.677733299181935
40
0.689606690762751
40
0.689606690762751
40
0.701480082343567
40
0.701480082343567
40
0.7252268655052
40
0.7252268655052
40
0.748973648666832
40
0.748973648666832
40
0.772720431828465
40
0.772720431828465
40
0.796467214990097
40
0.796467214990097
40
0.82021399815173
40
0.82021399815173
40
0.843960781313362
40
0.843960781313362
40
0.867707564474994
40
0.867707564474994
40
0.91520113079826
40
0.91520113079826
40
0.938947913959893
40
0.938947913959893
40
0.962694697121526
40
0.962694697121526
40
0.986441480283159
40
0.986441480283159
40
1
40
1
40
1
40
1
41
1
10
28.6344202470661
20
3.61772603555539
30
0
41
1
10
28.7668449092607
20
3.67334690416095
30
0
41
1
10
28.8993718225327
20
3.72762033967163
30
0
41
1
10
29.2774948087569
20
3.87867120250198
30
0
41
1
10
29.5237552331357
20
3.97208871279901
30
0
41
1
10
30.018333199516
20
4.1459668672025
30
0
41
1
10
30.264895025574
20
4.22648255513732
30
0
41
1
10
30.7561789529558
20
4.37530951722653
30
0
41
1
10
31.0006314149626
20
4.44379304468572
30
0
41
1
10
31.4886743361167
20
4.56770954256044
30
0
41
1
10
31.7329271875468
20
4.62275189821045
30
0
41
1
10
32.2212054553059
20
4.71977889230251
30
0
41
1
10
32.4652592852235
20
4.76174116940859
30
0
41
1
10
32.9527862117806
20
4.83255611779649
30
0
41
1
10
33.1961779849926
20
4.86135272379676
30
0
41
1
10
33.6853966677584
20
4.90473740359741
30
0
41
1
10
33.9307613450843
20
4.91952336349988
30
0
41
1
10
34.4225830083073
20
4.9352019172058
30
0
41
1
10
34.6691895438254
20
4.93606980047008
30
0
41
1
10
35.4093231513354
20
4.91693237545559
30
0
41
1
10
35.9011332818851
20
4.87610161119571
30
0
41
1
10
36.6339496615842
20
4.77398821749549
30
0
41
1
10
36.8771663598924
20
4.73288138428364
30
0
41
1
10
37.3649028391204
20
4.63817914737643
30
0
41
1
10
37.609010344977
20
4.58446223619364
30
0
41
1
10
38.0972410115808
20
4.46409745330263
30
0
41
1
10
38.3412763033356
20
4.39737636602584
30
0
41
1
10
38.8294149475956
20
4.25063498022985
30
0
41
1
10
39.0743870955059
20
4.1713119963687
30
0
41
1
10
39.5662687995092
20
4.00097740689787
30
0
41
1
10
39.813413003915
20
3.90972416949384
30
0
41
1
10
40.3074979813793
20
3.71516813431822
30
0
41
1
10
40.5528304240809
20
3.61192596475422
30
0
41
1
10
41.2888628366725
20
3.29042570023628
30
0
41
1
10
41.7783097985891
20
3.05924775594284
30
0
41
1
10
42.5084253156176
20
2.68458393235633
30
0
41
1
10
42.7519693854749
20
2.55613698551784
30
0
41
1
10
43.2401193590195
20
2.29327281978871
30
0
41
1
10
43.4845137719307
20
2.15856811433278
30
0
41
1
10
43.9735534217116
20
1.88193891102799
30
0
41
1
10
44.2177960321862
20
1.73935588508059
30
0
41
1
10
44.7088893543357
20
1.4504100115042
30
0
41
1
10
44.9560679605985
20
1.30374829457367
30
0
41
1
10
45.4505482654057
20
1.00657345784347
30
0
41
1
10
45.696739338227
20
0.856785897649985
30
0
41
1
10
46.1866351433201
20
0.554164206286714
30
0
41
1
10
46.4309686830271
20
0.402378049091027
30
0
41
1
10
46.9198396821794
20
0.100192673202173
30
0
41
1
10
47.1640713356068
20
-0.0507143315850556
30
0
41
1
10
47.6517269226713
20
-0.352817067430664
30
0
41
1
10
47.8947628407556
20
-0.504642671878202
30
0
41
1
10
48.6254695121594
20
-0.955936137458622
30
0
41
1
10
49.1153687307509
20
-1.2502450218617
30
0
41
1
10
49.7287634637994
20
-1.61380112202366
30
0
41
1
10
49.851472584032
20
-1.68632651733679
30
0
41
1
10
50.0976583723713
20
-1.82987087673615
30
0
41
1
10
50.2212973383089
20
-1.90097276684077
30
0
41
1
10
50.5919350600966
20
-2.11165796637132
30
0
41
1
10
50.8382802771431
20
-2.24838318870533
30
0
41
1
10
51.329098239077
20
-2.51513294453235
30
0
41
1
10
51.5732492994819
20
-2.64558890407144
30
0
41
1
10
52.060995531546
20
-2.89786434745275
30
0
41
1
10
52.3051026875594
20
-3.01903012673901
30
0
41
1
10
52.7930364781446
20
-3.25263643228234
30
0
41
1
10
53.0369079059578
20
-3.36501438472081
30
0
41
1
10
53.5240408784716
20
-3.58128211585438
30
0
41
1
10
53.7673452069449
20
-3.6850661511271
30
0
41
1
10
54.2563516815056
20
-3.88068564098407
30
0
41
1
10
54.501592371089
20
-3.97307008404002
30
0
41
1
10
54.9931436296599
20
-4.14727969998651
30
0
41
1
10
55.2396544450162
20
-4.22941958853394
30
0
41
1
10
55.9791232136051
20
-4.45742782211056
30
0
41
1
10
56.4705677667034
20
-4.58159188122849
30
0
41
1
10
57.2026899875415
20
-4.7297460501303
30
0
41
1
10
57.445750399477
20
-4.77268012637526
30
0
41
1
10
57.9332053214874
20
-4.84429472547475
30
0
41
1
10
58.1771530692838
20
-4.87323901862996
30
0
41
1
10
58.6650497009417
20
-4.91758877988536
30
0
41
1
10
58.9088700659589
20
-4.93300297524465
30
0
41
1
10
59.2920866691478
20
-4.94621675290412
30
0
41
1
10
59.4316879073766
20
-4.94871584662857
30
0
41
1
10
59.5715984027075
20
-4.94892143013195
30
0
0
SPLINE
5
C7
100
AcDbEntity
8
1
62
256
6
ByLayer
370
18
48
1
60
0
100
AcDbSpline
70
4
71
3
72
90
73
86
40
0
40
0
40
0
40
0
40
0.0045311783234493
40
0.0045311783234493
40
0.0292823907070668
40
0.0292823907070668
40
0.0540336030906843
40
0.0540336030906843
40
0.0787848154743018
40
0.0787848154743018
40
0.103536027857919
40
0.103536027857919
40
0.128287240241537
40
0.128287240241537
40
0.153038452625154
40
0.153038452625154
40
0.177789665008772
40
0.177789665008772
40
0.227292089776007
40
0.227292089776007
40
0.252043302159625
40
0.252043302159625
40
0.276794514543243
40
0.276794514543243
40
0.301545726926861
40
0.301545726926861
40
0.326296939310479
40
0.326296939310479
40
0.351048151694097
40
0.351048151694097
40
0.375799364077715
40
0.375799364077715
40
0.400550576461333
40
0.400550576461333
40
0.425301788844951
40
0.425301788844951
40
0.450053001228569
40
0.450053001228569
40
0.474804213612187
40
0.474804213612187
40
0.499555425995805
40
0.499555425995805
40
0.524306638379423
40
0.524306638379423
40
0.549057850763041
40
0.549057850763041
40
0.573809063146659
40
0.573809063146659
40
0.598560275530277
40
0.598560275530277
40
0.623311487913895
40
0.623311487913895
40
0.648062700297513
40
0.648062700297513
40
0.672813912681131
40
0.672813912681131
40
0.69756512506475
40
0.69756512506475
40
0.722316337448368
40
0.722316337448368
40
0.747067549831986
40
0.747067549831986
40
0.771818762215604
40
0.771818762215604
40
0.796569974599222
40
0.796569974599222
40
0.82132118698284
40
0.82132118698284
40
0.846072399366458
40
0.846072399366458
40
0.870823611750076
40
0.870823611750076
40
0.883199217941885
40
0.883199217941885
40
0.895574824133694
40
0.895574824133694
40
0.920326036517313
40
0.920326036517313
40
0.945077248900932
40
0.945077248900932
40
0.969828461284551
40
0.969828461284551
40
0.99457967366817
40
0.99457967366817
40
1
40
1
40
1
40
1
41
1
10
53.6461689125684
20
-3.62538707453939
30
0
41
1
10
53.6000907695629
20
-3.64295969504516
30
0
41
1
10
53.5540151050764
20
-3.66033671874604
30
0
41
1
10
53.2563277581667
20
-3.7712805995063
30
0
41
1
10
53.0055168092033
20
-3.85872533409463
30
0
41
1
10
52.505285719669
20
-4.02075845718332
30
0
41
1
10
52.2559640096462
20
-4.09566059593271
30
0
41
1
10
51.75822228316
20
-4.23423877260385
30
0
41
1
10
51.5094783775226
20
-4.29752771300866
30
0
41
1
10
51.0119861125222
20
-4.41161288467075
30
0
41
1
10
50.7632350995952
20
-4.46241671334175
30
0
41
1
10
50.265839155333
20
-4.55114109457998
30
0
41
1
10
50.0172737297682
20
-4.58911873062902
30
0
41
1
10
49.5184441487196
20
-4.64997123470749
30
0
41
1
10
49.2682640728339
20
-4.67257986280643
30
0
41
1
10
48.7664491386535
20
-4.70485671712211
30
0
41
1
10
48.5145035512031
20
-4.7150599324774
30
0
41
1
10
47.7598078565353
20
-4.72453061710388
30
0
41
1
10
47.259698996196
20
-4.70040751467539
30
0
41
1
10
46.5127202000699
20
-4.62649434827983
30
0
41
1
10
46.2643910964991
20
-4.59513983400464
30
0
41
1
10
45.7673180163714
20
-4.51780076795018
30
0
41
1
10
45.5186812189856
20
-4.47184221839416
30
0
41
1
10
45.021161385674
20
-4.36875193931047
30
0
41
1
10
44.7724605806726
20
-4.31110299176865
30
0
41
1
10
44.274276737309
20
-4.18223299726785
30
0
41
1
10
44.0244437183585
20
-4.11083169347768
30
0
41
1
10
43.5231153205551
20
-3.95629162759988
30
0
41
1
10
43.2713474910273
20
-3.87348316714019
30
0
41
1
10
42.7677874345202
20
-3.69556976632399
30
0
41
1
10
42.5172760384397
20
-3.60084502864498
30
0
41
1
10
42.0171171974603
20
-3.40137378757569
30
0
41
1
10
41.7675224480333
20
-3.29709132450819
30
0
41
1
10
41.2692177066946
20
-3.08003732484994
30
0
41
1
10
41.0207204934804
20
-2.96681218659589
30
0
41
1
10
40.5240524568192
20
-2.73146875293114
30
0
41
1
10
40.2756183969185
20
-2.60961658857687
30
0
41
1
10
39.7782960142225
20
-2.35955341423678
30
0
41
1
10
39.5294154588983
20
-2.23119464774339
30
0
41
1
10
39.0313425681927
20
-1.96668257633942
30
0
41
1
10
38.7820260430862
20
-1.830436161135
30
0
41
1
10
38.2813128348552
20
-1.55332480398439
30
0
41
1
10
38.0301598884127
20
-1.41252928088321
30
0
41
1
10
37.5260102785664
20
-1.12547184407623
30
0
41
1
10
37.2752683764219
20
-0.980085830967596
30
0
41
1
10
36.7752671553791
20
-0.687686628106576
30
0
41
1
10
36.5257145998797
20
-0.54112383173117
30
0
41
1
10
36.0273101605036
20
-0.247576218858569
30
0
41
1
10
35.7784830193058
20
-0.100586314137814
30
0
41
1
10
35.2817441129896
20
0.194058749709484
30
0
41
1
10
35.0336703987792
20
0.341423204113624
30
0
41
1
10
34.5366943099774
20
0.634010857467615
30
0
41
1
10
34.2879536703518
20
0.779478388119657
30
0
41
1
10
33.7897529008712
20
1.06825751599217
30
0
41
1
10
33.540468453022
20
1.21186067525261
30
0
41
1
10
33.0404473735663
20
1.49576720396357
30
0
41
1
10
32.7896464794192
20
1.63600708584212
30
0
41
1
10
32.2859193439792
20
1.91195654202235
30
0
41
1
10
32.0343892751893
20
2.04683338371416
30
0
41
1
10
31.5341902506622
20
2.30918692634737
30
0
41
1
10
31.2848792731299
20
2.43720232536484
30
0
41
1
10
30.7866194521608
20
2.68478798971978
30
0
41
1
10
30.537807651981
20
2.8045854762247
30
0
41
1
10
30.0407512345394
20
3.0346015554521
30
0
41
1
10
29.7926898784573
20
3.14528258771259
30
0
41
1
10
29.2962176885304
20
3.35823284427747
30
0
41
1
10
29.0476993064924
20
3.46003867566745
30
0
41
1
10
28.5497953916553
20
3.65297507748062
30
0
41
1
10
28.3003124656905
20
3.74345624753309
30
0
41
1
10
27.8007094660641
20
3.91511526845784
30
0
41
1
10
27.5504276608839
20
3.99622028523464
30
0
41
1
10
27.1731794977617
20
4.10863842961339
30
0
41
1
10
27.0470716304765
20
4.14458824915073
30
0
41
1
10
26.7957121520079
20
4.21254657189272
30
0
41
1
10
26.670278406361
20
4.24466670298102
30
0
41
1
10
26.2945605869434
20
4.33661676788117
30
0
41
1
10
26.0450832712648
20
4.39235111252597
30
0
41
1
10
25.5469008793855
20
4.49091613995714
30
0
41
1
10
25.2981326033186
20
4.53356837005427
30
0
41
1
10
24.8009686216224
20
4.60273687681186
30
0
41
1
10
24.5524988388955
20
4.63060291554058
30
0
41
1
10
24.056086502037
20
4.6748384743598
30
0
41
1
10
23.8079141960237
20
4.69078982243803
30
0
41
1
10
23.5046533165712
20
4.70110097183658
30
0
41
1
10
23.4501436226966
20
4.70255101239007
30
0
41
1
10
23.3956063565791
20
4.70362401013628
30
0
0
SPLINE
5
C8
100
AcDbEntity
8
1
62
256
6
ByLayer
370
18
48
1
60
0
100
AcDbSpline
70
4
71
3
72
8
73
4
40
0
40
0
40
0
40
0
40
1
40
1
40
1
40
1
41
1
10
61.3474734826918
20
-4.69877164260407
30
0
41
1
10
61.321533335118
20
-4.71752030666619
30
0
41
1
10
61.2988653022179
20
-4.72697125218372
30
0
41
1
10
61.2795274775111
20
-4.72695940633051
30
0
0
SPLINE
5
C9
100
AcDbEntity
8
1
62
256
6
ByLayer
370
18
48
1
60
0
100
AcDbSpline
70
4
71
3
72
20
73
16
40
0
40
0
40
0
40
0
40
0.25
40
0.25
40
0.5
40
0.5
40
0.625
40
0.625
40
0.75
40
0.75
40
0.874999999999999
40
0.874999999999999
40
0.9375
40
0.9375
40
1
40
1
40
1
40
1
41
1
10
61.0549992750413
20
1.44757250281623
30
0
41
1
10
61.1945713239021
20
1.47933331151745
30
0
41
1
10
61.3333094016451
20
1.5159181236252
30
0
41
1
10
61.6040512891994
20
1.60493883746111
30
0
41
1
10
61.7363699519498
20
1.65679256186064
30
0
41
1
10
61.9250011701856
20
1.75921686983068
30
0
41
1
10
61.9852954018668
20
1.79712253394422
30
0
41
1
10
62.0976057675354
20
1.88508440283326
30
0
41
1
10
62.1491467073521
20
1.93495633344813
30
0
41
1
10
62.2329702644701
20
2.04892933805851
30
0
41
1
10
62.2656951741482
20
2.1150698779208
30
0
41
1
10
62.2902492440234
20
2.22024158583204
30
0
41
1
10
62.2945642605386
20
2.25681562342953
30
0
41
1
10
62.2955256811666
20
2.32900994521336
30
0
41
1
10
62.2923223804086
20
2.36504750478599
30
0
41
1
10
62.2859834779773
20
2.40097870506469
30
0
0
SPLINE
5
CA
100
AcDbEntity
8
1
62
256
6
ByLayer
370
18
48
1
60
0
100
AcDbSpline
70
4
71
3
72
18
73
14
40
0
40
0
40
0
40
0
40
0.42441978693327
40
0.42441978693327
40
0.490776834087741
40
0.490776834087741
40
0.557133881242213
40
0.557133881242213
40
0.689847975551159
40
0.689847975551159
40
0.955276164169049
40
0.955276164169049
40
1
40
1
40
1
40
1
41
1
10
22.7799670822425
20
0.0028333508606124
30
0
41
1
10
23.7283929550729
20
-0.569555718404899
30
0
41
1
10
24.6717205720502
20
-1.13906824185389
30
0
41
1
10
25.7749007471031
20
-1.76368530148872
30
0
41
1
10
25.9243366343506
20
-1.84739627319365
30
0
41
1
10
26.2238977133716
20
-2.01310682259773
30
0
41
1
10
26.3741871169285
20
-2.09519153650467
30
0
41
1
10
26.8237178728246
20
-2.33725507766889
30
0
41
1
10
27.1222923040465
20
-2.49346860979702
30
0
41
1
10
28.0162210104672
20
-2.94468172919582
30
0
41
1
10
28.6099815551107
20
-3.22210446710352
30
0
41
1
10
29.3056475137683
20
-3.51314832002089
30
0
41
1
10
29.4060079756239
20
-3.55431262065775
30
0
41
1
10
29.5064359745576
20
-3.59464617427062
30
0
0
SPLINE
5
CB
100
AcDbEntity
8
1
62
256
6
ByLayer
370
13
48
1
60
0
100
AcDbSpline
70
4
71
3
72
18
73
14
40
0
40
0
40
0
40
0
40
0.0804031053537452
40
0.0804031053537452
40
0.20167363560363
40
0.20167363560363
40
0.322944165853516
40
0.322944165853516
40
0.444214696103401
40
0.444214696103401
40
0.929296817102946
40
0.929296817102946
40
1
40
1
40
1
40
1
41
1
10
29.5064359743244
20
-3.59464617417697
30
0
41
1
10
29.7040193305793
20
-3.67399893413827
30
0
41
1
10
29.9018641035568
20
-3.75013610985403
30
0
41
1
10
30.3991888020114
20
-3.9325358138438
30
0
41
1
10
30.6996892601024
20
-4.03464150469907
30
0
41
1
10
31.2991278284961
20
-4.22073039726385
30
0
41
1
10
31.5984867341422
20
-4.30486484347429
30
0
41
1
10
32.1975315585763
20
-4.45462771625125
30
0
41
1
10
32.4974828009536
20
-4.52033592077504
30
0
41
1
10
33.9969850783343
20
-4.79990678978976
30
0
41
1
10
35.1731436526154
20
-4.86328516064643
30
0
41
1
10
36.5298859379384
20
-4.75386546089518
30
0
41
1
10
36.7026481581649
20
-4.73656849178437
30
0
41
1
10
36.8756771574634
20
-4.71589438545092
30
0
0
SPLINE
5
CC
100
AcDbEntity
8
1
62
256
6
ByLayer
370
18
48
1
60
0
100
AcDbSpline
70
4
71
3
72
16
73
12
40
0
40
0
40
0
40
0
40
0.25
40
0.25
40
0.5
40
0.5
40
0.75
40
0.75
40
0.875
40
0.875
40
1
40
1
40
1
40
1
41
1
10
62.2859834779774
20
-2.40097870506466
30
0
41
1
10
62.2099798543749
20
-2.60483060655224
30
0
41
1
10
62.1338886578286
20
-2.80843744865396
30
0
41
1
10
61.9813219355862
20
-3.21457564696874
30
0
41
1
10
61.9047899167734
20
-3.416948915902
30
0
41
1
10
61.7517248170573
20
-3.82169248167139
30
0
41
1
10
61.67516575156
20
-4.02399006462667
30
0
41
1
10
61.5596630231348
20
-4.32557797311469
30
0
41
1
10
61.5210932902116
20
-4.42591468413241
30
0
41
1
10
61.4439227943213
20
-4.6265012733725
30
0
41
1
10
61.4052942000644
20
-4.72667327002009
30
0
41
1
10
61.3664412939865
20
-4.82621756460989
30
0
0
SPLINE
5
CD
100
AcDbEntity
8
1
62
256
6
ByLayer
370
18
48
1
60
0
100
AcDbSpline
70
4
71
3
72
22
73
18
40
0
40
0
40
0
40
0
40
0.125000000000002
40
0.125000000000002
40
0.187500000000003
40
0.187500000000003
40
0.250000000000004
40
0.250000000000004
40
0.500000000000002
40
0.500000000000002
40
0.625000000000002
40
0.625000000000002
40
0.750000000000001
40
0.750000000000001
40
0.875000000000001
40
0.875000000000001
40
1
40
1
40
1
40
1
41
1
10
61.2795274775069
20
-4.72695940633048
30
0
41
1
10
61.2073587413186
20
-4.72692221753252
30
0
41
1
10
61.1388315828522
20
-4.71589774536386
30
0
41
1
10
61.0417979664895
20
-4.68199078488436
30
0
41
1
10
61.0104155351223
20
-4.66778561665518
30
0
41
1
10
60.9496601894104
20
-4.63331221230328
30
0
41
1
10
60.9202506004108
20
-4.61298266239467
30
0
41
1
10
60.7805399260683
20
-4.49730152271718
30
0
41
1
10
60.6901225145565
20
-4.35972357556003
30
0
41
1
10
60.5886552101296
20
-4.08131010856624
30
0
41
1
10
60.5605123821224
20
-3.97539230010838
30
0
41
1
10
60.5181263116891
20
-3.74486998849895
30
0
41
1
10
60.5035849094702
20
-3.61984186814325
30
0
41
1
10
60.4877595002426
20
-3.35031905296668
30
0
41
1
10
60.4864732438589
20
-3.20582766102939
30
0
41
1
10
60.4977672311026
20
-2.89648392006222
30
0
41
1
10
60.5102677031453
20
-2.73457359308711
30
0
41
1
10
60.5292847110874
20
-2.56669668647962
30
0
0
SPLINE
5
CE
100
AcDbEntity
8
1
62
256
6
ByLayer
370
18
48
1
60
0
100
AcDbSpline
70
4
71
3
72
46
73
42
40
0
40
0
40
0
40
0
40
0.034337160360713
40
0.034337160360713
40
0.068674320721426
40
0.068674320721426
40
0.137348641442852
40
0.137348641442852
40
0.206022962164278
40
0.206022962164278
40
0.240360122524991
40
0.240360122524991
40
0.274697282885704
40
0.274697282885704
40
0.412045924328558
40
0.412045924328558
40
0.429214504508915
40
0.429214504508915
40
0.446383084689271
40
0.446383084689271
40
0.480720245049984
40
0.480720245049984
40
0.54939456577141
40
0.54939456577141
40
0.618068886492837
40
0.618068886492837
40
0.686743207214263
40
0.686743207214263
40
0.75541752793569
40
0.75541752793569
40
0.789754688296404
40
0.789754688296404
40
0.806923268476761
40
0.806923268476761
40
0.824091848657117
40
0.824091848657117
40
0.961440490099968
40
0.961440490099968
40
0.99577765046068
40
0.99577765046068
40
1
40
1
40
1
40
1
41
1
10
61.2816739702697
20
-4.91114837139639
30
0
41
1
10
60.9821805357584
20
-4.93429957760205
30
0
41
1
10
60.6828944464422
20
-4.94692081585734
30
0
41
1
10
60.0838708040595
20
-4.95114889736476
30
0
41
1
10
59.7836573366711
20
-4.94271883044877
30
0
41
1
10
58.8842639189478
20
-4.88598720634761
30
0
41
1
10
58.2891880167643
20
-4.80662672982831
30
0
41
1
10
57.1001025222461
20
-4.56943592290736
30
0
41
1
10
56.505900137752
20
-4.41167842573978
30
0
41
1
10
55.6088187205205
20
-4.11975255510984
30
0
41
1
10
55.3080443289927
20
-4.01288274481382
30
0
41
1
10
54.7100830074219
20
-3.78386741771914
30
0
41
1
10
54.4123482673329
20
-3.66159580544021
30
0
41
1
10
52.9272885324455
20
-3.01492903405207
30
0
41
1
10
51.7509578710587
20
-2.38447216854931
30
0
41
1
10
50.4030885487421
20
-1.59750723395049
30
0
41
1
10
50.2527557135715
20
-1.50886357165083
30
0
41
1
10
49.9530605105117
20
-1.33063082882163
30
0
41
1
10
49.8035678908568
20
-1.24095060046386
30
0
41
1
10
49.3559387000341
20
-0.970572757449133
30
0
41
1
10
49.0586475652373
20
-0.788543259399376
30
0
41
1
10
48.1687190331901
20
-0.239481489739319
30
0
41
1
10
47.5774134908257
20
0.129519262549365
30
0
41
1
10
46.3919539977175
20
0.862284300417713
30
0
41
1
10
45.797189977572
20
1.22504961633234
30
0
41
1
10
44.5964777191438
20
1.93168081596812
30
0
41
1
10
44.0011354190937
20
2.26770994309609
30
0
41
1
10
42.8153510943661
20
2.89522423347657
30
0
41
1
10
42.223920115191
20
3.18598618144412
30
0
41
1
10
41.3339549790907
20
3.58109203980513
30
0
41
1
10
41.036727068752
20
3.70581496653071
30
0
41
1
10
40.5891596162406
20
3.88132142647905
30
0
41
1
10
40.4396759109731
20
3.93788774777462
30
0
41
1
10
40.1400697132546
20
4.04705873460881
30
0
41
1
10
39.9897358915246
20
4.09974615802972
30
0
41
1
10
38.6410686889711
20
4.55249900642096
30
0
41
1
10
37.4636621536109
20
4.80591923843571
30
0
41
1
10
35.9783025130828
20
4.91944291234566
30
0
41
1
10
35.6805514779759
20
4.93196175434969
30
0
41
1
10
35.3447982773468
20
4.93429816859168
30
0
41
1
10
35.3080015166151
20
4.93439474205323
30
0
41
1
10
35.2711810629687
20
4.93433231351526
30
0
0
SPLINE
5
CF
100
AcDbEntity
8
1
62
256
6
ByLayer
370
18
48
1
60
0
100
AcDbSpline
70
4
71
3
72
20
73
16
40
0
40
0
40
0
40
0
40
0.157716343975351
40
0.157716343975351
40
0.368287257981515
40
0.368287257981515
40
0.420929986483056
40
0.420929986483056
40
0.473572714984597
40
0.473572714984597
40
0.578858171987677
40
0.578858171987677
40
0.789429085993839
40
0.789429085993839
40
1
40
1
40
1
40
1
41
1
10
12.599810499579
20
-4.71390851175534
30
0
41
1
10
12.1551770413147
20
-4.79253451080314
30
0
41
1
10
11.7116653594908
20
-4.84891348375751
30
0
41
1
10
10.6742894868852
20
-4.92729091426585
30
0
41
1
10
10.0800647977928
20
-4.93151321490612
30
0
41
1
10
9.33060089711165
20
-4.88432760566295
30
0
41
1
10
9.18012156365671
20
-4.87223961426125
30
0
41
1
10
8.87995116786419
20
-4.84293786955493
30
0
41
1
10
8.73021807068866
20
-4.82573177797931
30
0
41
1
10
8.28188337668405
20
-4.76660079894697
30
0
41
1
10
7.98413481103074
20
-4.71716754426015
30
0
41
1
10
7.09272802909425
20
-4.5400453931006
30
0
41
1
10
6.50106676284901
20
-4.38342826285143
30
0
41
1
10
5.31425398065608
20
-3.99959207257589
30
0
41
1
10
4.71910671581776
20
-3.77246226396525
30
0
41
1
10
4.11854386071076
20
-3.51247680780472
30
0
0
SPLINE
5
D0
100
AcDbEntity
8
1
62
256
6
ByLayer
370
18
48
1
60
0
100
AcDbSpline
70
4
71
3
72
18
73
14
40
0
40
0
40
0
40
0
40
0.24999999999998
40
0.24999999999998
40
0.49999999999996
40
0.49999999999996
40
0.62499999999997
40
0.62499999999997
40
0.74999999999998
40
0.74999999999998
40
0.87499999999999
40
0.87499999999999
40
1
40
1
40
1
40
1
41
1
10
60.9081730747315
20
1.15558279906298
30
0
41
1
10
60.9009901283786
20
1.18426144036854
30
0
41
1
10
60.8972542353517
20
1.21356329858082
30
0
41
1
10
60.8987110573635
20
1.27385943138094
30
0
41
1
10
60.9039302568674
20
1.3041979356604
30
0
41
1
10
60.921469755515
20
1.34772874355264
30
0
41
1
10
60.9285630310391
20
1.36161489348149
30
0
41
1
10
60.9467668409573
20
1.38720712004553
30
0
41
1
10
60.9578174392213
20
1.39877099306602
30
0
41
1
10
60.9823435612755
20
1.41825532594572
30
0
41
1
10
60.9961565378763
20
1.42644858768773
30
0
41
1
10
61.0247451057759
20
1.43928787203035
30
0
41
1
10
61.0396355040017
20
1.44407634583567
30
0
41
1
10
61.0549992750413
20
1.44757250281623
30
0
0
SPLINE
5
D1
100
AcDbEntity
8
1
62
256
6
ByLayer
370
13
48
1
60
0
100
AcDbSpline
70
4
71
3
72
8
73
4
40
0
40
0
40
0
40
0
40
1
40
1
40
1
40
1
41
1
10
4.12055884672336
20
-3.44055151429916
30
0
41
1
10
4.14478449706112
20
-3.4403688575056
30
0
41
1
10
4.17133968775011
20
-3.44636440958507
30
0
41
1
10
4.19860729526511
20
-3.45775666879285
30
0
0
SPLINE
5
D2
100
AcDbEntity
8
1
62
256
6
ByLayer
370
18
48
1
60
0
100
AcDbSpline
70
4
71
3
72
38
73
34
40
0
40
0
40
0
40
0
40
0.125000000000002
40
0.125000000000002
40
0.250000000000004
40
0.250000000000004
40
0.312500000000005
40
0.312500000000005
40
0.375000000000006
40
0.375000000000006
40
0.500000000000003
40
0.500000000000003
40
0.625
40
0.625
40
0.687499999999995
40
0.687499999999995
40
0.718749999999996
40
0.718749999999996
40
0.749999999999996
40
0.749999999999996
40
0.812499999999997
40
0.812499999999997
40
0.843749999999997
40
0.843749999999997
40
0.874999999999998
40
0.874999999999998
40
0.906249999999998
40
0.906249999999998
40
0.937499999999999
40
0.937499999999999
40
0.968749999999999
40
0.968749999999999
40
1
40
1
40
1
40
1
41
1
10
57.2539160035615
20
1.93411093331724
30
0
41
1
10
57.4245388501862
20
1.78815438394318
30
0
41
1
10
57.5976786777616
20
1.64895191848086
30
0
41
1
10
57.9497614440157
20
1.38611909561396
30
0
41
1
10
58.1286346525454
20
1.26261325629824
30
0
41
1
10
58.3986746200204
20
1.09233870127071
30
0
41
1
10
58.4890960873872
20
1.03799901872466
30
0
41
1
10
58.6708117742514
20
0.934491231927154
30
0
41
1
10
58.7623362766831
20
0.885225896743606
30
0
41
1
10
59.0361042176922
20
0.746721154791686
30
0
41
1
10
59.2176909785783
20
0.66668031515664
30
0
41
1
10
59.5788185604632
20
0.533788623787729
30
0
41
1
10
59.75836267785
20
0.480893963950422
30
0
41
1
10
60.0258837542957
20
0.425408362957171
30
0
41
1
10
60.1148504441707
20
0.410907698383198
30
0
41
1
10
60.2475041473617
20
0.395820569985517
30
0
41
1
10
60.2914264123103
20
0.391922448834833
30
0
41
1
10
60.3786577147187
20
0.38647203712685
30
0
41
1
10
60.4222124276894
20
0.384206615867725
30
0
41
1
10
60.5498058091623
20
0.387021371519324
30
0
41
1
10
60.6304165530933
20
0.402025956211702
30
0
41
1
10
60.7372387061207
20
0.448387820548532
30
0
41
1
10
60.7706719511566
20
0.467860062053205
30
0
41
1
10
60.8318368532714
20
0.517342331273142
30
0
41
1
10
60.8585344263129
20
0.546619614841291
30
0
41
1
10
60.9023071969989
20
0.615772874611991
30
0
41
1
10
60.9191653941218
20
0.656357965285366
30
0
41
1
10
60.9412152022538
20
0.744039796028289
30
0
41
1
10
60.9470367768567
20
0.791789231271139
30
0
41
1
10
60.9494995330607
20
0.891593872934294
30
0
41
1
10
60.9461899907643
20
0.942899562506284
30
0
41
1
10
60.9323536884197
20
1.04774141849134
30
0
41
1
10
60.921684098726
20
1.10163866642364
30
0
41
1
10
60.9081730747316
20
1.15558279906298
30
0
0
SPLINE
5
D3
100
AcDbEntity
8
1
62
256
6
ByLayer
370
18
48
1
60
0
100
AcDbSpline
70
4
71
3
72
16
73
12
40
0
40
0
40
0
40
0
40
0.249999999999999
40
0.249999999999999
40
0.499999999999997
40
0.499999999999997
40
0.749999999999996
40
0.749999999999996
40
0.874999999999998
40
0.874999999999998
40
1
40
1
40
1
40
1
41
1
10
62.2859834779774
20
2.40097870506463
30
0
41
1
10
62.2099798543749
20
2.60483060655221
30
0
41
1
10
62.1338886578286
20
2.80843744865393
30
0
41
1
10
61.9813219355862
20
3.21457564696871
30
0
41
1
10
61.9047899167735
20
3.41694891590197
30
0
41
1
10
61.7517248170574
20
3.82169248167139
30
0
41
1
10
61.67516575156
20
4.02399006462667
30
0
41
1
10
61.5596630231346
20
4.32557797311466
30
0
41
1
10
61.5210932902115
20
4.42591468413238
30
0
41
1
10
61.4439227943213
20
4.6265012733725
30
0
41
1
10
61.4052942000644
20
4.72667327002009
30
0
41
1
10
61.3664412939865
20
4.82621756460986
30
0
0
SPLINE
5
D4
100
AcDbEntity
8
1
62
256
6
ByLayer
370
18
48
1
60
0
100
AcDbSpline
70
4
71
3
72
14
73
10
40
0
40
0
40
0
40
0
40
0.530574444692175
40
0.530574444692175
40
0.708381014079335
40
0.708381014079335
40
0.886187583466495
40
0.886187583466495
40
1
40
1
40
1
40
1
41
1
10
35.4888069931879
20
-4.71167311639857
30
0
41
1
10
34.6072795549939
20
-4.71185943651426
30
0
41
1
10
33.7256432127002
20
-4.62530653594382
30
0
41
1
10
32.5316321332572
20
-4.39381414383834
30
0
41
1
10
32.2320156200067
20
-4.3262204177264
30
0
41
1
10
31.633437756529
20
-4.17325606937126
30
0
41
1
10
31.3342996200975
20
-4.08781582261622
30
0
41
1
10
30.8431179427834
20
-3.93354080466074
30
0
41
1
10
30.6511249663727
20
-3.86974324207881
30
0
41
1
10
30.4593923080566
20
-3.80275022068287
30
0
0
SPLINE
5
D5
100
AcDbEntity
8
1
62
256
6
ByLayer
370
13
48
1
60
0
100
AcDbSpline
70
4
71
3
72
26
73
22
40
0
40
0
40
0
40
0
40
0.0281093716877818
40
0.0281093716877818
40
0.106210512677356
40
0.106210512677356
40
0.262412794656506
40
0.262412794656506
40
0.340513935646081
40
0.340513935646081
40
0.379564506140868
40
0.379564506140868
40
0.418615076635654
40
0.418615076635654
40
0.731019640593928
40
0.731019640593928
40
0.809120781583497
40
0.809120781583497
40
0.887221922573065
40
0.887221922573065
40
1
40
1
40
1
40
1
41
1
10
30.459393252361
20
-3.80275055063081
30
0
41
1
10
30.3515859911126
20
-3.76508178277677
30
0
41
1
10
30.2438610311594
20
-3.72640274564301
30
0
41
1
10
29.8375095662229
20
-3.57670105492045
30
0
41
1
10
29.5396415545224
20
-3.45913554052848
30
0
41
1
10
28.6472048394529
20
-3.08600871323188
30
0
41
1
10
28.0537222615397
20
-2.81009087905554
30
0
41
1
10
27.1603209708866
20
-2.36280575146034
30
0
41
1
10
26.8619216180089
20
-2.20820527789056
30
0
41
1
10
26.4126948605032
20
-1.96901193265404
30
0
41
1
10
26.2625425274351
20
-1.88797001637963
30
0
41
1
10
25.963256565047
20
-1.72447200250332
30
0
41
1
10
25.8139465664002
20
-1.64192383563039
30
0
41
1
10
24.4725586563968
20
-0.892810766446786
30
0
41
1
10
23.296229443342
20
-0.184753528484549
30
0
41
1
10
21.8086424624006
20
0.689253327670627
30
0
41
1
10
21.5102390771079
20
0.863453007170307
30
0
41
1
10
20.9106771960367
20
1.20896329612418
30
0
41
1
10
20.6113626837871
20
1.37923337340288
30
0
41
1
10
19.8833539675923
20
1.78543295182237
30
0
41
1
10
19.4552143629461
20
2.01748127971865
30
0
41
1
10
19.0276355427272
20
2.23947356472687
30
0
0
SPLINE
5
D6
100
AcDbEntity
8
1
62
256
6
ByLayer
370
13
48
1
60
0
100
AcDbSpline
70
4
71
3
72
12
73
8
40
0
40
0
40
0
40
0
40
0.5
40
0.5
40
0.75
40
0.75
40
1
40
1
40
1
40
1
41
1
10
4.00150282302184
20
-3.37266656235912
30
0
41
1
10
4.00555749677923
20
-3.36280646191329
30
0
41
1
10
4.0177124855706
20
-3.35300728875569
30
0
41
1
10
4.04761104561581
20
-3.33952040475998
30
0
41
1
10
4.05978543679424
20
-3.33514808351907
30
0
41
1
10
4.08746422424406
20
-3.32727544933354
30
0
41
1
10
4.10301837571106
20
-3.32372326805492
30
0
41
1
10
4.12055884672336
20
-3.32064251497138
30
0
0
SPLINE
5
D7
100
AcDbEntity
8
1
62
256
6
ByLayer
370
13
48
1
60
0
100
AcDbSpline
70
4
71
3
72
31
73
27
40
0
40
0
40
0
40
0
40
0.125
40
0.125
40
0.1875
40
0.1875
40
0.25
40
0.3125
40
0.3125
40
0.375
40
0.375
40
0.5
40
0.5
40
0.5625
40
0.5625
40
0.625
40
0.625
40
0.6875
40
0.6875
40
0.75
40
0.75
40
0.8125
40
0.8125
40
0.875
40
0.875
40
1
40
1
40
1
40
1
41
1
10
4.25033748240554
20
-3.32754798812985
30
0
41
1
10
4.25040191363698
20
-3.09528814145227
30
0
41
1
10
4.25045529689439
20
-2.84147399219245
30
0
41
1
10
4.25052567724268
20
-2.42862714611653
30
0
41
1
10
4.25054737653025
20
-2.28630506606868
30
0
41
1
10
4.25058790912695
20
-1.99631263155277
30
0
41
1
10
4.2506257655011
20
-1.69985715921334
30
0
41
1
10
4.25066052071077
20
-1.39060429578333
30
0
41
1
10
4.25069472446478
20
-1.07480727409808
30
0
41
1
10
4.2507115978062
20
-0.913157511159511
30
0
41
1
10
4.25076158941994
20
-0.429469864688315
30
0
41
1
10
4.25079455891998
20
-0.105220285547631
30
0
41
1
10
4.25084723809692
20
0.383833453578688
30
0
41
1
10
4.25086539717677
20
0.548028291494006
30
0
41
1
10
4.25090259527752
20
0.872923898289031
30
0
41
1
10
4.2509216329388
20
1.0336681531605
30
0
41
1
10
4.25096064998132
20
1.35174389694532
30
0
41
1
10
4.25098058194163
20
1.50864485193003
30
0
41
1
10
4.25102057271701
20
1.81415568248502
30
0
41
1
10
4.25104070450317
20
1.96336709379889
30
0
41
1
10
4.25108082488481
20
2.25473538696605
30
0
41
1
10
4.25110081473704
20
2.39689272332853
30
0
41
1
10
4.25114000199693
20
2.67395248017118
30
0
41
1
10
4.25115891214685
20
2.80685822024759
30
0
41
1
10
4.25121217581932
20
3.1873658631269
30
0
41
1
10
4.25124330472812
20
3.41786191512361
30
0
41
1
10
4.25126594072191
20
3.62496034573815
30
0
0
SPLINE
5
D8
100
AcDbEntity
8
1
62
256
6
ByLayer
370
18
48
1
60
0
100
AcDbSpline
70
4
71
3
72
42
73
38
40
0
40
0
40
0
40
0
40
0.0212644275451465
40
0.0212644275451465
40
0.177045826544336
40
0.177045826544336
40
0.332827225543525
40
0.332827225543525
40
0.488608624542715
40
0.488608624542715
40
0.644390023541904
40
0.644390023541904
40
0.722280723041499
40
0.722280723041499
40
0.732017060478946
40
0.732017060478946
40
0.741753397916394
40
0.741753397916394
40
0.751489735353841
40
0.751489735353841
40
0.756357904072565
40
0.756357904072565
40
0.761226072791289
40
0.761226072791289
40
0.800171422541076
40
0.800171422541076
40
0.878062122040651
40
0.878062122040651
40
0.917007471790439
40
0.917007471790439
40
0.955952821540226
40
0.955952821540226
40
0.97542549641512
40
0.97542549641512
40
0.994898171290013
40
0.994898171290013
40
1
40
1
40
1
40
1
41
1
10
8.56241677162211
20
-4.91826923551162
30
0
41
1
10
8.51549942133278
20
-4.91816773457225
30
0
41
1
10
8.46850970750256
20
-4.91796983764721
30
0
41
1
10
8.0766609429887
20
-4.91555933373638
30
0
41
1
10
7.72793380993761
20
-4.90859210649205
30
0
41
1
10
7.02167420118457
20
-4.8891694168837
30
0
41
1
10
6.66359582577789
20
-4.87670505281699
30
0
41
1
10
5.94045048961164
20
-4.85048553647809
30
0
41
1
10
5.57649541968357
20
-4.83679255661875
30
0
41
1
10
4.84349978719644
20
-4.81178110059557
30
0
41
1
10
4.47474828869474
20
-4.80048252290905
30
0
41
1
10
3.92000476604028
20
-4.78734414618557
30
0
41
1
10
3.73473274689283
20
-4.78358850518191
30
0
41
1
10
3.52588890564996
20
-4.78019279079541
30
0
41
1
10
3.50267829800779
20
-4.77982696783019
30
0
41
1
10
3.45624556786484
20
-4.77911865269579
30
0
41
1
10
3.4328673633791
20
-4.77864541855925
30
0
41
1
10
3.3867216763278
20
-4.77937797199334
30
0
41
1
10
3.36339188709829
20
-4.78041660522808
30
0
41
1
10
3.33170253057443
20
-4.78353708049033
30
0
41
1
10
3.32187998581424
20
-4.78488124293921
30
0
41
1
10
3.3018475500121
20
-4.78738698179419
30
0
41
1
10
3.29185068285821
20
-4.78863878301607
30
0
41
1
10
3.20205642863306
20
-4.79989359920506
30
0
41
1
10
3.12337363524767
20
-4.80983534288183
30
0
41
1
10
2.89343811128487
20
-4.83885557329859
30
0
41
1
10
2.74774331378342
20
-4.85725122308617
30
0
41
1
10
2.54574165046392
20
-4.88099227828115
30
0
41
1
10
2.48095825732014
20
-4.88827448583524
30
0
41
1
10
2.3596077830432
20
-4.90068587341301
30
0
41
1
10
2.3036938368204
20
-4.90575091769085
30
0
41
1
10
2.22835832610781
20
-4.9109976405056
30
0
41
1
10
2.20467408302199
20
-4.91235259534176
30
0
41
1
10
2.16047214703642
20
-4.91413363321962
30
0
41
1
10
2.13985704951759
20
-4.91455733712127
30
0
41
1
10
2.11645791056577
20
-4.91440413126023
30
0
41
1
10
2.11174065500285
20
-4.91433543927045
30
0
41
1
10
2.10716487596292
20
-4.91422908337725
30
0
0
SPLINE
5
D9
100
AcDbEntity
8
1
62
256
6
ByLayer
370
18
48
1
60
0
100
AcDbSpline
70
4
71
3
72
10
73
6
40
0
40
0
40
0
40
0
40
0.5
40
0.5
40
1
40
1
40
1
40
1
41
1
10
4.11854386071059
20
-3.51247680780463
30
0
41
1
10
4.08855331567653
20
-3.49949381116261
30
0
41
1
10
4.06297971294586
20
-3.48221333726212
30
0
41
1
10
4.0237144920367
20
-3.44124544008147
30
0
41
1
10
4.01018387450475
20
-3.41750303040257
30
0
41
1
10
4.00399864999335
20
-3.39276214814134
30
0
0
SPLINE
5
DA
100
AcDbEntity
8
1
62
256
6
ByLayer
370
18
48
1
60
0
100
AcDbSpline
70
4
71
3
72
18
73
14
40
0
40
0
40
0
40
0
40
0.250000000000003
40
0.250000000000003
40
0.375000000000003
40
0.375000000000003
40
0.500000000000003
40
0.500000000000003
40
0.750000000000003
40
0.750000000000003
40
0.875000000000001
40
0.875000000000001
40
1
40
1
40
1
40
1
41
1
10
9.31901297882911
20
0.758175021684053
30
0
41
1
10
8.87882239738349
20
1.01362156990305
30
0
41
1
10
8.44489927844234
20
1.27081381148025
30
0
41
1
10
7.8004835366508
20
1.65069709283642
30
0
41
1
10
7.58675764534982
20
1.77625228733126
30
0
41
1
10
7.16087634641383
20
2.02485453767434
30
0
41
1
10
6.94871432681848
20
2.14795539616742
30
0
41
1
10
6.31425978521909
20
2.51229200813572
30
0
41
1
10
5.8938403578085
20
2.74853055010647
30
0
41
1
10
5.26762037249918
20
3.09002780664517
30
0
41
1
10
5.05988670152186
20
3.20158706903337
30
0
41
1
10
4.65096399675002
20
3.41794833316664
30
0
41
1
10
4.44926403681919
20
3.52303381645012
30
0
41
1
10
4.25126594729326
20
3.62496034726672
30
0
0
LINE
5
76
100
AcDbEntity
8
81
62
256
6
ByLayer
370
18
48
1
60
0
100
AcDbLine
10
63
20
0
30
0
11
68
21
0
31
0
39
0
210
0
220
0
230
1
0
LINE
5
77
100
AcDbEntity
8
1
62
256
6
ByLayer
370
18
48
1
60
0
100
AcDbLine
10
2.132967
20
4.91446
30
0
11
0.8
21
4.91366
31
0
39
0
210
0
220
0
230
1
0
LINE
5
79
100
AcDbEntity
8
1
62
256
6
ByLayer
370
18
48
1
60
0
100
AcDbLine
10
10.284863
20
4.919351
30
0
11
8.578661
21
4.918327
31
0
39
0
210
0
220
0
230
1
0
LINE
5
7A
100
AcDbEntity
8
1
62
256
6
ByLayer
370
18
48
1
60
0
100
AcDbLine
10
60.28473
20
4.949351
30
0
11
59.583816
21
4.94893
31
0
39
0
210
0
220
0
230
1
0
LINE
5
7B
100
AcDbEntity
8
1
62
256
6
ByLayer
370
18
48
1
60
0
100
AcDbLine
10
59.583816
20
-4.94893
30
0
11
60.284551
21
-4.949351
31
0
39
0
210
0
220
0
230
1
0
LINE
5
7C
100
AcDbEntity
8
1
62
256
6
ByLayer
370
18
48
1
60
0
100
AcDbLine
10
8.578661
20
-4.918327
30
0
11
10.28495
21
-4.919351
31
0
39
0
210
0
220
0
230
1
0
LINE
5
7D
100
AcDbEntity
8
1
62
256
6
ByLayer
370
18
48
1
60
0
100
AcDbLine
10
0.8
20
-4.91366
30
0
11
2.132967
21
-4.91446
31
0
39
0
210
0
220
0
230
1
0
LINE
5
7E
100
AcDbEntity
8
1
62
256
6
ByLayer
370
18
48
1
60
0
100
AcDbLine
10
0
20
-5
30
0
11
0.8
21
-4.91366
31
0
39
0
210
0
220
0
230
1
0
LINE
5
7F
100
AcDbEntity
8
1
62
256
6
ByLayer
370
18
48
1
60
0
100
AcDbLine
10
0.8
20
4.91366
30
0
11
0
21
5
31
0
39
0
210
0
220
0
230
1
0
LINE
5
80
100
AcDbEntity
8
SK1
62
256
6
ByLayer
370
18
48
1
60
0
100
AcDbLine
10
-38.845299
20
5
30
0
11
-40
21
3
31
0
39
0
210
0
220
0
230
1
0
LINE
5
82
100
AcDbEntity
8
SK1
62
256
6
ByLayer
370
18
48
1
60
0
100
AcDbLine
10
-40
20
-3
30
0
11
-38.845299
21
-5
31
0
39
0
210
0
220
0
230
1
0
LINE
5
83
100
AcDbEntity
8
1
62
256
6
ByLayer
370
18
48
1
60
0
100
AcDbLine
10
35.284189
20
4.934351
30
0
11
34.578671
21
4.933927
31
0
39
0
210
0
220
0
230
1
0
LINE
5
84
100
AcDbEntity
8
1
62
256
6
ByLayer
370
18
48
1
60
0
100
AcDbLine
10
34.578671
20
-4.933927
30
0
11
35.284314
21
-4.934351
31
0
39
0
210
0
220
0
230
1
0
LINE
5
85
100
AcDbEntity
8
SK1
62
256
6
ByLayer
370
18
48
1
60
0
100
AcDbLine
10
0
20
5
30
0
11
-38.845299
21
5
31
0
39
0
210
0
220
0
230
1
0
LINE
5
86
100
AcDbEntity
8
SK1
62
256
6
ByLayer
370
18
48
1
60
0
100
AcDbLine
10
-38.845299
20
-5
30
0
11
0
21
-5
31
0
39
0
210
0
220
0
230
1
0
LINE
5
87
100
AcDbEntity
8
SK4
62
256
6
ByLayer
370
18
48
0.05
60
0
100
AcDbLine
10
68
20
0
30
0
11
-45
21
0
31
0
39
0
210
0
220
0
230
1
0
LINE
5
89
100
AcDbEntity
8
4
62
256
6
ByLayer
370
18
48
0.05
60
0
100
AcDbLine
10
63
20
0
30
0
11
0
21
0
31
0
39
0
210
0
220
0
230
1
0
LINE
5
8B
100
AcDbEntity
8
80
62
256
6
ByLayer
370
18
48
1
60
0
100
AcDbLine
10
0
20
0
30
0
11
-5
21
0
31
0
39
0
210
0
220
0
230
1
0
LINE
5
8C
100
AcDbEntity
8
1
62
256
6
ByLayer
370
18
48
1
60
0
100
AcDbLine
10
10.73553
20
-0.074191
30
0
11
10.735591
21
-0.07423
31
0
39
0
210
0
220
0
230
1
0
LINE
5
8D
100
AcDbEntity
8
1
62
256
6
ByLayer
370
18
48
1
60
0
100
AcDbLine
10
62.913032
20
0.313578
30
0
11
62.767332
21
0.891474
31
0
39
0
210
0
220
0
230
1
0
LINE
5
8E
100
AcDbEntity
8
1
62
256
6
ByLayer
370
18
48
1
60
0
100
AcDbLine
10
0
20
-5
30
0
11
0
21
5
31
0
39
0
210
0
220
0
230
1
0
LINE
5
8F
100
AcDbEntity
8
1
62
256
6
ByLayer
370
13
48
1
60
0
100
AcDbLine
10
61.939049
20
0.891474
30
0
11
62.913032
21
0.313578
31
0
39
0
210
0
220
0
230
1
0
LINE
5
90
100
AcDbEntity
8
1
62
256
6
ByLayer
370
18
48
1
60
0
100
AcDbLine
10
63
20
0
30
0
11
62.990282
21
-0.048382
31
0
39
0
210
0
220
0
230
1
0
LINE
5
91
100
AcDbEntity
8
1
62
256
6
ByLayer
370
18
48
1
60
0
100
AcDbLine
10
0.8
20
4.91366
30
0
11
0.8
21
-4.91366
31
0
39
0
210
0
220
0
230
1
0
LINE
5
92
100
AcDbEntity
8
1
62
256
6
ByLayer
370
18
48
1
60
0
100
AcDbLine
10
62.913032
20
-0.313578
30
0
11
62.767332
21
-0.891474
31
0
39
0
210
0
220
0
230
1
0
LINE
5
93
100
AcDbEntity
8
1
62
256
6
ByLayer
370
13
48
1
60
0
100
AcDbLine
10
61.749142
20
0.556145
30
0
11
62.894477
21
-0.12342
31
0
39
0
210
0
220
0
230
1
0
LINE
5
94
100
AcDbEntity
8
1
62
256
6
ByLayer
370
13
48
1
60
0
100
AcDbLine
10
62.767332
20
0.891474
30
0
11
61.939049
21
0.891474
31
0
39
0
210
0
220
0
230
1
0
LINE
5
95
100
AcDbEntity
8
1
62
256
6
ByLayer
370
18
48
1
60
0
100
AcDbLine
10
62.990282
20
0.048382
30
0
11
63
21
0
31
0
39
0
210
0
220
0
230
1
0
LINE
5
96
100
AcDbEntity
8
1
62
256
6
ByLayer
370
18
48
1
60
0
100
AcDbLine
10
63
20
0
30
0
11
61.279527
21
-4.726959
31
0
39
0
210
0
220
0
230
1
0
LINE
5
97
100
AcDbEntity
8
1
62
256
6
ByLayer
370
18
48
1
60
0
100
AcDbLine
10
60.529285
20
-2.566697
30
0
11
62.894477
21
-0.12342
31
0
39
0
210
0
220
0
230
1
0
LINE
5
98
100
AcDbEntity
8
SK1
62
256
6
ByLayer
370
18
48
1
60
0
100
AcDbLine
10
-40
20
3
30
0
11
-40
21
-3
31
0
39
0
210
0
220
0
230
1
0
LINE
5
99
100
AcDbEntity
8
SK1
62
256
6
ByLayer
370
18
48
1
60
0
100
AcDbLine
10
-38.845299
20
5
30
0
11
-38.845299
21
-5
31
0
39
0
210
0
220
0
230
1
0
LINE
5
9A
100
AcDbEntity
8
SK1
62
256
6
ByLayer
370
18
48
1
60
0
100
AcDbLine
10
0
20
-5
30
0
11
0
21
5
31
0
39
0
210
0
220
0
230
1
0
MTEXT
5
DB
100
AcDbEntity
8
SK6
62
256
6
ByLayer
370
13
48
1
60
0
100
AcDbMText
10
13.629169
20
37.332694
30
0
210
0
220
0
230
1
1
\W0.7670;R840-0990-50-A0A1220
40
3.5
41
0
44
1.084337
50
0
71
8
72
5
7
iso_b_vert
0
DIMENSION
5
E8
100
AcDbEntity
8
SK2
62
256
6
ByLayer
370
13
48
1
60
0
100
AcDbDimension
2
DimnDraft3D1
10
61.31
20
-15.163398
30
0
11
29.060059
21
-15.163398
31
0
70
32
71
5
72
1
41
1
210
0
220
0
230
1
3
Standard
100
AcDbAlignedDimension
13
0
23
-1.5875
33
0
14
61.31
24
-6.5375
34
0
50
0
100
AcDbRotatedDimension
1001
ACAD
1000
DSTYLE
1002
{
1070
   279
1070
     0
1070
   172
1070
     1
1070
   173
1070
     1
1070
   340
1005
DC
1070
   271
1070
     2
1070
   272
1070
     2
1070
    77
1070
     1
1070
    73
1070
     0
1070
   171
1070
     3
1070
   274
1070
     4
1070
   177
1070
    35
1070
   176
1070
    35
1070
   178
1070
    35
1070
    48
1040
-0.005
1070
    41
1041
3.5
1070
   147
1041
1.75
1070
    42
1041
1.5875
1070
    44
1041
2.0
1070
   140
1041
3.5
1070
   343
1005
0
1070
   344
1005
0
1002
}
0
DIMENSION
5
F2
100
AcDbEntity
8
SK2
62
256
6
ByLayer
370
13
48
1
60
0
100
AcDbDimension
2
DimnDraft3D2
10
63
20
-33.692985
30
0
11
11.1513
21
-33.692985
31
0
70
32
71
5
72
1
41
1
210
0
220
0
230
1
3
Standard
100
AcDbAlignedDimension
13
-40
23
-6.5875
33
0
14
63
24
-1.5875
34
0
50
0
100
AcDbRotatedDimension
1001
ACAD
1000
DSTYLE
1002
{
1070
   279
1070
     0
1070
   172
1070
     1
1070
   173
1070
     1
1070
   340
1005
DC
1070
   271
1070
     2
1070
   272
1070
     2
1070
    77
1070
     1
1070
    73
1070
     0
1070
   171
1070
     3
1070
   274
1070
     4
1070
   177
1070
    35
1070
   176
1070
    35
1070
   178
1070
    35
1070
    48
1040
-0.005
1070
    41
1041
3.5
1070
   147
1041
1.75
1070
    42
1041
1.5875
1070
    44
1041
2.0
1070
   140
1041
3.5
1070
   343
1005
0
1070
   344
1005
0
1002
}
0
DIMENSION
5
FC
100
AcDbEntity
8
SK2
62
256
6
ByLayer
370
13
48
1
60
0
100
AcDbDimension
2
DimnDraft3D3
10
63
20
16.559119
30
0
11
37.405
21
16.559119
31
0
70
32
71
5
72
1
41
1
210
0
220
0
230
1
3
Standard
100
AcDbAlignedDimension
13
11.81
23
6.5375
33
0
14
63
24
1.5875
34
0
50
0
100
AcDbRotatedDimension
1001
ACAD
1000
DSTYLE
1002
{
1070
   279
1070
     0
1070
   172
1070
     1
1070
   173
1070
     1
1070
   340
1005
DC
1070
   271
1070
     2
1070
   272
1070
     2
1070
    77
1070
     1
1070
    73
1070
     0
1070
   171
1070
     3
1070
   274
1070
     4
1070
   177
1070
    35
1070
   176
1070
    35
1070
   178
1070
    35
1070
    48
1040
-0.005
1070
    41
1041
3.5
1070
   147
1041
1.75
1070
    42
1041
1.5875
1070
    44
1041
2.0
1070
   140
1041
3.5
1070
   343
1005
0
1070
   344
1005
0
1002
}
0
DIMENSION
5
106
100
AcDbEntity
8
SK2
62
256
6
ByLayer
370
13
48
1
60
0
100
AcDbDimension
2
DimnDraft3D4
10
61.31
20
-17.752503
30
0
11
72.981425
21
-17.752503
31
0
70
32
71
5
72
1
41
1
210
0
220
0
230
1
3
Standard
100
AcDbAlignedDimension
13
63
23
-1.5875
33
0
14
61.31
24
-6.5375
34
0
50
0
100
AcDbRotatedDimension
1001
ACAD
1000
DSTYLE
1002
{
1070
   279
1070
     0
1070
   172
1070
     1
1070
   173
1070
     1
1070
   340
1005
DC
1070
   271
1070
     2
1070
   272
1070
     2
1070
    77
1070
     1
1070
    73
1070
     0
1070
   171
1070
     3
1070
   274
1070
     4
1070
   177
1070
    35
1070
   176
1070
    35
1070
   178
1070
    35
1070
    48
1040
-0.005
1070
    41
1041
3.5
1070
   147
1041
1.75
1070
    42
1041
1.5875
1070
    44
1041
2.0
1070
   140
1041
3.5
1070
   343
1005
0
1070
   344
1005
0
1002
}
0
DIMENSION
5
110
100
AcDbEntity
8
SK2
62
256
6
ByLayer
370
13
48
1
60
0
100
AcDbDimension
2
DimnDraft3D5
10
61.31
20
-23.343428
30
0
11
8.070676
21
-23.343428
31
0
70
32
71
5
72
1
41
1
210
0
220
0
230
1
3
Standard
100
AcDbAlignedDimension
13
-40
23
-6.5875
33
0
14
61.31
24
-6.5375
34
0
50
0
100
AcDbRotatedDimension
1001
ACAD
1000
DSTYLE
1002
{
1070
   279
1070
     0
1070
   172
1070
     1
1070
   173
1070
     1
1070
   340
1005
DC
1070
   271
1070
     2
1070
   272
1070
     2
1070
    77
1070
     1
1070
    73
1070
     0
1070
   171
1070
     3
1070
   274
1070
     4
1070
   177
1070
    35
1070
   176
1070
    35
1070
   178
1070
    35
1070
    48
1040
-0.005
1070
    41
1041
3.5
1070
   147
1041
1.75
1070
    42
1041
1.5875
1070
    44
1041
2.0
1070
   140
1041
3.5
1070
   343
1005
0
1070
   344
1005
0
1002
}
0
DIMENSION
5
11B
100
AcDbEntity
8
SK2
62
256
6
ByLayer
370
13
48
1
60
0
100
AcDbDimension
2
DimnDraft3D6
10
-50.625163
20
5
30
0
11
-51.250163
21
23.47418
31
0
70
33
71
5
72
1
41
1
210
0
220
0
230
1
3
Standard
100
AcDbAlignedDimension
13
-41.5875
23
-5
33
0
14
-41.5875
24
5
34
0
1001
ACAD
1000
DSTYLE
1002
{
1070
   279
1070
     0
1070
    74
1070
     0
1070
   173
1070
     1
1070
   340
1005
DC
1070
   271
1070
     3
1070
   272
1070
     2
1070
    77
1070
     1
1070
    73
1070
     0
1070
   171
1070
     3
1070
   274
1070
     4
1070
   177
1070
    35
1070
   176
1070
    35
1070
   178
1070
    35
1070
    48
1040
-0.005
1070
    41
1041
3.5
1070
   147
1041
1.75
1070
    42
1041
1.5875
1070
    44
1041
2.0
1070
   140
1041
3.5
1070
   343
1005
0
1070
   344
1005
0
1002
}
0
DIMENSION
5
126
100
AcDbEntity
8
2
62
256
6
ByLayer
370
13
48
1
60
0
100
AcDbDimension
2
DimnDraft3D7
10
77.083343
20
4.95
30
0
11
72.458343
21
22.017266
31
0
70
33
71
5
72
1
41
1
210
0
220
0
230
1
3
Standard
100
AcDbAlignedDimension
13
62.8975
23
-4.95
33
0
14
62.8975
24
4.95
34
0
1001
ACAD
1000
DSTYLE
1002
{
1070
   279
1070
     0
1070
    74
1070
     0
1070
   173
1070
     1
1070
   340
1005
DC
1070
   271
1070
     3
1070
   272
1070
     2
1070
    77
1070
     1
1070
    73
1070
     0
1070
   171
1070
     3
1070
   274
1070
     4
1070
   177
1070
    35
1070
   176
1070
    35
1070
   178
1070
    35
1070
    48
1040
-0.005
1070
    41
1041
3.5
1070
   147
1041
1.75
1070
    42
1041
1.5875
1070
    44
1041
2.0
1070
   140
1041
3.5
1070
   343
1005
0
1070
   344
1005
0
1002
}
0
ENDSEC
0
SECTION
2
OBJECTS
0
DICTIONARY
5
191
330
0
100
AcDbDictionary
280
0
281
1
3
ACAD_GROUP
350
192
3
ACAD_MLINESTYLE
350
193
0
DICTIONARY
5
192
330
0
100
AcDbDictionary
280
0
281
1
0
DICTIONARY
5
193
330
0
100
AcDbDictionary
280
0
281
1
3
Standard
350
18
0
MLINESTYLE
5
18
330
193
100
AcDbMlineStyle
2
Standard
70
0
3

62
256
51
90
52
90
71
2
49
-0.5
62
256
6
ByLayer
49
0.5
62
256
6
ByLayer
0
RASTERVARIABLES
5
17f
330

100
AcDbRasterVariables
90
0
70
1
71
1
72
1
0
ENDSEC
0
EOF
