0
SECTION
2
HEADER
9
$ACADVER
1
AC1015
9
$DWGCODEPAGE
3
ANSI_1252
9
$HANDSEED
5
1b9
9
$ANGBASE
50
0
9
$ANGDIR
70
0
9
$ATTMODE
70
1
9
$AUNITS
70
0
9
$AUPREC
70
0
9
$CECOLOR
62
256
9
$CELTSCALE
40
1
9
$CELTYPE
6
ByLayer
9
$CELWEIGHT
370
18
9
$CLAYER
8
0
9
$CMLJUST
70
0
9
$CMLSCALE
40
1
9
$CMLSTYLE
2
Standard
9
$DIMSTYLE
2
Standard
9
$TEXTSIZE
40
0.2
9
$TEXTSTYLE
7
Standard
9
$LUNITS
70
2
9
$LUPREC
70
4
9
$EXTNAMES
290
1
9
$INSUNITS
70
4
9
$LTSCALE
40
1
9
$LWDISPLAY
290
1
9
$PDMODE
70
0
9
$PDSIZE
40
0
9
$PLINEGEN
70
0
0
ENDSEC
0
SECTION
2
CLASSES
0
CLASS
1
RASTERVARIABLES
2
AcDbRasterVariables
3
ISM
90
0
280
0
281
0
0
ENDSEC
0
SECTION
2
TABLES
0
TABLE
2
VPORT
5
1af
100
AcDbSymbolTable
0
VPORT
5
1
100
AcDbSymbolTableRecord
100
AcDbViewportTableRecord
2
*Active
70
0
10
0
20
0
11
1
21
1
12
-1
22
1
13
0
23
0
14
0.5
24
0.5
15
10
25
10
16
0
26
0
36
1
17
0
27
0
37
0
0
ENDTAB
0
TABLE
2
LTYPE
5
1b0
100
AcDbSymbolTable
0
LTYPE
5
14
100
AcDbSymbolTableRecord
100
AcDbLinetypeTableRecord
70
0
2
ByBlock
3

72
65
73
0
40
0
0
LTYPE
5
15
100
AcDbSymbolTableRecord
100
AcDbLinetypeTableRecord
70
0
2
ByLayer
3

72
65
73
0
40
0
0
LTYPE
5
16
100
AcDbSymbolTableRecord
100
AcDbLinetypeTableRecord
70
0
2
CONTINUOUS
3
Solid line
72
65
73
0
40
0
0
LTYPE
5
6A
100
AcDbSymbolTableRecord
100
AcDbLinetypeTableRecord
70
0
2
CENTER
3
____ _ ____ _ ____ _ ____
72
65
73
4
40
47.5
49
22
74
0
49
-8.5
74
0
49
8.5
74
0
49
-8.5
74
0
0
LTYPE
5
6B
100
AcDbSymbolTableRecord
100
AcDbLinetypeTableRecord
70
0
2
DASHED
3
__ __ __ __ __ __ __ __ __
72
65
73
2
40
25.72
49
12.86
74
0
49
-12.86
74
0
0
ENDTAB
0
TABLE
2
LAYER
5
1b1
100
AcDbSymbolTable
0
LAYER
5
10
100
AcDbSymbolTableRecord
100
AcDbLayerTableRecord
2
0
70
0
62
7
6
CONTINUOUS
290
1
370
-3
390
0
0
LAYER
5
6D
100
AcDbSymbolTableRecord
100
AcDbLayerTableRecord
2
81
70
0
62
-3
6
CONTINUOUS
290
1
370
-3
390
0
0
LAYER
5
6F
100
AcDbSymbolTableRecord
100
AcDbLayerTableRecord
2
80
70
0
62
-6
6
CONTINUOUS
290
1
370
-3
390
0
0
LAYER
5
74
100
AcDbSymbolTableRecord
100
AcDbLayerTableRecord
2
2
70
0
62
7
6
CONTINUOUS
290
1
370
-3
390
0
0
LAYER
5
78
100
AcDbSymbolTableRecord
100
AcDbLayerTableRecord
2
1
70
0
62
4
6
CONTINUOUS
290
1
370
-3
390
0
0
LAYER
5
8A
100
AcDbSymbolTableRecord
100
AcDbLayerTableRecord
2
4
70
0
62
-2
6
CENTER
290
1
370
-3
390
0
0
LAYER
5
19b
100
AcDbSymbolTableRecord
100
AcDbLayerTableRecord
2
SK2
70
0
62
7
6
CONTINUOUS
290
1
370
-3
390
0
0
LAYER
5
19c
100
AcDbSymbolTableRecord
100
AcDbLayerTableRecord
2
SK1
70
0
62
4
6
CONTINUOUS
290
1
370
-3
390
0
0
LAYER
5
19d
100
AcDbSymbolTableRecord
100
AcDbLayerTableRecord
2
SK4
70
0
62
2
6
CENTER
290
1
370
-3
390
0
0
LAYER
5
19e
100
AcDbSymbolTableRecord
100
AcDbLayerTableRecord
2
SK6
70
0
62
5
6
CONTINUOUS
290
1
370
-3
390
0
0
ENDTAB
0
TABLE
2
STYLE
5
1b2
100
AcDbSymbolTable
0
STYLE
5
11
100
AcDbSymbolTableRecord
100
AcDbTextStyleTableRecord
2
Standard
3
txt
70
0
71
0
40
0
41
1
42
0
50
0
0
STYLE
5
F7
100
AcDbSymbolTableRecord
100
AcDbTextStyleTableRecord
2
iso_b_vert
3
simplex.shx
70
0
71
0
40
0
41
1
42
0
50
0
0
STYLE
5
F8
100
AcDbSymbolTableRecord
100
AcDbTextStyleTableRecord
2
DWGDirectTextStyle
3
simplex
70
0
71
0
40
0
41
1
42
0
50
0
0
ENDTAB
0
TABLE
2
DIMSTYLE
5
1b3
100
AcDbSymbolTable
100
AcDbDimStyleTable
0
DIMSTYLE
105
27
100
AcDbSymbolTableRecord
100
AcDbDimStyleTableRecord
2
Standard
70
0
3
<>
41
0.18
42
0.0625
44
0.18
140
0.18
147
0.09
73
0
74
0
77
1
271
2
275
0
278
52
280
0
340
11
0
ENDTAB
0
TABLE
2
VIEW
5
1b4
100
AcDbSymbolTable
0
ENDTAB
0
TABLE
2
UCS
5
1b5
100
AcDbSymbolTable
0
ENDTAB
0
TABLE
2
APPID
5
1b6
100
AcDbSymbolTable
0
APPID
5
12
100
AcDbSymbolTableRecord
100
AcDbRegAppTableRecord
2
ACAD
70
0
0
ENDTAB
0
TABLE
2
BLOCK_RECORD
5
1b7
100
AcDbSymbolTable
0
BLOCK_RECORD
5
1F
100
AcDbSymbolTableRecord
100
AcDbBlockTableRecord
2
*Model_Space
340
0
70
0
0
BLOCK_RECORD
5
1B
100
AcDbSymbolTableRecord
100
AcDbBlockTableRecord
2
*Paper_Space
340
0
70
0
0
BLOCK_RECORD
5
23
100
AcDbSymbolTableRecord
100
AcDbBlockTableRecord
2
*Paper_Space0
340
0
70
0
0
BLOCK_RECORD
5
FA
100
AcDbSymbolTableRecord
100
AcDbBlockTableRecord
2
DimnDraft3D1
340
0
70
0
0
BLOCK_RECORD
5
104
100
AcDbSymbolTableRecord
100
AcDbBlockTableRecord
2
DimnDraft3D2
340
0
70
0
0
BLOCK_RECORD
5
10E
100
AcDbSymbolTableRecord
100
AcDbBlockTableRecord
2
DimnDraft3D3
340
0
70
0
0
BLOCK_RECORD
5
118
100
AcDbSymbolTableRecord
100
AcDbBlockTableRecord
2
DimnDraft3D4
340
0
70
0
0
BLOCK_RECORD
5
122
100
AcDbSymbolTableRecord
100
AcDbBlockTableRecord
2
DimnDraft3D5
340
0
70
0
0
BLOCK_RECORD
5
12C
100
AcDbSymbolTableRecord
100
AcDbBlockTableRecord
2
DimnDraft3D6
340
0
70
0
0
BLOCK_RECORD
5
137
100
AcDbSymbolTableRecord
100
AcDbBlockTableRecord
2
DimnDraft3D7
340
0
70
0
0
ENDTAB
0
ENDSEC
0
SECTION
2
BLOCKS
0
BLOCK
5
20
100
AcDbEntity
8
0
100
AcDbBlockBegin
2
*Model_Space
70
0
10
0
20
0
30
0
3
*Model_Space
0
ENDBLK
5
21
100
AcDbEntity
8
0
100
AcDbBlockEnd
0
BLOCK
5
1C
100
AcDbEntity
8
0
100
AcDbBlockBegin
2
*Paper_Space
70
0
10
0
20
0
30
0
3
*Paper_Space
0
ENDBLK
5
1D
100
AcDbEntity
8
0
100
AcDbBlockEnd
0
BLOCK
5
24
100
AcDbEntity
8
0
100
AcDbBlockBegin
2
*Paper_Space0
70
0
10
0
20
0
30
0
3
*Paper_Space0
0
ENDBLK
5
25
100
AcDbEntity
8
0
100
AcDbBlockEnd
0
BLOCK
5
101
100
AcDbEntity
8
0
100
AcDbBlockBegin
2
DimnDraft3D1
70
0
10
0
20
0
30
0
3
DimnDraft3D1
0
MTEXT
5
FB
100
AcDbEntity
8
SK2
62
256
6
ByLayer
370
13
48
1
60
0
100
AcDbMText
10
28.448875
20
-13.138398
30
0
210
0
220
0
230
1
1
\W0.7211;67,71
40
3.5
41
0
44
1.084337
50
0
71
7
72
5
7
iso_b_vert
0
LINE
5
FC
100
AcDbEntity
8
SK2
62
256
6
ByLayer
370
13
48
1
60
0
100
AcDbLine
10
0
20
-1.5875
30
0
11
0
21
-16.013398
31
0
39
0
210
0
220
0
230
1
0
LINE
5
FD
100
AcDbEntity
8
SK2
62
256
6
ByLayer
370
13
48
1
60
0
100
AcDbLine
10
67.71
20
-5.3875
30
0
11
67.71
21
-16.013398
31
0
39
0
210
0
220
0
230
1
0
LINE
5
FE
100
AcDbEntity
8
SK2
62
256
6
ByLayer
370
13
48
1
60
0
100
AcDbLine
10
0
20
-14.013398
30
0
11
67.71
21
-14.013398
31
0
39
0
210
0
220
0
230
1
0
SOLID
5
FF
100
AcDbEntity
8
SK2
62
256
6
ByLayer
370
13
48
1
60
0
100
AcDbTrace
10
0
20
-14.013398
30
0
11
3.499998
21
-13.552615
31
0
12
3.500002
22
-14.474182
32
0
13
0
23
-14.013398
33
0
39
0
210
0
220
0
230
1
0
SOLID
5
100
100
AcDbEntity
8
SK2
62
256
6
ByLayer
370
13
48
1
60
0
100
AcDbTrace
10
67.71
20
-14.013398
30
0
11
64.210002
21
-14.474182
31
0
12
64.209998
22
-13.552615
32
0
13
67.71
23
-14.013398
33
0
39
0
210
0
220
0
230
1
0
ENDBLK
5
102
100
AcDbEntity
8
0
100
AcDbBlockEnd
0
BLOCK
5
10B
100
AcDbEntity
8
0
100
AcDbBlockBegin
2
DimnDraft3D2
70
0
10
0
20
0
30
0
3
DimnDraft3D2
0
MTEXT
5
105
100
AcDbEntity
8
SK2
62
256
6
ByLayer
370
13
48
1
60
0
100
AcDbMText
10
11.232221
20
-31.817985
30
0
210
0
220
0
230
1
1
\W0.6930;105,00
40
3.5
41
0
44
1.084337
50
0
71
7
72
5
7
iso_b_vert
0
LINE
5
106
100
AcDbEntity
8
SK2
62
256
6
ByLayer
370
13
48
1
60
0
100
AcDbLine
10
-36
20
-5.5875
30
0
11
-36
21
-34.692985
31
0
39
0
210
0
220
0
230
1
0
LINE
5
107
100
AcDbEntity
8
SK2
62
256
6
ByLayer
370
13
48
1
60
0
100
AcDbLine
10
69
20
-1.5875
30
0
11
69
21
-34.692985
31
0
39
0
210
0
220
0
230
1
0
LINE
5
108
100
AcDbEntity
8
SK2
62
256
6
ByLayer
370
13
48
1
60
0
100
AcDbLine
10
-36
20
-32.692985
30
0
11
69
21
-32.692985
31
0
39
0
210
0
220
0
230
1
0
SOLID
5
109
100
AcDbEntity
8
SK2
62
256
6
ByLayer
370
13
48
1
60
0
100
AcDbTrace
10
-36
20
-32.692985
30
0
11
-32.500002
21
-32.232202
31
0
12
-32.499998
22
-33.153769
32
0
13
-36
23
-32.692985
33
0
39
0
210
0
220
0
230
1
0
SOLID
5
10A
100
AcDbEntity
8
SK2
62
256
6
ByLayer
370
13
48
1
60
0
100
AcDbTrace
10
69
20
-32.692985
30
0
11
65.500002
21
-33.153769
31
0
12
65.499998
22
-32.232202
32
0
13
69
23
-32.692985
33
0
39
0
210
0
220
0
230
1
0
ENDBLK
5
10C
100
AcDbEntity
8
0
100
AcDbBlockEnd
0
BLOCK
5
115
100
AcDbEntity
8
0
100
AcDbBlockBegin
2
DimnDraft3D3
70
0
10
0
20
0
30
0
3
DimnDraft3D3
0
MTEXT
5
10F
100
AcDbEntity
8
SK2
62
256
6
ByLayer
370
13
48
1
60
0
100
AcDbMText
10
33.506316
20
16.284119
30
0
210
0
220
0
230
1
1
\W0.7402;62,09
40
3.5
41
0
44
1.084337
50
0
71
7
72
5
7
iso_b_vert
0
LINE
5
110
100
AcDbEntity
8
SK2
62
256
6
ByLayer
370
13
48
1
60
0
100
AcDbLine
10
6.91
20
5.3875
30
0
11
6.91
21
17.409119
31
0
39
0
210
0
220
0
230
1
0
LINE
5
111
100
AcDbEntity
8
SK2
62
256
6
ByLayer
370
13
48
1
60
0
100
AcDbLine
10
69
20
1.5875
30
0
11
69
21
17.409119
31
0
39
0
210
0
220
0
230
1
0
LINE
5
112
100
AcDbEntity
8
SK2
62
256
6
ByLayer
370
13
48
1
60
0
100
AcDbLine
10
6.91
20
15.409119
30
0
11
69
21
15.409119
31
0
39
0
210
0
220
0
230
1
0
SOLID
5
113
100
AcDbEntity
8
SK2
62
256
6
ByLayer
370
13
48
1
60
0
100
AcDbTrace
10
6.91
20
15.409119
30
0
11
10.409998
21
15.869903
31
0
12
10.410002
22
14.948335
32
0
13
6.91
23
15.409119
33
0
39
0
210
0
220
0
230
1
0
SOLID
5
114
100
AcDbEntity
8
SK2
62
256
6
ByLayer
370
13
48
1
60
0
100
AcDbTrace
10
69
20
15.409119
30
0
11
65.500002
21
14.948335
31
0
12
65.499998
22
15.869903
32
0
13
69
23
15.409119
33
0
39
0
210
0
220
0
230
1
0
ENDBLK
5
116
100
AcDbEntity
8
0
100
AcDbBlockEnd
0
BLOCK
5
11F
100
AcDbEntity
8
0
100
AcDbBlockBegin
2
DimnDraft3D4
70
0
10
0
20
0
30
0
3
DimnDraft3D4
0
MTEXT
5
119
100
AcDbEntity
8
SK2
62
256
6
ByLayer
370
13
48
1
60
0
100
AcDbMText
10
76.278136
20
-15.727503
30
0
210
0
220
0
230
1
1
\W0.6463;1,29
40
3.5
41
0
44
1.084337
50
0
71
7
72
5
7
iso_b_vert
0
LINE
5
11A
100
AcDbEntity
8
SK2
62
256
6
ByLayer
370
13
48
1
60
0
100
AcDbLine
10
69
20
-1.5875
30
0
11
69
21
-18.602503
31
0
39
0
210
0
220
0
230
1
0
LINE
5
11B
100
AcDbEntity
8
SK2
62
256
6
ByLayer
370
13
48
1
60
0
100
AcDbLine
10
67.71
20
-5.3875
30
0
11
67.71
21
-18.602503
31
0
39
0
210
0
220
0
230
1
0
LINE
5
11C
100
AcDbEntity
8
SK2
62
256
6
ByLayer
370
13
48
1
60
0
100
AcDbLine
10
58.96
20
-16.602503
30
0
11
82.559715
21
-16.602503
31
0
39
0
210
0
220
0
230
1
0
SOLID
5
11D
100
AcDbEntity
8
SK2
62
256
6
ByLayer
370
13
48
1
60
0
100
AcDbTrace
10
69
20
-16.602503
30
0
11
72.499998
21
-16.141719
31
0
12
72.500002
22
-17.063287
32
0
13
69
23
-16.602503
33
0
39
0
210
0
220
0
230
1
0
SOLID
5
11E
100
AcDbEntity
8
SK2
62
256
6
ByLayer
370
13
48
1
60
0
100
AcDbTrace
10
67.71
20
-16.602503
30
0
11
64.210002
21
-17.063287
31
0
12
64.209998
22
-16.141719
32
0
13
67.71
23
-16.602503
33
0
39
0
210
0
220
0
230
1
0
ENDBLK
5
120
100
AcDbEntity
8
0
100
AcDbBlockEnd
0
BLOCK
5
129
100
AcDbEntity
8
0
100
AcDbBlockBegin
2
DimnDraft3D5
70
0
10
0
20
0
30
0
3
DimnDraft3D5
0
MTEXT
5
123
100
AcDbEntity
8
SK2
62
256
6
ByLayer
370
13
48
1
60
0
100
AcDbMText
10
8.589097
20
-21.468428
30
0
210
0
220
0
230
1
1
\W0.6822;103,71
40
3.5
41
0
44
1.084337
50
0
71
7
72
5
7
iso_b_vert
0
LINE
5
124
100
AcDbEntity
8
SK2
62
256
6
ByLayer
370
13
48
1
60
0
100
AcDbLine
10
-36
20
-5.5875
30
0
11
-36
21
-24.343428
31
0
39
0
210
0
220
0
230
1
0
LINE
5
125
100
AcDbEntity
8
SK2
62
256
6
ByLayer
370
13
48
1
60
0
100
AcDbLine
10
67.71
20
-5.3875
30
0
11
67.71
21
-24.343428
31
0
39
0
210
0
220
0
230
1
0
LINE
5
126
100
AcDbEntity
8
SK2
62
256
6
ByLayer
370
13
48
1
60
0
100
AcDbLine
10
-36
20
-22.343428
30
0
11
67.71
21
-22.343428
31
0
39
0
210
0
220
0
230
1
0
SOLID
5
127
100
AcDbEntity
8
SK2
62
256
6
ByLayer
370
13
48
1
60
0
100
AcDbTrace
10
-36
20
-22.343428
30
0
11
-32.500002
21
-21.882645
31
0
12
-32.499998
22
-22.804212
32
0
13
-36
23
-22.343428
33
0
39
0
210
0
220
0
230
1
0
SOLID
5
128
100
AcDbEntity
8
SK2
62
256
6
ByLayer
370
13
48
1
60
0
100
AcDbTrace
10
67.71
20
-22.343428
30
0
11
64.210002
21
-22.804212
31
0
12
64.209998
22
-21.882645
32
0
13
67.71
23
-22.343428
33
0
39
0
210
0
220
0
230
1
0
ENDBLK
5
12A
100
AcDbEntity
8
0
100
AcDbBlockEnd
0
BLOCK
5
134
100
AcDbEntity
8
0
100
AcDbBlockBegin
2
DimnDraft3D6
70
0
10
0
20
0
30
0
3
DimnDraft3D6
0
MTEXT
5
12D
100
AcDbEntity
8
SK2
62
256
6
ByLayer
370
13
48
1
60
0
100
AcDbMText
10
-46.375163
20
23.34918
30
0
210
0
220
0
230
1
1
\W0.7317;8,000
40
3.5
41
0
44
1.084337
50
90
71
7
72
5
7
iso_b_vert
0
MTEXT
5
12E
100
AcDbEntity
8
SK2
62
256
6
ByLayer
370
13
48
1
60
0
100
AcDbMText
10
-46.375163
20
18.126524
30
0
210
0
220
0
230
1
1
%%c
40
3.5
41
0
44
1.084337
50
90
71
7
72
5
7
iso_b_vert
0
LINE
5
12F
100
AcDbEntity
8
SK2
62
256
6
ByLayer
370
13
48
1
60
0
100
AcDbLine
10
-37.5875
20
-4
30
0
11
-46.625163
21
-4
31
0
39
0
210
0
220
0
230
1
0
LINE
5
130
100
AcDbEntity
8
SK2
62
256
6
ByLayer
370
13
48
1
60
0
100
AcDbLine
10
-37.5875
20
4
30
0
11
-46.625163
21
4
31
0
39
0
210
0
220
0
230
1
0
LINE
5
131
100
AcDbEntity
8
SK2
62
256
6
ByLayer
370
13
48
1
60
0
100
AcDbLine
10
-44.625163
20
-4
30
0
11
-44.625163
21
33.121549
31
0
39
0
210
0
220
0
230
1
0
SOLID
5
132
100
AcDbEntity
8
SK2
62
256
6
ByLayer
370
13
48
1
60
0
100
AcDbTrace
10
-44.625163
20
-4
30
0
11
-45.085946
21
-0.500002
31
0
12
-44.164379
22
-0.499998
32
0
13
-44.625163
23
-4
33
0
39
0
210
0
220
0
230
1
0
SOLID
5
133
100
AcDbEntity
8
SK2
62
256
6
ByLayer
370
13
48
1
60
0
100
AcDbTrace
10
-44.625163
20
4
30
0
11
-44.164379
21
0.500002
31
0
12
-45.085946
22
0.499998
32
0
13
-44.625163
23
4
33
0
39
0
210
0
220
0
230
1
0
ENDBLK
5
135
100
AcDbEntity
8
0
100
AcDbBlockEnd
0
BLOCK
5
13F
100
AcDbEntity
8
0
100
AcDbBlockBegin
2
DimnDraft3D7
70
0
10
0
20
0
30
0
3
DimnDraft3D7
0
MTEXT
5
138
100
AcDbEntity
8
2
62
256
6
ByLayer
370
13
48
1
60
0
100
AcDbMText
10
79.333343
20
21.742266
30
0
210
0
220
0
230
1
1
\W0.7317;7,600
40
3.5
41
0
44
1.084337
50
90
71
7
72
5
7
iso_b_vert
0
MTEXT
5
139
100
AcDbEntity
8
2
62
256
6
ByLayer
370
13
48
1
60
0
100
AcDbMText
10
79.333343
20
16.51961
30
0
210
0
220
0
230
1
1
%%c
40
3.5
41
0
44
1.084337
50
90
71
7
72
5
7
iso_b_vert
0
LINE
5
13A
100
AcDbEntity
8
2
62
256
6
ByLayer
370
13
48
1
60
0
100
AcDbLine
10
69.2975
20
-3.8
30
0
11
83.083343
21
-3.8
31
0
39
0
210
0
220
0
230
1
0
LINE
5
13B
100
AcDbEntity
8
2
62
256
6
ByLayer
370
13
48
1
60
0
100
AcDbLine
10
69.2975
20
3.8
30
0
11
83.083343
21
3.8
31
0
39
0
210
0
220
0
230
1
0
LINE
5
13C
100
AcDbEntity
8
2
62
256
6
ByLayer
370
13
48
1
60
0
100
AcDbLine
10
81.083343
20
-3.8
30
0
11
81.083343
21
31.514635
31
0
39
0
210
0
220
0
230
1
0
SOLID
5
13D
100
AcDbEntity
8
2
62
256
6
ByLayer
370
13
48
1
60
0
100
AcDbTrace
10
81.083343
20
-3.8
30
0
11
80.622559
21
-0.300002
31
0
12
81.544126
22
-0.299998
32
0
13
81.083343
23
-3.8
33
0
39
0
210
0
220
0
230
1
0
SOLID
5
13E
100
AcDbEntity
8
2
62
256
6
ByLayer
370
13
48
1
60
0
100
AcDbTrace
10
81.083343
20
3.8
30
0
11
81.544126
21
0.300002
31
0
12
80.622559
22
0.299998
32
0
13
81.083343
23
3.8
33
0
39
0
210
0
220
0
230
1
0
ENDBLK
5
140
100
AcDbEntity
8
0
100
AcDbBlockEnd
0
ENDSEC
0
SECTION
2
ENTITIES
0
ARC
5
9F
100
AcDbEntity
8
1
62
256
6
ByLayer
370
18
48
1
60
0
100
AcDbCircle
39
0
10
0
20
3.8
30
0
40
0.200000000000002
210
0
220
0
230
1
100
AcDbArc
50
23.509107
51
90
0
ARC
5
A0
100
AcDbEntity
8
1
62
256
6
ByLayer
370
18
48
1
60
0
100
AcDbCircle
39
0
10
0
20
-3.8
30
0
40
0.200000000000002
210
0
220
0
230
1
100
AcDbArc
50
270
51
336.490893
0
ARC
5
A1
100
AcDbEntity
8
1
62
256
6
ByLayer
370
18
48
1
60
0
100
AcDbCircle
39
0
10
-0.366799
20
-3.959558
30
0
40
0.199999999999995
210
0
220
0
230
-1
100
AcDbArc
50
23.509107
51
90.034377
0
ARC
5
A2
100
AcDbEntity
8
1
62
256
6
ByLayer
370
18
48
1
60
0
100
AcDbCircle
39
0
10
-0.366799
20
3.959558
30
0
40
0.199999999999995
210
0
220
0
230
-1
100
AcDbArc
50
269.965623
51
336.490893
0
ELLIPSE
5
A3
100
AcDbEntity
8
1
62
256
6
ByLayer
370
18
48
1
60
0
100
AcDbEllipse
10
69.000341
20
0.00083
30
0
11
1.40322161389913
21
3.7973003909809
31
0
210
0
220
0
230
-1
40
0.115174
41
2.8648309033855
42
2.97091909885299
0
ELLIPSE
5
A4
100
AcDbEntity
8
1
62
256
6
ByLayer
370
18
48
1
60
0
100
AcDbEllipse
10
68.860378
20
0.114737
30
0
11
0.0727819104920632
21
0.301917195717999
31
0
210
0
220
0
230
-1
40
0.478434
41
1.71170689701313
42
2.45976119973474
0
ELLIPSE
5
A5
100
AcDbEntity
8
1
62
256
6
ByLayer
370
18
48
1
60
0
100
AcDbEllipse
10
69.044982
20
0.005206
30
0
11
0.137979128860427
21
-0.428995648124827
31
0
210
0
220
0
230
-1
40
0.08774
41
1.67516662232475
42
2.3233757212648
0
ELLIPSE
5
A6
100
AcDbEntity
8
1
62
256
6
ByLayer
370
18
48
1
60
0
100
AcDbEllipse
10
69.000341
20
-0.00083
30
0
11
1.4032216078027
21
-3.79730037293391
31
0
210
0
220
0
230
-1
40
0.115174
41
-2.97091909844676
42
-2.86483090272223
0
ELLIPSE
5
A7
100
AcDbEntity
8
1
62
256
6
ByLayer
370
18
48
1
60
0
100
AcDbEllipse
10
68.254663
20
-1.89098
30
0
11
0.589238635138562
21
1.59455647575957
31
0
210
0
220
0
230
-1
40
0.115174
41
0.742863466703949
42
1.51659462063163
0
ELLIPSE
5
A8
100
AcDbEntity
8
1
62
256
6
ByLayer
370
13
48
1
60
0
100
AcDbEllipse
10
68.456471
20
1.767783
30
0
11
2.17633226511082
21
-1.49846665155062
31
0
210
0
220
0
230
-1
40
0.533762
41
1.44484622739235
42
1.70587283602759
0
ELLIPSE
5
A9
100
AcDbEntity
8
1
62
256
6
ByLayer
370
13
48
1
60
0
100
AcDbEllipse
10
4.172872
20
-2.674852
30
0
11
0.00272116723055434
21
-0.0999629693881857
31
0
210
0
220
0
230
1
40
0.641999
41
-2.25586119466726
42
-0.970483827448874
0
ELLIPSE
5
AA
100
AcDbEntity
8
1
62
256
6
ByLayer
370
13
48
1
60
0
100
AcDbEllipse
10
4.250139
20
-2.690784
30
0
11
0.0377790905870411
21
0.092589093928044
31
0
210
0
220
0
230
1
40
0.37337
41
0.827912939093732
42
2.37890304822277
0
ELLIPSE
5
AB
100
AcDbEntity
8
1
62
256
6
ByLayer
370
13
48
1
60
0
100
AcDbEllipse
10
68.126274
20
0.550306
30
0
11
0.153082081612418
21
0.258003636193773
31
0
210
0
220
0
230
1
40
0.454519
41
0.917105603404792
42
2.31336900500032
0
ELLIPSE
5
AC
100
AcDbEntity
8
1
62
256
6
ByLayer
370
18
48
1
60
0
100
AcDbEllipse
10
68.254663
20
1.89098
30
0
11
0.589238635128622
21
-1.59455647573791
31
0
210
0
220
0
230
-1
40
0.115174
41
-1.51659462064038
42
-0.742863466702818
0
ELLIPSE
5
AD
100
AcDbEntity
8
1
62
256
6
ByLayer
370
18
48
1
60
0
100
AcDbEllipse
10
69.044982
20
-0.005206
30
0
11
0.137979128845357
21
0.428995648086971
31
0
210
0
220
0
230
-1
40
0.08774
41
-2.32337572124087
42
-1.67516662225509
0
ELLIPSE
5
AE
100
AcDbEntity
8
1
62
256
6
ByLayer
370
13
48
1
60
0
100
AcDbEllipse
10
68.646377
20
1.89098
30
0
11
2.2485192296758
21
-1.1512619867585
31
0
210
0
220
0
230
-1
40
0.491593
41
1.55045629619168
42
1.82696462411083
0
POINT
5
6C
100
AcDbEntity
8
81
62
256
6
ByLayer
370
18
48
1
60
0
100
AcDbPoint
10
69
20
0
30
0
39
0
210
0
220
0
230
1
50
360
0
POINT
5
6E
100
AcDbEntity
8
80
62
256
6
ByLayer
370
18
48
1
60
0
100
AcDbPoint
10
0
20
0
30
0
39
0
210
0
220
0
230
1
50
360
0
POINT
5
70
100
AcDbEntity
8
SK2
62
256
6
ByLayer
370
18
48
1
60
1
100
AcDbPoint
10
-36
20
-4
30
0
39
0
210
0
220
0
230
1
50
360
0
POINT
5
72
100
AcDbEntity
8
SK2
62
256
6
ByLayer
370
18
48
1
60
1
100
AcDbPoint
10
-36
20
4
30
0
39
0
210
0
220
0
230
1
50
360
0
POINT
5
73
100
AcDbEntity
8
2
62
256
6
ByLayer
370
18
48
1
60
1
100
AcDbPoint
10
67.71
20
-3.8
30
0
39
0
210
0
220
0
230
1
50
360
0
POINT
5
75
100
AcDbEntity
8
2
62
256
6
ByLayer
370
18
48
1
60
1
100
AcDbPoint
10
67.71
20
3.8
30
0
39
0
210
0
220
0
230
1
50
360
0
SPLINE
5
AF
100
AcDbEntity
8
1
62
256
6
ByLayer
370
18
48
1
60
0
100
AcDbSpline
70
4
71
3
72
24
73
20
40
0
40
0
40
0
40
0
40
0.0548971812392619
40
0.141977986713592
40
0.210475590141705
40
0.262397733996281
40
0.326973006017499
40
0.392050041583684
40
0.45261651056353
40
0.511950510268764
40
0.585766011440681
40
0.670587420226054
40
0.727611835472079
40
0.779847844087223
40
0.847909252693635
40
0.91224257448234
40
0.955294584763103
40
0.99438256974854
40
1
40
1
40
1
40
1
41
1
10
38.0224967508477
20
3.60422605267718
30
0
41
1
10
37.8752656792101
20
3.603475753596
30
0
41
1
10
37.4942504408735
20
3.60216817352625
30
0
41
1
10
36.9261597107582
20
3.60363747916051
30
0
41
1
10
36.3692318244328
20
3.60597900533159
30
0
41
1
10
35.8701417475694
20
3.60456126084105
30
0
41
1
10
35.3808538711152
20
3.60323075401874
30
0
41
1
10
34.8680926054358
20
3.60220710762925
30
0
41
1
10
34.36950666465
20
3.60117810062394
30
0
41
1
10
33.8473552491758
20
3.6032784417323
30
0
41
1
10
33.259837363044
20
3.60406150717333
30
0
41
1
10
32.6785329326591
20
3.60036681681126
30
0
41
1
10
32.1554095022928
20
3.60075771944088
30
0
41
1
10
31.6774427598745
20
3.60175434949528
30
0
41
1
10
31.1797977968006
20
3.60191296371639
30
0
41
1
10
30.7068542213697
20
3.60074004945719
30
0
41
1
10
30.3121395386786
20
3.60058498352026
30
0
41
1
10
30.0753805025611
20
3.60007822336018
30
0
41
1
10
29.9550737875743
20
3.59991492173216
30
0
41
1
10
29.9399606968865
20
3.59989573011236
30
0
0
SPLINE
5
B0
100
AcDbEntity
8
1
62
256
6
ByLayer
370
18
48
1
60
0
100
AcDbSpline
70
4
71
3
72
13
73
9
40
0
40
0
40
0
40
0
40
0.0344920198182781
40
0.39277080007995
40
0.483890274710951
40
0.597001715461076
40
0.801163505847662
40
1
40
1
40
1
40
1
41
1
10
19.4016306786558
20
-0.972362601456211
30
0
41
1
10
19.4016121074658
20
-0.972374032976489
30
0
41
1
10
19.402900416797
20
-0.973167080111892
30
0
41
1
10
19.4256143294768
20
-0.983701504593256
30
0
41
1
10
19.4489987619443
20
-0.994997781381045
30
0
41
1
10
19.4803497715234
20
-1.01184130104483
30
0
41
1
10
19.5515553625401
20
-1.05210887222989
30
0
41
1
10
19.6116871524876
20
-1.08746094899649
30
0
41
1
10
19.6446523248783
20
-1.10707617595207
30
0
0
SPLINE
5
B1
100
AcDbEntity
8
1
62
256
6
ByLayer
370
18
48
1
60
0
100
AcDbSpline
70
4
71
3
72
28
73
24
40
0
40
0
40
0
40
0
40
0.0896434955003984
40
0.157871325319568
40
0.204921686660712
40
0.248044520076987
40
0.29969042267356
40
0.350277350393238
40
0.404762465950189
40
0.446429089758103
40
0.477897362583855
40
0.516941104875501
40
0.586337905888118
40
0.646987615960446
40
0.703584839959099
40
0.772590448327899
40
0.805850258299388
40
0.833758657792658
40
0.856067710768375
40
0.873457143868293
40
0.905961905823077
40
0.962928824978905
40
1
40
1
40
1
40
1
41
1
10
8.84435861414278
20
-3.58767260952138
30
0
41
1
10
9.13400599927323
20
-3.58749959779573
30
0
41
1
10
9.64414799113234
20
-3.58738154303615
30
0
41
1
10
10.3053468706277
20
-3.58890512924987
30
0
41
1
10
10.8179090266197
20
-3.58869086575706
30
0
41
1
10
11.2767953573251
20
-3.58857654974932
30
0
41
1
10
11.7471440429415
20
-3.58967679473767
30
0
41
1
10
12.2542727356913
20
-3.5906505667673
30
0
41
1
10
12.7290831701628
20
-3.58996677813511
30
0
41
1
10
13.1420647886877
20
-3.58951530552398
30
0
41
1
10
13.5050629884375
20
-3.58988877534821
30
0
41
1
10
13.957805230296
20
-3.59059204777719
30
0
41
1
10
14.5049694240047
20
-3.59154699838771
30
0
41
1
10
15.1089543565653
20
-3.59152675347832
30
0
41
1
10
15.7115519707379
20
-3.59019482369311
30
0
41
1
10
16.2256662073215
20
-3.58981488103396
30
0
41
1
10
16.6468747032954
20
-3.59279357103412
30
0
41
1
10
16.9169970544501
20
-3.59368896105292
30
0
41
1
10
17.135796562984
20
-3.59340274329475
30
0
41
1
10
17.3691574504474
20
-3.59285185079369
30
0
41
1
10
17.7150100137285
20
-3.59184724943026
30
0
41
1
10
18.1245242804552
20
-3.59124006030066
30
0
41
1
10
18.4287024754984
20
-3.59198609922404
30
0
41
1
10
18.5485981465866
20
-3.5924227378529
30
0
0
SPLINE
5
B2
100
AcDbEntity
8
1
62
256
6
ByLayer
370
18
48
1
60
0
100
AcDbSpline
70
4
71
3
72
11
73
7
40
0
40
0
40
0
40
0
40
0.358784862044523
40
0.494992168998209
40
0.699141452073876
40
1
40
1
40
1
40
1
41
1
10
58.1883123481111
20
-0.965687979477337
30
0
41
1
10
58.1874042707843
20
-0.965849681913426
30
0
41
1
10
58.2217452434564
20
-0.982603148652771
30
0
41
1
10
58.2989948476101
20
-1.02222030916806
30
0
41
1
10
58.3700692901236
20
-1.06149759104173
30
0
41
1
10
58.4257788768614
20
-1.09431562285033
30
0
41
1
10
58.4589272418857
20
-1.1146944904678
30
0
0
SPLINE
5
B3
100
AcDbEntity
8
1
62
256
6
ByLayer
370
18
48
1
60
0
100
AcDbSpline
70
4
71
3
72
27
73
23
40
0
40
0
40
0
40
0
40
0.0787846366437502
40
0.148272494419655
40
0.193393084836607
40
0.238240843089056
40
0.298751173425777
40
0.381396548653071
40
0.44473441028617
40
0.514388758037845
40
0.561633171381709
40
0.592067084595592
40
0.621353034907342
40
0.655138616804063
40
0.695097912045774
40
0.743399215390517
40
0.795480370454103
40
0.834549992451115
40
0.868368385791815
40
0.913354013873893
40
0.968638518779044
40
1
40
1
40
1
40
1
41
1
10
47.6446118158656
20
-3.61107183232349
30
0
41
1
10
47.9018295295502
20
-3.61073547694588
30
0
41
1
10
48.3857196038752
20
-3.61048937318986
30
0
41
1
10
49.0109291010952
20
-3.61159235183473
30
0
41
1
10
49.5335472068999
20
-3.61246220354801
30
0
41
1
10
50.0248483987463
20
-3.61265818202148
30
0
41
1
10
50.6398220341136
20
-3.61135710731566
30
0
41
1
10
51.3148946922691
20
-3.61339647186162
30
0
41
1
10
52.0199571678729
20
-3.61394145687368
30
0
41
1
10
52.6092732810697
20
-3.61326191911434
30
0
41
1
10
53.0910050375245
20
-3.61286614326372
30
0
41
1
10
53.4407380631227
20
-3.61497709440943
30
0
41
1
10
53.746473052407
20
-3.61446059052742
30
0
41
1
10
54.0833452868043
20
-3.61417640615917
30
0
41
1
10
54.4824170119957
20
-3.61377648717254
30
0
41
1
10
54.9411803450365
20
-3.61361564048221
30
0
41
1
10
55.3975437987773
20
-3.61495205926732
30
0
41
1
10
55.8050078265467
20
-3.61530435571555
30
0
41
1
10
56.1921107796068
20
-3.61560109158532
30
0
41
1
10
56.6220510316461
20
-3.61606199872838
30
0
41
1
10
57.0553739311725
20
-3.61447889863189
30
0
41
1
10
57.3362291909433
20
-3.61511723748518
30
0
41
1
10
57.437861363972
20
-3.61542359471352
30
0
0
SPLINE
5
B4
100
AcDbEntity
8
1
62
256
6
ByLayer
370
18
48
1
60
0
100
AcDbSpline
70
4
71
3
72
24
73
20
40
0
40
0
40
0
40
0
40
0.0629809615284144
40
0.140647104724963
40
0.193760887449828
40
0.237434007331832
40
0.282745001947071
40
0.337141702366538
40
0.407699913457976
40
0.486909262533906
40
0.537383059822738
40
0.588703622792916
40
0.671770023999167
40
0.727094919189148
40
0.78391800030318
40
0.86205857732547
40
0.914982099198301
40
0.971689331368707
40
1
40
1
40
1
40
1
41
1
10
18.5982843047613
20
3.59254555360715
30
0
41
1
10
18.4291592572528
20
3.5918364917564
30
0
41
1
10
18.0514689095751
20
3.59086468427068
30
0
41
1
10
17.5300436878962
20
3.59231044176883
30
0
41
1
10
17.062211112477
20
3.59381874152561
30
0
41
1
10
16.6799628129272
20
3.5931408916932
30
0
41
1
10
16.294526534074
20
3.59026106981523
30
0
41
1
10
15.8367217814108
20
3.59020881806509
30
0
41
1
10
15.2878118786067
20
3.59087083168151
30
0
41
1
10
14.7494333520071
20
3.59213848068796
30
0
41
1
10
14.2627821622062
20
3.59064269743908
30
0
41
1
10
13.7657598372645
20
3.59053301853442
30
0
41
1
10
13.2556944927091
20
3.5893417288782
30
0
41
1
10
12.7308354991302
20
3.58997642426203
30
0
41
1
10
12.219224273418
20
3.59067087216479
30
0
41
1
10
11.7140955871028
20
3.58944766314428
30
0
41
1
10
11.2092480365265
20
3.5885465608803
30
0
41
1
10
10.8383888000856
20
3.58869335567178
30
0
41
1
10
10.6097837517019
20
3.58872867982359
30
0
41
1
10
10.5336689879724
20
3.58872502519702
30
0
0
SPLINE
5
B5
100
AcDbEntity
8
1
62
256
6
ByLayer
370
18
48
1
60
0
100
AcDbSpline
70
4
71
3
72
26
73
22
40
0
40
0
40
0
40
0
40
0.0761172750518997
40
0.13890350592938
40
0.185075834530829
40
0.218751947388464
40
0.258439158522217
40
0.303482020350846
40
0.348170334748412
40
0.385508941935902
40
0.41595432595692
40
0.459541580075405
40
0.516175192975245
40
0.584277223460229
40
0.63967100864908
40
0.697743606160466
40
0.760249173394936
40
0.811086777648242
40
0.868149666099605
40
0.946119126034784
40
1
40
1
40
1
40
1
41
1
10
28.2438372578005
20
-3.59926720033093
30
0
41
1
10
28.4910823130421
20
-3.59916187706727
30
0
41
1
10
28.9425009091074
20
-3.59910873415637
30
0
41
1
10
29.5456230600277
20
-3.59961701732442
30
0
41
1
10
30.0093212580566
20
-3.59989085050353
30
0
41
1
10
30.3993947898209
20
-3.60071258688154
30
0
41
1
10
30.78545473794
20
-3.60078785061276
30
0
41
1
10
31.2075247987847
20
-3.60192569697622
30
0
41
1
10
31.6219023500835
20
-3.60185246757803
30
0
41
1
10
31.9886883037026
20
-3.6009899185803
30
0
41
1
10
32.3518707267666
20
-3.60069484846369
30
0
41
1
10
32.7779882800653
20
-3.60072234453199
30
0
41
1
10
33.3268997125989
20
-3.60426504612371
30
0
41
1
10
33.914314891824
20
-3.60305777011942
30
0
41
1
10
34.5064222096773
20
-3.60080704185538
30
0
41
1
10
35.0803026162428
20
-3.60325337991807
30
0
41
1
10
35.6392306622109
20
-3.60319491481496
30
0
41
1
10
36.1951913237347
20
-3.6061767031035
30
0
41
1
10
36.800190457167
20
-3.60440683532744
30
0
41
1
10
37.4156186485502
20
-3.60176310087135
30
0
41
1
10
37.8441034515003
20
-3.60329972739044
30
0
41
1
10
38.0191166926478
20
-3.60424682773595
30
0
0
SPLINE
5
B6
100
AcDbEntity
8
1
62
256
6
ByLayer
370
18
48
1
60
0
100
AcDbSpline
70
4
71
2
72
6
73
3
40
0
40
0
40
0
40
1
40
1
40
1
41
1
10
67.097176069613
20
-3.62273108920425
30
0
41
1
10
67.3910665902002
20
-3.61915651735032
30
0
41
1
10
67.6849730888541
20
-3.62400645773428
30
0
0
SPLINE
5
B7
100
AcDbEntity
8
1
62
256
6
ByLayer
370
18
48
1
60
0
100
AcDbSpline
70
4
71
3
72
10
73
6
40
0
40
0
40
0
40
0
40
0.356443507700514
40
0.60163183126523
40
1
40
1
40
1
40
1
41
1
10
38.804056248171
20
-0.973306343587211
30
0
41
1
10
38.8011648509283
20
-0.972674641599212
30
0
41
1
10
38.8326275374734
20
-0.987348567065084
30
0
41
1
10
38.9317810888209
20
-1.03895102058195
30
0
41
1
10
39.0107709768615
20
-1.08549070516057
30
0
41
1
10
39.0672880717444
20
-1.11997827885975
30
0
0
SPLINE
5
B8
100
AcDbEntity
8
1
62
256
6
ByLayer
370
18
48
1
60
0
100
AcDbSpline
70
4
71
3
72
25
73
21
40
0
40
0
40
0
40
0
40
0.0421103385357472
40
0.11202429696751
40
0.167646447326268
40
0.209293545422398
40
0.267106280530867
40
0.341261775378013
40
0.390692127787587
40
0.43198327499422
40
0.468074679123311
40
0.499577062602727
40
0.535040161990728
40
0.588368017816603
40
0.672816077353313
40
0.74960610816897
40
0.849804326846526
40
0.923166294101437
40
0.977539154967722
40
1
40
1
40
1
40
1
41
1
10
57.4350352918157
20
3.6154515236789
30
0
41
1
10
57.3223628141396
20
3.61511610039656
30
0
41
1
10
57.0225710023242
20
3.61443041638344
30
0
41
1
10
56.5690333802979
20
3.61632502428617
30
0
41
1
10
56.1248847864158
20
3.61537671982623
30
0
41
1
10
55.7053673399523
20
3.61540878090995
30
0
41
1
10
55.2379042752856
20
3.61435510000248
30
0
41
1
10
54.7484337164597
20
3.6135855858526
30
0
41
1
10
54.3038317530426
20
3.61393857622193
30
0
41
1
10
53.9618225400005
20
3.61429071698467
30
0
41
1
10
53.6681744060842
20
3.61459498406495
30
0
41
1
10
53.3902393676098
20
3.614802151509
30
0
41
1
10
53.0658272206355
20
3.61278308744943
30
0
41
1
10
52.5986185515034
20
3.61332744935376
30
0
41
1
10
52.0199572150278
20
3.61392636471098
30
0
41
1
10
51.3148946757997
20
3.6134017404089
30
0
41
1
10
50.6398220376196
20
3.61135598291233
30
0
41
1
10
50.0248483981592
20
3.61265836798589
30
0
41
1
10
49.620376061714
20
3.61249683666821
30
0
41
1
10
49.4129036633809
20
3.61222890792061
30
0
41
1
10
49.35227975441
20
3.61214094511118
30
0
0
SPLINE
5
B9
100
AcDbEntity
8
1
62
256
6
ByLayer
370
18
48
1
60
0
100
AcDbSpline
70
4
71
3
72
39
73
35
40
0
40
0
40
0
40
0
40
0.0840478671653346
40
0.0840478671653346
40
0.168095734330669
40
0.168095734330669
40
0.336191468661338
40
0.336191468661338
40
0.504287202992007
40
0.504287202992007
40
0.588335070157343
40
0.588335070157343
40
0.672382937322678
40
0.672382937322678
40
0.840478671653347
40
0.840478671653347
40
0.861490638444681
40
0.866743630142516
40
0.866743630142516
40
0.87199662184035
40
0.87199662184035
40
0.874623117689267
40
0.874623117689267
40
0.877249613538185
40
0.877249613538185
40
0.882502605236017
40
0.882502605236017
40
0.924526538818671
40
0.924526538818671
40
0.966550472401325
40
0.966550472401325
40
0.987562439192652
40
0.987562439192652
40
1
40
1
40
1
40
1
41
1
10
11.9717648250312
20
3.05144707034591
30
0
41
1
10
11.7086840085303
20
3.14573806388634
30
0
41
1
10
11.4438701149483
20
3.22951219287049
30
0
41
1
10
10.9099778316181
20
3.37745392166695
30
0
41
1
10
10.6402498029015
20
3.44171245176008
30
0
41
1
10
9.82852805166536
20
3.60553363677175
30
0
41
1
10
9.28415752354047
20
3.67610857874089
30
0
41
1
10
8.17885044821728
20
3.75755777365242
30
0
41
1
10
7.61781386710663
20
3.7684232943989
30
0
41
1
10
6.75736663799117
20
3.75880743111014
30
0
41
1
10
6.46742634507905
20
3.75134402415176
30
0
41
1
10
5.88056994572122
20
3.73147550741916
30
0
41
1
10
5.583088123522
20
3.71905450068445
30
0
41
1
10
4.6843784377219
20
3.67991267554112
30
0
41
1
10
4.07620776483486
20
3.65173033884409
30
0
41
1
10
3.38642818731699
20
3.63022420974349
30
0
41
1
10
3.29051400330349
20
3.62740375200946
30
0
41
1
10
3.19445876515016
20
3.62481404840614
30
0
41
1
10
3.15602534832257
20
3.62379702298796
30
0
41
1
10
3.13684578136724
20
3.62358694053631
30
0
41
1
10
3.10824825370671
20
3.6245343400137
30
0
41
1
10
3.09869667376307
20
3.62504312896022
30
0
41
1
10
3.08048539407702
20
3.62652505624175
30
0
41
1
10
3.07189877385645
20
3.62760264153289
30
0
41
1
10
3.0466076973338
20
3.63111413565846
30
0
41
1
10
3.02979967445356
20
3.63345770783621
30
0
41
1
10
2.87922929485728
20
3.654533626085
30
0
41
1
10
2.74933806618097
20
3.67333712327709
30
0
41
1
10
2.50811199019483
20
3.70823258230584
30
0
41
1
10
2.39611198030758
20
3.72446847739639
30
0
41
1
10
2.24884080292088
20
3.74377785312359
30
0
41
1
10
2.20297071105341
20
3.74936977800854
30
0
41
1
10
2.14009310746115
20
3.7557923416112
30
0
41
1
10
2.11880575147927
20
3.75765687137894
30
0
41
1
10
2.09985882902413
20
3.75888490869519
30
0
0
SPLINE
5
BA
100
AcDbEntity
8
1
62
256
6
ByLayer
370
18
48
1
60
0
100
AcDbSpline
70
4
71
3
72
12
73
8
40
0
40
0
40
0
40
0
40
0.466797401832055
40
0.466797401832055
40
0.774312097456246
40
0.774312097456246
40
1
40
1
40
1
40
1
41
1
10
2.04641284167559
20
3.76047347510578
30
0
41
1
10
2.02931248703888
20
3.76007547968592
30
0
41
1
10
2.01682562619433
20
3.75843600658951
30
0
41
1
10
2.00417671564946
20
3.75349381907259
30
0
41
1
10
2.00120964555867
20
3.75095086643253
30
0
41
1
10
1.99961860632791
20
3.74548689895536
30
0
41
1
10
2.00006636928936
20
3.74283246142986
30
0
41
1
10
2.00158163630468
20
3.73987723809333
30
0
0
SPLINE
5
BB
100
AcDbEntity
8
1
62
256
6
ByLayer
370
18
48
1
60
0
100
AcDbSpline
70
4
71
3
72
22
73
18
40
0
40
0
40
0
40
0
40
0.0509491085778156
40
0.0509491085778156
40
0.123953023302599
40
0.123953023302599
40
0.196956938027382
40
0.196956938027382
40
0.269960852752165
40
0.269960852752165
40
0.415968682201732
40
0.415968682201732
40
0.561976511651299
40
0.561976511651299
40
0.707984341100866
40
0.707984341100866
40
1
40
1
40
1
40
1
41
1
10
2.0113434211641
20
3.72813807914682
30
0
41
1
10
2.01882553145961
20
3.72121792135332
30
0
41
1
10
2.02983751763429
20
3.71327750836082
30
0
41
1
10
2.06410603463607
20
3.69163136636607
30
0
41
1
10
2.09057453186435
20
3.67696172435296
30
0
41
1
10
2.15183595864431
20
3.64510377171013
30
0
41
1
10
2.18680757096826
20
3.62780833733027
30
0
41
1
10
2.26350995691757
20
3.59084433578386
30
0
41
1
10
2.30545339415971
20
3.57108064619499
30
0
41
1
10
2.43792828800389
20
3.50933048452475
30
0
41
1
10
2.53458931326406
20
3.46507187894235
30
0
41
1
10
2.73836797797281
20
3.37154930606201
30
0
41
1
10
2.84558542428727
20
3.32226743888714
30
0
41
1
10
3.06759253292637
20
3.21923184680014
30
0
41
1
10
3.18210062301182
20
3.16561219607178
30
0
41
1
10
3.52965650930184
20
3.00079660090341
30
0
41
1
10
3.76822474006303
20
2.88491896329288
30
0
41
1
10
4.01094673487574
20
2.76352769360903
30
0
0
SPLINE
5
BC
100
AcDbEntity
8
1
62
256
6
ByLayer
370
18
48
1
60
0
100
AcDbSpline
70
4
71
3
72
8
73
4
40
0
40
0
40
0
40
0
40
1
40
1
40
1
40
1
41
1
10
67.7378045991533
20
-3.60329314172554
30
0
41
1
10
67.7167062591571
20
-3.61637551290454
30
0
41
1
10
67.6978746285383
20
-3.62297003905707
30
0
41
1
10
67.6813525620552
20
-3.62295405997517
30
0
0
SPLINE
5
BD
100
AcDbEntity
8
1
62
256
6
ByLayer
370
18
48
1
60
0
100
AcDbSpline
70
4
71
3
72
31
73
27
40
0
40
0
40
0
40
0
40
0.0624999999999999
40
0.0624999999999999
40
0.125
40
0.125
40
0.25
40
0.25
40
0.3125
40
0.3125
40
0.375
40
0.4375
40
0.4375
40
0.5
40
0.5
40
0.625
40
0.625
40
0.6875
40
0.6875
40
0.75
40
0.75
40
0.875
40
0.875
40
0.9375
40
0.9375
40
1
40
1
40
1
40
1
41
1
10
4.01097256222033
20
-2.65732365346474
30
0
41
1
10
4.01097065798064
20
-2.56740400682494
30
0
41
1
10
4.01096775476958
20
-2.47276781040657
30
0
41
1
10
4.01096042668962
20
-2.2757659263047
30
0
41
1
10
4.01095602931019
20
-2.17398863476643
30
0
41
1
10
4.0109413597998
20
-1.85913163707167
30
0
41
1
10
4.01092961482152
20
-1.63662208378139
30
0
41
1
10
4.01091167349443
20
-1.28340364946106
30
0
41
1
10
4.01090567062076
20
-1.16297007377
30
0
41
1
10
4.01089423193818
20
-0.920852887783155
30
0
41
1
10
4.0108832991755
20
-0.676319104323909
30
0
41
1
10
4.01087408933034
20
-0.427008197207442
30
0
41
1
10
4.01086606535171
20
-0.175264109583338
30
0
41
1
10
4.01086263722544
20
-0.0475088772497827
30
0
41
1
10
4.01085473048096
20
0.331820246168519
30
0
41
1
10
4.01085256870107
20
0.581014457857435
30
0
41
1
10
4.01085461283517
20
0.949348630571393
30
0
41
1
10
4.01085617712718
20
1.07150681572693
30
0
41
1
10
4.01086108635718
20
1.312651323854
30
0
41
1
10
4.01086439697463
20
1.43020031576515
30
0
41
1
10
4.01087666026868
20
1.7740757954929
30
0
41
1
10
4.01088796545517
20
1.99171785663364
30
0
41
1
10
4.0109083669164
20
2.30033618061154
30
0
41
1
10
4.01091572626899
20
2.3999322389644
30
0
41
1
10
4.01093091729081
20
2.58866440997105
30
0
41
1
10
4.0109387863755
20
2.67838657109084
30
0
41
1
10
4.01094673488578
20
2.76352769360264
30
0
0
SPLINE
5
BE
100
AcDbEntity
8
1
62
256
6
ByLayer
370
13
48
1
60
0
100
AcDbSpline
70
4
71
3
72
8
73
4
40
0
40
0
40
0
40
0
40
1
40
1
40
1
40
1
41
1
10
4.12001004449704
20
-2.77382177722617
30
0
41
1
10
4.12048841260486
20
-2.76013723863355
30
0
41
1
10
4.1209697025383
20
-2.74645095286343
30
0
41
1
10
4.12145392875939
20
-2.73276287264278
30
0
0
SPLINE
5
BF
100
AcDbEntity
8
1
62
256
6
ByLayer
370
13
48
1
60
0
100
AcDbSpline
70
4
71
3
72
10
73
6
40
0
40
0
40
0
40
0
40
0.5
40
0.5
40
1
40
1
40
1
40
1
41
1
10
4.25023159915071
20
-2.61776651922358
30
0
41
1
10
4.22767851266332
20
-2.61238868032976
30
0
41
1
10
4.20558229681609
20
-2.60931855303716
30
0
41
1
10
4.16232319392302
20
-2.60764921844597
30
0
41
1
10
4.14110589759233
20
-2.60912357330201
30
0
41
1
10
4.12145392875942
20
-2.61295614670306
30
0
0
SPLINE
5
C0
100
AcDbEntity
8
1
62
256
6
ByLayer
370
18
48
1
60
0
100
AcDbSpline
70
4
71
3
72
14
73
10
40
0
40
0
40
0
40
0
40
0.25
40
0.25
40
0.5
40
0.5
40
0.75
40
0.75
40
1
40
1
40
1
40
1
41
1
10
67.3708538708595
20
0.818514255818258
30
0
41
1
10
67.364839393338
20
0.847377187347803
30
0
41
1
10
67.3627082437408
20
0.876882025443081
30
0
41
1
10
67.3673544419158
20
0.937646211384759
30
0
41
1
10
67.3739693741466
20
0.968206001526568
30
0
41
1
10
67.3999368982972
20
1.02598574075853
30
0
41
1
10
67.4190857501168
20
1.05216026402351
30
0
41
1
10
67.4688810188738
20
1.09273327391955
30
0
41
1
10
67.4982832813532
20
1.10597929757853
30
0
41
1
10
67.5291729743956
20
1.11339625172667
30
0
0
SPLINE
5
C1
100
AcDbEntity
8
1
62
256
6
ByLayer
370
18
48
1
60
0
100
AcDbSpline
70
4
71
3
72
10
73
6
40
0
40
0
40
0
40
0
40
0.5
40
0.5
40
1
40
1
40
1
40
1
41
1
10
4.12001004449689
20
-2.77382177722981
30
0
41
1
10
4.10112851274289
20
-2.76604963656692
30
0
41
1
10
4.0841641115997
20
-2.75675059029035
30
0
41
1
10
4.05395792075666
20
-2.73508179910806
30
0
41
1
10
4.04086301347769
20
-2.72271140502076
30
0
41
1
10
4.03044243238225
20
-2.70942771477507
30
0
0
SPLINE
5
C2
100
AcDbEntity
8
1
62
256
6
ByLayer
370
18
48
1
60
0
100
AcDbSpline
70
4
71
3
72
20
73
16
40
0
40
0
40
0
40
0
40
0.125000000000002
40
0.125000000000002
40
0.250000000000004
40
0.250000000000004
40
0.500000000000008
40
0.500000000000008
40
0.625000000000006
40
0.625000000000006
40
0.750000000000004
40
0.750000000000004
40
0.875000000000002
40
0.875000000000002
40
1
40
1
40
1
40
1
41
1
10
68.4699668488086
20
-1.87236018493653
30
0
41
1
10
68.4412696214494
20
-1.94952075986319
30
0
41
1
10
68.412518250288
20
-2.02654569621799
30
0
41
1
10
68.3549988475156
20
-2.18055383193271
30
0
41
1
10
68.3262101896747
20
-2.25748535940687
30
0
41
1
10
68.2396977232201
20
-2.48791295445005
30
0
41
1
10
68.1818641856016
20
-2.641134133945
30
0
41
1
10
68.0944450891719
20
-2.86929048112506
30
0
41
1
10
68.0651825592687
20
-2.94503488602558
30
0
41
1
10
68.0066682338541
20
-3.09655058713412
30
0
41
1
10
67.9773810875316
20
-3.1722333241101
30
0
41
1
10
67.9186400709731
20
-3.3231811289541
30
0
41
1
10
67.8891917646253
20
-3.39846013522032
30
0
41
1
10
67.829889372925
20
-3.54800160878673
30
0
41
1
10
67.7999601594187
20
-3.62207586847907
30
0
41
1
10
67.7700209729072
20
-3.69612514425609
30
0
0
SPLINE
5
C3
100
AcDbEntity
8
1
62
256
6
ByLayer
370
18
48
1
60
0
100
AcDbSpline
70
4
71
3
72
78
73
74
40
0
40
0
40
0
40
0
40
0.009618136668107
40
0.009618136668107
40
0.0284052563281278
40
0.0284052563281278
40
0.0659794956481695
40
0.0659794956481695
40
0.103553734968211
40
0.103553734968211
40
0.141127974288253
40
0.141127974288253
40
0.178702213608294
40
0.178702213608294
40
0.216276452928336
40
0.216276452928336
40
0.253850692248378
40
0.253850692248378
40
0.272637811908399
40
0.272637811908399
40
0.291424931568421
40
0.291424931568421
40
0.328999170888464
40
0.328999170888464
40
0.347786290548485
40
0.347786290548485
40
0.366573410208507
40
0.366573410208507
40
0.40414764952855
40
0.40414764952855
40
0.422934769188571
40
0.422934769188571
40
0.441721888848593
40
0.441721888848593
40
0.479296128168634
40
0.479296128168634
40
0.516870367488676
40
0.516870367488676
40
0.535657487148696
40
0.535657487148696
40
0.554444606808716
40
0.554444606808716
40
0.592018846128757
40
0.592018846128757
40
0.629593085448797
40
0.629593085448797
40
0.648380205108817
40
0.648380205108817
40
0.667167324768837
40
0.667167324768837
40
0.704741564088878
40
0.704741564088878
40
0.742315803408918
40
0.742315803408918
40
0.779890042728958
40
0.779890042728958
40
0.798677162388979
40
0.798677162388979
40
0.817464282049
40
0.817464282049
40
0.855038521369042
40
0.855038521369042
40
0.873825641029062
40
0.873825641029062
40
0.892612760689083
40
0.892612760689083
40
0.930187000009125
40
0.930187000009125
40
0.948974119669146
40
0.948974119669146
40
0.967761239329168
40
0.967761239329168
40
1
40
1
40
1
40
1
41
1
10
61.6992042306061
20
-2.76566309708167
30
0
41
1
10
61.6229874985499
20
-2.79460515313778
30
0
41
1
10
61.5467345199432
20
-2.82289690500244
30
0
41
1
10
61.3217057325963
20
-2.90420916632877
30
0
41
1
10
61.1729442675572
20
-2.95523818498353
30
0
41
1
10
60.7268043771246
20
-3.10044014340508
30
0
41
1
10
60.4295480894194
20
-3.18667818158644
30
0
41
1
10
59.8353344001088
20
-3.33682552751739
30
0
41
1
10
59.5366751953451
20
-3.40108968837313
30
0
41
1
10
58.9429603821459
20
-3.5051705013781
30
0
41
1
10
58.6474364494305
20
-3.5454361891052
30
0
41
1
10
58.0591219529739
20
-3.59911465869931
30
0
41
1
10
57.7651587008825
20
-3.6123513717838
30
0
41
1
10
57.1765447993799
20
-3.61778616208173
30
0
41
1
10
56.8821002546212
20
-3.60914792971283
30
0
41
1
10
56.2926680729329
20
-3.56527061201305
30
0
41
1
10
55.9965670253774
20
-3.53058217969621
30
0
41
1
10
55.5497173334861
20
-3.46035530919792
30
0
41
1
10
55.4004033254415
20
-3.4336568268383
30
0
41
1
10
55.1032606530152
20
-3.3746225512586
30
0
41
1
10
54.9551743838312
20
-3.34228253428827
30
0
41
1
10
54.5120129722241
20
-3.23708483104534
30
0
41
1
10
54.2171577837241
20
-3.15661112060428
30
0
41
1
10
53.7753845546731
20
-3.02029317601472
30
0
41
1
10
53.6282175382087
20
-2.97233715365564
30
0
41
1
10
53.3340308697148
20
-2.87066737978026
30
0
41
1
10
53.1870699835991
20
-2.81647966810283
30
0
41
1
10
52.7460846760782
20
-2.6485739300482
30
0
41
1
10
52.4512114709467
20
-2.52874129604047
30
0
41
1
10
52.00713183292
20
-2.33526640306619
30
0
41
1
10
51.8588116812214
20
-2.26855272935566
30
0
41
1
10
51.5615237026059
20
-2.13055005377788
30
0
41
1
10
51.4122913888682
20
-2.05869086325964
30
0
41
1
10
50.9659845464774
20
-1.83789577097752
30
0
41
1
10
50.6691504827677
20
-1.6867637442455
30
0
41
1
10
50.077391626073
20
-1.37478067308444
30
0
41
1
10
49.782636619764
20
-1.21375490720607
30
0
41
1
10
49.3412409489102
20
-0.965083897662709
30
0
41
1
10
49.1939963638793
20
-0.881384455352332
30
0
41
1
10
48.8991852973414
20
-0.713314647726065
30
0
41
1
10
48.7516412786647
20
-0.628762394088824
30
0
41
1
10
48.3085425635256
20
-0.373296159082997
30
0
41
1
10
48.0128003205605
20
-0.200451418147281
30
0
41
1
10
47.4189149439073
20
0.148193936847434
30
0
41
1
10
47.1191509995305
20
0.323052397247153
30
0
41
1
10
46.6733925455847
20
0.580413734362168
30
0
41
1
10
46.5252086113307
20
0.665446120334366
30
0
41
1
10
46.229477278447
20
0.834362561364571
30
0
41
1
10
46.0820384961835
20
0.918497087390421
30
0
41
1
10
45.6398472883677
20
1.16776936981239
30
0
41
1
10
45.3451944186401
20
1.32966217385982
30
0
41
1
10
44.7558581808708
20
1.64299532872849
30
0
41
1
10
44.4613776163727
20
1.79415945393899
30
0
41
1
10
43.8707598097103
20
2.08546536316325
30
0
41
1
10
43.5741373946943
20
2.22472084580556
30
0
41
1
10
43.1268631706508
20
2.42249145808606
30
0
41
1
10
42.9772233171034
20
2.48653367124965
30
0
41
1
10
42.6790379037156
20
2.60948028211834
30
0
41
1
10
42.5303517976883
20
2.6686466788702
30
0
41
1
10
42.0839134415792
20
2.83944410644145
30
0
41
1
10
41.7860290952855
20
2.94380932621021
30
0
41
1
10
41.3386920298817
20
3.08503670215296
30
0
41
1
10
41.1894768266902
20
3.12945220376227
30
0
41
1
10
40.8908286307524
20
3.21235582992532
30
0
41
1
10
40.7421703093412
20
3.25038788368042
30
0
41
1
10
40.2966460147601
20
3.35611265059018
30
0
41
1
10
40.0003530510194
20
3.4159000468045
30
0
41
1
10
39.5571642600658
20
3.48812334835145
30
0
41
1
10
39.4096235315219
20
3.50930511943287
30
0
41
1
10
39.1150136075858
20
3.54550171584245
30
0
41
1
10
38.9679734880303
20
3.56049676255523
30
0
41
1
10
38.5680196679928
20
3.59207055680164
30
0
41
1
10
38.3148881823577
20
3.60282916927218
30
0
41
1
10
38.0612085441991
20
3.6044038476723
30
0
0
SPLINE
5
C4
100
AcDbEntity
8
1
62
256
6
ByLayer
370
18
48
1
60
0
100
AcDbSpline
70
4
71
3
72
52
73
48
40
0
40
0
40
0
40
0
40
0.0063713530771463
40
0.0063713530771463
40
0.0648200970137843
40
0.0648200970137843
40
0.094044468982103
40
0.094044468982103
40
0.123268840950422
40
0.123268840950422
40
0.18171758488706
40
0.18171758488706
40
0.210941956855379
40
0.210941956855379
40
0.240166328823699
40
0.240166328823699
40
0.269390700792018
40
0.269390700792018
40
0.298615072760337
40
0.298615072760337
40
0.357063816696975
40
0.357063816696975
40
0.415512560633613
40
0.415512560633613
40
0.47396130457025
40
0.47396130457025
40
0.532410048506888
40
0.532410048506888
40
0.561634420475207
40
0.561634420475207
40
0.590858792443526
40
0.590858792443526
40
0.649307536380165
40
0.649307536380165
40
0.707756280316804
40
0.707756280316804
40
0.766205024253442
40
0.766205024253442
40
0.824653768190081
40
0.824653768190081
40
0.8538781401584
40
0.8538781401584
40
0.88310251212672
40
0.88310251212672
40
0.94155125606336
40
0.94155125606336
40
1
40
1
40
1
40
1
41
1
10
22.8936256568512
20
-2.75118147460068
30
0
41
1
10
22.8611073083042
20
-2.76344349966595
30
0
41
1
10
22.8285774628776
20
-2.77558189887728
30
0
41
1
10
22.4974849680524
20
-2.89776448737121
30
0
41
1
10
22.1977932402922
20
-2.99680563329568
30
0
41
1
10
21.7502433192461
20
-3.13002686369637
30
0
41
1
10
21.6013928215339
20
-3.17175023751301
30
0
41
1
10
21.3035226522494
20
-3.24895688813939
30
0
41
1
10
21.1544461982559
20
-3.2846244504816
30
0
41
1
10
20.7067214703842
20
-3.38419087578544
30
0
41
1
10
20.4070598818917
20
-3.440261822183
30
0
41
1
10
19.9593187624153
20
-3.50561643573457
30
0
41
1
10
19.8104757098184
20
-3.52431309202206
30
0
41
1
10
19.5126645762273
20
-3.55443930857146
30
0
41
1
10
19.3636873564326
20
-3.56588539745525
30
0
41
1
10
19.0654637055984
20
-3.58301116775911
30
0
41
1
10
18.9162425826888
20
-3.58877845270985
30
0
41
1
10
18.6175391075051
20
-3.59376484907401
30
0
41
1
10
18.4678294284079
20
-3.5928328696636
30
0
41
1
10
18.0199566013055
20
-3.58119515081651
30
0
41
1
10
17.723187213202
20
-3.56236598405482
30
0
41
1
10
17.1303385527472
20
-3.5003686656593
30
0
41
1
10
16.8346637983478
20
-3.45679003970591
30
0
41
1
10
16.2444217308595
20
-3.3421195808269
30
0
41
1
10
15.9495970580843
20
-3.27485181258101
30
0
41
1
10
15.3576108425119
20
-3.11931531281974
30
0
41
1
10
15.0608454103514
20
-3.03115462915863
30
0
41
1
10
14.6141657498374
20
-2.88032728221307
30
0
41
1
10
14.4647987633665
20
-2.82671285995431
30
0
41
1
10
14.1659705294877
20
-2.71539254838242
30
0
41
1
10
14.0168364898227
20
-2.65777784294897
30
0
41
1
10
13.5703338470862
20
-2.47856101342157
30
0
41
1
10
13.2737945739256
20
-2.35064395638153
30
0
41
1
10
12.6828433101399
20
-2.08020607213203
30
0
41
1
10
12.3880670938121
20
-1.93772974982466
30
0
41
1
10
11.7972262097052
20
-1.64039125524292
30
0
41
1
10
11.5013135930539
20
-1.48479090030557
30
0
41
1
10
10.9088956545935
20
-1.16357886607548
30
0
41
1
10
10.611818400193
20
-0.998314785934667
30
0
41
1
10
10.1629491511759
20
-0.745266294705203
30
0
41
1
10
10.0131336614019
20
-0.660071949216814
30
0
41
1
10
9.71445207555058
20
-0.488948743484713
30
0
41
1
10
9.56534702119686
20
-0.402955560699411
30
0
41
1
10
9.1188430474148
20
-0.143507405751961
30
0
41
1
10
8.82150053454183
20
0.0301134517764581
30
0
41
1
10
8.22548098745335
20
0.375227050944517
30
0
41
1
10
7.92683655390903
20
0.54678185427781
30
0
41
1
10
7.62759857235878
20
0.717395104377317
30
0
0
SPLINE
5
C5
100
AcDbEntity
8
1
62
256
6
ByLayer
370
18
48
1
60
0
100
AcDbSpline
70
4
71
3
72
76
73
72
40
0
40
0
40
0
40
0
40
0.0278498893099513
40
0.0278498893099513
40
0.0689023707789372
40
0.0689023707789372
40
0.109954852247923
40
0.109954852247923
40
0.192059815185894
40
0.192059815185894
40
0.274164778123866
40
0.274164778123866
40
0.315217259592852
40
0.315217259592852
40
0.356269741061838
40
0.356269741061838
40
0.43837470399981
40
0.43837470399981
40
0.479427185468795
40
0.479427185468795
40
0.499953426203288
40
0.499953426203288
40
0.510216546570535
40
0.510857991593488
40
0.510857991593488
40
0.511178714104964
40
0.511178714104964
40
0.511499436616441
40
0.511499436616441
40
0.512782326662346
40
0.512782326662346
40
0.515348106754158
40
0.515348106754158
40
0.520479666937781
40
0.520479666937781
40
0.541005907672274
40
0.541005907672274
40
0.561532148406766
40
0.561532148406766
40
0.602584629875751
40
0.602584629875751
40
0.68468959281372
40
0.68468959281372
40
0.76679455575169
40
0.76679455575169
40
0.787320796486182
40
0.787320796486182
40
0.807847037220675
40
0.807847037220675
40
0.812978597404298
40
0.812978597404298
40
0.815544377496109
40
0.815544377496109
40
0.818110157587921
40
0.818110157587921
40
0.818751602610874
40
0.818751602610874
40
0.81907232512235
40
0.81907232512235
40
0.819393047633827
40
0.820675937679732
40
0.823241717771543
40
0.828373277955166
40
0.828373277955166
40
0.848899518689655
40
0.848899518689655
40
0.931004481627613
40
0.931004481627613
40
0.972056963096592
40
0.972056963096592
40
1
40
1
40
1
40
1
41
1
10
11.9717578620902
20
3.05147013489031
30
0
41
1
10
11.8896666671113
20
3.05520607840208
30
0
41
1
10
11.8075300649503
20
3.05713959366693
30
0
41
1
10
11.6041195131963
20
3.05702908178282
30
0
41
1
10
11.4827387101457
20
3.05265444033478
30
0
41
1
10
11.2391854243294
20
3.03412074405313
30
0
41
1
10
11.1166953989879
20
3.01990558686001
30
0
41
1
10
10.7492839971703
20
2.96128766214764
30
0
41
1
10
10.508147256536
20
2.90140582087193
30
0
41
1
10
10.0286931549595
20
2.74176283785351
30
0
41
1
10
9.79033735355569
20
2.64205760010509
30
0
41
1
10
9.42990052194068
20
2.46755786859754
30
0
41
1
10
9.30873869972038
20
2.40497831697658
30
0
41
1
10
9.06716250921932
20
2.27412707909465
30
0
41
1
10
8.94713696524437
20
2.20611143312672
30
0
41
1
10
8.58793214018587
20
1.99660476418219
30
0
41
1
10
8.34959011283206
20
1.84971369803333
30
0
41
1
10
7.98889502604783
20
1.62652809308318
30
0
41
1
10
7.86808440586771
20
1.55160566095177
30
0
41
1
10
7.68571526791646
20
1.43949180002284
30
0
41
1
10
7.62490738474906
20
1.40227205128545
30
0
41
1
10
7.53360359092892
20
1.34677372838806
30
0
41
1
10
7.50125986262424
20
1.32718233884816
30
0
41
1
10
7.46890293441137
20
1.30766867572379
30
0
41
1
10
7.46604784072548
20
1.30594728803103
30
0
41
1
10
7.46490099999039
20
1.30557852656341
30
0
41
1
10
7.46344374898689
20
1.30395619920165
30
0
41
1
10
7.4643813005319
20
1.30286485779911
30
0
41
1
10
7.46744288762866
20
1.29896400156616
30
0
41
1
10
7.4707693016471
20
1.29654507286818
30
0
41
1
10
7.48037755933319
20
1.28917256188691
30
0
41
1
10
7.48710384476737
20
1.28460398156767
30
0
41
1
10
7.50739103849619
20
1.27109989918117
30
0
41
1
10
7.52120031079588
20
1.26245710366408
30
0
41
1
10
7.59060248860436
20
1.21970789367634
30
0
41
1
10
7.64722493680259
20
1.18707726194034
30
0
41
1
10
7.76065818579934
20
1.12219067395196
30
0
41
1
10
7.81762021580994
20
1.0901430980235
30
0
41
1
10
7.98881523856153
20
0.994648301777431
30
0
41
1
10
8.10337835825084
20
0.931853250230063
30
0
41
1
10
8.44760192316772
20
0.744966487865781
30
0
41
1
10
8.67736544558184
20
0.622019562137382
30
0
41
1
10
9.13698038102032
20
0.379146506783741
30
0
41
1
10
9.36702690654408
20
0.259235063409335
30
0
41
1
10
9.65272792971555
20
0.109545390622628
30
0
41
1
10
9.70977638775651
20
0.0796302711082433
30
0
41
1
10
9.82347659818765
20
0.0197556463205331
30
0
41
1
10
9.88022734501573
20
-0.0101666183338409
30
0
41
1
10
9.95015927240402
20
-0.0479000630502355
30
0
41
1
10
9.96409307357354
20
-0.0554660099226112
30
0
41
1
10
9.9847540785602
20
-0.0668930167891517
30
0
41
1
10
9.99160303308781
20
-0.0707146473421005
30
0
41
1
10
10.0051094006621
20
-0.078424658759161
30
0
41
1
10
10.0119217413092
20
-0.0822874306523715
30
0
41
1
10
10.0195086976233
20
-0.0873256647164737
30
0
41
1
10
10.0212232130459
20
-0.0883689477591929
30
0
41
1
10
10.0224161388514
20
-0.0899601671354162
30
0
41
1
10
10.0213470001272
20
-0.0900429750378464
30
0
41
1
10
10.0196949522159
20
-0.0902431603491038
30
0
41
1
10
10.0155649285581
20
-0.0907415437412737
30
0
41
1
10
10.0048281261315
20
-0.0920102913610492
30
0
41
1
10
9.98171010877357
20
-0.0946028658796081
30
0
41
1
10
9.96190437718798
20
-0.0965845248634309
30
0
41
1
10
9.89591482083472
20
-0.10265191609588
30
0
41
1
10
9.84323291694085
20
-0.105783537123216
30
0
41
1
10
9.57995350213523
20
-0.112694834034471
30
0
41
1
10
9.37257765751809
20
-0.0902466879239796
30
0
41
1
10
9.05740197619875
20
-0.0136666118903292
30
0
41
1
10
8.95100450553844
20
0.0192772785918862
30
0
41
1
10
8.77195034538013
20
0.0857978372731338
30
0
41
1
10
8.69928996648298
20
0.115798419359749
30
0
41
1
10
8.62612728650021
20
0.148698038365893
30
0
0
SPLINE
5
C6
100
AcDbEntity
8
1
62
256
6
ByLayer
370
18
48
1
60
0
100
AcDbSpline
70
4
71
3
72
24
73
20
40
0
40
0
40
0
40
0
40
0.0398920321385773
40
0.0398920321385773
40
0.239852246289346
40
0.239852246289346
40
0.33983235336473
40
0.33983235336473
40
0.439812460440115
40
0.439812460440115
40
0.639772674590885
40
0.639772674590885
40
0.739752781666269
40
0.739752781666269
40
0.789742835203962
40
0.789742835203962
40
0.839732888741656
40
0.839732888741656
40
1
40
1
40
1
40
1
41
1
10
13.7426576531836
20
2.52636964332811
30
0
41
1
10
13.8754721652807
20
2.46861122221304
30
0
41
1
10
14.0079580670631
20
2.40922259887049
30
0
41
1
10
14.8030512064965
20
2.04305406007208
30
0
41
1
10
15.4599172849245
20
1.70018401472964
30
0
41
1
10
16.4487852473204
20
1.14881165264504
30
0
41
1
10
16.7791241991183
20
0.959012293995301
30
0
41
1
10
17.4435122741609
20
0.570804772827699
30
0
41
1
10
17.7783450270377
20
0.371645175705908
30
0
41
1
10
18.7736924830761
20
-0.222892732568909
30
0
41
1
10
19.4305326183795
20
-0.618258799977014
30
0
41
1
10
20.4190251805239
20
-1.1876018085953
30
0
41
1
10
20.7490497787656
20
-1.3734599153515
30
0
41
1
10
21.2465235673697
20
-1.64358667512721
30
0
41
1
10
21.4127557748815
20
-1.73218146046807
30
0
41
1
10
21.7463026519683
20
-1.90603008993662
30
0
41
1
10
21.9130881687259
20
-1.99100833868434
30
0
41
1
10
22.611601157686
20
-2.33721404629395
30
0
41
1
10
23.1395069132437
20
-2.57553411570117
30
0
41
1
10
23.6671560116337
20
-2.78350666485238
30
0
0
SPLINE
5
C7
100
AcDbEntity
8
1
62
256
6
ByLayer
370
13
48
1
60
0
100
AcDbSpline
70
4
71
3
72
20
73
16
40
0
40
0
40
0
40
0
40
0.0683085543779546
40
0.0683085543779546
40
0.240366067764312
40
0.240366067764312
40
0.326394824457489
40
0.326394824457489
40
0.412423581150666
40
0.412423581150666
40
0.756538607923377
40
0.756538607923377
40
0.928596121309734
40
0.928596121309734
40
1
40
1
40
1
40
1
41
1
10
23.6671560117133
20
-2.78350666488376
30
0
41
1
10
23.7978380324023
20
-2.83501489839247
30
0
41
1
10
23.9285043098309
20
-2.88466162568165
30
0
41
1
10
24.3884695949376
20
-3.05255436957623
30
0
41
1
10
24.7181556547035
20
-3.16030121772727
30
0
41
1
10
25.2150688879197
20
-3.30147748618765
30
0
41
1
10
25.3810651821373
20
-3.3451610056855
30
0
41
1
10
25.7140601193723
20
-3.42543739588999
30
0
41
1
10
25.8812051639936
20
-3.46203884462491
30
0
41
1
10
26.712473506322
20
-3.62498807045887
30
0
41
1
10
27.3701094371503
20
-3.69304477125718
30
0
41
1
10
28.3574120271171
20
-3.70038140231614
30
0
41
1
10
28.686908573734
20
-3.68706114326034
30
0
41
1
10
29.1550186912934
20
-3.64578290144809
30
0
41
1
10
29.2925340163453
20
-3.63095326352735
30
0
41
1
10
29.4303640067898
20
-3.61339404512012
30
0
0
SPLINE
5
C8
100
AcDbEntity
8
1
62
256
6
ByLayer
370
18
48
1
60
0
100
AcDbSpline
70
4
71
3
72
26
73
22
40
0
40
0
40
0
40
0
40
0.166066472975729
40
0.166066472975729
40
0.215996563211428
40
0.215996563211428
40
0.265926653447127
40
0.265926653447127
40
0.365786833918529
40
0.365786833918529
40
0.565507194861332
40
0.565507194861332
40
0.615437285097032
40
0.615437285097032
40
0.665367375332732
40
0.665367375332732
40
0.76522755580413
40
0.76522755580413
40
0.964947916746926
40
0.964947916746926
40
1
40
1
40
1
40
1
41
1
10
52.1864407566711
20
2.69395617372223
30
0
41
1
10
52.7333776332113
20
2.46788526617576
30
0
41
1
10
53.2811493087332
20
2.20960231698439
30
0
41
1
10
54.0018192079888
20
1.83953086349135
30
0
41
1
10
54.1684512295714
20
1.75179854977614
30
0
41
1
10
54.5001832728876
20
1.5734589209232
30
0
41
1
10
54.6655693702915
20
1.48269918984934
30
0
41
1
10
55.160765102186
20
1.20644368006541
30
0
41
1
10
55.4896660649176
20
1.01705922173986
30
0
41
1
10
56.475951196514
20
0.438651555684288
30
0
41
1
10
57.1329548432616
20
0.0394783831430061
30
0
41
1
10
57.9641456963138
20
-0.458989486861867
30
0
41
1
10
58.1310401660019
20
-0.558632330666171
30
0
41
1
10
58.4631851110063
20
-0.755334366638863
30
0
41
1
10
58.6287783832
20
-0.852665221626211
30
0
41
1
10
59.1244753517019
20
-1.1410983405143
30
0
41
1
10
59.4535244708536
20
-1.3286077995094
30
0
41
1
10
60.4399500120203
20
-1.87147893586373
30
0
41
1
10
61.0965109969216
20
-2.20725292938676
30
0
41
1
10
61.8775187012262
20
-2.55526814034968
30
0
41
1
10
61.9944930317828
20
-2.60605327736485
30
0
41
1
10
62.111430849706
20
-2.65540493634694
30
0
0
SPLINE
5
C9
100
AcDbEntity
8
1
62
256
6
ByLayer
370
13
48
1
60
0
100
AcDbSpline
70
4
71
3
72
20
73
16
40
0
40
0
40
0
40
0
40
0.0263743383960194
40
0.0263743383960194
40
0.114885762178201
40
0.114885762178201
40
0.291908609742563
40
0.291908609742563
40
0.380420033524745
40
0.380420033524745
40
0.468931457306927
40
0.468931457306927
40
0.645954304871285
40
0.645954304871285
40
1
40
1
40
1
40
1
41
1
10
62.1114309045529
20
-2.65540495949415
30
0
41
1
10
62.1610656443209
20
-2.67635247478208
30
0
41
1
10
62.2106938059136
20
-2.69704173278461
30
0
41
1
10
62.4267090603964
20
-2.78595219627712
30
0
41
1
10
62.5928766972487
20
-2.8514092907252
30
0
41
1
10
63.0911115182221
20
-3.03819917962519
30
0
41
1
10
63.4229465322308
20
-3.14991398344185
30
0
41
1
10
63.9218230007184
20
-3.29666623346793
30
0
41
1
10
64.0885725979006
20
-3.34217770740563
30
0
41
1
10
64.4213782177223
20
-3.42563789986482
30
0
41
1
10
64.5872603263761
20
-3.46355776504197
30
0
41
1
10
65.0837929621211
20
-3.56578524275599
30
0
41
1
10
65.4133480991924
20
-3.61854122698802
30
0
41
1
10
66.4007190142571
20
-3.72999000921831
30
0
41
1
10
67.0579217418696
20
-3.74183381592073
30
0
41
1
10
67.7218322007481
20
-3.68908370359992
30
0
0
SPLINE
5
CA
100
AcDbEntity
8
1
62
256
6
ByLayer
370
18
48
1
60
0
100
AcDbSpline
70
4
71
3
72
44
73
40
40
0
40
0
40
0
40
0
40
0.0491472748711709
40
0.0491472748711709
40
0.0982945497423419
40
0.0982945497423419
40
0.196589099484684
40
0.196589099484684
40
0.245736374355855
40
0.245736374355855
40
0.294883649227026
40
0.294883649227026
40
0.393178198969366
40
0.393178198969366
40
0.442325473840536
40
0.442325473840536
40
0.466899111276121
40
0.466899111276121
40
0.491472748711707
40
0.491472748711707
40
0.589767298454047
40
0.589767298454047
40
0.638914573325217
40
0.638914573325217
40
0.663488210760801
40
0.663488210760801
40
0.688061848196385
40
0.688061848196385
40
0.786356397938722
40
0.786356397938722
40
0.83550367280989
40
0.83550367280989
40
0.860077310245474
40
0.860077310245474
40
0.884650947681058
40
0.884650947681058
40
0.982945497423392
40
0.982945497423392
40
1
40
1
40
1
40
1
41
1
10
67.691789599173
20
-3.76874743401333
30
0
41
1
10
67.359462563579
20
-3.79475241070034
30
0
41
1
10
67.0275674601035
20
-3.80424891507852
30
0
41
1
10
66.3625874096003
20
-3.79026823134657
30
0
41
1
10
66.0285220506428
20
-3.76658600332942
30
0
41
1
10
65.0340926669374
20
-3.64753246189434
30
0
41
1
10
64.3780978604239
20
-3.5047196851622
30
0
41
1
10
63.3910820829109
20
-3.20526102047225
30
0
41
1
10
63.061552549144
20
-3.09124106165416
30
0
41
1
10
62.3992495595011
20
-2.83625209905972
30
0
41
1
10
62.0649797992186
20
-2.69464442769944
30
0
41
1
10
61.0700258737155
20
-2.24019589667071
30
0
41
1
10
60.4139766082826
20
-1.89675998618333
30
0
41
1
10
59.4270340718438
20
-1.3412182319272
30
0
41
1
10
59.0975900307587
20
-1.14927783521344
30
0
41
1
10
58.6009196784445
20
-0.853884930944304
30
0
41
1
10
58.4349395604022
20
-0.754184332555383
30
0
41
1
10
58.1019012347432
20
-0.552630111727325
30
0
41
1
10
57.9351831845211
20
-0.450921210913378
30
0
41
1
10
57.1057775544363
20
0.057125203332447
30
0
41
1
10
56.4493370138903
20
0.464112282570824
30
0
41
1
10
55.4623990269051
20
1.05446600372019
30
0
41
1
10
55.1330206169606
20
1.24785877527955
30
0
41
1
10
54.6366272792067
20
1.53002923879805
30
0
41
1
10
54.4707604804947
20
1.62274289796503
30
0
41
1
10
54.137899074167
20
1.80495819187536
30
0
41
1
10
53.9709408106152
20
1.89443068774776
30
0
41
1
10
53.1404517439292
20
2.32853307608929
30
0
41
1
10
52.4840913326939
20
2.63767521860171
30
0
41
1
10
51.4969980630665
20
3.02768789414111
30
0
41
1
10
51.1677082550013
20
3.14559115697188
30
0
41
1
10
50.671462289512
20
3.30209199186047
30
0
41
1
10
50.5056476159501
20
3.3508559565804
30
0
41
1
10
50.172928215796
20
3.44124993858912
30
0
41
1
10
50.0058482572584
20
3.48290320412977
30
0
41
1
10
49.1747769636456
20
3.67093221929596
30
0
41
1
10
48.5181085738084
20
3.75848149466114
30
0
41
1
10
47.7458995102555
20
3.7856281621934
30
0
41
1
10
47.6316858314402
20
3.78770493680932
30
0
41
1
10
47.5173875194894
20
3.78783522749424
30
0
0
SPLINE
5
CB
100
AcDbEntity
8
1
62
256
6
ByLayer
370
18
48
1
60
0
100
AcDbSpline
70
4
71
3
72
36
73
32
40
0
40
0
40
0
40
0
40
0.0003270793759501
40
0.0003270793759501
40
0.0470538236443944
40
0.0470538236443944
40
0.0704171957786164
40
0.0704171957786164
40
0.0937805679128387
40
0.0937805679128387
40
0.187234056449724
40
0.187234056449724
40
0.280687544986611
40
0.280687544986611
40
0.374141033523497
40
0.374141033523497
40
0.467594522060383
40
0.467594522060383
40
0.514321266328826
40
0.514321266328826
40
0.561048010597269
40
0.561048010597269
40
0.654501499134155
40
0.654501499134155
40
0.74795498767104
40
0.74795498767104
40
0.841408476207926
40
0.841408476207926
40
0.934861964744812
40
0.934861964744812
40
1
40
1
40
1
40
1
41
1
10
29.9973904438812
20
-3.60041039659987
30
0
41
1
10
29.9950856906361
20
-3.6008354974108
30
0
41
1
10
29.9927809327602
20
-3.60125984651208
30
0
41
1
10
29.6612164406922
20
-3.66219877825239
30
0
41
1
10
29.3318759212975
20
-3.70736741988927
30
0
41
1
10
28.8359593134375
20
-3.7511772861782
30
0
41
1
10
28.6703334903792
20
-3.76179098081539
30
0
41
1
10
28.338196048214
20
-3.77488667953051
30
0
41
1
10
28.1714888582561
20
-3.77736646324493
30
0
41
1
10
27.3375487188092
20
-3.76898907089137
30
0
41
1
10
26.6789680389876
20
-3.69639993273819
30
0
41
1
10
25.3622367146776
20
-3.4294858667559
30
0
41
1
10
24.7032344772451
20
-3.23551657104821
30
0
41
1
10
23.3675856710314
20
-2.73519516118876
30
0
41
1
10
22.7087186609073
20
-2.4367768796796
30
0
41
1
10
21.3915986260471
20
-1.7679834222597
30
0
41
1
10
20.7331165094931
20
-1.3978620307206
30
0
41
1
10
19.7316380507621
20
-0.80823548526152
30
0
41
1
10
19.3982853526422
20
-0.607703714857934
30
0
41
1
10
18.7325170071178
20
-0.203364154551338
30
0
41
1
10
18.3997119001676
20
0.0005669869350413
30
0
41
1
10
17.3977267606495
20
0.611412724429357
30
0
41
1
10
16.7336746303672
20
1.0121259766284
30
0
41
1
10
15.397535395946
20
1.77018307369164
30
0
41
1
10
14.7334761691419
20
2.12177512719023
30
0
41
1
10
13.3971612955955
20
2.74393944159163
30
0
41
1
10
12.7380949183587
20
3.00767155101616
30
0
41
1
10
11.4200879651026
20
3.42534483753045
30
0
41
1
10
10.7612306285571
20
3.57926701260868
30
0
41
1
10
9.62709747982558
20
3.73319751559879
30
0
41
1
10
9.1656012350546
20
3.7645436161196
30
0
41
1
10
8.70555015753348
20
3.76454287606177
30
0
0
SPLINE
5
CC
100
AcDbEntity
8
1
62
256
6
ByLayer
370
18
48
1
60
0
100
AcDbSpline
70
4
71
3
72
36
73
32
40
0
40
0
40
0
40
0
40
0.125000000000005
40
0.125000000000005
40
0.25000000000001
40
0.25000000000001
40
0.500000000000029
40
0.500000000000029
40
0.562500000000033
40
0.562500000000033
40
0.625000000000038
40
0.625000000000038
40
0.687500000000042
40
0.687500000000042
40
0.718750000000041
40
0.718750000000041
40
0.750000000000039
40
0.750000000000039
40
0.812500000000029
40
0.812500000000029
40
0.843750000000025
40
0.843750000000025
40
0.87500000000002
40
0.87500000000002
40
0.906250000000015
40
0.906250000000015
40
0.93750000000001
40
0.93750000000001
40
0.968750000000005
40
0.968750000000005
40
1
40
1
40
1
40
1
41
1
10
64.5713111019657
20
1.42584862861079
30
0
41
1
10
64.7014976679488
20
1.31951562229352
30
0
41
1
10
64.8333498010454
20
1.21768248967427
30
0
41
1
10
65.1001398758338
20
1.02561749612465
30
0
41
1
10
65.2354259873189
20
0.935157058420174
30
0
41
1
10
65.6413241191912
20
0.686426321449176
30
0
41
1
10
65.9126565970913
20
0.549587913292356
30
0
41
1
10
66.2529646449973
20
0.423666717901796
30
0
41
1
10
66.3210842458474
20
0.400773134895957
30
0
41
1
10
66.4574497520736
20
0.359974999747493
30
0
41
1
10
66.525931644744
20
0.342021334997838
30
0
41
1
10
66.6617583863751
20
0.311914728129523
30
0
41
1
10
66.7290086365367
20
0.299765472215057
30
0
41
1
10
66.8288374670782
20
0.286124789793547
30
0
41
1
10
66.8619391962784
20
0.282342303545192
30
0
41
1
10
66.9277828795335
20
0.276352917801574
30
0
41
1
10
66.9605936821775
20
0.273844505187952
30
0
41
1
10
67.0575110255958
20
0.272954288172514
30
0
41
1
10
67.1201962761801
20
0.28004185605738
30
0
41
1
10
67.2051359086673
20
0.309465647600177
30
0
41
1
10
67.2319854607265
20
0.322590699568735
30
0
41
1
10
67.2789697437172
20
0.357159231489078
30
0
41
1
10
67.2999523954886
20
0.377888552809253
30
0
41
1
10
67.3364257208495
20
0.426886644084476
30
0
41
1
10
67.3515465205645
20
0.454799515005789
30
0
41
1
10
67.3743140302601
20
0.516040477529259
30
0
41
1
10
67.3821553748375
20
0.549983897376734
30
0
41
1
10
67.3903289384772
20
0.622067028214047
30
0
41
1
10
67.3907214306499
20
0.659731242444252
30
0
41
1
10
67.3851990228171
20
0.737830076963746
30
0
41
1
10
67.3792430076351
20
0.778255550140898
30
0
41
1
10
67.3708538708596
20
0.818514255818315
30
0
0
SPLINE
5
CD
100
AcDbEntity
8
1
62
256
6
ByLayer
370
18
48
1
60
0
100
AcDbSpline
70
4
71
3
72
86
73
82
40
0
40
0
40
0
40
0
40
0.0256062234917616
40
0.0256062234917616
40
0.0444067501582978
40
0.0444067501582978
40
0.0632072768248339
40
0.0632072768248339
40
0.100808330157905
40
0.100808330157905
40
0.119608856824441
40
0.119608856824441
40
0.138409383490976
40
0.138409383490976
40
0.157209910157512
40
0.157209910157512
40
0.176010436824047
40
0.176010436824047
40
0.213611490157118
40
0.213611490157118
40
0.232412016823654
40
0.232412016823654
40
0.251212543490189
40
0.251212543490189
40
0.28881359682326
40
0.28881359682326
40
0.307614123489795
40
0.307614123489795
40
0.32641465015633
40
0.32641465015633
40
0.3640157034894
40
0.3640157034894
40
0.40161675682247
40
0.40161675682247
40
0.43921781015554
40
0.43921781015554
40
0.476818863488609
40
0.476818863488609
40
0.495619390155145
40
0.495619390155145
40
0.51441991682168
40
0.51441991682168
40
0.533220443488216
40
0.533220443488216
40
0.552020970154751
40
0.552020970154751
40
0.589622023487822
40
0.589622023487822
40
0.627223076820893
40
0.627223076820893
40
0.664824130153964
40
0.664824130153964
40
0.6836246568205
40
0.6836246568205
40
0.702425183487035
40
0.702425183487035
40
0.721225710153571
40
0.721225710153571
40
0.740026236820106
40
0.740026236820106
40
0.777627290153176
40
0.777627290153176
40
0.79642781681971
40
0.79642781681971
40
0.815228343486245
40
0.815228343486245
40
0.83402887015278
40
0.83402887015278
40
0.852829396819315
40
0.852829396819315
40
0.871629923485849
40
0.871629923485849
40
0.890430450152384
40
0.890430450152384
40
0.928031503485454
40
0.928031503485454
40
0.946832030151989
40
0.946832030151989
40
0.965632556818523
40
0.965632556818523
40
1
40
1
40
1
40
1
41
1
10
18.5877931578333
20
3.59247459128252
30
0
41
1
10
18.7890501371596
20
3.59254531653079
30
0
41
1
10
18.9906253667214
20
3.58690228191017
30
0
41
1
10
19.3407457216466
20
3.56746474634443
30
0
41
1
10
19.4891185783734
20
3.55640610169087
30
0
41
1
10
19.7863970628457
20
3.52710229796256
30
0
41
1
10
19.9352950355271
20
3.50877040762384
30
0
41
1
10
20.384099246828
20
3.44424111374832
30
0
41
1
10
20.6832674038087
20
3.38883537944773
30
0
41
1
10
21.1311828107008
20
3.29005128540834
30
0
41
1
10
21.2803775767785
20
3.25462339716424
30
0
41
1
10
21.5785972365014
20
3.17794369883535
30
0
41
1
10
21.7276493599653
20
3.13647085252307
30
0
41
1
10
22.0265613721585
20
3.04801828931781
30
0
41
1
10
22.1765086989891
20
3.00109148337182
30
0
41
1
10
22.4754751254927
20
2.90246112653185
30
0
41
1
10
22.6245243681267
20
2.85058281982498
30
0
41
1
10
23.0704199297967
20
2.68687176811929
30
0
41
1
10
23.3657512860268
20
2.56717218626224
30
0
41
1
10
23.8090253167199
20
2.37773949877712
30
0
41
1
10
23.9567689363711
20
2.31286879112778
30
0
41
1
10
24.252156407526
20
2.17988472687617
30
0
41
1
10
24.3997987042317
20
2.1116519217905
30
0
41
1
10
24.8426949043194
20
1.90004505344953
30
0
41
1
10
25.1376403343188
20
1.74950142750981
30
0
41
1
10
25.58261900551
20
1.51681330375524
30
0
41
1
10
25.7312925543563
20
1.43797491400204
30
0
41
1
10
26.0292020474879
20
1.27799216608088
30
0
41
1
10
26.1784111093575
20
1.19701706213269
30
0
41
1
10
26.6271320374066
20
0.94908767872414
30
0
41
1
10
26.924547013485
20
0.778614657712382
30
0
41
1
10
27.5207509765629
20
0.436354193083901
30
0
41
1
10
27.8191522685702
20
0.263908182630615
30
0
41
1
10
28.4160807180679
20
-0.0837268926048864
30
0
41
1
10
28.7145094518419
20
-0.259523697349323
30
0
41
1
10
29.3108820207381
20
-0.604044797872859
30
0
41
1
10
29.609072198792
20
-0.773934316257197
30
0
41
1
10
30.05636474569
20
-1.02579250835811
30
0
41
1
10
30.2053903153757
20
-1.10940228858485
30
0
41
1
10
30.5038045496694
20
-1.27462586889081
30
0
41
1
10
30.6530425229775
20
-1.35571896020531
30
0
41
1
10
30.9506864130105
20
-1.51492567925374
30
0
41
1
10
31.0992204474626
20
-1.5931912163235
30
0
41
1
10
31.3956332403659
20
-1.74624488929666
30
0
41
1
10
31.5435142980941
20
-1.82094980459587
30
0
41
1
10
31.986390983894
20
-2.04005223685471
30
0
41
1
10
32.2805306774629
20
-2.17979857088576
30
0
41
1
10
32.8703405928968
20
-2.44338751994815
30
0
41
1
10
33.1653765153706
20
-2.56903842457825
30
0
41
1
10
33.7565627728332
20
-2.79947404849577
30
0
41
1
10
34.0526933624659
20
-2.90518150492244
30
0
41
1
10
34.5002984560697
20
-3.04850850517767
30
0
41
1
10
34.649995757866
20
-3.09412821619586
30
0
41
1
10
34.9480803100566
20
-3.1800054260853
30
0
41
1
10
35.096710739347
20
-3.22030044568356
30
0
41
1
10
35.3930962340048
20
-3.29469793246554
30
0
41
1
10
35.5408038794208
20
-3.32899059773595
30
0
41
1
10
35.8360186428057
20
-3.39229695423381
30
0
41
1
10
35.983603304579
20
-3.42117936460284
30
0
41
1
10
36.4260979649201
20
-3.49754894435844
30
0
41
1
10
36.720850201104
20
-3.53498712995972
30
0
41
1
10
37.1629918124299
20
-3.57368381531376
30
0
41
1
10
37.3102933164466
20
-3.58364626444063
30
0
41
1
10
37.6054195254203
20
-3.59823512519577
30
0
41
1
10
37.7533051722292
20
-3.60282901912456
30
0
41
1
10
38.0496993645074
20
-3.60553127844764
30
0
41
1
10
38.1982249118565
20
-3.60360360056552
30
0
41
1
10
38.4959489780559
20
-3.59358634103478
30
0
41
1
10
38.6454303152012
20
-3.58553081146888
30
0
41
1
10
38.9435784194003
20
-3.56278191637807
30
0
41
1
10
39.0919927591221
20
-3.54799915674622
30
0
41
1
10
39.3884503523304
20
-3.51219159060517
30
0
41
1
10
39.536503423815
20
-3.49120627588997
30
0
41
1
10
39.980076426564
20
-3.41971713507516
30
0
41
1
10
40.275075866573
20
-3.36067902689962
30
0
41
1
10
40.7165615649305
20
-3.25670838722931
30
0
41
1
10
40.8634590044936
20
-3.2195244826184
30
0
41
1
10
41.1577189882655
20
-3.13861884653878
30
0
41
1
10
41.3050600354799
20
-3.09518441463521
30
0
41
1
10
41.7222544234685
20
-2.96466125979407
30
0
41
1
10
41.9925626298992
20
-2.87156909470966
30
0
41
1
10
42.2635179223602
20
-2.77022655280925
30
0
0
SPLINE
5
CE
100
AcDbEntity
8
1
62
256
6
ByLayer
370
18
48
1
60
0
100
AcDbSpline
70
4
71
3
72
26
73
22
40
0
40
0
40
0
40
0
40
0.0036119125849395
40
0.0036119125849395
40
0.128160423511823
40
0.128160423511823
40
0.252708934438706
40
0.252708934438706
40
0.377257445365589
40
0.377257445365589
40
0.501805956292472
40
0.501805956292472
40
0.626354467219356
40
0.626354467219356
40
0.750902978146239
40
0.750902978146239
40
0.813177233609681
40
0.813177233609681
40
0.875451489073122
40
0.875451489073122
40
1
40
1
40
1
40
1
41
1
10
57.4486551808616
20
3.6152521472529
30
0
41
1
10
57.4571851658931
20
3.61518997545608
30
0
41
1
10
57.4657152763774
20
3.61511822062536
30
0
41
1
10
57.7683911667449
20
3.61223374076562
30
0
41
1
10
58.0624579889341
20
3.59892650980794
30
0
41
1
10
58.6517240053347
20
3.54492723903204
30
0
41
1
10
58.9480842488225
20
3.50443739027318
30
0
41
1
10
59.5441109576129
20
3.39961752451367
30
0
41
1
10
59.8412441267655
20
3.33542870706657
30
0
41
1
10
60.431720727633
20
3.18603140108084
30
0
41
1
10
60.7264808347966
20
3.10046592454609
30
0
41
1
10
61.3151493248021
20
2.90903432461883
30
0
41
1
10
61.6088781513098
20
2.80280205994524
30
0
41
1
10
62.1967847932698
20
2.57081584115579
30
0
41
1
10
62.4918323718446
20
2.44654512882056
30
0
41
1
10
62.9359056249225
20
2.24749235866426
30
0
41
1
10
63.0842049858713
20
2.1789458618147
30
0
41
1
10
63.3814175449616
20
2.03735067561956
30
0
41
1
10
63.5304351608985
20
1.96410058212314
30
0
41
1
10
63.9766027596617
20
1.74010354474635
30
0
41
1
10
64.2740087177459
20
1.58554746058598
30
0
41
1
10
64.5713111019656
20
1.42584862861085
30
0
0
SPLINE
5
CF
100
AcDbEntity
8
1
62
256
6
ByLayer
370
18
48
1
60
0
100
AcDbSpline
70
4
71
3
72
22
73
18
40
0
40
0
40
0
40
0
40
0.124999999999994
40
0.124999999999994
40
0.187499999999993
40
0.187499999999993
40
0.249999999999993
40
0.249999999999993
40
0.499999999999995
40
0.499999999999995
40
0.624999999999996
40
0.624999999999996
40
0.749999999999997
40
0.749999999999997
40
0.874999999999999
40
0.874999999999999
40
1
40
1
40
1
40
1
41
1
10
67.6813525620519
20
-3.62295405997514
30
0
41
1
10
67.6264938371185
20
-3.62291828778112
30
0
41
1
10
67.5743815420462
20
-3.61459129883352
30
0
41
1
10
67.5005511095658
20
-3.58900476560368
30
0
41
1
10
67.4766658977808
20
-3.57828741766022
30
0
41
1
10
67.4304086456853
20
-3.55228459758493
30
0
41
1
10
67.408002739745
20
-3.5369496310191
30
0
41
1
10
67.3014916980793
20
-3.44967867592607
30
0
41
1
10
67.2323739118652
20
-3.34588808006072
30
0
41
1
10
67.1543924914275
20
-3.13595050228503
30
0
41
1
10
67.1326522700454
20
-3.05606861400406
30
0
41
1
10
67.0996314712135
20
-2.88204893065694
30
0
41
1
10
67.0881385603956
20
-2.78765922041137
30
0
41
1
10
67.0751400744966
20
-2.58419013522303
30
0
41
1
10
67.0736329975227
20
-2.47511296930821
30
0
41
1
10
67.0810423084424
20
-2.24162750133633
30
0
41
1
10
67.0899430994435
20
-2.11893420838876
30
0
41
1
10
67.1037685286192
20
-1.99188782113245
30
0
0
SPLINE
5
D0
100
AcDbEntity
8
1
62
256
6
ByLayer
370
18
48
1
60
0
100
AcDbSpline
70
4
71
3
72
96
73
92
40
0
40
0
40
0
40
0
40
0.0006527207164428
40
0.0006527207164428
40
0.0187831104951972
40
0.0187831104951972
40
0.0369135002739516
40
0.0369135002739516
40
0.055043890052706
40
0.055043890052706
40
0.0731742798314604
40
0.0731742798314604
40
0.0913046696102148
40
0.0913046696102148
40
0.127565449167723
40
0.127565449167723
40
0.145695838946478
40
0.145695838946478
40
0.163826228725231
40
0.163826228725231
40
0.200087008282737
40
0.200087008282737
40
0.218217398061489
40
0.218217398061489
40
0.236347787840241
40
0.236347787840241
40
0.272608567397745
40
0.272608567397745
40
0.290738957176497
40
0.290738957176497
40
0.308869346955248
40
0.308869346955248
40
0.34513012651275
40
0.34513012651275
40
0.363260516291502
40
0.363260516291502
40
0.381390906070253
40
0.381390906070253
40
0.417651685627757
40
0.417651685627757
40
0.435782075406509
40
0.435782075406509
40
0.453912465185261
40
0.453912465185261
40
0.490173244742765
40
0.490173244742765
40
0.508303634521518
40
0.508303634521518
40
0.526434024300271
40
0.526434024300271
40
0.544564414079024
40
0.544564414079024
40
0.562694803857776
40
0.562694803857776
40
0.580825193636529
40
0.580825193636529
40
0.598955583415282
40
0.598955583415282
40
0.635216362972786
40
0.635216362972786
40
0.653346752751538
40
0.653346752751538
40
0.671477142530289
40
0.671477142530289
40
0.707737922087792
40
0.707737922087792
40
0.725868311866544
40
0.725868311866544
40
0.743998701645296
40
0.743998701645296
40
0.780259481202799
40
0.780259481202799
40
0.798389870981549
40
0.798389870981549
40
0.8165202607603
40
0.8165202607603
40
0.852781040317802
40
0.852781040317802
40
0.870911430096553
40
0.870911430096553
40
0.889041819875304
40
0.889041819875304
40
0.925302599432807
40
0.925302599432807
40
0.943432989211558
40
0.943432989211558
40
0.961563378990309
40
0.961563378990309
40
0.997824158547812
40
0.997824158547812
40
1
40
1
40
1
40
1
41
1
10
22.862361201158
20
2.75610233247397
30
0
41
1
10
22.8675860545073
20
2.75828382809698
30
0
41
1
10
22.8728116301008
20
2.76046193264386
30
0
41
1
10
23.0232074861194
20
2.82304227516528
30
0
41
1
10
23.1687767054696
20
2.88102587941032
30
0
41
1
10
23.4605193639875
20
2.99237131503659
30
0
41
1
10
23.6066941654466
20
3.04573114586742
30
0
41
1
10
23.8995270277798
20
3.14785970855564
30
0
41
1
10
24.0464490687985
20
3.19671718760219
30
0
41
1
10
24.3385129221635
20
3.28903629477259
30
0
41
1
10
24.4841578355849
20
3.33225338814728
30
0
41
1
10
24.7755869167
20
3.41229355659334
30
0
41
1
10
24.9211924403603
20
3.44927501166006
30
0
41
1
10
25.3573991323357
20
3.55151020984795
30
0
41
1
10
25.6473870492922
20
3.60812481056186
30
0
41
1
10
26.0803627472818
20
3.67567959769656
30
0
41
1
10
26.2246499770963
20
3.6951383127724
30
0
41
1
10
26.5141987555411
20
3.72768157714509
30
0
41
1
10
26.6592630526017
20
3.74084995352746
30
0
41
1
10
27.0950182379199
20
3.7711892793256
30
0
41
1
10
27.3862691696042
20
3.77927061471888
30
0
41
1
10
27.8235296263906
20
3.772172101639
30
0
41
1
10
27.9698421135358
20
3.76654906910699
30
0
41
1
10
28.2630599842899
20
3.74904935352987
30
0
41
1
10
28.4094468115442
20
3.73719612718264
30
0
41
1
10
28.8476574133493
20
3.69252088914985
30
0
41
1
10
29.1385411787986
20
3.65065244863067
30
0
41
1
10
29.572163225036
20
3.56913995659983
30
0
41
1
10
29.716464626472
20
3.53891540356258
30
0
41
1
10
30.0058707744033
20
3.47321666320025
30
0
41
1
10
30.1507568180572
20
3.43763347396455
30
0
41
1
10
30.585644562961
20
3.32258189159978
30
0
41
1
10
30.875879633771
20
3.23488201600168
30
0
41
1
10
31.3109088231275
20
3.08540656587238
30
0
41
1
10
31.4560046233725
20
3.03267737388475
30
0
41
1
10
31.7478180966761
20
2.92288927948655
30
0
41
1
10
31.8943032092946
20
2.86561597981452
30
0
41
1
10
32.335173024155
20
2.68628422667229
30
0
41
1
10
32.6275612246192
20
2.55815306081681
30
0
41
1
10
33.0626303110013
20
2.35224463260593
30
0
41
1
10
33.207207922749
20
2.28143944140464
30
0
41
1
10
33.4969856566993
20
2.13758159900945
30
0
41
1
10
33.6419513271197
20
2.06422686042558
30
0
41
1
10
34.076749361595
20
1.83951661310761
30
0
41
1
10
34.3664911195614
20
1.68356150899223
30
0
41
1
10
34.8001032971866
20
1.43890741876567
30
0
41
1
10
34.9445253701757
20
1.35562086152984
30
0
41
1
10
35.2347921751688
20
1.18817569192552
30
0
41
1
10
35.380397679758
20
1.10365517733013
30
0
41
1
10
35.6723218825985
20
0.932658240572408
30
0
41
1
10
35.8186450035889
20
0.846188398274705
30
0
41
1
10
36.1118838912238
20
0.671022421344105
30
0
41
1
10
36.2586891895285
20
0.58238957826515
30
0
41
1
10
36.5503503164599
20
0.404100054703719
30
0
41
1
10
36.6955267209759
20
0.314317190974521
30
0
41
1
10
36.9862892064783
20
0.13637475517308
30
0
41
1
10
37.1316378093499
20
0.0478073742929723
30
0
41
1
10
37.5672471471154
20
-0.217288743401326
30
0
41
1
10
37.8570850343161
20
-0.393198518452351
30
0
41
1
10
38.2901608674774
20
-0.657150763839127
30
0
41
1
10
38.4342165637543
20
-0.745178589350104
30
0
41
1
10
38.7235246384705
20
-0.91838313863056
30
0
41
1
10
38.8685445950262
20
-1.00394344305883
30
0
41
1
10
39.3043332348984
20
-1.25810962057003
30
0
41
1
10
39.5958391574891
20
-1.42419798619466
30
0
41
1
10
40.0338188144114
20
-1.66934572646451
30
0
41
1
10
40.1801384620523
20
-1.75060367301518
30
0
41
1
10
40.4725479001092
20
-1.90784416859114
30
0
41
1
10
40.6186102529168
20
-1.98430592861368
30
0
41
1
10
41.0560232585023
20
-2.20795390909254
30
0
41
1
10
41.3466193536639
20
-2.34942414744154
30
0
41
1
10
41.7801672798035
20
-2.55117476440887
30
0
41
1
10
41.9242070273947
20
-2.61674697629897
30
0
41
1
10
42.2132346419756
20
-2.74226959502874
30
0
41
1
10
42.3580103658235
20
-2.80249879668122
30
0
41
1
10
42.7927355294025
20
-2.97614101742872
30
0
41
1
10
43.0830969583911
20
-3.08254407710362
30
0
41
1
10
43.5186591089233
20
-3.22837721001176
30
0
41
1
10
43.6637302190159
20
-3.27475766116791
30
0
41
1
10
43.9555847022641
20
-3.36131272916074
30
0
41
1
10
44.1024624100358
20
-3.40175001670332
30
0
41
1
10
44.5424434979739
20
-3.51409279790238
30
0
41
1
10
44.8343087948616
20
-3.5769847902159
30
0
41
1
10
45.2691119315294
20
-3.6538608281663
30
0
41
1
10
45.4134101540428
20
-3.67658030925463
30
0
41
1
10
45.7026810024755
20
-3.71545605150769
30
0
41
1
10
45.8474769026592
20
-3.73171980903726
30
0
41
1
10
46.2819425487285
20
-3.77132516884376
30
0
41
1
10
46.5717093664256
20
-3.78554329497064
30
0
41
1
10
46.8784097337386
20
-3.78740991963312
30
0
41
1
10
46.8957676733877
20
-3.78746988846447
30
0
41
1
10
46.9131233754952
20
-3.78748419123451
30
0
0
SPLINE
5
D1
100
AcDbEntity
8
1
62
256
6
ByLayer
370
18
48
1
60
0
100
AcDbSpline
70
4
71
3
72
26
73
22
40
0
40
0
40
0
40
0
40
0.142121781011777
40
0.142121781011777
40
0.21361163259413
40
0.21361163259413
40
0.285101484176484
40
0.285101484176484
40
0.428081187341188
40
0.428081187341188
40
0.499571038923537
40
0.499571038923537
40
0.571060890505885
40
0.571060890505885
40
0.714040593670589
40
0.714040593670589
40
0.785530445252943
40
0.785530445252943
40
0.857020296835297
40
0.857020296835297
40
1
40
1
40
1
40
1
41
1
10
61.6833549337442
20
2.77673331844295
30
0
41
1
10
61.9712015702042
20
2.89699613930966
30
0
41
1
10
62.259029599693
20
3.00767256014089
30
0
41
1
10
62.6907499846504
20
3.1603693331337
30
0
41
1
10
62.8349257635535
20
3.20929128441168
30
0
41
1
10
63.1237560914588
20
3.30166691352073
30
0
41
1
10
63.2687217868893
20
3.34487508702642
30
0
41
1
10
63.7047873910806
20
3.46609780041024
30
0
41
1
10
63.9974799665077
20
3.53586402359136
30
0
41
1
10
64.4366540315328
20
3.62343678084966
30
0
41
1
10
64.5822327525282
20
3.64969446959472
30
0
41
1
10
64.8727682388234
20
3.69582678541084
30
0
41
1
10
65.0180691345786
20
3.71557987415235
30
0
41
1
10
65.4536499440775
20
3.76545416178894
30
0
41
1
10
65.7435879425312
20
3.7862636187204
30
0
41
1
10
66.1769379548424
20
3.79903164626782
30
0
41
1
10
66.3209994326036
20
3.80018449689535
30
0
41
1
10
66.6091652653809
20
3.79613893352385
30
0
41
1
10
66.75366219844
20
3.79097631302432
30
0
41
1
10
67.1880544282904
20
3.76626953683638
30
0
41
1
10
67.4787658197204
20
3.73757030011305
30
0
41
1
10
67.7700209728973
20
3.69612514425751
30
0
0
SPLINE
5
D2
100
AcDbEntity
8
1
62
256
6
ByLayer
370
18
48
1
60
0
100
AcDbSpline
70
4
71
3
72
24
73
20
40
0
40
0
40
0
40
0
40
0.25000000000003
40
0.25000000000003
40
0.37500000000003
40
0.37500000000003
40
0.500000000000031
40
0.500000000000031
40
0.625000000000032
40
0.625000000000032
40
0.750000000000032
40
0.750000000000032
40
0.812500000000024
40
0.812500000000024
40
0.875000000000016
40
0.875000000000016
40
0.937500000000008
40
0.937500000000008
40
1
40
1
40
1
40
1
41
1
10
67.5291729744027
20
1.11339625171436
30
0
41
1
10
67.6374302762493
20
1.13939001743191
30
0
41
1
10
67.7444975954567
20
1.16896152733546
30
0
41
1
10
67.9013690199286
20
1.22279027125947
30
0
41
1
10
67.9530505757566
20
1.24234199221598
30
0
41
1
10
68.0546838120827
20
1.28610422441543
30
0
41
1
10
68.1047523748753
20
1.31037186927384
30
0
41
1
10
68.2005698897292
20
1.36515231398903
30
0
41
1
10
68.2468182988191
20
1.39591284663771
30
0
41
1
10
68.3315199183211
20
1.46670546475028
30
0
41
1
10
68.3695511557908
20
1.50623550575151
30
0
41
1
10
68.4163101849754
20
1.57560758922207
30
0
41
1
10
68.4297407963738
20
1.59987889009335
30
0
41
1
10
68.4516892573397
20
1.65067377593434
30
0
41
1
10
68.4602907993403
20
1.6775388499089
30
0
41
1
10
68.4718943272612
20
1.73237930049643
30
0
41
1
10
68.4749159649518
20
1.76010077914384
30
0
41
1
10
68.4759961685563
20
1.81610005886196
30
0
41
1
10
68.4739990052594
20
1.84456462443956
30
0
41
1
10
68.4699668488068
20
1.8723601849357
30
0
0
SPLINE
5
D3
100
AcDbEntity
8
1
62
256
6
ByLayer
370
18
48
1
60
0
100
AcDbSpline
70
2053
71
3
72
62
73
58
40
0
40
0
40
0
40
0
40
0.0312499999999974
40
0.0312499999999974
40
0.0624999999999947
40
0.0624999999999947
40
0.0937499999999921
40
0.0937499999999921
40
0.124999999999989
40
0.124999999999989
40
0.156249999999987
40
0.156249999999987
40
0.187499999999984
40
0.187499999999984
40
0.218749999999982
40
0.218749999999982
40
0.249999999999979
40
0.249999999999979
40
0.281249999999976
40
0.281249999999976
40
0.312499999999974
40
0.312499999999974
40
0.374999999999972
40
0.374999999999972
40
0.43749999999997
40
0.43749999999997
40
0.468749999999971
40
0.468749999999971
40
0.499999999999973
40
0.499999999999973
40
0.531249999999974
40
0.531249999999974
40
0.562499999999975
40
0.562499999999975
40
0.593749999999977
40
0.593749999999977
40
0.624999999999978
40
0.624999999999978
40
0.65624999999998
40
0.65624999999998
40
0.687499999999981
40
0.687499999999981
40
0.718749999999982
40
0.718749999999982
40
0.749999999999984
40
0.749999999999984
40
0.781249999999985
40
0.781249999999985
40
0.812499999999986
40
0.812499999999986
40
0.874999999999993
40
0.874999999999993
40
0.937499999999999
40
0.937499999999999
40
0.968749999999999
40
0.968749999999999
40
1
40
1
40
1
40
1
41
1
10
68.1883791031801
20
-1.80268077224495
30
0
41
1
10
68.2082148917277
20
-1.7737869756568
30
0
41
1
10
68.227605999802
20
-1.74290852742823
30
0
41
1
10
68.2654304971819
20
-1.67687724019331
30
0
41
1
10
68.2840640159462
20
-1.64130101809536
30
0
41
1
10
68.3190987121429
20
-1.56727230570343
30
0
41
1
10
68.3354376375329
20
-1.52904996528801
30
0
41
1
10
68.3654260529809
20
-1.44984838286547
30
0
41
1
10
68.3787878519046
20
-1.40948635029878
30
0
41
1
10
68.4009514738916
20
-1.33048494565148
30
0
41
1
10
68.4100296203577
20
-1.29071989174648
30
0
41
1
10
68.4227400270532
20
-1.21610108612643
30
0
41
1
10
68.4264995518754
20
-1.18095034636104
30
0
41
1
10
68.4288222972652
20
-1.11600303886036
30
0
41
1
10
68.427379896016
20
-1.08721096533469
30
0
41
1
10
68.4198742010636
20
-1.03616048312654
30
0
41
1
10
68.4138204022081
20
-1.01432264404809
30
0
41
1
10
68.3980622655783
20
-0.978182092753741
30
0
41
1
10
68.3882170850619
20
-0.963618222848396
30
0
41
1
10
68.3657945290095
20
-0.941761744857473
30
0
41
1
10
68.3531861574718
20
-0.934312661959012
30
0
41
1
10
68.3115388911127
20
-0.921483646970358
30
0
41
1
10
68.2796624774663
20
-0.925732255276017
30
0
41
1
10
68.2096375469421
20
-0.956876032463555
30
0
41
1
10
68.1725849975593
20
-0.983257093425607
30
0
41
1
10
68.1144405414238
20
-1.03874354857308
30
0
41
1
10
68.0945929582155
20
-1.06002101419523
30
0
41
1
10
68.0553009705893
20
-1.1068868606848
30
0
41
1
10
68.0356876450728
20
-1.13262051775899
30
0
41
1
10
67.9965324304584
20
-1.18911889270373
30
0
41
1
10
67.9767716731047
20
-1.22026782567031
30
0
41
1
10
67.9385903837986
20
-1.28648179012936
30
0
41
1
10
67.9201981209512
20
-1.32141347533721
30
0
41
1
10
67.8850073340886
20
-1.39544090038464
30
0
41
1
10
67.8683045100324
20
-1.43446879587384
30
0
41
1
10
67.8386097563805
20
-1.51283555361957
30
0
41
1
10
67.8252642845414
20
-1.55302435798612
30
0
41
1
10
67.8027658740799
20
-1.63337575158829
30
0
41
1
10
67.7939597714548
20
-1.67218307550138
30
0
41
1
10
67.7812173444902
20
-1.74707017821294
30
0
41
1
10
67.7774173416731
20
-1.78281898021211
30
0
41
1
10
67.7750528823962
20
-1.84736268044901
30
0
41
1
10
67.7764572915561
20
-1.87694342236873
30
0
41
1
10
67.7837890298297
20
-1.92811927615574
30
0
41
1
10
67.7897378388172
20
-1.95023749666422
30
0
41
1
10
67.8053960325187
20
-1.98705973096304
30
0
41
1
10
67.8149953809441
20
-2.00165993639661
30
0
41
1
10
67.8373199456688
20
-2.0241311305399
30
0
41
1
10
67.8500412965369
20
-2.03189513463934
30
0
41
1
10
67.8913129257256
20
-2.04521914690864
30
0
41
1
10
67.9237268679135
20
-2.04107413940417
30
0
41
1
10
67.9932581768264
20
-2.01010296126955
30
0
41
1
10
68.0312367629757
20
-1.98285841071981
30
0
41
1
10
68.0891790858279
20
-1.92703777329439
30
0
41
1
10
68.1087310598192
20
-1.90591905335938
30
0
41
1
10
68.1483447053979
20
-1.85829926711375
30
0
41
1
10
68.1685433146325
20
-1.83157456883311
30
0
41
1
10
68.1883791031801
20
-1.80268077224495
30
0
0
SPLINE
5
D4
100
AcDbEntity
8
1
62
256
6
ByLayer
370
18
48
1
60
0
100
AcDbSpline
70
4
71
3
72
14
73
10
40
0
40
0
40
0
40
0
40
0.25
40
0.25
40
0.5
40
0.5
40
0.75
40
0.75
40
1
40
1
40
1
40
1
41
1
10
4.01094673488862
20
2.76352769360258
30
0
41
1
10
4.01891840492644
20
2.75034951231325
30
0
41
1
10
4.03129845235984
20
2.73552001718969
30
0
41
1
10
4.06489850185272
20
2.70327955673801
30
0
41
1
10
4.08574813868336
20
2.686308603241
30
0
41
1
10
4.13098081042111
20
2.65356089714129
30
0
41
1
10
4.15538858418947
20
2.63772754768723
30
0
41
1
10
4.20317185105381
20
2.60910996425156
30
0
41
1
10
4.22713591815381
20
2.59594511380374
30
0
41
1
10
4.25018231097999
20
2.58420025926341
30
0
0
SPLINE
5
D5
100
AcDbEntity
8
1
62
256
6
ByLayer
370
18
48
1
60
0
100
AcDbSpline
70
4
71
3
72
35
73
31
40
0
40
0
40
0
40
0
40
0.0460816731949802
40
0.0460816731949802
40
0.20348734014751
40
0.20348734014751
40
0.36089300710004
40
0.36089300710004
40
0.675704341005096
40
0.675704341005096
40
0.715055757743226
40
0.724893611927759
40
0.724893611927759
40
0.734731466112293
40
0.734731466112293
40
0.739650393204559
40
0.739650393204559
40
0.744569320296826
40
0.744569320296826
40
0.754407174481362
40
0.754407174481362
40
0.833110007957642
40
0.833110007957642
40
0.911812841433921
40
0.911812841433921
40
0.951164258172061
40
0.951164258172061
40
0.9905156749102
40
0.9905156749102
40
1
40
1
40
1
40
1
41
1
10
7.29528827886259
20
-3.7636778581109
30
0
41
1
10
7.21184737369506
20
-3.76351929213814
30
0
41
1
10
7.12814981113371
20
-3.76295109057244
30
0
41
1
10
6.75736663799083
20
-3.75880743111014
30
0
41
1
10
6.46742634507868
20
-3.75134402415173
30
0
41
1
10
5.88056994572079
20
-3.73147550741913
30
0
41
1
10
5.58308812352158
20
-3.71905450068442
30
0
41
1
10
4.68437843772139
20
-3.67991267554109
30
0
41
1
10
4.07620776483429
20
-3.65173033884406
30
0
41
1
10
3.3864281873164
20
-3.63022420974346
30
0
41
1
10
3.29051400330289
20
-3.62740375200943
30
0
41
1
10
3.19445876514959
20
-3.62481404840611
30
0
41
1
10
3.156025348322
20
-3.62379702298793
30
0
41
1
10
3.13684578136667
20
-3.62358694053631
30
0
41
1
10
3.10824825370614
20
-3.62453434001372
30
0
41
1
10
3.09869667376248
20
-3.62504312896024
30
0
41
1
10
3.08048539407645
20
-3.62652505624177
30
0
41
1
10
3.07189877385593
20
-3.62760264153295
30
0
41
1
10
3.04660769733329
20
-3.63111413565849
30
0
41
1
10
3.02979967445299
20
-3.6334577078363
30
0
41
1
10
2.87922929485671
20
-3.65453362608508
30
0
41
1
10
2.74933806618037
20
-3.67333712327718
30
0
41
1
10
2.50811199019427
20
-3.70823258230593
30
0
41
1
10
2.39611198030707
20
-3.72446847739647
30
0
41
1
10
2.2488408029204
20
-3.74377785312365
30
0
41
1
10
2.20297071105298
20
-3.7493697780086
30
0
41
1
10
2.1239751488765
20
-3.75743869274797
30
0
41
1
10
2.09044939111979
20
-3.7599788318895
30
0
41
1
10
2.05773853025647
20
-3.76060105387344
30
0
41
1
10
2.05184307687975
20
-3.76059985895597
30
0
41
1
10
2.04641284196316
20
-3.76047347511252
30
0
0
SPLINE
5
D6
100
AcDbEntity
8
1
62
256
6
ByLayer
370
18
48
1
60
0
100
AcDbSpline
70
4
71
3
72
14
73
10
40
0
40
0
40
0
40
0
40
0.338672051746942
40
0.338672051746942
40
0.588985472356215
40
0.588985472356215
40
0.839298892965487
40
0.839298892965487
40
1
40
1
40
1
40
1
41
1
10
67.0955377662752
20
-3.62272314706124
30
0
41
1
10
66.6489116421578
20
-3.62254595895277
30
0
41
1
10
66.2041383274205
20
-3.59383193766547
30
0
41
1
10
65.4297397362042
20
-3.49596467181218
30
0
41
1
10
65.1002044978455
20
-3.43925120393402
30
0
41
1
10
64.4382909804978
20
-3.29617323858096
30
0
41
1
10
64.1048654787587
20
-3.2094702713251
30
0
41
1
10
63.5592767408227
20
-3.04531047285695
30
0
41
1
10
63.346238881585
20
-2.97565274221074
30
0
41
1
10
63.1332077169248
20
-2.90081712828118
30
0
0
SPLINE
5
D7
100
AcDbEntity
8
1
62
256
6
ByLayer
370
13
48
1
60
0
100
AcDbSpline
70
4
71
3
72
30
73
26
40
0
40
0
40
0
40
0
40
0.0374948170305098
40
0.0374948170305098
40
0.0898618162287972
40
0.0898618162287972
40
0.142228815427085
40
0.142228815427085
40
0.351696812220238
40
0.351696812220238
40
0.456430810616816
40
0.456430810616816
40
0.508797809815105
40
0.508797809815105
40
0.561164809013394
40
0.561164809013394
40
0.770632805806554
40
0.770632805806554
40
0.875366804203134
40
0.875366804203134
40
0.927733803401424
40
0.927733803401424
40
0.980100802599713
40
0.980100802599713
40
1
40
1
40
1
40
1
41
1
10
63.1332077169161
20
-2.90081712827814
30
0
41
1
10
63.0144144124981
20
-2.85908628630938
30
0
41
1
10
62.895623189793
20
-2.81574535527986
30
0
41
1
10
62.6108140751879
20
-2.70813649821884
30
0
41
1
10
62.4447449291919
20
-2.64239318999307
30
0
41
1
10
62.1121033465867
20
-2.50513177058309
30
0
41
1
10
61.9454547776307
20
-2.43356526813767
30
0
41
1
10
61.1158941891277
20
-2.06459492040969
30
0
41
1
10
60.4596053920604
20
-1.73204652226909
30
0
41
1
10
59.4734611126697
20
-1.19738278101585
30
0
41
1
10
59.1444938192577
20
-1.01316188137346
30
0
41
1
10
58.6489468979772
20
-0.730494187522282
30
0
41
1
10
58.4834079303835
20
-0.635222460253573
30
0
41
1
10
58.1513819128386
20
-0.442942817050294
30
0
41
1
10
57.9845988327364
20
-0.345707990986341
30
0
41
1
10
57.1543179365611
20
0.139995850024093
30
0
41
1
10
56.4976389172934
20
0.527548511216111
30
0
41
1
10
55.5116449407758
20
1.08658181515682
30
0
41
1
10
55.1828021920911
20
1.2691773974955
30
0
41
1
10
54.6877346195246
20
1.53487331341913
30
0
41
1
10
54.522398362468
20
1.62204956493238
30
0
41
1
10
54.1907910477946
20
1.7931000549172
30
0
41
1
10
54.0241895598134
20
1.87714038823182
30
0
41
1
10
53.7945792177575
20
1.98992795482027
30
0
41
1
10
53.7314311781853
20
2.02064189029366
30
0
41
1
10
53.66835278966
20
2.05100400027129
30
0
0
SPLINE
5
D8
100
AcDbEntity
8
1
62
256
6
ByLayer
370
18
48
1
60
0
100
AcDbSpline
70
4
71
3
72
16
73
12
40
0
40
0
40
0
40
0
40
0.0549628049363317
40
0.0549628049363317
40
0.573501439873388
40
0.573501439873388
40
0.703136098607652
40
0.703136098607652
40
0.832770757341915
40
0.832770757341915
40
1
40
1
40
1
40
1
41
1
10
28.2749727376996
20
-3.59927638543186
30
0
41
1
10
28.2051888392521
20
-3.59911032969649
30
0
41
1
10
28.1354282630024
20
-3.59825541527937
30
0
41
1
10
27.407671720296
20
-3.5821692170673
30
0
41
1
10
26.7503070390307
20
-3.50621606127848
30
0
41
1
10
25.9194874240421
20
-3.33620202808171
30
0
41
1
10
25.7524925411527
20
-3.29833281402483
30
0
41
1
10
25.4198327404062
20
-3.21582717504097
30
0
41
1
10
25.2539848121636
20
-3.17116938886829
30
0
41
1
10
24.8749747713574
20
-3.06148379900259
30
0
41
1
10
24.6620885452433
20
-2.99425748683544
30
0
41
1
10
24.4495262812933
20
-2.92193019942903
30
0
0
SPLINE
5
D9
100
AcDbEntity
8
1
62
256
6
ByLayer
370
13
48
1
60
0
100
AcDbSpline
70
4
71
3
72
24
73
20
40
0
40
0
40
0
40
0
40
0.0376097210370925
40
0.0376097210370925
40
0.249496700099336
40
0.249496700099336
40
0.302468444864898
40
0.302468444864898
40
0.355440189630459
40
0.355440189630459
40
0.461383679161579
40
0.461383679161579
40
0.67327065822382
40
0.67327065822382
40
0.779214147754941
40
0.779214147754941
40
0.885157637286063
40
0.885157637286063
40
1
40
1
40
1
40
1
41
1
10
24.4495262813417
20
-2.92193019944551
30
0
41
1
10
24.3325356978315
20
-2.88212251486382
30
0
41
1
10
24.2156432492862
20
-2.84076963741171
30
0
41
1
10
23.4405242892377
20
-2.55656395391369
30
0
41
1
10
22.7835129692314
20
-2.26832187288679
30
0
41
1
10
21.9536325032997
20
-1.86135895616729
30
0
41
1
10
21.7869499495396
20
-1.77745287630751
30
0
41
1
10
21.4537340520425
20
-1.60611976490381
30
0
41
1
10
21.287635938641
20
-1.51891777496314
30
0
41
1
10
20.790527162415
20
-1.25330377136149
30
0
41
1
10
20.4606933815672
20
-1.07090237515771
30
0
41
1
10
19.4726749643335
20
-0.513294269032855
30
0
41
1
10
18.8159340349068
20
-0.127726302495859
30
0
41
1
10
17.8211709024621
20
0.449675487933376
30
0
41
1
10
17.4866996579567
20
0.642670805512239
30
0
41
1
10
16.822887004921
20
1.01812821993428
30
0
41
1
10
16.4927057276803
20
1.20124857451472
30
0
41
1
10
15.8060695407422
20
1.57016669802513
30
0
41
1
10
15.4495924237266
20
1.75464658471074
30
0
41
1
10
15.0924995071684
20
1.92968309341126
30
0
0
SPLINE
5
DA
100
AcDbEntity
8
1
62
256
6
ByLayer
370
18
48
1
60
0
100
AcDbSpline
70
4
71
3
72
20
73
16
40
0
40
0
40
0
40
0
40
0.124999999999996
40
0.124999999999996
40
0.249999999999992
40
0.249999999999992
40
0.49999999999999
40
0.49999999999999
40
0.624999999999992
40
0.624999999999992
40
0.749999999999995
40
0.749999999999995
40
0.874999999999997
40
0.874999999999997
40
1
40
1
40
1
40
1
41
1
10
68.4699668488087
20
1.87236018493644
30
0
41
1
10
68.4412696214495
20
1.94952075986311
30
0
41
1
10
68.4125182502879
20
2.02654569621788
30
0
41
1
10
68.3549988475155
20
2.18055383193263
30
0
41
1
10
68.3262101896748
20
2.25748535940679
30
0
41
1
10
68.2396977232202
20
2.48791295445
30
0
41
1
10
68.1818641856016
20
2.64113413394495
30
0
41
1
10
68.0944450891719
20
2.86929048112501
30
0
41
1
10
68.0651825592686
20
2.94503488602553
30
0
41
1
10
68.006668233854
20
3.09655058713409
30
0
41
1
10
67.9773810875316
20
3.17223332411007
30
0
41
1
10
67.9186400709731
20
3.32318112895408
30
0
41
1
10
67.8891917646253
20
3.39846013522029
30
0
41
1
10
67.829889372925
20
3.54800160878671
30
0
41
1
10
67.7999601594186
20
3.62207586847904
30
0
41
1
10
67.7700209729071
20
3.69612514425609
30
0
0
SPLINE
5
DB
100
AcDbEntity
8
1
62
256
6
ByLayer
370
18
48
1
60
0
100
AcDbSpline
70
4
71
3
72
16
73
12
40
0
40
0
40
0
40
0
40
0.43743872033363
40
0.43743872033363
40
0.561079389246257
40
0.561079389246257
40
0.684720058158883
40
0.684720058158883
40
0.932001395984145
40
0.932001395984145
40
1
40
1
40
1
40
1
41
1
10
47.6870514522156
20
-3.61108481188759
30
0
41
1
10
47.1054994673454
20
-3.61039301975947
30
0
41
1
10
46.5233713314783
20
-3.56156674061592
30
0
41
1
10
45.7683421845387
20
-3.43699038218281
30
0
41
1
10
45.6016532421532
20
-3.40572164828939
30
0
41
1
10
45.2698563686302
20
-3.33622076490786
30
0
41
1
10
45.1043995635317
20
-3.29793198984407
30
0
41
1
10
44.6089596451061
20
-3.17277803932365
30
0
41
1
10
44.2799827749353
20
-3.07555327280701
30
0
41
1
10
43.8608032524715
20
-2.93572055652427
30
0
41
1
10
43.7704008512635
20
-2.90462034637267
30
0
41
1
10
43.6799842636111
20
-2.87259936949224
30
0
0
SPLINE
5
DC
100
AcDbEntity
8
1
62
256
6
ByLayer
370
13
48
1
60
0
100
AcDbSpline
70
4
71
3
72
24
73
20
40
0
40
0
40
0
40
0
40
0.185265797903709
40
0.185265797903709
40
0.238965585083141
40
0.238965585083141
40
0.292665372262574
40
0.292665372262574
40
0.400064946621439
40
0.400064946621439
40
0.61486409533917
40
0.61486409533917
40
0.668563882518603
40
0.668563882518603
40
0.722263669698037
40
0.722263669698037
40
0.829663244056904
40
0.829663244056904
40
1
40
1
40
1
40
1
41
1
10
43.6799833212612
20
-2.87259903575958
30
0
41
1
10
43.1127886411196
20
-2.67172736143479
30
0
41
1
10
42.5450356917833
20
-2.43462157234634
30
0
41
1
10
41.8059067253631
20
-2.08866207883224
30
0
41
1
10
41.6390387319081
20
-2.00822872915208
30
0
41
1
10
41.3067898832539
20
-1.84401048752861
30
0
41
1
10
41.1411216057341
20
-1.76009362623972
30
0
41
1
10
40.6450646709064
20
-1.50360993775956
30
0
41
1
10
40.3157935181959
20
-1.32604638928967
30
0
41
1
10
39.3294253632381
20
-0.778765739194142
30
0
41
1
10
38.6726708888388
20
-0.395954040456417
30
0
41
1
10
37.8429272134526
20
0.0884573716693069
30
0
41
1
10
37.6762406045282
20
0.185704559977751
30
0
41
1
10
37.3430507899961
20
0.37955921565603
30
0
41
1
10
37.1766764205577
20
0.476120589073304
30
0
41
1
10
36.6776803096921
20
0.763798202535213
30
0
41
1
10
36.3451278352723
20
0.952806768102931
30
0
41
1
10
35.4828545394201
20
1.43001163284967
30
0
41
1
10
34.9569116763224
20
1.70863606259712
30
0
41
1
10
34.4294357988664
20
1.96642598662549
30
0
0
SPLINE
5
DD
100
AcDbEntity
8
1
62
256
6
ByLayer
370
18
48
1
60
0
100
AcDbSpline
70
4
71
3
72
14
73
10
40
0
40
0
40
0
40
0
40
0.146789809441717
40
0.146789809441717
40
0.583661357835625
40
0.583661357835625
40
0.802097132032578
40
0.802097132032578
40
1
40
1
40
1
40
1
41
1
10
8.89215217300961
20
-3.58769316709552
30
0
41
1
10
8.66922766057058
20
-3.58751892423285
30
0
41
1
10
8.44702438545039
20
-3.58032615783412
30
0
41
1
10
7.56510360653567
20
-3.5243309353327
30
0
41
1
10
6.90880359589005
20
-3.42157220711729
30
0
41
1
10
5.91670904564734
20
-3.18152867665776
30
0
41
1
10
5.58444874393558
20
-3.0870246819357
30
0
41
1
10
4.94839512633868
20
-2.88114212804246
30
0
41
1
10
4.64650397727908
20
-2.7728152657597
30
0
41
1
10
4.3443042825651
20
-2.65480866087685
30
0
0
SPLINE
5
DE
100
AcDbEntity
8
1
62
256
6
ByLayer
370
13
48
1
60
0
100
AcDbSpline
70
4
71
3
72
8
73
4
40
0
40
0
40
0
40
0
40
1
40
1
40
1
40
1
41
1
10
4.3443042806976
20
-2.65480866014758
30
0
41
1
10
4.3129503244123
20
-2.64256518671982
30
0
41
1
10
4.28159304676592
20
-2.63021751503291
30
0
41
1
10
4.25023159915034
20
-2.61776651922341
30
0
0
SPLINE
5
DF
100
AcDbEntity
8
1
62
256
6
ByLayer
370
13
48
1
60
0
100
AcDbSpline
70
4
71
3
72
30
73
26
40
0
40
0
40
0
40
0
40
0.125
40
0.125
40
0.1875
40
0.1875
40
0.25
40
0.3125
40
0.3125
40
0.375
40
0.375
40
0.4375
40
0.4375
40
0.5
40
0.5
40
0.625
40
0.625
40
0.6875
40
0.6875
40
0.75
40
0.8125
40
0.8125
40
0.875
40
0.875
40
1
40
1
40
1
40
1
41
1
10
4.25023159915071
20
-2.61776651922358
30
0
41
1
10
4.25022122781618
20
-2.45078475205454
30
0
41
1
10
4.25020010997866
20
-2.2677372947548
30
0
41
1
10
4.25015970166572
20
-1.96931031540538
30
0
41
1
10
4.25014476522085
20
-1.86583740584112
30
0
41
1
10
4.25011381809088
20
-1.65491154388323
30
0
41
1
10
4.25008166838961
20
-1.43903975144801
30
0
41
1
10
4.25004954659113
20
-1.21342224688794
30
0
41
1
10
4.25001858487667
20
-0.982854422256963
30
0
41
1
10
4.25000362693336
20
-0.8645721237109
30
0
41
1
10
4.24997635106376
20
-0.62607752016882
30
0
41
1
10
4.24996401629227
20
-0.50582774456646
30
0
41
1
10
4.24994283093429
20
-0.263321062433022
30
0
41
1
10
4.2499340185
20
-0.141253415947062
30
0
41
1
10
4.24991418022768
20
0.221765614930035
30
0
41
1
10
4.24990960603412
20
0.461597530363434
30
0
41
1
10
4.24991758134837
20
0.818063065290573
30
0
41
1
10
4.24992275017917
20
0.936917132213324
30
0
41
1
10
4.24993786763372
20
1.16946666596186
30
0
41
1
10
4.24995771607612
20
1.39728410150389
30
0
41
1
10
4.24998625692604
20
1.61575975272166
30
0
41
1
10
4.25001864951773
20
1.82947971961829
30
0
41
1
10
4.2500367286984
20
1.93353913230365
30
0
41
1
10
4.2500944512613
20
2.23243433237556
30
0
41
1
10
4.25013792840576
20
2.41614454769706
30
0
41
1
10
4.25018231098196
20
2.58420025839965
30
0
0
SPLINE
5
E0
100
AcDbEntity
8
1
62
256
6
ByLayer
370
13
48
1
60
0
100
AcDbSpline
70
4
71
3
72
10
73
6
40
0
40
0
40
0
40
0
40
0.5
40
0.5
40
1
40
1
40
1
40
1
41
1
10
4.03044243238253
20
-2.70942771477644
30
0
41
1
10
4.04060816087676
20
-2.71408097270424
30
0
41
1
10
4.05353638215877
20
-2.7185190002003
30
0
41
1
10
4.08404254288729
20
-2.72640341595451
30
0
41
1
10
4.10147501553195
20
-2.72985617836417
30
0
41
1
10
4.12145392875942
20
-2.73276287264284
30
0
0
SPLINE
5
E1
100
AcDbEntity
8
1
62
256
6
ByLayer
370
18
48
1
60
0
100
AcDbSpline
70
4
71
3
72
8
73
4
40
0
40
0
40
0
40
0
40
1
40
1
40
1
40
1
41
1
10
4.03044243238225
20
-2.70942771477994
30
0
41
1
10
4.01798130150388
20
-2.69354282302845
30
0
41
1
10
4.01097295333653
20
-2.67579256445768
30
0
41
1
10
4.01097256222033
20
-2.65732365345593
30
0
0
SPLINE
5
E2
100
AcDbEntity
8
1
62
256
6
ByLayer
370
18
48
1
60
0
100
AcDbSpline
70
4
71
3
72
8
73
4
40
0
40
0
40
0
40
0
40
1
40
1
40
1
40
1
41
1
10
67.6917895991728
20
3.76874743401333
30
0
41
1
10
67.4262224319339
20
3.78952837342905
30
0
41
1
10
67.1607105955421
20
3.79978458883178
30
0
41
1
10
66.894728707992
20
3.79947445487346
30
0
0
SPLINE
5
E3
100
AcDbEntity
8
1
62
256
6
ByLayer
370
18
48
1
60
0
100
AcDbSpline
70
4
71
3
72
42
73
38
40
0
40
0
40
0
40
0
40
0.0722023228417832
40
0.0722023228417832
40
0.118874559876717
40
0.118874559876717
40
0.16554679691165
40
0.16554679691165
40
0.258891270981517
40
0.258891270981517
40
0.30556350801645
40
0.30556350801645
40
0.352235745051383
40
0.352235745051383
40
0.44558021912125
40
0.44558021912125
40
0.492252456156183
40
0.492252456156183
40
0.538924693191117
40
0.538924693191117
40
0.632269167260983
40
0.632269167260983
40
0.678941404295917
40
0.678941404295917
40
0.702277522813384
40
0.702277522813384
40
0.72561364133085
40
0.72561364133085
40
0.818958115400715
40
0.818958115400715
40
0.865630352435647
40
0.865630352435647
40
0.888966470953113
40
0.888966470953113
40
0.912302589470579
40
0.912302589470579
40
1
40
1
40
1
40
1
41
1
10
49.3738642384035
20
-3.61580567512559
30
0
41
1
10
48.8628398869117
20
-3.70919539384647
30
0
41
1
10
48.3545661126918
20
-3.76500009137817
30
0
41
1
10
47.5150070727693
20
-3.79322831019397
30
0
41
1
10
47.1846880234123
20
-3.78817649934413
30
0
41
1
10
46.5205511498361
20
-3.74513875383838
30
0
41
1
10
46.1857081012903
20
-3.70687463057544
30
0
41
1
10
45.1903316519703
20
-3.54554091829701
30
0
41
1
10
44.5334921463677
20
-3.37595606528694
30
0
41
1
10
43.5447740288209
20
-3.03948211077079
30
0
41
1
10
43.2145508471918
20
-2.9136942727242
30
0
41
1
10
42.5503781266273
20
-2.63688524734562
30
0
41
1
10
42.2154415490998
20
-2.48498391018003
30
0
41
1
10
41.2198092004097
20
-2.00240862731778
30
0
41
1
10
40.5623358584405
20
-1.64495026850864
30
0
41
1
10
39.5738312684791
20
-1.07317241341627
30
0
41
1
10
39.2436433909543
20
-0.877101371738121
30
0
41
1
10
38.5797937840422
20
-0.477208093287658
30
0
41
1
10
38.2448306483454
20
-0.272376039606399
30
0
41
1
10
37.248098626147
20
0.337942515123473
30
0
41
1
10
36.5907936963093
20
0.741333719408544
30
0
41
1
10
35.6018515339432
20
1.31901313349192
30
0
41
1
10
35.2717751404104
20
1.50711071700005
30
0
41
1
10
34.7741706533054
20
1.77957085081289
30
0
41
1
10
34.6078936670598
20
1.86878611426687
30
0
41
1
10
34.2742144268999
20
2.04350771801316
30
0
41
1
10
34.1071820554686
20
2.1288053680814
30
0
41
1
10
33.275931363204
20
2.54105760152109
30
0
41
1
10
32.6184331435108
20
2.82862513087537
30
0
41
1
10
31.6295444489031
20
3.18217170602469
30
0
41
1
10
31.299444514913
20
3.28702675121681
30
0
41
1
10
30.8019817303484
20
3.42308216423535
30
0
41
1
10
30.6357711154549
20
3.46489078333431
30
0
41
1
10
30.30226348517
20
3.5410903194535
30
0
41
1
10
30.1350221985881
20
3.57543794628606
30
0
41
1
10
29.3434347283526
20
3.71929136730216
30
0
41
1
10
28.7248890727105
20
3.77622561904187
30
0
41
1
10
28.1057407106389
20
3.7762006919842
30
0
0
SPLINE
5
E4
100
AcDbEntity
8
1
62
256
6
ByLayer
370
18
48
1
60
0
100
AcDbSpline
70
4
71
3
72
14
73
10
40
0
40
0
40
0
40
0
40
0.0702007225838937
40
0.0702007225838937
40
0.38013381505593
40
0.38013381505593
40
0.690066907527965
40
0.690066907527965
40
1
40
1
40
1
40
1
41
1
10
10.5515235720272
20
-3.59768312212623
30
0
41
1
10
10.4006781024755
20
-3.62474853846146
30
0
41
1
10
10.2492830672265
20
-3.64867838859664
30
0
41
1
10
9.42932571874837
20
-3.76035536436172
30
0
41
1
10
8.77012190550431
20
-3.78578271222071
30
0
41
1
10
7.45087431353335
20
-3.70835638499005
30
0
41
1
10
6.79123868987475
20
-3.60540472415488
30
0
41
1
10
5.45282322500145
20
-3.27412664226318
30
0
41
1
10
4.78877662597779
20
-3.04910388938251
30
0
41
1
10
4.12001004449735
20
-2.77382177723001
30
0
0
SPLINE
5
E5
100
AcDbEntity
8
1
62
256
6
ByLayer
370
13
48
1
60
0
100
AcDbSpline
70
4
71
3
72
10
73
6
40
0
40
0
40
0
40
0
40
0.5
40
0.5
40
1
40
1
40
1
40
1
41
1
10
4.01097256222033
20
-2.65732365346494
30
0
41
1
10
4.01961478349381
20
-2.64876655155476
30
0
41
1
10
4.0329782467258
20
-2.64057676167278
30
0
41
1
10
4.07037010956947
20
-2.62520284987559
30
0
41
1
10
4.0935532242965
20
-2.61839740801759
30
0
41
1
10
4.12145392875942
20
-2.61295614670306
30
0
0
SPLINE
5
E6
100
AcDbEntity
8
1
62
256
6
ByLayer
370
18
48
1
60
0
100
AcDbSpline
70
4
71
3
72
12
73
8
40
0
40
0
40
0
40
0
40
0.25
40
0.25
40
0.5
40
0.5
40
1
40
1
40
1
40
1
41
1
10
4.25018231267376
20
2.58420025840024
30
0
41
1
10
4.5206376966305
20
2.44637135092148
30
0
41
1
10
4.79566747272926
20
2.30240643191129
30
0
41
1
10
5.35252589897829
20
2.00337063670764
30
0
41
1
10
5.63520692150325
20
1.84783832001378
30
0
41
1
10
6.48323714225043
20
1.37346969148476
30
0
41
1
10
7.05075825776498
20
1.04442999606886
30
0
41
1
10
7.62740936715423
20
0.71750690235271
30
0
0
SPLINE
5
E7
100
AcDbEntity
8
1
62
256
6
ByLayer
370
18
48
1
60
0
100
AcDbSpline
70
4
71
3
72
12
73
8
40
0
40
0
40
0
40
0
40
0.25
40
0.25
40
0.5
40
0.5
40
1
40
1
40
1
40
1
41
1
10
67.7218322007312
20
-3.68908370360128
30
0
41
1
10
67.7268559031614
20
-3.67573846392486
30
0
41
1
10
67.7315651037751
20
-3.66202829329976
30
0
41
1
10
67.7388805603581
20
-3.63758134211861
30
0
41
1
10
67.7414405735168
20
-3.62692652520494
30
0
41
1
10
67.745032909874
20
-3.60419082159046
30
0
41
1
10
67.7425264688136
20
-3.60036526912464
30
0
41
1
10
67.7378045991507
20
-3.60329314172719
30
0
0
SPLINE
5
E8
100
AcDbEntity
8
1
62
256
6
ByLayer
370
13
48
1
60
0
100
AcDbSpline
70
4
71
3
72
18
73
14
40
0
40
0
40
0
40
0
40
0.169606555719001
40
0.169606555719001
40
0.339213111438001
40
0.339213111438001
40
0.678426222876
40
0.678426222876
40
0.848032778594999
40
0.848032778594999
40
0.932836056454499
40
0.932836056454499
40
1
40
1
40
1
40
1
41
1
10
4.19894195179472
20
-2.74797918107964
30
0
41
1
10
4.53296207164166
20
-2.88078067793742
30
0
41
1
10
4.86645722932835
20
-3.00129483091399
30
0
41
1
10
5.53452692449412
20
-3.21567758256461
30
0
41
1
10
5.86701775419519
20
-3.30873398564023
30
0
41
1
10
6.85966736744237
20
-3.54272859644408
30
0
41
1
10
7.51611610715039
20
-3.63928578788079
30
0
41
1
10
8.50678298165585
20
-3.68994270008102
30
0
41
1
10
8.83794990377072
20
-3.69110802838907
30
0
41
1
10
9.33773082818482
20
-3.6686222626509
30
0
41
1
10
9.50498383096149
20
-3.65705976772748
30
0
41
1
10
9.80318713903421
20
-3.62935013081795
30
0
41
1
10
9.93467870624983
20
-3.61465389267579
30
0
41
1
10
10.0659499857168
20
-3.5975622145321
30
0
0
SPLINE
5
E9
100
AcDbEntity
8
1
62
256
6
ByLayer
370
18
48
1
60
0
100
AcDbSpline
70
4
71
3
72
24
73
20
40
0
40
0
40
0
40
0
40
0.0895644846843705
40
0.0895644846843705
40
0.293811421267565
40
0.293811421267565
40
0.395934889559163
40
0.395934889559163
40
0.498058357850759
40
0.498058357850759
40
0.702305294433954
40
0.702305294433954
40
0.804428762725551
40
0.804428762725551
40
0.855490496871351
40
0.855490496871351
40
0.906552231017152
40
0.906552231017152
40
1
40
1
40
1
40
1
41
1
10
33.1077499228468
20
2.54946849958966
30
0
41
1
10
33.3980291852887
20
2.42349851579627
30
0
41
1
10
33.689625998494
20
2.28840875624661
30
0
41
1
10
34.6492494891414
20
1.81995991785416
30
0
41
1
10
35.3120592996668
20
1.45855023924602
30
0
41
1
10
36.3131572290105
20
0.884466183741864
30
0
41
1
10
36.6459827507197
20
0.688965775409343
30
0
41
1
10
37.31189729994
20
0.29303715727616
30
0
41
1
10
37.6462004151202
20
0.0922244015584397
30
0
41
1
10
38.6423557204843
20
-0.505108074756663
30
0
41
1
10
39.2992651589774
20
-0.896572759653907
30
0
41
1
10
40.2860023894801
20
-1.45393006553908
30
0
41
1
10
40.6154299925913
20
-1.63434725692946
30
0
41
1
10
41.1118728631663
20
-1.89427318938644
30
0
41
1
10
41.2776942832906
20
-1.97920055153335
30
0
41
1
10
41.6102995484097
20
-2.14517503538673
30
0
41
1
10
41.7773259880589
20
-2.22633143963844
30
0
41
1
10
42.2476138138271
20
-2.44788479301968
30
0
41
1
10
42.5502020616517
20
-2.58183814972531
30
0
41
1
10
42.8519969992234
20
-2.70576028330825
30
0
0
SPLINE
5
EA
100
AcDbEntity
8
1
62
256
6
ByLayer
370
13
48
1
60
0
100
AcDbSpline
70
4
71
3
72
20
73
16
40
0
40
0
40
0
40
0
40
0.17777510028824
40
0.17777510028824
40
0.341630210471315
40
0.341630210471315
40
0.423557765562853
40
0.423557765562853
40
0.50548532065439
40
0.50548532065439
40
0.833195541020535
40
0.833195541020535
40
0.997050651203609
40
0.997050651203609
40
1
40
1
40
1
40
1
41
1
10
42.8519969991067
20
-2.70576028326036
30
0
41
1
10
43.2098292752175
20
-2.85269230100121
30
0
41
1
10
43.5665462860327
20
-2.98552204919693
30
0
41
1
10
44.2522516091149
20
-3.21138689519378
30
0
41
1
10
44.5813482475128
20
-3.30665203574733
30
0
41
1
10
45.077153032061
20
-3.42798448094683
30
0
41
1
10
45.2427550718925
20
-3.46486540899633
30
0
41
1
10
45.5748894785503
20
-3.53128015832695
30
0
41
1
10
45.7418079293223
20
-3.56086921034074
30
0
41
1
10
46.5741254346518
20
-3.68891229895206
30
0
41
1
10
47.2313417896701
20
-3.72737226121078
30
0
41
1
10
48.2178301692575
20
-3.69057028712035
30
0
41
1
10
48.5467927418777
20
-3.66265433952697
30
0
41
1
10
48.882841357429
20
-3.6182128144776
30
0
41
1
10
48.8887836698979
20
-3.6174219120235
30
0
41
1
10
48.8947264620459
20
-3.61662590065177
30
0
0
SPLINE
5
EB
100
AcDbEntity
8
1
62
256
6
ByLayer
370
18
48
1
60
0
100
AcDbSpline
70
4
71
3
72
54
73
50
40
0
40
0
40
0
40
0
40
0.0561639957871413
40
0.0561639957871413
40
0.112327991574283
40
0.112327991574283
40
0.168491987361424
40
0.168491987361424
40
0.224655983148565
40
0.224655983148565
40
0.252737981042136
40
0.252737981042136
40
0.280819978935706
40
0.280819978935706
40
0.336983974722847
40
0.336983974722847
40
0.393147970509987
40
0.393147970509987
40
0.449311966297127
40
0.449311966297127
40
0.505475962084268
40
0.505475962084268
40
0.533557959977838
40
0.533557959977838
40
0.561639957871408
40
0.561639957871408
40
0.617803953658548
40
0.617803953658548
40
0.673967949445689
40
0.673967949445689
40
0.702049947339259
40
0.702049947339259
40
0.730131945232829
40
0.730131945232829
40
0.758213943126399
40
0.758213943126399
40
0.786295941019969
40
0.786295941019969
40
0.814377938913539
40
0.814377938913539
40
0.842459936807109
40
0.842459936807109
40
0.89862393259425
40
0.89862393259425
40
0.92670593048782
40
0.92670593048782
40
0.954787928381389
40
0.954787928381389
40
1
40
1
40
1
40
1
41
1
10
11.9717417392351
20
3.051470868613
30
0
41
1
10
12.2644783369477
20
2.94556921623084
30
0
41
1
10
12.5569746860416
20
2.8315028704989
30
0
41
1
10
13.1397921179687
20
2.58625577634643
30
0
41
1
10
13.4300062542333
20
2.45490524846991
30
0
41
1
10
14.0078013306531
20
2.17408926876848
30
0
41
1
10
14.2977235882827
20
2.02772196613299
30
0
41
1
10
14.8787676016609
20
1.72237460108352
30
0
41
1
10
15.1696638086483
20
1.56306039300054
30
0
41
1
10
15.6062866027587
20
1.31305906136896
30
0
41
1
10
15.7523593820184
20
1.22864630241961
30
0
41
1
10
16.0459521301253
20
1.05833562948257
30
0
41
1
10
16.1929153961522
20
0.972508415518519
30
0
41
1
10
16.6320837916895
20
0.713728479492403
30
0
41
1
10
16.9232885098291
20
0.538870705612169
30
0
41
1
10
17.5020242937255
20
0.183609018596371
30
0
41
1
10
17.7918721212874
20
0.0070800543288669
30
0
41
1
10
18.3720949153359
20
-0.344521581619716
30
0
41
1
10
18.6622186016963
20
-0.520013405272096
30
0
41
1
10
19.2418077860783
20
-0.871487292644161
30
0
41
1
10
19.5335401968278
20
-1.04370243148082
30
0
41
1
10
19.9739942207539
20
-1.29683233152085
30
0
41
1
10
20.1211269468054
20
-1.38038217414731
30
0
41
1
10
20.4137084310941
20
-1.54480566963335
30
0
41
1
10
20.5594260243866
20
-1.62588555514668
30
0
41
1
10
20.9948818231453
20
-1.86561322762552
30
0
41
1
10
21.2850612663915
20
-2.01753496964565
30
0
41
1
10
21.8652484888818
20
-2.30628417689511
30
0
41
1
10
22.1549586826885
20
-2.44353989679658
30
0
41
1
10
22.5882709445722
20
-2.63919264321203
30
0
41
1
10
22.7328684082096
20
-2.7022309747482
30
0
41
1
10
23.0232074861194
20
-2.82304227516525
30
0
41
1
10
23.1687767054695
20
-2.88102587941029
30
0
41
1
10
23.4605193639874
20
-2.99237131503656
30
0
41
1
10
23.6066941654466
20
-3.04573114586742
30
0
41
1
10
23.8995270277798
20
-3.14785970855564
30
0
41
1
10
24.0464490687985
20
-3.19671718760216
30
0
41
1
10
24.3385129221634
20
-3.28903629477259
30
0
41
1
10
24.4841578355848
20
-3.33225338814725
30
0
41
1
10
24.7755869167
20
-3.41229355659331
30
0
41
1
10
24.9211924403603
20
-3.44927501166003
30
0
41
1
10
25.3573991323356
20
-3.55151020984792
30
0
41
1
10
25.6473870492921
20
-3.60812481056186
30
0
41
1
10
26.0803627472818
20
-3.67567959769656
30
0
41
1
10
26.2246499770962
20
-3.6951383127724
30
0
41
1
10
26.5141987555411
20
-3.72768157714509
30
0
41
1
10
26.6592630526016
20
-3.74084995352746
30
0
41
1
10
27.0383703483629
20
-3.76724518678245
30
0
41
1
10
27.2727102992241
20
-3.7756571052546
30
0
41
1
10
27.5072782704898
20
-3.77584993225202
30
0
0
SPLINE
5
EC
100
AcDbEntity
8
1
62
256
6
ByLayer
370
18
48
1
60
0
100
AcDbSpline
70
4
71
3
72
92
73
88
40
0
40
0
40
0
40
0
40
0.0095651767036827
40
0.0095651767036827
40
0.045797008772497
40
0.045797008772497
40
0.0639129248069048
40
0.0639129248069048
40
0.0820288408413127
40
0.0820288408413127
40
0.118260672910127
40
0.118260672910127
40
0.136376588944534
40
0.136376588944534
40
0.15449250497894
40
0.15449250497894
40
0.190724337047753
40
0.190724337047753
40
0.208840253082159
40
0.208840253082159
40
0.226956169116566
40
0.226956169116566
40
0.263188001185379
40
0.263188001185379
40
0.281303917219785
40
0.281303917219785
40
0.299419833254192
40
0.299419833254192
40
0.335651665323005
40
0.335651665323005
40
0.353767581357411
40
0.353767581357411
40
0.371883497391818
40
0.371883497391818
40
0.408115329460631
40
0.408115329460631
40
0.426231245495037
40
0.426231245495037
40
0.444347161529443
40
0.444347161529443
40
0.480578993598255
40
0.480578993598255
40
0.498694909632661
40
0.498694909632661
40
0.516810825667068
40
0.516810825667068
40
0.553042657735881
40
0.553042657735881
40
0.571158573770287
40
0.571158573770287
40
0.589274489804693
40
0.589274489804693
40
0.625506321873507
40
0.625506321873507
40
0.643622237907913
40
0.643622237907913
40
0.66173815394232
40
0.66173815394232
40
0.697969986011133
40
0.697969986011133
40
0.716085902045539
40
0.716085902045539
40
0.734201818079945
40
0.734201818079945
40
0.752317734114351
40
0.752317734114351
40
0.770433650148756
40
0.770433650148756
40
0.788549566183162
40
0.788549566183162
40
0.806665482217568
40
0.806665482217568
40
0.842897314286381
40
0.842897314286381
40
0.861013230320789
40
0.861013230320789
40
0.879129146355196
40
0.879129146355196
40
0.91536097842401
40
0.91536097842401
40
0.933476894458418
40
0.933476894458418
40
0.951592810492826
40
0.951592810492826
40
0.987824642561641
40
0.987824642561641
40
1
40
1
40
1
40
1
41
1
10
42.2735144930635
20
2.76670554136229
30
0
41
1
10
42.3499329118419
20
2.79860293774581
30
0
41
1
10
42.4264073405648
20
2.82981859222448
30
0
41
1
10
42.7927355294023
20
2.97614101742866
30
0
41
1
10
43.0830969583909
20
3.08254407710356
30
0
41
1
10
43.5186591089232
20
3.2283772100117
30
0
41
1
10
43.6637302190157
20
3.27475766116785
30
0
41
1
10
43.9555847022639
20
3.36131272916072
30
0
41
1
10
44.1024624100357
20
3.40175001670326
30
0
41
1
10
44.5424434979738
20
3.51409279790235
30
0
41
1
10
44.8343087948614
20
3.57698479021585
30
0
41
1
10
45.2691119315292
20
3.65386082816627
30
0
41
1
10
45.4134101540427
20
3.6765803092546
30
0
41
1
10
45.7026810024753
20
3.71545605150766
30
0
41
1
10
45.8474769026591
20
3.73171980903723
30
0
41
1
10
46.2819425487284
20
3.77132516884376
30
0
41
1
10
46.5717093664254
20
3.78554329497061
30
0
41
1
10
47.0057171219408
20
3.78818473158597
30
0
41
1
10
47.1501139234406
20
3.7858923000079
30
0
41
1
10
47.4403140064501
20
3.77499867345588
30
0
41
1
10
47.5859768395635
20
3.76642728414947
30
0
41
1
10
48.0242277718663
20
3.73135074830933
30
0
41
1
10
48.3189272789881
20
3.69533766324685
30
0
41
1
10
48.7558295652959
20
3.62270006682209
30
0
41
1
10
48.9006746333403
20
3.59524418582424
30
0
41
1
10
49.1907214891348
20
3.53491745527649
30
0
41
1
10
49.3358009942046
20
3.502015785564
30
0
41
1
10
49.7707907343285
20
3.39507797390036
30
0
41
1
10
50.0604760879432
20
3.31288196753263
30
0
41
1
10
50.4936988788551
20
3.17231977903091
30
0
41
1
10
50.6376947921104
20
3.12236622179259
30
0
41
1
10
50.9267571385834
20
3.01797931884147
30
0
41
1
10
51.0717493528606
20
2.96351058261237
30
0
41
1
10
51.5076561480364
20
2.79293425774753
30
0
41
1
10
51.7995189694275
20
2.66973927599179
30
0
41
1
10
52.2384314392011
20
2.46903290933429
30
0
41
1
10
52.3844557730967
20
2.39929165266594
30
0
41
1
10
52.6759527605069
20
2.25744861481942
30
0
41
1
10
52.8216499291308
20
2.18518946519586
30
0
41
1
10
53.2581586938998
20
1.96394345890261
30
0
41
1
10
53.5484155762422
20
1.81055229035397
30
0
41
1
10
53.981830622615
20
1.57036924733518
30
0
41
1
10
54.1257664258803
20
1.48829357740743
30
0
41
1
10
54.4143417568895
20
1.32279252119153
30
0
41
1
10
54.5589885965976
20
1.23939398796824
30
0
41
1
10
54.9935314420931
20
0.986588928980325
30
0
41
1
10
55.2840512596297
20
0.814633007991944
30
0
41
1
10
55.7202455704362
20
0.549984180354755
30
0
41
1
10
55.8655107096325
20
0.460288062096595
30
0
41
1
10
56.1574360892517
20
0.280696976590264
30
0
41
1
10
56.3043151790961
20
0.190835240835497
30
0
41
1
10
56.7432017309735
20
-0.0773119381414347
30
0
41
1
10
57.0346055040503
20
-0.254814701660962
30
0
41
1
10
57.4690952011332
20
-0.520630204744322
30
0
41
1
10
57.6132841753035
20
-0.60948931725386
30
0
41
1
10
57.9019668076379
20
-0.785092914320614
30
0
41
1
10
58.0465675780641
20
-0.871672003068028
30
0
41
1
10
58.4806561006916
20
-1.12860371530644
30
0
41
1
10
58.7704531961606
20
-1.29613006554965
30
0
41
1
10
59.2048993377623
20
-1.54302251560091
30
0
41
1
10
59.3494862957717
20
-1.62486294501426
30
0
41
1
10
59.6395975540828
20
-1.78545876212371
30
0
41
1
10
59.7853147485296
20
-1.86393094044158
30
0
41
1
10
60.0777303808185
20
-2.01775765431248
30
0
41
1
10
60.2247385622261
20
-2.09324292516456
30
0
41
1
10
60.5176711847165
20
-2.24029851527439
30
0
41
1
10
60.6636591078603
20
-2.31190603372576
30
0
41
1
10
60.9545476141738
20
-2.45145230591982
30
0
41
1
10
61.0992619114937
20
-2.51961433284219
30
0
41
1
10
61.3885484557224
20
-2.6510165294126
30
0
41
1
10
61.533349930841
20
-2.71400173807015
30
0
41
1
10
61.9677265845265
20
-2.8956596056355
30
0
41
1
10
62.2572956937363
20
-3.00705928855706
30
0
41
1
10
62.6907499846501
20
-3.16036933313362
30
0
41
1
10
62.8349257635533
20
-3.20929128441156
30
0
41
1
10
63.1237560914585
20
-3.30166691352065
30
0
41
1
10
63.2687217868891
20
-3.34487508702634
30
0
41
1
10
63.7047873910803
20
-3.46609780041015
30
0
41
1
10
63.9974799665075
20
-3.5358640235913
30
0
41
1
10
64.4366540315326
20
-3.6234367808496
30
0
41
1
10
64.5822327525279
20
-3.64969446959469
30
0
41
1
10
64.8727682388232
20
-3.69582678541082
30
0
41
1
10
65.0180691345784
20
-3.7155798741523
30
0
41
1
10
65.4536499440773
20
-3.76545416178891
30
0
41
1
10
65.7435879425309
20
-3.78626361872037
30
0
41
1
10
66.1295700098843
20
-3.79763601869448
30
0
41
1
10
66.2264765746106
20
-3.79909472698046
30
0
41
1
10
66.323332099534
20
-3.79912976081033
30
0
0
SPLINE
5
ED
100
AcDbEntity
8
1
62
256
6
ByLayer
370
18
48
1
60
0
100
AcDbSpline
70
4
71
3
72
8
73
4
40
0
40
0
40
0
40
0
40
1
40
1
40
1
40
1
41
1
10
67.6917895991729
20
-3.76874743401331
30
0
41
1
10
67.7018149073913
20
-3.74221105568748
30
0
41
1
10
67.711829338077
20
-3.7156558586293
30
0
41
1
10
67.7218322007481
20
-3.68908370359984
30
0
0
SPLINE
5
EE
100
AcDbEntity
8
1
62
256
6
ByLayer
370
18
48
1
60
0
100
AcDbSpline
70
4
71
3
72
20
73
16
40
0
40
0
40
0
40
0
40
0.124999999999995
40
0.124999999999995
40
0.187499999999995
40
0.187499999999995
40
0.249999999999994
40
0.249999999999994
40
0.374999999999997
40
0.374999999999997
40
0.5
40
0.5
40
0.75
40
0.75
40
1
40
1
40
1
40
1
41
1
10
64.5713111019651
20
1.42584862861031
30
0
41
1
10
64.6055798945595
20
1.25843047343403
30
0
41
1
10
64.6553654947248
20
1.09019990198877
30
0
41
1
10
64.7505932649545
20
0.836778137780328
30
0
41
1
10
64.7859973755691
20
0.751680871649057
30
0
41
1
10
64.8621043408932
20
0.58400677312747
30
0
41
1
10
64.9028066046843
20
0.501317704104764
30
0
41
1
10
65.0320414168912
20
0.256339777220944
30
0
41
1
10
65.1276667011235
20
0.0971249070374824
30
0
41
1
10
65.3349624841804
20
-0.214350846430761
30
0
41
1
10
65.4448554751827
20
-0.363914747025518
30
0
41
1
10
65.7877115022558
20
-0.795266095141955
30
0
41
1
10
66.0350255935602
20
-1.06146153615154
30
0
41
1
10
66.5574246929661
20
-1.5576829980516
30
0
41
1
10
66.8271867971979
20
-1.78361679432595
30
0
41
1
10
67.1037685286192
20
-1.99188782113242
30
0
0
SPLINE
5
EF
100
AcDbEntity
8
1
62
256
6
ByLayer
370
13
48
1
60
0
100
AcDbSpline
70
4
71
3
72
8
73
4
40
0
40
0
40
0
40
0
40
1
40
1
40
1
40
1
41
1
10
4.12145392875942
20
-2.73276287264284
30
0
41
1
10
4.14553512172253
20
-2.73192293479121
30
0
41
1
10
4.17187533703975
20
-2.73721789234057
30
0
41
1
10
4.19894195179472
20
-2.74797918107964
30
0
0
SPLINE
5
F0
100
AcDbEntity
8
SK1
62
256
6
ByLayer
370
18
48
1
60
0
100
AcDbSpline
70
4
71
3
72
14
73
10
40
0
40
0
40
0
40
0
40
0.124999999999998
40
0.124999999999998
40
0.249999999999997
40
0.249999999999997
40
0.499999999999998
40
0.499999999999998
40
1
40
1
40
1
40
1
41
1
10
-35.15
20
-0.899702128742462
30
0
41
1
10
-35.15
20
-0.910443641221406
30
0
41
1
10
-35.1517533826404
20
-0.920350052990102
30
0
41
1
10
-35.156922863818
20
-0.937324983563684
30
0
41
1
10
-35.1602579704305
20
-0.94443173603932
30
0
41
1
10
-35.171531162593
20
-0.963419080784774
30
0
41
1
10
-35.1803065715125
20
-0.972377667496744
30
0
41
1
10
-35.2084258319137
20
-0.993648141969004
30
0
41
1
10
-35.2287403581634
20
-0.999714886415859
30
0
41
1
10
-35.25
20
-0.99971782502044
30
0
0
SPLINE
5
F1
100
AcDbEntity
8
SK1
62
256
6
ByLayer
370
18
48
1
60
0
100
AcDbSpline
70
4
71
3
72
8
73
4
40
0
40
0
40
0
40
0
40
1
40
1
40
1
40
1
41
1
10
-35.25
20
0.999717825020156
30
0
41
1
10
-35.503884786539
20
0.999752918132486
30
0
41
1
10
-35.7560115935019
20
0.999788092019088
30
0
41
1
10
-36
20
0.999823591549784
30
0
0
SPLINE
5
F2
100
AcDbEntity
8
SK1
62
256
6
ByLayer
370
18
48
1
60
0
100
AcDbSpline
70
4
71
3
72
8
73
4
40
0
40
0
40
0
40
0
40
1
40
1
40
1
40
1
41
1
10
-35.25
20
-0.999717825020156
30
0
41
1
10
-35.503884786539
20
-0.999752918132486
30
0
41
1
10
-35.7560115935019
20
-0.999788092019116
30
0
41
1
10
-36
20
-0.999823591549784
30
0
0
SPLINE
5
F3
100
AcDbEntity
8
SK1
62
256
6
ByLayer
370
18
48
1
60
0
100
AcDbSpline
70
4
71
3
72
14
73
10
40
0
40
0
40
0
40
0
40
0.500000000000001
40
0.500000000000001
40
0.750000000000001
40
0.750000000000001
40
0.875
40
0.875
40
1
40
1
40
1
40
1
41
1
10
-35.25
20
-1.00028216905272
30
0
41
1
10
-35.2287351157906
20
-1.00028510838195
30
0
41
1
10
-35.2083743058672
20
-0.994203399642146
30
0
41
1
10
-35.1802586764876
20
-0.972917037824601
30
0
41
1
10
-35.1713519692842
20
-0.963730157636292
30
0
41
1
10
-35.1602788850835
20
-0.945045426371962
30
0
41
1
10
-35.1569187377632
20
-0.937910495047731
30
0
41
1
10
-35.1517448941354
20
-0.920910079667578
30
0
41
1
10
-35.1499999999998
20
-0.911022034421933
30
0
41
1
10
-35.1499999999998
20
-0.900297865922965
30
0
0
SPLINE
5
F4
100
AcDbEntity
8
SK1
62
256
6
ByLayer
370
18
48
1
60
0
100
AcDbSpline
70
4
71
3
72
8
73
4
40
0
40
0
40
0
40
0
40
1
40
1
40
1
40
1
41
1
10
-36
20
-1.00017640252281
30
0
41
1
10
-35.7559461785827
20
-1.00021191157114
30
0
41
1
10
-35.5038668423313
20
-1.00024707842044
30
0
41
1
10
-35.25
20
-1.00028216905244
30
0
0
SPLINE
5
F5
100
AcDbEntity
8
SK1
62
256
6
ByLayer
370
18
48
1
60
0
100
AcDbSpline
70
4
71
3
72
14
73
10
40
0
40
0
40
0
40
0
40
0.125000000000002
40
0.125000000000002
40
0.250000000000003
40
0.250000000000003
40
0.500000000000003
40
0.500000000000003
40
1
40
1
40
1
40
1
41
1
10
-35.15
20
0.899702128742462
30
0
41
1
10
-35.15
20
0.910443641221406
30
0
41
1
10
-35.1517533826404
20
0.920350052990102
30
0
41
1
10
-35.156922863818
20
0.937324983563656
30
0
41
1
10
-35.1602579704305
20
0.94443173603932
30
0
41
1
10
-35.171531162593
20
0.963419080784774
30
0
41
1
10
-35.1803065715125
20
0.972377667496716
30
0
41
1
10
-35.2084258319137
20
0.993648141969004
30
0
41
1
10
-35.2287403581634
20
0.999714886415859
30
0
41
1
10
-35.25
20
0.99971782502044
30
0
0
LINE
5
76
100
AcDbEntity
8
81
62
256
6
ByLayer
370
18
48
1
60
0
100
AcDbLine
10
69
20
0
30
0
11
74
21
0
31
0
39
0
210
0
220
0
230
1
0
LINE
5
77
100
AcDbEntity
8
1
62
256
6
ByLayer
370
18
48
1
60
0
100
AcDbLine
10
2.054923
20
3.760571
30
0
11
0.366919
21
3.759558
31
0
39
0
210
0
220
0
230
1
0
LINE
5
79
100
AcDbEntity
8
1
62
256
6
ByLayer
370
18
48
1
60
0
100
AcDbLine
10
8.700015
20
3.764558
30
0
11
7.301924
21
3.763719
31
0
39
0
210
0
220
0
230
1
0
LINE
5
7A
100
AcDbEntity
8
1
62
256
6
ByLayer
370
18
48
1
60
0
100
AcDbLine
10
28.100011
20
3.776198
30
0
11
27.507758
21
3.775842
31
0
39
0
210
0
220
0
230
1
0
LINE
5
7B
100
AcDbEntity
8
1
62
256
6
ByLayer
370
18
48
1
60
0
100
AcDbLine
10
47.499698
20
3.787838
30
0
11
46.913971
21
3.787486
31
0
39
0
210
0
220
0
230
1
0
LINE
5
7C
100
AcDbEntity
8
1
62
256
6
ByLayer
370
18
48
1
60
0
100
AcDbLine
10
66.899655
20
3.799478
30
0
11
66.320725
21
3.79913
31
0
39
0
210
0
220
0
230
1
0
LINE
5
7D
100
AcDbEntity
8
1
62
256
6
ByLayer
370
18
48
1
60
0
100
AcDbLine
10
66.320725
20
-3.79913
30
0
11
66.899722
21
-3.799478
31
0
39
0
210
0
220
0
230
1
0
LINE
5
7E
100
AcDbEntity
8
1
62
256
6
ByLayer
370
18
48
1
60
0
100
AcDbLine
10
46.913971
20
-3.787486
30
0
11
47.499737
21
-3.787838
31
0
39
0
210
0
220
0
230
1
0
LINE
5
7F
100
AcDbEntity
8
1
62
256
6
ByLayer
370
18
48
1
60
0
100
AcDbLine
10
27.507758
20
-3.775842
30
0
11
28.099861
21
-3.776198
31
0
39
0
210
0
220
0
230
1
0
LINE
5
80
100
AcDbEntity
8
1
62
256
6
ByLayer
370
18
48
1
60
0
100
AcDbLine
10
7.301924
20
-3.763719
30
0
11
8.699899
21
-3.764558
31
0
39
0
210
0
220
0
230
1
0
LINE
5
81
100
AcDbEntity
8
1
62
256
6
ByLayer
370
18
48
1
60
0
100
AcDbLine
10
0.366919
20
-3.759558
30
0
11
2.054923
21
-3.760571
31
0
39
0
210
0
220
0
230
1
0
LINE
5
82
100
AcDbEntity
8
SK1
62
256
6
ByLayer
370
18
48
1
60
0
100
AcDbLine
10
-35.133975
20
4
30
0
11
-36
21
2.5
31
0
39
0
210
0
220
0
230
1
0
LINE
5
84
100
AcDbEntity
8
SK1
62
256
6
ByLayer
370
18
48
1
60
0
100
AcDbLine
10
-36
20
-2.5
30
0
11
-35.133975
21
-4
31
0
39
0
210
0
220
0
230
1
0
LINE
5
85
100
AcDbEntity
8
SK1
62
256
6
ByLayer
370
18
48
1
60
0
100
AcDbLine
10
0
20
4
30
0
11
-35.133975
21
4
31
0
39
0
210
0
220
0
230
1
0
LINE
5
86
100
AcDbEntity
8
SK1
62
256
6
ByLayer
370
18
48
1
60
0
100
AcDbLine
10
-35.133975
20
-4
30
0
11
0
21
-4
31
0
39
0
210
0
220
0
230
1
0
LINE
5
87
100
AcDbEntity
8
SK4
62
256
6
ByLayer
370
18
48
0.05
60
0
100
AcDbLine
10
74
20
0
30
0
11
-41
21
0
31
0
39
0
210
0
220
0
230
1
0
LINE
5
89
100
AcDbEntity
8
4
62
256
6
ByLayer
370
18
48
0.05
60
0
100
AcDbLine
10
69
20
0
30
0
11
0
21
0
31
0
39
0
210
0
220
0
230
1
0
LINE
5
8B
100
AcDbEntity
8
80
62
256
6
ByLayer
370
18
48
1
60
0
100
AcDbLine
10
0
20
0
30
0
11
-5
21
0
31
0
39
0
210
0
220
0
230
1
0
LINE
5
8C
100
AcDbEntity
8
1
62
256
6
ByLayer
370
13
48
1
60
0
100
AcDbLine
10
0.366919
20
3.759558
30
0
11
0.366919
21
-3.759558
31
0
39
0
210
0
220
0
230
1
0
LINE
5
8D
100
AcDbEntity
8
1
62
256
6
ByLayer
370
18
48
1
60
0
100
AcDbLine
10
0
20
-4
30
0
11
0
21
4
31
0
39
0
210
0
220
0
230
1
0
LINE
5
8E
100
AcDbEntity
8
1
62
256
6
ByLayer
370
18
48
1
60
0
100
AcDbLine
10
69
20
0
30
0
11
68.993172
21
-0.037859
31
0
39
0
210
0
220
0
230
1
0
LINE
5
8F
100
AcDbEntity
8
1
62
256
6
ByLayer
370
18
48
1
60
0
100
AcDbLine
10
67.103769
20
-1.991888
30
0
11
68.894902
21
-0.141622
31
0
39
0
210
0
220
0
230
1
0
LINE
5
90
100
AcDbEntity
8
1
62
256
6
ByLayer
370
13
48
1
60
0
100
AcDbLine
10
67.936367
20
0.427108
30
0
11
68.894902
21
-0.141622
31
0
39
0
210
0
220
0
230
1
0
LINE
5
91
100
AcDbEntity
8
1
62
256
6
ByLayer
370
18
48
1
60
0
100
AcDbLine
10
68.923196
20
-0.289598
30
0
11
68.81288
21
-0.762438
31
0
39
0
210
0
220
0
230
1
0
LINE
5
92
100
AcDbEntity
8
1
62
256
6
ByLayer
370
13
48
1
60
0
100
AcDbLine
10
68.126274
20
0.762438
30
0
11
68.923196
21
0.289598
31
0
39
0
210
0
220
0
230
1
0
LINE
5
93
100
AcDbEntity
8
1
62
256
6
ByLayer
370
13
48
1
60
0
100
AcDbLine
10
68.81288
20
0.762438
30
0
11
68.126274
21
0.762438
31
0
39
0
210
0
220
0
230
1
0
LINE
5
94
100
AcDbEntity
8
1
62
256
6
ByLayer
370
13
48
1
60
0
100
AcDbLine
10
0.183399
20
3.879779
30
0
11
0.183399
21
-3.879779
31
0
39
0
210
0
220
0
230
1
0
LINE
5
95
100
AcDbEntity
8
1
62
256
6
ByLayer
370
18
48
1
60
0
100
AcDbLine
10
68.923196
20
0.289598
30
0
11
68.81288
21
0.762438
31
0
39
0
210
0
220
0
230
1
0
LINE
5
96
100
AcDbEntity
8
1
62
256
6
ByLayer
370
18
48
1
60
0
100
AcDbLine
10
68.993172
20
0.037859
30
0
11
69
21
0
31
0
39
0
210
0
220
0
230
1
0
LINE
5
97
100
AcDbEntity
8
1
62
256
6
ByLayer
370
18
48
1
60
0
100
AcDbLine
10
69
20
0
30
0
11
67.681353
21
-3.622954
31
0
39
0
210
0
220
0
230
1
0
LINE
5
98
100
AcDbEntity
8
SK1
62
256
6
ByLayer
370
18
48
1
60
0
100
AcDbLine
10
-35.15
20
-0.900298
30
0
11
-35.15
21
0.899702
31
0
39
0
210
0
220
0
230
1
0
LINE
5
99
100
AcDbEntity
8
SK1
62
256
6
ByLayer
370
18
48
1
60
0
100
AcDbLine
10
-35.133975
20
4
30
0
11
-35.133975
21
-4
31
0
39
0
210
0
220
0
230
1
0
LINE
5
9A
100
AcDbEntity
8
SK1
62
256
6
ByLayer
370
18
48
1
60
0
100
AcDbLine
10
-36
20
2.5
30
0
11
-36
21
0.999824
31
0
39
0
210
0
220
0
230
1
0
LINE
5
9B
100
AcDbEntity
8
SK1
62
256
6
ByLayer
370
18
48
1
60
0
100
AcDbLine
10
-36
20
-2.5
30
0
11
-36
21
-1.000176
31
0
39
0
210
0
220
0
230
1
0
LINE
5
9C
100
AcDbEntity
8
SK1
62
256
6
ByLayer
370
18
48
1
60
0
100
AcDbLine
10
-36
20
-0.999824
30
0
11
-36
21
-1.000176
31
0
39
0
210
0
220
0
230
1
0
LINE
5
9D
100
AcDbEntity
8
SK1
62
256
6
ByLayer
370
13
48
1
60
0
100
AcDbLine
10
-35.25
20
-0.999718
30
0
11
-35.25
21
-1.000282
31
0
39
0
210
0
220
0
230
1
0
LINE
5
9E
100
AcDbEntity
8
SK1
62
256
6
ByLayer
370
18
48
1
60
0
100
AcDbLine
10
0
20
-4
30
0
11
0
21
4
31
0
39
0
210
0
220
0
230
1
0
MTEXT
5
F6
100
AcDbEntity
8
SK6
62
256
6
ByLayer
370
13
48
1
60
0
100
AcDbMText
10
18.629169
20
36.182694
30
0
210
0
220
0
230
1
1
\W0.7542;R840-0760-70-A1A1220
40
3.5
41
0
44
1.084337
50
0
71
8
72
5
7
iso_b_vert
0
DIMENSION
5
103
100
AcDbEntity
8
SK2
62
256
6
ByLayer
370
13
48
1
60
0
100
AcDbDimension
2
DimnDraft3D1
10
67.71
20
-14.013398
30
0
11
32.460059
21
-14.013398
31
0
70
32
71
5
72
1
41
1
210
0
220
0
230
1
3
Standard
100
AcDbAlignedDimension
13
0
23
-1.5875
33
0
14
67.71
24
-5.3875
34
0
50
0
100
AcDbRotatedDimension
1001
ACAD
1000
DSTYLE
1002
{
1070
   279
1070
     0
1070
   172
1070
     1
1070
   173
1070
     1
1070
   340
1005
F7
1070
   271
1070
     2
1070
   272
1070
     2
1070
    77
1070
     1
1070
    73
1070
     0
1070
   171
1070
     3
1070
   274
1070
     4
1070
   177
1070
    35
1070
   176
1070
    35
1070
   178
1070
    35
1070
    48
1040
-0.005
1070
    41
1041
3.5
1070
   147
1041
1.75
1070
    42
1041
1.5875
1070
    44
1041
2.0
1070
   140
1041
3.5
1070
   343
1005
0
1070
   344
1005
0
1002
}
0
DIMENSION
5
10D
100
AcDbEntity
8
SK2
62
256
6
ByLayer
370
13
48
1
60
0
100
AcDbDimension
2
DimnDraft3D2
10
69
20
-32.692985
30
0
11
16.5513
21
-32.692985
31
0
70
32
71
5
72
1
41
1
210
0
220
0
230
1
3
Standard
100
AcDbAlignedDimension
13
-36
23
-5.5875
33
0
14
69
24
-1.5875
34
0
50
0
100
AcDbRotatedDimension
1001
ACAD
1000
DSTYLE
1002
{
1070
   279
1070
     0
1070
   172
1070
     1
1070
   173
1070
     1
1070
   340
1005
F7
1070
   271
1070
     2
1070
   272
1070
     2
1070
    77
1070
     1
1070
    73
1070
     0
1070
   171
1070
     3
1070
   274
1070
     4
1070
   177
1070
    35
1070
   176
1070
    35
1070
   178
1070
    35
1070
    48
1040
-0.005
1070
    41
1041
3.5
1070
   147
1041
1.75
1070
    42
1041
1.5875
1070
    44
1041
2.0
1070
   140
1041
3.5
1070
   343
1005
0
1070
   344
1005
0
1002
}
0
DIMENSION
5
117
100
AcDbEntity
8
SK2
62
256
6
ByLayer
370
13
48
1
60
0
100
AcDbDimension
2
DimnDraft3D3
10
69
20
15.409119
30
0
11
37.955
21
15.409119
31
0
70
32
71
5
72
1
41
1
210
0
220
0
230
1
3
Standard
100
AcDbAlignedDimension
13
6.91
23
5.3875
33
0
14
69
24
1.5875
34
0
50
0
100
AcDbRotatedDimension
1001
ACAD
1000
DSTYLE
1002
{
1070
   279
1070
     0
1070
   172
1070
     1
1070
   173
1070
     1
1070
   340
1005
F7
1070
   271
1070
     2
1070
   272
1070
     2
1070
    77
1070
     1
1070
    73
1070
     0
1070
   171
1070
     3
1070
   274
1070
     4
1070
   177
1070
    35
1070
   176
1070
    35
1070
   178
1070
    35
1070
    48
1040
-0.005
1070
    41
1041
3.5
1070
   147
1041
1.75
1070
    42
1041
1.5875
1070
    44
1041
2.0
1070
   140
1041
3.5
1070
   343
1005
0
1070
   344
1005
0
1002
}
0
DIMENSION
5
121
100
AcDbEntity
8
SK2
62
256
6
ByLayer
370
13
48
1
60
0
100
AcDbDimension
2
DimnDraft3D4
10
67.71
20
-16.602503
30
0
11
78.981425
21
-16.602503
31
0
70
32
71
5
72
1
41
1
210
0
220
0
230
1
3
Standard
100
AcDbAlignedDimension
13
69
23
-1.5875
33
0
14
67.71
24
-5.3875
34
0
50
0
100
AcDbRotatedDimension
1001
ACAD
1000
DSTYLE
1002
{
1070
   279
1070
     0
1070
   172
1070
     1
1070
   173
1070
     1
1070
   340
1005
F7
1070
   271
1070
     2
1070
   272
1070
     2
1070
    77
1070
     1
1070
    73
1070
     0
1070
   171
1070
     3
1070
   274
1070
     4
1070
   177
1070
    35
1070
   176
1070
    35
1070
   178
1070
    35
1070
    48
1040
-0.005
1070
    41
1041
3.5
1070
   147
1041
1.75
1070
    42
1041
1.5875
1070
    44
1041
2.0
1070
   140
1041
3.5
1070
   343
1005
0
1070
   344
1005
0
1002
}
0
DIMENSION
5
12B
100
AcDbEntity
8
SK2
62
256
6
ByLayer
370
13
48
1
60
0
100
AcDbDimension
2
DimnDraft3D5
10
67.71
20
-22.343428
30
0
11
13.470676
21
-22.343428
31
0
70
32
71
5
72
1
41
1
210
0
220
0
230
1
3
Standard
100
AcDbAlignedDimension
13
-36
23
-5.5875
33
0
14
67.71
24
-5.3875
34
0
50
0
100
AcDbRotatedDimension
1001
ACAD
1000
DSTYLE
1002
{
1070
   279
1070
     0
1070
   172
1070
     1
1070
   173
1070
     1
1070
   340
1005
F7
1070
   271
1070
     2
1070
   272
1070
     2
1070
    77
1070
     1
1070
    73
1070
     0
1070
   171
1070
     3
1070
   274
1070
     4
1070
   177
1070
    35
1070
   176
1070
    35
1070
   178
1070
    35
1070
    48
1040
-0.005
1070
    41
1041
3.5
1070
   147
1041
1.75
1070
    42
1041
1.5875
1070
    44
1041
2.0
1070
   140
1041
3.5
1070
   343
1005
0
1070
   344
1005
0
1002
}
0
DIMENSION
5
136
100
AcDbEntity
8
SK2
62
256
6
ByLayer
370
13
48
1
60
0
100
AcDbDimension
2
DimnDraft3D6
10
-46.625163
20
4
30
0
11
-47.250163
21
22.47418
31
0
70
33
71
5
72
1
41
1
210
0
220
0
230
1
3
Standard
100
AcDbAlignedDimension
13
-37.5875
23
-4
33
0
14
-37.5875
24
4
34
0
1001
ACAD
1000
DSTYLE
1002
{
1070
   279
1070
     0
1070
    74
1070
     0
1070
   173
1070
     1
1070
   340
1005
F7
1070
   271
1070
     3
1070
   272
1070
     2
1070
    77
1070
     1
1070
    73
1070
     0
1070
   171
1070
     3
1070
   274
1070
     4
1070
   177
1070
    35
1070
   176
1070
    35
1070
   178
1070
    35
1070
    48
1040
-0.005
1070
    41
1041
3.5
1070
   147
1041
1.75
1070
    42
1041
1.5875
1070
    44
1041
2.0
1070
   140
1041
3.5
1070
   343
1005
0
1070
   344
1005
0
1002
}
0
DIMENSION
5
141
100
AcDbEntity
8
2
62
256
6
ByLayer
370
13
48
1
60
0
100
AcDbDimension
2
DimnDraft3D7
10
83.083343
20
3.8
30
0
11
78.458343
21
20.867266
31
0
70
33
71
5
72
1
41
1
210
0
220
0
230
1
3
Standard
100
AcDbAlignedDimension
13
69.2975
23
-3.8
33
0
14
69.2975
24
3.8
34
0
1001
ACAD
1000
DSTYLE
1002
{
1070
   279
1070
     0
1070
    74
1070
     0
1070
   173
1070
     1
1070
   340
1005
F7
1070
   271
1070
     3
1070
   272
1070
     2
1070
    77
1070
     1
1070
    73
1070
     0
1070
   171
1070
     3
1070
   274
1070
     4
1070
   177
1070
    35
1070
   176
1070
    35
1070
   178
1070
    35
1070
    48
1040
-0.005
1070
    41
1041
3.5
1070
   147
1041
1.75
1070
    42
1041
1.5875
1070
    44
1041
2.0
1070
   140
1041
3.5
1070
   343
1005
0
1070
   344
1005
0
1002
}
0
ENDSEC
0
SECTION
2
OBJECTS
0
DICTIONARY
5
1ac
330
0
100
AcDbDictionary
280
0
281
1
3
ACAD_GROUP
350
1ad
3
ACAD_MLINESTYLE
350
1ae
0
DICTIONARY
5
1ad
330
0
100
AcDbDictionary
280
0
281
1
0
DICTIONARY
5
1ae
330
0
100
AcDbDictionary
280
0
281
1
3
Standard
350
18
0
MLINESTYLE
5
18
330
1ae
100
AcDbMlineStyle
2
Standard
70
0
3

62
256
51
90
52
90
71
2
49
-0.5
62
256
6
ByLayer
49
0.5
62
256
6
ByLayer
0
RASTERVARIABLES
5
19a
330

100
AcDbRasterVariables
90
0
70
1
71
1
72
1
0
ENDSEC
0
EOF
