0
SECTION
2
HEADER
9
$ACADVER
1
AC1015
9
$DWGCODEPAGE
3
ANSI_1252
9
$HANDSEED
5
1aa
9
$ANGBASE
50
0
9
$ANGDIR
70
0
9
$ATTMODE
70
1
9
$AUNITS
70
0
9
$AUPREC
70
0
9
$CECOLOR
62
256
9
$CELTSCALE
40
1
9
$CELTYPE
6
ByLayer
9
$CELWEIGHT
370
18
9
$CLAYER
8
0
9
$CMLJUST
70
0
9
$CMLSCALE
40
1
9
$CMLSTYLE
2
Standard
9
$DIMSTYLE
2
Standard
9
$TEXTSIZE
40
0.2
9
$TEXTSTYLE
7
Standard
9
$LUNITS
70
2
9
$LUPREC
70
4
9
$EXTNAMES
290
1
9
$INSUNITS
70
4
9
$LTSCALE
40
1
9
$LWDISPLAY
290
1
9
$PDMODE
70
0
9
$PDSIZE
40
0
9
$PLINEGEN
70
0
0
ENDSEC
0
SECTION
2
CLASSES
0
CLASS
1
RASTERVARIABLES
2
AcDbRasterVariables
3
ISM
90
0
280
0
281
0
0
ENDSEC
0
SECTION
2
TABLES
0
TABLE
2
VPORT
5
1a0
100
AcDbSymbolTable
0
VPORT
5
1
100
AcDbSymbolTableRecord
100
AcDbViewportTableRecord
2
*Active
70
0
10
0
20
0
11
1
21
1
12
-1
22
1
13
0
23
0
14
0.5
24
0.5
15
10
25
10
16
0
26
0
36
1
17
0
27
0
37
0
0
ENDTAB
0
TABLE
2
LTYPE
5
1a1
100
AcDbSymbolTable
0
LTYPE
5
14
100
AcDbSymbolTableRecord
100
AcDbLinetypeTableRecord
70
0
2
ByBlock
3

72
65
73
0
40
0
0
LTYPE
5
15
100
AcDbSymbolTableRecord
100
AcDbLinetypeTableRecord
70
0
2
ByLayer
3

72
65
73
0
40
0
0
LTYPE
5
16
100
AcDbSymbolTableRecord
100
AcDbLinetypeTableRecord
70
0
2
CONTINUOUS
3
Solid line
72
65
73
0
40
0
0
LTYPE
5
6A
100
AcDbSymbolTableRecord
100
AcDbLinetypeTableRecord
70
0
2
CENTER
3
____ _ ____ _ ____ _ ____
72
65
73
4
40
47.5
49
22
74
0
49
-8.5
74
0
49
8.5
74
0
49
-8.5
74
0
0
LTYPE
5
6B
100
AcDbSymbolTableRecord
100
AcDbLinetypeTableRecord
70
0
2
DASHED
3
__ __ __ __ __ __ __ __ __
72
65
73
2
40
25.72
49
12.86
74
0
49
-12.86
74
0
0
ENDTAB
0
TABLE
2
LAYER
5
1a2
100
AcDbSymbolTable
0
LAYER
5
10
100
AcDbSymbolTableRecord
100
AcDbLayerTableRecord
2
0
70
0
62
7
6
CONTINUOUS
290
1
370
-3
390
0
0
LAYER
5
6D
100
AcDbSymbolTableRecord
100
AcDbLayerTableRecord
2
81
70
0
62
-3
6
CONTINUOUS
290
1
370
-3
390
0
0
LAYER
5
6F
100
AcDbSymbolTableRecord
100
AcDbLayerTableRecord
2
80
70
0
62
-6
6
CONTINUOUS
290
1
370
-3
390
0
0
LAYER
5
74
100
AcDbSymbolTableRecord
100
AcDbLayerTableRecord
2
2
70
0
62
7
6
CONTINUOUS
290
1
370
-3
390
0
0
LAYER
5
78
100
AcDbSymbolTableRecord
100
AcDbLayerTableRecord
2
1
70
0
62
4
6
CONTINUOUS
290
1
370
-3
390
0
0
LAYER
5
88
100
AcDbSymbolTableRecord
100
AcDbLayerTableRecord
2
4
70
0
62
-2
6
CENTER
290
1
370
-3
390
0
0
LAYER
5
18c
100
AcDbSymbolTableRecord
100
AcDbLayerTableRecord
2
SK2
70
0
62
7
6
CONTINUOUS
290
1
370
-3
390
0
0
LAYER
5
18d
100
AcDbSymbolTableRecord
100
AcDbLayerTableRecord
2
SK1
70
0
62
4
6
CONTINUOUS
290
1
370
-3
390
0
0
LAYER
5
18e
100
AcDbSymbolTableRecord
100
AcDbLayerTableRecord
2
SK4
70
0
62
2
6
CENTER
290
1
370
-3
390
0
0
LAYER
5
18f
100
AcDbSymbolTableRecord
100
AcDbLayerTableRecord
2
SK6
70
0
62
5
6
CONTINUOUS
290
1
370
-3
390
0
0
ENDTAB
0
TABLE
2
STYLE
5
1a3
100
AcDbSymbolTable
0
STYLE
5
11
100
AcDbSymbolTableRecord
100
AcDbTextStyleTableRecord
2
Standard
3
txt
70
0
71
0
40
0
41
1
42
0
50
0
0
STYLE
5
E8
100
AcDbSymbolTableRecord
100
AcDbTextStyleTableRecord
2
iso_b_vert
3
simplex.shx
70
0
71
0
40
0
41
1
42
0
50
0
0
STYLE
5
E9
100
AcDbSymbolTableRecord
100
AcDbTextStyleTableRecord
2
DWGDirectTextStyle
3
simplex
70
0
71
0
40
0
41
1
42
0
50
0
0
ENDTAB
0
TABLE
2
DIMSTYLE
5
1a4
100
AcDbSymbolTable
100
AcDbDimStyleTable
0
DIMSTYLE
105
27
100
AcDbSymbolTableRecord
100
AcDbDimStyleTableRecord
2
Standard
70
0
3
<>
41
0.18
42
0.0625
44
0.18
140
0.18
147
0.09
73
0
74
0
77
1
271
2
275
0
278
52
280
0
340
11
0
ENDTAB
0
TABLE
2
VIEW
5
1a5
100
AcDbSymbolTable
0
ENDTAB
0
TABLE
2
UCS
5
1a6
100
AcDbSymbolTable
0
ENDTAB
0
TABLE
2
APPID
5
1a7
100
AcDbSymbolTable
0
APPID
5
12
100
AcDbSymbolTableRecord
100
AcDbRegAppTableRecord
2
ACAD
70
0
0
ENDTAB
0
TABLE
2
BLOCK_RECORD
5
1a8
100
AcDbSymbolTable
0
BLOCK_RECORD
5
1F
100
AcDbSymbolTableRecord
100
AcDbBlockTableRecord
2
*Model_Space
340
0
70
0
0
BLOCK_RECORD
5
1B
100
AcDbSymbolTableRecord
100
AcDbBlockTableRecord
2
*Paper_Space
340
0
70
0
0
BLOCK_RECORD
5
23
100
AcDbSymbolTableRecord
100
AcDbBlockTableRecord
2
*Paper_Space0
340
0
70
0
0
BLOCK_RECORD
5
EB
100
AcDbSymbolTableRecord
100
AcDbBlockTableRecord
2
DimnDraft3D1
340
0
70
0
0
BLOCK_RECORD
5
F5
100
AcDbSymbolTableRecord
100
AcDbBlockTableRecord
2
DimnDraft3D2
340
0
70
0
0
BLOCK_RECORD
5
FF
100
AcDbSymbolTableRecord
100
AcDbBlockTableRecord
2
DimnDraft3D3
340
0
70
0
0
BLOCK_RECORD
5
109
100
AcDbSymbolTableRecord
100
AcDbBlockTableRecord
2
DimnDraft3D4
340
0
70
0
0
BLOCK_RECORD
5
113
100
AcDbSymbolTableRecord
100
AcDbBlockTableRecord
2
DimnDraft3D5
340
0
70
0
0
BLOCK_RECORD
5
11D
100
AcDbSymbolTableRecord
100
AcDbBlockTableRecord
2
DimnDraft3D6
340
0
70
0
0
BLOCK_RECORD
5
128
100
AcDbSymbolTableRecord
100
AcDbBlockTableRecord
2
DimnDraft3D7
340
0
70
0
0
ENDTAB
0
ENDSEC
0
SECTION
2
BLOCKS
0
BLOCK
5
20
100
AcDbEntity
8
0
100
AcDbBlockBegin
2
*Model_Space
70
0
10
0
20
0
30
0
3
*Model_Space
0
ENDBLK
5
21
100
AcDbEntity
8
0
100
AcDbBlockEnd
0
BLOCK
5
1C
100
AcDbEntity
8
0
100
AcDbBlockBegin
2
*Paper_Space
70
0
10
0
20
0
30
0
3
*Paper_Space
0
ENDBLK
5
1D
100
AcDbEntity
8
0
100
AcDbBlockEnd
0
BLOCK
5
24
100
AcDbEntity
8
0
100
AcDbBlockBegin
2
*Paper_Space0
70
0
10
0
20
0
30
0
3
*Paper_Space0
0
ENDBLK
5
25
100
AcDbEntity
8
0
100
AcDbBlockEnd
0
BLOCK
5
F2
100
AcDbEntity
8
0
100
AcDbBlockBegin
2
DimnDraft3D1
70
0
10
0
20
0
30
0
3
DimnDraft3D1
0
MTEXT
5
EC
100
AcDbEntity
8
SK2
62
256
6
ByLayer
370
13
48
1
60
0
100
AcDbMText
10
21.131375
20
-12.788398
30
0
210
0
220
0
230
1
1
\W0.7317;53,83
40
3.5
41
0
44
1.084337
50
0
71
7
72
5
7
iso_b_vert
0
LINE
5
ED
100
AcDbEntity
8
SK2
62
256
6
ByLayer
370
13
48
1
60
0
100
AcDbLine
10
0
20
-1.5875
30
0
11
0
21
-15.663398
31
0
39
0
210
0
220
0
230
1
0
LINE
5
EE
100
AcDbEntity
8
SK2
62
256
6
ByLayer
370
13
48
1
60
0
100
AcDbLine
10
53.83
20
-5.0375
30
0
11
53.83
21
-15.663398
31
0
39
0
210
0
220
0
230
1
0
LINE
5
EF
100
AcDbEntity
8
SK2
62
256
6
ByLayer
370
13
48
1
60
0
100
AcDbLine
10
0
20
-13.663398
30
0
11
53.83
21
-13.663398
31
0
39
0
210
0
220
0
230
1
0
SOLID
5
F0
100
AcDbEntity
8
SK2
62
256
6
ByLayer
370
13
48
1
60
0
100
AcDbTrace
10
0
20
-13.663398
30
0
11
3.499998
21
-13.202615
31
0
12
3.500002
22
-14.124182
32
0
13
0
23
-13.663398
33
0
39
0
210
0
220
0
230
1
0
SOLID
5
F1
100
AcDbEntity
8
SK2
62
256
6
ByLayer
370
13
48
1
60
0
100
AcDbTrace
10
53.83
20
-13.663398
30
0
11
50.330002
21
-14.124182
31
0
12
50.329998
22
-13.202615
32
0
13
53.83
23
-13.663398
33
0
39
0
210
0
220
0
230
1
0
ENDBLK
5
F3
100
AcDbEntity
8
0
100
AcDbBlockEnd
0
BLOCK
5
FC
100
AcDbEntity
8
0
100
AcDbBlockBegin
2
DimnDraft3D2
70
0
10
0
20
0
30
0
3
DimnDraft3D2
0
MTEXT
5
F6
100
AcDbEntity
8
SK2
62
256
6
ByLayer
370
13
48
1
60
0
100
AcDbMText
10
5.660116
20
-31.817985
30
0
210
0
220
0
230
1
1
\W0.6713;91,00
40
3.5
41
0
44
1.084337
50
0
71
7
72
5
7
iso_b_vert
0
LINE
5
F7
100
AcDbEntity
8
SK2
62
256
6
ByLayer
370
13
48
1
60
0
100
AcDbLine
10
-36
20
-5.5875
30
0
11
-36
21
-34.692985
31
0
39
0
210
0
220
0
230
1
0
LINE
5
F8
100
AcDbEntity
8
SK2
62
256
6
ByLayer
370
13
48
1
60
0
100
AcDbLine
10
55
20
-1.5875
30
0
11
55
21
-34.692985
31
0
39
0
210
0
220
0
230
1
0
LINE
5
F9
100
AcDbEntity
8
SK2
62
256
6
ByLayer
370
13
48
1
60
0
100
AcDbLine
10
-36
20
-32.692985
30
0
11
55
21
-32.692985
31
0
39
0
210
0
220
0
230
1
0
SOLID
5
FA
100
AcDbEntity
8
SK2
62
256
6
ByLayer
370
13
48
1
60
0
100
AcDbTrace
10
-36
20
-32.692985
30
0
11
-32.500002
21
-32.232202
31
0
12
-32.499998
22
-33.153769
32
0
13
-36
23
-32.692985
33
0
39
0
210
0
220
0
230
1
0
SOLID
5
FB
100
AcDbEntity
8
SK2
62
256
6
ByLayer
370
13
48
1
60
0
100
AcDbTrace
10
55
20
-32.692985
30
0
11
51.500002
21
-33.153769
31
0
12
51.499998
22
-32.232202
32
0
13
55
23
-32.692985
33
0
39
0
210
0
220
0
230
1
0
ENDBLK
5
FD
100
AcDbEntity
8
0
100
AcDbBlockEnd
0
BLOCK
5
106
100
AcDbEntity
8
0
100
AcDbBlockBegin
2
DimnDraft3D3
70
0
10
0
20
0
30
0
3
DimnDraft3D3
0
MTEXT
5
100
100
AcDbEntity
8
SK2
62
256
6
ByLayer
370
13
48
1
60
0
100
AcDbMText
10
32.716316
20
15.934119
30
0
210
0
220
0
230
1
1
\W0.7317;35,67
40
3.5
41
0
44
1.084337
50
0
71
7
72
5
7
iso_b_vert
0
LINE
5
101
100
AcDbEntity
8
SK2
62
256
6
ByLayer
370
13
48
1
60
0
100
AcDbLine
10
19.33
20
5.0375
30
0
11
19.33
21
17.059119
31
0
39
0
210
0
220
0
230
1
0
LINE
5
102
100
AcDbEntity
8
SK2
62
256
6
ByLayer
370
13
48
1
60
0
100
AcDbLine
10
55
20
1.5875
30
0
11
55
21
17.059119
31
0
39
0
210
0
220
0
230
1
0
LINE
5
103
100
AcDbEntity
8
SK2
62
256
6
ByLayer
370
13
48
1
60
0
100
AcDbLine
10
19.33
20
15.059119
30
0
11
55
21
15.059119
31
0
39
0
210
0
220
0
230
1
0
SOLID
5
104
100
AcDbEntity
8
SK2
62
256
6
ByLayer
370
13
48
1
60
0
100
AcDbTrace
10
19.33
20
15.059119
30
0
11
22.829998
21
15.519903
31
0
12
22.830002
22
14.598335
32
0
13
19.33
23
15.059119
33
0
39
0
210
0
220
0
230
1
0
SOLID
5
105
100
AcDbEntity
8
SK2
62
256
6
ByLayer
370
13
48
1
60
0
100
AcDbTrace
10
55
20
15.059119
30
0
11
51.500002
21
14.598335
31
0
12
51.499998
22
15.519903
32
0
13
55
23
15.059119
33
0
39
0
210
0
220
0
230
1
0
ENDBLK
5
107
100
AcDbEntity
8
0
100
AcDbBlockEnd
0
BLOCK
5
110
100
AcDbEntity
8
0
100
AcDbBlockBegin
2
DimnDraft3D4
70
0
10
0
20
0
30
0
3
DimnDraft3D4
0
MTEXT
5
10A
100
AcDbEntity
8
SK2
62
256
6
ByLayer
370
13
48
1
60
0
100
AcDbMText
10
62.715636
20
-15.377503
30
0
210
0
220
0
230
1
1
\W0.5583;1,17
40
3.5
41
0
44
1.084337
50
0
71
7
72
5
7
iso_b_vert
0
LINE
5
10B
100
AcDbEntity
8
SK2
62
256
6
ByLayer
370
13
48
1
60
0
100
AcDbLine
10
55
20
-1.5875
30
0
11
55
21
-18.252503
31
0
39
0
210
0
220
0
230
1
0
LINE
5
10C
100
AcDbEntity
8
SK2
62
256
6
ByLayer
370
13
48
1
60
0
100
AcDbLine
10
53.83
20
-5.0375
30
0
11
53.83
21
-18.252503
31
0
39
0
210
0
220
0
230
1
0
LINE
5
10D
100
AcDbEntity
8
SK2
62
256
6
ByLayer
370
13
48
1
60
0
100
AcDbLine
10
45.08
20
-16.252503
30
0
11
68.122215
21
-16.252503
31
0
39
0
210
0
220
0
230
1
0
SOLID
5
10E
100
AcDbEntity
8
SK2
62
256
6
ByLayer
370
13
48
1
60
0
100
AcDbTrace
10
55
20
-16.252503
30
0
11
58.499998
21
-15.791719
31
0
12
58.500002
22
-16.713287
32
0
13
55
23
-16.252503
33
0
39
0
210
0
220
0
230
1
0
SOLID
5
10F
100
AcDbEntity
8
SK2
62
256
6
ByLayer
370
13
48
1
60
0
100
AcDbTrace
10
53.83
20
-16.252503
30
0
11
50.330002
21
-16.713287
31
0
12
50.329998
22
-15.791719
32
0
13
53.83
23
-16.252503
33
0
39
0
210
0
220
0
230
1
0
ENDBLK
5
111
100
AcDbEntity
8
0
100
AcDbBlockEnd
0
BLOCK
5
11A
100
AcDbEntity
8
0
100
AcDbBlockBegin
2
DimnDraft3D5
70
0
10
0
20
0
30
0
3
DimnDraft3D5
0
MTEXT
5
114
100
AcDbEntity
8
SK2
62
256
6
ByLayer
370
13
48
1
60
0
100
AcDbMText
10
2.141992
20
-21.468428
30
0
210
0
220
0
230
1
1
\W0.7317;89,83
40
3.5
41
0
44
1.084337
50
0
71
7
72
5
7
iso_b_vert
0
LINE
5
115
100
AcDbEntity
8
SK2
62
256
6
ByLayer
370
13
48
1
60
0
100
AcDbLine
10
-36
20
-5.5875
30
0
11
-36
21
-24.343428
31
0
39
0
210
0
220
0
230
1
0
LINE
5
116
100
AcDbEntity
8
SK2
62
256
6
ByLayer
370
13
48
1
60
0
100
AcDbLine
10
53.83
20
-5.0375
30
0
11
53.83
21
-24.343428
31
0
39
0
210
0
220
0
230
1
0
LINE
5
117
100
AcDbEntity
8
SK2
62
256
6
ByLayer
370
13
48
1
60
0
100
AcDbLine
10
-36
20
-22.343428
30
0
11
53.83
21
-22.343428
31
0
39
0
210
0
220
0
230
1
0
SOLID
5
118
100
AcDbEntity
8
SK2
62
256
6
ByLayer
370
13
48
1
60
0
100
AcDbTrace
10
-36
20
-22.343428
30
0
11
-32.500002
21
-21.882645
31
0
12
-32.499998
22
-22.804212
32
0
13
-36
23
-22.343428
33
0
39
0
210
0
220
0
230
1
0
SOLID
5
119
100
AcDbEntity
8
SK2
62
256
6
ByLayer
370
13
48
1
60
0
100
AcDbTrace
10
53.83
20
-22.343428
30
0
11
50.330002
21
-22.804212
31
0
12
50.329998
22
-21.882645
32
0
13
53.83
23
-22.343428
33
0
39
0
210
0
220
0
230
1
0
ENDBLK
5
11B
100
AcDbEntity
8
0
100
AcDbBlockEnd
0
BLOCK
5
125
100
AcDbEntity
8
0
100
AcDbBlockBegin
2
DimnDraft3D6
70
0
10
0
20
0
30
0
3
DimnDraft3D6
0
MTEXT
5
11E
100
AcDbEntity
8
SK2
62
256
6
ByLayer
370
13
48
1
60
0
100
AcDbMText
10
-46.375163
20
23.34918
30
0
210
0
220
0
230
1
1
\W0.7317;8,000
40
3.5
41
0
44
1.084337
50
90
71
7
72
5
7
iso_b_vert
0
MTEXT
5
11F
100
AcDbEntity
8
SK2
62
256
6
ByLayer
370
13
48
1
60
0
100
AcDbMText
10
-46.375163
20
18.126524
30
0
210
0
220
0
230
1
1
%%c
40
3.5
41
0
44
1.084337
50
90
71
7
72
5
7
iso_b_vert
0
LINE
5
120
100
AcDbEntity
8
SK2
62
256
6
ByLayer
370
13
48
1
60
0
100
AcDbLine
10
-37.5875
20
-4
30
0
11
-46.625163
21
-4
31
0
39
0
210
0
220
0
230
1
0
LINE
5
121
100
AcDbEntity
8
SK2
62
256
6
ByLayer
370
13
48
1
60
0
100
AcDbLine
10
-37.5875
20
4
30
0
11
-46.625163
21
4
31
0
39
0
210
0
220
0
230
1
0
LINE
5
122
100
AcDbEntity
8
SK2
62
256
6
ByLayer
370
13
48
1
60
0
100
AcDbLine
10
-44.625163
20
-4
30
0
11
-44.625163
21
33.121549
31
0
39
0
210
0
220
0
230
1
0
SOLID
5
123
100
AcDbEntity
8
SK2
62
256
6
ByLayer
370
13
48
1
60
0
100
AcDbTrace
10
-44.625163
20
-4
30
0
11
-45.085946
21
-0.500002
31
0
12
-44.164379
22
-0.499998
32
0
13
-44.625163
23
-4
33
0
39
0
210
0
220
0
230
1
0
SOLID
5
124
100
AcDbEntity
8
SK2
62
256
6
ByLayer
370
13
48
1
60
0
100
AcDbTrace
10
-44.625163
20
4
30
0
11
-44.164379
21
0.500002
31
0
12
-45.085946
22
0.499998
32
0
13
-44.625163
23
4
33
0
39
0
210
0
220
0
230
1
0
ENDBLK
5
126
100
AcDbEntity
8
0
100
AcDbBlockEnd
0
BLOCK
5
130
100
AcDbEntity
8
0
100
AcDbBlockBegin
2
DimnDraft3D7
70
0
10
0
20
0
30
0
3
DimnDraft3D7
0
MTEXT
5
129
100
AcDbEntity
8
2
62
256
6
ByLayer
370
13
48
1
60
0
100
AcDbMText
10
65.333343
20
21.392266
30
0
210
0
220
0
230
1
1
\W0.7317;6,900
40
3.5
41
0
44
1.084337
50
90
71
7
72
5
7
iso_b_vert
0
MTEXT
5
12A
100
AcDbEntity
8
2
62
256
6
ByLayer
370
13
48
1
60
0
100
AcDbMText
10
65.333343
20
16.16961
30
0
210
0
220
0
230
1
1
%%c
40
3.5
41
0
44
1.084337
50
90
71
7
72
5
7
iso_b_vert
0
LINE
5
12B
100
AcDbEntity
8
2
62
256
6
ByLayer
370
13
48
1
60
0
100
AcDbLine
10
55.4175
20
-3.45
30
0
11
69.083343
21
-3.45
31
0
39
0
210
0
220
0
230
1
0
LINE
5
12C
100
AcDbEntity
8
2
62
256
6
ByLayer
370
13
48
1
60
0
100
AcDbLine
10
55.4175
20
3.45
30
0
11
69.083343
21
3.45
31
0
39
0
210
0
220
0
230
1
0
LINE
5
12D
100
AcDbEntity
8
2
62
256
6
ByLayer
370
13
48
1
60
0
100
AcDbLine
10
67.083343
20
31.164635
30
0
11
67.083343
21
-12.2
31
0
39
0
210
0
220
0
230
1
0
SOLID
5
12E
100
AcDbEntity
8
2
62
256
6
ByLayer
370
13
48
1
60
0
100
AcDbTrace
10
67.083343
20
-3.45
30
0
11
67.544126
21
-6.949998
31
0
12
66.622559
22
-6.950002
32
0
13
67.083343
23
-3.45
33
0
39
0
210
0
220
0
230
1
0
SOLID
5
12F
100
AcDbEntity
8
2
62
256
6
ByLayer
370
13
48
1
60
0
100
AcDbTrace
10
67.083343
20
3.45
30
0
11
66.622559
21
6.949998
31
0
12
67.544126
22
6.950002
32
0
13
67.083343
23
3.45
33
0
39
0
210
0
220
0
230
1
0
ENDBLK
5
131
100
AcDbEntity
8
0
100
AcDbBlockEnd
0
ENDSEC
0
SECTION
2
ENTITIES
0
ARC
5
99
100
AcDbEntity
8
1
62
256
6
ByLayer
370
18
48
1
60
0
100
AcDbCircle
39
0
10
0
20
3.2
30
0
40
0.800000000000003
210
0
220
0
230
1
100
AcDbArc
50
39.531737
51
90
0
ARC
5
9A
100
AcDbEntity
8
1
62
256
6
ByLayer
370
18
48
1
60
0
100
AcDbCircle
39
0
10
0
20
-3.2
30
0
40
0.800000000000003
210
0
220
0
230
1
100
AcDbArc
50
270
51
320.468263
0
ARC
5
9B
100
AcDbEntity
8
1
62
256
6
ByLayer
370
18
48
1
60
0
100
AcDbCircle
39
0
10
-1.234035
20
-4.218409
30
0
40
0.799999999999997
210
0
220
0
230
-1
100
AcDbArc
50
39.531737
51
90.034377
0
ARC
5
9C
100
AcDbEntity
8
1
62
256
6
ByLayer
370
18
48
1
60
0
100
AcDbCircle
39
0
10
-1.234035
20
4.218409
30
0
40
0.799999999999997
210
0
220
0
230
-1
100
AcDbArc
50
269.965623
51
320.468263
0
ELLIPSE
5
9D
100
AcDbEntity
8
1
62
256
6
ByLayer
370
18
48
1
60
0
100
AcDbEllipse
10
4.25
20
-3.508642
30
0
11
-0.25
21
3.06151588455594E-17
31
0
210
0
220
0
230
1
40
0.999994
41
-1.56905027246778
42
-0.395822942557366
0
ELLIPSE
5
9E
100
AcDbEntity
8
1
62
256
6
ByLayer
370
18
48
1
60
0
100
AcDbEllipse
10
4.25
20
3.508642
30
0
11
-0.25
21
3.06151588455594E-17
31
0
210
0
220
0
230
1
40
0.999994
41
0.401239251512014
42
1.58427299055156
0
ELLIPSE
5
9F
100
AcDbEntity
8
1
62
256
6
ByLayer
370
18
48
1
60
0
100
AcDbEllipse
10
54.315761
20
-1.745533
30
0
11
0.534966655585125
21
1.44768943193706
31
0
210
0
220
0
230
-1
40
0.115174
41
0.742863466704216
42
1.5033719838154
0
ELLIPSE
5
A0
100
AcDbEntity
8
1
62
256
6
ByLayer
370
18
48
1
60
0
100
AcDbEllipse
10
54.860498
20
0.109612
30
0
11
0.0727819104935786
21
0.301917195711055
31
0
210
0
220
0
230
-1
40
0.478434
41
1.70615898728037
42
2.45976119972533
0
ELLIPSE
5
A1
100
AcDbEntity
8
1
62
256
6
ByLayer
370
13
48
1
60
0
100
AcDbEllipse
10
54.667482
20
1.745533
30
0
11
2.07842342820618
21
-1.03691171113834
31
0
210
0
220
0
230
-1
40
0.486972
41
1.55870456727952
42
1.83300870676525
0
ELLIPSE
5
A2
100
AcDbEntity
8
1
62
256
6
ByLayer
370
13
48
1
60
0
100
AcDbEllipse
10
54.477576
20
1.622335
30
0
11
2.00759764312311
21
-1.38228806606638
31
0
210
0
220
0
230
-1
40
0.533762
41
1.44484622740782
42
1.69326071218512
0
ELLIPSE
5
A3
100
AcDbEntity
8
1
62
256
6
ByLayer
370
18
48
1
60
0
100
AcDbEllipse
10
55.046351
20
0.000661
30
0
11
0.137979128885609
21
0.428995648189304
31
0
210
0
220
0
230
-1
40
0.08774
41
-2.32337572127751
42
-1.68071453213564
0
ELLIPSE
5
A4
100
AcDbEntity
8
1
62
256
6
ByLayer
370
18
48
1
60
0
100
AcDbEllipse
10
55.00031
20
-0.000754
30
0
11
1.2739769513452
21
-3.44754750836892
31
0
210
0
220
0
230
-1
40
0.115174
41
-2.96882624046274
42
-2.86036153025875
0
ELLIPSE
5
A5
100
AcDbEntity
8
1
62
256
6
ByLayer
370
18
48
1
60
0
100
AcDbEllipse
10
55.046351
20
-0.000661
30
0
11
0.137979128920305
21
-0.428995648279038
31
0
210
0
220
0
230
-1
40
0.08774
41
1.68071453226152
42
2.32337572128154
0
ELLIPSE
5
A6
100
AcDbEntity
8
1
62
256
6
ByLayer
370
13
48
1
60
0
100
AcDbEllipse
10
4.250238
20
0.253904
30
0
11
0.0476685600369416
21
0.0879073852642911
31
0
210
0
220
0
230
1
40
0.037329
41
3.09853917105307
42
-1.63620110633704
0
ELLIPSE
5
A7
100
AcDbEntity
8
1
62
256
6
ByLayer
370
13
48
1
60
0
100
AcDbEllipse
10
4.178027
20
0.294174
30
0
11
0.0500614626557433
21
0.0865670258052547
31
0
210
0
220
0
230
1
40
0.396286
41
1.88186776963857
42
-3.08340217570383
0
ELLIPSE
5
A8
100
AcDbEntity
8
1
62
256
6
ByLayer
370
18
48
1
60
0
100
AcDbEllipse
10
54.315761
20
1.745533
30
0
11
0.534966655576615
21
-1.44768943191851
31
0
210
0
220
0
230
-1
40
0.115174
41
-1.50337198382367
42
-0.742863466703315
0
ELLIPSE
5
A9
100
AcDbEntity
8
1
62
256
6
ByLayer
370
18
48
1
60
0
100
AcDbEllipse
10
55.00031
20
0.000754
30
0
11
1.27397693377977
21
3.4475474567116
31
0
210
0
220
0
230
-1
40
0.115174
41
2.86036152813279
42
2.96882623916002
0
ELLIPSE
5
AA
100
AcDbEntity
8
1
62
256
6
ByLayer
370
13
48
1
60
0
100
AcDbEllipse
10
54.187703
20
0.508803
30
0
11
0.153082081612419
21
0.258003636193773
31
0
210
0
220
0
230
1
40
0.454519
41
0.917105603404793
42
2.31336900500034
0
POINT
5
6C
100
AcDbEntity
8
81
62
256
6
ByLayer
370
18
48
1
60
0
100
AcDbPoint
10
55
20
0
30
0
39
0
210
0
220
0
230
1
50
360
0
POINT
5
6E
100
AcDbEntity
8
80
62
256
6
ByLayer
370
18
48
1
60
0
100
AcDbPoint
10
0
20
0
30
0
39
0
210
0
220
0
230
1
50
360
0
POINT
5
70
100
AcDbEntity
8
SK2
62
256
6
ByLayer
370
18
48
1
60
1
100
AcDbPoint
10
-36
20
-4
30
0
39
0
210
0
220
0
230
1
50
360
0
POINT
5
72
100
AcDbEntity
8
SK2
62
256
6
ByLayer
370
18
48
1
60
1
100
AcDbPoint
10
-36
20
4
30
0
39
0
210
0
220
0
230
1
50
360
0
POINT
5
73
100
AcDbEntity
8
2
62
256
6
ByLayer
370
18
48
1
60
1
100
AcDbPoint
10
53.83
20
-3.45
30
0
39
0
210
0
220
0
230
1
50
360
0
POINT
5
75
100
AcDbEntity
8
2
62
256
6
ByLayer
370
18
48
1
60
1
100
AcDbPoint
10
53.83
20
3.45
30
0
39
0
210
0
220
0
230
1
50
360
0
SPLINE
5
AB
100
AcDbEntity
8
1
62
256
6
ByLayer
370
18
48
1
60
0
100
AcDbSpline
70
4
71
1
72
4
73
2
40
0
40
0
40
1
40
1
41
1
10
43.30770593589
20
0.0003406673730524
30
0
41
1
10
43.3076973506667
20
0.0003473106906426
30
0
0
SPLINE
5
AC
100
AcDbEntity
8
1
62
256
6
ByLayer
370
18
48
1
60
0
100
AcDbSpline
70
4
71
2
72
6
73
3
40
0
40
0
40
0
40
1
40
1
40
1
41
1
10
53.256423653805
20
-3.28667972006747
30
0
41
1
10
53.531575224596
20
-3.28504256836985
30
0
41
1
10
53.806437699736
20
-3.28783037497962
30
0
0
SPLINE
5
AD
100
AcDbEntity
8
1
62
256
6
ByLayer
370
18
48
1
60
0
100
AcDbSpline
70
4
71
3
72
24
73
20
40
0
40
0
40
0
40
0
40
0.0872640536155355
40
0.164285042072125
40
0.232031686459356
40
0.290098291541986
40
0.338311227365261
40
0.384621856129653
40
0.437844862148207
40
0.507422586481721
40
0.609295040264188
40
0.693800933598227
40
0.761321624985476
40
0.789636084998554
40
0.814386972231647
40
0.842473311489861
40
0.890033055605971
40
0.95781458214309
40
1
40
1
40
1
40
1
41
1
10
14.3646466175147
20
-3.26325122473881
30
0
41
1
10
14.6375929128391
20
-3.26299366252039
30
0
41
1
10
15.1523826952231
20
-3.26298569817854
30
0
41
1
10
15.8876064727387
20
-3.26163630224352
30
0
41
1
10
16.5229293334167
20
-3.26571586535994
30
0
41
1
10
17.0689205377596
20
-3.26511343356825
30
0
41
1
10
17.5516059106915
20
-3.26609229580575
30
0
41
1
10
18.0176861987575
20
-3.2670329123626
30
0
41
1
10
18.5518966166987
20
-3.26578869530164
30
0
41
1
10
19.2613394662297
20
-3.26865494292656
30
0
41
1
10
20.06968475333
20
-3.26608138280938
30
0
41
1
10
20.8714310975673
20
-3.27032478317815
30
0
41
1
10
21.4410514714503
20
-3.26826819755664
30
0
41
1
10
21.8214721959253
20
-3.26820626988021
30
0
41
1
10
22.0761371832562
20
-3.2685321142157
30
0
41
1
10
22.391941314103
20
-3.26971687039963
30
0
41
1
10
22.8455125881844
20
-3.26930380803447
30
0
41
1
10
23.3426199180678
20
-3.26884222839698
30
0
41
1
10
23.6891673389597
20
-3.26971993112991
30
0
41
1
10
23.8220270130906
20
-3.27016558635586
30
0
0
SPLINE
5
AE
100
AcDbEntity
8
1
62
256
6
ByLayer
370
18
48
1
60
0
100
AcDbSpline
70
4
71
3
72
24
73
20
40
0
40
0
40
0
40
0
40
0.0432181987696413
40
0.110447400859589
40
0.158038340613007
40
0.210230529020609
40
0.272553911873002
40
0.337284493156302
40
0.395626670482819
40
0.436324902916713
40
0.483339862470195
40
0.542729355462933
40
0.651631832327614
40
0.750687551126948
40
0.833829023721386
40
0.873448818169192
40
0.913355829875682
40
0.955271036185356
40
1
40
1
40
1
40
1
41
1
10
43.2923201858162
20
3.28079424139821
30
0
41
1
10
43.1793054039056
20
3.28017849400519
30
0
41
1
10
42.8904780199593
20
3.2789897542211
30
0
41
1
10
42.4768714812288
20
3.27966155420393
30
0
41
1
10
42.0402657978474
20
3.28017506653137
30
0
41
1
10
41.6163117459208
20
3.27907920934675
30
0
41
1
10
41.1472963213704
20
3.27961237431211
30
0
41
1
10
40.6622571160417
20
3.2806656751365
30
0
41
1
10
40.2337697642394
20
3.27912479581593
30
0
41
1
10
39.8516439042743
20
3.27816083967792
30
0
41
1
10
39.4667685934964
20
3.27854185892318
30
0
41
1
10
38.9034728706926
20
3.27871859389313
30
0
41
1
10
38.2040190931109
20
3.27699672890674
30
0
41
1
10
37.4423827997462
20
3.27809951880226
30
0
41
1
10
36.8620608199528
20
3.2766700020621
30
0
41
1
10
36.4364636996789
20
3.27687888007981
30
0
41
1
10
36.1187285593206
20
3.27684631588502
30
0
41
1
10
35.78762722132
20
3.27645290912909
30
0
41
1
10
35.5609671814505
20
3.27619089946239
30
0
41
1
10
35.443952225
20
3.27608631144065
30
0
0
SPLINE
5
AF
100
AcDbEntity
8
1
62
256
6
ByLayer
370
18
48
1
60
0
100
AcDbSpline
70
4
71
3
72
26
73
22
40
0
40
0
40
0
40
0
40
0.0686076304885158
40
0.123189387392586
40
0.158776039542824
40
0.1916017103469
40
0.230117443068761
40
0.273861872772914
40
0.317209485163989
40
0.425962123681224
40
0.519975588702157
40
0.572686863235854
40
0.625284194413957
40
0.691865843282793
40
0.761591489024442
40
0.78996637918685
40
0.814038331994796
40
0.849079223001368
40
0.898943768233666
40
0.963525872250165
40
1
40
1
40
1
40
1
41
1
10
33.818040156103
20
-3.2751094861778
30
0
41
1
10
34.0337863710135
20
-3.27531545601457
30
0
41
1
10
34.4211957200089
20
-3.27561170999459
30
0
41
1
10
34.9206485235656
20
-3.27598446470992
30
0
41
1
10
35.30747747698
20
-3.27597038276949
30
0
41
1
10
35.6438231123267
20
-3.27618776426905
30
0
41
1
10
36.0058014255668
20
-3.27680695540957
30
0
41
1
10
36.4008469823481
20
-3.27685030835355
30
0
41
1
10
37.0168527640601
20
-3.27661656256169
30
0
41
1
10
37.7909998581496
20
-3.27821033343636
30
0
41
1
10
38.5945267687457
20
-3.27734212124992
30
0
41
1
10
39.2214675978478
20
-3.27901675870814
30
0
41
1
10
39.7621368525816
20
-3.27781641160536
30
0
41
1
10
40.3563153786608
20
-3.28005674269571
30
0
41
1
10
40.8743214024378
20
-3.2801323162017
30
0
41
1
10
41.258556048468
20
-3.27953171037552
30
0
41
1
10
41.5335298741464
20
-3.27919318722707
30
0
41
1
10
41.8763159828621
20
-3.27961628170266
30
0
41
1
10
42.3465012619635
20
-3.28019965279029
30
0
41
1
10
42.821255990411
20
-3.27879426447871
30
0
41
1
10
43.1390026686316
20
-3.28011525692418
30
0
41
1
10
43.2536767460598
20
-3.28071193092404
30
0
0
SPLINE
5
B0
100
AcDbEntity
8
1
62
256
6
ByLayer
370
18
48
1
60
0
100
AcDbSpline
70
4
71
3
72
14
73
10
40
0
40
0
40
0
40
0
40
0.11160550695555
40
0.352081652939024
40
0.468676088194978
40
0.525095228595199
40
0.58450281704656
40
0.75352701649348
40
1
40
1
40
1
40
1
41
1
10
25.0154584335175
20
-0.96153607309293
30
0
41
1
10
25.0146681069036
20
-0.961539561348587
30
0
41
1
10
25.0183852480077
20
-0.963557707790585
30
0
41
1
10
25.0628829151022
20
-0.980120262169947
30
0
41
1
10
25.0474878445505
20
-0.975315764476619
30
0
41
1
10
25.0885198087276
20
-0.993746053194968
30
0
41
1
10
25.1670855118096
20
-1.02998881532193
30
0
41
1
10
25.3170279426597
20
-1.10244304217838
30
0
41
1
10
25.4477171491045
20
-1.16868700341516
30
0
41
1
10
25.5281875820918
20
-1.21064465721963
30
0
0
SPLINE
5
B1
100
AcDbEntity
8
1
62
256
6
ByLayer
370
18
48
1
60
0
100
AcDbSpline
70
4
71
3
72
13
73
9
40
0
40
0
40
0
40
0
40
0.118199264278895
40
0.312147429443401
40
0.405377249346406
40
0.55141295022149
40
0.754552155962856
40
1
40
1
40
1
40
1
41
1
10
44.4107105774403
20
-0.959611754574752
30
0
41
1
10
44.4105466362996
20
-0.959386967160924
30
0
41
1
10
44.4121385774138
20
-0.959606231967456
30
0
41
1
10
44.4253352535864
20
-0.966001936415609
30
0
41
1
10
44.468651925856
20
-0.985191491056128
30
0
41
1
10
44.5586418697794
20
-1.02567719524259
30
0
41
1
10
44.7034182723132
20
-1.09391047528928
30
0
41
1
10
44.8258903530735
20
-1.15724802927258
30
0
41
1
10
44.8977872734694
20
-1.19559767880142
30
0
0
SPLINE
5
B2
100
AcDbEntity
8
1
62
256
6
ByLayer
370
18
48
1
60
0
100
AcDbSpline
70
4
71
3
72
23
73
19
40
0
40
0
40
0
40
0
40
0.0470863321831321
40
0.114415237815401
40
0.164453518453162
40
0.223753973332276
40
0.29465083756206
40
0.392190906997628
40
0.475476890630531
40
0.546575603504662
40
0.600096723025007
40
0.654059894674344
40
0.716627872902616
40
0.791930492784543
40
0.859865956811137
40
0.900414159600591
40
0.945092086762678
40
1
40
1
40
1
40
1
41
1
10
23.9026277117475
20
3.27048923359052
30
0
41
1
10
23.7797522350118
20
3.27015874473719
30
0
41
1
10
23.4811479222976
20
3.26963698290822
30
0
41
1
10
23.0511632116657
20
3.26912319803429
30
0
41
1
10
22.5904216751793
20
3.27105143200632
30
0
41
1
10
22.1196697965612
20
3.26912818814634
30
0
41
1
10
21.5246919186961
20
3.26763545293238
30
0
41
1
10
20.8670661073308
20
3.27037268078246
30
0
41
1
10
20.2089060489098
20
3.26668929717923
30
0
41
1
10
19.6657459331587
20
3.26790394746456
30
0
41
1
10
19.199189226863
20
3.26806349374124
30
0
41
1
10
18.7549307198123
20
3.26607422700334
30
0
41
1
10
18.2537635170011
20
3.2665294547329
30
0
41
1
10
17.7161169430396
20
3.26684094543287
30
0
41
1
10
17.2358758366021
20
3.2653219967672
30
0
41
1
10
16.8360874668362
20
3.26534022904326
30
0
41
1
10
16.4699300360007
20
3.26538245160063
30
0
41
1
10
16.2098108078538
20
3.26502918382573
30
0
41
1
10
16.0663896293917
20
3.26484866030196
30
0
0
SPLINE
5
B3
100
AcDbEntity
8
1
62
256
6
ByLayer
370
18
48
1
60
0
100
AcDbSpline
70
4
71
2
72
6
73
3
40
0
40
0
40
0
40
1
40
1
40
1
41
1
10
4.71679421909016
20
3.26074169340143
30
0
41
1
10
4.48394965290504
20
3.26014877778388
30
0
41
1
10
4.25138684074108
20
3.25803399687317
30
0
0
SPLINE
5
B4
100
AcDbEntity
8
1
62
256
6
ByLayer
370
18
48
1
60
0
100
AcDbSpline
70
4
71
2
72
6
73
3
40
0
40
0
40
0
40
1
40
1
40
1
41
1
10
4.25138684092482
20
-3.2580339968745
30
0
41
1
10
4.49034232501833
20
-3.26019911129455
30
0
41
1
10
4.72958730622383
20
-3.26080053691499
30
0
0
SPLINE
5
B5
100
AcDbEntity
8
1
62
256
6
ByLayer
370
18
48
1
60
0
100
AcDbSpline
70
4
71
3
72
18
73
14
40
0
40
0
40
0
40
0
40
0.250000000000012
40
0.250000000000012
40
0.375000000000014
40
0.375000000000014
40
0.500000000000017
40
0.500000000000017
40
0.750000000000012
40
0.750000000000012
40
0.875000000000006
40
0.875000000000006
40
1
40
1
40
1
40
1
41
1
10
54.5181603330353
20
1.70947131346745
30
0
41
1
10
54.4666247433219
20
1.848689264032
30
0
41
1
10
54.4149814920208
20
1.9877914580027
30
0
41
1
10
54.3369515777334
20
2.19583722682552
30
0
41
1
10
54.3108505307999
20
2.26508789301965
30
0
41
1
10
54.2583851270116
20
2.40330611738114
30
0
41
1
10
54.2319923703364
20
2.47225254595131
30
0
41
1
10
54.1528534404052
20
2.67874129966668
30
0
41
1
10
54.1000215162202
20
2.81596125364149
30
0
41
1
10
54.0202719928704
20
3.01875795223299
30
0
41
1
10
53.9935822236622
20
3.08571230874759
30
0
41
1
10
53.9401744979136
20
3.21945058236312
30
0
41
1
10
53.9134279069704
20
3.28606135676313
30
0
41
1
10
53.8865830828589
20
3.35207814789823
30
0
0
SPLINE
5
B6
100
AcDbEntity
8
1
62
256
6
ByLayer
370
18
48
1
60
0
100
AcDbSpline
70
4
71
3
72
14
73
10
40
0
40
0
40
0
40
0
40
0.245202155605078
40
0.245202155605078
40
0.445043834013115
40
0.445043834013115
40
0.644885512421152
40
0.644885512421152
40
1
40
1
40
1
40
1
41
1
10
53.2523403214335
20
-3.28669291788441
30
0
41
1
10
52.9339845007033
20
-3.28749522870123
30
0
41
1
10
52.6156694117799
20
-3.27514213448561
30
0
41
1
10
52.0367548480695
20
-3.22903041370307
30
0
41
1
10
51.776496996241
20
-3.19960714069836
30
0
41
1
10
51.2591293299622
20
-3.12451201785075
30
0
41
1
10
51.0013865334259
20
-3.07879892649578
30
0
41
1
10
50.287250350379
20
-2.93031207135721
30
0
41
1
10
49.8319263913549
20
-2.81069599127611
30
0
41
1
10
49.3758018994838
20
-2.6690722623315
30
0
0
SPLINE
5
B7
100
AcDbEntity
8
1
62
256
6
ByLayer
370
13
48
1
60
0
100
AcDbSpline
70
4
71
3
72
22
73
18
40
0
40
0
40
0
40
0
40
0.176374036682879
40
0.176374036682879
40
0.255713794117183
40
0.255713794117183
40
0.335053551551487
40
0.335053551551487
40
0.493733066420099
40
0.493733066420099
40
0.65241258128871
40
0.65241258128871
40
0.811092096157321
40
0.811092096157321
40
0.969771611025933
40
0.969771611025933
40
1
40
1
40
1
40
1
41
1
10
49.3758028544944
20
-2.66907255885604
30
0
41
1
10
48.8051856577636
20
-2.49189961745441
30
0
41
1
10
48.2333156050317
20
-2.28028402175565
30
0
41
1
10
47.3954262167584
20
-1.93089766628597
30
0
41
1
10
47.1355783078076
20
-1.81713318434555
30
0
41
1
10
46.6187468597984
20
-1.58195730130504
30
0
41
1
10
46.3612079025264
20
-1.4603324237026
30
0
41
1
10
45.5901896676378
20
-1.08535676595952
30
0
41
1
10
45.0779223792072
20
-0.822517340899225
30
0
41
1
10
44.0497956117001
20
-0.284241322147295
30
0
41
1
10
43.5335988769821
20
-0.0085514896774725
30
0
41
1
10
42.4928447845768
20
0.543078744784196
30
0
41
1
10
41.9771279517237
20
0.812735480904223
30
0
41
1
10
40.9487913746171
20
1.32904156684071
30
0
41
1
10
40.4357249438396
20
1.57479068099059
30
0
41
1
10
39.8228240436925
20
1.84675064285082
30
0
41
1
10
39.7246705134529
20
1.88961422644502
30
0
41
1
10
39.6264101929706
20
1.93177469709707
30
0
0
SPLINE
5
B8
100
AcDbEntity
8
1
62
256
6
ByLayer
370
18
48
1
60
0
100
AcDbSpline
70
4
71
3
72
12
73
8
40
0
40
0
40
0
40
0
40
0.0184144699260105
40
0.0184144699260105
40
0.218574639381933
40
0.218574639381933
40
1
40
1
40
1
40
1
41
1
10
14.4078494408751
20
-3.26328762293989
30
0
41
1
10
14.3839992394289
20
-3.26325450080009
30
0
41
1
10
14.3601409541064
20
-3.26314860900266
30
0
41
1
10
14.0768496113587
20
-3.26102635108953
30
0
41
1
10
13.8156818398305
20
-3.25032798240221
30
0
41
1
10
12.5424889887848
20
-3.15591353823765
30
0
41
1
10
11.5447425401291
20
-2.95126155855951
30
0
41
1
10
10.5368692617083
20
-2.63781291116297
30
0
0
SPLINE
5
B9
100
AcDbEntity
8
1
62
256
6
ByLayer
370
13
48
1
60
0
100
AcDbSpline
70
4
71
3
72
22
73
18
40
0
40
0
40
0
40
0
40
0.0118576715923269
40
0.0118576715923269
40
0.135375462643285
40
0.135375462643285
40
0.197134358168765
40
0.197134358168765
40
0.258893253694244
40
0.258893253694244
40
0.505928835796162
40
0.505928835796162
40
0.752964417898082
40
0.752964417898082
40
0.876482208949041
40
0.876482208949041
40
1
40
1
40
1
40
1
41
1
10
10.5368692623251
20
-2.63781291135481
30
0
41
1
10
10.512085571029
20
-2.63010518194127
30
0
41
1
10
10.4872957563188
20
-2.6223316661895
30
0
41
1
10
10.2042035991918
20
-2.53283622980317
30
0
41
1
10
9.94518361971782
20
-2.44409741304545
30
0
41
1
10
9.5549311276541
20
-2.30100431441434
30
0
41
1
10
9.42444193490044
20
-2.25159107140897
30
0
41
1
10
9.16439330088102
20
-2.15019406613655
30
0
41
1
10
9.03464940188493
20
-2.09814547805499
30
0
41
1
10
8.38705474999003
20
-1.83161692402018
30
0
41
1
10
7.87251775803861
20
-1.59839910033972
30
0
41
1
10
6.84357975865356
20
-1.10407833551471
30
0
41
1
10
6.32936682032502
20
-0.842661039628524
30
0
41
1
10
5.55285364836698
20
-0.439275411215391
30
0
41
1
10
5.29289644280206
20
-0.302794015558874
30
0
41
1
10
4.77144144536314
20
-0.0282162358418532
30
0
41
1
10
4.51097712924292
20
0.10932054582355
30
0
41
1
10
4.25039716990298
20
0.246383262730177
30
0
0
SPLINE
5
BA
100
AcDbEntity
8
1
62
256
6
ByLayer
370
18
48
1
60
0
100
AcDbSpline
70
4
71
3
72
64
73
60
40
0
40
0
40
0
40
0
40
0.0624902344373208
40
0.0624902344373208
40
0.0937353516559815
40
0.0937353516559815
40
0.124980468874642
40
0.124980468874642
40
0.156225586093303
40
0.156225586093303
40
0.187470703311964
40
0.187470703311964
40
0.218715820530625
40
0.218715820530625
40
0.249960937749285
40
0.249960937749285
40
0.281206054967946
40
0.281206054967946
40
0.312451172186607
40
0.312451172186607
40
0.343696289405268
40
0.343696289405268
40
0.374941406623928
40
0.374941406623928
40
0.437431641061251
40
0.437431641061251
40
0.499921875498573
40
0.499921875498573
40
0.531166992717234
40
0.531166992717234
40
0.562412109935895
40
0.562412109935895
40
0.593657227154556
40
0.593657227154556
40
0.624902344373218
40
0.624902344373218
40
0.656147461591879
40
0.656147461591879
40
0.68739257881054
40
0.68739257881054
40
0.718637696029201
40
0.718637696029201
40
0.749882813247862
40
0.749882813247862
40
0.781127930466523
40
0.781127930466523
40
0.812373047685185
40
0.812373047685185
40
0.874863282122507
40
0.874863282122507
40
0.906108399341168
40
0.906108399341168
40
0.937353516559829
40
0.937353516559829
40
0.96859863377849
40
0.96859863377849
40
0.999843750997152
40
0.999843750997152
40
1
40
1
40
1
40
1
41
1
10
12.0982263892885
20
3.32466816043953
30
0
41
1
10
12.5338057862549
20
3.38356926214394
30
0
41
1
10
12.9703423694883
20
3.41625000445146
30
0
41
1
10
13.62275817715
20
3.42794769301548
30
0
41
1
10
13.8399228908663
20
3.42539558414748
30
0
41
1
10
14.2764508033598
20
3.40758112244106
30
0
41
1
10
14.4951642792202
20
3.39235159847863
30
0
41
1
10
14.9309494207312
20
3.34930121056615
30
0
41
1
10
15.1478786871887
20
3.32122440921344
30
0
41
1
10
15.582765337964
20
3.25311002240437
30
0
41
1
10
15.8007429697371
20
3.2131948885486
30
0
41
1
10
16.2370827782549
20
3.12137516241538
30
0
41
1
10
16.4555921663572
20
3.06932614342543
30
0
41
1
10
16.8905819844264
20
2.9533357229391
30
0
41
1
10
17.1082341927602
20
2.89016281484652
30
0
41
1
10
17.543830523638
20
2.75379531316094
30
0
41
1
10
17.7616773394318
20
2.68051369175185
30
0
41
1
10
18.1969312086013
20
2.52294255221278
30
0
41
1
10
18.4146616995618
20
2.43846499633381
30
0
41
1
10
18.8510288951181
20
2.2627479365714
30
0
41
1
10
19.0690908175921
20
2.17103019347715
30
0
41
1
10
19.5044563138911
20
1.97920294024485
30
0
41
1
10
19.7213389118779
20
1.87842380804935
30
0
41
1
10
20.3738565676415
20
1.5677456166315
30
0
41
1
10
20.8122088558505
20
1.34939835295268
30
0
41
1
10
21.6810145490822
20
0.889834186581197
30
0
41
1
10
22.1169551713117
20
0.655864954773136
30
0
41
1
10
22.7708014593836
20
0.294503210062914
30
0
41
1
10
22.9883875243197
20
0.172308655979009
30
0
41
1
10
23.4240153802583
20
-0.0690769827438373
30
0
41
1
10
23.6418622315247
20
-0.1892591581001
30
0
41
1
10
24.077103191334
20
-0.429541278485374
30
0
41
1
10
24.2940814342382
20
-0.550382521502485
30
0
41
1
10
24.7295059949063
20
-0.788511927126422
30
0
41
1
10
24.9482506726438
20
-0.905669311615554
30
0
41
1
10
25.384349049449
20
-1.13602644921213
30
0
41
1
10
25.6019395611721
20
-1.24944209503835
30
0
41
1
10
26.0360889552099
20
-1.47281379976206
30
0
41
1
10
26.2535550850786
20
-1.58125809592428
30
0
41
1
10
26.689477877435
20
-1.79145643953549
30
0
41
1
10
26.9081070634237
20
-1.89357619034874
30
0
41
1
10
27.3437748694691
20
-2.09142152008741
30
0
41
1
10
27.56070984403
20
-2.18716716732322
30
0
41
1
10
27.9958964449852
20
-2.36803326329766
30
0
41
1
10
28.2136833681126
20
-2.45386093392619
30
0
41
1
10
28.6491244480857
20
-2.61696691042101
30
0
41
1
10
28.866503474187
20
-2.69471308526045
30
0
41
1
10
29.5203274351442
20
-2.91127858676941
30
0
41
1
10
29.9563519761626
20
-3.03267619475261
30
0
41
1
10
30.6076249930354
20
-3.18295923767852
30
0
41
1
10
30.8252185704909
20
-3.22692136198671
30
0
41
1
10
31.2617658009891
20
-3.30258813130641
30
0
41
1
10
31.4801558139943
20
-3.33432767440405
30
0
41
1
10
31.9151589930045
20
-3.38553905837347
30
0
41
1
10
32.1318816708696
20
-3.4049770385493
30
0
41
1
10
32.5669508750828
20
-3.43074718853444
30
0
41
1
10
32.784836090413
20
-3.43728379560824
30
0
41
1
10
33.003902916688
20
-3.43747056096709
30
0
41
1
10
33.0049929591164
20
-3.43747132843146
30
0
41
1
10
33.0060829967015
20
-3.43747193404903
30
0
0
SPLINE
5
BB
100
AcDbEntity
8
1
62
256
6
ByLayer
370
18
48
1
60
0
100
AcDbSpline
70
4
71
3
72
24
73
20
40
0
40
0
40
0
40
0
40
0.1594110751794
40
0.1594110751794
40
0.264484690781975
40
0.264484690781975
40
0.36955830638455
40
0.36955830638455
40
0.474631921987125
40
0.474631921987125
40
0.5797055375897
40
0.5797055375897
40
0.684779153192275
40
0.684779153192275
40
0.78985276879485
40
0.78985276879485
40
0.894926384397425
40
0.894926384397425
40
1
40
1
40
1
40
1
41
1
10
47.67890310479
20
2.48383396069556
30
0
41
1
10
48.0093434394815
20
2.61150377969378
30
0
41
1
10
48.3409408314407
20
2.72793347372121
30
0
41
1
10
48.8872482970298
20
2.90300290150296
30
0
41
1
10
49.1042420401863
20
2.96700899532752
30
0
41
1
10
49.5392698226815
20
3.08316214211376
30
0
41
1
10
49.7570295205706
20
3.13559053288606
30
0
41
1
10
50.1925363067614
20
3.22935284986212
30
0
41
1
10
50.409877038848
20
3.27072526245996
30
0
41
1
10
50.8449266243111
20
3.34004126520958
30
0
41
1
10
51.0625377936305
20
3.36838284031302
30
0
41
1
10
51.4973954375783
20
3.41276823456954
30
0
41
1
10
51.7143454757223
20
3.42884339247792
30
0
41
1
10
52.1488888378247
20
3.44803693394829
30
0
41
1
10
52.3673853529806
20
3.45112303353599
30
0
41
1
10
52.80283980385
20
3.44461419691055
30
0
41
1
10
53.0201029317407
20
3.43503916604982
30
0
41
1
10
53.4531484834922
20
3.40293812935187
30
0
41
1
10
53.6695722776395
20
3.38050708730845
30
0
41
1
10
53.8865830828402
20
3.35207814791582
30
0
0
SPLINE
5
BC
100
AcDbEntity
8
1
62
256
6
ByLayer
370
18
48
1
60
0
100
AcDbSpline
70
4
71
3
72
14
73
10
40
0
40
0
40
0
40
0
40
0.25
40
0.25
40
0.5
40
0.5
40
0.75
40
0.75
40
1
40
1
40
1
40
1
41
1
10
4.25150430560535
20
-3.2458869730589
30
0
41
1
10
4.4957621620641
20
-3.26194879255974
30
0
41
1
10
4.74370071459586
20
-3.26467216508848
30
0
41
1
10
5.24525740367977
20
-3.24777860327771
30
0
41
1
10
5.49967835540639
20
-3.22805557842386
30
0
41
1
10
6.00946359112444
20
-3.17022847394779
30
0
41
1
10
6.26463724585994
20
-3.13215766941812
30
0
41
1
10
6.77625764632705
20
-3.0408655557271
30
0
41
1
10
7.03270244466881
20
-2.98826655843118
30
0
41
1
10
7.29028588241613
20
-2.92909041242766
30
0
0
SPLINE
5
BD
100
AcDbEntity
8
1
62
256
6
ByLayer
370
18
48
1
60
0
100
AcDbSpline
70
4
71
3
72
14
73
10
40
0
40
0
40
0
40
0
40
0.25
40
0.25
40
0.5
40
0.5
40
0.75
40
0.75
40
1
40
1
40
1
40
1
41
1
10
53.5000438097957
20
0.727640357565235
30
0
41
1
10
53.4925426645945
20
0.757184463300291
30
0
41
1
10
53.488586327208
20
0.787490351420644
30
0
41
1
10
53.488887650439
20
0.850014029789776
30
0
41
1
10
53.4931862502868
20
0.881802940957272
30
0
41
1
10
53.5142116887175
20
0.942942768044048
30
0
41
1
10
53.5311886006414
20
0.97237119637316
30
0
41
1
10
53.5794992742976
20
1.01560522688624
30
0
41
1
10
53.609609234109
20
1.02926521644358
30
0
41
1
10
53.641030261925
20
1.03678077027681
30
0
0
SPLINE
5
BE
100
AcDbEntity
8
1
62
256
6
ByLayer
370
18
48
1
60
0
100
AcDbSpline
70
4
71
3
72
32
73
28
40
0
40
0
40
0
40
0
40
0.249999999999995
40
0.249999999999995
40
0.374999999999989
40
0.374999999999989
40
0.499999999999982
40
0.499999999999982
40
0.624999999999975
40
0.624999999999975
40
0.687499999999976
40
0.687499999999976
40
0.749999999999977
40
0.749999999999977
40
0.812499999999978
40
0.812499999999978
40
0.843749999999982
40
0.843749999999982
40
0.874999999999985
40
0.874999999999985
40
0.906249999999989
40
0.906249999999989
40
0.937499999999993
40
0.937499999999993
40
0.968749999999996
40
0.968749999999996
40
1
40
1
40
1
40
1
41
1
10
51.0410741237122
20
1.01172968268014
30
0
41
1
10
51.2802020120417
20
0.851088725715698
30
0
41
1
10
51.5209803901276
20
0.704675673920377
30
0
41
1
10
51.8861179475432
20
0.519279056474232
30
0
41
1
10
52.0084738186241
20
0.463026144148785
30
0
41
1
10
52.2546949459535
20
0.363531844678533
30
0
41
1
10
52.3786747961888
20
0.320375380772958
30
0
41
1
10
52.622710848327
20
0.250868121474895
30
0
41
1
10
52.7434204208322
20
0.224267503957179
30
0
41
1
10
52.9222839380065
20
0.198080085462863
30
0
41
1
10
52.9815582643006
20
0.19164405174044
30
0
41
1
10
53.0992320028322
20
0.183679913887147
30
0
41
1
10
53.1578826147743
20
0.180980807643181
30
0
41
1
10
53.2692123881236
20
0.192484448844397
30
0
41
1
10
53.321551564671
20
0.205463152686576
30
0
41
1
10
53.3911312028611
20
0.240963027937937
30
0
41
1
10
53.4130436194502
20
0.255756808094134
30
0
41
1
10
53.4516845970246
20
0.292430313576205
30
0
41
1
10
53.4680962642658
20
0.31391782560064
30
0
41
1
10
53.4953643683646
20
0.362910129646082
30
0
41
1
10
53.5061399361829
20
0.390704422729868
30
0
41
1
10
53.5209281918248
20
0.449952474758675
30
0
41
1
10
53.525138347636
20
0.481658621043181
30
0
41
1
10
53.5274533104947
20
0.549063433137349
30
0
41
1
10
53.5255019577979
20
0.583756005528869
30
0
41
1
10
53.5164570535992
20
0.654723548078834
30
0
41
1
10
53.50927513628
20
0.691281737859555
30
0
41
1
10
53.5000438097957
20
0.727640357565235
30
0
0
SPLINE
5
BF
100
AcDbEntity
8
1
62
256
6
ByLayer
370
18
48
1
60
0
100
AcDbSpline
70
4
71
3
72
14
73
10
40
0
40
0
40
0
40
0
40
0.25
40
0.25
40
0.5
40
0.5
40
0.75
40
0.75
40
1
40
1
40
1
40
1
41
1
10
7.29028588232066
20
2.9290904124496
30
0
41
1
10
7.03172199919348
20
2.98849180188884
30
0
41
1
10
6.77487797279352
20
3.04113583155169
30
0
41
1
10
6.26351912994809
20
3.13233297420814
30
0
41
1
10
6.00904864339765
20
3.17025379353396
30
0
41
1
10
5.50192148531966
20
3.22782280209813
30
0
41
1
10
5.2492529805242
20
3.24755466840165
30
0
41
1
10
4.7456911043725
20
3.26469342301036
30
0
41
1
10
4.49633090113241
20
3.26198619147766
30
0
41
1
10
4.25150430611905
20
3.24588697309264
30
0
0
SPLINE
5
C0
100
AcDbEntity
8
1
62
256
6
ByLayer
370
18
48
1
60
0
100
AcDbSpline
70
4
71
3
72
14
73
10
40
0
40
0
40
0
40
0
40
0.121264760217119
40
0.121264760217119
40
0.435856070634403
40
0.435856070634403
40
0.750447381051686
40
0.750447381051686
40
1
40
1
40
1
40
1
41
1
10
12.0984626168548
20
3.32476234878558
30
0
41
1
10
12.0014789165803
20
3.28609405490195
30
0
41
1
10
11.9044356256959
20
3.2462687023164
30
0
41
1
10
11.5552714383756
20
3.09876064693236
30
0
41
1
10
11.3025858530027
20
2.98405596617167
30
0
41
1
10
10.792925357458
20
2.73857459768422
30
0
41
1
10
10.5404520929361
20
2.60996402167174
30
0
41
1
10
10.0893374670127
20
2.37463746465735
30
0
41
1
10
9.89029798123357
20
2.26889094211899
30
0
41
1
10
9.69056617888023
20
2.16381562680215
30
0
0
SPLINE
5
C1
100
AcDbEntity
8
1
62
256
6
ByLayer
370
18
48
1
60
0
100
AcDbSpline
70
4
71
3
72
26
73
22
40
0
40
0
40
0
40
0
40
0.0174019138050544
40
0.0174019138050544
40
0.0934191879705924
40
0.0934191879705924
40
0.245453736301668
40
0.245453736301668
40
0.321471010467207
40
0.321471010467207
40
0.359479647549977
40
0.359479647549977
40
0.397488284632747
40
0.397488284632747
40
0.70155738129491
40
0.70155738129491
40
0.77757465546045
40
0.77757465546045
40
0.853591929625991
40
0.853591929625991
40
1
40
1
40
1
40
1
41
1
10
18.7699145321091
20
2.48782568403433
30
0
41
1
10
18.829324507325
20
2.46605353771841
30
0
41
1
10
18.8886726120403
20
2.44395433104245
30
0
41
1
10
19.206859447292
20
2.32364215569714
30
0
41
1
10
19.464901026862
20
2.21973367319975
30
0
41
1
10
20.2377557818556
20
1.89207158662978
30
0
41
1
10
20.7512132459922
20
1.65220026748193
30
0
41
1
10
21.5241436699317
20
1.26894205168978
30
0
41
1
10
21.7822733168053
20
1.13733905426909
30
0
41
1
10
22.1708976124461
20
0.935234864470459
30
0
41
1
10
22.3006760433481
20
0.867080386217424
30
0
41
1
10
22.560766834502
20
0.729295905378535
30
0
41
1
10
22.6912856628658
20
0.659561970367491
30
0
41
1
10
23.8626563121674
20
0.0304218110973977
30
0
41
1
10
24.8856474239457
20
-0.543125817860101
30
0
41
1
10
26.1775357819101
20
-1.21131239179485
30
0
41
1
10
26.4365692210632
20
-1.34251837048845
30
0
41
1
10
26.9570244568567
20
-1.59809910657282
30
0
41
1
10
27.2180031128881
20
-1.72238255762269
30
0
41
1
10
27.9790314700038
20
-2.07051342335751
30
0
41
1
10
28.4792079213263
20
-2.28112615220567
30
0
41
1
10
28.9812141165479
20
-2.46803343452947
30
0
0
SPLINE
5
C2
100
AcDbEntity
8
1
62
256
6
ByLayer
370
13
48
1
60
0
100
AcDbSpline
70
4
71
3
72
20
73
16
40
0
40
0
40
0
40
0
40
0.0094758186798413
40
0.0094758186798413
40
0.265524420119518
40
0.265524420119518
40
0.521573021559193
40
0.521573021559193
40
0.77762162299887
40
0.77762162299887
40
0.841633773358789
40
0.841633773358789
40
0.905645923718708
40
0.905645923718708
40
1
40
1
40
1
40
1
41
1
10
28.9812141165029
20
-2.46803343451273
30
0
41
1
10
29.0005062688187
20
-2.47521630156473
30
0
41
1
10
29.0198011234343
20
-2.482364158678
30
0
41
1
10
29.5605471837481
20
-2.68166691307548
30
0
41
1
10
30.0827320951739
20
-2.84715696836443
30
0
41
1
10
31.1172027920133
20
-3.11216773779933
30
0
41
1
10
31.6311448050531
20
-3.21240665402138
30
0
41
1
10
32.6592009607721
20
-3.34492451939394
30
0
41
1
10
33.1736580439226
20
-3.37706047103066
30
0
41
1
10
33.8214721297453
20
-3.37269704734277
30
0
41
1
10
33.9512844875718
20
-3.36960169372878
30
0
41
1
10
34.2115390819067
20
-3.35890155298847
30
0
41
1
10
34.3420189050569
20
-3.35127975249193
30
0
41
1
10
34.6635558004584
20
-3.32697904711728
30
0
41
1
10
34.8544752655763
20
-3.30771433663014
30
0
41
1
10
35.0449551490296
20
-3.28383329198135
30
0
0
SPLINE
5
C3
100
AcDbEntity
8
1
62
256
6
ByLayer
370
18
48
1
60
0
100
AcDbSpline
70
4
71
3
72
78
73
74
40
0
40
0
40
0
40
0
40
0.0022708553816184
40
0.0022708553816184
40
0.0310156467782929
40
0.0310156467782929
40
0.0597604381749674
40
0.0597604381749674
40
0.0885052295716419
40
0.0885052295716419
40
0.117250020968317
40
0.117250020968317
40
0.145994812364991
40
0.145994812364991
40
0.174739603761666
40
0.174739603761666
40
0.20348439515834
40
0.20348439515834
40
0.232229186555015
40
0.232229186555015
40
0.260973977951689
40
0.260973977951689
40
0.289718769348363
40
0.289718769348363
40
0.318463560745038
40
0.318463560745038
40
0.347208352141713
40
0.347208352141713
40
0.375953143538387
40
0.375953143538387
40
0.404697934935062
40
0.404697934935062
40
0.433442726331736
40
0.433442726331736
40
0.462187517728411
40
0.462187517728411
40
0.490932309125085
40
0.490932309125085
40
0.51967710052176
40
0.51967710052176
40
0.548421891918434
40
0.548421891918434
40
0.577166683315109
40
0.577166683315109
40
0.605911474711783
40
0.605911474711783
40
0.634656266108458
40
0.634656266108458
40
0.663401057505132
40
0.663401057505132
40
0.692145848901807
40
0.692145848901807
40
0.720890640298481
40
0.720890640298481
40
0.749635431695156
40
0.749635431695156
40
0.77838022309183
40
0.77838022309183
40
0.807125014488505
40
0.807125014488505
40
0.835869805885179
40
0.835869805885179
40
0.864614597281854
40
0.864614597281854
40
0.893359388678528
40
0.893359388678528
40
0.922104180075204
40
0.922104180075204
40
0.95084897147188
40
0.95084897147188
40
0.979593762868556
40
0.979593762868556
40
1
40
1
40
1
40
1
41
1
10
47.6790133557415
20
-2.48260621164246
30
0
41
1
10
47.6609953545069
20
-2.48886377623441
30
0
41
1
10
47.6429747549309
20
-2.49509016475614
30
0
41
1
10
47.3968107302154
20
-2.57970511830638
30
0
41
1
10
47.1682114864316
20
-2.65326109683269
30
0
41
1
10
46.7129430978774
20
-2.78897719965912
30
0
41
1
10
46.485614421043
20
-2.8505521751309
30
0
41
1
10
46.0304105451758
20
-2.96122443444745
30
0
41
1
10
45.8026424563154
20
-3.01075604209555
30
0
41
1
10
45.3469279535271
20
-3.09886388389671
30
0
41
1
10
45.1187588933253
20
-3.13728606199004
30
0
41
1
10
44.662848639014
20
-3.20079297302453
30
0
41
1
10
44.435101286961
20
-3.22609733066548
30
0
41
1
10
43.979986142185
20
-3.2632736894611
30
0
41
1
10
43.7528612219545
20
-3.27499662887266
30
0
41
1
10
43.2975092933776
20
-3.28316490134381
30
0
41
1
10
43.0689966700608
20
-3.27995741301493
30
0
41
1
10
42.6126304517621
20
-3.26291948947934
30
0
41
1
10
42.3850081180096
20
-3.24838068185122
30
0
41
1
10
41.9300815979418
20
-3.20482348027289
30
0
41
1
10
41.7024558392505
20
-3.17577348823912
30
0
41
1
10
41.2466961788922
20
-3.10656924393553
30
0
41
1
10
41.0183772293515
20
-3.06591750788041
30
0
41
1
10
40.5623840674552
20
-2.971157226587
30
0
41
1
10
40.3347885807526
20
-2.91671051167125
30
0
41
1
10
39.8794304028649
20
-2.79707196549884
30
0
41
1
10
39.6517286999969
20
-2.73250136802028
30
0
41
1
10
39.1965649578028
20
-2.59159236519915
30
0
41
1
10
38.9689567421636
20
-2.51502733216768
30
0
41
1
10
38.5122154794133
20
-2.35169434117395
30
0
41
1
10
38.2840926694103
20
-2.26596332243992
30
0
41
1
10
37.8285114535698
20
-2.0856600302701
30
0
41
1
10
37.6012705620484
20
-1.99060422679798
30
0
41
1
10
37.1459021042079
20
-1.79248429184321
30
0
41
1
10
36.9178579902995
20
-1.68976597848464
30
0
41
1
10
36.4610927326082
20
-1.47807765118324
30
0
41
1
10
36.2331225293607
20
-1.3686534457695
30
0
41
1
10
35.7778392464679
20
-1.14480067771805
30
0
41
1
10
35.5501791488157
20
-1.0305224898423
30
0
41
1
10
35.0946039413219
20
-0.799167145570948
30
0
41
1
10
34.8668287549659
20
-0.681478479019205
30
0
41
1
10
34.4108897329126
20
-0.442217925239532
30
0
41
1
10
34.182509657823
20
-0.321552203894697
30
0
41
1
10
33.7265641585149
20
-0.0806242077350703
30
0
41
1
10
33.4987223263782
20
0.0399119330910196
30
0
41
1
10
33.0436441658876
20
0.281679924326795
30
0
41
1
10
32.8161013717527
20
0.402331771982631
30
0
41
1
10
32.35973345408
20
0.640783089417511
30
0
41
1
10
32.1309742259552
20
0.759009056291745
30
0
41
1
10
31.6750460139845
20
0.992103957028718
30
0
41
1
10
31.4477114293582
20
1.10727875029409
30
0
41
1
10
30.9923469581026
20
1.33097942166006
30
0
41
1
10
30.7644475804557
20
1.44010330619457
30
0
41
1
10
30.3082749539776
20
1.65322723597933
30
0
41
1
10
30.0799496941735
20
1.7574201392072
30
0
41
1
10
29.6240763945696
20
1.95627559304225
30
0
41
1
10
29.3962486431028
20
2.05110165421846
30
0
41
1
10
28.9406343216064
20
2.23362780582855
30
0
41
1
10
28.7130512261517
20
2.32107457834985
30
0
41
1
10
28.2575494093876
20
2.48542703770187
30
0
41
1
10
28.0289315633333
20
2.5616213767444
30
0
41
1
10
27.5722714268782
20
2.70481365572127
30
0
41
1
10
27.3442546661658
20
2.77145858529698
30
0
41
1
10
26.8890541241214
20
2.89297575070972
30
0
41
1
10
26.6614600485837
20
2.94677660059432
30
0
41
1
10
26.2053669510341
20
3.04324106603158
30
0
41
1
10
25.9767201509593
20
3.085991239241
30
0
41
1
10
25.520218930096
20
3.1590871567546
30
0
41
1
10
25.292710954081
20
3.18829237977462
30
0
41
1
10
24.8371779934511
20
3.23305048424817
30
0
41
1
10
24.6093156494092
20
3.24969955544339
30
0
41
1
10
24.2196504078256
20
3.26726197603645
30
0
41
1
10
24.0578964599992
20
3.27096628402188
30
0
41
1
10
23.8959510679518
20
3.27095004827427
30
0
0
SPLINE
5
C4
100
AcDbEntity
8
1
62
256
6
ByLayer
370
18
48
1
60
0
100
AcDbSpline
70
4
71
3
72
10
73
6
40
0
40
0
40
0
40
0
40
0.491611435083682
40
0.491611435083682
40
1
40
1
40
1
40
1
41
1
10
8.63259975126093
20
-2.55124131589858
30
0
41
1
10
8.41354787740281
20
-2.62336748384598
30
0
41
1
10
8.19410759015426
20
-2.69047817037318
30
0
41
1
10
7.74676116957954
20
-2.81715480573996
30
0
41
1
10
7.51882428784074
20
-2.87622410162652
30
0
41
1
10
7.29029506885217
20
-2.92906488631502
30
0
0
SPLINE
5
C5
100
AcDbEntity
8
1
62
256
6
ByLayer
370
18
48
1
60
0
100
AcDbSpline
70
4
71
3
72
10
73
6
40
0
40
0
40
0
40
0
40
0.871867979840697
40
0.871867979840697
40
1
40
1
40
1
40
1
41
1
10
12.0982263892885
20
-3.32466816043953
30
0
41
1
10
12.5338057862549
20
-3.38356926214394
30
0
41
1
10
12.9703423694883
20
-3.41625000445146
30
0
41
1
10
13.4692067409657
20
-3.42519454562398
30
0
41
1
10
13.5331006991092
20
-3.42578328327369
30
0
41
1
10
13.5970038297891
20
-3.42581711964848
30
0
0
SPLINE
5
C6
100
AcDbEntity
8
1
62
256
6
ByLayer
370
18
48
1
60
0
100
AcDbSpline
70
4
71
3
72
76
73
72
40
0
40
0
40
0
40
0
40
0.0063292840787313
40
0.0063292840787313
40
0.033377476529378
40
0.033377476529378
40
0.0874738614306729
40
0.0874738614306729
40
0.11452205388132
40
0.11452205388132
40
0.141570246331967
40
0.141570246331967
40
0.168618438782615
40
0.168618438782615
40
0.195666631233262
40
0.195666631233262
40
0.222714823683909
40
0.222714823683909
40
0.249763016134557
40
0.249763016134557
40
0.276811208585205
40
0.276811208585205
40
0.303859401035852
40
0.303859401035852
40
0.3309075934865
40
0.3309075934865
40
0.357955785937147
40
0.357955785937147
40
0.385003978387794
40
0.385003978387794
40
0.412052170838442
40
0.412052170838442
40
0.466148555739738
40
0.466148555739738
40
0.493196748190385
40
0.493196748190385
40
0.520244940641032
40
0.520244940641032
40
0.54729313309168
40
0.54729313309168
40
0.574341325542327
40
0.574341325542327
40
0.601389517992974
40
0.601389517992974
40
0.628437710443621
40
0.628437710443621
40
0.655485902894269
40
0.655485902894269
40
0.682534095344916
40
0.682534095344916
40
0.709582287795563
40
0.709582287795563
40
0.73663048024621
40
0.73663048024621
40
0.763678672696858
40
0.763678672696858
40
0.790726865147505
40
0.790726865147505
40
0.8448232500488
40
0.8448232500488
40
0.871871442499447
40
0.871871442499447
40
0.898919634950094
40
0.898919634950094
40
0.925967827400741
40
0.925967827400741
40
0.953016019851389
40
0.953016019851389
40
0.980064212302036
40
0.980064212302036
40
1
40
1
40
1
40
1
41
1
10
28.278556345689
20
2.47745722843155
30
0
41
1
10
28.3295069470822
20
2.49701301615988
30
0
41
1
10
28.3804572450324
20
2.51633050168155
30
0
41
1
10
28.6491244480858
20
2.61696691042104
30
0
41
1
10
28.8665034741871
20
2.69471308526047
30
0
41
1
10
29.5203274351443
20
2.91127858676947
30
0
41
1
10
29.9563519761628
20
3.03267619475261
30
0
41
1
10
30.6076249930354
20
3.18295923767855
30
0
41
1
10
30.825218570491
20
3.22692136198674
30
0
41
1
10
31.2617658009892
20
3.30258813130644
30
0
41
1
10
31.4801558139944
20
3.33432767440408
30
0
41
1
10
31.9151589930046
20
3.38553905837347
30
0
41
1
10
32.1318816708697
20
3.4049770385493
30
0
41
1
10
32.5669508750829
20
3.43074718853444
30
0
41
1
10
32.7848360904131
20
3.43728379560824
30
0
41
1
10
33.2207896484463
20
3.43765546768699
30
0
41
1
10
33.4385732799047
20
3.4313690402833
30
0
41
1
10
33.873544828971
20
3.40598441023917
30
0
41
1
10
34.0912997701971
20
3.38704861571014
30
0
41
1
10
34.5265925108535
20
3.33677938572313
30
0
41
1
10
34.7441253497191
20
3.30542976395523
30
0
41
1
10
35.1786786698652
20
3.22975515136429
30
0
41
1
10
35.3968689214408
20
3.18581670303203
30
0
41
1
10
35.833008034789
20
3.08690531558437
30
0
41
1
10
36.0508340543372
20
3.03183183127561
30
0
41
1
10
36.4854757952259
20
2.90992286979969
30
0
41
1
10
36.7021311034306
20
2.84283850899661
30
0
41
1
10
37.1373832437027
20
2.69971724101651
30
0
41
1
10
37.3557158901216
20
2.62321866302301
30
0
41
1
10
37.7920245236516
20
2.4601433967
30
0
41
1
10
38.0091325054519
20
2.37323544913011
30
0
41
1
10
38.6607258120638
20
2.1006855664252
30
0
41
1
10
39.0966530680959
20
1.90529531577891
30
0
41
1
10
39.7495189400069
20
1.5864135999374
30
0
41
1
10
39.9672757617954
20
1.47741029354412
30
0
41
1
10
40.4027220098615
20
1.25583297398754
30
0
41
1
10
40.6203649204135
20
1.14283750477273
30
0
41
1
10
41.0549712128738
20
0.911507959248638
30
0
41
1
10
41.2717303536307
20
0.792782146610051
30
0
41
1
10
41.7074909664341
20
0.555045888411172
30
0
41
1
10
41.9260587889902
20
0.435268428965884
30
0
41
1
10
42.3615613701138
20
0.194325243099712
30
0
41
1
10
42.5784499861079
20
0.0723503553539615
30
0
41
1
10
43.0125682795345
20
-0.170873682767421
30
0
41
1
10
43.2302442236614
20
-0.291318301109385
30
0
41
1
10
43.6660115597322
20
-0.531350497766738
30
0
41
1
10
43.8844186741358
20
-0.651048776294971
30
0
41
1
10
44.3191115951057
20
-0.889043642137324
30
0
41
1
10
44.5363276491149
20
-1.00602445114839
30
0
41
1
10
44.971402665671
20
-1.23452519729699
30
0
41
1
10
45.1890201395419
20
-1.34647128830957
30
0
41
1
10
45.6239024061008
20
-1.56654680374058
30
0
41
1
10
45.8411757603346
20
-1.67515710732184
30
0
41
1
10
46.2770477530419
20
-1.88322453732798
30
0
41
1
10
46.4949028135539
20
-1.98326676204752
30
0
41
1
10
46.9299266126031
20
-2.17625220384633
30
0
41
1
10
47.1467695855798
20
-2.2696164315247
30
0
41
1
10
47.7980312659776
20
-2.53628576434122
30
0
41
1
10
48.2361425509424
20
-2.69434986713514
30
0
41
1
10
48.8872482970301
20
-2.90300290150307
30
0
41
1
10
49.1042420401865
20
-2.96700899532755
30
0
41
1
10
49.5392698226817
20
-3.08316214211382
30
0
41
1
10
49.7570295205709
20
-3.13559053288608
30
0
41
1
10
50.1925363067617
20
-3.22935284986218
30
0
41
1
10
50.4098770388483
20
-3.27072526245999
30
0
41
1
10
50.8449266243114
20
-3.34004126520961
30
0
41
1
10
51.0625377936308
20
-3.36838284031305
30
0
41
1
10
51.4973954375786
20
-3.41276823456957
30
0
41
1
10
51.7143454757225
20
-3.42884339247792
30
0
41
1
10
52.0917565862059
20
-3.4455134337953
30
0
41
1
10
52.2525613923169
20
-3.44904985907823
30
0
41
1
10
52.41323314376
20
-3.449117567071
30
0
0
SPLINE
5
C7
100
AcDbEntity
8
1
62
256
6
ByLayer
370
18
48
1
60
0
100
AcDbSpline
70
4
71
3
72
12
73
8
40
0
40
0
40
0
40
0
40
0.250000000000007
40
0.250000000000007
40
0.500000000000014
40
0.500000000000014
40
1
40
1
40
1
40
1
41
1
10
53.8379840645709
20
-3.35537188222702
30
0
41
1
10
53.8429023899604
20
-3.3421998113333
30
0
41
1
10
53.8474970107622
20
-3.32875023974955
30
0
41
1
10
53.8547149435881
20
-3.3046722533079
30
0
41
1
10
53.8573146097827
20
-3.29406624169965
30
0
41
1
10
53.8611912436727
20
-3.2708890159241
30
0
41
1
10
53.858908224025
20
-3.26663171069487
30
0
41
1
10
53.8542677031169
20
-3.26948591024197
30
0
0
SPLINE
5
C8
100
AcDbEntity
8
1
62
256
6
ByLayer
370
18
48
1
60
0
100
AcDbSpline
70
4
71
3
72
8
73
4
40
0
40
0
40
0
40
0
40
1
40
1
40
1
40
1
41
1
10
53.8135575862351
20
-3.42069405830148
30
0
41
1
10
53.8217078924675
20
-3.39893015262385
30
0
41
1
10
53.8298501748151
20
-3.37715575465762
30
0
41
1
10
53.8379840645956
20
-3.35537188223219
30
0
0
SPLINE
5
C9
100
AcDbEntity
8
1
62
256
6
ByLayer
370
13
48
1
60
0
100
AcDbSpline
70
4
71
3
72
31
73
27
40
0
40
0
40
0
40
0
40
0.125
40
0.125
40
0.1875
40
0.1875
40
0.25
40
0.3125
40
0.3125
40
0.375
40
0.375
40
0.4375
40
0.4375
40
0.5
40
0.5
40
0.625
40
0.625
40
0.6875
40
0.6875
40
0.75
40
0.75
40
0.875
40
0.875
40
0.9375
40
0.9375
40
1
40
1
40
1
40
1
41
1
10
4.25039716990276
20
0.246383262730262
30
0
41
1
10
4.25047797886509
20
0.462539215466762
30
0
41
1
10
4.25054994234301
20
0.67455528073873
30
0
41
1
10
4.2506493646971
20
0.986438399301164
30
0
41
1
10
4.25068108961423
20
1.08944627382871
30
0
41
1
10
4.25074128757558
20
1.28953275414537
30
0
41
1
10
4.25079856161975
20
1.48469821518404
30
0
41
1
10
4.25085158079364
20
1.67018612788007
30
0
41
1
10
4.25090315389252
20
1.85077523674113
30
0
41
1
10
4.25092830760744
20
1.93893462960338
30
0
41
1
10
4.2509773076342
20
2.10857996485856
30
0
41
1
10
4.25100107835584
20
2.18980391027779
30
0
41
1
10
4.25104770207136
20
2.34507958383685
30
0
41
1
10
4.25107060612098
20
2.41927114558973
30
0
41
1
10
4.25113745037379
20
2.62756592292686
30
0
41
1
10
4.25117996737708
20
2.74875962510734
30
0
41
1
10
4.2512417909756
20
2.90429067354998
30
0
41
1
10
4.25126212566704
20
2.9518829437047
30
0
41
1
10
4.25130169158706
20
3.03718793269005
30
0
41
1
10
4.2513207534603
20
3.07456726297858
30
0
41
1
10
4.25137554600371
20
3.17139213455988
30
0
41
1
10
4.25140898173998
20
3.21567126895511
30
0
41
1
10
4.25145189033452
20
3.25097061556204
30
0
41
1
10
4.25146494426738
20
3.25743619583784
30
0
41
1
10
4.25148739132263
20
3.25957810463748
30
0
41
1
10
4.25149687279429
20
3.25534307236498
30
0
41
1
10
4.25150430508282
20
3.24588697302892
30
0
0
SPLINE
5
CA
100
AcDbEntity
8
1
62
256
6
ByLayer
370
18
48
1
60
0
100
AcDbSpline
70
4
71
3
72
12
73
8
40
0
40
0
40
0
40
0
40
0.303935516967508
40
0.303935516967508
40
0.721027796727818
40
0.721027796727818
40
1
40
1
40
1
40
1
41
1
10
8.17204203966398
20
-2.41140308416391
30
0
41
1
10
8.08403713585881
20
-2.46930036025194
30
0
41
1
10
7.99508051955843
20
-2.52629652260646
30
0
41
1
10
7.78330448573792
20
-2.65726142511514
30
0
41
1
10
7.66076239397088
20
-2.72933706933284
30
0
41
1
10
7.45551013318223
20
-2.84310928074893
30
0
41
1
10
7.3730274176591
20
-2.88694261686467
30
0
41
1
10
7.29028093693506
20
-2.92907208144374
30
0
0
SPLINE
5
CB
100
AcDbEntity
8
1
62
256
6
ByLayer
370
18
48
1
60
0
100
AcDbSpline
70
4
71
3
72
8
73
4
40
0
40
0
40
0
40
0
40
1
40
1
40
1
40
1
41
1
10
4.0447445523082
20
0.285788804338409
30
0
41
1
10
4.02659477717225
20
0.311805090374037
30
0
41
1
10
4.01578100481996
20
0.342352647652859
30
0
41
1
10
4.01578567544399
20
0.374018917425474
30
0
0
SPLINE
5
CC
100
AcDbEntity
8
1
62
256
6
ByLayer
370
18
48
1
60
0
100
AcDbSpline
70
4
71
3
72
18
73
14
40
0
40
0
40
0
40
0
40
0.145963825245108
40
0.145963825245108
40
0.291927650490216
40
0.291927650490216
40
0.583855300980428
40
0.583855300980428
40
0.87578295147064
40
0.87578295147064
40
0.948764864093192
40
0.948764864093192
40
1
40
1
40
1
40
1
41
1
10
4.20247262761546
20
0.166154987315679
30
0
41
1
10
4.46333921125296
20
0.0245131717661877
30
0
41
1
10
4.72407577388469
20
-0.117352343465058
30
0
41
1
10
5.24608250576969
20
-0.400068826071021
30
0
41
1
10
5.50627281385246
20
-0.540322170081993
30
0
41
1
10
6.28334309364152
20
-0.95408819354077
30
0
41
1
10
6.79774091822071
20
-1.22122577921476
30
0
41
1
10
7.8270996364248
20
-1.72437317928163
30
0
41
1
10
8.34186140863034
20
-1.9607307635693
30
0
41
1
10
8.98996549539191
20
-2.22953348597355
30
0
41
1
10
9.11982378292552
20
-2.28195406210983
30
0
41
1
10
9.34134694536436
20
-2.36873538539413
30
0
41
1
10
9.43295600470032
20
-2.40385582701862
30
0
41
1
10
9.52448554724779
20
-2.43814663143209
30
0
0
SPLINE
5
CD
100
AcDbEntity
8
1
62
256
6
ByLayer
370
13
48
1
60
0
100
AcDbSpline
70
4
71
3
72
18
73
14
40
0
40
0
40
0
40
0
40
0.018938324528677
40
0.018938324528677
40
0.146051539557563
40
0.146051539557563
40
0.65450439967311
40
0.65450439967311
40
0.781617614701997
40
0.781617614701997
40
0.908730829730883
40
0.908730829730883
40
1
40
1
40
1
40
1
41
1
10
9.52448522735909
20
-2.43814651158834
30
0
41
1
10
9.56333508999052
20
-2.45270129987099
30
0
41
1
10
9.6021706270096
20
-2.46710662142905
30
0
41
1
10
9.9013705314639
20
-2.57695524598702
30
0
41
1
10
10.1605590662788
20
-2.66551541348218
30
0
41
1
10
11.4527812051571
20
-3.07108045518515
30
0
41
1
10
12.4747009655009
20
-3.27619566078815
30
0
41
1
10
13.7740496608417
20
-3.35636483218821
30
0
41
1
10
14.0355172352564
20
-3.36353955868665
30
0
41
1
10
14.5547410507397
20
-3.35985398271484
30
0
41
1
10
14.8133032248857
20
-3.34911915793558
30
0
41
1
10
15.25657598834
20
-3.31580502527521
30
0
41
1
10
15.4415129247498
20
-3.29738895392026
30
0
41
1
10
15.6263094534331
20
-3.27458477795631
30
0
0
SPLINE
5
CE
100
AcDbEntity
8
1
62
256
6
ByLayer
370
18
48
1
60
0
100
AcDbSpline
70
4
71
3
72
28
73
24
40
0
40
0
40
0
40
0
40
0.0245909363071279
40
0.0245909363071279
40
0.0979962111960751
40
0.0979962111960751
40
0.171401486085022
40
0.171401486085022
40
0.318212035862919
40
0.318212035862919
40
0.465022585640816
40
0.465022585640816
40
0.611833135418713
40
0.611833135418713
40
0.75864368519661
40
0.75864368519661
40
0.832048960085557
40
0.832048960085557
40
0.868751597530031
40
0.868751597530031
40
0.905454234974504
40
0.905454234974504
40
1
40
1
40
1
40
1
41
1
10
38.0806487711243
20
2.52921731448163
30
0
41
1
10
38.1674394178674
20
2.49779488414188
30
0
41
1
10
38.2543377190195
20
2.46557642681091
30
0
41
1
10
38.6011283051745
20
2.33406726449573
30
0
41
1
10
38.8622103672083
20
2.22883622230546
30
0
41
1
10
39.3805069306501
20
2.00840226944661
30
0
41
1
10
39.6385826270554
20
1.89288270766551
30
0
41
1
10
40.4110916496292
20
1.53299360945132
30
0
41
1
10
40.9243227181233
20
1.27614483797373
30
0
41
1
10
41.9532001760197
20
0.738771443277329
30
0
41
1
10
42.4693337260859
20
0.459162935791426
30
0
41
1
10
43.5114367940638
20
-0.111047114070175
30
0
41
1
10
44.0274869617974
20
-0.394444630715157
30
0
41
1
10
45.0559745618067
20
-0.945918598120983
30
0
41
1
10
45.5683830087865
20
-1.21416074102024
30
0
41
1
10
46.3397907499748
20
-1.59531765460306
30
0
41
1
10
46.5975046190144
20
-1.71865733244033
30
0
41
1
10
46.9854944945664
20
-1.8970862024976
30
0
41
1
10
47.1150631674029
20
-1.95546413100331
30
0
41
1
10
47.3747927729041
20
-2.06982397740393
30
0
41
1
10
47.5051790202491
20
-2.12589949687845
30
0
41
1
10
47.9702919995778
20
-2.32076641967626
30
0
41
1
10
48.3032378056544
20
-2.45062324861647
30
0
41
1
10
48.6350593786363
20
-2.56900772291397
30
0
0
SPLINE
5
CF
100
AcDbEntity
8
1
62
256
6
ByLayer
370
13
48
1
60
0
100
AcDbSpline
70
4
71
3
72
14
73
10
40
0
40
0
40
0
40
0
40
0.404052720418965
40
0.404052720418965
40
0.553039540314225
40
0.553039540314225
40
0.702026360209486
40
0.702026360209486
40
1
40
1
40
1
40
1
41
1
10
48.6350593785849
20
-2.56900772289563
30
0
41
1
10
49.3337420813963
20
-2.81827778611242
30
0
41
1
10
50.0274404504735
20
-3.01668469246226
30
0
41
1
10
50.9825955532531
20
-3.20642556411391
30
0
41
1
10
51.2405515176566
20
-3.24941520605353
30
0
41
1
10
51.7584684754295
20
-3.31840647456113
30
0
41
1
10
52.0191109752722
20
-3.34443449909347
30
0
41
1
10
52.7996014511225
20
-3.39537616684063
30
0
41
1
10
53.3181195536298
20
-3.39343150876155
30
0
41
1
10
53.8379840645813
20
-3.35537188222625
30
0
0
SPLINE
5
D0
100
AcDbEntity
8
1
62
256
6
ByLayer
370
18
48
1
60
0
100
AcDbSpline
70
4
71
3
72
14
73
10
40
0
40
0
40
0
40
0
40
0.25
40
0.25
40
0.5
40
0.5
40
0.75
40
0.75
40
1
40
1
40
1
40
1
41
1
10
4.01623532288332
20
-3.40074872188498
30
0
41
1
10
4.02525181371539
20
-3.37623206872434
30
0
41
1
10
4.03824431340686
20
-3.35260883130712
30
0
41
1
10
4.07170203744533
20
-3.31074010610047
30
0
41
1
10
4.09200207728617
20
-3.29284729526486
30
0
41
1
10
4.1359145630891
20
-3.26577109808991
30
0
41
1
10
4.15958152849146
20
-3.25650156779474
30
0
41
1
10
4.20592231626426
20
-3.24594470040807
30
0
41
1
10
4.22913878143382
20
-3.24441626903416
30
0
41
1
10
4.25150430508282
20
-3.24588697302454
30
0
0
SPLINE
5
D1
100
AcDbEntity
8
1
62
256
6
ByLayer
370
18
48
1
60
0
100
AcDbSpline
70
4
71
3
72
14
73
10
40
0
40
0
40
0
40
0
40
0.0781208205915679
40
0.0781208205915679
40
0.44488490270164
40
0.44488490270164
40
0.811648984811714
40
0.811648984811714
40
1
40
1
40
1
40
1
41
1
10
34.0520109675943
20
-3.27289774652004
30
0
41
1
10
33.9413433983861
20
-3.27505113853883
30
0
41
1
10
33.8308864639218
20
-3.27562558015882
30
0
41
1
10
33.202834939243
20
-3.27001870594469
30
0
41
1
10
32.6886164783453
20
-3.23092621152909
30
0
41
1
10
31.6609617434825
20
-3.08703593000516
30
0
41
1
10
31.1471472746943
20
-2.98235863241754
30
0
41
1
10
30.3647053468476
20
-2.77723589623471
30
0
41
1
10
30.097972505699
20
-2.69934694115363
30
0
41
1
10
29.830737366593
20
-2.61400915456497
30
0
0
SPLINE
5
D2
100
AcDbEntity
8
1
62
256
6
ByLayer
370
13
48
1
60
0
100
AcDbSpline
70
4
71
3
72
22
73
18
40
0
40
0
40
0
40
0
40
0.0793694486407133
40
0.0793694486407133
40
0.242529375630487
40
0.242529375630487
40
0.324109339125373
40
0.324109339125373
40
0.405689302620259
40
0.405689302620259
40
0.732009156599807
40
0.732009156599807
40
0.813589120094693
40
0.813589120094693
40
0.895169083589578
40
0.895169083589578
40
1
40
1
40
1
40
1
41
1
10
29.8307373667316
20
-2.61400915460925
30
0
41
1
10
29.5776023320297
20
-2.53317403823516
30
0
41
1
10
29.3240166064173
20
-2.44565539746318
30
0
41
1
10
28.5496979661347
20
-2.15998791368403
30
0
41
1
10
28.0308060454336
20
-1.94362874713994
30
0
41
1
10
27.2512304360327
20
-1.59112019061851
30
0
41
1
10
26.9905012631473
20
-1.4686883419651
30
0
41
1
10
26.4705868233336
20
-1.21758940822014
30
0
41
1
10
26.2117634789049
20
-1.08892429424347
30
0
41
1
10
24.9207878008177
20
-0.434784930652881
30
0
41
1
10
23.8978242872617
20
0.122727469511432
30
0
41
1
10
22.5973892404957
20
0.797165103673876
30
0
41
1
10
22.3370136598123
20
0.930350721748624
30
0
41
1
10
21.8192549079175
20
1.18927808138349
30
0
41
1
10
21.561291916945
20
1.31554478382193
30
0
41
1
10
20.9729000355222
20
1.59508563613679
30
0
41
1
10
20.6426979967871
20
1.74566196804983
30
0
41
1
10
20.3122987336913
20
1.88817049344138
30
0
0
SPLINE
5
D3
100
AcDbEntity
8
1
62
256
6
ByLayer
370
18
48
1
60
0
100
AcDbSpline
70
4
71
3
72
8
73
4
40
0
40
0
40
0
40
0
40
1
40
1
40
1
40
1
41
1
10
53.8542677031169
20
-3.26948591024197
30
0
41
1
10
53.8353655514773
20
-3.28111187071448
30
0
41
1
10
53.8184781204228
20
-3.28697369294724
30
0
41
1
10
53.803642896748
20
-3.28696412678966
30
0
0
SPLINE
5
D4
100
AcDbEntity
8
1
62
256
6
ByLayer
370
18
48
1
60
0
100
AcDbSpline
70
4
71
3
72
10
73
6
40
0
40
0
40
0
40
0
40
0.5
40
0.5
40
1
40
1
40
1
40
1
41
1
10
4.12878745511352
20
0.210061710553759
30
0
41
1
10
4.11198079604551
20
0.219360594491832
30
0
41
1
10
4.09655985146367
20
0.230385832156514
30
0
41
1
10
4.06838759149883
20
0.255755155102207
30
0
41
1
10
4.05557027748355
20
0.270270972266388
30
0
41
1
10
4.0447445523082
20
0.285788804338353
30
0
0
SPLINE
5
D5
100
AcDbEntity
8
1
62
256
6
ByLayer
370
18
48
1
60
0
100
AcDbSpline
70
4
71
3
72
22
73
18
40
0
40
0
40
0
40
0
40
0.125000000000003
40
0.125000000000003
40
0.187500000000005
40
0.187500000000005
40
0.250000000000006
40
0.250000000000006
40
0.500000000000006
40
0.500000000000006
40
0.625000000000004
40
0.625000000000004
40
0.750000000000003
40
0.750000000000003
40
0.875000000000001
40
0.875000000000001
40
1
40
1
40
1
40
1
41
1
10
53.8036428967429
20
-3.28696412678963
30
0
41
1
10
53.7540365833664
20
-3.2869386601983
30
0
41
1
10
53.7069027912445
20
-3.27944565586901
30
0
41
1
10
53.6401087295895
20
-3.25640731004196
30
0
41
1
10
53.6184968693567
20
-3.24675618570197
30
0
41
1
10
53.5766357910196
20
-3.22333846925889
30
0
41
1
10
53.5563548953063
20
-3.20952682233019
30
0
41
1
10
53.459918659315
20
-3.13091351070821
30
0
41
1
10
53.3972654088714
20
-3.03739164190139
30
0
41
1
10
53.3264227487743
20
-2.84821714984958
30
0
41
1
10
53.306633513579
20
-2.77623096250051
30
0
41
1
10
53.2764727668886
20
-2.61935884618143
30
0
41
1
10
53.2659134453871
20
-2.53426431344994
30
0
41
1
10
53.2537887307896
20
-2.35082925000637
30
0
41
1
10
53.2522220082959
20
-2.25249067719261
30
0
41
1
10
53.2584673543134
20
-2.04200071906484
30
0
41
1
10
53.2662777228257
20
-1.93125052497658
30
0
41
1
10
53.2785302255904
20
-1.81660612239108
30
0
0
SPLINE
5
D6
100
AcDbEntity
8
1
62
256
6
ByLayer
370
18
48
1
60
0
100
AcDbSpline
70
4
71
3
72
10
73
6
40
0
40
0
40
0
40
0
40
0.963393774361366
40
0.963393774361366
40
1
40
1
40
1
40
1
41
1
10
53.8135575862353
20
3.42069405830145
30
0
41
1
10
53.5535910875381
20
3.4394717560817
30
0
41
1
10
53.2937161079274
20
3.44905406179086
30
0
41
1
10
53.0236663597848
20
3.44947792323407
30
0
41
1
10
53.0137796862685
20
3.44948012840948
30
0
41
1
10
53.0038919144289
20
3.44946902772765
30
0
0
SPLINE
5
D7
100
AcDbEntity
8
1
62
256
6
ByLayer
370
18
48
1
60
0
100
AcDbSpline
70
4
71
3
72
44
73
40
40
0
40
0
40
0
40
0
40
0.0131188192122928
40
0.0131188192122928
40
0.159182780672938
40
0.159182780672938
40
0.195698771038098
40
0.195698771038098
40
0.232214761403259
40
0.232214761403259
40
0.305246742133581
40
0.305246742133581
40
0.378278722863904
40
0.378278722863904
40
0.414794713229067
40
0.414794713229067
40
0.451310703594228
40
0.451310703594228
40
0.597374665054875
40
0.597374665054875
40
0.633890655420038
40
0.633890655420038
40
0.6704066457852
40
0.6704066457852
40
0.743438626515525
40
0.743438626515525
40
0.81647060724585
40
0.81647060724585
40
0.834728602428431
40
0.834728602428431
40
0.852986597611011
40
0.852986597611011
40
0.889502587976173
40
0.889502587976173
40
0.962534568706495
40
0.962534568706495
40
0.999050559071657
40
0.999050559071657
40
1
40
1
40
1
40
1
41
1
10
35.4681395446171
20
-3.28419523805084
30
0
41
1
10
35.3745678110112
20
-3.29959603662547
30
0
41
1
10
35.2809143601781
20
-3.31388207394971
30
0
41
1
10
34.1442598755228
20
-3.47328820318842
30
0
41
1
10
33.1213015235476
20
-3.47408735904779
30
0
41
1
10
31.8302300587499
20
-3.29810908389305
30
0
41
1
10
31.5713575025785
20
-3.25408676147174
30
0
41
1
10
31.0513076612105
20
-3.14862785879734
30
0
41
1
10
30.7896228296636
20
-3.08699654829078
30
0
41
1
10
30.0102282537829
20
-2.87921537660839
30
0
41
1
10
29.494843995126
20
-2.70985665196872
30
0
41
1
10
28.4649690539264
20
-2.31907635146945
30
0
41
1
10
27.9504450309285
20
-2.09769797231317
30
0
41
1
10
27.1737085843278
20
-1.73390729301093
30
0
41
1
10
26.9139398428842
20
-1.60740665109267
30
0
41
1
10
26.3917299500189
20
-1.34521740325499
30
0
41
1
10
26.1317209427398
20
-1.21058598454027
30
0
41
1
10
24.8365619023405
20
-0.526345541576404
30
0
41
1
10
23.8139140587428
20
0.0583800053303207
30
0
41
1
10
22.5154004740053
20
0.768177417811671
30
0
41
1
10
22.2537594256063
20
0.909428426473767
30
0
41
1
10
21.7332150763596
20
1.18463891513315
30
0
41
1
10
21.4740995139666
20
1.31885843732508
30
0
41
1
10
20.6987971014172
20
1.70916339977157
30
0
41
1
10
20.1845043656159
20
1.95263678986882
30
0
41
1
10
19.1536065054877
20
2.3949379832284
30
0
41
1
10
18.6371552362515
20
2.59396108238636
30
0
41
1
10
17.9852347983663
20
2.80759452370123
30
0
41
1
10
17.854466875461
20
2.84858958322249
30
0
41
1
10
17.5939927361753
20
2.92643392749366
30
0
41
1
10
17.4640648303198
20
2.96334951478457
30
0
41
1
10
17.0749469626103
20
3.06790547372063
30
0
41
1
10
16.8164360043423
20
3.12937368981841
30
0
41
1
10
16.0422719673468
20
3.28848196409996
30
0
41
1
10
15.5281346745296
20
3.36086672141565
30
0
41
1
10
14.7538697671187
20
3.41613155358988
30
0
41
1
10
14.4953605095278
20
3.42569570768916
30
0
41
1
10
14.2291268712137
20
3.42618886804263
30
0
41
1
10
14.2223793675572
20
3.42619522945847
30
0
41
1
10
14.2156311879054
20
3.42619545150086
30
0
0
SPLINE
5
D8
100
AcDbEntity
8
1
62
256
6
ByLayer
370
18
48
1
60
0
100
AcDbSpline
70
4
71
3
72
10
73
6
40
0
40
0
40
0
40
0
40
0.0829907478403288
40
0.0829907478403288
40
1
40
1
40
1
40
1
41
1
10
4.01622129039046
20
-3.42007650959971
30
0
41
1
10
4.01622174739137
20
-3.42007879816009
30
0
41
1
10
4.01622219889094
20
-3.42003579092392
30
0
41
1
10
4.01622757075762
20
-3.4189712357861
30
0
41
1
10
4.01623183896271
20
-3.4125404336182
30
0
41
1
10
4.01623532288369
20
-3.40074872187756
30
0
0
SPLINE
5
D9
100
AcDbEntity
8
1
62
256
6
ByLayer
370
18
48
1
60
0
100
AcDbSpline
70
4
71
3
72
58
73
54
40
0
40
0
40
0
40
0
40
0.0624999999999888
40
0.0624999999999888
40
0.124999999999978
40
0.124999999999978
40
0.249999999999956
40
0.249999999999956
40
0.374999999999935
40
0.374999999999935
40
0.499999999999914
40
0.499999999999914
40
0.562499999999903
40
0.562499999999903
40
0.624999999999891
40
0.624999999999891
40
0.656249999999886
40
0.656249999999886
40
0.660156249999886
40
0.660156249999886
40
0.662109374999886
40
0.662109374999886
40
0.664062499999887
40
0.664062499999887
40
0.671874999999889
40
0.671874999999889
40
0.687499999999894
40
0.687499999999894
40
0.703124999999899
40
0.703124999999899
40
0.718749999999905
40
0.718749999999905
40
0.73437499999991
40
0.73437499999991
40
0.749999999999915
40
0.749999999999915
40
0.765624999999921
40
0.765624999999921
40
0.781249999999926
40
0.781249999999926
40
0.796874999999931
40
0.796874999999931
40
0.812499999999937
40
0.812499999999937
40
0.843749999999947
40
0.843749999999947
40
0.874999999999958
40
0.874999999999958
40
0.906249999999968
40
0.906249999999968
40
0.937499999999979
40
0.937499999999979
40
1
40
1
40
1
40
1
41
1
10
12.0987063273386
20
-3.32473787136647
30
0
41
1
10
11.8328727236575
20
-3.2890322834958
30
0
41
1
10
11.5652592636095
20
-3.24500037561174
30
0
41
1
10
11.0259884699049
20
-3.14318291397475
30
0
41
1
10
10.7537406287522
20
-3.08523872054772
30
0
41
1
10
9.93484823954233
20
-2.89629484163075
30
0
41
1
10
9.38615276875839
20
-2.75024095050804
30
0
41
1
10
8.27576184127986
20
-2.44629221895346
30
0
41
1
10
7.71399225981099
20
-2.28853269558502
30
0
41
1
10
6.57108369960602
20
-1.99114580094212
30
0
41
1
10
5.98993493603444
20
-1.8516942419902
30
0
41
1
10
5.10095626498199
20
-1.67577582655588
30
0
41
1
10
4.80213147089998
20
-1.62272787292346
30
0
41
1
10
4.2025821921367
20
-1.53066427865147
30
0
41
1
10
3.90129779687428
20
-1.49153711062681
30
0
41
1
10
3.4474514211314
20
-1.44452994708911
30
0
41
1
10
3.29591197703729
20
-1.43081106381445
30
0
41
1
10
3.12523303455794
20
-1.41767141665804
30
0
41
1
10
3.10625662221335
20
-1.41748358677233
30
0
41
1
10
3.07775262817677
20
-1.42134495019442
30
0
41
1
10
3.06832774438817
20
-1.42329209975853
30
0
41
1
10
3.05049449615873
20
-1.42887510813722
30
0
41
1
10
3.04218326370093
20
-1.43291476422837
30
0
41
1
10
3.0002974147445
20
-1.45241242938411
30
0
41
1
10
2.96698878670347
20
-1.46839742393649
30
0
41
1
10
2.86802736178743
20
-1.51746262264334
30
0
41
1
10
2.80325148673029
20
-1.55168182093149
30
0
41
1
10
2.67662839853733
20
-1.62371624995001
30
0
41
1
10
2.6145611183415
20
-1.66168196614703
30
0
41
1
10
2.49571730367251
20
-1.74099545617457
30
0
41
1
10
2.43884102263999
20
-1.78237153203864
30
0
41
1
10
2.3314707045671
20
-1.86927569106715
30
0
41
1
10
2.28095891858504
20
-1.91479406207907
30
0
41
1
10
2.1883714063917
20
-2.01111940938395
30
0
41
1
10
2.14590009966298
20
-2.06260955080302
30
0
41
1
10
2.07603924739433
20
-2.16774619004221
30
0
41
1
10
2.04824271764065
20
-2.22168767604046
30
0
41
1
10
2.01008524730906
20
-2.33193802165235
30
0
41
1
10
2.00051733280745
20
-2.38597896424284
30
0
41
1
10
1.99951825068388
20
-2.49163623490071
30
0
41
1
10
2.00838198368743
20
-2.54340161256334
30
0
41
1
10
2.04116042630889
20
-2.63961555822732
30
0
41
1
10
2.06524850816274
20
-2.68513497813461
30
0
41
1
10
2.1533854499973
20
-2.81137463292657
30
0
41
1
10
2.23189802496847
20
-2.88195020414338
30
0
41
1
10
2.41140474928315
20
-3.00619483106672
30
0
41
1
10
2.51042943491473
20
-3.05818131802059
30
0
41
1
10
2.71865623207697
20
-3.14859693349706
30
0
41
1
10
2.82816682278121
20
-3.18700215624506
30
0
41
1
10
3.05462929958043
20
-3.25361084938447
30
0
41
1
10
3.17163955461083
20
-3.28173331079196
30
0
41
1
10
3.52631468923965
20
-3.35269952109886
30
0
41
1
10
3.7693010981076
20
-3.38292235558163
30
0
41
1
10
4.01623532288033
20
-3.40074872187685
30
0
0
SPLINE
5
DA
100
AcDbEntity
8
1
62
256
6
ByLayer
370
18
48
1
60
0
100
AcDbSpline
70
4
71
3
72
10
73
6
40
0
40
0
40
0
40
0
40
0.5
40
0.5
40
1
40
1
40
1
40
1
41
1
10
4.0447445523032
20
0.285788804342161
30
0
41
1
10
4.05535652346421
20
0.270017994396739
30
0
41
1
10
4.06806613640049
20
0.254979733397334
30
0
41
1
10
4.09655045312778
20
0.228353379624309
30
0
41
1
10
4.11238021226723
20
0.216586493009203
30
0
41
1
10
4.13004583613923
20
0.206599535480763
30
0
0
SPLINE
5
DB
100
AcDbEntity
8
1
62
256
6
ByLayer
370
13
48
1
60
0
100
AcDbSpline
70
4
71
3
72
10
73
6
40
0
40
0
40
0
40
0
40
0.0654216991284751
40
0.0654216991284751
40
1
40
1
40
1
40
1
41
1
10
4.25147378410182
20
-3.25820297382862
30
0
41
1
10
4.25147458750257
20
-3.2583307791748
30
0
41
1
10
4.25147538213344
20
-3.25843218203039
30
0
41
1
10
4.25148739132263
20
-3.25957810464405
30
0
41
1
10
4.25149687279423
20
-3.25534307238138
30
0
41
1
10
4.25150430508279
20
-3.24588697305578
30
0
0
SPLINE
5
DC
100
AcDbEntity
8
1
62
256
6
ByLayer
370
18
48
1
60
0
100
AcDbSpline
70
4
71
3
72
20
73
16
40
0
40
0
40
0
40
0
40
0.124999999999996
40
0.124999999999996
40
0.187499999999994
40
0.187499999999994
40
0.249999999999992
40
0.249999999999992
40
0.49999999999999
40
0.49999999999999
40
0.624999999999992
40
0.624999999999992
40
0.749999999999995
40
0.749999999999995
40
1
40
1
40
1
40
1
41
1
10
51.0410741237118
20
1.0117296826798
30
0
41
1
10
51.0858543448899
20
0.868794706645161
30
0
41
1
10
51.1412741489577
20
0.727559939430392
30
0
41
1
10
51.2379291800409
20
0.517869139955792
30
0
41
1
10
51.2724167926612
20
0.448334836712775
30
0
41
1
10
51.3456646545113
20
0.309948998952166
30
0
41
1
10
51.3845101121398
20
0.240987830839288
30
0
41
1
10
51.5852450610592
20
-0.0963346989423712
30
0
41
1
10
51.768582339578
20
-0.347695105826176
30
0
41
1
10
52.0679015160549
20
-0.704966450160327
30
0
41
1
10
52.1719015418444
20
-0.820658157586195
30
0
41
1
10
52.3830559400063
20
-1.04163984586415
30
0
41
1
10
52.4907532897893
20
-1.14758826662489
30
0
41
1
10
52.8193954411854
20
-1.45354243396545
30
0
41
1
10
53.0458145522681
20
-1.64181947121833
30
0
41
1
10
53.2785302255904
20
-1.81660612239108
30
0
0
SPLINE
5
DD
100
AcDbEntity
8
1
62
256
6
ByLayer
370
18
48
1
60
0
100
AcDbSpline
70
4
71
3
72
68
73
64
40
0
40
0
40
0
40
0
40
0.03259235672578
40
0.03259235672578
40
0.0651847134515601
40
0.0651847134515601
40
0.0977770701773401
40
0.0977770701773401
40
0.13036942690312
40
0.13036942690312
40
0.1629617836289
40
0.1629617836289
40
0.19555414035468
40
0.19555414035468
40
0.22814649708046
40
0.22814649708046
40
0.26073885380624
40
0.26073885380624
40
0.29333121053202
40
0.29333121053202
40
0.3259235672578
40
0.3259235672578
40
0.35851592398358
40
0.35851592398358
40
0.39110828070936
40
0.39110828070936
40
0.423700637435141
40
0.423700637435141
40
0.456292994160921
40
0.456292994160921
40
0.488885350886701
40
0.488885350886701
40
0.521477707612481
40
0.521477707612481
40
0.554070064338261
40
0.554070064338261
40
0.586662421064041
40
0.586662421064041
40
0.619254777789821
40
0.619254777789821
40
0.651847134515601
40
0.651847134515601
40
0.684439491241381
40
0.684439491241381
40
0.717031847967161
40
0.717031847967161
40
0.749624204692941
40
0.749624204692941
40
0.782216561418721
40
0.782216561418721
40
0.814808918144501
40
0.814808918144501
40
0.847401274870281
40
0.847401274870281
40
0.879993631596061
40
0.879993631596061
40
0.912585988321841
40
0.912585988321841
40
0.945178345047622
40
0.945178345047622
40
0.977770701773403
40
0.977770701773403
40
1
40
1
40
1
40
1
41
1
10
7.29029506885232
20
2.92906488631493
30
0
41
1
10
7.51869546315191
20
2.87625388861682
30
0
41
1
10
7.74685979811062
20
2.81713698333709
30
0
41
1
10
8.20277199446372
20
2.68801450649133
30
0
41
1
10
8.43050656192284
20
2.6181768862885
30
0
41
1
10
8.88577917491943
20
2.46743816506412
30
0
41
1
10
9.11355647984098
20
2.38657902090978
30
0
41
1
10
9.570447742715
20
2.2156448627135
30
0
41
1
10
9.79911889112088
20
2.12564818009315
30
0
41
1
10
10.2549699269256
20
1.93744897222481
30
0
41
1
10
10.4823691949772
20
1.83884058902154
30
0
41
1
10
10.9380220472994
20
1.63520047273411
30
0
41
1
10
11.1660455463292
20
1.53004078155686
30
0
41
1
10
11.622377247713
20
1.31350100162914
30
0
41
1
10
11.8507475575318
20
1.20126149090334
30
0
41
1
10
12.3068035435292
20
0.973711130311528
30
0
41
1
10
12.5347600467006
20
0.858275299409769
30
0
41
1
10
12.9903975335091
20
0.624253946588055
30
0
41
1
10
13.2179437582918
20
0.505345987375421
30
0
41
1
10
13.673689346461
20
0.265261730821635
30
0
41
1
10
13.9025055403691
20
0.144728568779414
30
0
41
1
10
14.3591785122727
20
-0.0961707317097478
30
0
41
1
10
14.5870848480129
20
-0.216743159775547
30
0
41
1
10
15.042274035034
20
-0.457084613563978
30
0
41
1
10
15.2699931978603
20
-0.576096268421395
30
0
41
1
10
15.7261471388765
20
-0.811241022359553
30
0
41
1
10
15.9546997560163
20
-0.927896817731437
30
0
41
1
10
16.4110644147354
20
-1.1575348340204
30
0
41
1
10
16.6386375993191
20
-1.26971757378075
30
0
41
1
10
17.0942648804671
20
-1.4875800208718
30
0
41
1
10
17.3220740070736
20
-1.59369837385594
30
0
41
1
10
17.7775696066003
20
-1.80062177389252
30
0
41
1
10
18.0053240462932
20
-1.90068782168478
30
0
41
1
10
18.462187778123
20
-2.09149491914207
30
0
41
1
10
18.6903703589369
20
-2.18241410665274
30
0
41
1
10
19.1461369473342
20
-2.35663599897973
30
0
41
1
10
19.3735324772079
20
-2.43964102417709
30
0
41
1
10
19.8289696108573
20
-2.59311795002833
30
0
41
1
10
20.0571548775951
20
-2.66444893021571
30
0
41
1
10
20.5141410925898
20
-2.79753596443385
30
0
41
1
10
20.7422543975555
20
-2.85959557503529
30
0
41
1
10
21.1974684758414
20
-2.96909953504328
30
0
41
1
10
21.4251719745878
20
-3.0169006926354
30
0
41
1
10
21.8808874671079
20
-3.1014277931865
30
0
41
1
10
22.1087903655941
20
-3.13862356555143
30
0
41
1
10
22.5648835720756
20
-3.19987359852269
30
0
41
1
10
22.7930747455178
20
-3.22241080136027
30
0
41
1
10
23.2489478923737
20
-3.25482643977656
30
0
41
1
10
23.4767447205394
20
-3.26500054022574
30
0
41
1
10
23.9319506559121
20
-3.27337708631529
30
0
41
1
10
24.1593447531083
20
-3.27009566425519
30
0
41
1
10
24.6157282501107
20
-3.24929171705415
30
0
41
1
10
24.844436628651
20
-3.23246532363089
30
0
41
1
10
25.3003855048297
20
-3.18740602686051
30
0
41
1
10
25.5277139790701
20
-3.15801213849161
30
0
41
1
10
25.9830024016003
20
-3.08485636157704
30
0
41
1
10
26.2109453074438
20
-3.04214927226704
30
0
41
1
10
26.6671985449983
20
-2.94547264847128
30
0
41
1
10
26.8955878143637
20
-2.89134560595198
30
0
41
1
10
27.3510391234447
20
-2.76953002329259
30
0
41
1
10
27.5787759577694
20
-2.70285542308093
30
0
41
1
10
27.9617794454888
20
-2.5826206010025
30
0
41
1
10
28.117024562533
20
-2.53180598613582
30
0
41
1
10
28.2722833623553
20
-2.47833396886702
30
0
0
SPLINE
5
DE
100
AcDbEntity
8
1
62
256
6
ByLayer
370
18
48
1
60
0
100
AcDbSpline
70
4
71
3
72
30
73
26
40
0
40
0
40
0
40
0
40
0.0301518828764163
40
0.0301518828764163
40
0.118319893524015
40
0.118319893524015
40
0.206487904171613
40
0.206487904171613
40
0.294655914819212
40
0.294655914819212
40
0.38282392546681
40
0.38282392546681
40
0.470991936114409
40
0.470991936114409
40
0.559159946762008
40
0.559159946762008
40
0.647327957409606
40
0.647327957409606
40
0.735495968057204
40
0.735495968057204
40
0.823663978704803
40
0.823663978704803
40
0.911831989352402
40
0.911831989352402
40
1
40
1
40
1
40
1
41
1
10
43.2922536936278
20
3.2807976763803
30
0
41
1
10
43.3701296291038
20
3.28102020862599
30
0
41
1
10
43.4480137580962
20
3.28047051072838
30
0
41
1
10
43.7536882204288
20
3.27496586181789
30
0
41
1
10
43.9818422325706
20
3.26316605983644
30
0
41
1
10
44.4376756179477
20
3.22584262897038
30
0
41
1
10
44.6654111628533
20
3.20047717184434
30
0
41
1
10
45.1205873609193
20
3.13698981252409
30
0
41
1
10
45.3478444531781
20
3.09870051220486
30
0
41
1
10
45.8034089620933
20
3.01059397035164
30
0
41
1
10
46.0319456562944
20
2.96088402968192
30
0
41
1
10
46.4878478924522
20
2.84997606409101
30
0
41
1
10
46.7151753936829
20
2.78834206818516
30
0
41
1
10
47.1696873741242
20
2.65279056551813
30
0
41
1
10
47.3972236092673
20
2.5795634595801
30
0
41
1
10
47.852714609836
20
2.42299517619898
30
0
41
1
10
48.080973366003
20
2.33939291072383
30
0
41
1
10
48.5365505871315
20
2.16228029774422
30
0
41
1
10
48.7641062084373
20
2.06945273553794
30
0
41
1
10
49.2192940473402
20
1.87665529702593
30
0
41
1
10
49.4468109770343
20
1.77650478435177
30
0
41
1
10
49.9017918319664
20
1.56822197988706
30
0
41
1
10
50.1295343791854
20
1.46005569446294
30
0
41
1
10
50.5857964235657
20
1.23941385022567
30
0
41
1
10
50.8135871744585
20
1.12686431339441
30
0
41
1
10
51.0410741237123
20
1.01172968268011
30
0
0
SPLINE
5
DF
100
AcDbEntity
8
1
62
256
6
ByLayer
370
18
48
1
60
0
100
AcDbSpline
70
4
71
3
72
18
73
14
40
0
40
0
40
0
40
0
40
0.249999999999997
40
0.249999999999997
40
0.374999999999996
40
0.374999999999996
40
0.499999999999995
40
0.499999999999995
40
0.749999999999993
40
0.749999999999993
40
0.874999999999996
40
0.874999999999996
40
1
40
1
40
1
40
1
41
1
10
54.5181603330353
20
-1.70947131346745
30
0
41
1
10
54.4666247433213
20
-1.84868926403342
30
0
41
1
10
54.4149814920197
20
-1.98779145800555
30
0
41
1
10
54.3369515777315
20
-2.19583722683046
30
0
41
1
10
54.3108505307978
20
-2.26508789302528
30
0
41
1
10
54.2583851270089
20
-2.40330611738818
30
0
41
1
10
54.2319923703334
20
-2.47225254595904
30
0
41
1
10
54.1528534404015
20
-2.67874129967649
30
0
41
1
10
54.1000215162159
20
-2.81596125365266
30
0
41
1
10
54.0202719928652
20
-3.01875795224601
30
0
41
1
10
53.9935822236567
20
-3.08571230876126
30
0
41
1
10
53.9401744979077
20
-3.21945058237807
30
0
41
1
10
53.9134279069642
20
-3.2860613567787
30
0
41
1
10
53.8865830828524
20
-3.35207814791437
30
0
0
SPLINE
5
E0
100
AcDbEntity
8
1
62
256
6
ByLayer
370
18
48
1
60
0
100
AcDbSpline
70
4
71
3
72
22
73
18
40
0
40
0
40
0
40
0
40
0.249999999999985
40
0.249999999999985
40
0.499999999999971
40
0.499999999999971
40
0.624999999999978
40
0.624999999999978
40
0.749999999999985
40
0.749999999999985
40
0.812499999999989
40
0.812499999999989
40
0.874999999999993
40
0.874999999999993
40
0.937499999999996
40
0.937499999999996
40
1
40
1
40
1
40
1
41
1
10
53.6410302619263
20
1.03678077027433
30
0
41
1
10
53.7388302887471
20
1.06017342855321
30
0
41
1
10
53.8356234031004
20
1.08665547740691
30
0
41
1
10
54.025747068512
20
1.15062005544885
30
0
41
1
10
54.1198587394455
20
1.18811570821157
30
0
41
1
10
54.2520107629987
20
1.26031852907431
30
0
41
1
10
54.294794262158
20
1.28730965873183
30
0
41
1
10
54.3734606697118
20
1.34868278667824
30
0
41
1
10
54.409848064276
20
1.38338332523125
30
0
41
1
10
54.4554452878978
20
1.44375152111817
30
0
41
1
10
54.4688762198924
20
1.46493785341366
30
0
41
1
10
54.491620170106
20
1.50981724557531
30
0
41
1
10
54.5009763010838
20
1.53379927994558
30
0
41
1
10
54.5143719465439
20
1.58256037446702
30
0
41
1
10
54.5185443045277
20
1.60745570985196
30
0
41
1
10
54.5220107232112
20
1.65825987235456
30
0
41
1
10
54.5212225083546
20
1.68416898907915
30
0
41
1
10
54.5181603330355
20
1.70947131346753
30
0
0
SPLINE
5
E1
100
AcDbEntity
8
1
62
256
6
ByLayer
370
18
48
1
60
0
100
AcDbSpline
70
4
71
3
72
14
73
10
40
0
40
0
40
0
40
0
40
0.235474365670471
40
0.235474365670471
40
0.470948731340942
40
0.470948731340942
40
0.941897462681884
40
0.941897462681884
40
1
40
1
40
1
40
1
41
1
10
12.0987063273387
20
3.32473787136647
30
0
41
1
10
11.8328727236575
20
3.2890322834958
30
0
41
1
10
11.5652592636095
20
3.24500037561174
30
0
41
1
10
11.0259884699047
20
3.14318291397473
30
0
41
1
10
10.7537406287521
20
3.08523872054769
30
0
41
1
10
9.93484823954208
20
2.89629484163066
30
0
41
1
10
9.38615276875805
20
2.75024095050796
30
0
41
1
10
8.76246096347657
20
2.57951699338164
30
0
41
1
10
8.69386455734656
20
2.56067934620003
30
0
41
1
10
8.62516224537717
20
2.54178153179981
30
0
0
SPLINE
5
E2
100
AcDbEntity
8
1
62
256
6
ByLayer
370
18
48
1
60
0
100
AcDbSpline
70
4
71
3
72
44
73
40
40
0
40
0
40
0
40
0
40
0.0767990182362712
40
0.0767990182362712
40
0.115198527354407
40
0.115198527354407
40
0.153598036472544
40
0.153598036472544
40
0.230397054708817
40
0.230397054708817
40
0.268796563826952
40
0.268796563826952
40
0.307196072945088
40
0.307196072945088
40
0.460794109417632
40
0.460794109417632
40
0.499193618535767
40
0.499193618535767
40
0.537593127653904
40
0.537593127653904
40
0.614392145890177
40
0.614392145890177
40
0.69119116412645
40
0.69119116412645
40
0.729590673244588
40
0.729590673244588
40
0.767990182362726
40
0.767990182362726
40
0.844789200599001
40
0.844789200599001
40
0.921588218835276
40
0.921588218835276
40
0.940787973394345
40
0.940787973394345
40
0.959987727953414
40
0.959987727953414
40
0.998387237071554
40
0.998387237071554
40
1
40
1
40
1
40
1
41
1
10
53.8135575862352
20
-3.42069405830148
30
0
41
1
10
53.2932167890969
20
-3.45827890973564
30
0
41
1
10
52.7739183771716
20
-3.45905302701152
30
0
41
1
10
51.9916105719855
20
-3.40519586879782
30
0
41
1
10
51.7313310554296
20
-3.37809606361174
30
0
41
1
10
51.2132449203867
20
-3.3065669722684
30
0
41
1
10
50.9550361101592
20
-3.26212504869173
30
0
41
1
10
50.1817482044625
20
-3.10373467961693
30
0
41
1
10
49.6677129582
20
-2.96487718828374
30
0
41
1
10
48.8931184971937
20
-2.71163441505081
30
0
41
1
10
48.6343538544878
20
-2.61970570209533
30
0
41
1
10
48.1147135607669
20
-2.42166681028184
30
0
41
1
10
47.8532423918041
20
-2.315279547838
30
0
41
1
10
46.5548208760897
20
-1.75780289520421
30
0
41
1
10
45.5334914647124
20
-1.22546476551949
30
0
41
1
10
44.2395824665739
20
-0.517621559061212
30
0
41
1
10
43.979946780105
20
-0.37393063629176
30
0
41
1
10
43.4581328533203
20
-0.0836876960913457
30
0
41
1
10
43.1981927902701
20
0.0615600569012145
30
0
41
1
10
42.4217786224903
20
0.494208145277696
30
0
41
1
10
41.9072721551477
20
0.777817328063747
30
0
41
1
10
40.8780719854864
20
1.32424215611616
30
0
41
1
10
40.3628756175114
20
1.5861826920993
30
0
41
1
10
39.5843979962135
20
1.95373135309291
30
0
41
1
10
39.3229320202491
20
2.07212449864056
30
0
41
1
10
38.8027116319206
20
2.29580330284466
30
0
41
1
10
38.543735878589
20
2.40132442322584
30
0
41
1
10
37.7690874523263
20
2.69779129019057
30
0
41
1
10
37.254930881972
20
2.86771845869959
30
0
41
1
10
36.2250079175635
20
3.1460285417981
30
0
41
1
10
35.7086904499932
20
3.25387730825233
30
0
41
1
10
35.0572277698222
20
3.34525541381697
30
0
41
1
10
34.9265735700636
20
3.36135073134227
30
0
41
1
10
34.6662854812586
20
3.38890609867207
30
0
41
1
10
34.536428568948
20
3.40039993584673
30
0
41
1
10
34.1475540722811
20
3.42807246787436
30
0
41
1
10
33.889249872588
20
3.43744567293729
30
0
41
1
10
33.6205941030639
20
3.43783937653882
30
0
41
1
10
33.6097662192635
20
3.43783939168975
30
0
41
1
10
33.5989390490155
20
3.43782355996092
30
0
0
SPLINE
5
E3
100
AcDbEntity
8
1
62
256
6
ByLayer
370
18
48
1
60
0
100
AcDbSpline
70
4
71
3
72
28
73
24
40
0
40
0
40
0
40
0
40
0.218242048391237
40
0.218242048391237
40
0.283388544358635
40
0.283388544358635
40
0.348535040326032
40
0.348535040326032
40
0.478828032260827
40
0.478828032260827
40
0.543974528228224
40
0.543974528228224
40
0.576547776211922
40
0.576547776211922
40
0.60912102419562
40
0.60912102419562
40
0.739414016130413
40
0.739414016130413
40
0.869707008065207
40
0.869707008065207
40
0.934853504032604
40
0.934853504032604
40
1
40
1
40
1
40
1
41
1
10
16.0526675378145
20
-3.27555757167136
30
0
41
1
10
15.1891015894807
20
-3.41602476386882
30
0
41
1
10
14.3290698095586
20
-3.45983211206996
30
0
41
1
10
13.1933963714228
20
-3.38244701588656
30
0
41
1
10
12.9328157245563
20
-3.35552791808041
30
0
41
1
10
12.4142520181199
20
-3.28444636777792
30
0
41
1
10
12.1558273276654
20
-3.24026674563308
30
0
41
1
10
11.381793103254
20
-3.08297589045145
30
0
41
1
10
10.8675545006675
20
-2.94497672014137
30
0
41
1
10
10.0929400504227
20
-2.69335476758144
30
0
41
1
10
9.83420696074973
20
-2.60203664417361
30
0
41
1
10
9.44458488576191
20
-2.45455903576803
30
0
41
1
10
9.31445758083058
20
-2.40364946360023
30
0
41
1
10
9.0535773134491
20
-2.29843769002858
30
0
41
1
10
8.9227828982259
20
-2.24411091357823
30
0
41
1
10
8.27140084440165
20
-1.96623565736431
30
0
41
1
10
7.75493139085918
20
-1.72273738966683
30
0
41
1
10
6.72373759737059
20
-1.2061603422552
30
0
41
1
10
6.20919169888174
20
-0.932761324114836
30
0
41
1
10
5.43282455448923
20
-0.510523231970353
30
0
41
1
10
5.17329156436739
20
-0.367734342030758
30
0
41
1
10
4.65181564683201
20
-0.0796663900366639
30
0
41
1
10
4.39007103593605
20
0.0654972445784665
30
0
41
1
10
4.12878745511375
20
0.210061710553617
30
0
0
SPLINE
5
E4
100
AcDbEntity
8
1
62
256
6
ByLayer
370
13
48
1
60
0
100
AcDbSpline
70
4
71
3
72
8
73
4
40
0
40
0
40
0
40
0
40
1
40
1
40
1
40
1
41
1
10
4.1300458361392
20
0.286563999231191
30
0
41
1
10
4.16734920422738
20
0.273221701418493
30
0
41
1
10
4.20838864455459
20
0.259641605382143
30
0
41
1
10
4.25039716990276
20
0.246383262730262
30
0
0
SPLINE
5
E5
100
AcDbEntity
8
1
62
256
6
ByLayer
370
13
48
1
60
0
100
AcDbSpline
70
4
71
3
72
10
73
6
40
0
40
0
40
0
40
0
40
0.5
40
0.5
40
1
40
1
40
1
40
1
41
1
10
4.01578567544399
20
0.374018917426355
30
0
41
1
10
4.02581309750647
20
0.355974951034653
30
0
41
1
10
4.04021674465073
20
0.339366420549681
30
0
41
1
10
4.07893778830524
20
0.309239112729784
30
0
41
1
10
4.10235499090641
20
0.296468185441455
30
0
41
1
10
4.13004583613923
20
0.286563999231191
30
0
0
SPLINE
5
E6
100
AcDbEntity
8
1
62
256
6
ByLayer
370
18
48
1
60
0
100
AcDbSpline
70
4
71
3
72
26
73
22
40
0
40
0
40
0
40
0
40
0.134087561169595
40
0.134087561169595
40
0.26817512233919
40
0.26817512233919
40
0.402262683508785
40
0.402262683508785
40
0.469306464093582
40
0.469306464093582
40
0.53635024467838
40
0.53635024467838
40
0.670437805847974
40
0.670437805847974
40
0.737481586432772
40
0.737481586432772
40
0.804525367017569
40
0.804525367017569
40
0.938612928187164
40
0.938612928187164
40
1
40
1
40
1
40
1
41
1
10
4.01578567544402
20
0.374018917426412
30
0
41
1
10
4.01581863299748
20
0.59746715928577
30
0
41
1
10
4.01584833255436
20
0.819095056982093
30
0
41
1
10
4.01590183810853
20
1.24458820931275
30
0
41
1
10
4.01592585071919
20
1.44974167847386
30
0
41
1
10
4.01597083213551
20
1.84444210142468
30
0
41
1
10
4.01599117309047
20
2.02829415024314
30
0
41
1
10
4.01602013904514
20
2.28358655180887
30
0
41
1
10
4.01602953565481
20
2.36530789218307
30
0
41
1
10
4.01604803017605
20
2.52185443084008
30
0
41
1
10
4.01605716275935
20
2.59692784212231
30
0
41
1
10
4.01608380885989
20
2.8069830852732
30
0
41
1
10
4.01610077610928
20
2.92845267536245
30
0
41
1
10
4.01612559129921
20
3.08314316748562
30
0
41
1
10
4.01613376425354
20
3.13017148681129
30
0
41
1
10
4.01614980162654
20
3.2142934286762
30
0
41
1
10
4.01615756525433
20
3.25087635480457
30
0
41
1
10
4.01618001408664
20
3.34473223858026
30
0
41
1
10
4.01619389713289
20
3.38626090371005
30
0
41
1
10
4.01621158668095
20
3.41551743801833
30
0
41
1
10
4.01621676710397
20
3.42011526162645
30
0
41
1
10
4.01622138315014
20
3.42007635142443
30
0
0
LINE
5
76
100
AcDbEntity
8
81
62
256
6
ByLayer
370
18
48
1
60
0
100
AcDbLine
10
55
20
0
30
0
11
60
21
0
31
0
39
0
210
0
220
0
230
1
0
LINE
5
77
100
AcDbEntity
8
1
62
256
6
ByLayer
370
18
48
1
60
0
100
AcDbLine
10
4.016215
20
3.420078
30
0
11
1.234515
21
3.418409
31
0
39
0
210
0
220
0
230
1
0
LINE
5
79
100
AcDbEntity
8
1
62
256
6
ByLayer
370
18
48
1
60
0
100
AcDbLine
10
14.208447
20
3.426193
30
0
11
13.596808
21
3.425826
31
0
39
0
210
0
220
0
230
1
0
LINE
5
7A
100
AcDbEntity
8
1
62
256
6
ByLayer
370
18
48
1
60
0
100
AcDbLine
10
33.60862
20
3.437833
30
0
11
33.005198
21
3.437471
31
0
39
0
210
0
220
0
230
1
0
LINE
5
7B
100
AcDbEntity
8
1
62
256
6
ByLayer
370
18
48
1
60
0
100
AcDbLine
10
53.008725
20
3.449474
30
0
11
52.410189
21
3.449114
31
0
39
0
210
0
220
0
230
1
0
LINE
5
7C
100
AcDbEntity
8
1
62
256
6
ByLayer
370
18
48
1
60
0
100
AcDbLine
10
52.410189
20
-3.449114
30
0
11
53.00886
21
-3.449474
31
0
39
0
210
0
220
0
230
1
0
LINE
5
7D
100
AcDbEntity
8
1
62
256
6
ByLayer
370
18
48
1
60
0
100
AcDbLine
10
33.005198
20
-3.437471
30
0
11
33.608398
21
-3.437833
31
0
39
0
210
0
220
0
230
1
0
LINE
5
7E
100
AcDbEntity
8
1
62
256
6
ByLayer
370
18
48
1
60
0
100
AcDbLine
10
13.596808
20
-3.425826
30
0
11
14.20871
21
-3.426194
31
0
39
0
210
0
220
0
230
1
0
LINE
5
7F
100
AcDbEntity
8
1
62
256
6
ByLayer
370
18
48
1
60
0
100
AcDbLine
10
1.234515
20
-3.418409
30
0
11
4.016215
21
-3.420078
31
0
39
0
210
0
220
0
230
1
0
LINE
5
80
100
AcDbEntity
8
SK1
62
256
6
ByLayer
370
18
48
1
60
0
100
AcDbLine
10
-35.133975
20
4
30
0
11
-36
21
2.5
31
0
39
0
210
0
220
0
230
1
0
LINE
5
82
100
AcDbEntity
8
SK1
62
256
6
ByLayer
370
18
48
1
60
0
100
AcDbLine
10
-36
20
-2.5
30
0
11
-35.133975
21
-4
31
0
39
0
210
0
220
0
230
1
0
LINE
5
83
100
AcDbEntity
8
SK1
62
256
6
ByLayer
370
18
48
1
60
0
100
AcDbLine
10
0
20
4
30
0
11
-35.133975
21
4
31
0
39
0
210
0
220
0
230
1
0
LINE
5
84
100
AcDbEntity
8
SK1
62
256
6
ByLayer
370
18
48
1
60
0
100
AcDbLine
10
-35.133975
20
-4
30
0
11
0
21
-4
31
0
39
0
210
0
220
0
230
1
0
LINE
5
85
100
AcDbEntity
8
SK4
62
256
6
ByLayer
370
18
48
0.05
60
0
100
AcDbLine
10
60
20
0
30
0
11
-41
21
0
31
0
39
0
210
0
220
0
230
1
0
LINE
5
87
100
AcDbEntity
8
4
62
256
6
ByLayer
370
18
48
0.05
60
0
100
AcDbLine
10
55
20
0
30
0
11
0
21
0
31
0
39
0
210
0
220
0
230
1
0
LINE
5
89
100
AcDbEntity
8
80
62
256
6
ByLayer
370
18
48
1
60
0
100
AcDbLine
10
0
20
0
30
0
11
-5
21
0
31
0
39
0
210
0
220
0
230
1
0
LINE
5
8A
100
AcDbEntity
8
1
62
256
6
ByLayer
370
13
48
1
60
0
100
AcDbLine
10
53.997797
20
0.385605
30
0
11
54.895022
21
-0.146748
31
0
39
0
210
0
220
0
230
1
0
LINE
5
8B
100
AcDbEntity
8
1
62
256
6
ByLayer
370
18
48
1
60
0
100
AcDbLine
10
0
20
-4
30
0
11
0
21
4
31
0
39
0
210
0
220
0
230
1
0
LINE
5
8C
100
AcDbEntity
8
1
62
256
6
ByLayer
370
18
48
1
60
0
100
AcDbLine
10
53.27853
20
-1.816606
30
0
11
54.895022
21
-0.146748
31
0
39
0
210
0
220
0
230
1
0
LINE
5
8D
100
AcDbEntity
8
1
62
256
6
ByLayer
370
18
48
1
60
0
100
AcDbLine
10
54.924565
20
-0.283731
30
0
11
54.822562
21
-0.720935
31
0
39
0
210
0
220
0
230
1
0
LINE
5
8E
100
AcDbEntity
8
1
62
256
6
ByLayer
370
13
48
1
60
0
100
AcDbLine
10
1.234515
20
3.418409
30
0
11
1.234515
21
-3.418409
31
0
39
0
210
0
220
0
230
1
0
LINE
5
8F
100
AcDbEntity
8
1
62
256
6
ByLayer
370
18
48
1
60
0
100
AcDbLine
10
54.993802
20
0.034365
30
0
11
55
21
0
31
0
39
0
210
0
220
0
230
1
0
LINE
5
90
100
AcDbEntity
8
1
62
256
6
ByLayer
370
13
48
1
60
0
100
AcDbLine
10
54.822562
20
0.720935
30
0
11
54.187703
21
0.720935
31
0
39
0
210
0
220
0
230
1
0
LINE
5
91
100
AcDbEntity
8
1
62
256
6
ByLayer
370
13
48
1
60
0
100
AcDbLine
10
54.187703
20
0.720935
30
0
11
54.924565
21
0.283731
31
0
39
0
210
0
220
0
230
1
0
LINE
5
92
100
AcDbEntity
8
1
62
256
6
ByLayer
370
18
48
1
60
0
100
AcDbLine
10
55
20
0
30
0
11
53.803643
21
-3.286964
31
0
39
0
210
0
220
0
230
1
0
LINE
5
93
100
AcDbEntity
8
1
62
256
6
ByLayer
370
18
48
1
60
0
100
AcDbLine
10
54.924565
20
0.283731
30
0
11
54.822562
21
0.720935
31
0
39
0
210
0
220
0
230
1
0
LINE
5
94
100
AcDbEntity
8
1
62
256
6
ByLayer
370
13
48
1
60
0
100
AcDbLine
10
0.617018
20
3.709204
30
0
11
0.617018
21
-3.709204
31
0
39
0
210
0
220
0
230
1
0
LINE
5
95
100
AcDbEntity
8
1
62
256
6
ByLayer
370
18
48
1
60
0
100
AcDbLine
10
55
20
0
30
0
11
54.993802
21
-0.034365
31
0
39
0
210
0
220
0
230
1
0
LINE
5
96
100
AcDbEntity
8
SK1
62
256
6
ByLayer
370
18
48
1
60
0
100
AcDbLine
10
-35.133975
20
4
30
0
11
-35.133975
21
-4
31
0
39
0
210
0
220
0
230
1
0
LINE
5
97
100
AcDbEntity
8
SK1
62
256
6
ByLayer
370
18
48
1
60
0
100
AcDbLine
10
-36
20
2.5
30
0
11
-36
21
-2.5
31
0
39
0
210
0
220
0
230
1
0
LINE
5
98
100
AcDbEntity
8
SK1
62
256
6
ByLayer
370
18
48
1
60
0
100
AcDbLine
10
0
20
-4
30
0
11
0
21
4
31
0
39
0
210
0
220
0
230
1
0
MTEXT
5
E7
100
AcDbEntity
8
SK6
62
256
6
ByLayer
370
13
48
1
60
0
100
AcDbMText
10
11.629169
20
35.832694
30
0
210
0
220
0
230
1
1
\W0.7670;R840-0690-50-A0A1220
40
3.5
41
0
44
1.084337
50
0
71
8
72
5
7
iso_b_vert
0
DIMENSION
5
F4
100
AcDbEntity
8
SK2
62
256
6
ByLayer
370
13
48
1
60
0
100
AcDbDimension
2
DimnDraft3D1
10
53.83
20
-13.663398
30
0
11
25.580059
21
-13.663398
31
0
70
32
71
5
72
1
41
1
210
0
220
0
230
1
3
Standard
100
AcDbAlignedDimension
13
0
23
-1.5875
33
0
14
53.83
24
-5.0375
34
0
50
0
100
AcDbRotatedDimension
1001
ACAD
1000
DSTYLE
1002
{
1070
   279
1070
     0
1070
   172
1070
     1
1070
   173
1070
     1
1070
   340
1005
E8
1070
   271
1070
     2
1070
   272
1070
     2
1070
    77
1070
     1
1070
    73
1070
     0
1070
   171
1070
     3
1070
   274
1070
     4
1070
   177
1070
    35
1070
   176
1070
    35
1070
   178
1070
    35
1070
    48
1040
-0.005
1070
    41
1041
3.5
1070
   147
1041
1.75
1070
    42
1041
1.5875
1070
    44
1041
2.0
1070
   140
1041
3.5
1070
   343
1005
0
1070
   344
1005
0
1002
}
0
DIMENSION
5
FE
100
AcDbEntity
8
SK2
62
256
6
ByLayer
370
13
48
1
60
0
100
AcDbDimension
2
DimnDraft3D2
10
55
20
-32.692985
30
0
11
9.6713
21
-32.692985
31
0
70
32
71
5
72
1
41
1
210
0
220
0
230
1
3
Standard
100
AcDbAlignedDimension
13
-36
23
-5.5875
33
0
14
55
24
-1.5875
34
0
50
0
100
AcDbRotatedDimension
1001
ACAD
1000
DSTYLE
1002
{
1070
   279
1070
     0
1070
   172
1070
     1
1070
   173
1070
     1
1070
   340
1005
E8
1070
   271
1070
     2
1070
   272
1070
     2
1070
    77
1070
     1
1070
    73
1070
     0
1070
   171
1070
     3
1070
   274
1070
     4
1070
   177
1070
    35
1070
   176
1070
    35
1070
   178
1070
    35
1070
    48
1040
-0.005
1070
    41
1041
3.5
1070
   147
1041
1.75
1070
    42
1041
1.5875
1070
    44
1041
2.0
1070
   140
1041
3.5
1070
   343
1005
0
1070
   344
1005
0
1002
}
0
DIMENSION
5
108
100
AcDbEntity
8
SK2
62
256
6
ByLayer
370
13
48
1
60
0
100
AcDbDimension
2
DimnDraft3D3
10
55
20
15.059119
30
0
11
37.165
21
15.059119
31
0
70
32
71
5
72
1
41
1
210
0
220
0
230
1
3
Standard
100
AcDbAlignedDimension
13
19.33
23
5.0375
33
0
14
55
24
1.5875
34
0
50
0
100
AcDbRotatedDimension
1001
ACAD
1000
DSTYLE
1002
{
1070
   279
1070
     0
1070
   172
1070
     1
1070
   173
1070
     1
1070
   340
1005
E8
1070
   271
1070
     2
1070
   272
1070
     2
1070
    77
1070
     1
1070
    73
1070
     0
1070
   171
1070
     3
1070
   274
1070
     4
1070
   177
1070
    35
1070
   176
1070
    35
1070
   178
1070
    35
1070
    48
1040
-0.005
1070
    41
1041
3.5
1070
   147
1041
1.75
1070
    42
1041
1.5875
1070
    44
1041
2.0
1070
   140
1041
3.5
1070
   343
1005
0
1070
   344
1005
0
1002
}
0
DIMENSION
5
112
100
AcDbEntity
8
SK2
62
256
6
ByLayer
370
13
48
1
60
0
100
AcDbDimension
2
DimnDraft3D4
10
53.83
20
-16.252503
30
0
11
64.981425
21
-16.252503
31
0
70
32
71
5
72
1
41
1
210
0
220
0
230
1
3
Standard
100
AcDbAlignedDimension
13
55
23
-1.5875
33
0
14
53.83
24
-5.0375
34
0
50
0
100
AcDbRotatedDimension
1001
ACAD
1000
DSTYLE
1002
{
1070
   279
1070
     0
1070
   172
1070
     1
1070
   173
1070
     1
1070
   340
1005
E8
1070
   271
1070
     2
1070
   272
1070
     2
1070
    77
1070
     1
1070
    73
1070
     0
1070
   171
1070
     3
1070
   274
1070
     4
1070
   177
1070
    35
1070
   176
1070
    35
1070
   178
1070
    35
1070
    48
1040
-0.005
1070
    41
1041
3.5
1070
   147
1041
1.75
1070
    42
1041
1.5875
1070
    44
1041
2.0
1070
   140
1041
3.5
1070
   343
1005
0
1070
   344
1005
0
1002
}
0
DIMENSION
5
11C
100
AcDbEntity
8
SK2
62
256
6
ByLayer
370
13
48
1
60
0
100
AcDbDimension
2
DimnDraft3D5
10
53.83
20
-22.343428
30
0
11
6.590676
21
-22.343428
31
0
70
32
71
5
72
1
41
1
210
0
220
0
230
1
3
Standard
100
AcDbAlignedDimension
13
-36
23
-5.5875
33
0
14
53.83
24
-5.0375
34
0
50
0
100
AcDbRotatedDimension
1001
ACAD
1000
DSTYLE
1002
{
1070
   279
1070
     0
1070
   172
1070
     1
1070
   173
1070
     1
1070
   340
1005
E8
1070
   271
1070
     2
1070
   272
1070
     2
1070
    77
1070
     1
1070
    73
1070
     0
1070
   171
1070
     3
1070
   274
1070
     4
1070
   177
1070
    35
1070
   176
1070
    35
1070
   178
1070
    35
1070
    48
1040
-0.005
1070
    41
1041
3.5
1070
   147
1041
1.75
1070
    42
1041
1.5875
1070
    44
1041
2.0
1070
   140
1041
3.5
1070
   343
1005
0
1070
   344
1005
0
1002
}
0
DIMENSION
5
127
100
AcDbEntity
8
SK2
62
256
6
ByLayer
370
13
48
1
60
0
100
AcDbDimension
2
DimnDraft3D6
10
-46.625163
20
4
30
0
11
-47.250163
21
22.47418
31
0
70
33
71
5
72
1
41
1
210
0
220
0
230
1
3
Standard
100
AcDbAlignedDimension
13
-37.5875
23
-4
33
0
14
-37.5875
24
4
34
0
1001
ACAD
1000
DSTYLE
1002
{
1070
   279
1070
     0
1070
    74
1070
     0
1070
   173
1070
     1
1070
   340
1005
E8
1070
   271
1070
     3
1070
   272
1070
     2
1070
    77
1070
     1
1070
    73
1070
     0
1070
   171
1070
     3
1070
   274
1070
     4
1070
   177
1070
    35
1070
   176
1070
    35
1070
   178
1070
    35
1070
    48
1040
-0.005
1070
    41
1041
3.5
1070
   147
1041
1.75
1070
    42
1041
1.5875
1070
    44
1041
2.0
1070
   140
1041
3.5
1070
   343
1005
0
1070
   344
1005
0
1002
}
0
DIMENSION
5
132
100
AcDbEntity
8
2
62
256
6
ByLayer
370
13
48
1
60
0
100
AcDbDimension
2
DimnDraft3D7
10
69.083343
20
3.45
30
0
11
64.458343
21
20.517266
31
0
70
33
71
5
72
1
41
1
210
0
220
0
230
1
3
Standard
100
AcDbAlignedDimension
13
55.4175
23
-3.45
33
0
14
55.4175
24
3.45
34
0
1001
ACAD
1000
DSTYLE
1002
{
1070
   279
1070
     0
1070
    74
1070
     0
1070
   173
1070
     1
1070
   340
1005
E8
1070
   271
1070
     3
1070
   272
1070
     2
1070
    77
1070
     1
1070
    73
1070
     0
1070
   171
1070
     3
1070
   274
1070
     4
1070
   177
1070
    35
1070
   176
1070
    35
1070
   178
1070
    35
1070
    48
1040
-0.005
1070
    41
1041
3.5
1070
   147
1041
1.75
1070
    42
1041
1.5875
1070
    44
1041
2.0
1070
   140
1041
3.5
1070
   343
1005
0
1070
   344
1005
0
1002
}
0
ENDSEC
0
SECTION
2
OBJECTS
0
DICTIONARY
5
19d
330
0
100
AcDbDictionary
280
0
281
1
3
ACAD_GROUP
350
19e
3
ACAD_MLINESTYLE
350
19f
0
DICTIONARY
5
19e
330
0
100
AcDbDictionary
280
0
281
1
0
DICTIONARY
5
19f
330
0
100
AcDbDictionary
280
0
281
1
3
Standard
350
18
0
MLINESTYLE
5
18
330
19f
100
AcDbMlineStyle
2
Standard
70
0
3

62
256
51
90
52
90
71
2
49
-0.5
62
256
6
ByLayer
49
0.5
62
256
6
ByLayer
0
RASTERVARIABLES
5
18b
330

100
AcDbRasterVariables
90
0
70
1
71
1
72
1
0
ENDSEC
0
EOF
