0
SECTION
2
HEADER
9
$ACADVER
1
AC1015
9
$DWGCODEPAGE
3
ANSI_1252
9
$HANDSEED
5
1ac
9
$ANGBASE
50
0
9
$ANGDIR
70
0
9
$ATTMODE
70
1
9
$AUNITS
70
0
9
$AUPREC
70
0
9
$CECOLOR
62
256
9
$CELTSCALE
40
1
9
$CELTYPE
6
ByLayer
9
$CELWEIGHT
370
18
9
$CLAYER
8
0
9
$CMLJUST
70
0
9
$CMLSCALE
40
1
9
$CMLSTYLE
2
Standard
9
$DIMSTYLE
2
Standard
9
$TEXTSIZE
40
0.2
9
$TEXTSTYLE
7
Standard
9
$LUNITS
70
2
9
$LUPREC
70
4
9
$EXTNAMES
290
1
9
$INSUNITS
70
4
9
$LTSCALE
40
1
9
$LWDISPLAY
290
1
9
$PDMODE
70
0
9
$PDSIZE
40
0
9
$PLINEGEN
70
0
0
ENDSEC
0
SECTION
2
CLASSES
0
CLASS
1
RASTERVARIABLES
2
AcDbRasterVariables
3
ISM
90
0
280
0
281
0
0
ENDSEC
0
SECTION
2
TABLES
0
TABLE
2
VPORT
5
1a2
100
AcDbSymbolTable
0
VPORT
5
1
100
AcDbSymbolTableRecord
100
AcDbViewportTableRecord
2
*Active
70
0
10
0
20
0
11
1
21
1
12
-1
22
1
13
0
23
0
14
0.5
24
0.5
15
10
25
10
16
0
26
0
36
1
17
0
27
0
37
0
0
ENDTAB
0
TABLE
2
LTYPE
5
1a3
100
AcDbSymbolTable
0
LTYPE
5
14
100
AcDbSymbolTableRecord
100
AcDbLinetypeTableRecord
70
0
2
ByBlock
3

72
65
73
0
40
0
0
LTYPE
5
15
100
AcDbSymbolTableRecord
100
AcDbLinetypeTableRecord
70
0
2
ByLayer
3

72
65
73
0
40
0
0
LTYPE
5
16
100
AcDbSymbolTableRecord
100
AcDbLinetypeTableRecord
70
0
2
CONTINUOUS
3
Solid line
72
65
73
0
40
0
0
LTYPE
5
6A
100
AcDbSymbolTableRecord
100
AcDbLinetypeTableRecord
70
0
2
CENTER
3
____ _ ____ _ ____ _ ____
72
65
73
4
40
47.5
49
22
74
0
49
-8.5
74
0
49
8.5
74
0
49
-8.5
74
0
0
LTYPE
5
6B
100
AcDbSymbolTableRecord
100
AcDbLinetypeTableRecord
70
0
2
DASHED
3
__ __ __ __ __ __ __ __ __
72
65
73
2
40
25.72
49
12.86
74
0
49
-12.86
74
0
0
ENDTAB
0
TABLE
2
LAYER
5
1a4
100
AcDbSymbolTable
0
LAYER
5
10
100
AcDbSymbolTableRecord
100
AcDbLayerTableRecord
2
0
70
0
62
7
6
CONTINUOUS
290
1
370
-3
390
0
0
LAYER
5
6D
100
AcDbSymbolTableRecord
100
AcDbLayerTableRecord
2
81
70
0
62
-3
6
CONTINUOUS
290
1
370
-3
390
0
0
LAYER
5
6F
100
AcDbSymbolTableRecord
100
AcDbLayerTableRecord
2
80
70
0
62
-6
6
CONTINUOUS
290
1
370
-3
390
0
0
LAYER
5
74
100
AcDbSymbolTableRecord
100
AcDbLayerTableRecord
2
2
70
0
62
7
6
CONTINUOUS
290
1
370
-3
390
0
0
LAYER
5
78
100
AcDbSymbolTableRecord
100
AcDbLayerTableRecord
2
1
70
0
62
4
6
CONTINUOUS
290
1
370
-3
390
0
0
LAYER
5
88
100
AcDbSymbolTableRecord
100
AcDbLayerTableRecord
2
4
70
0
62
-2
6
CENTER
290
1
370
-3
390
0
0
LAYER
5
18e
100
AcDbSymbolTableRecord
100
AcDbLayerTableRecord
2
SK2
70
0
62
7
6
CONTINUOUS
290
1
370
-3
390
0
0
LAYER
5
18f
100
AcDbSymbolTableRecord
100
AcDbLayerTableRecord
2
SK1
70
0
62
4
6
CONTINUOUS
290
1
370
-3
390
0
0
LAYER
5
190
100
AcDbSymbolTableRecord
100
AcDbLayerTableRecord
2
SK4
70
0
62
2
6
CENTER
290
1
370
-3
390
0
0
LAYER
5
191
100
AcDbSymbolTableRecord
100
AcDbLayerTableRecord
2
SK6
70
0
62
5
6
CONTINUOUS
290
1
370
-3
390
0
0
ENDTAB
0
TABLE
2
STYLE
5
1a5
100
AcDbSymbolTable
0
STYLE
5
11
100
AcDbSymbolTableRecord
100
AcDbTextStyleTableRecord
2
Standard
3
txt
70
0
71
0
40
0
41
1
42
0
50
0
0
STYLE
5
EA
100
AcDbSymbolTableRecord
100
AcDbTextStyleTableRecord
2
iso_b_vert
3
simplex.shx
70
0
71
0
40
0
41
1
42
0
50
0
0
STYLE
5
EB
100
AcDbSymbolTableRecord
100
AcDbTextStyleTableRecord
2
DWGDirectTextStyle
3
simplex
70
0
71
0
40
0
41
1
42
0
50
0
0
ENDTAB
0
TABLE
2
DIMSTYLE
5
1a6
100
AcDbSymbolTable
100
AcDbDimStyleTable
0
DIMSTYLE
105
27
100
AcDbSymbolTableRecord
100
AcDbDimStyleTableRecord
2
Standard
70
0
3
<>
41
0.18
42
0.0625
44
0.18
140
0.18
147
0.09
73
0
74
0
77
1
271
2
275
0
278
52
280
0
340
11
0
ENDTAB
0
TABLE
2
VIEW
5
1a7
100
AcDbSymbolTable
0
ENDTAB
0
TABLE
2
UCS
5
1a8
100
AcDbSymbolTable
0
ENDTAB
0
TABLE
2
APPID
5
1a9
100
AcDbSymbolTable
0
APPID
5
12
100
AcDbSymbolTableRecord
100
AcDbRegAppTableRecord
2
ACAD
70
0
0
ENDTAB
0
TABLE
2
BLOCK_RECORD
5
1aa
100
AcDbSymbolTable
0
BLOCK_RECORD
5
1F
100
AcDbSymbolTableRecord
100
AcDbBlockTableRecord
2
*Model_Space
340
0
70
0
0
BLOCK_RECORD
5
1B
100
AcDbSymbolTableRecord
100
AcDbBlockTableRecord
2
*Paper_Space
340
0
70
0
0
BLOCK_RECORD
5
23
100
AcDbSymbolTableRecord
100
AcDbBlockTableRecord
2
*Paper_Space0
340
0
70
0
0
BLOCK_RECORD
5
ED
100
AcDbSymbolTableRecord
100
AcDbBlockTableRecord
2
DimnDraft3D1
340
0
70
0
0
BLOCK_RECORD
5
F7
100
AcDbSymbolTableRecord
100
AcDbBlockTableRecord
2
DimnDraft3D2
340
0
70
0
0
BLOCK_RECORD
5
101
100
AcDbSymbolTableRecord
100
AcDbBlockTableRecord
2
DimnDraft3D3
340
0
70
0
0
BLOCK_RECORD
5
10B
100
AcDbSymbolTableRecord
100
AcDbBlockTableRecord
2
DimnDraft3D4
340
0
70
0
0
BLOCK_RECORD
5
115
100
AcDbSymbolTableRecord
100
AcDbBlockTableRecord
2
DimnDraft3D5
340
0
70
0
0
BLOCK_RECORD
5
11F
100
AcDbSymbolTableRecord
100
AcDbBlockTableRecord
2
DimnDraft3D6
340
0
70
0
0
BLOCK_RECORD
5
12A
100
AcDbSymbolTableRecord
100
AcDbBlockTableRecord
2
DimnDraft3D7
340
0
70
0
0
ENDTAB
0
ENDSEC
0
SECTION
2
BLOCKS
0
BLOCK
5
20
100
AcDbEntity
8
0
100
AcDbBlockBegin
2
*Model_Space
70
0
10
0
20
0
30
0
3
*Model_Space
0
ENDBLK
5
21
100
AcDbEntity
8
0
100
AcDbBlockEnd
0
BLOCK
5
1C
100
AcDbEntity
8
0
100
AcDbBlockBegin
2
*Paper_Space
70
0
10
0
20
0
30
0
3
*Paper_Space
0
ENDBLK
5
1D
100
AcDbEntity
8
0
100
AcDbBlockEnd
0
BLOCK
5
24
100
AcDbEntity
8
0
100
AcDbBlockBegin
2
*Paper_Space0
70
0
10
0
20
0
30
0
3
*Paper_Space0
0
ENDBLK
5
25
100
AcDbEntity
8
0
100
AcDbBlockEnd
0
BLOCK
5
F4
100
AcDbEntity
8
0
100
AcDbBlockBegin
2
DimnDraft3D1
70
0
10
0
20
0
30
0
3
DimnDraft3D1
0
MTEXT
5
EE
100
AcDbEntity
8
SK2
62
256
6
ByLayer
370
13
48
1
60
0
100
AcDbMText
10
21.181375
20
-12.638398
30
0
210
0
220
0
230
1
1
\W0.7317;53,88
40
3.5
41
0
44
1.084337
50
0
71
7
72
5
7
iso_b_vert
0
LINE
5
EF
100
AcDbEntity
8
SK2
62
256
6
ByLayer
370
13
48
1
60
0
100
AcDbLine
10
0
20
-1.5875
30
0
11
0
21
-15.513398
31
0
39
0
210
0
220
0
230
1
0
LINE
5
F0
100
AcDbEntity
8
SK2
62
256
6
ByLayer
370
13
48
1
60
0
100
AcDbLine
10
53.88
20
-4.8875
30
0
11
53.88
21
-15.513398
31
0
39
0
210
0
220
0
230
1
0
LINE
5
F1
100
AcDbEntity
8
SK2
62
256
6
ByLayer
370
13
48
1
60
0
100
AcDbLine
10
0
20
-13.513398
30
0
11
53.88
21
-13.513398
31
0
39
0
210
0
220
0
230
1
0
SOLID
5
F2
100
AcDbEntity
8
SK2
62
256
6
ByLayer
370
13
48
1
60
0
100
AcDbTrace
10
0
20
-13.513398
30
0
11
3.499998
21
-13.052615
31
0
12
3.500002
22
-13.974182
32
0
13
0
23
-13.513398
33
0
39
0
210
0
220
0
230
1
0
SOLID
5
F3
100
AcDbEntity
8
SK2
62
256
6
ByLayer
370
13
48
1
60
0
100
AcDbTrace
10
53.88
20
-13.513398
30
0
11
50.380002
21
-13.974182
31
0
12
50.379998
22
-13.052615
32
0
13
53.88
23
-13.513398
33
0
39
0
210
0
220
0
230
1
0
ENDBLK
5
F5
100
AcDbEntity
8
0
100
AcDbBlockEnd
0
BLOCK
5
FE
100
AcDbEntity
8
0
100
AcDbBlockBegin
2
DimnDraft3D2
70
0
10
0
20
0
30
0
3
DimnDraft3D2
0
MTEXT
5
F8
100
AcDbEntity
8
SK2
62
256
6
ByLayer
370
13
48
1
60
0
100
AcDbMText
10
5.710116
20
-31.817985
30
0
210
0
220
0
230
1
1
\W0.6713;91,00
40
3.5
41
0
44
1.084337
50
0
71
7
72
5
7
iso_b_vert
0
LINE
5
F9
100
AcDbEntity
8
SK2
62
256
6
ByLayer
370
13
48
1
60
0
100
AcDbLine
10
-36
20
-5.5875
30
0
11
-36
21
-34.692985
31
0
39
0
210
0
220
0
230
1
0
LINE
5
FA
100
AcDbEntity
8
SK2
62
256
6
ByLayer
370
13
48
1
60
0
100
AcDbLine
10
55
20
-1.5875
30
0
11
55
21
-34.692985
31
0
39
0
210
0
220
0
230
1
0
LINE
5
FB
100
AcDbEntity
8
SK2
62
256
6
ByLayer
370
13
48
1
60
0
100
AcDbLine
10
-36
20
-32.692985
30
0
11
55
21
-32.692985
31
0
39
0
210
0
220
0
230
1
0
SOLID
5
FC
100
AcDbEntity
8
SK2
62
256
6
ByLayer
370
13
48
1
60
0
100
AcDbTrace
10
-36
20
-32.692985
30
0
11
-32.500002
21
-32.232202
31
0
12
-32.499998
22
-33.153769
32
0
13
-36
23
-32.692985
33
0
39
0
210
0
220
0
230
1
0
SOLID
5
FD
100
AcDbEntity
8
SK2
62
256
6
ByLayer
370
13
48
1
60
0
100
AcDbTrace
10
55
20
-32.692985
30
0
11
51.500002
21
-33.153769
31
0
12
51.499998
22
-32.232202
32
0
13
55
23
-32.692985
33
0
39
0
210
0
220
0
230
1
0
ENDBLK
5
FF
100
AcDbEntity
8
0
100
AcDbBlockEnd
0
BLOCK
5
108
100
AcDbEntity
8
0
100
AcDbBlockBegin
2
DimnDraft3D3
70
0
10
0
20
0
30
0
3
DimnDraft3D3
0
MTEXT
5
102
100
AcDbEntity
8
SK2
62
256
6
ByLayer
370
13
48
1
60
0
100
AcDbMText
10
33.744605
20
15.784119
30
0
210
0
220
0
230
1
1
\W0.6977;34,12
40
3.5
41
0
44
1.084337
50
0
71
7
72
5
7
iso_b_vert
0
LINE
5
103
100
AcDbEntity
8
SK2
62
256
6
ByLayer
370
13
48
1
60
0
100
AcDbLine
10
20.88
20
4.8875
30
0
11
20.88
21
16.909119
31
0
39
0
210
0
220
0
230
1
0
LINE
5
104
100
AcDbEntity
8
SK2
62
256
6
ByLayer
370
13
48
1
60
0
100
AcDbLine
10
55
20
1.5875
30
0
11
55
21
16.909119
31
0
39
0
210
0
220
0
230
1
0
LINE
5
105
100
AcDbEntity
8
SK2
62
256
6
ByLayer
370
13
48
1
60
0
100
AcDbLine
10
20.88
20
14.909119
30
0
11
55
21
14.909119
31
0
39
0
210
0
220
0
230
1
0
SOLID
5
106
100
AcDbEntity
8
SK2
62
256
6
ByLayer
370
13
48
1
60
0
100
AcDbTrace
10
20.88
20
14.909119
30
0
11
24.379998
21
15.369903
31
0
12
24.380002
22
14.448335
32
0
13
20.88
23
14.909119
33
0
39
0
210
0
220
0
230
1
0
SOLID
5
107
100
AcDbEntity
8
SK2
62
256
6
ByLayer
370
13
48
1
60
0
100
AcDbTrace
10
55
20
14.909119
30
0
11
51.500002
21
14.448335
31
0
12
51.499998
22
15.369903
32
0
13
55
23
14.909119
33
0
39
0
210
0
220
0
230
1
0
ENDBLK
5
109
100
AcDbEntity
8
0
100
AcDbBlockEnd
0
BLOCK
5
112
100
AcDbEntity
8
0
100
AcDbBlockBegin
2
DimnDraft3D4
70
0
10
0
20
0
30
0
3
DimnDraft3D4
0
MTEXT
5
10C
100
AcDbEntity
8
SK2
62
256
6
ByLayer
370
13
48
1
60
0
100
AcDbMText
10
62.715636
20
-15.227503
30
0
210
0
220
0
230
1
1
\W0.5583;1,12
40
3.5
41
0
44
1.084337
50
0
71
7
72
5
7
iso_b_vert
0
LINE
5
10D
100
AcDbEntity
8
SK2
62
256
6
ByLayer
370
13
48
1
60
0
100
AcDbLine
10
55
20
-1.5875
30
0
11
55
21
-18.102503
31
0
39
0
210
0
220
0
230
1
0
LINE
5
10E
100
AcDbEntity
8
SK2
62
256
6
ByLayer
370
13
48
1
60
0
100
AcDbLine
10
53.88
20
-4.8875
30
0
11
53.88
21
-18.102503
31
0
39
0
210
0
220
0
230
1
0
LINE
5
10F
100
AcDbEntity
8
SK2
62
256
6
ByLayer
370
13
48
1
60
0
100
AcDbLine
10
45.13
20
-16.102503
30
0
11
68.122215
21
-16.102503
31
0
39
0
210
0
220
0
230
1
0
SOLID
5
110
100
AcDbEntity
8
SK2
62
256
6
ByLayer
370
13
48
1
60
0
100
AcDbTrace
10
55
20
-16.102503
30
0
11
58.499998
21
-15.641719
31
0
12
58.500002
22
-16.563287
32
0
13
55
23
-16.102503
33
0
39
0
210
0
220
0
230
1
0
SOLID
5
111
100
AcDbEntity
8
SK2
62
256
6
ByLayer
370
13
48
1
60
0
100
AcDbTrace
10
53.88
20
-16.102503
30
0
11
50.380002
21
-16.563287
31
0
12
50.379998
22
-15.641719
32
0
13
53.88
23
-16.102503
33
0
39
0
210
0
220
0
230
1
0
ENDBLK
5
113
100
AcDbEntity
8
0
100
AcDbBlockEnd
0
BLOCK
5
11C
100
AcDbEntity
8
0
100
AcDbBlockBegin
2
DimnDraft3D5
70
0
10
0
20
0
30
0
3
DimnDraft3D5
0
MTEXT
5
116
100
AcDbEntity
8
SK2
62
256
6
ByLayer
370
13
48
1
60
0
100
AcDbMText
10
2.191992
20
-21.468428
30
0
210
0
220
0
230
1
1
\W0.7317;89,88
40
3.5
41
0
44
1.084337
50
0
71
7
72
5
7
iso_b_vert
0
LINE
5
117
100
AcDbEntity
8
SK2
62
256
6
ByLayer
370
13
48
1
60
0
100
AcDbLine
10
-36
20
-5.5875
30
0
11
-36
21
-24.343428
31
0
39
0
210
0
220
0
230
1
0
LINE
5
118
100
AcDbEntity
8
SK2
62
256
6
ByLayer
370
13
48
1
60
0
100
AcDbLine
10
53.88
20
-4.8875
30
0
11
53.88
21
-24.343428
31
0
39
0
210
0
220
0
230
1
0
LINE
5
119
100
AcDbEntity
8
SK2
62
256
6
ByLayer
370
13
48
1
60
0
100
AcDbLine
10
-36
20
-22.343428
30
0
11
53.88
21
-22.343428
31
0
39
0
210
0
220
0
230
1
0
SOLID
5
11A
100
AcDbEntity
8
SK2
62
256
6
ByLayer
370
13
48
1
60
0
100
AcDbTrace
10
-36
20
-22.343428
30
0
11
-32.500002
21
-21.882645
31
0
12
-32.499998
22
-22.804212
32
0
13
-36
23
-22.343428
33
0
39
0
210
0
220
0
230
1
0
SOLID
5
11B
100
AcDbEntity
8
SK2
62
256
6
ByLayer
370
13
48
1
60
0
100
AcDbTrace
10
53.88
20
-22.343428
30
0
11
50.380002
21
-22.804212
31
0
12
50.379998
22
-21.882645
32
0
13
53.88
23
-22.343428
33
0
39
0
210
0
220
0
230
1
0
ENDBLK
5
11D
100
AcDbEntity
8
0
100
AcDbBlockEnd
0
BLOCK
5
127
100
AcDbEntity
8
0
100
AcDbBlockBegin
2
DimnDraft3D6
70
0
10
0
20
0
30
0
3
DimnDraft3D6
0
MTEXT
5
120
100
AcDbEntity
8
SK2
62
256
6
ByLayer
370
13
48
1
60
0
100
AcDbMText
10
-46.375163
20
23.34918
30
0
210
0
220
0
230
1
1
\W0.7317;8,000
40
3.5
41
0
44
1.084337
50
90
71
7
72
5
7
iso_b_vert
0
MTEXT
5
121
100
AcDbEntity
8
SK2
62
256
6
ByLayer
370
13
48
1
60
0
100
AcDbMText
10
-46.375163
20
18.126524
30
0
210
0
220
0
230
1
1
%%c
40
3.5
41
0
44
1.084337
50
90
71
7
72
5
7
iso_b_vert
0
LINE
5
122
100
AcDbEntity
8
SK2
62
256
6
ByLayer
370
13
48
1
60
0
100
AcDbLine
10
-37.5875
20
-4
30
0
11
-46.625163
21
-4
31
0
39
0
210
0
220
0
230
1
0
LINE
5
123
100
AcDbEntity
8
SK2
62
256
6
ByLayer
370
13
48
1
60
0
100
AcDbLine
10
-37.5875
20
4
30
0
11
-46.625163
21
4
31
0
39
0
210
0
220
0
230
1
0
LINE
5
124
100
AcDbEntity
8
SK2
62
256
6
ByLayer
370
13
48
1
60
0
100
AcDbLine
10
-44.625163
20
-4
30
0
11
-44.625163
21
33.121549
31
0
39
0
210
0
220
0
230
1
0
SOLID
5
125
100
AcDbEntity
8
SK2
62
256
6
ByLayer
370
13
48
1
60
0
100
AcDbTrace
10
-44.625163
20
-4
30
0
11
-45.085946
21
-0.500002
31
0
12
-44.164379
22
-0.499998
32
0
13
-44.625163
23
-4
33
0
39
0
210
0
220
0
230
1
0
SOLID
5
126
100
AcDbEntity
8
SK2
62
256
6
ByLayer
370
13
48
1
60
0
100
AcDbTrace
10
-44.625163
20
4
30
0
11
-44.164379
21
0.500002
31
0
12
-45.085946
22
0.499998
32
0
13
-44.625163
23
4
33
0
39
0
210
0
220
0
230
1
0
ENDBLK
5
128
100
AcDbEntity
8
0
100
AcDbBlockEnd
0
BLOCK
5
132
100
AcDbEntity
8
0
100
AcDbBlockBegin
2
DimnDraft3D7
70
0
10
0
20
0
30
0
3
DimnDraft3D7
0
MTEXT
5
12B
100
AcDbEntity
8
2
62
256
6
ByLayer
370
13
48
1
60
0
100
AcDbMText
10
65.333343
20
21.242266
30
0
210
0
220
0
230
1
1
\W0.7317;6,600
40
3.5
41
0
44
1.084337
50
90
71
7
72
5
7
iso_b_vert
0
MTEXT
5
12C
100
AcDbEntity
8
2
62
256
6
ByLayer
370
13
48
1
60
0
100
AcDbMText
10
65.333343
20
16.01961
30
0
210
0
220
0
230
1
1
%%c
40
3.5
41
0
44
1.084337
50
90
71
7
72
5
7
iso_b_vert
0
LINE
5
12D
100
AcDbEntity
8
2
62
256
6
ByLayer
370
13
48
1
60
0
100
AcDbLine
10
55.4675
20
-3.3
30
0
11
69.083343
21
-3.3
31
0
39
0
210
0
220
0
230
1
0
LINE
5
12E
100
AcDbEntity
8
2
62
256
6
ByLayer
370
13
48
1
60
0
100
AcDbLine
10
55.4675
20
3.3
30
0
11
69.083343
21
3.3
31
0
39
0
210
0
220
0
230
1
0
LINE
5
12F
100
AcDbEntity
8
2
62
256
6
ByLayer
370
13
48
1
60
0
100
AcDbLine
10
67.083343
20
31.014635
30
0
11
67.083343
21
-12.05
31
0
39
0
210
0
220
0
230
1
0
SOLID
5
130
100
AcDbEntity
8
2
62
256
6
ByLayer
370
13
48
1
60
0
100
AcDbTrace
10
67.083343
20
-3.3
30
0
11
67.544126
21
-6.799998
31
0
12
66.622559
22
-6.800002
32
0
13
67.083343
23
-3.3
33
0
39
0
210
0
220
0
230
1
0
SOLID
5
131
100
AcDbEntity
8
2
62
256
6
ByLayer
370
13
48
1
60
0
100
AcDbTrace
10
67.083343
20
3.3
30
0
11
66.622559
21
6.799998
31
0
12
67.544126
22
6.800002
32
0
13
67.083343
23
3.3
33
0
39
0
210
0
220
0
230
1
0
ENDBLK
5
133
100
AcDbEntity
8
0
100
AcDbBlockEnd
0
ENDSEC
0
SECTION
2
ENTITIES
0
ARC
5
99
100
AcDbEntity
8
1
62
256
6
ByLayer
370
18
48
1
60
0
100
AcDbCircle
39
0
10
0
20
3.2
30
0
40
0.799999999999999
210
0
220
0
230
1
100
AcDbArc
50
32.872959
51
90
0
ARC
5
9A
100
AcDbEntity
8
1
62
256
6
ByLayer
370
18
48
1
60
0
100
AcDbCircle
39
0
10
0
20
-3.2
30
0
40
0.799999999999999
210
0
220
0
230
1
100
AcDbArc
50
270
51
327.127041
0
ARC
5
9B
100
AcDbEntity
8
1
62
256
6
ByLayer
370
18
48
1
60
0
100
AcDbCircle
39
0
10
-1.343802
20
-4.068445
30
0
40
0.799999999999999
210
0
220
0
230
-1
100
AcDbArc
50
32.872959
51
90.034377
0
ARC
5
9C
100
AcDbEntity
8
1
62
256
6
ByLayer
370
18
48
1
60
0
100
AcDbCircle
39
0
10
-1.343802
20
4.068445
30
0
40
0.799999999999999
210
0
220
0
230
-1
100
AcDbArc
50
269.965623
51
327.127041
0
ELLIPSE
5
9D
100
AcDbEntity
8
1
62
256
6
ByLayer
370
18
48
1
60
0
100
AcDbEllipse
10
4.25
20
-3.364743
30
0
11
0.25
21
0
31
0
210
0
220
0
230
1
40
1
41
1.56937421325877
42
2.74167699224913
0
ELLIPSE
5
9E
100
AcDbEntity
8
1
62
256
6
ByLayer
370
18
48
1
60
0
100
AcDbEllipse
10
4.25
20
3.364743
30
0
11
0.25
21
0
31
0
210
0
220
0
230
1
40
1
41
-2.74045225606953
42
-1.55983458031991
0
ELLIPSE
5
9F
100
AcDbEntity
8
1
62
256
6
ByLayer
370
18
48
1
60
0
100
AcDbEllipse
10
55.000296
20
0.000721
30
0
11
1.21858637047954
21
3.29765337626043
31
0
210
0
220
0
230
-1
40
0.115174
41
2.85880516921879
42
2.96803622271663
0
ELLIPSE
5
A0
100
AcDbEntity
8
1
62
256
6
ByLayer
370
13
48
1
60
0
100
AcDbEllipse
10
4.250241
20
0.271252
30
0
11
0.0460405008297499
21
0.0887708977274974
31
0
210
0
220
0
230
1
40
0.040186
41
3.09159909975166
42
-1.64463876957993
0
ELLIPSE
5
A1
100
AcDbEntity
8
1
62
256
6
ByLayer
370
18
48
1
60
0
100
AcDbEllipse
10
54.86055
20
0.107411
30
0
11
0.0727819104921557
21
0.301917195718884
31
0
210
0
220
0
230
-1
40
0.478434
41
1.70376928759656
42
2.45976119973161
0
ELLIPSE
5
A2
100
AcDbEntity
8
1
62
256
6
ByLayer
370
13
48
1
60
0
100
AcDbEllipse
10
4.180448
20
0.308602
30
0
11
0.048637890923187
21
0.0873747993791354
31
0
210
0
220
0
230
1
40
0.381646
41
1.87456396308299
42
-3.07655908802114
0
ELLIPSE
5
A3
100
AcDbEntity
8
1
62
256
6
ByLayer
370
18
48
1
60
0
100
AcDbEllipse
10
55.046939
20
-0.00318
30
0
11
0.137979128782923
21
-0.428995647926715
31
0
210
0
220
0
230
-1
40
0.08774
41
1.68310423143224
42
2.3233757212127
0
ELLIPSE
5
A4
100
AcDbEntity
8
1
62
256
6
ByLayer
370
18
48
1
60
0
100
AcDbEllipse
10
55.000296
20
-0.000721
30
0
11
1.21858640019819
21
-3.2976534638271
31
0
210
0
220
0
230
-1
40
0.115174
41
-2.96803622503352
42
-2.85880517301323
0
ELLIPSE
5
A5
100
AcDbEntity
8
1
62
256
6
ByLayer
370
13
48
1
60
0
100
AcDbEllipse
10
54.213191
20
0.49151
30
0
11
0.153082081612423
21
0.258003636193771
31
0
210
0
220
0
230
1
40
0.454519
41
0.917105603404823
42
2.31336900500031
0
ELLIPSE
5
A6
100
AcDbEntity
8
1
62
256
6
ByLayer
370
13
48
1
60
0
100
AcDbEllipse
10
54.485782
20
1.560495
30
0
11
1.93528280596722
21
-1.33249724433129
31
0
210
0
220
0
230
-1
40
0.533762
41
1.44484622744649
42
1.68671627474651
0
ELLIPSE
5
A7
100
AcDbEntity
8
1
62
256
6
ByLayer
370
13
48
1
60
0
100
AcDbEllipse
10
54.675688
20
1.683692
30
0
11
2.00545534527218
21
-0.988015269445292
31
0
210
0
220
0
230
-1
40
0.484688
41
1.5626355244818
42
1.83548680234893
0
ELLIPSE
5
A8
100
AcDbEntity
8
1
62
256
6
ByLayer
370
18
48
1
60
0
100
AcDbEllipse
10
54.34183
20
1.683692
30
0
11
0.511707235767611
21
-1.38474641313695
31
0
210
0
220
0
230
-1
40
0.115174
41
-1.49290096495024
42
-0.742863466705678
0
ELLIPSE
5
A9
100
AcDbEntity
8
1
62
256
6
ByLayer
370
18
48
1
60
0
100
AcDbEllipse
10
55.046939
20
0.00318
30
0
11
0.13797912888548
21
0.428995648189363
31
0
210
0
220
0
230
-1
40
0.08774
41
-2.32337572126691
42
-1.68310423183261
0
ELLIPSE
5
AA
100
AcDbEntity
8
1
62
256
6
ByLayer
370
18
48
1
60
0
100
AcDbEllipse
10
54.34183
20
-1.683692
30
0
11
0.511707235779678
21
1.38474641316267
31
0
210
0
220
0
230
-1
40
0.115174
41
0.742863466703244
42
1.49290096493584
0
POINT
5
6C
100
AcDbEntity
8
81
62
256
6
ByLayer
370
18
48
1
60
0
100
AcDbPoint
10
55
20
0
30
0
39
0
210
0
220
0
230
1
50
360
0
POINT
5
6E
100
AcDbEntity
8
80
62
256
6
ByLayer
370
18
48
1
60
0
100
AcDbPoint
10
0
20
0
30
0
39
0
210
0
220
0
230
1
50
360
0
POINT
5
70
100
AcDbEntity
8
SK2
62
256
6
ByLayer
370
18
48
1
60
1
100
AcDbPoint
10
-36
20
-4
30
0
39
0
210
0
220
0
230
1
50
360
0
POINT
5
72
100
AcDbEntity
8
SK2
62
256
6
ByLayer
370
18
48
1
60
1
100
AcDbPoint
10
-36
20
4
30
0
39
0
210
0
220
0
230
1
50
360
0
POINT
5
73
100
AcDbEntity
8
2
62
256
6
ByLayer
370
18
48
1
60
1
100
AcDbPoint
10
53.88
20
-3.3
30
0
39
0
210
0
220
0
230
1
50
360
0
POINT
5
75
100
AcDbEntity
8
2
62
256
6
ByLayer
370
18
48
1
60
1
100
AcDbPoint
10
53.88
20
3.3
30
0
39
0
210
0
220
0
230
1
50
360
0
SPLINE
5
AB
100
AcDbEntity
8
1
62
256
6
ByLayer
370
18
48
1
60
0
100
AcDbSpline
70
4
71
1
72
4
73
2
40
0
40
0
40
1
40
1
41
1
10
43.355258634597
20
0.0001299517505515
30
0
41
1
10
43.3552498710974
20
0.0001362990765585
30
0
0
SPLINE
5
AC
100
AcDbEntity
8
1
62
256
6
ByLayer
370
18
48
1
60
0
100
AcDbSpline
70
4
71
3
72
8
73
4
40
0
40
0
40
0
40
0
40
1
40
1
40
1
40
1
41
1
10
32.8734054121094
20
0.330193088161366
30
0
41
1
10
32.8752693177108
20
0.330210889566047
30
0
41
1
10
32.8640943014569
20
0.336204188090249
30
0
41
1
10
32.8419357488266
20
0.346952560080382
30
0
0
SPLINE
5
AD
100
AcDbEntity
8
1
62
256
6
ByLayer
370
18
48
1
60
0
100
AcDbSpline
70
4
71
3
72
14
73
10
40
0
40
0
40
0
40
0
40
0.102089018665593
40
0.25511881188147
40
0.399895182565058
40
0.478648717508113
40
0.564255558134858
40
0.731694002985693
40
1
40
1
40
1
40
1
41
1
10
44.4472003029489
20
-0.931576046980524
30
0
41
1
10
44.4472901784291
20
-0.931886700211862
30
0
41
1
10
44.4515110970589
20
-0.933777514301482
30
0
41
1
10
44.4726210278982
20
-0.940279290228489
30
0
41
1
10
44.4985106455759
20
-0.948549838160801
30
0
41
1
10
44.5455723043939
20
-0.967906772812228
30
0
41
1
10
44.6062679126708
20
-0.993681627529668
30
0
41
1
10
44.7936977404152
20
-1.07537227530622
30
0
41
1
10
44.9565808139001
20
-1.15356232740695
30
0
41
1
10
45.072525574183
20
-1.21066169588644
30
0
0
SPLINE
5
AE
100
AcDbEntity
8
1
62
256
6
ByLayer
370
18
48
1
60
0
100
AcDbSpline
70
4
71
3
72
8
73
4
40
0
40
0
40
0
40
0
40
1
40
1
40
1
40
1
41
1
10
13.4690515961318
20
0.332538694163929
30
0
41
1
10
13.4711854571148
20
0.332092810986723
30
0
41
1
10
13.4660473001034
20
0.334877199572702
30
0
41
1
10
13.4521152693591
20
0.341410813591295
30
0
0
SPLINE
5
AF
100
AcDbEntity
8
1
62
256
6
ByLayer
370
18
48
1
60
0
100
AcDbSpline
70
4
71
3
72
23
73
19
40
0
40
0
40
0
40
0
40
0.0965376091148056
40
0.181687809017464
40
0.256317429117538
40
0.317763064969491
40
0.370660985992988
40
0.43004061953207
40
0.508600867564201
40
0.610178339729669
40
0.695590837438817
40
0.76475368649213
40
0.793607645970576
40
0.818680332588189
40
0.846820757132202
40
0.893644226667646
40
0.959826906746239
40
1
40
1
40
1
40
1
41
1
10
14.4192614227351
20
-3.11930590759772
30
0
41
1
10
14.717930379301
20
-3.11871669449755
30
0
41
1
10
15.2807737754593
20
-3.11831214354672
30
0
41
1
10
16.0863200856329
20
-3.11871504135274
30
0
41
1
10
16.7675859986388
20
-3.1219343081309
30
0
41
1
10
17.3586865345341
20
-3.12121655478606
30
0
41
1
10
17.9008842142488
20
-3.12325923373192
30
0
41
1
10
18.4973427639748
20
-3.1218282354304
30
0
41
1
10
19.2456427993578
20
-3.12454521122754
30
0
41
1
10
20.075398168614
20
-3.12227495856692
30
0
41
1
10
20.8757022045251
20
-3.12622224766622
30
0
41
1
10
21.4489136508079
20
-3.12431318425678
30
0
41
1
10
21.8331866378935
20
-3.12423517122744
30
0
41
1
10
22.0882805834874
20
-3.12457397196104
30
0
41
1
10
22.3998298465064
20
-3.12573954470645
30
0
41
1
10
22.8413524635592
20
-3.12545746260892
30
0
41
1
10
23.31967112251
20
-3.12479029501901
30
0
41
1
10
23.651360153532
20
-3.12569108271083
30
0
41
1
10
23.7765799967411
20
-3.12613838185689
30
0
0
SPLINE
5
B0
100
AcDbEntity
8
1
62
256
6
ByLayer
370
18
48
1
60
0
100
AcDbSpline
70
4
71
3
72
13
73
9
40
0
40
0
40
0
40
0
40
0.119508500291585
40
0.366278203808763
40
0.489184936531343
40
0.613516581135196
40
0.793730284708483
40
1
40
1
40
1
40
1
41
1
10
25.0495782694578
20
-0.931892255631084
30
0
41
1
10
25.0493652745812
20
-0.932139537946426
30
0
41
1
10
25.052651905407
20
-0.934264724013957
30
0
41
1
10
25.081307130342
20
-0.943313525484228
30
0
41
1
10
25.1493944029991
20
-0.968462298731112
30
0
41
1
10
25.247219524709
20
-1.01042597161785
30
0
41
1
10
25.4333945820843
20
-1.09513002531833
30
0
41
1
10
25.5846161588439
20
-1.1680363234745
30
0
41
1
10
25.673362174869
20
-1.21166583150921
30
0
0
SPLINE
5
B1
100
AcDbEntity
8
1
62
256
6
ByLayer
370
18
48
1
60
0
100
AcDbSpline
70
4
71
3
72
26
73
22
40
0
40
0
40
0
40
0
40
0.0682559756101602
40
0.122803743238331
40
0.158670361429811
40
0.191740848089292
40
0.230291277504318
40
0.273886630030168
40
0.317259584762664
40
0.42754647189859
40
0.523060391298222
40
0.564936786982598
40
0.603596393529061
40
0.651178414214338
40
0.710520481380907
40
0.768274961809142
40
0.802908102196037
40
0.834353042994803
40
0.883996037204359
40
0.95353299888525
40
1
40
1
40
1
40
1
41
1
10
33.8728303090188
20
-3.13117180783973
30
0
41
1
10
34.0851029989834
20
-3.13135832393891
30
0
41
1
10
34.4670354702017
20
-3.13162826019541
30
0
41
1
10
34.960621187156
20
-3.13197749343877
30
0
41
1
10
35.3447006688124
20
-3.13196443935752
30
0
41
1
10
35.6790599499957
20
-3.13217235738699
30
0
41
1
10
36.0374360068506
20
-3.13276583599784
30
0
41
1
10
36.4278331524147
20
-3.13281559103425
30
0
41
1
10
37.0414030102436
20
-3.13254042258467
30
0
41
1
10
37.8164962901964
20
-3.13418455222907
30
0
41
1
10
38.5868730079849
20
-3.13315706596762
30
0
41
1
10
39.1344771934661
20
-3.13463342312039
30
0
41
1
10
39.5329991666096
20
-3.13434956583743
30
0
41
1
10
39.9858502078834
20
-3.13381980532543
30
0
41
1
10
40.498088514499
20
-3.13625753708567
30
0
41
1
10
40.9700786597197
20
-3.13592294116978
30
0
41
1
10
41.355154363052
20
-3.13522164135929
30
0
41
1
10
41.7147858045459
20
-3.13433218373268
30
0
41
1
10
42.183418192116
20
-3.136160869175
30
0
41
1
10
42.6986893502366
20
-3.1344462777509
30
0
41
1
10
43.0593876315893
20
-3.13582463664002
30
0
41
1
10
43.2038512071744
20
-3.13648277171455
30
0
0
SPLINE
5
B2
100
AcDbEntity
8
1
62
256
6
ByLayer
370
18
48
1
60
0
100
AcDbSpline
70
4
71
2
72
6
73
3
40
0
40
0
40
0
40
1
40
1
40
1
41
1
10
53.3109118071351
20
-3.14267826729593
30
0
41
1
10
53.5850153790508
20
-3.14110147211886
30
0
41
1
10
53.8588550883492
20
-3.14379724190985
30
0
0
SPLINE
5
B3
100
AcDbEntity
8
1
62
256
6
ByLayer
370
18
48
1
60
0
100
AcDbSpline
70
4
71
3
72
22
73
18
40
0
40
0
40
0
40
0
40
0.0620899635305695
40
0.139105131633971
40
0.209832843963898
40
0.293266387179583
40
0.368612257997802
40
0.420492853893508
40
0.472130735368368
40
0.540209009711217
40
0.651550769045531
40
0.752450071271331
40
0.836954213337303
40
0.877215897069071
40
0.917700184338139
40
0.960384376572983
40
1
40
1
40
1
40
1
41
1
10
43.2556887331276
20
3.1365819992775
30
0
41
1
10
43.0957230485253
20
3.13576155413657
30
0
41
1
10
42.7372746475446
20
3.13432046674137
30
0
41
1
10
42.1956058040782
20
3.1361398117424
30
0
41
1
10
41.6001710884504
20
3.13411047141281
30
0
41
1
10
41.0078209308379
20
3.13618487508856
30
0
41
1
10
40.4644246213968
20
3.13598364773824
30
0
41
1
10
40.0029800624933
20
3.13396506823045
30
0
41
1
10
39.5602912933568
20
3.13433617911792
30
0
41
1
10
38.9642241544487
20
3.13461060087218
30
0
41
1
10
38.2410680430551
20
3.13294819127009
30
0
41
1
10
37.475506505931
20
3.13397692694016
30
0
41
1
10
36.8933565017389
20
3.1326144410495
30
0
41
1
10
36.4670413756033
20
3.13283582754042
30
0
41
1
10
36.1486143305
20
3.13280740928349
30
0
41
1
10
35.831855757608
20
3.13243272393402
30
0
41
1
10
35.6195617240443
20
3.13220032689708
30
0
41
1
10
35.5173703252462
20
3.1321086601445
30
0
0
SPLINE
5
B4
100
AcDbEntity
8
1
62
256
6
ByLayer
370
18
48
1
60
0
100
AcDbSpline
70
4
71
2
72
6
73
3
40
0
40
0
40
0
40
1
40
1
40
1
41
1
10
4.68704607387909
20
3.11675244782742
30
0
41
1
10
4.46915461232305
20
3.11611050453303
30
0
41
1
10
4.25150407361232
20
3.11395931869822
30
0
0
SPLINE
5
B5
100
AcDbEntity
8
1
62
256
6
ByLayer
370
18
48
1
60
0
100
AcDbSpline
70
4
71
3
72
23
73
19
40
0
40
0
40
0
40
0
40
0.0440945432041658
40
0.111095327028277
40
0.163605427719911
40
0.22418377157943
40
0.294907718856606
40
0.391683615410432
40
0.475321869666809
40
0.54769913474775
40
0.602227797542284
40
0.657176695234177
40
0.720551878366765
40
0.796039076437714
40
0.864082961878684
40
0.905286909436807
40
0.950985632080154
40
1
40
1
40
1
40
1
41
1
10
23.8634808596599
20
3.12638771010441
30
0
41
1
10
23.7498998514921
20
3.12601513076055
30
0
41
1
10
23.4636717599568
20
3.12537847514645
30
0
41
1
10
23.0409729572932
20
3.1250524953322
30
0
41
1
10
22.5772722969527
20
3.12702035474428
30
0
41
1
10
22.1030716844459
20
3.1248777836964
30
0
41
1
10
21.5144629024138
20
3.12384381257158
30
0
41
1
10
20.8663570931709
20
3.126210146055
30
0
41
1
10
20.2139780187582
20
3.12279870942408
30
0
41
1
10
19.6706268033283
20
3.12393436081587
30
0
41
1
10
19.2013104839201
20
3.12398616030291
30
0
41
1
10
18.7552363876958
20
3.12214537270316
30
0
41
1
10
18.2550696168248
20
3.1225964523218
30
0
41
1
10
17.7211353662261
20
3.1228132815005
30
0
41
1
10
17.2442912809542
20
3.12138862820367
30
0
41
1
10
16.8448087411717
20
3.12137986885188
30
0
41
1
10
16.494004419647
20
3.12137640255634
30
0
41
1
10
16.2496128671327
20
3.1210798834644
30
0
41
1
10
16.1231420803881
20
3.12092687259388
30
0
0
SPLINE
5
B6
100
AcDbEntity
8
1
62
256
6
ByLayer
370
18
48
1
60
0
100
AcDbSpline
70
4
71
2
72
6
73
3
40
0
40
0
40
0
40
1
40
1
40
1
41
1
10
4.25150407378581
20
-3.11395931869953
30
0
41
1
10
4.47511191523714
20
-3.11616203491818
30
0
41
1
10
4.69896727252515
20
-3.11681420731188
30
0
0
SPLINE
5
B7
100
AcDbEntity
8
1
62
256
6
ByLayer
370
18
48
1
60
0
100
AcDbSpline
70
4
71
3
72
16
73
12
40
0
40
0
40
0
40
0
40
0.24999999999998
40
0.24999999999998
40
0.499999999999961
40
0.499999999999961
40
0.749999999999941
40
0.749999999999941
40
0.87499999999997
40
0.87499999999997
40
1
40
1
40
1
40
1
41
1
10
53.555483046698
20
0.688564637099091
30
0
41
1
10
53.5471353381424
20
0.718491021418743
30
0
41
1
10
53.542234588282
20
0.749214652432102
30
0
41
1
10
53.5406178984592
20
0.812635013521202
30
0
41
1
10
53.5439536895366
20
0.845046498055524
30
0
41
1
10
53.5628228911822
20
0.907560197433185
30
0
41
1
10
53.5788195363388
20
0.938247771676117
30
0
41
1
10
53.6146994503611
20
0.971443897984756
30
0
41
1
10
53.6284910673827
20
0.980645435341415
30
0
41
1
10
53.6576551596954
20
0.995005404900297
30
0
41
1
10
53.6729690585925
20
1.0002390169704
30
0
41
1
10
53.6888387824671
20
1.00399971674082
30
0
0
SPLINE
5
B8
100
AcDbEntity
8
1
62
256
6
ByLayer
370
18
48
1
60
0
100
AcDbSpline
70
4
71
3
72
12
73
8
40
0
40
0
40
0
40
0
40
0.590438853641235
40
0.590438853641235
40
0.885658280461852
40
0.885658280461852
40
1
40
1
40
1
40
1
41
1
10
7.16576154703415
20
2.81680203177359
30
0
41
1
10
6.67098052939559
20
2.9220501760897
30
0
41
1
10
6.18140043840955
20
3.00676032869032
30
0
41
1
10
5.45162310606997
20
3.08532216245646
30
0
41
1
10
5.20914556032974
20
3.10354089272445
30
0
41
1
10
4.87385253719521
20
3.11506705015739
30
0
41
1
10
4.78064488743723
20
3.11678501107684
30
0
41
1
10
4.68790571147275
20
3.11689059854538
30
0
0
SPLINE
5
B9
100
AcDbEntity
8
1
62
256
6
ByLayer
370
18
48
1
60
0
100
AcDbSpline
70
4
71
3
72
12
73
8
40
0
40
0
40
0
40
0
40
0.250000000000001
40
0.250000000000001
40
0.500000000000002
40
0.500000000000002
40
1
40
1
40
1
40
1
41
1
10
53.8876640574677
20
-3.21242010545277
30
0
41
1
10
53.8925380023726
20
-3.19932150693327
30
0
41
1
10
53.8970844358998
20
-3.18598181256968
30
0
41
1
10
53.9042610701123
20
-3.16205495166523
30
0
41
1
10
53.9068715391128
20
-3.15148784009861
30
0
41
1
10
53.9108687788988
20
-3.12811264264829
30
0
41
1
10
53.9086830721349
20
-3.12367158609337
30
0
41
1
10
53.904078908293
20
-3.12648764246742
30
0
0
SPLINE
5
BA
100
AcDbEntity
8
1
62
256
6
ByLayer
370
18
48
1
60
0
100
AcDbSpline
70
4
71
3
72
14
73
10
40
0
40
0
40
0
40
0
40
0.089373679562769
40
0.089373679562769
40
0.44995237343074
40
0.44995237343074
40
0.810531067298709
40
0.810531067298709
40
1
40
1
40
1
40
1
41
1
10
34.1321374308049
20
-3.1285366768779
30
0
41
1
10
34.0031582126472
20
-3.1312096683815
30
0
41
1
10
33.8743414505671
20
-3.13183915692736
30
0
41
1
10
33.2277183737411
20
-3.12481432088325
30
0
41
1
10
32.7128042101897
20
-3.08613120178961
30
0
41
1
10
31.6835811187108
20
-2.94577456326633
30
0
41
1
10
31.1690641019463
20
-2.84427914012119
30
0
41
1
10
30.3795293523875
20
-2.64454444705029
30
0
41
1
10
30.1062797467875
20
-2.56744599173129
30
0
41
1
10
29.8325036769457
20
-2.48291466744544
30
0
0
SPLINE
5
BB
100
AcDbEntity
8
1
62
256
6
ByLayer
370
13
48
1
60
0
100
AcDbSpline
70
4
71
3
72
22
73
18
40
0
40
0
40
0
40
0
40
0.0771232093501063
40
0.0771232093501063
40
0.239644330797824
40
0.239644330797824
40
0.320904891521684
40
0.320904891521684
40
0.402165452245545
40
0.402165452245545
40
0.727207695140994
40
0.727207695140994
40
0.808468255864856
40
0.808468255864856
40
0.889728816588718
40
0.889728816588718
40
1
40
1
40
1
40
1
41
1
10
29.832504632337
20
-2.4829149624328
30
0
41
1
10
29.5852566144941
20
-2.40657447655536
30
0
41
1
10
29.3375792142108
20
-2.32417177746007
30
0
41
1
10
28.5683799845451
20
-2.05126554642669
30
0
41
1
10
28.0486224266445
20
-1.84310053999732
30
0
41
1
10
27.2678447365629
20
-1.50432629906581
30
0
41
1
10
27.006754445466
20
-1.38677005038585
30
0
41
1
10
26.4860412440404
20
-1.14562458647148
30
0
41
1
10
26.2267294846718
20
-1.02211572277565
30
0
41
1
10
24.9331448173124
20
-0.394331590575859
30
0
41
1
10
23.9075697590981
20
0.140242322282603
30
0
41
1
10
22.605322682134
20
0.784845320553359
30
0
41
1
10
22.3445189893891
20
0.912100607829217
30
0
41
1
10
21.8258763777001
20
1.15937143305729
30
0
41
1
10
21.5674559341143
20
1.2798934657223
30
0
41
1
10
20.9594792494499
20
1.5549310608267
30
0
41
1
10
20.6102450836049
20
1.70606581690197
30
0
41
1
10
20.260834853967
20
1.84834954488045
30
0
0
SPLINE
5
BC
100
AcDbEntity
8
1
62
256
6
ByLayer
370
18
48
1
60
0
100
AcDbSpline
70
4
71
3
72
60
73
56
40
0
40
0
40
0
40
0
40
0.0624999999999924
40
0.0624999999999924
40
0.124999999999985
40
0.124999999999985
40
0.24999999999997
40
0.24999999999997
40
0.374999999999954
40
0.374999999999954
40
0.499999999999939
40
0.499999999999939
40
0.562499999999932
40
0.562499999999932
40
0.624999999999925
40
0.624999999999925
40
0.656249999999922
40
0.656249999999922
40
0.660156249999921
40
0.660156249999921
40
0.664062499999921
40
0.664062499999921
40
0.66796874999992
40
0.66796874999992
40
0.66992187499992
40
0.66992187499992
40
0.67187499999992
40
0.67187499999992
40
0.687499999999923
40
0.687499999999923
40
0.71874999999993
40
0.71874999999993
40
0.734374999999934
40
0.734374999999934
40
0.749999999999938
40
0.749999999999938
40
0.765624999999941
40
0.765624999999941
40
0.781249999999945
40
0.781249999999945
40
0.796874999999949
40
0.796874999999949
40
0.804687499999951
40
0.804687499999951
40
0.812499999999953
40
0.812499999999953
40
0.843749999999961
40
0.843749999999961
40
0.874999999999968
40
0.874999999999968
40
0.906249999999976
40
0.906249999999976
40
0.937499999999984
40
0.937499999999984
40
1
40
1
40
1
40
1
41
1
10
12.1235183644774
20
-3.17749823750938
30
0
41
1
10
11.8576509067825
20
-3.14305771482302
30
0
41
1
10
11.5900095237421
20
-3.10073256608695
30
0
41
1
10
11.0508132876288
20
-3.00320975958752
30
0
41
1
10
10.7786988663402
20
-2.94786723523322
30
0
41
1
10
9.96046271917544
20
-2.76785076869282
30
0
41
1
10
9.41237995824864
20
-2.6292174145365
30
0
41
1
10
8.30465776456978
20
-2.34134879459063
30
0
41
1
10
7.74495592861501
20
-2.1922290290928
30
0
41
1
10
6.60856735258898
20
-1.91109050585675
30
0
41
1
10
6.03187139957836
20
-1.77922880580886
30
0
41
1
10
5.1517659736709
20
-1.61229298089137
30
0
41
1
10
4.85551865065946
20
-1.56170089941338
30
0
41
1
10
4.26136331978896
20
-1.47353722369195
30
0
41
1
10
3.96313170995216
20
-1.43588399888648
30
0
41
1
10
3.51396270068199
20
-1.39022026855991
30
0
41
1
10
3.36392291079551
20
-1.37679890492345
30
0
41
1
10
3.19498095328637
20
-1.36383185587587
30
0
41
1
10
3.17620690262649
20
-1.36242059864503
30
0
41
1
10
3.13865334256664
20
-1.35965741407821
30
0
41
1
10
3.11992650826579
20
-1.35772418866966
30
0
41
1
10
3.08205949490156
20
-1.35841812084388
30
0
41
1
10
3.06312967422076
20
-1.36066014022995
30
0
41
1
10
3.03680722748413
20
-1.36899461098813
30
0
41
1
10
3.02846537262661
20
-1.37304879637722
30
0
41
1
10
3.01164694883505
20
-1.38075084837163
30
0
41
1
10
3.00324919632902
20
-1.38462622769927
30
0
41
1
10
2.92783332416161
20
-1.41970148467144
30
0
41
1
10
2.86183767937891
20
-1.45232436478278
30
0
41
1
10
2.6676666725408
20
-1.55536545975846
30
0
41
1
10
2.54402039413145
20
-1.63036761416535
30
0
41
1
10
2.37480668362639
20
-1.75575079758755
30
0
41
1
10
2.3210413076489
20
-1.79977876342372
30
0
41
1
10
2.22091868915027
20
-1.89371937231527
30
0
41
1
10
2.17575142116834
20
-1.94253672839497
30
0
41
1
10
2.0980241898651
20
-2.04465476464333
30
0
41
1
10
2.06542507082202
20
-2.09848312998582
30
0
41
1
10
2.01934282943816
20
-2.20559852675035
30
0
41
1
10
2.00527904377185
20
-2.25977442794124
30
0
41
1
10
1.99718424504044
20
-2.36692977285685
30
0
41
1
10
2.00315159531834
20
-2.41793391724425
30
0
41
1
10
2.02479812514511
20
-2.49091602683697
30
0
41
1
10
2.0341953567297
20
-2.51471956016513
30
0
41
1
10
2.05634647471308
20
-2.56016304276534
30
0
41
1
10
2.06912886652322
20
-2.58194923225517
30
0
41
1
10
2.14030913436756
20
-2.6868045683637
30
0
41
1
10
2.22086366496114
20
-2.75832659374169
30
0
41
1
10
2.40041284253204
20
-2.87958034295244
30
0
41
1
10
2.50038022731764
20
-2.9303279712187
30
0
41
1
10
2.71281067805344
20
-3.01867254175087
30
0
41
1
10
2.82431925809703
20
-3.0556869293402
30
0
41
1
10
3.05188536382261
20
-3.11884095294226
30
0
41
1
10
3.16843293363093
20
-3.14509855968893
30
0
41
1
10
3.5240021169457
20
-3.21143219920489
30
0
41
1
10
3.76883102392614
20
-3.23923905578974
30
0
41
1
10
4.01863959575607
20
-3.25491160696413
30
0
0
SPLINE
5
BD
100
AcDbEntity
8
1
62
256
6
ByLayer
370
18
48
1
60
0
100
AcDbSpline
70
4
71
3
72
76
73
72
40
0
40
0
40
0
40
0
40
0.022916162405832
40
0.022916162405832
40
0.0518496125237929
40
0.0518496125237929
40
0.0807830626417538
40
0.0807830626417538
40
0.109716512759715
40
0.109716512759715
40
0.138649962877676
40
0.138649962877676
40
0.167583412995636
40
0.167583412995636
40
0.196516863113597
40
0.196516863113597
40
0.225450313231558
40
0.225450313231558
40
0.254383763349519
40
0.254383763349519
40
0.28331721346748
40
0.28331721346748
40
0.312250663585441
40
0.312250663585441
40
0.341184113703402
40
0.341184113703402
40
0.370117563821363
40
0.370117563821363
40
0.399051013939323
40
0.399051013939323
40
0.427984464057284
40
0.427984464057284
40
0.456917914175245
40
0.456917914175245
40
0.485851364293206
40
0.485851364293206
40
0.514784814411167
40
0.514784814411167
40
0.543718264529128
40
0.543718264529128
40
0.572651714647089
40
0.572651714647089
40
0.60158516476505
40
0.60158516476505
40
0.63051861488301
40
0.63051861488301
40
0.659452065000971
40
0.659452065000971
40
0.688385515118932
40
0.688385515118932
40
0.717318965236893
40
0.717318965236893
40
0.746252415354854
40
0.746252415354854
40
0.775185865472815
40
0.775185865472815
40
0.804119315590776
40
0.804119315590776
40
0.833052765708737
40
0.833052765708737
40
0.861986215826697
40
0.861986215826697
40
0.890919665944658
40
0.890919665944658
40
0.919853116062619
40
0.919853116062619
40
0.948786566180579
40
0.948786566180579
40
0.977720016298539
40
0.977720016298539
40
1
40
1
40
1
40
1
41
1
10
47.6657162955469
20
-2.36213070946158
30
0
41
1
10
47.4837819267623
20
-2.423014842486
30
0
41
1
10
47.3015579674875
20
-2.48082896460673
30
0
41
1
10
46.8892171628054
20
-2.60420435418729
30
0
41
1
10
46.6599228830634
20
-2.66759288391961
30
0
41
1
10
46.2014127682998
20
-2.78186716115533
30
0
41
1
10
45.9720297915009
20
-2.83301123899881
30
0
41
1
10
45.5129917112971
20
-2.92481267103767
30
0
41
1
10
45.2834561372528
20
-2.96535958928214
30
0
41
1
10
44.8238926862435
20
-3.03451679911527
30
0
41
1
10
44.5938562265267
20
-3.0628461269184
30
0
41
1
10
44.1347118665863
20
-3.1064130379649
30
0
41
1
10
43.9053874963628
20
-3.12163983456952
30
0
41
1
10
43.4472758957604
20
-3.13752828125044
30
0
41
1
10
43.2181028586332
20
-3.13779546691441
30
0
41
1
10
42.7585955892973
20
-3.1281571208074
30
0
41
1
10
42.528207109128
20
-3.11777572927497
30
0
41
1
10
42.0691315642238
20
-3.08307421113665
30
0
41
1
10
41.840202322507
20
-3.05814573944068
30
0
41
1
10
41.3815935726641
20
-2.99816883651187
30
0
41
1
10
41.1521658933614
20
-2.96255112668857
30
0
41
1
10
40.6931020249898
20
-2.87820532363929
30
0
41
1
10
40.4633364055867
20
-2.82888084111133
30
0
41
1
10
40.0038720850173
20
-2.71853004273024
30
0
41
1
10
39.7742087670061
20
-2.65878203159113
30
0
41
1
10
39.3152570640584
20
-2.52863961314398
30
0
41
1
10
39.0861747882332
20
-2.4577699501653
30
0
41
1
10
38.6274399804702
20
-2.30501575876022
30
0
41
1
10
38.3974645136355
20
-2.22425833548945
30
0
41
1
10
37.9372117113673
20
-2.05442069366612
30
0
41
1
10
37.7076354381177
20
-1.96517629960238
30
0
41
1
10
37.2492695947599
20
-1.77739882283177
30
0
41
1
10
37.0200260146157
20
-1.67974522855232
30
0
41
1
10
36.5610463448136
20
-1.47919732078194
30
0
41
1
10
36.3313822896001
20
-1.37588964308608
30
0
41
1
10
35.8717877081321
20
-1.16187568556441
30
0
41
1
10
35.6420537028773
20
-1.05183045229228
30
0
41
1
10
35.1828001815097
20
-0.830189464560249
30
0
41
1
10
34.9532791585169
20
-0.71786751342691
30
0
41
1
10
34.4946162090248
20
-0.489416103131276
30
0
41
1
10
34.2654867496229
20
-0.373187819684574
30
0
41
1
10
33.8057862205365
20
-0.140870630653041
30
0
41
1
10
33.5753631719128
20
-0.024447501951073
30
0
41
1
10
33.1160054829863
20
0.208124134306161
30
0
41
1
10
32.8870023729278
20
0.324786035594968
30
0
41
1
10
32.4284201473918
20
0.555065323980926
30
0
41
1
10
32.1988765340959
20
0.668941613860284
30
0
41
1
10
31.7393997777267
20
0.894135144833768
30
0
41
1
10
31.5093128168421
20
1.00591802740567
30
0
41
1
10
31.0500888926416
20
1.22372834206004
30
0
41
1
10
30.8205435408945
20
1.32965885581683
30
0
41
1
10
30.3615380545891
20
1.53627865155553
30
0
41
1
10
30.1322089772448
20
1.63678780978873
30
0
41
1
10
29.6735147119309
20
1.83067842087047
30
0
41
1
10
29.4434848514271
20
1.92352923003421
30
0
41
1
10
28.9833068532217
20
2.10185780861968
30
0
41
1
10
28.7535511489288
20
2.18695292638708
30
0
41
1
10
28.2950212589664
20
2.34751707282953
30
0
41
1
10
28.0659388504178
20
2.42206138724617
30
0
41
1
10
27.6068516227792
20
2.56225155348696
30
0
41
1
10
27.3770421291573
20
2.62768939663894
30
0
41
1
10
26.9169517694256
20
2.74737742287439
30
0
41
1
10
26.6876037204268
20
2.80060359073019
30
0
41
1
10
26.2286278683902
20
2.89586851777625
30
0
41
1
10
25.9991226541435
20
2.93823846806291
30
0
41
1
10
25.5402503776314
20
3.01070519897613
30
0
41
1
10
25.3110993381215
20
3.04009304476537
30
0
41
1
10
24.8514395537881
20
3.08574614955933
30
0
41
1
10
24.6210927403489
20
3.10294376679457
30
0
41
1
10
24.2144405008756
20
3.12233591165364
30
0
41
1
10
24.0378615982177
20
3.12665589553757
30
0
41
1
10
23.8613348192107
20
3.12674339152287
30
0
0
SPLINE
5
BE
100
AcDbEntity
8
1
62
256
6
ByLayer
370
18
48
1
60
0
100
AcDbSpline
70
4
71
3
72
10
73
6
40
0
40
0
40
0
40
0
40
0.0498780544564127
40
0.0498780544564127
40
1
40
1
40
1
40
1
41
1
10
8.61621766595766
20
-2.42935959665053
30
0
41
1
10
8.59213225647792
20
-2.43699683735349
30
0
41
1
10
8.56804907094727
20
-2.44457671685913
30
0
41
1
10
8.08524085849552
20
-2.59538011877916
30
0
41
1
10
7.62598735920244
20
-2.71818542897887
30
0
41
1
10
7.16580202696338
20
-2.81677236576235
30
0
0
SPLINE
5
BF
100
AcDbEntity
8
1
62
256
6
ByLayer
370
18
48
1
60
0
100
AcDbSpline
70
4
71
3
72
8
73
4
40
0
40
0
40
0
40
0
40
1
40
1
40
1
40
1
41
1
10
4.05193790576197
20
0.291714713972169
30
0
41
1
10
4.073208620727
20
0.263078802847133
30
0
41
1
10
4.10083674038677
20
0.238252126211364
30
0
41
1
10
4.13407974685146
20
0.220205912928464
30
0
0
SPLINE
5
C0
100
AcDbEntity
8
1
62
256
6
ByLayer
370
18
48
1
60
0
100
AcDbSpline
70
4
71
3
72
29
73
25
40
0
40
0
40
0
40
0
40
0.133319088851669
40
0.133319088851669
40
0.266638177703338
40
0.266638177703338
40
0.333297722129172
40
0.333297722129172
40
0.399957266555007
40
0.466616810980841
40
0.466616810980841
40
0.533276355406676
40
0.533276355406676
40
0.666595444258345
40
0.666595444258345
40
0.73325498868418
40
0.73325498868418
40
0.799914533110015
40
0.799914533110015
40
0.933233621961684
40
0.933233621961684
40
0.999893166387519
40
0.999893166387519
40
1
40
1
40
1
40
1
41
1
10
4.01811562283709
20
0.385896636446148
30
0
41
1
10
4.01815407425426
20
0.596732594198244
30
0
41
1
10
4.01818942073731
20
0.805833532373612
30
0
41
1
10
4.01825390576218
20
1.2069158221845
30
0
41
1
10
4.01828325602469
20
1.39993552319055
30
0
41
1
10
4.01832464034123
20
1.67799345882787
30
0
41
1
10
4.01833797451209
20
1.7686456664658
30
0
41
1
10
4.01836347746217
20
1.94231860677638
30
0
41
1
10
4.01838796403138
20
2.10936169133245
30
0
41
1
10
4.01841094111873
20
2.26334847700801
30
0
41
1
10
4.01843336734453
20
2.41072514188318
30
0
41
1
10
4.01844435487027
20
2.48141652494329
30
0
41
1
10
4.01847635906773
20
2.68091047441209
30
0
41
1
10
4.01849624947414
20
2.79604325214356
30
0
41
1
10
4.01852452721337
20
2.94275249948132
30
0
41
1
10
4.01853368412947
20
2.98729339978138
30
0
41
1
10
4.01855145121425
20
3.06741282105404
30
0
41
1
10
4.01856004188014
20
3.10286000951871
30
0
41
1
10
4.01858435485644
20
3.19345181388917
30
0
41
1
10
4.01859885536931
20
3.23390850989594
30
0
41
1
10
4.01861722560227
20
3.26473812351818
30
0
41
1
10
4.01862279879609
20
3.26999680382829
30
0
41
1
10
4.01862752942859
20
3.2700485094585
30
0
41
1
10
4.01862762140574
20
3.27004950525426
30
0
41
1
10
4.01862775367542
20
3.27005049656799
30
0
0
SPLINE
5
C1
100
AcDbEntity
8
1
62
256
6
ByLayer
370
18
48
1
60
0
100
AcDbSpline
70
4
71
3
72
26
73
22
40
0
40
0
40
0
40
0
40
0.0502220861354348
40
0.0502220861354348
40
0.208399771678856
40
0.208399771678856
40
0.287488614450568
40
0.287488614450568
40
0.327033035836424
40
0.327033035836424
40
0.36657745722228
40
0.36657745722228
40
0.68293282830913
40
0.68293282830913
40
0.762021671080843
40
0.762021671080843
40
0.841110513852555
40
0.841110513852555
40
0.999288199395976
40
0.999288199395976
40
1
40
1
40
1
40
1
41
1
10
19.2442315675034
20
2.22588543049207
30
0
41
1
10
19.408317419513
20
2.16408372775885
30
0
41
1
10
19.5721510643893
20
2.1000205255165
30
0
41
1
10
20.2514362484219
20
1.82558698633778
30
0
41
1
10
20.7655594504474
20
1.5964619340001
30
0
41
1
10
21.539618222594
20
1.22995456223714
30
0
41
1
10
21.7981444443493
20
1.10404198983531
30
0
41
1
10
22.1873489561751
20
0.910609619164603
30
0
41
1
10
22.3173180212328
20
0.84536773538656
30
0
41
1
10
22.5777803216887
20
0.713449621443601
30
0
41
1
10
22.7084524563056
20
0.646689903121199
30
0
41
1
10
23.8810415257257
20
0.0443834128707579
30
0
41
1
10
24.9063476508549
20
-0.50615850615219
30
0
41
1
10
26.2005389922109
20
-1.14771410404603
30
0
41
1
10
26.4600047618766
20
-1.27369686535869
30
0
41
1
10
26.9811408906568
20
-1.51919290783871
30
0
41
1
10
27.2423947124273
20
-1.63850295941455
30
0
41
1
10
28.0236418359222
20
-1.98143999394483
30
0
41
1
10
28.543758649931
20
-2.19101016741101
30
0
41
1
10
29.068137269212
20
-2.37672200135651
30
0
41
1
10
29.07048640682
20
-2.37755344591915
30
0
41
1
10
29.0728355458643
20
-2.37838437388584
30
0
0
SPLINE
5
C2
100
AcDbEntity
8
1
62
256
6
ByLayer
370
13
48
1
60
0
100
AcDbSpline
70
4
71
3
72
20
73
16
40
0
40
0
40
0
40
0
40
0.127541827350667
40
0.127541827350667
40
0.256241957568856
40
0.256241957568856
40
0.513642218005238
40
0.513642218005238
40
0.771042478441621
40
0.771042478441621
40
0.835392543550713
40
0.835392543550713
40
0.899742608659806
40
0.899742608659806
40
1
40
1
40
1
40
1
41
1
10
29.0728355460908
20
-2.37838437396601
30
0
41
1
10
29.3315014826348
20
-2.46987864342049
30
0
41
1
10
29.5901848320079
20
-2.55510948570182
30
0
41
1
10
30.1095763238077
20
-2.71231973435516
30
0
41
1
10
30.3691934076954
20
-2.78388841197079
30
0
41
1
10
31.1456968998621
20
-2.97540442030768
30
0
41
1
10
31.6601598434708
20
-3.07226514099244
30
0
41
1
10
32.6894680229516
20
-3.20079668020136
30
0
41
1
10
33.2044644847321
20
-3.23231969102295
30
0
41
1
10
33.8525937857955
20
-3.22899802685532
30
0
41
1
10
33.9824493554139
20
-3.22620631311867
30
0
41
1
10
34.2427593653187
20
-3.21631549398188
30
0
41
1
10
34.3734065615647
20
-3.20919154455305
30
0
41
1
10
34.7065821953591
20
-3.18552846056156
30
0
41
1
10
34.908774189738
20
-3.16597143317179
30
0
41
1
10
35.1104652088234
20
-3.1414664328413
30
0
0
SPLINE
5
C3
100
AcDbEntity
8
1
62
256
6
ByLayer
370
18
48
1
60
0
100
AcDbSpline
70
4
71
3
72
66
73
62
40
0
40
0
40
0
40
0
40
0.0653081822200911
40
0.0653081822200911
40
0.0979622733301366
40
0.0979622733301366
40
0.130616364440182
40
0.130616364440182
40
0.163270455550228
40
0.163270455550228
40
0.195924546660273
40
0.195924546660273
40
0.228578637770319
40
0.228578637770319
40
0.261232728880364
40
0.261232728880364
40
0.29388681999041
40
0.29388681999041
40
0.326540911100456
40
0.326540911100456
40
0.359195002210501
40
0.359195002210501
40
0.391849093320547
40
0.391849093320547
40
0.424503184430592
40
0.424503184430592
40
0.457157275540638
40
0.457157275540638
40
0.489811366650683
40
0.489811366650683
40
0.522465457760729
40
0.522465457760729
40
0.555119548870774
40
0.555119548870774
40
0.58777363998082
40
0.58777363998082
40
0.620427731090865
40
0.620427731090865
40
0.653081822200911
40
0.653081822200911
40
0.685735913310957
40
0.685735913310957
40
0.718390004421002
40
0.718390004421002
40
0.751044095531048
40
0.751044095531048
40
0.783698186641093
40
0.783698186641093
40
0.816352277751139
40
0.816352277751139
40
0.849006368861184
40
0.849006368861184
40
0.88166045997123
40
0.88166045997123
40
0.914314551081275
40
0.914314551081275
40
0.946968642191321
40
0.946968642191321
40
0.979622733301367
40
0.979622733301367
40
1
40
1
40
1
40
1
41
1
10
7.16580202696358
20
2.81677236576226
30
0
41
1
10
7.62606990671324
20
2.71816774456852
30
0
41
1
10
8.08536709639085
20
2.59534500938631
30
0
41
1
10
8.77347333446957
20
2.38041102861058
30
0
41
1
10
9.00298313247686
20
2.3034987647016
30
0
41
1
10
9.46327337766598
20
2.14041618213557
30
0
41
1
10
9.69378385392088
20
2.05429518328674
30
0
41
1
10
10.153233185271
20
1.87419525826559
30
0
41
1
10
10.38244674537
20
1.77986907852176
30
0
41
1
10
10.8416210087525
20
1.5848254762108
30
0
41
1
10
11.071371127667
20
1.48391899362815
30
0
41
1
10
11.5310512050372
20
1.27603734208751
30
0
41
1
10
11.7611606815765
20
1.16829251937679
30
0
41
1
10
12.2209855628721
20
0.949651958891195
30
0
41
1
10
12.4507506686311
20
0.838633004168997
30
0
41
1
10
12.9098983454323
20
0.613406589385704
30
0
41
1
10
13.1390934154173
20
0.498865384060565
30
0
41
1
10
13.5981905595074
20
0.267978628771857
30
0
41
1
10
13.8285098468663
20
0.152112807709216
30
0
41
1
10
14.2890347141
20
-0.0800971695311432
30
0
41
1
10
14.5187545403408
20
-0.196455446564556
30
0
41
1
10
14.977543113504
20
-0.428203713321409
30
0
41
1
10
15.2070634334788
20
-0.542706741137948
30
0
41
1
10
15.666484069252
20
-0.769134435838765
30
0
41
1
10
15.8962910193287
20
-0.881286849174217
30
0
41
1
10
16.3561973042595
20
-1.10302291238815
30
0
41
1
10
16.5861463680739
20
-1.21124091534028
30
0
41
1
10
17.04562208441
20
-1.42116452918083
30
0
41
1
10
17.2752169493555
20
-1.52332041139451
30
0
41
1
10
17.7339847851023
20
-1.72274575667419
30
0
41
1
10
17.9632105005471
20
-1.81911297750395
30
0
41
1
10
18.4231876618581
20
-2.00238160944807
30
0
41
1
10
18.6537657582649
20
-2.09004746091819
30
0
41
1
10
19.1134197093842
20
-2.25768225571309
30
0
41
1
10
19.3425727794983
20
-2.33780032925046
30
0
41
1
10
19.8015498696639
20
-2.48490948430091
30
0
41
1
10
20.0312567459512
20
-2.55317433735436
30
0
41
1
10
20.4909079727352
20
-2.68041191243117
30
0
41
1
10
20.7210005640596
20
-2.7400679820127
30
0
41
1
10
21.1804937927808
20
-2.84483364411426
30
0
41
1
10
21.4101782655267
20
-2.89024012312419
30
0
41
1
10
21.8692743321693
20
-2.97038707175753
30
0
41
1
10
22.0986024253911
20
-3.00549691183227
30
0
41
1
10
22.5572278821388
20
-3.06316350330664
30
0
41
1
10
22.7872652485622
20
-3.08410048685099
30
0
41
1
10
23.2477019928332
20
-3.11374455752451
30
0
41
1
10
23.4775326467323
20
-3.12262095853259
30
0
41
1
10
23.9363169149406
20
-3.12885421911776
30
0
41
1
10
24.1655436691865
20
-3.12473819926654
30
0
41
1
10
24.6248699002307
20
-3.10269191994675
30
0
41
1
10
24.8547578755331
20
-3.08547571584739
30
0
41
1
10
25.3147900465202
20
-3.03966643832794
30
0
41
1
10
25.5443333440661
20
-3.01013595968823
30
0
41
1
10
26.0034427790244
20
-2.93747926536233
30
0
41
1
10
26.2329516344328
20
-2.8950339487711
30
0
41
1
10
26.6917379291244
20
-2.79968145414074
30
0
41
1
10
26.9207954736409
20
-2.74643670572806
30
0
41
1
10
27.3804556679204
20
-2.6267412707017
30
0
41
1
10
27.6108863459208
20
-2.56107783534949
30
0
41
1
10
27.9839951250484
20
-2.4470470144384
30
0
41
1
10
28.1271483403904
20
-2.40150031566571
30
0
41
1
10
28.2702372923917
20
-2.35392109031463
30
0
0
SPLINE
5
C4
100
AcDbEntity
8
1
62
256
6
ByLayer
370
18
48
1
60
0
100
AcDbSpline
70
4
71
3
72
28
73
24
40
0
40
0
40
0
40
0
40
0.0528630601268075
40
0.0528630601268075
40
0.138966418297098
40
0.138966418297098
40
0.311173134637678
40
0.311173134637678
40
0.397276492807969
40
0.397276492807969
40
0.483379850978259
40
0.483379850978259
40
0.569483209148549
40
0.569483209148549
40
0.655586567318839
40
0.655586567318839
40
0.741689925489129
40
0.741689925489129
40
0.827793283659419
40
0.827793283659419
40
0.913896641829709
40
0.913896641829709
40
1
40
1
40
1
40
1
41
1
10
43.2561690969768
20
3.13613642227071
30
0
41
1
10
43.397074461367
20
3.13642542629051
30
0
41
1
10
43.5378015835554
20
3.13441597214637
30
0
41
1
10
43.907544153653
20
3.12151994860773
30
0
41
1
10
44.1368195061531
20
3.10625023409025
30
0
41
1
10
44.8251508036253
20
3.04082438656985
30
0
41
1
10
45.2851088244373
20
2.97044018364437
30
0
41
1
10
45.9737736606104
20
2.83263533510726
30
0
41
1
10
46.2031433177553
20
2.7814652898625
30
0
41
1
10
46.6615155375311
20
2.66716630039127
30
0
41
1
10
46.8906852089256
20
2.60378487511107
30
0
41
1
10
47.3505078816268
20
2.46616291002286
30
0
41
1
10
47.5807787889831
20
2.39199901667681
30
0
41
1
10
48.0398398925499
20
2.23415648384037
30
0
41
1
10
48.2688219949358
20
2.15006675844973
30
0
41
1
10
48.7275711415044
20
1.9742409207978
30
0
41
1
10
48.9571423192718
20
1.88234527678435
30
0
41
1
10
49.4165893092435
20
1.69082707205334
30
0
41
1
10
49.6465227888489
20
1.59067281493955
30
0
41
1
10
50.1055019483791
20
1.38510047724168
30
0
41
1
10
50.3348734378136
20
1.27976064041209
30
0
41
1
10
50.7932308651646
20
1.06422408469231
30
0
41
1
10
51.0221051202363
20
0.953742796190824
30
0
41
1
10
51.251194989154
20
0.841050093904556
30
0
0
SPLINE
5
C5
100
AcDbEntity
8
1
62
256
6
ByLayer
370
18
48
1
60
0
100
AcDbSpline
70
4
71
3
72
19
73
15
40
0
40
0
40
0
40
0
40
0.125000000000001
40
0.125000000000001
40
0.250000000000002
40
0.250000000000002
40
0.375000000000004
40
0.375000000000004
40
0.500000000000005
40
0.500000000000005
40
0.750000000000007
40
0.750000000000007
40
0.875000000000003
40
1
40
1
40
1
40
1
41
1
10
54.5406524621839
20
-1.63469228762142
30
0
41
1
10
54.5159872510774
20
-1.7014258586689
30
0
41
1
10
54.4912322820257
20
-1.76807776511458
30
0
41
1
10
54.4416801272576
20
-1.90134316795658
30
0
41
1
10
54.416852902558
20
-1.96792933394127
30
0
41
1
10
54.3670058278188
20
-2.10092640931745
30
0
41
1
10
54.3419714214426
20
-2.16737979712855
30
0
41
1
10
54.2917161767719
20
-2.29986644936852
30
0
41
1
10
54.2665209707607
20
-2.36571994414015
30
0
41
1
10
54.1908271340224
20
-2.56265620902411
30
0
41
1
10
54.1403064513247
20
-2.69361178052972
30
0
41
1
10
54.0640468359865
20
-2.88728456156338
30
0
41
1
10
54.0129814572018
20
-3.0150982558695
30
0
41
1
10
53.9617780755216
20
-3.14211593169492
30
0
41
1
10
53.9360882724647
20
-3.20511652699062
30
0
0
SPLINE
5
C6
100
AcDbEntity
8
1
62
256
6
ByLayer
370
18
48
1
60
0
100
AcDbSpline
70
4
71
3
72
12
73
8
40
0
40
0
40
0
40
0
40
0.249999999999999
40
0.249999999999999
40
0.499999999999997
40
0.499999999999997
40
1
40
1
40
1
40
1
41
1
10
4.25158083492266
20
-3.10484202574489
30
0
41
1
10
4.48618540762993
20
-3.11843391797933
30
0
41
1
10
4.72409879500987
20
-3.12013608652049
30
0
41
1
10
5.20507233528954
20
-3.10375893135296
30
0
41
1
10
5.44876727644117
20
-3.08559448160594
30
0
41
1
10
6.18231465612962
20
-3.00673180020047
30
0
41
1
10
6.67229534784767
20
-2.92177049235642
30
0
41
1
10
7.16576154703395
20
-2.81680203177368
30
0
0
SPLINE
5
C7
100
AcDbEntity
8
1
62
256
6
ByLayer
370
18
48
1
60
0
100
AcDbSpline
70
4
71
3
72
10
73
6
40
0
40
0
40
0
40
0
40
0.958775206928131
40
0.958775206928131
40
1
40
1
40
1
40
1
41
1
10
53.8656037008374
20
3.27162792502173
30
0
41
1
10
53.6055007853378
20
3.2897012584782
30
0
41
1
10
53.3454898932262
20
3.29896961874681
30
0
41
1
10
53.0740242420431
20
3.29947548891772
30
0
41
1
10
53.0628317954813
20
3.29948003485245
30
0
41
1
10
53.0516381063162
20
3.29946827817309
30
0
0
SPLINE
5
C8
100
AcDbEntity
8
1
62
256
6
ByLayer
370
18
48
1
60
0
100
AcDbSpline
70
4
71
3
72
46
73
42
40
0
40
0
40
0
40
0
40
0.012226626473697
40
0.012226626473697
40
0.0305302566304013
40
0.0305302566304013
40
0.0488338867871056
40
0.0488338867871056
40
0.0854411471005142
40
0.0854411471005142
40
0.158655667727333
40
0.158655667727333
40
0.231870188354152
40
0.231870188354152
40
0.268477448667561
40
0.268477448667561
40
0.30508470898097
40
0.30508470898097
40
0.378299229607789
40
0.378299229607789
40
0.414906489921199
40
0.414906489921199
40
0.451513750234607
40
0.451513750234607
40
0.524728270861425
40
0.524728270861425
40
0.597942791488243
40
0.597942791488243
40
0.634550051801652
40
0.634550051801652
40
0.671157312115061
40
0.671157312115061
40
0.744371832741878
40
0.744371832741878
40
0.817586353368695
40
0.817586353368695
40
0.854193613682104
40
0.854193613682104
40
0.890800873995513
40
0.890800873995513
40
1
40
1
40
1
40
1
41
1
10
35.4625056867567
20
-3.14915215913501
30
0
41
1
10
35.3757703712912
20
-3.16242131616352
30
0
41
1
10
35.2889252899679
20
-3.1747766781601
30
0
41
1
10
35.0717586026271
20
-3.20330919553391
30
0
41
1
10
34.9410672060876
20
-3.21834678626442
30
0
41
1
10
34.6803950849899
20
-3.24400531717197
30
0
41
1
10
34.5503514786049
20
-3.2546422190826
30
0
41
1
10
34.1609467169193
20
-3.28001994240574
30
0
41
1
10
33.9023416722772
20
-3.28823163729095
30
0
41
1
10
33.1281301057303
20
-3.28699486578452
30
0
41
1
10
32.6139194797394
20
-3.25170844736792
30
0
41
1
10
31.5829046721246
20
-3.11412487722674
30
0
41
1
10
31.0659209263454
20
-3.01187969481947
30
0
41
1
10
30.2829335787481
20
-2.81033603119789
30
0
41
1
10
30.0224673613507
20
-2.73555292274415
30
0
41
1
10
29.5040010899844
20
-2.57274953035889
30
0
41
1
10
29.2456616279113
20
-2.4845860822893
30
0
41
1
10
28.4718849525939
20
-2.20185326124468
30
0
41
1
10
27.9576786501104
20
-1.98905973628189
30
0
41
1
10
27.1837007548287
20
-1.64103346715274
30
0
41
1
10
26.9252250349105
20
-1.52028485562369
30
0
41
1
10
26.4065133588851
20
-1.27050432082217
30
0
41
1
10
26.1457232317316
20
-1.14115810057703
30
0
41
1
10
25.3630364801354
20
-0.745018912571965
30
0
41
1
10
24.8461213343418
20
-0.472729559838683
30
0
41
1
10
23.8149276878454
20
0.0745445827679134
30
0
41
1
10
23.300463792906
20
0.349173769772221
30
0
41
1
10
22.5258003426475
20
0.753632900958792
30
0
41
1
10
22.2670024586231
20
0.887047688117207
30
0
41
1
10
21.7473362842537
20
1.1493090347679
30
0
41
1
10
21.485660948909
20
1.27865837932129
30
0
41
1
10
20.7044237448423
20
1.6536679832206
30
0
41
1
10
20.1880325006912
20
1.88633189048409
30
0
41
1
10
19.157013469744
20
2.30684410252985
30
0
41
1
10
18.6425323606176
20
2.49488261817285
30
0
41
1
10
17.86675856181
20
2.73594068671656
30
0
41
1
10
17.6075712766364
20
2.80955714166359
30
0
41
1
10
17.0869793500506
20
2.94196571845211
30
0
41
1
10
16.8251325663763
20
3.0007675386214
30
0
41
1
10
15.7894255446965
20
3.20093749827043
30
0
41
1
10
15.0229305984277
20
3.27664143541719
30
0
41
1
10
14.2537521796757
20
3.27612946768389
30
0
0
SPLINE
5
C9
100
AcDbEntity
8
1
62
256
6
ByLayer
370
18
48
1
60
0
100
AcDbSpline
70
4
71
3
72
44
73
40
40
0
40
0
40
0
40
0
40
0.0768521350448593
40
0.0768521350448593
40
0.11527820256729
40
0.11527820256729
40
0.15370427008972
40
0.15370427008972
40
0.230556405134581
40
0.230556405134581
40
0.268982472657012
40
0.268982472657012
40
0.307408540179442
40
0.307408540179442
40
0.461112810269159
40
0.461112810269159
40
0.499538877791588
40
0.499538877791588
40
0.518751911552803
40
0.518751911552803
40
0.537964945314017
40
0.537964945314017
40
0.614817080358876
40
0.614817080358876
40
0.691669215403734
40
0.691669215403734
40
0.730095282926164
40
0.730095282926164
40
0.768521350448593
40
0.768521350448593
40
0.92222562053831
40
0.92222562053831
40
0.941438654299524
40
0.941438654299524
40
0.960651688060738
40
0.960651688060738
40
0.999077755583168
40
0.999077755583168
40
1
40
1
40
1
40
1
41
1
10
53.8656037008372
20
-3.27162792502176
30
0
41
1
10
53.3447381174167
20
-3.30782043504061
30
0
41
1
10
52.8248661005043
20
-3.30872757187998
30
0
41
1
10
52.0419442640326
20
-3.2573732832708
30
0
41
1
10
51.7813533981201
20
-3.23148039466531
30
0
41
1
10
51.26256140698
20
-3.1630627010741
30
0
41
1
10
51.0039531331411
20
-3.12052614204981
30
0
41
1
10
50.2294179995277
20
-2.96884847320564
30
0
41
1
10
49.7145021332147
20
-2.83578302833735
30
0
41
1
10
48.9388563834209
20
-2.59316054137361
30
0
41
1
10
48.6797885104595
20
-2.50509218429454
30
0
41
1
10
48.1596941150107
20
-2.31543076169481
30
0
41
1
10
47.8980235780567
20
-2.21355961626145
30
0
41
1
10
46.5980255682374
20
-1.67949482660555
30
0
41
1
10
45.5751771999608
20
-1.16931120447296
30
0
41
1
10
44.2815878447178
20
-0.492354927632789
30
0
41
1
10
44.0221306414552
20
-0.35499672659202
30
0
41
1
10
43.6312522680752
20
-0.147040784936706
30
0
41
1
10
43.5004869984492
20
-0.0773425778715193
30
0
41
1
10
43.2398908188957
20
0.0616757955555158
30
0
41
1
10
43.1099166955586
20
0.131085399380197
30
0
41
1
10
42.4612210661659
20
0.476780894876669
30
0
41
1
10
41.9458171489119
20
0.748617860831644
30
0
41
1
10
40.9156683081996
20
1.271188122225
30
0
41
1
10
40.400685883256
20
1.52149323016701
30
0
41
1
10
39.6237028465894
20
1.87202786328075
30
0
41
1
10
39.3638248007906
20
1.98449414668585
30
0
41
1
10
38.8414099325625
20
2.19910544590996
30
0
41
1
10
38.5812126116055
20
2.30036367766266
30
0
41
1
10
37.2856036492024
20
2.77369027366538
30
0
41
1
10
36.2621265392218
20
3.04497389866222
30
0
41
1
10
35.0943351106492
20
3.20056226634733
30
0
41
1
10
34.9643532210872
20
3.21577352280704
30
0
41
1
10
34.703799993492
20
3.24193644257986
30
0
41
1
10
34.5730185703276
20
3.25289807904014
30
0
41
1
10
34.1818048176804
20
3.2791319736717
30
0
41
1
10
33.9222168340008
20
3.28782054905
30
0
41
1
10
33.6571767982943
20
3.28783447430175
30
0
41
1
10
33.6509652023998
20
3.28782980823007
30
0
41
1
10
33.6447540044815
20
3.28782015192823
30
0
0
SPLINE
5
CA
100
AcDbEntity
8
1
62
256
6
ByLayer
370
18
48
1
60
0
100
AcDbSpline
70
4
71
3
72
26
73
22
40
0
40
0
40
0
40
0
40
0.220324825480317
40
0.220324825480317
40
0.285297756690291
40
0.285297756690291
40
0.317784222295277
40
0.317784222295277
40
0.350270687900265
40
0.350270687900265
40
0.480216550320211
40
0.480216550320211
40
0.610162412740158
40
0.610162412740158
40
0.675135343950131
40
0.675135343950131
40
0.740108275160104
40
0.740108275160104
40
0.870054137580052
40
0.870054137580052
40
1
40
1
40
1
40
1
41
1
10
16.10209430712
20
-3.13183170069877
30
0
41
1
10
15.2207206255591
20
-3.26901490917012
30
0
41
1
10
14.3505825718766
20
-3.30870782525218
30
0
41
1
10
13.2156804249875
20
-3.23207481003072
30
0
41
1
10
12.9567425224696
20
-3.20603708720301
30
0
41
1
10
12.5668430350893
20
-3.15414651389136
30
0
41
1
10
12.4366252683751
20
-3.13471371140562
30
0
41
1
10
12.1755786301257
20
-3.09158532133227
30
0
41
1
10
12.0446838871239
20
-3.06786972885118
30
0
41
1
10
11.3926966813437
20
-2.93957201296172
30
0
41
1
10
10.8758005759633
20
-2.80521295148506
30
0
41
1
10
9.8438722742622
20
-2.48192116791125
30
0
41
1
10
9.32884744350145
20
-2.29301371132504
30
0
41
1
10
8.55258306733276
20
-1.97532114665259
30
0
41
1
10
8.29322950467278
20
-1.86366736879472
30
0
41
1
10
7.7723743107085
20
-1.63010268279678
30
0
41
1
10
7.51032256623756
20
-1.50792299287437
30
0
41
1
10
6.72854893560262
20
-1.13224529441894
30
0
41
1
10
6.21070660735114
20
-0.868513905065385
30
0
41
1
10
5.17410169117741
20
-0.328695935501997
30
0
41
1
10
4.65532595816677
20
-0.0526558822890024
30
0
41
1
10
4.13291415243853
20
0.223589779645266
30
0
0
SPLINE
5
CB
100
AcDbEntity
8
1
62
256
6
ByLayer
370
13
48
1
60
0
100
AcDbSpline
70
4
71
3
72
10
73
6
40
0
40
0
40
0
40
0
40
0.5
40
0.5
40
1
40
1
40
1
40
1
41
1
10
4.01811562283712
20
0.385896636446148
30
0
41
1
10
4.02871571559106
20
0.368056850473806
30
0
41
1
10
4.04355834700502
20
0.351697386736817
30
0
41
1
10
4.08287249864352
20
0.322170507325012
30
0
41
1
10
4.10643221290718
20
0.309733231729297
30
0
41
1
10
4.13407974685146
20
0.300179613210844
30
0
0
SPLINE
5
CC
100
AcDbEntity
8
1
62
256
6
ByLayer
370
18
48
1
60
0
100
AcDbSpline
70
4
71
3
72
8
73
4
40
0
40
0
40
0
40
0
40
1
40
1
40
1
40
1
41
1
10
53.8656037008376
20
-3.27162792501261
30
0
41
1
10
53.8729640903196
20
-3.25189961899562
30
0
41
1
10
53.8803176332689
20
-3.23216342698001
30
0
41
1
10
53.8876640574858
20
-3.21242010545146
30
0
0
SPLINE
5
CD
100
AcDbEntity
8
1
62
256
6
ByLayer
370
18
48
1
60
0
100
AcDbSpline
70
4
71
3
72
8
73
4
40
0
40
0
40
0
40
0
40
1
40
1
40
1
40
1
41
1
10
4.01862772823134
20
-3.27004958978645
30
0
41
1
10
4.01863248297676
20
-3.27001580593404
30
0
41
1
10
4.01863647193804
20
-3.26492253696708
30
0
41
1
10
4.01863959572151
20
-3.25491160696197
30
0
0
SPLINE
5
CE
100
AcDbEntity
8
1
62
256
6
ByLayer
370
18
48
1
60
0
100
AcDbSpline
70
4
71
3
72
18
73
14
40
0
40
0
40
0
40
0
40
0.125000000000003
40
0.125000000000003
40
0.250000000000007
40
0.250000000000007
40
0.500000000000007
40
0.500000000000007
40
0.625000000000008
40
0.625000000000008
40
0.750000000000008
40
0.750000000000008
40
1
40
1
40
1
40
1
41
1
10
51.2511949891538
20
0.8410500939043
30
0
41
1
10
51.2986487813368
20
0.70965957640297
30
0
41
1
10
51.3547915447734
20
0.5805521607316
30
0
41
1
10
51.4816105237873
20
0.326156118771564
30
0
41
1
10
51.5525427757919
20
0.200499912859669
30
0
41
1
10
51.7832719338896
20
-0.168991340731054
30
0
41
1
10
51.9551817226516
20
-0.397352399842475
30
0
41
1
10
52.2321579346988
20
-0.720913360742458
30
0
41
1
10
52.3279098919285
20
-0.825683247930016
30
0
41
1
10
52.5246402286942
20
-1.0286751052484
30
0
41
1
10
52.6247574279626
20
-1.12603177772314
30
0
41
1
10
52.9297009293254
20
-1.40725320488849
30
0
41
1
10
53.1390577858075
20
-1.58041430964809
30
0
41
1
10
53.3536097529782
20
-1.74130171865059
30
0
0
SPLINE
5
CF
100
AcDbEntity
8
1
62
256
6
ByLayer
370
18
48
1
60
0
100
AcDbSpline
70
4
71
3
72
68
73
64
40
0
40
0
40
0
40
0
40
0.0624902346161477
40
0.0624902346161477
40
0.0937353519242215
40
0.0937353519242215
40
0.124980469232295
40
0.124980469232295
40
0.156225586540369
40
0.156225586540369
40
0.187470703848443
40
0.187470703848443
40
0.218715821156517
40
0.218715821156517
40
0.249960938464591
40
0.249960938464591
40
0.281206055772665
40
0.281206055772665
40
0.312451173080738
40
0.312451173080738
40
0.343696290388812
40
0.343696290388812
40
0.374941407696886
40
0.374941407696886
40
0.40618652500496
40
0.40618652500496
40
0.437431642313034
40
0.437431642313034
40
0.499921876929182
40
0.499921876929182
40
0.531166994237255
40
0.531166994237255
40
0.562412111545329
40
0.562412111545329
40
0.593657228853403
40
0.593657228853403
40
0.624902346161477
40
0.624902346161477
40
0.656147463469551
40
0.656147463469551
40
0.687392580777625
40
0.687392580777625
40
0.718637698085699
40
0.718637698085699
40
0.749882815393772
40
0.749882815393772
40
0.781127932701846
40
0.781127932701846
40
0.81237305000992
40
0.81237305000992
40
0.843618167317994
40
0.843618167317994
40
0.874863284626068
40
0.874863284626068
40
0.906108401934142
40
0.906108401934142
40
0.937353519242215
40
0.937353519242215
40
0.968598636550289
40
0.968598636550289
40
0.999843753858363
40
0.999843753858363
40
1
40
1
40
1
40
1
41
1
10
12.1230996634936
20
3.17743920654482
30
0
41
1
10
12.5588999368051
20
3.23427949030469
30
0
41
1
10
12.9956482468278
20
3.26598080255289
30
0
41
1
10
13.6483595481667
20
3.27786382410582
30
0
41
1
10
13.8656517544627
20
3.2756481702599
30
0
41
1
10
14.3022681976366
20
3.25906109166337
30
0
41
1
10
14.5211284271392
20
3.24471528743581
30
0
41
1
10
14.9571889661642
20
3.20395647732053
30
0
41
1
10
15.1742728334417
20
3.17728942354398
30
0
41
1
10
15.6094028330807
20
3.11254097203059
30
0
41
1
10
15.8274404309192
20
3.07456794168226
30
0
41
1
10
16.2638039511298
20
2.98715789902397
30
0
41
1
10
16.4823213617694
20
2.93753743524488
30
0
41
1
10
16.9177738321223
20
2.82688169048967
30
0
41
1
10
17.1356193141959
20
2.76662222611665
30
0
41
1
10
17.5714519877339
20
2.63649674773885
30
0
41
1
10
17.7893682946804
20
2.56656714391124
30
0
41
1
10
18.2246179101294
20
2.41608755238406
30
0
41
1
10
18.4421836981172
20
2.33556494353525
30
0
41
1
10
18.8790991210689
20
2.16764750193067
30
0
41
1
10
19.0973693216723
20
2.07999428133664
30
0
41
1
10
19.5330335397991
20
1.89660789139933
30
0
41
1
10
19.750020969426
20
1.80019747269162
30
0
41
1
10
20.1851830879276
20
1.60238514580476
30
0
41
1
10
20.4033289233535
20
1.50100202337833
30
0
41
1
10
20.8401006657203
20
1.29225407513661
30
0
41
1
10
21.0584408401561
20
1.18476069670021
30
0
41
1
10
21.7108234365606
20
0.854970295509474
30
0
41
1
10
22.1469654682278
20
0.631508013422462
30
0
41
1
10
22.8002656972327
20
0.285930752450639
30
0
41
1
10
23.0182471924203
20
0.169022790790763
30
0
41
1
10
23.4545260897089
20
-0.0620179857156415
30
0
41
1
10
23.6725738882094
20
-0.177039481592715
30
0
41
1
10
24.10798262395
20
-0.407043118018635
30
0
41
1
10
24.324936411109
20
-0.522780613161217
30
0
41
1
10
24.7602610307888
20
-0.750239322419731
30
0
41
1
10
24.9787764588694
20
-0.862153294028303
30
0
41
1
10
25.4156354386532
20
-1.08292973190967
30
0
41
1
10
25.6334137648952
20
-1.19176671772007
30
0
41
1
10
26.067980880329
20
-1.40565920277822
30
0
41
1
10
26.2856053299172
20
-1.50926849754214
30
0
41
1
10
26.7213643835002
20
-1.71026670405968
30
0
41
1
10
26.9394384612474
20
-1.80776177511478
30
0
41
1
10
27.3754008185255
20
-1.99751459924428
30
0
41
1
10
27.5930980097558
20
-2.08930703237374
30
0
41
1
10
28.0288820350704
20
-2.26251495407732
30
0
41
1
10
28.2467831257991
20
-2.34469760382368
30
0
41
1
10
28.682098226224
20
-2.50089731444507
30
0
41
1
10
28.8991073522601
20
-2.57534803892676
30
0
41
1
10
29.3347593117899
20
-2.71329949048956
30
0
41
1
10
29.5535534984239
20
-2.77699713990273
30
0
41
1
10
29.9897946247082
20
-2.89389222439803
30
0
41
1
10
30.2073570505218
20
-2.94725807714195
30
0
41
1
10
30.6417054615007
20
-3.0432503968967
30
0
41
1
10
30.8593285934849
20
-3.0852424869889
30
0
41
1
10
31.2952802591787
20
-3.15765742710252
30
0
41
1
10
31.5138026199935
20
-3.18815396492997
30
0
41
1
10
31.949643060512
20
-3.23747646239354
30
0
41
1
10
32.1668456029637
20
-3.25611755273113
30
0
41
1
10
32.602294890849
20
-3.28089354124094
30
0
41
1
10
32.8201255204438
20
-3.28721024257823
30
0
41
1
10
33.038898233945
20
-3.28746078243415
30
0
41
1
10
33.0399867841105
20
-3.28746187447501
30
0
41
1
10
33.0410753206718
20
-3.28746281193196
30
0
0
SPLINE
5
D0
100
AcDbEntity
8
1
62
256
6
ByLayer
370
18
48
1
60
0
100
AcDbSpline
70
4
71
3
72
26
73
22
40
0
40
0
40
0
40
0
40
0.0625974069584707
40
0.0625974069584707
40
0.166753250629751
40
0.166753250629751
40
0.270909094301032
40
0.270909094301032
40
0.375064937972313
40
0.375064937972313
40
0.479220781643595
40
0.479220781643595
40
0.583376625314876
40
0.583376625314876
40
0.687532468986157
40
0.687532468986157
40
0.791688312657438
40
0.791688312657438
40
0.895844156328719
40
0.895844156328719
40
1
40
1
40
1
40
1
41
1
10
47.66693331695
20
2.3566336690013
30
0
41
1
10
47.7976968470127
20
2.40530046628359
30
0
41
1
10
47.9285150217252
20
2.45228293699918
30
0
41
1
10
48.276962182556
20
2.57323435082819
30
0
41
1
10
48.4944474561507
20
2.6445323975374
30
0
41
1
10
48.9294618510586
20
2.77788806216572
30
0
41
1
10
49.1477338770577
20
2.83900641255985
30
0
41
1
10
49.5834416443281
20
2.95005884659318
30
0
41
1
10
49.8011130437579
20
3.00015037939636
30
0
41
1
10
50.235506078457
20
3.08974503114734
30
0
41
1
10
50.4523886463801
20
3.12903782710333
30
0
41
1
10
50.8880119639299
20
3.19517312930682
30
0
41
1
10
51.1065998107312
20
3.22235356473638
30
0
41
1
10
51.5424032187022
20
3.26479806998211
30
0
41
1
10
51.7593161644762
20
3.28011991012104
30
0
41
1
10
52.1941188622067
20
3.29818410344043
30
0
41
1
10
52.4119525300307
20
3.30105368794168
30
0
41
1
10
52.84783720928
20
3.29464557753832
30
0
41
1
10
53.0660180702005
20
3.28530311667157
30
0
41
1
10
53.5008054880628
20
3.25412747140004
30
0
41
1
10
53.7183944307226
20
3.23253770129716
30
0
41
1
10
53.9360882724481
20
3.20511652700671
30
0
0
SPLINE
5
D1
100
AcDbEntity
8
1
62
256
6
ByLayer
370
18
48
1
60
0
100
AcDbSpline
70
4
71
3
72
19
73
15
40
0
40
0
40
0
40
0
40
0.124999999999999
40
0.124999999999999
40
0.249999999999997
40
0.249999999999997
40
0.374999999999996
40
0.374999999999996
40
0.499999999999995
40
0.499999999999995
40
0.749999999999993
40
0.749999999999993
40
0.874999999999997
40
1
40
1
40
1
40
1
41
1
10
54.5406524621839
20
1.63469228762142
30
0
41
1
10
54.5159872510771
20
1.70142585866955
30
0
41
1
10
54.4912322820252
20
1.76807776511589
30
0
41
1
10
54.4416801272565
20
1.90134316795923
30
0
41
1
10
54.4168529025569
20
1.96792933394457
30
0
41
1
10
54.3670058278171
20
2.10092640932203
30
0
41
1
10
54.3419714214407
20
2.16737979713378
30
0
41
1
10
54.2917161767695
20
2.29986644937503
30
0
41
1
10
54.2665209707581
20
2.36571994414729
30
0
41
1
10
54.1908271340189
20
2.56265620903315
30
0
41
1
10
54.1403064513207
20
2.69361178053998
30
0
41
1
10
54.0640468359816
20
2.8872845615754
30
0
41
1
10
54.0129814534229
20
3.01509823411533
30
0
41
1
10
53.9617780755157
20
3.14211593170924
30
0
41
1
10
53.9360882724586
20
3.20511652700549
30
0
0
SPLINE
5
D2
100
AcDbEntity
8
1
62
256
6
ByLayer
370
18
48
1
60
0
100
AcDbSpline
70
4
71
3
72
8
73
4
40
0
40
0
40
0
40
0
40
1
40
1
40
1
40
1
41
1
10
4.05193790576311
20
0.291714713971316
30
0
41
1
10
4.03095207266361
20
0.318858109649113
30
0
41
1
10
4.01810937804598
20
0.351655334515811
30
0
41
1
10
4.01811562283709
20
0.385896636444926
30
0
0
SPLINE
5
D3
100
AcDbEntity
8
1
62
256
6
ByLayer
370
18
48
1
60
0
100
AcDbSpline
70
4
71
3
72
16
73
12
40
0
40
0
40
0
40
0
40
0.0443937103158579
40
0.0443937103158579
40
0.234111036621996
40
0.234111036621996
40
0.613545689234281
40
0.613545689234281
40
0.992980341846566
40
0.992980341846566
40
1
40
1
40
1
40
1
41
1
10
53.3059994541336
20
-3.14268827934839
30
0
41
1
10
53.2450845438778
20
-3.14282895806244
30
0
41
1
10
53.1841608071795
20
-3.14250905003354
30
0
41
1
10
52.8628100297748
20
-3.13839493985458
30
0
41
1
10
52.6021059690265
20
-3.12661028483143
30
0
41
1
10
51.8245623538706
20
-3.06684768068479
30
0
41
1
10
51.3100357143946
20
-2.99450012191852
30
0
41
1
10
50.2823526948646
20
-2.78999513053242
30
0
41
1
10
49.7691343312362
20
-2.65774874795645
30
0
41
1
10
49.2436467607923
20
-2.49564757092972
30
0
41
1
10
49.2341007796331
20
-2.49269387224283
30
0
41
1
10
49.2245538907941
20
-2.48973094606379
30
0
0
SPLINE
5
D4
100
AcDbEntity
8
1
62
256
6
ByLayer
370
13
48
1
60
0
100
AcDbSpline
70
4
71
3
72
22
73
18
40
0
40
0
40
0
40
0
40
0.0778181347881703
40
0.0778181347881703
40
0.158626218544003
40
0.158626218544003
40
0.481858553567335
40
0.481858553567335
40
0.562666637323168
40
0.562666637323168
40
0.643474721079001
40
0.643474721079001
40
0.805090888590664
40
0.805090888590664
40
0.966707056102326
40
0.966707056102326
40
1
40
1
40
1
40
1
41
1
10
49.2245538907974
20
-2.48973094606478
30
0
41
1
10
48.9760810605131
20
-2.41261612195365
30
0
41
1
10
48.7269933836349
20
-2.32925075455799
30
0
41
1
10
48.2172209017313
20
-2.14738817338011
30
0
41
1
10
47.9561194669196
20
-2.04827815493826
30
0
41
1
10
46.6594938853745
20
-1.53046628941976
30
0
41
1
10
45.638224917921
20
-1.03988835308851
30
0
41
1
10
44.3484084089745
20
-0.394018861932381
30
0
41
1
10
44.0897831062961
20
-0.263222114503293
30
0
41
1
10
43.5704837498772
20
0.0002351987176041
30
0
41
1
10
43.309250383085
20
0.133079641837128
30
0
41
1
10
42.5308095726251
20
0.527454091451659
30
0
41
1
10
42.0155731666281
20
0.785086675939453
30
0
41
1
10
40.9864691729916
20
1.27837970971331
30
0
41
1
10
40.4723641863636
20
1.51359791929838
30
0
41
1
10
39.8495347977724
20
1.77726861925171
30
0
41
1
10
39.7430324910542
20
1.82157499371627
30
0
41
1
10
39.6363825077029
20
1.86508902492966
30
0
0
SPLINE
5
D5
100
AcDbEntity
8
1
62
256
6
ByLayer
370
18
48
1
60
0
100
AcDbSpline
70
4
71
3
72
12
73
8
40
0
40
0
40
0
40
0
40
0.0293006493575716
40
0.0293006493575716
40
0.227281309715739
40
0.227281309715739
40
1
40
1
40
1
40
1
41
1
10
14.4481954553819
20
-3.1193181777991
30
0
41
1
10
14.4098805379921
20
-3.11922158762704
30
0
41
1
10
14.3715493604184
20
-3.11894547077503
30
0
41
1
10
14.0740828045823
20
-3.11540809497996
30
0
41
1
10
13.8138619311734
20
-3.1040436411441
30
0
41
1
10
12.5346819705778
20
-3.00739581466232
30
0
41
1
10
11.5342757081992
20
-2.80582542508651
30
0
41
1
10
10.5274439023332
20
-2.50227781224479
30
0
0
SPLINE
5
D6
100
AcDbEntity
8
1
62
256
6
ByLayer
370
13
48
1
60
0
100
AcDbSpline
70
4
71
3
72
16
73
12
40
0
40
0
40
0
40
0
40
0.0119797900273398
40
0.0119797900273398
40
0.135482316273922
40
0.135482316273922
40
0.258984842520503
40
0.258984842520503
40
0.505989895013669
40
0.505989895013669
40
1
40
1
40
1
40
1
41
1
10
10.5274448600723
20
-2.50227810099153
30
0
41
1
10
10.5024223057236
20
-2.4947341050549
30
0
41
1
10
10.4773957825789
20
-2.48712712186853
30
0
41
1
10
10.1943157319924
20
-2.40038952154393
30
0
41
1
10
9.93579252801317
20
-2.31468912421701
30
0
41
1
10
9.41699645864207
20
-2.13096818913749
30
0
41
1
10
9.15604782550798
20
-2.03267133041609
30
0
41
1
10
8.37417107940522
20
-1.72262499851811
30
0
41
1
10
7.85790993566351
20
-1.49731950359566
30
0
41
1
10
6.31412263570178
20
-0.784610336429068
30
0
41
1
10
5.2917685294363
20
-0.260288915456016
30
0
41
1
10
4.25040206323686
20
0.26285752585423
30
0
0
SPLINE
5
D7
100
AcDbEntity
8
1
62
256
6
ByLayer
370
18
48
1
60
0
100
AcDbSpline
70
4
71
3
72
16
73
12
40
0
40
0
40
0
40
0
40
0.154361946848021
40
0.154361946848021
40
0.308723893696042
40
0.308723893696042
40
0.617447787392083
40
0.617447787392083
40
0.926171681088125
40
0.926171681088125
40
1
40
1
40
1
40
1
41
1
10
4.20407986700732
20
0.182684233124917
30
0
41
1
10
4.46535950774432
20
0.0469582820985295
30
0
41
1
10
4.7265579256042
20
-0.0890745862239157
30
0
41
1
10
5.24608927798641
20
-0.358528188598939
30
0
41
1
10
5.50489028676461
20
-0.492187100348275
30
0
41
1
10
6.27966233852524
20
-0.887653269743112
30
0
41
1
10
6.79398681881312
20
-1.14399345475641
30
0
41
1
10
7.82539628850725
20
-1.62860426720883
30
0
41
1
10
8.34238221152802
20
-1.85707747917311
30
0
41
1
10
8.98895181550768
20
-2.11516992791994
30
0
41
1
10
9.11376232937306
20
-2.16372029321627
30
0
41
1
10
9.23841840954358
20
-2.2108709434853
30
0
0
SPLINE
5
D8
100
AcDbEntity
8
1
62
256
6
ByLayer
370
13
48
1
60
0
100
AcDbSpline
70
4
71
3
72
16
73
12
40
0
40
0
40
0
40
0
40
0.0617805159235949
40
0.0617805159235949
40
0.180197524563714
40
0.180197524563714
40
0.65386555912419
40
0.65386555912419
40
0.890699576404427
40
0.890699576404427
40
1
40
1
40
1
40
1
41
1
10
9.23841800744691
20
-2.21087079139386
30
0
41
1
10
9.37439586053245
20
-2.26230385890736
30
0
41
1
10
9.51018995364007
20
-2.3120714096772
30
0
41
1
10
9.90503225572635
20
-2.45183817749427
30
0
41
1
10
10.1635804178139
20
-2.53714950624141
30
0
41
1
10
11.4539351030266
20
-2.92872889791235
30
0
41
1
10
12.4785479283225
20
-3.12985622070812
30
0
41
1
10
14.0454160365293
20
-3.22742812099787
30
0
41
1
10
14.5632485373831
20
-3.22528239647195
30
0
41
1
10
15.3172432986872
20
-3.17353683650333
30
0
41
1
10
15.5549524315793
20
-3.15007368697036
30
0
41
1
10
15.7926373198275
20
-3.11967880808302
30
0
0
SPLINE
5
D9
100
AcDbEntity
8
1
62
256
6
ByLayer
370
18
48
1
60
0
100
AcDbSpline
70
4
71
3
72
24
73
20
40
0
40
0
40
0
40
0
40
0.0333084462800421
40
0.0333084462800421
40
0.109702482539728
40
0.109702482539728
40
0.186096518799413
40
0.186096518799413
40
0.338884591318783
40
0.338884591318783
40
0.491672663838154
40
0.491672663838154
40
0.568066700097839
40
0.568066700097839
40
0.644460736357524
40
0.644460736357524
40
0.950036881396271
40
0.950036881396271
40
1
40
1
40
1
40
1
41
1
10
38.0378748419053
20
2.45223659311588
30
0
41
1
10
38.1506726747616
20
2.41379793638447
30
0
41
1
10
38.2636159946439
20
2.37407058162211
30
0
41
1
10
38.63619207928
20
2.23908599174382
30
0
41
1
10
38.8975802973466
20
2.13841634603685
30
0
41
1
10
39.4178436456953
20
1.92689508847988
30
0
41
1
10
39.6767958208054
20
1.81605367951866
30
0
41
1
10
40.4515169262556
20
1.47082753640538
30
0
41
1
10
40.9656040130232
20
1.22451705127261
30
0
41
1
10
41.9948596061892
20
0.710321186618643
30
0
41
1
10
42.5102552572122
20
0.442845428122297
30
0
41
1
10
43.2892782448446
20
0.0347947180767392
30
0
41
1
10
43.5507282592054
20
-0.102422899364996
30
0
41
1
10
44.0701748530272
20
-0.373745790879383
30
0
41
1
10
44.3288535251189
20
-0.508123929287223
30
0
41
1
10
45.6188184575441
20
-1.17036848473816
30
0
41
1
10
46.6398123111358
20
-1.66905885879919
30
0
41
1
10
47.8477004762402
20
-2.15385964410495
30
0
41
1
10
48.0182260434627
20
-2.21992926537328
30
0
41
1
10
48.1885744713584
20
-2.28335088965287
30
0
0
SPLINE
5
DA
100
AcDbEntity
8
1
62
256
6
ByLayer
370
13
48
1
60
0
100
AcDbSpline
70
4
71
3
72
18
73
14
40
0
40
0
40
0
40
0
40
0.0470980535740606
40
0.0470980535740606
40
0.183226903063481
40
0.183226903063481
40
0.45548460204232
40
0.45548460204232
40
0.72774230102116
40
0.72774230102116
40
0.86387115051058
40
0.86387115051058
40
1
40
1
40
1
40
1
41
1
10
48.18857447128
20
-2.2833508896237
30
0
41
1
10
48.2786902486307
20
-2.31690147205916
30
0
41
1
10
48.3687564535299
20
-2.34971101237426
30
0
41
1
10
48.7183972847848
20
-2.47412839224819
30
0
41
1
10
48.9770512119333
20
-2.55986198702635
30
0
41
1
10
49.7509971374283
20
-2.79568293789825
30
0
41
1
10
50.2641631567425
20
-2.92451893661061
30
0
41
1
10
51.2919183263372
20
-3.1195462545264
30
0
41
1
10
51.80662112937
20
-3.18577799839238
30
0
41
1
10
52.5847872648104
20
-3.23451140584501
30
0
41
1
10
52.8457787423727
20
-3.24228659479795
30
0
41
1
10
53.3669204215893
20
-3.24037446962922
30
0
41
1
10
53.6272426109637
20
-3.23073685720652
30
0
41
1
10
53.8876640574859
20
-3.21242010545149
30
0
0
SPLINE
5
DB
100
AcDbEntity
8
1
62
256
6
ByLayer
370
18
48
1
60
0
100
AcDbSpline
70
4
71
3
72
14
73
10
40
0
40
0
40
0
40
0
40
0.23280194919622
40
0.23280194919622
40
0.46560389839244
40
0.46560389839244
40
0.93120779678488
40
0.93120779678488
40
1
40
1
40
1
40
1
41
1
10
12.1235183644774
20
3.17749823750938
30
0
41
1
10
11.8576509067823
20
3.14305771482299
30
0
41
1
10
11.5900095237417
20
3.10073256608689
30
0
41
1
10
11.0508132876279
20
3.00320975958735
30
0
41
1
10
10.7786988663392
20
2.94786723523302
30
0
41
1
10
9.96046271917379
20
2.76785076869246
30
0
41
1
10
9.41237995824662
20
2.62921741453596
30
0
41
1
10
8.7766868036033
20
2.46401704915513
30
0
41
1
10
8.69472724496447
20
2.44263779747231
30
0
41
1
10
8.6126316329655
20
2.4211896518714
30
0
0
SPLINE
5
DC
100
AcDbEntity
8
1
62
256
6
ByLayer
370
18
48
1
60
0
100
AcDbSpline
70
4
71
3
72
36
73
32
40
0
40
0
40
0
40
0
40
0.249999999999994
40
0.249999999999994
40
0.374999999999991
40
0.374999999999991
40
0.499999999999988
40
0.499999999999988
40
0.624999999999984
40
0.624999999999984
40
0.687499999999987
40
0.687499999999987
40
0.718749999999988
40
0.718749999999988
40
0.74999999999999
40
0.74999999999999
40
0.781249999999991
40
0.781249999999991
40
0.812499999999992
40
0.812499999999992
40
0.843749999999994
40
0.843749999999994
40
0.874999999999995
40
0.874999999999995
40
0.906249999999996
40
0.906249999999996
40
0.937499999999997
40
0.937499999999997
40
0.968749999999999
40
0.968749999999999
40
1
40
1
40
1
40
1
41
1
10
51.2511949891539
20
0.841050093904556
30
0
41
1
10
51.4805657223359
20
0.702246317993229
30
0
41
1
10
51.7107643275066
20
0.575166369228384
30
0
41
1
10
52.0582948560095
20
0.416163483590424
30
0
41
1
10
52.1745011079742
20
0.368299463171866
30
0
41
1
10
52.4077669886419
20
0.28465643246588
30
0
41
1
10
52.5245514555293
20
0.249042169089591
30
0
41
1
10
52.7544792336218
20
0.192967855404646
30
0
41
1
10
52.8681392448624
20
0.172294453915242
30
0
41
1
10
53.0364293261176
20
0.153708665924427
30
0
41
1
10
53.0922425004558
20
0.149574607690397
30
0
41
1
10
53.1750215011916
20
0.146708160938203
30
0
41
1
10
53.2025812168577
20
0.145926903529158
30
0
41
1
10
53.2567558276917
20
0.14730092900129
30
0
41
1
10
53.2833849178476
20
0.149485766697467
30
0
41
1
10
53.3349212999054
20
0.15741956427189
30
0
41
1
10
53.3598595534912
20
0.163176410687356
30
0
41
1
10
53.4076487604315
20
0.179191838113326
30
0
41
1
10
53.4306704649335
20
0.189605535547372
30
0
41
1
10
53.4726013141384
20
0.216016478362064
30
0
41
1
10
53.4915967001102
20
0.231893746799272
30
0
41
1
10
53.5251694828902
20
0.269640029288382
30
0
41
1
10
53.5398058558579
20
0.291666057490431
30
0
41
1
10
53.5630251811099
20
0.339991457312976
30
0
41
1
10
53.571800138727
20
0.366496933548774
30
0
41
1
10
53.5836256810641
20
0.424238863406543
30
0
41
1
10
53.586525494318
20
0.455234797526288
30
0
41
1
10
53.586518860025
20
0.519052931080239
30
0
41
1
10
53.5836377283185
20
0.552420754459973
30
0
41
1
10
53.5728361071676
20
0.6202995329825
30
0
41
1
10
53.5650181521013
20
0.654381456538289
30
0
41
1
10
53.555483046698
20
0.688564637099091
30
0
0
SPLINE
5
DD
100
AcDbEntity
8
1
62
256
6
ByLayer
370
18
48
1
60
0
100
AcDbSpline
70
4
71
3
72
8
73
4
40
0
40
0
40
0
40
0
40
1
40
1
40
1
40
1
41
1
10
53.9040789082918
20
-3.12648764246811
30
0
41
1
10
53.8861591206662
20
-3.13744796749069
30
0
41
1
10
53.8701400951401
20
-3.14297145393627
30
0
41
1
10
53.8560565274175
20
-3.14295886005343
30
0
0
SPLINE
5
DE
100
AcDbEntity
8
1
62
256
6
ByLayer
370
18
48
1
60
0
100
AcDbSpline
70
4
71
3
72
22
73
18
40
0
40
0
40
0
40
0
40
0.125000000000002
40
0.125000000000002
40
0.187500000000003
40
0.187500000000003
40
0.250000000000004
40
0.250000000000004
40
0.500000000000004
40
0.500000000000004
40
0.625000000000003
40
0.625000000000003
40
0.750000000000002
40
0.750000000000002
40
0.875000000000001
40
0.875000000000001
40
1
40
1
40
1
40
1
41
1
10
53.8560565274127
20
-3.1429588600534
30
0
41
1
10
53.8087077417758
20
-3.14292846415367
30
0
41
1
10
53.7637157679767
20
-3.13577900542589
30
0
41
1
10
53.6999504505557
20
-3.1138100794395
30
0
41
1
10
53.6793174267504
20
-3.10460802289418
30
0
41
1
10
53.6393496366432
20
-3.08228235077851
30
0
41
1
10
53.6199843543704
20
-3.06911570210713
30
0
41
1
10
53.5278901676596
20
-2.99417559206273
30
0
41
1
10
53.4680247218328
20
-2.90503087750557
30
0
41
1
10
53.4002633125589
20
-2.72473050500483
30
0
41
1
10
53.3813173056911
20
-2.65612271938153
30
0
41
1
10
53.3523955690278
20
-2.50659410729702
30
0
41
1
10
53.3422423495015
20
-2.42548162991554
30
0
41
1
10
53.3305040199863
20
-2.25062987341954
30
0
41
1
10
53.3289176677242
20
-2.15689242504027
30
0
41
1
10
53.3346767384116
20
-1.95625479334888
30
0
41
1
10
53.3420258437591
20
-1.85062673496111
30
0
41
1
10
53.3536097529781
20
-1.74130171865056
30
0
0
SPLINE
5
DF
100
AcDbEntity
8
1
62
256
6
ByLayer
370
13
48
1
60
0
100
AcDbSpline
70
4
71
3
72
10
73
6
40
0
40
0
40
0
40
0
40
0.0219179336019254
40
0.0219179336019254
40
1
40
1
40
1
40
1
41
1
10
4.25155609170537
20
-3.11411955239493
30
0
41
1
10
4.25155631650031
20
-3.11416553443701
30
0
41
1
10
4.2515565403572
20
-3.11420896700284
30
0
41
1
10
4.25156671069408
20
-3.11607413399682
30
0
41
1
10
4.25157481204758
20
-3.11289744773742
30
0
41
1
10
4.25158083422553
20
-3.10484202574051
30
0
0
SPLINE
5
E0
100
AcDbEntity
8
1
62
256
6
ByLayer
370
13
48
1
60
0
100
AcDbSpline
70
4
71
3
72
29
73
25
40
0
40
0
40
0
40
0
40
0.125
40
0.125
40
0.1875
40
0.1875
40
0.25
40
0.3125
40
0.3125
40
0.375
40
0.375
40
0.4375
40
0.4375
40
0.5
40
0.5
40
0.625
40
0.625
40
0.75
40
0.75
40
0.875
40
0.875
40
0.9375
40
0.9375
40
1
40
1
40
1
40
1
41
1
10
4.2504020632372
20
0.262857525854059
30
0
41
1
10
4.2504889118641
20
0.467033410228794
30
0
41
1
10
4.25056763620455
20
0.667168897840895
30
0
41
1
10
4.25067758704733
20
0.961381163409129
30
0
41
1
10
4.25071290982223
20
1.05857269405038
30
0
41
1
10
4.25078020182826
20
1.24735231112939
30
0
41
1
10
4.25084449268212
20
1.43145299758939
30
0
41
1
10
4.25090416872982
20
1.606359683476
30
0
41
1
10
4.25096212138322
20
1.77661912556525
30
0
41
1
10
4.25099031796825
20
1.85966672484739
30
0
41
1
10
4.25104510179986
20
2.01981117055252
30
0
41
1
10
4.25107154487469
20
2.09648359518036
30
0
41
1
10
4.25112301365152
20
2.24306595283048
30
0
41
1
10
4.25114811930979
20
2.31318373901274
30
0
41
1
10
4.25122072869175
20
2.51026403467142
30
0
41
1
10
4.25126591429722
20
2.6249882498403
30
0
41
1
10
4.25135133694209
20
2.82159834711192
30
0
41
1
10
4.2513918265455
20
2.90370294996157
30
0
41
1
10
4.25146367794079
20
3.027416849242
30
0
41
1
10
4.25149548540034
20
3.07021720511659
30
0
41
1
10
4.25153498830699
20
3.10551938611749
30
0
41
1
10
4.25154681584584
20
3.11242556123995
30
0
41
1
10
4.25156671069405
20
3.11607413399148
30
0
41
1
10
4.25157481204758
20
3.11289744771966
30
0
41
1
10
4.25158083422553
20
3.10484202570962
30
0
0
SPLINE
5
E1
100
AcDbEntity
8
1
62
256
6
ByLayer
370
13
48
1
60
0
100
AcDbSpline
70
4
71
3
72
8
73
4
40
0
40
0
40
0
40
0
40
1
40
1
40
1
40
1
41
1
10
4.13407974685146
20
0.300179613210844
30
0
41
1
10
4.17034530211873
20
0.287648033321801
30
0
41
1
10
4.20989997167408
20
0.275066559358805
30
0
41
1
10
4.25040206323723
20
0.262857525854059
30
0
0
SPLINE
5
E2
100
AcDbEntity
8
1
62
256
6
ByLayer
370
18
48
1
60
0
100
AcDbSpline
70
4
71
3
72
10
73
6
40
0
40
0
40
0
40
0
40
0.865081919019253
40
0.865081919019253
40
1
40
1
40
1
40
1
41
1
10
12.1230996634936
20
-3.17743920654482
30
0
41
1
10
12.5588999368051
20
-3.23427949030469
30
0
41
1
10
12.9956482468278
20
-3.26598080255289
30
0
41
1
10
13.498653636251
20
-3.27513833341146
30
0
41
1
10
13.5664910882643
20
-3.27577289815679
30
0
41
1
10
13.6343407479866
20
-3.27580950878951
30
0
0
SPLINE
5
E3
100
AcDbEntity
8
1
62
256
6
ByLayer
370
18
48
1
60
0
100
AcDbSpline
70
4
71
3
72
80
73
76
40
0
40
0
40
0
40
0
40
0.007888527605731
40
0.007888527605731
40
0.0349038670053874
40
0.0349038670053874
40
0.0619192064050438
40
0.0619192064050438
40
0.0889345458047002
40
0.0889345458047002
40
0.115949885204357
40
0.115949885204357
40
0.142965224604013
40
0.142965224604013
40
0.169980564003669
40
0.169980564003669
40
0.196995903403326
40
0.196995903403326
40
0.224011242802982
40
0.224011242802982
40
0.251026582202639
40
0.251026582202639
40
0.278041921602295
40
0.278041921602295
40
0.305057261001951
40
0.305057261001951
40
0.332072600401608
40
0.332072600401608
40
0.359087939801264
40
0.359087939801264
40
0.38610327920092
40
0.38610327920092
40
0.413118618600577
40
0.413118618600577
40
0.440133958000233
40
0.440133958000233
40
0.467149297399889
40
0.467149297399889
40
0.521179976199202
40
0.521179976199202
40
0.548195315598859
40
0.548195315598859
40
0.575210654998516
40
0.575210654998516
40
0.602225994398173
40
0.602225994398173
40
0.62924133379783
40
0.62924133379783
40
0.656256673197487
40
0.656256673197487
40
0.683272012597144
40
0.683272012597144
40
0.710287351996801
40
0.710287351996801
40
0.737302691396459
40
0.737302691396459
40
0.764318030796116
40
0.764318030796116
40
0.791333370195773
40
0.791333370195773
40
0.81834870959543
40
0.81834870959543
40
0.845364048995087
40
0.845364048995087
40
0.872379388394744
40
0.872379388394744
40
0.899394727794401
40
0.899394727794401
40
0.926410067194058
40
0.926410067194058
40
0.953425406593715
40
0.953425406593715
40
0.980440745993372
40
0.980440745993372
40
1
40
1
40
1
40
1
41
1
10
28.2737154828356
20
2.35332877800965
30
0
41
1
10
28.337307119666
20
2.37683874353985
30
0
41
1
10
28.4008842805857
20
2.39999216116982
30
0
41
1
10
28.682098226224
20
2.50089731444507
30
0
41
1
10
28.8991073522602
20
2.57534803892676
30
0
41
1
10
29.33475931179
20
2.71329949048956
30
0
41
1
10
29.5535534984239
20
2.77699713990273
30
0
41
1
10
29.9897946247082
20
2.89389222439803
30
0
41
1
10
30.2073570505218
20
2.94725807714195
30
0
41
1
10
30.6417054615007
20
3.0432503968967
30
0
41
1
10
30.8593285934849
20
3.0852424869889
30
0
41
1
10
31.2952802591786
20
3.15765742710252
30
0
41
1
10
31.5138026199935
20
3.18815396492997
30
0
41
1
10
31.949643060512
20
3.23747646239354
30
0
41
1
10
32.1668456029636
20
3.25611755273116
30
0
41
1
10
32.602294890849
20
3.28089354124094
30
0
41
1
10
32.8201255204438
20
3.28721024257823
30
0
41
1
10
33.2554938195368
20
3.28770882902984
30
0
41
1
10
33.472626544952
20
3.28177617945957
30
0
41
1
10
33.9087481724181
20
3.25763218604621
30
0
41
1
10
34.1271375556969
20
3.23954895547024
30
0
41
1
10
34.5629153725269
20
3.19151690128817
30
0
41
1
10
34.7803455804297
20
3.16147986657521
30
0
41
1
10
35.2146414559401
20
3.08921569817929
30
0
41
1
10
35.4323406407447
20
3.04749719363352
30
0
41
1
10
35.8686347743866
20
2.95303223108436
30
0
41
1
10
36.0873097020256
20
2.90020247822679
30
0
41
1
10
36.522544528828
20
2.78324946929803
30
0
41
1
10
36.7395498583817
20
2.71915568768552
30
0
41
1
10
37.1748115798706
20
2.58249855739086
30
0
41
1
10
37.3926501296556
20
2.50954726476883
30
0
41
1
10
37.8282393144008
20
2.35373619039504
30
0
41
1
10
38.0458753613946
20
2.27015400977334
30
0
41
1
10
38.481671988852
20
2.09631196670128
30
0
41
1
10
38.6996428580281
20
2.00610036279474
30
0
41
1
10
39.1351016493558
20
1.81830894930886
30
0
41
1
10
39.3524685425637
20
1.72052490465026
30
0
41
1
10
40.0040279331066
20
1.41607146623215
30
0
41
1
10
40.4422184444754
20
1.20392409269326
30
0
41
1
10
41.0944265318794
20
0.871025483033691
30
0
41
1
10
41.3113217581965
20
0.757717245335101
30
0
41
1
10
41.7465575333825
20
0.530964824300014
30
0
41
1
10
41.9644808637613
20
0.41677041014708
30
0
41
1
10
42.4004387961863
20
0.185782864224876
30
0
41
1
10
42.6181032953139
20
0.0681905744172582
30
0
41
1
10
43.0533243240289
20
-0.164269577391934
30
0
41
1
10
43.2711124833831
20
-0.279428774033846
30
0
41
1
10
43.7064097295297
20
-0.50882639495876
30
0
41
1
10
43.923799294484
20
-0.623284381452351
30
0
41
1
10
44.3584229408834
20
-0.850996689239167
30
0
41
1
10
44.5767862543362
20
-0.962859499667388
30
0
41
1
10
45.0130329211043
20
-1.18183224745422
30
0
41
1
10
45.2308707265408
20
-1.28906208686314
30
0
41
1
10
45.6653871888615
20
-1.49995796424523
30
0
41
1
10
45.8822348813317
20
-1.60328883624689
30
0
41
1
10
46.3175872590455
20
-1.80167037581123
30
0
41
1
10
46.5357160835422
20
-1.89746562122394
30
0
41
1
10
46.9721130189569
20
-2.08286506449971
30
0
41
1
10
47.1891782341051
20
-2.17267038136538
30
0
41
1
10
47.6239898772435
20
-2.34222132974912
30
0
41
1
10
47.8416746199551
20
-2.42213928667781
30
0
41
1
10
48.276962182556
20
-2.57323435082819
30
0
41
1
10
48.4944474561507
20
-2.64453239753743
30
0
41
1
10
48.9294618510587
20
-2.77788806216574
30
0
41
1
10
49.1477338770577
20
-2.83900641255983
30
0
41
1
10
49.5834416443281
20
-2.95005884659321
30
0
41
1
10
49.8011130437581
20
-3.00015037939636
30
0
41
1
10
50.235506078457
20
-3.08974503114734
30
0
41
1
10
50.4523886463802
20
-3.12903782710333
30
0
41
1
10
50.88801196393
20
-3.19517312930685
30
0
41
1
10
51.1065998107313
20
-3.22235356473638
30
0
41
1
10
51.5424032187022
20
-3.26479806998211
30
0
41
1
10
51.7593161644762
20
-3.28011991012104
30
0
41
1
10
52.1341172831882
20
-3.29569129433756
30
0
41
1
10
52.2917436676935
20
-3.29900029194289
30
0
41
1
10
52.4494738388591
20
-3.29911272776496
30
0
0
SPLINE
5
E4
100
AcDbEntity
8
1
62
256
6
ByLayer
370
18
48
1
60
0
100
AcDbSpline
70
4
71
3
72
16
73
12
40
0
40
0
40
0
40
0
40
0.120994483173087
40
0.120994483173087
40
0.277833586883811
40
0.277833586883811
40
0.434672690594535
40
0.434672690594535
40
0.748350898015983
40
0.748350898015983
40
1
40
1
40
1
40
1
41
1
10
12.1233059415216
20
3.17751898521979
30
0
41
1
10
12.0246500040582
20
3.13936419437269
30
0
41
1
10
11.9258973573324
20
3.10016375125923
30
0
41
1
10
11.6988175768576
20
3.0076466801485
30
0
41
1
10
11.570388095487
20
2.95359860568726
30
0
41
1
10
11.3127487758766
20
2.84185182100501
30
0
41
1
10
11.1832264573335
20
2.78400469206426
30
0
41
1
10
10.7961059923267
20
2.60674400255201
30
0
41
1
10
10.5396396910976
20
2.4833858570999
30
0
41
1
10
10.0776682931175
20
2.25679366074465
30
0
41
1
10
9.87210709405275
20
2.15441817370382
30
0
41
1
10
9.6655216084423
20
2.05276153540768
30
0
0
SPLINE
5
E5
100
AcDbEntity
8
1
62
256
6
ByLayer
370
18
48
1
60
0
100
AcDbSpline
70
4
71
3
72
8
73
4
40
0
40
0
40
0
40
0
40
1
40
1
40
1
40
1
41
1
10
4.13291415243782
20
0.223589779645636
30
0
41
1
10
4.10118859632359
20
0.240365907506657
30
0
41
1
10
4.07360100321253
20
0.263695334283653
30
0
41
1
10
4.05193790576308
20
0.291714713971316
30
0
0
SPLINE
5
E6
100
AcDbEntity
8
1
62
256
6
ByLayer
370
18
48
1
60
0
100
AcDbSpline
70
4
71
3
72
12
73
8
40
0
40
0
40
0
40
0
40
0.355929501108062
40
0.355929501108062
40
0.742773343064792
40
0.742773343064792
40
1
40
1
40
1
40
1
41
1
10
8.13113035975309
20
-2.291978348035
30
0
41
1
10
8.01861488344312
20
-2.36042031148989
30
0
41
1
10
7.90515575131315
20
-2.42733862479233
30
0
41
1
10
7.66573812328659
20
-2.56271531595178
30
0
41
1
10
7.54000137412038
20
-2.63050450995542
30
0
41
1
10
7.33190177654859
20
-2.73672481811192
30
0
41
1
10
7.24884057397844
20
-2.77752536750094
30
0
41
1
10
7.16577411590399
20
-2.81678555758907
30
0
0
SPLINE
5
E7
100
AcDbEntity
8
1
62
256
6
ByLayer
370
18
48
1
60
0
100
AcDbSpline
70
4
71
3
72
18
73
14
40
0
40
0
40
0
40
0
40
0.25
40
0.25
40
0.5
40
0.5
40
0.625
40
0.625
40
0.75
40
0.75
40
0.875
40
0.875
40
1
40
1
40
1
40
1
41
1
10
53.688838782467
20
1.00399971674079
30
0
41
1
10
53.782633384965
20
1.026226526915
30
0
41
1
10
53.875482191781
20
1.05135101290796
30
0
41
1
10
54.057955703948
20
1.1118246657866
30
0
41
1
10
54.1471459161839
20
1.1467595266121
30
0
41
1
10
54.2734466416321
20
1.21372886984756
30
0
41
1
10
54.3146044818704
20
1.23876127474682
30
0
41
1
10
54.3913053280561
20
1.29608314394457
30
0
41
1
10
54.4271123876521
20
1.32860404271145
30
0
41
1
10
54.4871535124852
20
1.40307043881123
30
0
41
1
10
54.511079686893
20
1.44483129623447
30
0
41
1
10
54.5403631210299
20
1.53738823328317
30
0
41
1
10
54.544893945175
20
1.58596568487087
30
0
41
1
10
54.5406524621839
20
1.63469228762145
30
0
0
SPLINE
5
E8
100
AcDbEntity
8
1
62
256
6
ByLayer
370
18
48
1
60
0
100
AcDbSpline
70
4
71
3
72
14
73
10
40
0
40
0
40
0
40
0
40
0.25
40
0.25
40
0.5
40
0.5
40
0.75
40
0.75
40
1
40
1
40
1
40
1
41
1
10
4.01863959572154
20
-3.25491160696197
30
0
41
1
10
4.02799569940427
20
-3.23139677795126
30
0
41
1
10
4.04114259800008
20
-3.20867867287794
30
0
41
1
10
4.07439066543139
20
-3.16846570901407
30
0
41
1
10
4.09438050109088
20
-3.15120255653224
30
0
41
1
10
4.13764586414936
20
-3.12486316371306
30
0
41
1
10
4.16094722663689
20
-3.11573957180946
30
0
41
1
10
4.20664339501815
20
-3.1052038013901
30
0
41
1
10
4.22950869082916
20
-3.10356326889425
30
0
41
1
10
4.25158083423372
20
-3.10484202570498
30
0
0
LINE
5
76
100
AcDbEntity
8
81
62
256
6
ByLayer
370
18
48
1
60
0
100
AcDbLine
10
55
20
0
30
0
11
60
21
0
31
0
39
0
210
0
220
0
230
1
0
LINE
5
77
100
AcDbEntity
8
1
62
256
6
ByLayer
370
18
48
1
60
0
100
AcDbLine
10
4.018625
20
3.27005
30
0
11
1.344282
21
3.268445
31
0
39
0
210
0
220
0
230
1
0
LINE
5
79
100
AcDbEntity
8
1
62
256
6
ByLayer
370
18
48
1
60
0
100
AcDbLine
10
14.2556
20
3.276192
30
0
11
13.634427
21
3.275819
31
0
39
0
210
0
220
0
230
1
0
LINE
5
7A
100
AcDbEntity
8
1
62
256
6
ByLayer
370
18
48
1
60
0
100
AcDbLine
10
33.655587
20
3.287832
30
0
11
33.041956
21
3.287464
31
0
39
0
210
0
220
0
230
1
0
LINE
5
7B
100
AcDbEntity
8
1
62
256
6
ByLayer
370
18
48
1
60
0
100
AcDbLine
10
53.055899
20
3.299472
30
0
11
52.451048
21
3.299109
31
0
39
0
210
0
220
0
230
1
0
LINE
5
7C
100
AcDbEntity
8
1
62
256
6
ByLayer
370
18
48
1
60
0
100
AcDbLine
10
52.451048
20
-3.299109
30
0
11
53.056044
21
-3.299472
31
0
39
0
210
0
220
0
230
1
0
LINE
5
7D
100
AcDbEntity
8
1
62
256
6
ByLayer
370
18
48
1
60
0
100
AcDbLine
10
33.041956
20
-3.287464
30
0
11
33.65598
21
-3.287832
31
0
39
0
210
0
220
0
230
1
0
LINE
5
7E
100
AcDbEntity
8
1
62
256
6
ByLayer
370
18
48
1
60
0
100
AcDbLine
10
13.634427
20
-3.275819
30
0
11
14.255915
21
-3.276192
31
0
39
0
210
0
220
0
230
1
0
LINE
5
7F
100
AcDbEntity
8
1
62
256
6
ByLayer
370
18
48
1
60
0
100
AcDbLine
10
1.344282
20
-3.268445
30
0
11
4.018625
21
-3.27005
31
0
39
0
210
0
220
0
230
1
0
LINE
5
80
100
AcDbEntity
8
SK1
62
256
6
ByLayer
370
18
48
1
60
0
100
AcDbLine
10
-35.133975
20
4
30
0
11
-36
21
2.5
31
0
39
0
210
0
220
0
230
1
0
LINE
5
82
100
AcDbEntity
8
SK1
62
256
6
ByLayer
370
18
48
1
60
0
100
AcDbLine
10
-36
20
-2.5
30
0
11
-35.133975
21
-4
31
0
39
0
210
0
220
0
230
1
0
LINE
5
83
100
AcDbEntity
8
SK1
62
256
6
ByLayer
370
18
48
1
60
0
100
AcDbLine
10
0
20
4
30
0
11
-35.133975
21
4
31
0
39
0
210
0
220
0
230
1
0
LINE
5
84
100
AcDbEntity
8
SK1
62
256
6
ByLayer
370
18
48
1
60
0
100
AcDbLine
10
-35.133975
20
-4
30
0
11
0
21
-4
31
0
39
0
210
0
220
0
230
1
0
LINE
5
85
100
AcDbEntity
8
SK4
62
256
6
ByLayer
370
18
48
0.05
60
0
100
AcDbLine
10
60
20
0
30
0
11
-41
21
0
31
0
39
0
210
0
220
0
230
1
0
LINE
5
87
100
AcDbEntity
8
4
62
256
6
ByLayer
370
18
48
0.05
60
0
100
AcDbLine
10
55
20
0
30
0
11
0
21
0
31
0
39
0
210
0
220
0
230
1
0
LINE
5
89
100
AcDbEntity
8
80
62
256
6
ByLayer
370
18
48
1
60
0
100
AcDbLine
10
0
20
0
30
0
11
-5
21
0
31
0
39
0
210
0
220
0
230
1
0
LINE
5
8A
100
AcDbEntity
8
1
62
256
6
ByLayer
370
18
48
1
60
0
100
AcDbLine
10
0
20
-4
30
0
11
0
21
4
31
0
39
0
210
0
220
0
230
1
0
LINE
5
8B
100
AcDbEntity
8
1
62
256
6
ByLayer
370
18
48
1
60
0
100
AcDbLine
10
54.925152
20
0.281212
30
0
11
54.826597
21
0.703642
31
0
39
0
210
0
220
0
230
1
0
LINE
5
8C
100
AcDbEntity
8
1
62
256
6
ByLayer
370
18
48
1
60
0
100
AcDbLine
10
53.35361
20
-1.741302
30
0
11
54.895073
21
-0.148949
31
0
39
0
210
0
220
0
230
1
0
LINE
5
8D
100
AcDbEntity
8
1
62
256
6
ByLayer
370
13
48
1
60
0
100
AcDbLine
10
54.023285
20
0.368312
30
0
11
54.895073
21
-0.148949
31
0
39
0
210
0
220
0
230
1
0
LINE
5
8E
100
AcDbEntity
8
1
62
256
6
ByLayer
370
13
48
1
60
0
100
AcDbLine
10
1.344282
20
3.268445
30
0
11
1.344282
21
-3.268445
31
0
39
0
210
0
220
0
230
1
0
LINE
5
8F
100
AcDbEntity
8
1
62
256
6
ByLayer
370
18
48
1
60
0
100
AcDbLine
10
54.925152
20
-0.281212
30
0
11
54.826597
21
-0.703642
31
0
39
0
210
0
220
0
230
1
0
LINE
5
90
100
AcDbEntity
8
1
62
256
6
ByLayer
370
13
48
1
60
0
100
AcDbLine
10
54.213191
20
0.703642
30
0
11
54.925152
21
0.281212
31
0
39
0
210
0
220
0
230
1
0
LINE
5
91
100
AcDbEntity
8
1
62
256
6
ByLayer
370
18
48
1
60
0
100
AcDbLine
10
54.994072
20
0.032868
30
0
11
55
21
0
31
0
39
0
210
0
220
0
230
1
0
LINE
5
92
100
AcDbEntity
8
1
62
256
6
ByLayer
370
13
48
1
60
0
100
AcDbLine
10
0.671901
20
3.634223
30
0
11
0.671901
21
-3.634223
31
0
39
0
210
0
220
0
230
1
0
LINE
5
93
100
AcDbEntity
8
1
62
256
6
ByLayer
370
13
48
1
60
0
100
AcDbLine
10
54.826597
20
0.703642
30
0
11
54.213191
21
0.703642
31
0
39
0
210
0
220
0
230
1
0
LINE
5
94
100
AcDbEntity
8
1
62
256
6
ByLayer
370
18
48
1
60
0
100
AcDbLine
10
55
20
0
30
0
11
53.856057
21
-3.142959
31
0
39
0
210
0
220
0
230
1
0
LINE
5
95
100
AcDbEntity
8
1
62
256
6
ByLayer
370
18
48
1
60
0
100
AcDbLine
10
55
20
0
30
0
11
54.994072
21
-0.032868
31
0
39
0
210
0
220
0
230
1
0
LINE
5
96
100
AcDbEntity
8
SK1
62
256
6
ByLayer
370
18
48
1
60
0
100
AcDbLine
10
0
20
-4
30
0
11
0
21
4
31
0
39
0
210
0
220
0
230
1
0
LINE
5
97
100
AcDbEntity
8
SK1
62
256
6
ByLayer
370
18
48
1
60
0
100
AcDbLine
10
-36
20
2.5
30
0
11
-36
21
-2.5
31
0
39
0
210
0
220
0
230
1
0
LINE
5
98
100
AcDbEntity
8
SK1
62
256
6
ByLayer
370
18
48
1
60
0
100
AcDbLine
10
-35.133975
20
4
30
0
11
-35.133975
21
-4
31
0
39
0
210
0
220
0
230
1
0
MTEXT
5
E9
100
AcDbEntity
8
SK6
62
256
6
ByLayer
370
13
48
1
60
0
100
AcDbMText
10
11.629169
20
35.682694
30
0
210
0
220
0
230
1
1
\W0.7670;R840-0660-50-A0A1220
40
3.5
41
0
44
1.084337
50
0
71
8
72
5
7
iso_b_vert
0
DIMENSION
5
F6
100
AcDbEntity
8
SK2
62
256
6
ByLayer
370
13
48
1
60
0
100
AcDbDimension
2
DimnDraft3D1
10
53.88
20
-13.513398
30
0
11
25.630059
21
-13.513398
31
0
70
32
71
5
72
1
41
1
210
0
220
0
230
1
3
Standard
100
AcDbAlignedDimension
13
0
23
-1.5875
33
0
14
53.88
24
-4.8875
34
0
50
0
100
AcDbRotatedDimension
1001
ACAD
1000
DSTYLE
1002
{
1070
   279
1070
     0
1070
   172
1070
     1
1070
   173
1070
     1
1070
   340
1005
EA
1070
   271
1070
     2
1070
   272
1070
     2
1070
    77
1070
     1
1070
    73
1070
     0
1070
   171
1070
     3
1070
   274
1070
     4
1070
   177
1070
    35
1070
   176
1070
    35
1070
   178
1070
    35
1070
    48
1040
-0.005
1070
    41
1041
3.5
1070
   147
1041
1.75
1070
    42
1041
1.5875
1070
    44
1041
2.0
1070
   140
1041
3.5
1070
   343
1005
0
1070
   344
1005
0
1002
}
0
DIMENSION
5
100
100
AcDbEntity
8
SK2
62
256
6
ByLayer
370
13
48
1
60
0
100
AcDbDimension
2
DimnDraft3D2
10
55
20
-32.692985
30
0
11
9.7213
21
-32.692985
31
0
70
32
71
5
72
1
41
1
210
0
220
0
230
1
3
Standard
100
AcDbAlignedDimension
13
-36
23
-5.5875
33
0
14
55
24
-1.5875
34
0
50
0
100
AcDbRotatedDimension
1001
ACAD
1000
DSTYLE
1002
{
1070
   279
1070
     0
1070
   172
1070
     1
1070
   173
1070
     1
1070
   340
1005
EA
1070
   271
1070
     2
1070
   272
1070
     2
1070
    77
1070
     1
1070
    73
1070
     0
1070
   171
1070
     3
1070
   274
1070
     4
1070
   177
1070
    35
1070
   176
1070
    35
1070
   178
1070
    35
1070
    48
1040
-0.005
1070
    41
1041
3.5
1070
   147
1041
1.75
1070
    42
1041
1.5875
1070
    44
1041
2.0
1070
   140
1041
3.5
1070
   343
1005
0
1070
   344
1005
0
1002
}
0
DIMENSION
5
10A
100
AcDbEntity
8
SK2
62
256
6
ByLayer
370
13
48
1
60
0
100
AcDbDimension
2
DimnDraft3D3
10
55
20
14.909119
30
0
11
37.94
21
14.909119
31
0
70
32
71
5
72
1
41
1
210
0
220
0
230
1
3
Standard
100
AcDbAlignedDimension
13
20.88
23
4.8875
33
0
14
55
24
1.5875
34
0
50
0
100
AcDbRotatedDimension
1001
ACAD
1000
DSTYLE
1002
{
1070
   279
1070
     0
1070
   172
1070
     1
1070
   173
1070
     1
1070
   340
1005
EA
1070
   271
1070
     2
1070
   272
1070
     2
1070
    77
1070
     1
1070
    73
1070
     0
1070
   171
1070
     3
1070
   274
1070
     4
1070
   177
1070
    35
1070
   176
1070
    35
1070
   178
1070
    35
1070
    48
1040
-0.005
1070
    41
1041
3.5
1070
   147
1041
1.75
1070
    42
1041
1.5875
1070
    44
1041
2.0
1070
   140
1041
3.5
1070
   343
1005
0
1070
   344
1005
0
1002
}
0
DIMENSION
5
114
100
AcDbEntity
8
SK2
62
256
6
ByLayer
370
13
48
1
60
0
100
AcDbDimension
2
DimnDraft3D4
10
53.88
20
-16.102503
30
0
11
64.981425
21
-16.102503
31
0
70
32
71
5
72
1
41
1
210
0
220
0
230
1
3
Standard
100
AcDbAlignedDimension
13
55
23
-1.5875
33
0
14
53.88
24
-4.8875
34
0
50
0
100
AcDbRotatedDimension
1001
ACAD
1000
DSTYLE
1002
{
1070
   279
1070
     0
1070
   172
1070
     1
1070
   173
1070
     1
1070
   340
1005
EA
1070
   271
1070
     2
1070
   272
1070
     2
1070
    77
1070
     1
1070
    73
1070
     0
1070
   171
1070
     3
1070
   274
1070
     4
1070
   177
1070
    35
1070
   176
1070
    35
1070
   178
1070
    35
1070
    48
1040
-0.005
1070
    41
1041
3.5
1070
   147
1041
1.75
1070
    42
1041
1.5875
1070
    44
1041
2.0
1070
   140
1041
3.5
1070
   343
1005
0
1070
   344
1005
0
1002
}
0
DIMENSION
5
11E
100
AcDbEntity
8
SK2
62
256
6
ByLayer
370
13
48
1
60
0
100
AcDbDimension
2
DimnDraft3D5
10
53.88
20
-22.343428
30
0
11
6.640676
21
-22.343428
31
0
70
32
71
5
72
1
41
1
210
0
220
0
230
1
3
Standard
100
AcDbAlignedDimension
13
-36
23
-5.5875
33
0
14
53.88
24
-4.8875
34
0
50
0
100
AcDbRotatedDimension
1001
ACAD
1000
DSTYLE
1002
{
1070
   279
1070
     0
1070
   172
1070
     1
1070
   173
1070
     1
1070
   340
1005
EA
1070
   271
1070
     2
1070
   272
1070
     2
1070
    77
1070
     1
1070
    73
1070
     0
1070
   171
1070
     3
1070
   274
1070
     4
1070
   177
1070
    35
1070
   176
1070
    35
1070
   178
1070
    35
1070
    48
1040
-0.005
1070
    41
1041
3.5
1070
   147
1041
1.75
1070
    42
1041
1.5875
1070
    44
1041
2.0
1070
   140
1041
3.5
1070
   343
1005
0
1070
   344
1005
0
1002
}
0
DIMENSION
5
129
100
AcDbEntity
8
SK2
62
256
6
ByLayer
370
13
48
1
60
0
100
AcDbDimension
2
DimnDraft3D6
10
-46.625163
20
4
30
0
11
-47.250163
21
22.47418
31
0
70
33
71
5
72
1
41
1
210
0
220
0
230
1
3
Standard
100
AcDbAlignedDimension
13
-37.5875
23
-4
33
0
14
-37.5875
24
4
34
0
1001
ACAD
1000
DSTYLE
1002
{
1070
   279
1070
     0
1070
    74
1070
     0
1070
   173
1070
     1
1070
   340
1005
EA
1070
   271
1070
     3
1070
   272
1070
     2
1070
    77
1070
     1
1070
    73
1070
     0
1070
   171
1070
     3
1070
   274
1070
     4
1070
   177
1070
    35
1070
   176
1070
    35
1070
   178
1070
    35
1070
    48
1040
-0.005
1070
    41
1041
3.5
1070
   147
1041
1.75
1070
    42
1041
1.5875
1070
    44
1041
2.0
1070
   140
1041
3.5
1070
   343
1005
0
1070
   344
1005
0
1002
}
0
DIMENSION
5
134
100
AcDbEntity
8
2
62
256
6
ByLayer
370
13
48
1
60
0
100
AcDbDimension
2
DimnDraft3D7
10
69.083343
20
3.3
30
0
11
64.458343
21
20.367266
31
0
70
33
71
5
72
1
41
1
210
0
220
0
230
1
3
Standard
100
AcDbAlignedDimension
13
55.4675
23
-3.3
33
0
14
55.4675
24
3.3
34
0
1001
ACAD
1000
DSTYLE
1002
{
1070
   279
1070
     0
1070
    74
1070
     0
1070
   173
1070
     1
1070
   340
1005
EA
1070
   271
1070
     3
1070
   272
1070
     2
1070
    77
1070
     1
1070
    73
1070
     0
1070
   171
1070
     3
1070
   274
1070
     4
1070
   177
1070
    35
1070
   176
1070
    35
1070
   178
1070
    35
1070
    48
1040
-0.005
1070
    41
1041
3.5
1070
   147
1041
1.75
1070
    42
1041
1.5875
1070
    44
1041
2.0
1070
   140
1041
3.5
1070
   343
1005
0
1070
   344
1005
0
1002
}
0
ENDSEC
0
SECTION
2
OBJECTS
0
DICTIONARY
5
19f
330
0
100
AcDbDictionary
280
0
281
1
3
ACAD_GROUP
350
1a0
3
ACAD_MLINESTYLE
350
1a1
0
DICTIONARY
5
1a0
330
0
100
AcDbDictionary
280
0
281
1
0
DICTIONARY
5
1a1
330
0
100
AcDbDictionary
280
0
281
1
3
Standard
350
18
0
MLINESTYLE
5
18
330
1a1
100
AcDbMlineStyle
2
Standard
70
0
3

62
256
51
90
52
90
71
2
49
-0.5
62
256
6
ByLayer
49
0.5
62
256
6
ByLayer
0
RASTERVARIABLES
5
18d
330

100
AcDbRasterVariables
90
0
70
1
71
1
72
1
0
ENDSEC
0
EOF
