0
SECTION
2
HEADER
9
$ACADVER
1
AC1015
9
$DWGCODEPAGE
3
ANSI_1252
9
$HANDSEED
5
1a9
9
$ANGBASE
50
0
9
$ANGDIR
70
0
9
$ATTMODE
70
1
9
$AUNITS
70
0
9
$AUPREC
70
0
9
$CECOLOR
62
256
9
$CELTSCALE
40
1
9
$CELTYPE
6
ByLayer
9
$CELWEIGHT
370
18
9
$CLAYER
8
0
9
$CMLJUST
70
0
9
$CMLSCALE
40
1
9
$CMLSTYLE
2
Standard
9
$DIMSTYLE
2
Standard
9
$TEXTSIZE
40
0.2
9
$TEXTSTYLE
7
Standard
9
$LUNITS
70
2
9
$LUPREC
70
4
9
$EXTNAMES
290
1
9
$INSUNITS
70
4
9
$LTSCALE
40
1
9
$LWDISPLAY
290
1
9
$PDMODE
70
0
9
$PDSIZE
40
0
9
$PLINEGEN
70
0
0
ENDSEC
0
SECTION
2
CLASSES
0
CLASS
1
RASTERVARIABLES
2
AcDbRasterVariables
3
ISM
90
0
280
0
281
0
0
ENDSEC
0
SECTION
2
TABLES
0
TABLE
2
VPORT
5
19f
100
AcDbSymbolTable
0
VPORT
5
1
100
AcDbSymbolTableRecord
100
AcDbViewportTableRecord
2
*Active
70
0
10
0
20
0
11
1
21
1
12
-1
22
1
13
0
23
0
14
0.5
24
0.5
15
10
25
10
16
0
26
0
36
1
17
0
27
0
37
0
0
ENDTAB
0
TABLE
2
LTYPE
5
1a0
100
AcDbSymbolTable
0
LTYPE
5
14
100
AcDbSymbolTableRecord
100
AcDbLinetypeTableRecord
70
0
2
ByBlock
3

72
65
73
0
40
0
0
LTYPE
5
15
100
AcDbSymbolTableRecord
100
AcDbLinetypeTableRecord
70
0
2
ByLayer
3

72
65
73
0
40
0
0
LTYPE
5
16
100
AcDbSymbolTableRecord
100
AcDbLinetypeTableRecord
70
0
2
CONTINUOUS
3
Solid line
72
65
73
0
40
0
0
LTYPE
5
6A
100
AcDbSymbolTableRecord
100
AcDbLinetypeTableRecord
70
0
2
CENTER
3
____ _ ____ _ ____ _ ____
72
65
73
4
40
47.5
49
22
74
0
49
-8.5
74
0
49
8.5
74
0
49
-8.5
74
0
0
LTYPE
5
6B
100
AcDbSymbolTableRecord
100
AcDbLinetypeTableRecord
70
0
2
DASHED
3
__ __ __ __ __ __ __ __ __
72
65
73
2
40
25.72
49
12.86
74
0
49
-12.86
74
0
0
ENDTAB
0
TABLE
2
LAYER
5
1a1
100
AcDbSymbolTable
0
LAYER
5
10
100
AcDbSymbolTableRecord
100
AcDbLayerTableRecord
2
0
70
0
62
7
6
CONTINUOUS
290
1
370
-3
390
0
0
LAYER
5
6D
100
AcDbSymbolTableRecord
100
AcDbLayerTableRecord
2
81
70
0
62
-3
6
CONTINUOUS
290
1
370
-3
390
0
0
LAYER
5
6F
100
AcDbSymbolTableRecord
100
AcDbLayerTableRecord
2
80
70
0
62
-6
6
CONTINUOUS
290
1
370
-3
390
0
0
LAYER
5
74
100
AcDbSymbolTableRecord
100
AcDbLayerTableRecord
2
2
70
0
62
7
6
CONTINUOUS
290
1
370
-3
390
0
0
LAYER
5
78
100
AcDbSymbolTableRecord
100
AcDbLayerTableRecord
2
1
70
0
62
4
6
CONTINUOUS
290
1
370
-3
390
0
0
LAYER
5
88
100
AcDbSymbolTableRecord
100
AcDbLayerTableRecord
2
4
70
0
62
-2
6
CENTER
290
1
370
-3
390
0
0
LAYER
5
18b
100
AcDbSymbolTableRecord
100
AcDbLayerTableRecord
2
SK2
70
0
62
7
6
CONTINUOUS
290
1
370
-3
390
0
0
LAYER
5
18c
100
AcDbSymbolTableRecord
100
AcDbLayerTableRecord
2
SK1
70
0
62
4
6
CONTINUOUS
290
1
370
-3
390
0
0
LAYER
5
18d
100
AcDbSymbolTableRecord
100
AcDbLayerTableRecord
2
SK4
70
0
62
2
6
CENTER
290
1
370
-3
390
0
0
LAYER
5
18e
100
AcDbSymbolTableRecord
100
AcDbLayerTableRecord
2
SK6
70
0
62
5
6
CONTINUOUS
290
1
370
-3
390
0
0
ENDTAB
0
TABLE
2
STYLE
5
1a2
100
AcDbSymbolTable
0
STYLE
5
11
100
AcDbSymbolTableRecord
100
AcDbTextStyleTableRecord
2
Standard
3
txt
70
0
71
0
40
0
41
1
42
0
50
0
0
STYLE
5
E7
100
AcDbSymbolTableRecord
100
AcDbTextStyleTableRecord
2
iso_b_vert
3
simplex.shx
70
0
71
0
40
0
41
1
42
0
50
0
0
STYLE
5
E8
100
AcDbSymbolTableRecord
100
AcDbTextStyleTableRecord
2
DWGDirectTextStyle
3
simplex
70
0
71
0
40
0
41
1
42
0
50
0
0
ENDTAB
0
TABLE
2
DIMSTYLE
5
1a3
100
AcDbSymbolTable
100
AcDbDimStyleTable
0
DIMSTYLE
105
27
100
AcDbSymbolTableRecord
100
AcDbDimStyleTableRecord
2
Standard
70
0
3
<>
41
0.18
42
0.0625
44
0.18
140
0.18
147
0.09
73
0
74
0
77
1
271
2
275
0
278
52
280
0
340
11
0
ENDTAB
0
TABLE
2
VIEW
5
1a4
100
AcDbSymbolTable
0
ENDTAB
0
TABLE
2
UCS
5
1a5
100
AcDbSymbolTable
0
ENDTAB
0
TABLE
2
APPID
5
1a6
100
AcDbSymbolTable
0
APPID
5
12
100
AcDbSymbolTableRecord
100
AcDbRegAppTableRecord
2
ACAD
70
0
0
ENDTAB
0
TABLE
2
BLOCK_RECORD
5
1a7
100
AcDbSymbolTable
0
BLOCK_RECORD
5
1F
100
AcDbSymbolTableRecord
100
AcDbBlockTableRecord
2
*Model_Space
340
0
70
0
0
BLOCK_RECORD
5
1B
100
AcDbSymbolTableRecord
100
AcDbBlockTableRecord
2
*Paper_Space
340
0
70
0
0
BLOCK_RECORD
5
23
100
AcDbSymbolTableRecord
100
AcDbBlockTableRecord
2
*Paper_Space0
340
0
70
0
0
BLOCK_RECORD
5
EA
100
AcDbSymbolTableRecord
100
AcDbBlockTableRecord
2
DimnDraft3D1
340
0
70
0
0
BLOCK_RECORD
5
F4
100
AcDbSymbolTableRecord
100
AcDbBlockTableRecord
2
DimnDraft3D2
340
0
70
0
0
BLOCK_RECORD
5
FE
100
AcDbSymbolTableRecord
100
AcDbBlockTableRecord
2
DimnDraft3D3
340
0
70
0
0
BLOCK_RECORD
5
108
100
AcDbSymbolTableRecord
100
AcDbBlockTableRecord
2
DimnDraft3D4
340
0
70
0
0
BLOCK_RECORD
5
112
100
AcDbSymbolTableRecord
100
AcDbBlockTableRecord
2
DimnDraft3D5
340
0
70
0
0
BLOCK_RECORD
5
11C
100
AcDbSymbolTableRecord
100
AcDbBlockTableRecord
2
DimnDraft3D6
340
0
70
0
0
BLOCK_RECORD
5
127
100
AcDbSymbolTableRecord
100
AcDbBlockTableRecord
2
DimnDraft3D7
340
0
70
0
0
ENDTAB
0
ENDSEC
0
SECTION
2
BLOCKS
0
BLOCK
5
20
100
AcDbEntity
8
0
100
AcDbBlockBegin
2
*Model_Space
70
0
10
0
20
0
30
0
3
*Model_Space
0
ENDBLK
5
21
100
AcDbEntity
8
0
100
AcDbBlockEnd
0
BLOCK
5
1C
100
AcDbEntity
8
0
100
AcDbBlockBegin
2
*Paper_Space
70
0
10
0
20
0
30
0
3
*Paper_Space
0
ENDBLK
5
1D
100
AcDbEntity
8
0
100
AcDbBlockEnd
0
BLOCK
5
24
100
AcDbEntity
8
0
100
AcDbBlockBegin
2
*Paper_Space0
70
0
10
0
20
0
30
0
3
*Paper_Space0
0
ENDBLK
5
25
100
AcDbEntity
8
0
100
AcDbBlockEnd
0
BLOCK
5
F1
100
AcDbEntity
8
0
100
AcDbBlockBegin
2
DimnDraft3D1
70
0
10
0
20
0
30
0
3
DimnDraft3D1
0
MTEXT
5
EB
100
AcDbEntity
8
SK2
62
256
6
ByLayer
370
13
48
1
60
0
100
AcDbMText
10
17.204664
20
-11.838398
30
0
210
0
220
0
230
1
1
\W0.6977;45,15
40
3.5
41
0
44
1.084337
50
0
71
7
72
5
7
iso_b_vert
0
LINE
5
EC
100
AcDbEntity
8
SK2
62
256
6
ByLayer
370
13
48
1
60
0
100
AcDbLine
10
0
20
-1.5875
30
0
11
0
21
-14.713398
31
0
39
0
210
0
220
0
230
1
0
LINE
5
ED
100
AcDbEntity
8
SK2
62
256
6
ByLayer
370
13
48
1
60
0
100
AcDbLine
10
45.15
20
-4.0875
30
0
11
45.15
21
-14.713398
31
0
39
0
210
0
220
0
230
1
0
LINE
5
EE
100
AcDbEntity
8
SK2
62
256
6
ByLayer
370
13
48
1
60
0
100
AcDbLine
10
0
20
-12.713398
30
0
11
45.15
21
-12.713398
31
0
39
0
210
0
220
0
230
1
0
SOLID
5
EF
100
AcDbEntity
8
SK2
62
256
6
ByLayer
370
13
48
1
60
0
100
AcDbTrace
10
0
20
-12.713398
30
0
11
3.499998
21
-12.252615
31
0
12
3.500002
22
-13.174182
32
0
13
0
23
-12.713398
33
0
39
0
210
0
220
0
230
1
0
SOLID
5
F0
100
AcDbEntity
8
SK2
62
256
6
ByLayer
370
13
48
1
60
0
100
AcDbTrace
10
45.15
20
-12.713398
30
0
11
41.650002
21
-13.174182
31
0
12
41.649998
22
-12.252615
32
0
13
45.15
23
-12.713398
33
0
39
0
210
0
220
0
230
1
0
ENDBLK
5
F2
100
AcDbEntity
8
0
100
AcDbBlockEnd
0
BLOCK
5
FB
100
AcDbEntity
8
0
100
AcDbBlockBegin
2
DimnDraft3D2
70
0
10
0
20
0
30
0
3
DimnDraft3D2
0
MTEXT
5
F5
100
AcDbEntity
8
SK2
62
256
6
ByLayer
370
13
48
1
60
0
100
AcDbMText
10
1.042616
20
-30.817985
30
0
210
0
220
0
230
1
1
\W0.7317;82,00
40
3.5
41
0
44
1.084337
50
0
71
7
72
5
7
iso_b_vert
0
LINE
5
F6
100
AcDbEntity
8
SK2
62
256
6
ByLayer
370
13
48
1
60
0
100
AcDbLine
10
-36
20
-4.5875
30
0
11
-36
21
-33.692985
31
0
39
0
210
0
220
0
230
1
0
LINE
5
F7
100
AcDbEntity
8
SK2
62
256
6
ByLayer
370
13
48
1
60
0
100
AcDbLine
10
46
20
-1.5875
30
0
11
46
21
-33.692985
31
0
39
0
210
0
220
0
230
1
0
LINE
5
F8
100
AcDbEntity
8
SK2
62
256
6
ByLayer
370
13
48
1
60
0
100
AcDbLine
10
-36
20
-31.692985
30
0
11
46
21
-31.692985
31
0
39
0
210
0
220
0
230
1
0
SOLID
5
F9
100
AcDbEntity
8
SK2
62
256
6
ByLayer
370
13
48
1
60
0
100
AcDbTrace
10
-36
20
-31.692985
30
0
11
-32.500002
21
-31.232202
31
0
12
-32.499998
22
-32.153769
32
0
13
-36
23
-31.692985
33
0
39
0
210
0
220
0
230
1
0
SOLID
5
FA
100
AcDbEntity
8
SK2
62
256
6
ByLayer
370
13
48
1
60
0
100
AcDbTrace
10
46
20
-31.692985
30
0
11
42.500002
21
-32.153769
31
0
12
42.499998
22
-31.232202
32
0
13
46
23
-31.692985
33
0
39
0
210
0
220
0
230
1
0
ENDBLK
5
FC
100
AcDbEntity
8
0
100
AcDbBlockEnd
0
BLOCK
5
105
100
AcDbEntity
8
0
100
AcDbBlockBegin
2
DimnDraft3D3
70
0
10
0
20
0
30
0
3
DimnDraft3D3
0
MTEXT
5
FF
100
AcDbEntity
8
SK2
62
256
6
ByLayer
370
13
48
1
60
0
100
AcDbMText
10
28.626316
20
14.984119
30
0
210
0
220
0
230
1
1
\W0.7317;25,85
40
3.5
41
0
44
1.084337
50
0
71
7
72
5
7
iso_b_vert
0
LINE
5
100
100
AcDbEntity
8
SK2
62
256
6
ByLayer
370
13
48
1
60
0
100
AcDbLine
10
20.15
20
4.0875
30
0
11
20.15
21
16.109119
31
0
39
0
210
0
220
0
230
1
0
LINE
5
101
100
AcDbEntity
8
SK2
62
256
6
ByLayer
370
13
48
1
60
0
100
AcDbLine
10
46
20
1.5875
30
0
11
46
21
16.109119
31
0
39
0
210
0
220
0
230
1
0
LINE
5
102
100
AcDbEntity
8
SK2
62
256
6
ByLayer
370
13
48
1
60
0
100
AcDbLine
10
20.15
20
14.109119
30
0
11
46
21
14.109119
31
0
39
0
210
0
220
0
230
1
0
SOLID
5
103
100
AcDbEntity
8
SK2
62
256
6
ByLayer
370
13
48
1
60
0
100
AcDbTrace
10
20.15
20
14.109119
30
0
11
23.649998
21
14.569903
31
0
12
23.650002
22
13.648335
32
0
13
20.15
23
14.109119
33
0
39
0
210
0
220
0
230
1
0
SOLID
5
104
100
AcDbEntity
8
SK2
62
256
6
ByLayer
370
13
48
1
60
0
100
AcDbTrace
10
46
20
14.109119
30
0
11
42.500002
21
13.648335
31
0
12
42.499998
22
14.569903
32
0
13
46
23
14.109119
33
0
39
0
210
0
220
0
230
1
0
ENDBLK
5
106
100
AcDbEntity
8
0
100
AcDbBlockEnd
0
BLOCK
5
10F
100
AcDbEntity
8
0
100
AcDbBlockBegin
2
DimnDraft3D4
70
0
10
0
20
0
30
0
3
DimnDraft3D4
0
MTEXT
5
109
100
AcDbEntity
8
SK2
62
256
6
ByLayer
370
13
48
1
60
0
100
AcDbMText
10
52.840636
20
-14.427503
30
0
210
0
220
0
230
1
1
\W0.7150;0,85
40
3.5
41
0
44
1.084337
50
0
71
7
72
5
7
iso_b_vert
0
LINE
5
10A
100
AcDbEntity
8
SK2
62
256
6
ByLayer
370
13
48
1
60
0
100
AcDbLine
10
46
20
-1.5875
30
0
11
46
21
-17.302503
31
0
39
0
210
0
220
0
230
1
0
LINE
5
10B
100
AcDbEntity
8
SK2
62
256
6
ByLayer
370
13
48
1
60
0
100
AcDbLine
10
45.15
20
-4.0875
30
0
11
45.15
21
-17.302503
31
0
39
0
210
0
220
0
230
1
0
LINE
5
10C
100
AcDbEntity
8
SK2
62
256
6
ByLayer
370
13
48
1
60
0
100
AcDbLine
10
36.4
20
-15.302503
30
0
11
59.997215
21
-15.302503
31
0
39
0
210
0
220
0
230
1
0
SOLID
5
10D
100
AcDbEntity
8
SK2
62
256
6
ByLayer
370
13
48
1
60
0
100
AcDbTrace
10
46
20
-15.302503
30
0
11
49.499998
21
-14.841719
31
0
12
49.500002
22
-15.763287
32
0
13
46
23
-15.302503
33
0
39
0
210
0
220
0
230
1
0
SOLID
5
10E
100
AcDbEntity
8
SK2
62
256
6
ByLayer
370
13
48
1
60
0
100
AcDbTrace
10
45.15
20
-15.302503
30
0
11
41.650002
21
-15.763287
31
0
12
41.649998
22
-14.841719
32
0
13
45.15
23
-15.302503
33
0
39
0
210
0
220
0
230
1
0
ENDBLK
5
110
100
AcDbEntity
8
0
100
AcDbBlockEnd
0
BLOCK
5
119
100
AcDbEntity
8
0
100
AcDbBlockBegin
2
DimnDraft3D5
70
0
10
0
20
0
30
0
3
DimnDraft3D5
0
MTEXT
5
113
100
AcDbEntity
8
SK2
62
256
6
ByLayer
370
13
48
1
60
0
100
AcDbMText
10
-1.163008
20
-20.468428
30
0
210
0
220
0
230
1
1
\W0.6110;81,15
40
3.5
41
0
44
1.084337
50
0
71
7
72
5
7
iso_b_vert
0
LINE
5
114
100
AcDbEntity
8
SK2
62
256
6
ByLayer
370
13
48
1
60
0
100
AcDbLine
10
-36
20
-4.5875
30
0
11
-36
21
-23.343428
31
0
39
0
210
0
220
0
230
1
0
LINE
5
115
100
AcDbEntity
8
SK2
62
256
6
ByLayer
370
13
48
1
60
0
100
AcDbLine
10
45.15
20
-4.0875
30
0
11
45.15
21
-23.343428
31
0
39
0
210
0
220
0
230
1
0
LINE
5
116
100
AcDbEntity
8
SK2
62
256
6
ByLayer
370
13
48
1
60
0
100
AcDbLine
10
-36
20
-21.343428
30
0
11
45.15
21
-21.343428
31
0
39
0
210
0
220
0
230
1
0
SOLID
5
117
100
AcDbEntity
8
SK2
62
256
6
ByLayer
370
13
48
1
60
0
100
AcDbTrace
10
-36
20
-21.343428
30
0
11
-32.500002
21
-20.882645
31
0
12
-32.499998
22
-21.804212
32
0
13
-36
23
-21.343428
33
0
39
0
210
0
220
0
230
1
0
SOLID
5
118
100
AcDbEntity
8
SK2
62
256
6
ByLayer
370
13
48
1
60
0
100
AcDbTrace
10
45.15
20
-21.343428
30
0
11
41.650002
21
-21.804212
31
0
12
41.649998
22
-20.882645
32
0
13
45.15
23
-21.343428
33
0
39
0
210
0
220
0
230
1
0
ENDBLK
5
11A
100
AcDbEntity
8
0
100
AcDbBlockEnd
0
BLOCK
5
124
100
AcDbEntity
8
0
100
AcDbBlockBegin
2
DimnDraft3D6
70
0
10
0
20
0
30
0
3
DimnDraft3D6
0
MTEXT
5
11D
100
AcDbEntity
8
SK2
62
256
6
ByLayer
370
13
48
1
60
0
100
AcDbMText
10
-46.375163
20
22.34918
30
0
210
0
220
0
230
1
1
\W0.7317;6,000
40
3.5
41
0
44
1.084337
50
90
71
7
72
5
7
iso_b_vert
0
MTEXT
5
11E
100
AcDbEntity
8
SK2
62
256
6
ByLayer
370
13
48
1
60
0
100
AcDbMText
10
-46.375163
20
17.126524
30
0
210
0
220
0
230
1
1
%%c
40
3.5
41
0
44
1.084337
50
90
71
7
72
5
7
iso_b_vert
0
LINE
5
11F
100
AcDbEntity
8
SK2
62
256
6
ByLayer
370
13
48
1
60
0
100
AcDbLine
10
-37.5875
20
-3
30
0
11
-46.625163
21
-3
31
0
39
0
210
0
220
0
230
1
0
LINE
5
120
100
AcDbEntity
8
SK2
62
256
6
ByLayer
370
13
48
1
60
0
100
AcDbLine
10
-37.5875
20
3
30
0
11
-46.625163
21
3
31
0
39
0
210
0
220
0
230
1
0
LINE
5
121
100
AcDbEntity
8
SK2
62
256
6
ByLayer
370
13
48
1
60
0
100
AcDbLine
10
-44.625163
20
32.121549
30
0
11
-44.625163
21
-11.75
31
0
39
0
210
0
220
0
230
1
0
SOLID
5
122
100
AcDbEntity
8
SK2
62
256
6
ByLayer
370
13
48
1
60
0
100
AcDbTrace
10
-44.625163
20
-3
30
0
11
-44.164379
21
-6.499998
31
0
12
-45.085946
22
-6.500002
32
0
13
-44.625163
23
-3
33
0
39
0
210
0
220
0
230
1
0
SOLID
5
123
100
AcDbEntity
8
SK2
62
256
6
ByLayer
370
13
48
1
60
0
100
AcDbTrace
10
-44.625163
20
3
30
0
11
-45.085946
21
6.499998
31
0
12
-44.164379
22
6.500002
32
0
13
-44.625163
23
3
33
0
39
0
210
0
220
0
230
1
0
ENDBLK
5
125
100
AcDbEntity
8
0
100
AcDbBlockEnd
0
BLOCK
5
12F
100
AcDbEntity
8
0
100
AcDbBlockBegin
2
DimnDraft3D7
70
0
10
0
20
0
30
0
3
DimnDraft3D7
0
MTEXT
5
128
100
AcDbEntity
8
2
62
256
6
ByLayer
370
13
48
1
60
0
100
AcDbMText
10
56.333343
20
20.442266
30
0
210
0
220
0
230
1
1
\W0.7317;5,000
40
3.5
41
0
44
1.084337
50
90
71
7
72
5
7
iso_b_vert
0
MTEXT
5
129
100
AcDbEntity
8
2
62
256
6
ByLayer
370
13
48
1
60
0
100
AcDbMText
10
56.333343
20
15.21961
30
0
210
0
220
0
230
1
1
%%c
40
3.5
41
0
44
1.084337
50
90
71
7
72
5
7
iso_b_vert
0
LINE
5
12A
100
AcDbEntity
8
2
62
256
6
ByLayer
370
13
48
1
60
0
100
AcDbLine
10
46.7375
20
-2.5
30
0
11
60.083343
21
-2.5
31
0
39
0
210
0
220
0
230
1
0
LINE
5
12B
100
AcDbEntity
8
2
62
256
6
ByLayer
370
13
48
1
60
0
100
AcDbLine
10
46.7375
20
2.5
30
0
11
60.083343
21
2.5
31
0
39
0
210
0
220
0
230
1
0
LINE
5
12C
100
AcDbEntity
8
2
62
256
6
ByLayer
370
13
48
1
60
0
100
AcDbLine
10
58.083343
20
30.214635
30
0
11
58.083343
21
-11.25
31
0
39
0
210
0
220
0
230
1
0
SOLID
5
12D
100
AcDbEntity
8
2
62
256
6
ByLayer
370
13
48
1
60
0
100
AcDbTrace
10
58.083343
20
-2.5
30
0
11
58.544126
21
-5.999998
31
0
12
57.622559
22
-6.000002
32
0
13
58.083343
23
-2.5
33
0
39
0
210
0
220
0
230
1
0
SOLID
5
12E
100
AcDbEntity
8
2
62
256
6
ByLayer
370
13
48
1
60
0
100
AcDbTrace
10
58.083343
20
2.5
30
0
11
57.622559
21
5.999998
31
0
12
58.544126
22
6.000002
32
0
13
58.083343
23
2.5
33
0
39
0
210
0
220
0
230
1
0
ENDBLK
5
130
100
AcDbEntity
8
0
100
AcDbBlockEnd
0
ENDSEC
0
SECTION
2
ENTITIES
0
ARC
5
9A
100
AcDbEntity
8
1
62
256
6
ByLayer
370
18
48
1
60
0
100
AcDbCircle
39
0
10
0
20
2.2
30
0
40
0.800000000000002
210
0
220
0
230
1
100
AcDbArc
50
42.143616
51
90
0
ARC
5
9B
100
AcDbEntity
8
1
62
256
6
ByLayer
370
18
48
1
60
0
100
AcDbCircle
39
0
10
0
20
-2.2
30
0
40
0.800000000000002
210
0
220
0
230
1
100
AcDbArc
50
270
51
317.856384
0
ARC
5
9C
100
AcDbEntity
8
1
62
256
6
ByLayer
370
18
48
1
60
0
100
AcDbCircle
39
0
10
-1.186344
20
3.273586
30
0
40
0.800000000000001
210
0
220
0
230
-1
100
AcDbArc
50
269.965623
51
317.856384
0
ARC
5
9D
100
AcDbEntity
8
1
62
256
6
ByLayer
370
18
48
1
60
0
100
AcDbCircle
39
0
10
-1.186344
20
-3.273586
30
0
40
0.800000000000001
210
0
220
0
230
-1
100
AcDbArc
50
42.143616
51
90.034377
0
ELLIPSE
5
9E
100
AcDbEntity
8
1
62
256
6
ByLayer
370
18
48
1
60
0
100
AcDbEllipse
10
4.25
20
-2.601867
30
0
11
-0.25
21
3.06151588455594E-17
31
0
210
0
220
0
230
1
40
1
41
-1.55731167296895
42
-0.55835013539754
0
ELLIPSE
5
9F
100
AcDbEntity
8
1
62
256
6
ByLayer
370
18
48
1
60
0
100
AcDbEllipse
10
4.25
20
2.601867
30
0
11
-0.25
21
3.06151588455594E-17
31
0
210
0
220
0
230
1
40
1
41
0.555679983934084
42
1.59577142310325
0
ELLIPSE
5
A0
100
AcDbEntity
8
1
62
256
6
ByLayer
370
13
48
1
60
0
100
AcDbEllipse
10
4.250281
20
1.479528
30
0
11
0.0378890889089348
21
0.0925441351013171
31
0
210
0
220
0
230
1
40
0.277347
41
-2.40147214772791
42
-2.16212061950931
0
ELLIPSE
5
A1
100
AcDbEntity
8
1
62
256
6
ByLayer
370
13
48
1
60
0
100
AcDbEllipse
10
45.626232
20
1.172482
30
0
11
1.54960366937454
21
-1.06694619144467
31
0
210
0
220
0
230
-1
40
0.533762
41
1.4448462273954
42
1.68971737858044
0
ELLIPSE
5
A2
100
AcDbEntity
8
1
62
256
6
ByLayer
370
18
48
1
60
0
100
AcDbEllipse
10
46.000232
20
-0.000546
30
0
11
0.927283654336842
21
-2.49748764140624
31
0
210
0
220
0
230
-1
40
0.131755
41
-2.96401500301917
42
-2.84484624495628
0
ELLIPSE
5
A3
100
AcDbEntity
8
1
62
256
6
ByLayer
370
13
48
1
60
0
100
AcDbEllipse
10
45.816139
20
1.29568
30
0
11
1.61532976862341
21
-0.728850814855717
31
0
210
0
220
0
230
-1
40
0.46791
41
1.58896494157672
42
1.8679407128433
0
ELLIPSE
5
A4
100
AcDbEntity
8
1
62
256
6
ByLayer
370
13
48
1
60
0
100
AcDbEllipse
10
45.445812
20
0.341086
30
0
11
0.153082081612423
21
0.25800363619377
31
0
210
0
220
0
230
1
40
0.454519
41
0.917105603404822
42
2.31336900500025
0
ELLIPSE
5
A5
100
AcDbEntity
8
1
62
256
6
ByLayer
370
18
48
1
60
0
100
AcDbEllipse
10
46.057571
20
-0.021891
30
0
11
0.135544944400934
21
-0.427068209993268
31
0
210
0
220
0
230
-1
40
0.100282
41
1.71341872081853
42
2.33653286889358
0
ELLIPSE
5
A6
100
AcDbEntity
8
1
62
256
6
ByLayer
370
18
48
1
60
0
100
AcDbEllipse
10
46.057571
20
0.021891
30
0
11
0.135544944398964
21
0.427068209988134
31
0
210
0
220
0
230
-1
40
0.100282
41
-2.33653286889481
42
-1.71341872081298
0
ELLIPSE
5
A7
100
AcDbEntity
8
1
62
256
6
ByLayer
370
18
48
1
60
0
100
AcDbEllipse
10
45.489532
20
-1.29568
30
0
11
0.389385275896724
21
1.04874588932299
31
0
210
0
220
0
230
-1
40
0.131755
41
0.736518128028246
42
1.47224861105684
0
ELLIPSE
5
A8
100
AcDbEntity
8
1
62
256
6
ByLayer
370
18
48
1
60
0
100
AcDbEllipse
10
45.489532
20
1.29568
30
0
11
0.389385275901949
21
-1.04874588933357
31
0
210
0
220
0
230
-1
40
0.131755
41
-1.47224861104811
42
-0.736518128025492
0
ELLIPSE
5
A9
100
AcDbEntity
8
1
62
256
6
ByLayer
370
18
48
1
60
0
100
AcDbEllipse
10
46.000232
20
0.000546
30
0
11
0.927283646118278
21
2.49748761692052
31
0
210
0
220
0
230
-1
40
0.131755
41
2.84484624348022
42
2.96401500213734
0
ELLIPSE
5
AA
100
AcDbEntity
8
1
62
256
6
ByLayer
370
18
48
1
60
0
100
AcDbEllipse
10
45.860843
20
0.094834
30
0
11
0.0727819104926987
21
0.301917195715034
31
0
210
0
220
0
230
-1
40
0.478434
41
1.68661194619924
42
2.45976119973125
0
ELLIPSE
5
AB
100
AcDbEntity
8
1
62
256
6
ByLayer
370
13
48
1
60
0
100
AcDbEllipse
10
4.180997
20
1.517671
30
0
11
0.0580385358201904
21
0.0814341965015219
31
0
210
0
220
0
230
1
40
0.082446
41
2.36215220680832
42
2.626627266887
0
POINT
5
6C
100
AcDbEntity
8
81
62
256
6
ByLayer
370
18
48
1
60
0
100
AcDbPoint
10
46
20
0
30
0
39
0
210
0
220
0
230
1
50
360
0
POINT
5
6E
100
AcDbEntity
8
80
62
256
6
ByLayer
370
18
48
1
60
0
100
AcDbPoint
10
0
20
0
30
0
39
0
210
0
220
0
230
1
50
360
0
POINT
5
70
100
AcDbEntity
8
SK2
62
256
6
ByLayer
370
18
48
1
60
1
100
AcDbPoint
10
-36
20
-3
30
0
39
0
210
0
220
0
230
1
50
360
0
POINT
5
72
100
AcDbEntity
8
SK2
62
256
6
ByLayer
370
18
48
1
60
1
100
AcDbPoint
10
-36
20
3
30
0
39
0
210
0
220
0
230
1
50
360
0
POINT
5
73
100
AcDbEntity
8
2
62
256
6
ByLayer
370
18
48
1
60
1
100
AcDbPoint
10
45.15
20
-2.5
30
0
39
0
210
0
220
0
230
1
50
360
0
POINT
5
75
100
AcDbEntity
8
2
62
256
6
ByLayer
370
18
48
1
60
1
100
AcDbPoint
10
45.15
20
2.5
30
0
39
0
210
0
220
0
230
1
50
360
0
SPLINE
5
AC
100
AcDbEntity
8
1
62
256
6
ByLayer
370
18
48
1
60
0
100
AcDbSpline
70
4
71
1
72
4
73
2
40
0
40
0
40
1
40
1
41
1
10
4.05160590555579
20
1.52159522097932
30
0
41
1
10
4.06675299189919
20
1.49640140812528
30
0
0
SPLINE
5
AD
100
AcDbEntity
8
1
62
256
6
ByLayer
370
18
48
1
60
0
100
AcDbSpline
70
4
71
3
72
20
73
16
40
0
40
0
40
0
40
0
40
0.124516983858296
40
0.220290043708418
40
0.287192519853096
40
0.332399568227434
40
0.380519811228351
40
0.433462571341601
40
0.485131853398704
40
0.531890249199872
40
0.601892045835787
40
0.682731714946415
40
0.776672621121555
40
0.889582569823394
40
1
40
1
40
1
40
1
41
1
10
29.7470218868616
20
-2.36592043098182
30
0
41
1
10
30.0470121976452
20
-2.36620869342366
30
0
41
1
10
30.5777965584915
20
-2.3667643010117
30
0
41
1
10
31.2700630159862
20
-2.3664030817497
30
0
41
1
10
31.771031125316
20
-2.36766193993387
30
0
41
1
10
32.1572310309158
20
-2.36739280437894
30
0
41
1
10
32.5097724601351
20
-2.36706106774548
30
0
41
1
10
32.8778784447569
20
-2.3681936839728
30
0
41
1
10
33.2426627725344
20
-2.36827142243553
30
0
41
1
10
33.648016265204
20
-2.36752900749787
30
0
41
1
10
34.1233918781099
20
-2.36860840656368
30
0
41
1
10
34.7142007902656
20
-2.3689173427604
30
0
41
1
10
35.4012483761924
20
-2.36839104545945
30
0
41
1
10
36.1683670204154
20
-2.36701576760245
30
0
41
1
10
36.7049660692034
20
-2.36925895382782
30
0
41
1
10
36.9703107702643
20
-2.3708398304812
30
0
0
SPLINE
5
AE
100
AcDbEntity
8
1
62
256
6
ByLayer
370
18
48
1
60
0
100
AcDbSpline
70
4
71
3
72
20
73
16
40
0
40
0
40
0
40
0
40
0.123877895544569
40
0.238853524087965
40
0.313150645677185
40
0.366211381317746
40
0.424942381602035
40
0.493508846173237
40
0.579333828418919
40
0.67937630291588
40
0.785056200464791
40
0.85027104696398
40
0.921424603464578
40
0.990094974466893
40
1
40
1
40
1
40
1
41
1
10
21.9909168899703
20
2.3623578424978
30
0
41
1
10
21.7457311247276
20
2.36194423629149
30
0
41
1
10
21.272953384723
20
2.36115668244963
30
0
41
1
10
20.6533208919683
20
2.36281356257669
30
0
41
1
10
20.1734276493214
20
2.3607170532467
30
0
41
1
10
19.8055306203949
20
2.36049467953276
30
0
41
1
10
19.4493302343351
20
2.36147221526397
30
0
41
1
10
19.0278535459972
20
2.36063521013833
30
0
41
1
10
18.5239985618951
20
2.35866314939861
30
0
41
1
10
17.9473275613535
20
2.36125052094948
30
0
41
1
10
17.4113265751428
20
2.35838838801553
30
0
41
1
10
16.9322629501155
20
2.35876334912774
30
0
41
1
10
16.5267542848402
20
2.35891144186186
30
0
41
1
10
16.2356720850572
20
2.35743220907244
30
0
41
1
10
16.0819862606688
20
2.35637062834175
30
0
41
1
10
16.0625981586126
20
2.35623504193794
30
0
0
SPLINE
5
AF
100
AcDbEntity
8
1
62
256
6
ByLayer
370
18
48
1
60
0
100
AcDbSpline
70
4
71
3
72
11
73
7
40
0
40
0
40
0
40
0
40
0.124747906057479
40
0.391854313019795
40
0.70808760146455
40
1
40
1
40
1
40
1
41
1
10
4.2512671397977
20
-2.35163419916628
30
0
41
1
10
4.36608432274005
20
-2.35241610680129
30
0
41
1
10
4.72675421117685
20
-2.35443235787332
30
0
41
1
10
5.3785557132168
20
-2.35451034353676
30
0
41
1
10
6.18430799313307
20
-2.35289766673975
30
0
41
1
10
6.74403080771333
20
-2.35390633660191
30
0
41
1
10
7.01268414413894
20
-2.35461566802195
30
0
0
SPLINE
5
B0
100
AcDbEntity
8
1
62
256
6
ByLayer
370
18
48
1
60
0
100
AcDbSpline
70
4
71
3
72
11
73
7
40
0
40
0
40
0
40
0
40
0.166651620524126
40
0.431084099289461
40
0.73808158329877
40
1
40
1
40
1
40
1
41
1
10
7.04815574878245
20
2.35457659133283
30
0
41
1
10
6.89332542760809
20
2.35421762921931
30
0
41
1
10
6.4924236191969
20
2.35349065534203
30
0
41
1
10
5.80316164330725
20
2.35193799971412
30
0
41
1
10
5.02499555531972
20
2.35445057196091
30
0
41
1
10
4.49508719592382
20
2.35236225452633
30
0
41
1
10
4.25131405895985
20
2.35109258469259
30
0
0
SPLINE
5
B1
100
AcDbEntity
8
1
62
256
6
ByLayer
370
18
48
1
60
0
100
AcDbSpline
70
4
71
3
72
14
73
10
40
0
40
0
40
0
40
0
40
0.0797718411666185
40
0.214838428386359
40
0.362599639544821
40
0.469195061207867
40
0.546634811912328
40
0.661142911693632
40
1
40
1
40
1
40
1
41
1
10
37.873531342129
20
-0.70619929691955
30
0
41
1
10
37.8733550252625
20
-0.706273055890961
30
0
41
1
10
37.8758118425282
20
-0.707486614556728
30
0
41
1
10
37.9066119475318
20
-0.719171069145773
30
0
41
1
10
37.9561768971858
20
-0.738946321431825
30
0
41
1
10
37.9803104605525
20
-0.749467611933142
30
0
41
1
10
38.0250820558973
20
-0.769706944718592
30
0
41
1
10
38.1331343633775
20
-0.819644919135754
30
0
41
1
10
38.2324795580844
20
-0.867703779299546
30
0
41
1
10
38.316345091239
20
-0.909206221269301
30
0
0
SPLINE
5
B2
100
AcDbEntity
8
1
62
256
6
ByLayer
370
18
48
1
60
0
100
AcDbSpline
70
4
71
3
72
13
73
9
40
0
40
0
40
0
40
0
40
0.211952026230837
40
0.406405492447956
40
0.482614352764912
40
0.590442802189925
40
0.763373057719666
40
1
40
1
40
1
40
1
41
1
10
22.9128119405279
20
-0.707685467002591
30
0
41
1
10
22.913724372318
20
-0.708156024581626
30
0
41
1
10
22.925485781763
20
-0.711799474274727
30
0
41
1
10
22.9659111934335
20
-0.728214200844036
30
0
41
1
10
23.0067445034791
20
-0.74668311014932
30
0
41
1
10
23.0909103747314
20
-0.784288424084764
30
0
41
1
10
23.2273927204095
20
-0.848195738904195
30
0
41
1
10
23.3406414323819
20
-0.902970372443519
30
0
41
1
10
23.4089538586545
20
-0.936675659271032
30
0
0
SPLINE
5
B3
100
AcDbEntity
8
1
62
256
6
ByLayer
370
18
48
1
60
0
100
AcDbSpline
70
4
71
3
72
23
73
19
40
0
40
0
40
0
40
0
40
0.0633673660301489
40
0.125346704617846
40
0.187554643439162
40
0.243905505916526
40
0.289474035072412
40
0.325747444826009
40
0.374168075006933
40
0.442537862771756
40
0.524632653291142
40
0.595060578771293
40
0.651326175696884
40
0.699520796926438
40
0.743062402621086
40
0.804030573028085
40
0.898379500195385
40
1
40
1
40
1
40
1
41
1
10
14.7784815687388
20
-2.35674533086666
30
0
41
1
10
14.9259982440479
20
-2.35607390684132
30
0
41
1
10
15.2203942636813
20
-2.35522388626114
30
0
41
1
10
15.6750615699368
20
-2.35313928046727
30
0
41
1
10
16.1075263361411
20
-2.35677921960257
30
0
41
1
10
16.4964641091477
20
-2.35876296396731
30
0
41
1
10
16.8285859071031
20
-2.3588190762367
30
0
41
1
10
17.1431087320638
20
-2.35867107706923
30
0
41
1
10
17.5120144046844
20
-2.35863049864639
30
0
41
1
10
17.9915902519819
20
-2.36119229819269
30
0
41
1
10
18.5239913425524
20
-2.3586287195684
30
0
41
1
10
19.0278549606283
20
-2.36064195675698
30
0
41
1
10
19.4493299455847
20
-2.36147083811892
30
0
41
1
10
19.8055306840761
20
-2.36049498368797
30
0
41
1
10
20.1734276256516
20
-2.36071693894567
30
0
41
1
10
20.6533209045854
20
-2.36281363283408
30
0
41
1
10
21.2728723016619
20
-2.36115678627482
30
0
41
1
10
21.7455689408461
20
-2.36194417842324
30
0
41
1
10
21.9906736104137
20
-2.36235761800506
30
0
0
SPLINE
5
B4
100
AcDbEntity
8
1
62
256
6
ByLayer
370
18
48
1
60
0
100
AcDbSpline
70
4
71
3
72
9
73
5
40
0
40
0
40
0
40
0
40
0.181069637643915
40
1
40
1
40
1
40
1
41
1
10
29.0694563438893
20
0.195429432569568
30
0
41
1
10
29.0694405483841
20
0.195577042731628
30
0
41
1
10
29.0657974328327
20
0.198092434946915
30
0
41
1
10
29.0501120242857
20
0.20666503775027
30
0
41
1
10
29.0267443137211
20
0.218820892347935
30
0
0
SPLINE
5
B5
100
AcDbEntity
8
1
62
256
6
ByLayer
370
18
48
1
60
0
100
AcDbSpline
70
4
71
2
72
6
73
3
40
0
40
0
40
0
40
1
40
1
40
1
41
1
10
44.7184545948617
20
-2.37483400762557
30
0
41
1
10
44.912263686301
20
-2.37475881821558
30
0
41
1
10
45.1027399321579
20
-2.37311454623631
30
0
0
SPLINE
5
B6
100
AcDbEntity
8
1
62
256
6
ByLayer
370
18
48
1
60
0
100
AcDbSpline
70
4
71
3
72
17
73
13
40
0
40
0
40
0
40
0
40
0.134269430614954
40
0.271676276441724
40
0.385998563894744
40
0.484377175151122
40
0.569566533473081
40
0.689340019674337
40
0.812328804805211
40
0.867343956239467
40
0.948761566740474
40
1
40
1
40
1
40
1
41
1
10
36.9696933751595
20
2.37083749502313
30
0
41
1
10
36.7045541819032
20
2.36925806896997
30
0
41
1
10
36.1681611893905
20
2.36701763819937
30
0
41
1
10
35.4012460150032
20
2.36838481304065
30
0
41
1
10
34.7142073159591
20
2.36893534775885
30
0
41
1
10
34.1233723665765
20
2.36855439454584
30
0
41
1
10
33.5238036554926
20
2.36744855512828
30
0
41
1
10
32.8746578507049
20
2.36849124238657
30
0
41
1
10
32.2848281812855
20
2.36710577941798
30
0
41
1
10
31.7710334658669
20
2.36771611822041
30
0
41
1
10
31.3993986510124
20
2.36672364002118
30
0
41
1
10
31.1366650103188
20
2.36659311729292
30
0
41
1
10
31.035183982708
20
2.36657645765951
30
0
0
SPLINE
5
B7
100
AcDbEntity
8
1
62
256
6
ByLayer
370
18
48
1
60
0
100
AcDbSpline
70
4
71
3
72
12
73
8
40
0
40
0
40
0
40
0
40
0.249999999999995
40
0.249999999999995
40
0.49999999999999
40
0.49999999999999
40
1
40
1
40
1
40
1
41
1
10
45.1557624930962
20
-2.45222850151342
30
0
41
1
10
45.1606387228108
20
-2.4391780401636
30
0
41
1
10
45.1651349045969
20
-2.4258602330811
30
0
41
1
10
45.1720846894253
20
-2.40195361759081
30
0
41
1
10
45.174516248504
20
-2.39138468751312
30
0
41
1
10
45.1779010136266
20
-2.36796731588419
30
0
41
1
10
45.1752812266921
20
-2.36329084770054
30
0
41
1
10
45.1703221556124
20
-2.3657074347374
30
0
0
SPLINE
5
B8
100
AcDbEntity
8
1
62
256
6
ByLayer
370
13
48
1
60
0
100
AcDbSpline
70
4
71
3
72
8
73
4
40
0
40
0
40
0
40
0
40
1
40
1
40
1
40
1
41
1
10
4.13499465968127
20
1.46311010358445
30
0
41
1
10
4.17104228152317
20
1.44341180979265
30
0
41
1
10
4.21028899019194
20
1.42866159100293
30
0
41
1
10
4.25046797839809
20
1.41921382332902
30
0
0
SPLINE
5
B9
100
AcDbEntity
8
1
62
256
6
ByLayer
370
18
48
1
60
0
100
AcDbSpline
70
4
71
3
72
32
73
28
40
0
40
0
40
0
40
0
40
0.249999999999991
40
0.249999999999991
40
0.374999999999987
40
0.374999999999987
40
0.499999999999982
40
0.499999999999982
40
0.624999999999978
40
0.624999999999978
40
0.687499999999981
40
0.687499999999981
40
0.749999999999985
40
0.749999999999985
40
0.812499999999989
40
0.812499999999989
40
0.843749999999991
40
0.843749999999991
40
0.874999999999992
40
0.874999999999992
40
0.906249999999994
40
0.906249999999994
40
0.937499999999996
40
0.937499999999996
40
0.968749999999998
40
0.968749999999998
40
1
40
1
40
1
40
1
41
1
10
43.1287318325653
20
0.640453289276678
30
0
41
1
10
43.2999176307153
20
0.534865732409031
30
0
41
1
10
43.4717717328099
20
0.438575318860643
30
0
41
1
10
43.7311270675288
20
0.316039003267861
30
0
41
1
10
43.8178380917554
20
0.278800078085368
30
0
41
1
10
43.9918687199598
20
0.212788514972146
30
0
41
1
10
44.0794719750546
20
0.183970425096049
30
0
41
1
10
44.2528654204848
20
0.136876909242375
30
0
41
1
10
44.3390042822021
20
0.118514753114937
30
0
41
1
10
44.4663316814618
20
0.0998384806028696
30
0
41
1
10
44.5084739403361
20
0.0950900988872831
30
0
41
1
10
44.5919328468854
20
0.0887187492181454
30
0
41
1
10
44.633167938206
20
0.0879433745763265
30
0
41
1
10
44.7104130778542
20
0.0987394811300533
30
0
41
1
10
44.7472557651889
20
0.109891476887839
30
0
41
1
10
44.7952024812666
20
0.137443438136472
30
0
41
1
10
44.8099985896916
20
0.148365943372681
30
0
41
1
10
44.8368937900581
20
0.174163986867512
30
0
41
1
10
44.8491050368045
20
0.18921578414421
30
0
41
1
10
44.8692851071108
20
0.222902126217349
30
0
41
1
10
44.8773723445099
20
0.241553409541439
30
0
41
1
10
44.8889326158907
20
0.28302164787533
30
0
41
1
10
44.8921654147802
20
0.305526003194274
30
0
41
1
10
44.8942947448843
20
0.352305707475608
30
0
41
1
10
44.8932100805828
20
0.376991565378773
30
0
41
1
10
44.8874730758845
20
0.427034602391245
30
0
41
1
10
44.8828730811848
20
0.452311385903926
30
0
41
1
10
44.8769130727653
20
0.47778866924034
30
0
0
SPLINE
5
BA
100
AcDbEntity
8
1
62
256
6
ByLayer
370
13
48
1
60
0
100
AcDbSpline
70
4
71
3
72
16
73
12
40
0
40
0
40
0
40
0
40
0.252360255930171
40
0.252360255930171
40
0.378540383895256
40
0.378540383895256
40
0.504720511860341
40
0.504720511860341
40
0.757080767790513
40
0.757080767790513
40
1
40
1
40
1
40
1
41
1
10
4.25046797839812
20
1.41921382332902
30
0
41
1
10
4.25056353980779
20
1.54018004329828
30
0
41
1
10
4.25065112231962
20
1.65095163813035
30
0
41
1
10
4.25077418932202
20
1.80204399053744
30
0
41
1
10
4.250813957811
20
1.85003696835162
30
0
41
1
10
4.25088994637224
20
1.93930978468254
30
0
41
1
10
4.25092630817431
20
1.98077118405382
30
0
41
1
10
4.25103145959861
20
2.0958355415961
30
0
41
1
10
4.25109635988261
20
2.1602059331741
30
0
41
1
10
4.25121725523138
20
2.26135148311079
30
0
41
1
10
4.25127247724433
20
2.29807918788271
30
0
41
1
10
4.25132406100269
20
2.3214203895651
30
0
0
SPLINE
5
BB
100
AcDbEntity
8
1
62
256
6
ByLayer
370
18
48
1
60
0
100
AcDbSpline
70
4
71
3
72
22
73
18
40
0
40
0
40
0
40
0
40
0.158125801467019
40
0.158125801467019
40
0.239466243216731
40
0.239466243216731
40
0.320806684966443
40
0.320806684966443
40
0.64616845196529
40
0.64616845196529
40
0.727508893715001
40
0.727508893715001
40
0.808849335464712
40
0.808849335464712
40
0.971530218964137
40
0.971530218964137
40
1
40
1
40
1
40
1
41
1
10
4.2406347612411
20
1.39147954494996
30
0
41
1
10
4.65816199068783
20
1.21505742763705
30
0
41
1
10
5.07319227872736
20
1.02369928515412
30
0
41
1
10
5.70204819306582
20
0.719166939940294
30
0
41
1
10
5.91571738747604
20
0.613154817682045
30
0
41
1
10
6.34401713495657
20
0.397521593654716
30
0
41
1
10
6.55911367084269
20
0.287746424782029
30
0
41
1
10
7.63433129415282
20
-0.263573701039434
30
0
41
1
10
8.47772381264318
20
-0.704660532837693
30
0
41
1
10
9.54259702997138
20
-1.19521539576996
30
0
41
1
10
9.75609987626123
20
-1.29030166599622
30
0
41
1
10
10.1849533054203
20
-1.47293611109799
30
0
41
1
10
10.400629568451
20
-1.5605202033629
30
0
41
1
10
11.043016824287
20
-1.80630674351178
30
0
41
1
10
11.4676998912734
20
-1.94906554506261
30
0
41
1
10
11.9665072114992
20
-2.08764265847296
30
0
41
1
10
12.0407860546072
20
-2.1075285703609
30
0
41
1
10
12.1150700452812
20
-2.12664340011725
30
0
0
SPLINE
5
BC
100
AcDbEntity
8
1
62
256
6
ByLayer
370
13
48
1
60
0
100
AcDbSpline
70
4
71
3
72
14
73
10
40
0
40
0
40
0
40
0
40
0.279186341119173
40
0.279186341119173
40
0.44839097397214
40
0.44839097397214
40
0.617595606825107
40
0.617595606825107
40
1
40
1
40
1
40
1
41
1
10
12.1150700452821
20
-2.12664340011745
30
0
41
1
10
12.465256661441
20
-2.21675376562291
30
0
41
1
10
12.8155576735236
20
-2.28972813824856
30
0
41
1
10
13.3814005254339
20
-2.37646983395396
30
0
41
1
10
13.5958072015345
20
-2.40227885435206
30
0
41
1
10
14.0260627580949
20
-2.43915764294294
30
0
41
1
10
14.2401236359545
20
-2.45011302807137
30
0
41
1
10
14.9358129773487
20
-2.46171393626705
30
0
41
1
10
15.4145298105539
20
-2.43176502479091
30
0
41
1
10
15.8943114240612
20
-2.36575143949233
30
0
0
SPLINE
5
BD
100
AcDbEntity
8
1
62
256
6
ByLayer
370
18
48
1
60
0
100
AcDbSpline
70
4
71
3
72
24
73
20
40
0
40
0
40
0
40
0
40
0.0847490051580717
40
0.0847490051580717
40
0.247418010900797
40
0.247418010900797
40
0.32875251377216
40
0.32875251377216
40
0.410087016643522
40
0.410087016643522
40
0.572756022386252
40
0.572756022386252
40
0.735425028128982
40
0.735425028128982
40
0.816759531000347
40
0.816759531000347
40
0.898094033871712
40
0.898094033871712
40
1
40
1
40
1
40
1
41
1
10
32.9918377362508
20
1.85580200571863
30
0
41
1
10
33.2130097386969
20
1.78053754045388
30
0
41
1
10
33.433851860146
20
1.69937327742397
30
0
41
1
10
34.0786533390009
20
1.44663054574926
30
0
41
1
10
34.5033098601535
20
1.26154639935049
30
0
41
1
10
35.145339898262
20
0.961389432516484
30
0
41
1
10
35.3608327067012
20
0.857477824019242
30
0
41
1
10
35.7887430454095
20
0.646450925258506
30
0
41
1
10
36.0017345705091
20
0.539072124992231
30
0
41
1
10
36.6390111499512
20
0.213700388608203
30
0
41
1
10
37.0618863317454
20
-0.006956693841687
30
0
41
1
10
37.9096321742826
20
-0.443994965742604
30
0
41
1
10
38.3343181173423
20
-0.66074166443093
30
0
41
1
10
38.9774708986611
20
-0.973502389331884
30
0
41
1
10
39.1924720523095
20
-1.07520479894109
30
0
41
1
10
39.6193786601933
20
-1.27006725687877
30
0
41
1
10
39.8319973579885
20
-1.36357852894042
30
0
41
1
10
40.3100196867172
20
-1.56416227375209
30
0
41
1
10
40.5751949658452
20
-1.66867390155448
30
0
41
1
10
40.8404488562413
20
-1.76505161963067
30
0
0
SPLINE
5
BE
100
AcDbEntity
8
1
62
256
6
ByLayer
370
13
48
1
60
0
100
AcDbSpline
70
4
71
3
72
10
73
6
40
0
40
0
40
0
40
0
40
0.407150577140639
40
0.407150577140639
40
1
40
1
40
1
40
1
41
1
10
40.8404488561911
20
-1.76505161961245
30
0
41
1
10
41.4220263783279
20
-1.97636280673527
30
0
41
1
10
42.0039818001251
20
-2.14857270714106
30
0
41
1
10
43.4535859239909
20
-2.44716881542814
30
0
41
1
10
44.2996283294611
20
-2.51013205896948
30
0
41
1
10
45.1557624930946
20
-2.45222850151353
30
0
0
SPLINE
5
BF
100
AcDbEntity
8
1
62
256
6
ByLayer
370
18
48
1
60
0
100
AcDbSpline
70
4
71
3
72
8
73
4
40
0
40
0
40
0
40
0
40
1
40
1
40
1
40
1
41
1
10
45.1456572996175
20
2.47924890351831
30
0
41
1
10
44.9403050031189
20
2.49302239768846
30
0
41
1
10
44.7351317594839
20
2.49979924587794
30
0
41
1
10
44.5298221450634
20
2.49960236347309
30
0
0
SPLINE
5
C0
100
AcDbEntity
8
1
62
256
6
ByLayer
370
18
48
1
60
0
100
AcDbSpline
70
4
71
3
72
40
73
36
40
0
40
0
40
0
40
0
40
0.075654521009684
40
0.075654521009684
40
0.114694326417629
40
0.114694326417629
40
0.153734131825574
40
0.153734131825574
40
0.231813742641464
40
0.231813742641464
40
0.27085354804941
40
0.27085354804941
40
0.309893353457355
40
0.309893353457355
40
0.387972964273244
40
0.387972964273244
40
0.466052575089133
40
0.466052575089133
40
0.505092380497078
40
0.505092380497078
40
0.544132185905022
40
0.544132185905022
40
0.7002914075368
40
0.7002914075368
40
0.739331212944744
40
0.739331212944744
40
0.778371018352689
40
0.778371018352689
40
0.856450629168578
40
0.856450629168578
40
0.934530239984467
40
0.934530239984467
40
0.973570045392412
40
0.973570045392412
40
1
40
1
40
1
40
1
41
1
10
31.0164634642622
20
-2.37705182750216
30
0
41
1
10
30.6044495256473
20
-2.44134779211231
30
0
41
1
10
30.1914268005096
20
-2.47912454146819
30
0
41
1
10
29.5593840413284
20
-2.49314573928984
30
0
41
1
10
29.344161762255
20
-2.49025893445111
30
0
41
1
10
28.9163077880294
20
-2.46953626502926
30
0
41
1
10
28.703170775968
20
-2.45171123319673
30
0
41
1
10
28.0649102182345
20
-2.37652460800879
30
0
41
1
10
27.6406795443715
20
-2.29758940402826
30
0
41
1
10
27.0018266884643
20
-2.13901459352519
30
0
41
1
10
26.788437959288
20
-2.0794704379374
30
0
41
1
10
26.3598925073085
20
-1.9477220813381
30
0
41
1
10
26.1440314595917
20
-1.87518507432228
30
0
41
1
10
25.4997416014737
20
-1.64203750836822
30
0
41
1
10
25.0739414680185
20
-1.4663494641664
30
0
41
1
10
24.2238042352647
20
-1.08470931077565
30
0
41
1
10
23.7991926868234
20
-0.879220627976736
30
0
41
1
10
23.1585653967906
20
-0.556653011354967
30
0
41
1
10
22.9443265556322
20
-0.4468897860624
30
0
41
1
10
22.5136905390817
20
-0.224256679512877
30
0
41
1
10
22.2985662097582
20
-0.111920183132099
30
0
41
1
10
21.2290703956912
20
0.446658817612388
30
0
41
1
10
20.3850738139592
20
0.885989342708882
30
0
41
1
10
19.3133277506878
20
1.36647148661424
30
0
41
1
10
19.0973667733821
20
1.45933859421047
30
0
41
1
10
18.6677387722389
20
1.63443570096385
30
0
41
1
10
18.453901621605
20
1.716895805901
30
0
41
1
10
17.8139396248824
20
1.94736062629167
30
0
41
1
10
17.3895707026839
20
2.07869694512664
30
0
41
1
10
16.5384824755247
20
2.28922695373208
30
0
41
1
10
16.1120440423612
20
2.3686763152256
30
0
41
1
10
15.4657012335939
20
2.44392026222107
30
0
41
1
10
15.25063139371
20
2.46153058963731
30
0
41
1
10
14.8918384438843
20
2.47836131924325
30
0
41
1
10
14.747317289231
20
2.48170573158555
30
0
41
1
10
14.603002285641
20
2.48163595765411
30
0
0
SPLINE
5
C1
100
AcDbEntity
8
1
62
256
6
ByLayer
370
18
48
1
60
0
100
AcDbSpline
70
4
71
3
72
18
73
14
40
0
40
0
40
0
40
0
40
0.25
40
0.25
40
0.5
40
0.5
40
0.625
40
0.625
40
0.75
40
0.75
40
0.875
40
0.875
40
1
40
1
40
1
40
1
41
1
10
45.0170941049238
20
0.786375457140309
30
0
41
1
10
45.0868514285143
20
0.802619390515758
30
0
41
1
10
45.1559924594083
20
0.820962989336181
30
0
41
1
10
45.2920467529544
20
0.864895094791592
30
0
41
1
10
45.3585107659745
20
0.890136052252387
30
0
41
1
10
45.4534410389835
20
0.93834061729919
30
0
41
1
10
45.4844719875961
20
0.956310790259238
30
0
41
1
10
45.5426369432113
20
0.99723755102562
30
0
41
1
10
45.5701321713299
20
1.02046607925467
30
0
41
1
10
45.6170950899995
20
1.07361110319312
30
0
41
1
10
45.6365213143193
20
1.10353180969903
30
0
41
1
10
45.6619819208105
20
1.17102630536047
30
0
41
1
10
45.6671985167424
20
1.20742291605353
30
0
41
1
10
45.6653505398767
20
1.24355021310023
30
0
0
SPLINE
5
C2
100
AcDbEntity
8
1
62
256
6
ByLayer
370
18
48
1
60
0
100
AcDbSpline
70
4
71
3
72
8
73
4
40
0
40
0
40
0
40
0
40
1
40
1
40
1
40
1
41
1
10
4.13464135248171
20
1.45138799508945
30
0
41
1
10
4.12538362322633
20
1.45528532631005
30
0
41
1
10
4.11652440050821
20
1.45960086985946
30
0
41
1
10
4.1080481562675
20
1.46431208962198
30
0
0
SPLINE
5
C3
100
AcDbEntity
8
1
62
256
6
ByLayer
370
18
48
1
60
0
100
AcDbSpline
70
4
71
3
72
18
73
14
40
0
40
0
40
0
40
0
40
0.125000000000001
40
0.125000000000001
40
0.250000000000001
40
0.250000000000001
40
0.499999999999994
40
0.499999999999994
40
0.624999999999996
40
0.624999999999996
40
0.749999999999997
40
0.749999999999997
40
1
40
1
40
1
40
1
41
1
10
43.1287318325651
20
0.640453289276479
30
0
41
1
10
43.1650839124774
20
0.539233097408129
30
0
41
1
10
43.2082869856888
20
0.439731764764701
30
0
41
1
10
43.3061604359782
20
0.243606153967789
30
0
41
1
10
43.3611861233306
20
0.146458856627959
30
0
41
1
10
43.53931327086
20
-0.137512542375077
30
0
41
1
10
43.6722719675877
20
-0.313028228413486
30
0
41
1
10
43.8868108516419
20
-0.561635308063956
30
0
41
1
10
43.9612085299773
20
-0.642295647799273
30
0
41
1
10
44.1131453487171
20
-0.797537691608596
30
0
41
1
10
44.190464135865
20
-0.871940575225096
30
0
41
1
10
44.4259555783834
20
-1.08672463560799
30
0
41
1
10
44.5876060071818
20
-1.21881779400923
30
0
41
1
10
44.753283746978
20
-1.34131330949094
30
0
0
SPLINE
5
C4
100
AcDbEntity
8
1
62
256
6
ByLayer
370
18
48
1
60
0
100
AcDbSpline
70
4
71
3
72
22
73
18
40
0
40
0
40
0
40
0
40
0.0340514835217249
40
0.0340514835217249
40
0.235541234341495
40
0.235541234341495
40
0.437030985161266
40
0.437030985161266
40
0.537775860571151
40
0.537775860571151
40
0.638520735981037
40
0.638520735981037
40
0.739265611390922
40
0.739265611390922
40
0.840010486800808
40
0.840010486800808
40
1
40
1
40
1
40
1
41
1
10
19.3497580859474
20
1.33470846829229
30
0
41
1
10
19.4214988186388
20
1.30363515110605
30
0
41
1
10
19.493256106272
20
1.27209515521616
30
0
41
1
10
19.9898337783287
20
1.05086237628558
30
0
41
1
10
20.4160303639782
20
0.846507013495795
30
0
41
1
10
21.2765794366643
20
0.417142406165738
30
0
41
1
10
21.7048108813259
20
0.196093468575185
30
0
41
1
10
22.3484943384968
20
-0.136501272886392
30
0
41
1
10
22.5637591097955
20
-0.247587718317192
30
0
41
1
10
22.9933568003153
20
-0.466998667760578
30
0
41
1
10
23.2076082281807
20
-0.575390256878279
30
0
41
1
10
23.6358114522996
20
-0.788085443229988
30
0
41
1
10
23.8498311762496
20
-0.892272147888235
30
0
41
1
10
24.2784802536411
20
-1.09483628306873
30
0
41
1
10
24.4933991066321
20
-1.19347747403722
30
0
41
1
10
25.0494163838768
20
-1.43857828601523
30
0
41
1
10
25.387969567101
20
-1.57775643412995
30
0
41
1
10
25.7254631764323
20
-1.70376455596809
30
0
0
SPLINE
5
C5
100
AcDbEntity
8
1
62
256
6
ByLayer
370
13
48
1
60
0
100
AcDbSpline
70
4
71
3
72
16
73
12
40
0
40
0
40
0
40
0
40
0.297514912077834
40
0.297514912077834
40
0.420866020833755
40
0.420866020833755
40
0.544217129589676
40
0.544217129589676
40
0.790919347101511
40
0.790919347101511
40
1
40
1
40
1
40
1
41
1
10
25.7254622396622
20
-1.70376420621139
30
0
41
1
10
26.2380434521708
20
-1.89514385373209
30
0
41
1
10
26.7481805245661
20
-2.05614398613827
30
0
41
1
10
27.4741244685692
20
-2.23124852825097
30
0
41
1
10
27.6874426258771
20
-2.27617431434854
30
0
41
1
10
28.1159273518261
20
-2.35226717639426
30
0
41
1
10
28.3314236236383
20
-2.38344564803401
30
0
41
1
10
28.9731452339029
20
-2.45448965634671
30
0
41
1
10
29.3975955357429
20
-2.47226578827059
30
0
41
1
10
30.1811241529564
20
-2.45116680763513
30
0
41
1
10
30.5403493999961
20
-2.42039194908804
30
0
41
1
10
30.9012312456623
20
-2.36896975212099
30
0
0
SPLINE
5
C6
100
AcDbEntity
8
1
62
256
6
ByLayer
370
18
48
1
60
0
100
AcDbSpline
70
4
71
3
72
19
73
15
40
0
40
0
40
0
40
0
40
0.086207259954276
40
0.086207259954276
40
0.216749079960807
40
0.216749079960807
40
0.477832719973873
40
0.477832719973873
40
0.608374539980405
40
0.608374539980405
40
0.738916359986937
40
0.869458179993468
40
0.869458179993468
40
1
40
1
40
1
40
1
41
1
10
45.1001896063382
20
-2.37312911364509
30
0
41
1
10
45.0776487961617
20
-2.37074570972393
30
0
41
1
10
45.0558869915103
20
-2.36603701113182
30
0
41
1
10
45.0031922889498
20
-2.34816681411075
30
0
41
1
10
44.9731389864148
20
-2.33177274701774
30
0
41
1
10
44.8901522089917
20
-2.26548663781964
30
0
41
1
10
44.8451064097135
20
-2.19975864499213
30
0
41
1
10
44.7937493145999
20
-2.06719808258549
30
0
41
1
10
44.7792780953934
20
-2.01678284140473
30
0
41
1
10
44.7568469209945
20
-1.90635860965938
30
0
41
1
10
44.7407988969091
20
-1.7866093560597
30
0
41
1
10
44.7373607165329
20
-1.64843862366112
30
0
41
1
10
44.7404421269606
20
-1.50074354611308
30
0
41
1
10
44.7452928727989
20
-1.4223107716324
30
0
41
1
10
44.753283746978
20
-1.34131330949094
30
0
0
SPLINE
5
C7
100
AcDbEntity
8
1
62
256
6
ByLayer
370
18
48
1
60
0
100
AcDbSpline
70
4
71
3
72
72
73
68
40
0
40
0
40
0
40
0
40
0.0306563946760057
40
0.0306563946760057
40
0.0603026519713319
40
0.0603026519713319
40
0.089948909266658
40
0.089948909266658
40
0.119595166561984
40
0.119595166561984
40
0.14924142385731
40
0.14924142385731
40
0.178887681152636
40
0.178887681152636
40
0.208533938447963
40
0.208533938447963
40
0.238180195743289
40
0.238180195743289
40
0.267826453038615
40
0.267826453038615
40
0.297472710333941
40
0.297472710333941
40
0.327118967629267
40
0.327118967629267
40
0.356765224924593
40
0.356765224924593
40
0.386411482219919
40
0.386411482219919
40
0.416057739515245
40
0.416057739515245
40
0.445703996810572
40
0.445703996810572
40
0.475350254105898
40
0.475350254105898
40
0.504996511401224
40
0.504996511401224
40
0.53464276869655
40
0.53464276869655
40
0.564289025991876
40
0.564289025991876
40
0.623581540582529
40
0.623581540582529
40
0.653227797877856
40
0.653227797877856
40
0.682874055173182
40
0.682874055173182
40
0.712520312468509
40
0.712520312468509
40
0.742166569763835
40
0.742166569763835
40
0.771812827059162
40
0.771812827059162
40
0.801459084354489
40
0.801459084354489
40
0.831105341649815
40
0.831105341649815
40
0.860751598945142
40
0.860751598945142
40
0.890397856240468
40
0.890397856240468
40
0.920044113535795
40
0.920044113535795
40
0.949690370831122
40
0.949690370831122
40
0.979336628126448
40
0.979336628126448
40
1
40
1
40
1
40
1
41
1
10
10.4442732240361
20
1.79101682056245
30
0
41
1
10
10.6353125962717
20
1.85944209888649
30
0
41
1
10
10.8259454552314
20
1.92323903470222
30
0
41
1
10
11.19943231379
20
2.04081895998433
30
0
41
1
10
11.382842937454
20
2.09408565029366
30
0
41
1
10
11.7506656234602
20
2.19027271737528
30
0
41
1
10
11.9348034633115
20
2.23352532473325
30
0
41
1
10
12.3029895323801
20
2.31064256035805
30
0
41
1
10
12.4868974375938
20
2.34450693273428
30
0
41
1
10
12.8571809092907
20
2.40080878685143
30
0
41
1
10
13.0434292137927
20
2.4235891375622
30
0
41
1
10
13.4134598382941
20
2.45815309562016
30
0
41
1
10
13.5972806468377
20
2.47002870389514
30
0
41
1
10
13.9652583027326
20
2.48236172212901
30
0
41
1
10
14.14933300243
20
2.48295631156492
30
0
41
1
10
14.517089480772
20
2.47322641115574
30
0
41
1
10
14.7005244574116
20
2.46281007401421
30
0
41
1
10
15.0677209575778
20
2.43079582429343
30
0
41
1
10
15.2520621967655
20
2.40945770827685
30
0
41
1
10
15.6216025687426
20
2.35604592793891
30
0
41
1
10
15.8070481171504
20
2.32386698338939
30
0
41
1
10
16.1772709429779
20
2.24826249606852
30
0
41
1
10
16.3618742574528
20
2.20561374729479
30
0
41
1
10
16.7304349884737
20
2.11141772198181
30
0
41
1
10
16.9142827574681
20
2.05978712763934
30
0
41
1
10
17.2804616526922
20
1.94666152571401
30
0
41
1
10
17.4630785850162
20
1.88542839253091
30
0
41
1
10
17.8293287919668
20
1.75627910611521
30
0
41
1
10
18.0126225237765
20
1.68797690674398
30
0
41
1
10
18.3790428338215
20
1.54310668586169
30
0
41
1
10
18.561893464623
20
1.46602808681402
30
0
41
1
10
18.9298266675175
20
1.30717306214188
30
0
41
1
10
19.1145746187517
20
1.22493598107269
30
0
41
1
10
19.4851768494983
20
1.053912267165
30
0
41
1
10
19.6703692306019
20
0.964543661738134
30
0
41
1
10
20.0390213539372
20
0.784001677508684
30
0
41
1
10
20.2231733284414
20
0.692935858079295
30
0
41
1
10
20.5905027775053
20
0.508045668252038
30
0
41
1
10
20.7735280620407
20
0.413923753715892
30
0
41
1
10
21.3215686351595
20
0.128207946932889
30
0
41
1
10
21.6884940307533
20
-0.0609519187267153
30
0
41
1
10
22.2383220497556
20
-0.348453176522241
30
0
41
1
10
22.4221036558517
20
-0.443739349359021
30
0
41
1
10
22.7916918714755
20
-0.63118570006327
30
0
41
1
10
22.9778224367337
20
-0.724055381153562
30
0
41
1
10
23.3475388929013
20
-0.906822359544094
30
0
41
1
10
23.5312501145851
20
-0.996754153495374
30
0
41
1
10
23.8989491055747
20
-1.16911573989645
30
0
41
1
10
24.0825586928808
20
-1.25230027302132
30
0
41
1
10
24.4488172682806
20
-1.41356220672324
30
0
41
1
10
24.631099659635
20
-1.49217095173472
30
0
41
1
10
24.9968368221526
20
-1.64075802051477
30
0
41
1
10
25.1801087224408
20
-1.71109294366204
30
0
41
1
10
25.5469275044623
20
-1.84465928464817
30
0
41
1
10
25.7302028712354
20
-1.90822104173293
30
0
41
1
10
26.0979371858163
20
-2.02671993134999
30
0
41
1
10
26.282885315062
20
-2.08110173401448
30
0
41
1
10
26.6542791881201
20
-2.18094127449592
30
0
41
1
10
26.8390521992691
20
-2.22601548285129
30
0
41
1
10
27.206627554169
20
-2.30630776710268
30
0
41
1
10
27.3901985930023
20
-2.34090418018323
30
0
41
1
10
27.7570596073647
20
-2.39940973916865
30
0
41
1
10
27.9402668812895
20
-2.42339647163544
30
0
41
1
10
28.3055753531094
20
-2.46094626074813
30
0
41
1
10
28.4880451567158
20
-2.47427970339851
30
0
41
1
10
28.7988726478405
20
-2.48745118151769
30
0
41
1
10
28.9267185076224
20
-2.4902197573553
30
0
41
1
10
29.0546614272477
20
-2.49031180487935
30
0
0
SPLINE
5
C8
100
AcDbEntity
8
1
62
256
6
ByLayer
370
18
48
1
60
0
100
AcDbSpline
70
4
71
3
72
22
73
18
40
0
40
0
40
0
40
0
40
0.0916375474380541
40
0.0916375474380541
40
0.205182854008295
40
0.205182854008295
40
0.318728160578537
40
0.318728160578537
40
0.432273467148779
40
0.432273467148779
40
0.54581877371902
40
0.54581877371902
40
0.77290938685951
40
0.77290938685951
40
0.886454693429755
40
0.886454693429755
40
1
40
1
40
1
40
1
41
1
10
40.3497064926829
20
1.78960471583775
30
0
41
1
10
40.4987970540952
20
1.84440084319496
30
0
41
1
10
40.6481648390389
20
1.89701967215339
30
0
41
1
10
40.9819958666783
20
2.00663128784663
30
0
41
1
10
41.1662889646215
20
2.06238855412243
30
0
41
1
10
41.5335370320103
20
2.16485113609937
30
0
41
1
10
41.7161120528049
20
2.21185114811089
30
0
41
1
10
42.081661604595
20
2.29497865172334
30
0
41
1
10
42.2646817671288
20
2.33117821332533
30
0
41
1
10
42.6305907440631
20
2.39351161135906
30
0
41
1
10
42.8132991326662
20
2.41971101866008
30
0
41
1
10
43.3618916509117
20
2.48219712607798
30
0
41
1
10
43.7314167894678
20
2.50185391094783
30
0
41
1
10
44.2862634495479
20
2.49762099709525
30
0
41
1
10
44.4709485152812
20
2.49047543432044
30
0
41
1
10
44.8405692851145
20
2.46527630581238
30
0
41
1
10
45.0253182667295
20
2.44722458345649
30
0
41
1
10
45.2096973068971
20
2.42350882615295
30
0
0
SPLINE
5
C9
100
AcDbEntity
8
1
62
256
6
ByLayer
370
18
48
1
60
0
100
AcDbSpline
70
4
71
3
72
10
73
6
40
0
40
0
40
0
40
0
40
0.499999999999999
40
0.499999999999999
40
1
40
1
40
1
40
1
41
1
10
4.10804815626659
20
1.46431208962238
30
0
41
1
10
4.08684575338151
20
1.47609669335125
30
0
41
1
10
4.06868474950295
20
1.49089848851867
30
0
41
1
10
4.04207650326757
20
1.5255060801166
30
0
41
1
10
4.03377169688193
20
1.54518435996133
30
0
41
1
10
4.03378201557121
20
1.5652334288323
30
0
0
SPLINE
5
CA
100
AcDbEntity
8
1
62
256
6
ByLayer
370
18
48
1
60
0
100
AcDbSpline
70
4
71
3
72
14
73
10
40
0
40
0
40
0
40
0
40
0.370687853071617
40
0.370687853071617
40
0.563553396488025
40
0.563553396488025
40
0.756418939904435
40
0.756418939904435
40
1
40
1
40
1
40
1
41
1
10
29.7968575106626
20
-2.36595043558214
30
0
41
1
10
29.3894217614178
20
-2.36617503646502
30
0
41
1
10
28.9815074338725
20
-2.34049147278552
30
0
41
1
10
28.3569066083765
20
-2.26192148456192
30
0
41
1
10
28.1416965622856
20
-2.2279010969454
30
0
41
1
10
27.71376527016
20
-2.14695841002648
30
0
41
1
10
27.5006418587604
20
-2.1000044671375
30
0
41
1
10
27.0195353556271
20
-1.98016941202698
30
0
41
1
10
26.7517827230596
20
-1.90372373389903
30
0
41
1
10
26.4840526267029
20
-1.81871180245705
30
0
0
SPLINE
5
CB
100
AcDbEntity
8
1
62
256
6
ByLayer
370
13
48
1
60
0
100
AcDbSpline
70
4
71
3
72
22
73
18
40
0
40
0
40
0
40
0
40
0.226462875721198
40
0.226462875721198
40
0.309202879989963
40
0.309202879989963
40
0.391942884258727
40
0.391942884258727
40
0.474682888527492
40
0.474682888527492
40
0.557422892796258
40
0.557422892796258
40
0.722902901333787
40
0.722902901333787
40
0.888382909871317
40
0.888382909871317
40
1
40
1
40
1
40
1
41
1
10
26.4840526266798
20
-1.81871180244974
30
0
41
1
10
25.9038364910588
20
-1.63447665289257
30
0
41
1
10
25.3237261994062
20
-1.41000908590135
30
0
41
1
10
24.5216592710831
20
-1.06248794914794
30
0
41
1
10
24.3070994570059
20
-0.966039225374544
30
0
41
1
10
23.8789294344892
20
-0.768548795919884
30
0
41
1
10
23.6651154263898
20
-0.667282312931405
30
0
41
1
10
23.237344716013
20
-0.461093099149451
30
0
41
1
10
23.0233134428305
20
-0.356300762313907
30
0
41
1
10
22.5941680515026
20
-0.144866639618726
30
0
41
1
10
22.3792131216363
20
-0.0381419558154334
30
0
41
1
10
21.7363061995063
20
0.280693474971088
30
0
41
1
10
21.3084070511877
20
0.491475980583147
30
0
41
1
10
20.4490389709478
20
0.898591806170401
30
0
41
1
10
20.0232303089387
20
1.09117909906942
30
0
41
1
10
19.312329780164
20
1.38819011705823
30
0
41
1
10
19.026402499309
20
1.50060819694607
30
0
41
1
10
18.7400552670455
20
1.60444527453714
30
0
0
SPLINE
5
CC
100
AcDbEntity
8
1
62
256
6
ByLayer
370
18
48
1
60
0
100
AcDbSpline
70
4
71
3
72
10
73
6
40
0
40
0
40
0
40
0
40
0.677043791277533
40
0.677043791277533
40
1
40
1
40
1
40
1
41
1
10
44.7404864121075
20
-2.37480753273215
30
0
41
1
10
44.0305881541317
20
-2.37374759839699
30
0
41
1
10
43.3245362573739
20
-2.29312153359791
30
0
41
1
10
42.2695529989794
20
-2.06431778688847
30
0
41
1
10
41.9314763685015
20
-1.97455773731684
30
0
41
1
10
41.5945560042709
20
-1.87115476176203
30
0
0
SPLINE
5
CD
100
AcDbEntity
8
1
62
256
6
ByLayer
370
13
48
1
60
0
100
AcDbSpline
70
4
71
3
72
24
73
20
40
0
40
0
40
0
40
0
40
0.19062918210634
40
0.19062918210634
40
0.269661611013349
40
0.269661611013349
40
0.348694039920358
40
0.348694039920358
40
0.506758897734377
40
0.506758897734377
40
0.664823755548395
40
0.664823755548395
40
0.743856184455406
40
0.743856184455406
40
0.822888613362417
40
0.822888613362417
40
0.980953471176444
40
0.980953471176444
40
1
40
1
40
1
40
1
41
1
10
41.5945560042672
20
-1.87115476176095
30
0
41
1
10
41.082790423148
20
-1.71409069116035
30
0
41
1
10
40.5736925941458
20
-1.52554948909517
30
0
41
1
10
39.8499635268303
20
-1.22533748478284
30
0
41
1
10
39.637429955545
20
-1.13328380516549
30
0
41
1
10
39.2107497565107
20
-0.942208207778236
30
0
41
1
10
38.9958874418531
20
-0.842861166214107
30
0
41
1
10
38.353656993193
20
-0.538644851084825
30
0
41
1
10
37.9292805567691
20
-0.32889909826315
30
0
41
1
10
37.0819718218717
20
0.0918638232408853
30
0
41
1
10
36.6591539791089
20
0.303114786048667
30
0
41
1
10
36.0220591627216
20
0.612807897455554
30
0
41
1
10
35.8091686467406
20
0.714745831834932
30
0
41
1
10
35.3815413826738
20
0.9143999666301
30
0
41
1
10
35.1663463930006
20
1.0122762858503
30
0
41
1
10
34.5251442637962
20
1.29423653866257
30
0
41
1
10
34.1007596173708
20
1.46687859132445
30
0
41
1
10
33.6259212627812
20
1.63909215168113
30
0
41
1
10
33.574857819702
20
1.65732198945238
30
0
41
1
10
33.5237908385882
20
1.67525634373763
30
0
0
SPLINE
5
CE
100
AcDbEntity
8
1
62
256
6
ByLayer
370
18
48
1
60
0
100
AcDbSpline
70
4
71
3
72
16
73
12
40
0
40
0
40
0
40
0
40
0.0904420405833822
40
0.0904420405833822
40
0.273524976532459
40
0.273524976532459
40
0.456607912481535
40
0.456607912481535
40
0.822773784379687
40
0.822773784379687
40
1
40
1
40
1
40
1
41
1
10
14.8060999953707
20
-2.35674929409203
30
0
41
1
10
14.7010332428877
20
-2.35654326435542
30
0
41
1
10
14.5958520490697
20
-2.35461158964165
30
0
41
1
10
14.2772695071389
20
-2.34350085478178
30
0
41
1
10
14.0633903132267
20
-2.32895781727126
30
0
41
1
10
13.6336232736279
20
-2.2856699430175
30
0
41
1
10
13.419526389372
20
-2.25704535308319
30
0
41
1
10
12.7795538245529
20
-2.15145386555889
30
0
41
1
10
12.3556122452704
20
-2.05477077389693
30
0
41
1
10
11.7259326204173
20
-1.87702251996649
30
0
41
1
10
11.5205141410237
20
-1.81362538443813
30
0
41
1
10
11.3146932477135
20
-1.74522377028421
30
0
0
SPLINE
5
CF
100
AcDbEntity
8
1
62
256
6
ByLayer
370
13
48
1
60
0
100
AcDbSpline
70
4
71
3
72
20
73
16
40
0
40
0
40
0
40
0
40
0.0935451801001308
40
0.0935451801001308
40
0.184190662090118
40
0.184190662090118
40
0.274836144080106
40
0.274836144080106
40
0.637418072040052
40
0.637418072040052
40
0.72806355403004
40
0.72806355403004
40
0.818709036020027
40
0.818709036020027
40
1
40
1
40
1
40
1
41
1
10
11.3146932479553
20
-1.74522377036453
30
0
41
1
10
11.0952690012943
20
-1.67230127734703
30
0
41
1
10
10.8753873892345
20
-1.59369092099169
30
0
41
1
10
10.4406981093575
20
-1.42871059606631
30
0
41
1
10
10.2253188622386
20
-1.34234359961533
30
0
41
1
10
9.79694583100184
20
-1.16291503320852
30
0
41
1
10
9.58363100719785
20
-1.0697812786957
30
0
41
1
10
8.5195016318917
20
-0.590732425232375
30
0
41
1
10
7.67609621287258
20
-0.164476398616671
30
0
41
1
10
6.60218581635624
20
0.362315311302353
30
0
41
1
10
6.38736546229708
20
0.466876263536648
30
0
41
1
10
5.95954309398792
20
0.671902462273124
30
0
41
1
10
5.74609765019216
20
0.772464831208197
30
0
41
1
10
5.10597474896818
20
1.06600845281596
30
0
41
1
10
4.67949395583815
20
1.25081914473532
30
0
41
1
10
4.25046797839801
20
1.41921382332907
30
0
0
SPLINE
5
D0
100
AcDbEntity
8
1
62
256
6
ByLayer
370
18
48
1
60
0
100
AcDbSpline
70
4
71
3
72
34
73
30
40
0
40
0
40
0
40
0
40
0.0822100170138978
40
0.0822100170138978
40
0.123315025520847
40
0.123315025520847
40
0.164420034027796
40
0.164420034027796
40
0.328840068055589
40
0.328840068055589
40
0.411050085069487
40
0.411050085069487
40
0.493260102083385
40
0.493260102083385
40
0.534365110590335
40
0.534365110590335
40
0.575470119097285
40
0.575470119097285
40
0.657680136111184
40
0.657680136111184
40
0.739890153125084
40
0.739890153125084
40
0.780995161632035
40
0.780995161632035
40
0.822100170138986
40
0.822100170138986
40
0.98652020416679
40
0.98652020416679
40
1
40
1
40
1
40
1
41
1
10
45.1456572996169
20
-2.47924890351834
30
0
41
1
10
44.7164795466283
20
-2.5080349330857
30
0
41
1
10
44.2886016566076
20
-2.50622583036321
30
0
41
1
10
43.6444263022648
20
-2.45826210306873
30
0
41
1
10
43.428722649746
20
-2.4346167652937
30
0
41
1
10
42.9995496002566
20
-2.37291093342972
30
0
41
1
10
42.7859294921532
20
-2.33488625024791
30
0
41
1
10
41.7207945498967
20
-2.11073121554202
30
0
41
1
10
40.8771005393647
20
-1.82299375159823
30
0
41
1
10
39.5853218343632
20
-1.27271688358198
30
0
41
1
10
39.1583914044178
20
-1.07326449837163
30
0
41
1
10
38.3082909633528
20
-0.654496805676644
30
0
41
1
10
37.8843505419863
20
-0.435687329426599
30
0
41
1
10
37.2452811011763
20
-0.102559687771702
30
0
41
1
10
37.0317369855483
20
0.0093091902784295
30
0
41
1
10
36.602974347236
20
0.233512956375307
30
0
41
1
10
36.3871317632467
20
0.346112023563279
30
0
41
1
10
35.7439496887754
20
0.677482488561964
30
0
41
1
10
35.3186526047319
20
0.890519434774262
30
0
41
1
10
34.4690614565887
20
1.29045345041078
30
0
41
1
10
34.044440196535
20
1.4767960127476
30
0
41
1
10
33.4037202467227
20
1.72886217005467
30
0
41
1
10
33.1893558390614
20
1.80811709260968
30
0
41
1
10
32.7584007753352
20
1.95567749155168
30
0
41
1
10
32.5440370064908
20
2.02329769357979
30
0
41
1
10
31.4761603259315
20
2.32937231965272
30
0
41
1
10
30.6325653359072
20
2.46934494069333
30
0
41
1
10
29.7040978695495
20
2.48993487607666
30
0
41
1
10
29.6335948999641
20
2.49067520758729
30
0
41
1
10
29.5630429910789
20
2.49059878281474
30
0
0
SPLINE
5
D1
100
AcDbEntity
8
1
62
256
6
ByLayer
370
18
48
1
60
0
100
AcDbSpline
70
4
71
3
72
32
73
28
40
0
40
0
40
0
40
0
40
0.0334022614212698
40
0.0334022614212698
40
0.087102135786754
40
0.087102135786754
40
0.140802010152238
40
0.140802010152238
40
0.248201758883205
40
0.248201758883205
40
0.301901633248689
40
0.301901633248689
40
0.355601507614173
40
0.355601507614173
40
0.570401005076113
40
0.570401005076113
40
0.624100879441598
40
0.624100879441598
40
0.677800753807083
40
0.677800753807083
40
0.785200502538056
40
0.785200502538056
40
0.892600251269028
40
0.892600251269028
40
0.946300125634514
40
0.946300125634514
40
1
40
1
40
1
40
1
41
1
10
16.0809597890984
20
-2.36380624710662
30
0
41
1
10
15.9479898881684
20
-2.38490867542149
30
0
41
1
10
15.8147450982577
20
-2.40328677243065
30
0
41
1
10
15.4662922368588
20
-2.44385077864425
30
0
41
1
10
15.2502650398446
20
-2.46156792451066
30
0
41
1
10
14.8213744537596
20
-2.48164650571968
30
0
41
1
10
14.6077599911259
20
-2.48411756323793
30
0
41
1
10
13.9682723150527
20
-2.46925340109621
30
0
41
1
10
13.5439115335204
20
-2.42954854938327
30
0
41
1
10
12.9051141968691
20
-2.3272765526163
30
0
41
1
10
12.6918854132962
20
-2.28603059025707
30
0
41
1
10
12.2639108540905
20
-2.1896585245357
30
0
41
1
10
12.0487514913321
20
-2.13444695085664
30
0
41
1
10
10.9713493872526
20
-1.8260933229183
30
0
41
1
10
10.1266675087445
20
-1.48247437542591
30
0
41
1
10
9.05972780676623
20
-0.982700999024331
30
0
41
1
10
8.84579071454729
20
-0.879244731729642
30
0
41
1
10
8.41597647692905
20
-0.666728152752086
30
0
41
1
10
8.19986039382187
20
-0.557531041648133
30
0
41
1
10
7.55630399532817
20
-0.228237085547846
30
0
41
1
10
7.13066660201525
20
-0.0051978835483339
30
0
41
1
10
6.27978460168839
20
0.435329118234307
30
0
41
1
10
5.85471548358416
20
0.653154988813441
30
0
41
1
10
5.21240612661597
20
0.96597228891244
30
0
41
1
10
4.99726808827563
20
1.06806370769192
30
0
41
1
10
4.56578846627986
20
1.2655708199359
30
0
41
1
10
4.35026992312089
20
1.36061239156686
30
0
41
1
10
4.13464135248105
20
1.45138799508973
30
0
0
SPLINE
5
D2
100
AcDbEntity
8
1
62
256
6
ByLayer
370
18
48
1
60
0
100
AcDbSpline
70
4
71
3
72
8
73
4
40
0
40
0
40
0
40
0
40
1
40
1
40
1
40
1
41
1
10
45.1703221556124
20
-2.36570743473737
30
0
41
1
10
45.1576721221797
20
-2.37187187689159
30
0
41
1
10
45.1460855735923
20
-2.37497769175042
30
0
41
1
10
45.1355811353578
20
-2.37497131155558
30
0
0
SPLINE
5
D3
100
AcDbEntity
8
1
62
256
6
ByLayer
370
18
48
1
60
0
100
AcDbSpline
70
4
71
3
72
20
73
16
40
0
40
0
40
0
40
0
40
0.107926423086132
40
0.107926423086132
40
0.215852846172264
40
0.215852846172264
40
0.431705692344529
40
0.431705692344529
40
0.647558538516794
40
0.647558538516794
40
0.863411384689058
40
0.863411384689058
40
0.97133780777519
40
0.97133780777519
40
1
40
1
40
1
40
1
41
1
10
4.03378201557132
20
1.56523342884
30
0
41
1
10
4.03381359351172
20
1.62658891224015
30
0
41
1
10
4.03384392075418
20
1.68539146636976
30
0
41
1
10
4.03390244141423
20
1.79789762058218
30
0
41
1
10
4.03393074496128
20
1.85180483488881
30
0
41
1
10
4.03401181462118
20
2.0035326281342
30
0
41
1
10
4.03406098855731
20
2.0918833969408
30
0
41
1
10
4.03415292498852
20
2.24350334906467
30
0
41
1
10
4.03419604952569
20
2.30711217729137
30
0
41
1
10
4.03427541193952
20
2.40383023947646
30
0
41
1
10
4.0343119700903
20
2.43764678286595
30
0
41
1
10
4.03436371756968
20
2.46645098583593
30
0
41
1
10
4.03438052698857
20
2.47237351147353
30
0
41
1
10
4.03440089631457
20
2.47499596784056
30
0
41
1
10
4.03440512052623
20
2.47527846683985
30
0
41
1
10
4.03440929584494
20
2.47529497585185
30
0
0
SPLINE
5
D4
100
AcDbEntity
8
1
62
256
6
ByLayer
370
18
48
1
60
0
100
AcDbSpline
70
4
71
3
72
17
73
13
40
0
40
0
40
0
40
0
40
0.109424259691014
40
0.109424259691014
40
0.406282839794009
40
0.406282839794009
40
0.554712129845507
40
0.554712129845507
40
0.703141419897005
40
0.851570709948502
40
0.851570709948502
40
1
40
1
40
1
40
1
41
1
10
4.03440916440871
20
-2.47529436838198
30
0
41
1
10
4.03442075775294
20
-2.47535569102433
30
0
41
1
10
4.03443197422993
20
-2.47336716800325
30
0
41
1
10
4.03447232083948
20
-2.45851725971508
30
0
41
1
10
4.03449928216287
20
-2.43296708133727
30
0
41
1
10
4.03453571556037
20
-2.37191197886909
30
0
41
1
10
4.03454711179842
20
-2.34780071689752
30
0
41
1
10
4.03456793390393
20
-2.29298384440992
30
0
41
1
10
4.03458690362748
20
-2.2313875580393
30
0
41
1
10
4.03460180402413
20
-2.15640840201766
30
0
41
1
10
4.03461436724507
20
-2.074642635039
30
0
41
1
10
4.03461949720096
20
-2.03011575601801
30
0
41
1
10
4.03462319346013
20
-1.98270266757001
30
0
0
SPLINE
5
D5
100
AcDbEntity
8
1
62
256
6
ByLayer
370
18
48
1
60
0
100
AcDbSpline
70
4
71
3
72
72
73
68
40
0
40
0
40
0
40
0
40
0.0057827494968521
40
0.0057827494968521
40
0.0372134656969871
40
0.0372134656969871
40
0.0686441818971222
40
0.0686441818971222
40
0.100074898097257
40
0.100074898097257
40
0.131505614297392
40
0.131505614297392
40
0.162936330497527
40
0.162936330497527
40
0.194367046697662
40
0.194367046697662
40
0.225797762897797
40
0.225797762897797
40
0.257228479097932
40
0.257228479097932
40
0.288659195298067
40
0.288659195298067
40
0.320089911498202
40
0.320089911498202
40
0.351520627698337
40
0.351520627698337
40
0.382951343898473
40
0.382951343898473
40
0.414382060098608
40
0.414382060098608
40
0.445812776298743
40
0.445812776298743
40
0.477243492498878
40
0.477243492498878
40
0.508674208699013
40
0.508674208699013
40
0.540104924899148
40
0.540104924899148
40
0.571535641099283
40
0.571535641099283
40
0.602966357299418
40
0.602966357299418
40
0.634397073499553
40
0.634397073499553
40
0.665827789699688
40
0.665827789699688
40
0.697258505899823
40
0.697258505899823
40
0.728689222099958
40
0.728689222099958
40
0.760119938300093
40
0.760119938300093
40
0.791550654500228
40
0.791550654500228
40
0.822981370700363
40
0.822981370700363
40
0.854412086900498
40
0.854412086900498
40
0.885842803100633
40
0.885842803100633
40
0.917273519300768
40
0.917273519300768
40
0.948704235500903
40
0.948704235500903
40
0.980134951701038
40
0.980134951701038
40
1
40
1
40
1
40
1
41
1
10
40.352781752371
20
-1.7913943265863
30
0
41
1
10
40.3174251621109
20
-1.80297564262776
30
0
41
1
10
40.2820635854058
20
-1.81441474202998
30
0
41
1
10
40.0544595556976
20
-1.88709046296393
30
0
41
1
10
39.8616580099167
20
-1.94384035480081
30
0
41
1
10
39.4770734172641
20
-2.04723507549977
30
0
41
1
10
39.2850874760718
20
-2.09382294567078
30
0
41
1
10
38.9014932266765
20
-2.17579507579853
30
0
41
1
10
38.70946156489
20
-2.21119090864792
30
0
41
1
10
38.324563959771
20
-2.27238183978091
30
0
41
1
10
38.1316792069068
20
-2.29808356215219
30
0
41
1
10
37.747449402239
20
-2.33858105551744
30
0
41
1
10
37.5555462137655
20
-2.35324749209417
30
0
41
1
10
37.1713844537313
20
-2.37080234984208
30
0
41
1
10
36.9792151854976
20
-2.3737622058234
30
0
41
1
10
36.5947040975705
20
-2.36617641596166
30
0
41
1
10
36.4021278852361
20
-2.35521427083964
30
0
41
1
10
36.0172333576861
20
-2.3251551845201
30
0
41
1
10
35.824867664557
20
-2.3053282067151
30
0
41
1
10
35.4405496120844
20
-2.25342475437827
30
0
41
1
10
35.2485966687121
20
-2.22079853861118
30
0
41
1
10
34.8634380934844
20
-2.1467556331809
30
0
41
1
10
34.6704026237008
20
-2.10505528025627
30
0
41
1
10
34.2857067299952
20
-2.01070764337931
30
0
41
1
10
34.0939639662195
20
-1.95743074307367
30
0
41
1
10
33.7097080712639
20
-1.84234813967313
30
0
41
1
10
33.5173408613354
20
-1.78106583302687
30
0
41
1
10
33.1322409878493
20
-1.64966229801945
30
0
41
1
10
32.939717056202
20
-1.57895142490872
30
0
41
1
10
32.5552786866081
20
-1.43044040328681
30
0
41
1
10
32.363037153162
20
-1.35329314895131
30
0
41
1
10
31.9786355321293
20
-1.19292063726812
30
0
41
1
10
31.7866892343998
20
-1.10913823328806
30
0
41
1
10
31.4018358511108
20
-0.935684526548044
30
0
41
1
10
31.2088437433766
20
-0.846766307134288
30
0
41
1
10
30.8238548812938
20
-0.666205526966479
30
0
41
1
10
30.6317987436223
20
-0.573766396578094
30
0
41
1
10
30.2476383637618
20
-0.386055646338349
30
0
41
1
10
30.0552291440751
20
-0.291365338852501
30
0
41
1
10
29.6698060535139
20
-0.101180813204593
30
0
41
1
10
29.4769926093362
20
-0.005263286734305
30
0
41
1
10
29.0926838240161
20
0.18628797734678
30
0
41
1
10
28.900570334222
20
0.281251230191344
30
0
41
1
10
28.5160201153943
20
0.469254609790141
30
0
41
1
10
28.3236983541103
20
0.562505674843806
30
0
41
1
10
27.9388531007917
20
0.746945813312578
30
0
41
1
10
27.7461262280229
20
0.837182525021205
30
0
41
1
10
27.361322957867
20
1.01230640389036
30
0
41
1
10
27.1690113590228
20
1.09784455901592
30
0
41
1
10
26.7848950137883
20
1.26381611943089
30
0
41
1
10
26.5927563890494
20
1.34367820333836
30
0
41
1
10
26.2073417986311
20
1.49575001147531
30
0
41
1
10
26.0143369819194
20
1.56867266800614
30
0
41
1
10
25.6297557144032
20
1.70695799558894
30
0
41
1
10
25.4378119349374
20
1.77194261662632
30
0
41
1
10
25.0532199404919
20
1.89164044906838
30
0
41
1
10
24.860699212394
20
1.94711499189717
30
0
41
1
10
24.4753964420407
20
2.04985657706993
30
0
41
1
10
24.2829180181155
20
2.09640199996963
30
0
41
1
10
23.8982791613587
20
2.17720386040861
30
0
41
1
10
23.7059972859318
20
2.21196666475049
30
0
41
1
10
23.3215123482502
20
2.27258751470092
30
0
41
1
10
23.1295171528673
20
2.29792291973715
30
0
41
1
10
22.7441927925777
20
2.3354230202867
30
0
41
1
10
22.5512851545697
20
2.34755652854705
30
0
41
1
10
22.2371925306041
20
2.35984490385192
30
0
41
1
10
22.1157497370736
20
2.36253774708976
30
0
41
1
10
21.9943066848253
20
2.36282099190225
30
0
0
SPLINE
5
D6
100
AcDbEntity
8
1
62
256
6
ByLayer
370
18
48
1
60
0
100
AcDbSpline
70
4
71
3
72
22
73
18
40
0
40
0
40
0
40
0
40
0.0491703997074994
40
0.0491703997074994
40
0.185003199749285
40
0.185003199749285
40
0.320835999791071
40
0.320835999791071
40
0.456668799832857
40
0.456668799832857
40
0.592501599874643
40
0.592501599874643
40
0.728334399916428
40
0.728334399916428
40
0.864167199958214
40
0.864167199958214
40
1
40
1
40
1
40
1
41
1
10
10.4401238096945
20
-1.77545355474675
30
0
41
1
10
10.3703904086523
20
-1.79806887475161
30
0
41
1
10
10.3006890200515
20
-1.82006507718938
30
0
41
1
10
10.0385602962488
20
-1.9004148871673
30
0
41
1
10
9.84648695429087
20
-1.95522423526458
30
0
41
1
10
9.46179206319414
20
-2.05541028308301
30
0
41
1
10
9.26907659070818
20
-2.10030821255344
30
0
41
1
10
8.88298237379848
20
-2.17933646642086
30
0
41
1
10
8.69045317635829
20
-2.21373815115504
30
0
41
1
10
8.30549709656881
20
-2.27215070697616
30
0
41
1
10
8.11285710645126
20
-2.29579926975842
30
0
41
1
10
7.72718260242459
20
-2.3311247968831
30
0
41
1
10
7.53408950015319
20
-2.3430168767209
30
0
41
1
10
7.14890720551682
20
-2.35596352488989
30
0
41
1
10
6.95632818886887
20
-2.35687793088934
30
0
41
1
10
6.570982166563
20
-2.34584845805006
30
0
41
1
10
6.37817902656559
20
-2.33405979933366
30
0
41
1
10
6.18532041415531
20
-2.31747752147754
30
0
0
SPLINE
5
D7
100
AcDbEntity
8
1
62
256
6
ByLayer
370
18
48
1
60
0
100
AcDbSpline
70
4
71
3
72
8
73
4
40
0
40
0
40
0
40
0
40
1
40
1
40
1
40
1
41
1
10
45.1456572996185
20
-2.47924890349106
30
0
41
1
10
45.1490279282682
20
-2.47024432060721
30
0
41
1
10
45.1523963408044
20
-2.46123747835878
30
0
41
1
10
45.1557624931101
20
-2.45222850151964
30
0
0
SPLINE
5
D8
100
AcDbEntity
8
1
62
256
6
ByLayer
370
18
48
1
60
0
100
AcDbSpline
70
4
71
3
72
63
73
59
40
0
40
0
40
0
40
0
40
0.117807716995047
40
0.117807716995047
40
0.173432529717847
40
0.173432529717847
40
0.187338732898547
40
0.194291834488897
40
0.194726403338294
40
0.194726403338294
40
0.195160972187691
40
0.195160972187691
40
0.196030109886484
40
0.196030109886484
40
0.197768385284072
40
0.197768385284072
40
0.201244936079248
40
0.201244936079248
40
0.229057342440652
40
0.229057342440652
40
0.340306967886267
40
0.340306967886267
40
0.451556593331883
40
0.451556593331883
40
0.507181406054691
40
0.507181406054691
40
0.562806218777499
40
0.562806218777499
40
0.576712421958201
40
0.576712421958201
40
0.583665523548552
40
0.583665523548552
40
0.590618625138903
40
0.590618625138903
40
0.591487762837697
40
0.591487762837697
40
0.591922331687094
40
0.591922331687094
40
0.592139616111792
40
0.592139616111792
40
0.59235690053649
40
0.59235690053649
40
0.594095175934078
40
0.597571726729254
40
0.604524828319605
40
0.618431031500306
40
0.618431031500306
40
0.674055844223113
40
0.674055844223113
40
0.72968065694592
40
0.72968065694592
40
0.785305469668727
40
0.785305469668727
40
0.840930282391534
40
0.840930282391534
40
0.89655509511434
40
0.89655509511434
40
1
40
1
40
1
40
1
41
1
10
7.30529145036556
20
-0.529194855277069
30
0
41
1
10
7.08696397784021
20
-0.484390486172344
30
0
41
1
10
6.86892521370592
20
-0.456695567876466
30
0
41
1
10
6.54410370339633
20
-0.444701824342019
30
0
41
1
10
6.43937409305536
20
-0.445194030223576
30
0
41
1
10
6.30871656569764
20
-0.451268908456086
30
0
41
1
10
6.26951838718784
20
-0.453498910165735
30
0
41
1
10
6.22950414805771
20
-0.456396215131321
30
0
41
1
10
6.21562168025653
20
-0.457477438527718
30
0
41
1
10
6.21398844871334
20
-0.457605167390057
30
0
41
1
10
6.21286531376569
20
-0.457669263076923
30
0
41
1
10
6.21401482286205
20
-0.458750171453744
30
0
41
1
10
6.21553695664687
20
-0.459348801127391
30
0
41
1
10
6.21957918247244
20
-0.461163673197717
30
0
41
1
10
6.22244579897355
20
-0.462316185915597
30
0
41
1
10
6.23108447286342
20
-0.465738416283131
30
0
41
1
10
6.23698121117909
20
-0.467960710052381
30
0
41
1
10
6.29034353526797
20
-0.487838413867706
30
0
41
1
10
6.33932616620825
20
-0.504780173266909
30
0
41
1
10
6.58347610652413
20
-0.590088015099553
30
0
41
1
10
6.78103175094006
20
-0.657908894201171
30
0
41
1
10
7.1758166460051
20
-0.795648351409795
30
0
41
1
10
7.37336749182154
20
-0.865598507020678
30
0
41
1
10
7.66951845644698
20
-0.972389750188626
30
0
41
1
10
7.76815302376485
20
-1.00835144010011
30
0
41
1
10
7.96507965267062
20
-1.08134401579863
30
0
41
1
10
8.06345068242771
20
-1.11822389947193
30
0
41
1
10
8.18558256846421
20
-1.16617370880928
30
0
41
1
10
8.20996416549815
20
-1.1758622608742
30
0
41
1
10
8.24634867946253
20
-1.19077378252962
30
0
41
1
10
8.25845038776569
20
-1.19580600184347
30
0
41
1
10
8.28248217977074
20
-1.20616721795261
30
0
41
1
10
8.29456921904108
20
-1.21123689469491
30
0
41
1
10
8.30735196995553
20
-1.21824798593374
30
0
41
1
10
8.30876261009232
20
-1.21905195323561
30
0
41
1
10
8.31077092977631
20
-1.22039780974163
30
0
41
1
10
8.31142977168867
20
-1.22085942000146
30
0
41
1
10
8.31228291696294
20
-1.22170001395079
30
0
41
1
10
8.31260156577321
20
-1.22200228123353
30
0
41
1
10
8.31265836981629
20
-1.22280822361228
30
0
41
1
10
8.31210581534154
20
-1.22305508613704
30
0
41
1
10
8.30882019851219
20
-1.22543060648562
30
0
41
1
10
8.30005783277397
20
-1.23176587470314
30
0
41
1
10
8.27960745745656
20
-1.24655111189705
30
0
41
1
10
8.23868828484979
20
-1.27612661333123
30
0
41
1
10
8.20358217970283
20
-1.30146557297221
30
0
41
1
10
8.08644319562887
20
-1.38584185857758
30
0
41
1
10
7.99271648116553
20
-1.45281086218782
30
0
41
1
10
7.80412418038836
20
-1.5839336404099
30
0
41
1
10
7.70897639238956
20
-1.64825291254135
30
0
41
1
10
7.51887239385653
20
-1.77060491696662
30
0
41
1
10
7.42365921575589
20
-1.8288217038955
30
0
41
1
10
7.2317976523928
20
-1.9378773392728
30
0
41
1
10
7.13514662713987
20
-1.98871138119941
30
0
41
1
10
6.9394104680475
20
-2.08181184859714
30
0
41
1
10
6.83992476251285
20
-2.12418402665389
30
0
41
1
10
6.55626400428565
20
-2.23019084483846
30
0
41
1
10
6.37142167071474
20
-2.28141929951144
30
0
41
1
10
6.18484516089467
20
-2.31756963803954
30
0
0
SPLINE
5
D9
100
AcDbEntity
8
1
62
256
6
ByLayer
370
18
48
1
60
0
100
AcDbSpline
70
4
71
3
72
16
73
12
40
0
40
0
40
0
40
0
40
0.250000000000001
40
0.250000000000001
40
0.375
40
0.375
40
0.5
40
0.5
40
0.75
40
0.75
40
1
40
1
40
1
40
1
41
1
10
44.8769130727653
20
0.47778866924034
30
0
41
1
10
44.8700061762713
20
0.50731362064414
30
0
41
1
10
44.8665442203621
20
0.537626356696677
30
0
41
1
10
44.8671252080266
20
0.584490084150559
30
0
41
1
10
44.8683463484792
20
0.600429923787345
30
0
41
1
10
44.8729176038889
20
0.631926436059842
30
0
41
1
10
44.8766553650414
20
0.647471458730024
30
0
41
1
10
44.889472613032
20
0.694290482544517
30
0
41
1
10
44.9067691506241
20
0.723257895835303
30
0
41
1
10
44.9553212156857
20
0.765612216398324
30
0
41
1
10
44.9856418505326
20
0.779051375616831
30
0
41
1
10
45.0170941049237
20
0.786375457140338
30
0
0
SPLINE
5
DA
100
AcDbEntity
8
1
62
256
6
ByLayer
370
18
48
1
60
0
100
AcDbSpline
70
4
71
3
72
74
73
70
40
0
40
0
40
0
40
0
40
0.0300697724164909
40
0.0300697724164909
40
0.0601395448329818
40
0.0601395448329818
40
0.0902093172494727
40
0.0902093172494727
40
0.120279089665964
40
0.120279089665964
40
0.150348862082454
40
0.150348862082454
40
0.180418634498945
40
0.180418634498945
40
0.210488406915436
40
0.210488406915436
40
0.240558179331927
40
0.240558179331927
40
0.270627951748418
40
0.270627951748418
40
0.300697724164909
40
0.300697724164909
40
0.3307674965814
40
0.3307674965814
40
0.360837268997891
40
0.360837268997891
40
0.390907041414382
40
0.390907041414382
40
0.420976813830873
40
0.420976813830873
40
0.451046586247364
40
0.451046586247364
40
0.481116358663854
40
0.481116358663854
40
0.511186131080345
40
0.511186131080345
40
0.541255903496836
40
0.541255903496836
40
0.571325675913327
40
0.571325675913327
40
0.601395448329818
40
0.601395448329818
40
0.631465220746309
40
0.631465220746309
40
0.6615349931628
40
0.6615349931628
40
0.691604765579291
40
0.691604765579291
40
0.721674537995782
40
0.721674537995782
40
0.751744310412273
40
0.751744310412273
40
0.781814082828764
40
0.781814082828764
40
0.811883855245255
40
0.811883855245255
40
0.841953627661745
40
0.841953627661745
40
0.872023400078236
40
0.872023400078236
40
0.902093172494727
40
0.902093172494727
40
0.932162944911218
40
0.932162944911218
40
0.962232717327709
40
0.962232717327709
40
0.9923024897442
40
0.9923024897442
40
1
40
1
40
1
40
1
41
1
10
6.18532041415548
20
2.31747752147751
30
0
41
1
10
6.37814008925824
20
2.3340564514445
30
0
41
1
10
6.57083884328662
20
2.34583697786627
30
0
41
1
10
6.95580586289563
20
2.35687034594275
30
0
41
1
10
7.14810847477858
20
2.35596832666991
30
0
41
1
10
7.53258478286489
20
2.34308936617322
30
0
41
1
10
7.72504710957034
20
2.33127990804792
30
0
41
1
10
8.11101060142312
20
2.29600847069625
30
0
41
1
10
8.30388598164171
20
2.27236123924746
30
0
41
1
10
8.68852157745175
20
2.21406487293547
30
0
41
1
10
8.88065881652429
20
2.17975826889895
30
0
41
1
10
9.26549323767972
20
2.10109465500119
30
0
41
1
10
9.45805860343268
20
2.05632251419999
30
0
41
1
10
9.84356606954194
20
1.95604396639538
30
0
41
1
10
10.0362792418906
20
1.90107826120308
30
0
41
1
10
10.4213505969091
20
1.7831143427278
30
0
41
1
10
10.6137531691267
20
1.71935792769287
30
0
41
1
10
10.9983882492018
20
1.58325864725529
30
0
41
1
10
11.1905507035622
20
1.51090229641136
30
0
41
1
10
11.5760615745505
20
1.36045392751925
30
0
41
1
10
11.7691821778651
20
1.28144569161233
30
0
41
1
10
12.1541203099796
20
1.11728361244278
30
0
41
1
10
12.3461001442556
20
1.03184770613819
30
0
41
1
10
12.7306824386153
20
0.857898327794885
30
0
41
1
10
12.9231384915521
20
0.768832842045839
30
0
41
1
10
13.3085837085981
20
0.586162465120083
30
0
41
1
10
13.5013666384795
20
0.492439453467881
30
0
41
1
10
13.8863496883699
20
0.304539382486524
30
0
41
1
10
14.0787685409375
20
0.210114661764834
30
0
41
1
10
14.4635187987601
20
0.020148276666589
30
0
41
1
10
14.6557323810655
20
-0.0755707371312155
30
0
41
1
10
15.0408932864384
20
-0.266205988508233
30
0
41
1
10
15.2340516379544
20
-0.361023131699682
30
0
41
1
10
15.6191008088682
20
-0.547832209206604
30
0
41
1
10
15.8112187401587
20
-0.640079220744184
30
0
41
1
10
16.1954481758848
20
-0.821525898077653
30
0
41
1
10
16.3878194471637
20
-0.910338268256652
30
0
41
1
10
16.7730448549756
20
-1.08347299483964
30
0
41
1
10
16.9660800479681
20
-1.16728308246749
30
0
41
1
10
17.3508081670701
20
-1.32932283668723
30
0
41
1
10
17.5431609220026
20
-1.40711099641379
30
0
41
1
10
17.9278403497231
20
-1.55637988833283
30
0
41
1
10
18.1201959840683
20
-1.62653349197893
30
0
41
1
10
18.5051818859651
20
-1.75924464315955
30
0
41
1
10
18.6982140471067
20
-1.8215684726014
30
0
41
1
10
19.083491643336
20
-1.93789258199322
30
0
41
1
10
19.2758430535542
20
-1.99151966104759
30
0
41
1
10
19.6602037570559
20
-2.08723256653343
30
0
41
1
10
19.8524559344244
20
-2.12992153949094
30
0
41
1
10
20.2378257879033
20
-2.20594474792176
30
0
41
1
10
20.430923311666
20
-2.23956338828472
30
0
41
1
10
20.8156413685682
20
-2.2931666447667
30
0
41
1
10
21.0076364196869
20
-2.31398757028137
30
0
41
1
10
21.3921827694969
20
-2.34553053403852
30
0
41
1
10
21.5844965192505
20
-2.35638304184505
30
0
41
1
10
21.9694205761381
20
-2.36498328168213
30
0
41
1
10
22.1621706381545
20
-2.36270306760096
30
0
41
1
10
22.5472683450108
20
-2.34778900358776
30
0
41
1
10
22.7396550353318
20
-2.33574830924894
30
0
41
1
10
23.1241141055979
20
-2.29856211043617
30
0
41
1
10
23.3161040280704
20
-2.27335218739819
30
0
41
1
10
23.7012849794805
20
-2.21279540541698
30
0
41
1
10
23.8944138921528
20
-2.17794213726543
30
0
41
1
10
24.2793659394852
20
-2.09722049352001
30
0
41
1
10
24.4712615218538
20
-2.05088564043197
30
0
41
1
10
24.8556157422162
20
-1.94854228495015
30
0
41
1
10
25.0480037783755
20
-1.8931785203097
30
0
41
1
10
25.2897988526167
20
-1.81802969478247
30
0
41
1
10
25.3390950467989
20
-1.80236326861416
30
0
41
1
10
25.3883953797454
20
-1.78637046265422
30
0
0
SPLINE
5
DB
100
AcDbEntity
8
1
62
256
6
ByLayer
370
18
48
1
60
0
100
AcDbSpline
70
4
71
3
72
26
73
22
40
0
40
0
40
0
40
0
40
0.0634064920084351
40
0.0634064920084351
40
0.15706584280759
40
0.15706584280759
40
0.250725193606745
40
0.250725193606745
40
0.3443845444059
40
0.3443845444059
40
0.438043895205054
40
0.438043895205054
40
0.625362596803369
40
0.625362596803369
40
0.719021947602527
40
0.719021947602527
40
0.812681298401685
40
0.812681298401685
40
0.906340649200842
40
0.906340649200842
40
1
40
1
40
1
40
1
41
1
10
36.9670526286527
20
2.37157513469134
30
0
41
1
10
37.0971360327295
20
2.37134899177357
30
0
41
1
10
37.2273438619601
20
2.36816341189407
30
0
41
1
10
37.5501529558674
20
2.35361034126586
30
0
41
1
10
37.7430029142792
20
2.33896883841109
30
0
41
1
10
38.1276717604899
20
2.29858505913262
30
0
41
1
10
38.3200317725717
20
2.27302105671348
30
0
41
1
10
38.7046444545954
20
2.21203608823217
30
0
41
1
10
38.8968062689379
20
2.17671410370909
30
0
41
1
10
39.2812929329516
20
2.09471457010429
30
0
41
1
10
39.4742863842906
20
2.04793972022083
30
0
41
1
10
40.0518502425228
20
1.89279599407163
30
0
41
1
10
40.4351236575804
20
1.76933621383466
30
0
41
1
10
41.012717730701
20
1.56071747149878
30
0
41
1
10
41.2057553791483
20
1.48720376711486
30
0
41
1
10
41.5903868368326
20
1.33309317284085
30
0
41
1
10
41.7823990284896
20
1.25267462127101
30
0
41
1
10
42.1668490109596
20
1.08664329752855
30
0
41
1
10
42.3591316725547
20
1.00088831058647
30
0
41
1
10
42.7437351801308
20
0.824010737304292
30
0
41
1
10
42.9364838751606
20
0.732562351667525
30
0
41
1
10
43.1287318325652
20
0.640453289276678
30
0
0
SPLINE
5
DC
100
AcDbEntity
8
1
62
256
6
ByLayer
370
18
48
1
60
0
100
AcDbSpline
70
4
71
3
72
8
73
4
40
0
40
0
40
0
40
0
40
1
40
1
40
1
40
1
41
1
10
4.10804815626608
20
1.46431208961971
30
0
41
1
10
4.11655514687678
20
1.45757259317691
30
0
41
1
10
4.1255216037961
20
1.4513543573002
30
0
41
1
10
4.1349946596813
20
1.4457112119793
30
0
0
SPLINE
5
DD
100
AcDbEntity
8
1
62
256
6
ByLayer
370
18
48
1
60
0
100
AcDbSpline
70
4
71
3
72
20
73
16
40
0
40
0
40
0
40
0
40
0.264410081239696
40
0.264410081239696
40
0.396615121859544
40
0.396615121859544
40
0.528820162479392
40
0.528820162479392
40
0.661025203099239
40
0.661025203099239
40
0.793230243719087
40
0.793230243719087
40
0.925435284338935
40
0.925435284338935
40
1
40
1
40
1
40
1
41
1
10
9.90814897350498
20
-1.58665946946027
30
0
41
1
10
10.2785082803984
20
-1.73674722436078
30
0
41
1
10
10.6485865146443
20
-1.86740346645004
30
0
41
1
10
11.19943231379
20
-2.04081895998431
30
0
41
1
10
11.3828429374541
20
-2.09408565029366
30
0
41
1
10
11.7506656234603
20
-2.19027271737531
30
0
41
1
10
11.9348034633116
20
-2.23352532473328
30
0
41
1
10
12.3029895323802
20
-2.31064256035808
30
0
41
1
10
12.4868974375938
20
-2.3445069327343
30
0
41
1
10
12.8571809092908
20
-2.40080878685146
30
0
41
1
10
13.0434292137928
20
-2.42358913756223
30
0
41
1
10
13.4134598382942
20
-2.45815309562016
30
0
41
1
10
13.5972806468378
20
-2.47002870389514
30
0
41
1
10
13.8850406666884
20
-2.47967317419096
30
0
41
1
10
13.9888391748376
20
-2.48137867900715
30
0
41
1
10
14.0926143449017
20
-2.48133189000069
30
0
0
SPLINE
5
DE
100
AcDbEntity
8
1
62
256
6
ByLayer
370
18
48
1
60
0
100
AcDbSpline
70
4
71
3
72
70
73
66
40
0
40
0
40
0
40
0
40
0.027901055248285
40
0.027901055248285
40
0.05748868659598
40
0.05748868659598
40
0.0870763179436751
40
0.0870763179436751
40
0.11666394929137
40
0.11666394929137
40
0.146251580639065
40
0.146251580639065
40
0.17583921198676
40
0.17583921198676
40
0.205426843334455
40
0.205426843334455
40
0.23501447468215
40
0.23501447468215
40
0.264602106029845
40
0.264602106029845
40
0.29418973737754
40
0.29418973737754
40
0.323777368725235
40
0.323777368725235
40
0.35336500007293
40
0.35336500007293
40
0.412540262768321
40
0.412540262768321
40
0.442127894116015
40
0.442127894116015
40
0.471715525463709
40
0.471715525463709
40
0.501303156811403
40
0.501303156811403
40
0.530890788159097
40
0.530890788159097
40
0.560478419506792
40
0.560478419506792
40
0.590066050854486
40
0.590066050854486
40
0.61965368220218
40
0.61965368220218
40
0.649241313549874
40
0.649241313549874
40
0.678828944897569
40
0.678828944897569
40
0.708416576245263
40
0.708416576245263
40
0.738004207592957
40
0.738004207592957
40
0.767591838940651
40
0.767591838940651
40
0.797179470288346
40
0.797179470288346
40
0.82676710163604
40
0.82676710163604
40
0.856354732983734
40
0.856354732983734
40
0.885942364331428
40
0.885942364331428
40
0.915529995679122
40
0.915529995679122
40
0.945117627026817
40
0.945117627026817
40
1
40
1
40
1
40
1
41
1
10
25.3948814557054
20
1.7892649813621
30
0
41
1
10
25.5678238240626
20
1.85189166140668
30
0
41
1
10
25.7406838032615
20
1.91159842251574
30
0
41
1
10
26.0979371858169
20
2.02671993135016
30
0
41
1
10
26.2828853150625
20
2.08110173401462
30
0
41
1
10
26.6542791881207
20
2.18094127449606
30
0
41
1
10
26.8390521992697
20
2.22601548285144
30
0
41
1
10
27.2066275541695
20
2.30630776710279
30
0
41
1
10
27.3901985930029
20
2.34090418018334
30
0
41
1
10
27.7570596073653
20
2.39940973916873
30
0
41
1
10
27.9402668812901
20
2.42339647163553
30
0
41
1
10
28.3055753531101
20
2.46094626074819
30
0
41
1
10
28.4880451567164
20
2.47427970339856
30
0
41
1
10
28.8543715212147
20
2.48980297541351
30
0
41
1
10
29.0379084143807
20
2.49212773389994
30
0
41
1
10
29.4052305693823
20
2.48569521779646
30
0
41
1
10
29.5887831892994
20
2.47678757315955
30
0
41
1
10
29.958599190891
20
2.44795982997556
30
0
41
1
10
30.1446980069226
20
2.42800276586033
30
0
41
1
10
30.5140564483685
20
2.37739822849974
30
0
41
1
10
30.6974758471624
20
2.34642162129282
30
0
41
1
10
31.0641961928295
20
2.27469597583993
30
0
41
1
10
31.247580616048
20
2.23410969025301
30
0
41
1
10
31.6137799809613
20
2.14322876993793
30
0
41
1
10
31.7964211666985
20
2.09272759844333
30
0
41
1
10
32.3440726560387
20
1.92676390605962
30
0
41
1
10
32.7115884877424
20
1.80050805677786
30
0
41
1
10
33.2636063512338
20
1.58323177949828
30
0
41
1
10
33.448871459209
20
1.50680415195441
30
0
41
1
10
33.8194367523932
20
1.34878366100403
30
0
41
1
10
34.0040687792388
20
1.26711292471737
30
0
41
1
10
34.3714609585409
20
1.09746592632825
30
0
41
1
10
34.5542679863729
20
1.00954107812444
30
0
41
1
10
34.9205791401552
20
0.832017268251434
30
0
41
1
10
35.1037014059502
20
0.741749638919856
30
0
41
1
10
35.4693911328266
20
0.557296131417928
30
0
41
1
10
35.6516048623287
20
0.462409187490152
30
0
41
1
10
36.0176689729781
20
0.272846187554109
30
0
41
1
10
36.2013018788624
20
0.177780751435847
30
0
41
1
10
36.5692542265698
20
-0.0139434569568948
30
0
41
1
10
36.7532872682918
20
-0.111199034495371
30
0
41
1
10
37.123089673004
20
-0.305328010003223
30
0
41
1
10
37.308629937954
20
-0.400933380091885
30
0
41
1
10
37.677461055392
20
-0.589261073277385
30
0
41
1
10
37.8611074347428
20
-0.682347850194418
30
0
41
1
10
38.2269595223342
20
-0.866089663707101
30
0
41
1
10
38.4099156244728
20
-0.955336092383874
30
0
41
1
10
38.775929745357
20
-1.12870208939944
30
0
41
1
10
38.958916569389
20
-1.2129593639936
30
0
41
1
10
39.3242023570262
20
-1.37760056798425
30
0
41
1
10
39.5069087246069
20
-1.45726240348463
30
0
41
1
10
39.8741144970794
20
-1.60863335631899
30
0
41
1
10
40.0583021557173
20
-1.6808706180741
30
0
41
1
10
40.4273627679252
20
-1.81903225429639
30
0
41
1
10
40.6125210725093
20
-1.88531623384111
30
0
41
1
10
40.9819958666794
20
-2.00663128784697
30
0
41
1
10
41.1662889646225
20
-2.06238855412275
30
0
41
1
10
41.5335370320115
20
-2.16485113609966
30
0
41
1
10
41.716112052806
20
-2.21185114811115
30
0
41
1
10
42.0816616045962
20
-2.29497865172357
30
0
41
1
10
42.2646817671299
20
-2.33117821332556
30
0
41
1
10
42.6305907440642
20
-2.39351161135926
30
0
41
1
10
42.8132991326673
20
-2.41971101866025
30
0
41
1
10
43.3353597626882
20
-2.47917507535288
30
0
41
1
10
43.6778221155751
20
-2.49888610909898
30
0
41
1
10
44.0208186711133
20
-2.49929140234562
30
0
0
SPLINE
5
DF
100
AcDbEntity
8
1
62
256
6
ByLayer
370
18
48
1
60
0
100
AcDbSpline
70
4
71
3
72
58
73
54
40
0
40
0
40
0
40
0
40
0.0624999999999969
40
0.0624999999999969
40
0.124999999999994
40
0.124999999999994
40
0.249999999999988
40
0.249999999999988
40
0.374999999999981
40
0.374999999999981
40
0.437499999999977
40
0.437499999999977
40
0.499999999999973
40
0.499999999999973
40
0.624999999999965
40
0.624999999999965
40
0.632812499999965
40
0.632812499999965
40
0.636718749999964
40
0.636718749999964
40
0.638671874999964
40
0.638671874999964
40
0.640624999999963
40
0.640624999999963
40
0.656249999999964
40
0.656249999999964
40
0.687499999999966
40
0.687499999999966
40
0.703124999999968
40
0.703124999999968
40
0.71874999999997
40
0.71874999999997
40
0.734374999999971
40
0.734374999999971
40
0.749999999999973
40
0.749999999999973
40
0.757812499999974
40
0.757812499999974
40
0.765624999999974
40
0.765624999999974
40
0.781249999999976
40
0.781249999999976
40
0.812499999999979
40
0.812499999999979
40
0.843749999999983
40
0.843749999999983
40
0.874999999999987
40
0.874999999999987
40
0.90624999999999
40
0.90624999999999
40
0.937499999999994
40
0.937499999999994
40
1
40
1
40
1
40
1
41
1
10
9.90872763043376
20
-1.5868992496128
30
0
41
1
10
9.68958475063451
20
-1.49885015483062
30
0
41
1
10
9.46896187841202
20
-1.40825109842589
30
0
41
1
10
9.02436632059619
20
-1.2240072220666
30
0
41
1
10
8.80044765120545
20
-1.13038782826163
30
0
41
1
10
8.12838454880881
20
-0.850930242509946
30
0
41
1
10
7.67798833599261
20
-0.665698401091419
30
0
41
1
10
6.76632297217881
20
-0.31786300776281
30
0
41
1
10
6.30498657632069
20
-0.155451657009678
30
0
41
1
10
5.6010859656127
20
0.0575750843616731
30
0
41
1
10
5.36448745724493
20
0.123528009194672
30
0
41
1
10
4.88698333578418
20
0.243710159369556
30
0
41
1
10
4.64571738384063
20
0.298007697455773
30
0
41
1
10
3.91815902067913
20
0.440956134439915
30
0
41
1
10
3.42800349856125
20
0.509689515590679
30
0
41
1
10
2.90429405805921
20
0.55216049860519
30
0
41
1
10
2.87346210810944
20
0.554751914801273
30
0
41
1
10
2.82723381820523
20
0.557847761514608
30
0
41
1
10
2.81190950193849
20
0.557350628704796
30
0
41
1
10
2.78913385775181
20
0.552814709388429
30
0
41
1
10
2.78173499864619
20
0.550670973006845
30
0
41
1
10
2.76803039488158
20
0.544452073743571
30
0
41
1
10
2.76135089571591
20
0.541000092458148
30
0
41
1
10
2.7006719443616
20
0.511030937530052
30
0
41
1
10
2.6474256549233
20
0.482680656355882
30
0
41
1
10
2.49177672724244
20
0.392051826988052
30
0
41
1
10
2.39301979637708
20
0.324482927540828
30
0
41
1
10
2.25798699402989
20
0.204197401999011
30
0
41
1
10
2.21518443778351
20
0.160721905572785
30
0
41
1
10
2.13856777074264
20
0.0676000286379406
30
0
41
1
10
2.10412631879891
20
0.0171687912261973
30
0
41
1
10
2.04826174008889
20
-0.090423166848467
30
0
41
1
10
2.02715413067415
20
-0.146769710556782
30
0
41
1
10
2.00135904191379
20
-0.265575731817535
30
0
41
1
10
1.99734137315431
20
-0.32546457398459
30
0
41
1
10
2.00366441064301
20
-0.414764264675881
30
0
41
1
10
2.00787820958595
20
-0.444707417841897
30
0
41
1
10
2.0198533392695
20
-0.502971512665738
30
0
41
1
10
2.02759473852282
20
-0.531431276549483
30
0
41
1
10
2.0553053142884
20
-0.615074697171991
30
0
41
1
10
2.07997794984385
20
-0.668957652002661
30
0
41
1
10
2.16568206098879
20
-0.821915185157735
30
0
41
1
10
2.2370856917218
20
-0.912092010979364
30
0
41
1
10
2.39503954405782
20
-1.07945098611131
30
0
41
1
10
2.48042411998557
20
-1.1548496084396
30
0
41
1
10
2.65698756585317
20
-1.29405190907525
30
0
41
1
10
2.74860708477394
20
-1.35807269136225
30
0
41
1
10
2.936378018406
20
-1.47816584671071
30
0
41
1
10
3.03255740719749
20
-1.53419656346119
30
0
41
1
10
3.22837349373208
20
-1.63992628399961
30
0
41
1
10
3.32799177746156
20
-1.6895717396558
30
0
41
1
10
3.62792137341384
20
-1.82911909634413
30
0
41
1
10
3.83040802800079
20
-1.91039779227137
30
0
41
1
10
4.03462319339789
20
-1.98270266754739
30
0
0
SPLINE
5
E0
100
AcDbEntity
8
1
62
256
6
ByLayer
370
13
48
1
60
0
100
AcDbSpline
70
4
71
3
72
8
73
4
40
0
40
0
40
0
40
0
40
1
40
1
40
1
40
1
41
1
10
4.03378201557035
20
1.56523342883787
30
0
41
1
10
4.05652883404943
20
1.52360851355846
30
0
41
1
10
4.0909373086171
20
1.48718532965063
30
0
41
1
10
4.13499465968127
20
1.46311010358445
30
0
0
SPLINE
5
E1
100
AcDbEntity
8
1
62
256
6
ByLayer
370
13
48
1
60
0
100
AcDbSpline
70
4
71
3
72
16
73
12
40
0
40
0
40
0
40
0
40
0.0555434619180037
40
0.0555434619180037
40
0.21295288493167
40
0.21295288493167
40
0.370362307945336
40
0.370362307945336
40
0.685181153972668
40
0.685181153972668
40
1
40
1
40
1
40
1
41
1
10
4.25145294390748
20
-2.35186364261492
30
0
41
1
10
4.25146112231982
20
-2.35176100285312
30
0
41
1
10
4.25146917961101
20
-2.35121497511213
30
0
41
1
10
4.25149962326992
20
-2.34743044943565
30
0
41
1
10
4.25152116713764
20
-2.34106607035525
30
0
41
1
10
4.25156228164207
20
-2.32100990173774
30
0
41
1
10
4.25158180386259
20
-2.30728407989221
30
0
41
1
10
4.25163594836022
20
-2.25603428906896
30
0
41
1
10
4.25166670671479
20
-2.20834368216856
30
0
41
1
10
4.25171546314681
20
-2.08613110479868
30
0
41
1
10
4.25173342660341
20
-2.01065314497254
30
0
41
1
10
4.25174229228813
20
-1.92447010071672
30
0
0
SPLINE
5
E2
100
AcDbEntity
8
1
62
256
6
ByLayer
370
18
48
1
60
0
100
AcDbSpline
70
4
71
3
72
16
73
12
40
0
40
0
40
0
40
0
40
0.25
40
0.25
40
0.5
40
0.5
40
0.749999999999999
40
0.749999999999999
40
0.875
40
0.875
40
1
40
1
40
1
40
1
41
1
10
45.6653505398767
20
1.24355021310007
30
0
41
1
10
45.6284106301054
20
1.3435460715354
30
0
41
1
10
45.5910731707469
20
1.44330286696424
30
0
41
1
10
45.5160838322061
20
1.64239025686439
30
0
41
1
10
45.4785224015853
20
1.74190826239206
30
0
41
1
10
45.4026615205027
20
1.93963739520734
30
0
41
1
10
45.3643014936429
20
2.03765156724873
30
0
41
1
10
45.3066358380818
20
2.1840198359844
30
0
41
1
10
45.2873408140537
20
2.23266021282282
30
0
41
1
10
45.2486082149541
20
2.32899060320432
30
0
41
1
10
45.2291652026277
20
2.37637616057933
30
0
41
1
10
45.2096973069106
20
2.42350882614971
30
0
0
SPLINE
5
E3
100
AcDbEntity
8
1
62
256
6
ByLayer
370
18
48
1
60
0
100
AcDbSpline
70
4
71
3
72
16
73
12
40
0
40
0
40
0
40
0
40
0.25
40
0.25
40
0.5
40
0.5
40
0.749999999999999
40
0.749999999999999
40
0.875
40
0.875
40
1
40
1
40
1
40
1
41
1
10
45.6653505398767
20
-1.24355021310012
30
0
41
1
10
45.6284106301054
20
-1.34354607153546
30
0
41
1
10
45.5910731707469
20
-1.4433028669643
30
0
41
1
10
45.5160838322061
20
-1.64239025686445
30
0
41
1
10
45.4785224015853
20
-1.74190826239212
30
0
41
1
10
45.4026615205027
20
-1.93963739520737
30
0
41
1
10
45.3643014936429
20
-2.03765156724876
30
0
41
1
10
45.3066358380818
20
-2.18401983598443
30
0
41
1
10
45.2873408140538
20
-2.23266021282285
30
0
41
1
10
45.2486082149541
20
-2.32899060320432
30
0
41
1
10
45.2291652026277
20
-2.37637616057936
30
0
41
1
10
45.2096973069106
20
-2.42350882614971
30
0
0
SPLINE
5
E4
100
AcDbEntity
8
1
62
256
6
ByLayer
370
18
48
1
60
0
100
AcDbSpline
70
4
71
3
72
10
73
6
40
0
40
0
40
0
40
0
40
0.5
40
0.5
40
1
40
1
40
1
40
1
41
1
10
4.25174229253741
20
-1.92447010071797
30
0
41
1
10
4.56688811441464
20
-2.03238621086905
30
0
41
1
10
4.88644613764006
20
-2.11635601716213
30
0
41
1
10
5.53313024382402
20
-2.24513843420522
30
0
41
1
10
5.85754271820383
20
-2.28947525739221
30
0
41
1
10
6.18438409145273
20
-2.31739697239735
30
0
0
SPLINE
5
E5
100
AcDbEntity
8
1
62
256
6
ByLayer
370
18
48
1
60
0
100
AcDbSpline
70
4
71
3
72
10
73
6
40
0
40
0
40
0
40
0
40
0.5
40
0.5
40
1
40
1
40
1
40
1
41
1
10
4.03462319346184
20
-1.98270266757001
30
0
41
1
10
4.05768381347752
20
-1.94889780807156
30
0
41
1
10
4.09270089218163
20
-1.92514919000121
30
0
41
1
10
4.16997776821586
20
-1.9066430732648
30
0
41
1
10
4.21195684912973
20
-1.91084627963096
30
0
41
1
10
4.25174229229336
20
-1.92447010063438
30
0
0
LINE
5
76
100
AcDbEntity
8
81
62
256
6
ByLayer
370
18
48
1
60
0
100
AcDbLine
10
46
20
0
30
0
11
51
21
0
31
0
39
0
210
0
220
0
230
1
0
LINE
5
77
100
AcDbEntity
8
1
62
256
6
ByLayer
370
18
48
1
60
0
100
AcDbLine
10
4.034404
20
2.475295
30
0
11
1.186824
21
2.473586
31
0
39
0
210
0
220
0
230
1
0
LINE
5
79
100
AcDbEntity
8
1
62
256
6
ByLayer
370
18
48
1
60
0
100
AcDbLine
10
14.602146
20
2.481635
30
0
11
14.08542
21
2.481325
31
0
39
0
210
0
220
0
230
1
0
LINE
5
7A
100
AcDbEntity
8
1
62
256
6
ByLayer
370
18
48
1
60
0
100
AcDbLine
10
29.566724
20
2.490614
30
0
11
29.056276
21
2.490308
31
0
39
0
210
0
220
0
230
1
0
LINE
5
7B
100
AcDbEntity
8
1
62
256
6
ByLayer
370
18
48
1
60
0
100
AcDbLine
10
44.532594
20
2.499594
30
0
11
44.027539
21
2.499291
31
0
39
0
210
0
220
0
230
1
0
LINE
5
7C
100
AcDbEntity
8
1
62
256
6
ByLayer
370
18
48
1
60
0
100
AcDbLine
10
44.027539
20
-2.499291
30
0
11
44.532534
21
-2.499594
31
0
39
0
210
0
220
0
230
1
0
LINE
5
7D
100
AcDbEntity
8
1
62
256
6
ByLayer
370
18
48
1
60
0
100
AcDbLine
10
29.056276
20
-2.490308
30
0
11
29.567055
21
-2.490614
31
0
39
0
210
0
220
0
230
1
0
LINE
5
7E
100
AcDbEntity
8
1
62
256
6
ByLayer
370
18
48
1
60
0
100
AcDbLine
10
14.08542
20
-2.481325
30
0
11
14.601782
21
-2.481635
31
0
39
0
210
0
220
0
230
1
0
LINE
5
7F
100
AcDbEntity
8
1
62
256
6
ByLayer
370
18
48
1
60
0
100
AcDbLine
10
1.186824
20
-2.473586
30
0
11
4.034404
21
-2.475295
31
0
39
0
210
0
220
0
230
1
0
LINE
5
80
100
AcDbEntity
8
SK1
62
256
6
ByLayer
370
18
48
1
60
0
100
AcDbLine
10
-35.278312
20
3
30
0
11
-36
21
1.75
31
0
39
0
210
0
220
0
230
1
0
LINE
5
82
100
AcDbEntity
8
SK1
62
256
6
ByLayer
370
18
48
1
60
0
100
AcDbLine
10
-36
20
-1.75
30
0
11
-35.278312
21
-3
31
0
39
0
210
0
220
0
230
1
0
LINE
5
83
100
AcDbEntity
8
SK1
62
256
6
ByLayer
370
18
48
1
60
0
100
AcDbLine
10
0
20
3
30
0
11
-35.278312
21
3
31
0
39
0
210
0
220
0
230
1
0
LINE
5
84
100
AcDbEntity
8
SK1
62
256
6
ByLayer
370
18
48
1
60
0
100
AcDbLine
10
-35.278312
20
-3
30
0
11
0
21
-3
31
0
39
0
210
0
220
0
230
1
0
LINE
5
85
100
AcDbEntity
8
SK4
62
256
6
ByLayer
370
18
48
0.05
60
0
100
AcDbLine
10
51
20
0
30
0
11
-41
21
0
31
0
39
0
210
0
220
0
230
1
0
LINE
5
87
100
AcDbEntity
8
4
62
256
6
ByLayer
370
18
48
0.05
60
0
100
AcDbLine
10
46
20
0
30
0
11
0
21
0
31
0
39
0
210
0
220
0
230
1
0
LINE
5
89
100
AcDbEntity
8
80
62
256
6
ByLayer
370
18
48
1
60
0
100
AcDbLine
10
0
20
0
30
0
11
-5
21
0
31
0
39
0
210
0
220
0
230
1
0
LINE
5
8A
100
AcDbEntity
8
1
62
256
6
ByLayer
370
18
48
1
60
0
100
AcDbLine
10
14.104188
20
0.196716
30
0
11
14.101386
21
0.198903
31
0
39
0
210
0
220
0
230
1
0
LINE
5
8B
100
AcDbEntity
8
1
62
256
6
ByLayer
370
13
48
1
60
0
100
AcDbLine
10
0.593172
20
2.736793
30
0
11
0.593172
21
-2.736793
31
0
39
0
210
0
220
0
230
1
0
LINE
5
8C
100
AcDbEntity
8
1
62
256
6
ByLayer
370
18
48
1
60
0
100
AcDbLine
10
45.932756
20
0.264298
30
0
11
45.870809
21
0.553218
31
0
39
0
210
0
220
0
230
1
0
LINE
5
8D
100
AcDbEntity
8
1
62
256
6
ByLayer
370
18
48
1
60
0
100
AcDbLine
10
45.995913
20
0.025357
30
0
11
46
21
0
31
0
39
0
210
0
220
0
230
1
0
LINE
5
8E
100
AcDbEntity
8
1
62
256
6
ByLayer
370
18
48
1
60
0
100
AcDbLine
10
0
20
-3
30
0
11
0
21
3
31
0
39
0
210
0
220
0
230
1
0
LINE
5
8F
100
AcDbEntity
8
1
62
256
6
ByLayer
370
18
48
1
60
0
100
AcDbLine
10
46
20
0
30
0
11
45.135581
21
-2.374971
31
0
39
0
210
0
220
0
230
1
0
LINE
5
90
100
AcDbEntity
8
1
62
256
6
ByLayer
370
13
48
1
60
0
100
AcDbLine
10
1.186824
20
2.473586
30
0
11
1.186824
21
-2.473586
31
0
39
0
210
0
220
0
230
1
0
LINE
5
91
100
AcDbEntity
8
1
62
256
6
ByLayer
370
18
48
1
60
0
100
AcDbLine
10
44.753284
20
-1.341313
30
0
11
45.895367
21
-0.161525
31
0
39
0
210
0
220
0
230
1
0
LINE
5
92
100
AcDbEntity
8
1
62
256
6
ByLayer
370
18
48
1
60
0
100
AcDbLine
10
46
20
0
30
0
11
45.995913
21
-0.025357
31
0
39
0
210
0
220
0
230
1
0
LINE
5
93
100
AcDbEntity
8
1
62
256
6
ByLayer
370
13
48
1
60
0
100
AcDbLine
10
45.445812
20
0.553218
30
0
11
45.932756
21
0.264298
31
0
39
0
210
0
220
0
230
1
0
LINE
5
94
100
AcDbEntity
8
1
62
256
6
ByLayer
370
13
48
1
60
0
100
AcDbLine
10
45.255906
20
0.217888
30
0
11
45.895367
21
-0.161525
31
0
39
0
210
0
220
0
230
1
0
LINE
5
95
100
AcDbEntity
8
1
62
256
6
ByLayer
370
13
48
1
60
0
100
AcDbLine
10
45.870809
20
0.553218
30
0
11
45.445812
21
0.553218
31
0
39
0
210
0
220
0
230
1
0
LINE
5
96
100
AcDbEntity
8
1
62
256
6
ByLayer
370
18
48
1
60
0
100
AcDbLine
10
45.932756
20
-0.264298
30
0
11
45.870809
21
-0.553218
31
0
39
0
210
0
220
0
230
1
0
LINE
5
97
100
AcDbEntity
8
SK1
62
256
6
ByLayer
370
18
48
1
60
0
100
AcDbLine
10
-35.278312
20
3
30
0
11
-35.278312
21
-3
31
0
39
0
210
0
220
0
230
1
0
LINE
5
98
100
AcDbEntity
8
SK1
62
256
6
ByLayer
370
18
48
1
60
0
100
AcDbLine
10
0
20
-3
30
0
11
0
21
3
31
0
39
0
210
0
220
0
230
1
0
LINE
5
99
100
AcDbEntity
8
SK1
62
256
6
ByLayer
370
18
48
1
60
0
100
AcDbLine
10
-36
20
1.75
30
0
11
-36
21
-1.75
31
0
39
0
210
0
220
0
230
1
0
MTEXT
5
E6
100
AcDbEntity
8
SK6
62
256
6
ByLayer
370
13
48
1
60
0
100
AcDbMText
10
7.129169
20
34.882694
30
0
210
0
220
0
230
1
1
\W0.7670;R840-0500-50-A0A1220
40
3.5
41
0
44
1.084337
50
0
71
8
72
5
7
iso_b_vert
0
DIMENSION
5
F3
100
AcDbEntity
8
SK2
62
256
6
ByLayer
370
13
48
1
60
0
100
AcDbDimension
2
DimnDraft3D1
10
45.15
20
-12.713398
30
0
11
21.400059
21
-12.713398
31
0
70
32
71
5
72
1
41
1
210
0
220
0
230
1
3
Standard
100
AcDbAlignedDimension
13
0
23
-1.5875
33
0
14
45.15
24
-4.0875
34
0
50
0
100
AcDbRotatedDimension
1001
ACAD
1000
DSTYLE
1002
{
1070
   279
1070
     0
1070
   172
1070
     1
1070
   173
1070
     1
1070
   340
1005
E7
1070
   271
1070
     2
1070
   272
1070
     2
1070
    77
1070
     1
1070
    73
1070
     0
1070
   171
1070
     3
1070
   274
1070
     4
1070
   177
1070
    35
1070
   176
1070
    35
1070
   178
1070
    35
1070
    48
1040
-0.005
1070
    41
1041
3.5
1070
   147
1041
1.75
1070
    42
1041
1.5875
1070
    44
1041
2.0
1070
   140
1041
3.5
1070
   343
1005
0
1070
   344
1005
0
1002
}
0
DIMENSION
5
FD
100
AcDbEntity
8
SK2
62
256
6
ByLayer
370
13
48
1
60
0
100
AcDbDimension
2
DimnDraft3D2
10
46
20
-31.692985
30
0
11
5.4913
21
-31.692985
31
0
70
32
71
5
72
1
41
1
210
0
220
0
230
1
3
Standard
100
AcDbAlignedDimension
13
-36
23
-4.5875
33
0
14
46
24
-1.5875
34
0
50
0
100
AcDbRotatedDimension
1001
ACAD
1000
DSTYLE
1002
{
1070
   279
1070
     0
1070
   172
1070
     1
1070
   173
1070
     1
1070
   340
1005
E7
1070
   271
1070
     2
1070
   272
1070
     2
1070
    77
1070
     1
1070
    73
1070
     0
1070
   171
1070
     3
1070
   274
1070
     4
1070
   177
1070
    35
1070
   176
1070
    35
1070
   178
1070
    35
1070
    48
1040
-0.005
1070
    41
1041
3.5
1070
   147
1041
1.75
1070
    42
1041
1.5875
1070
    44
1041
2.0
1070
   140
1041
3.5
1070
   343
1005
0
1070
   344
1005
0
1002
}
0
DIMENSION
5
107
100
AcDbEntity
8
SK2
62
256
6
ByLayer
370
13
48
1
60
0
100
AcDbDimension
2
DimnDraft3D3
10
46
20
14.109119
30
0
11
33.075
21
14.109119
31
0
70
32
71
5
72
1
41
1
210
0
220
0
230
1
3
Standard
100
AcDbAlignedDimension
13
20.15
23
4.0875
33
0
14
46
24
1.5875
34
0
50
0
100
AcDbRotatedDimension
1001
ACAD
1000
DSTYLE
1002
{
1070
   279
1070
     0
1070
   172
1070
     1
1070
   173
1070
     1
1070
   340
1005
E7
1070
   271
1070
     2
1070
   272
1070
     2
1070
    77
1070
     1
1070
    73
1070
     0
1070
   171
1070
     3
1070
   274
1070
     4
1070
   177
1070
    35
1070
   176
1070
    35
1070
   178
1070
    35
1070
    48
1040
-0.005
1070
    41
1041
3.5
1070
   147
1041
1.75
1070
    42
1041
1.5875
1070
    44
1041
2.0
1070
   140
1041
3.5
1070
   343
1005
0
1070
   344
1005
0
1002
}
0
DIMENSION
5
111
100
AcDbEntity
8
SK2
62
256
6
ByLayer
370
13
48
1
60
0
100
AcDbDimension
2
DimnDraft3D4
10
45.15
20
-15.302503
30
0
11
55.981425
21
-15.302503
31
0
70
32
71
5
72
1
41
1
210
0
220
0
230
1
3
Standard
100
AcDbAlignedDimension
13
46
23
-1.5875
33
0
14
45.15
24
-4.0875
34
0
50
0
100
AcDbRotatedDimension
1001
ACAD
1000
DSTYLE
1002
{
1070
   279
1070
     0
1070
   172
1070
     1
1070
   173
1070
     1
1070
   340
1005
E7
1070
   271
1070
     2
1070
   272
1070
     2
1070
    77
1070
     1
1070
    73
1070
     0
1070
   171
1070
     3
1070
   274
1070
     4
1070
   177
1070
    35
1070
   176
1070
    35
1070
   178
1070
    35
1070
    48
1040
-0.005
1070
    41
1041
3.5
1070
   147
1041
1.75
1070
    42
1041
1.5875
1070
    44
1041
2.0
1070
   140
1041
3.5
1070
   343
1005
0
1070
   344
1005
0
1002
}
0
DIMENSION
5
11B
100
AcDbEntity
8
SK2
62
256
6
ByLayer
370
13
48
1
60
0
100
AcDbDimension
2
DimnDraft3D5
10
45.15
20
-21.343428
30
0
11
2.410676
21
-21.343428
31
0
70
32
71
5
72
1
41
1
210
0
220
0
230
1
3
Standard
100
AcDbAlignedDimension
13
-36
23
-4.5875
33
0
14
45.15
24
-4.0875
34
0
50
0
100
AcDbRotatedDimension
1001
ACAD
1000
DSTYLE
1002
{
1070
   279
1070
     0
1070
   172
1070
     1
1070
   173
1070
     1
1070
   340
1005
E7
1070
   271
1070
     2
1070
   272
1070
     2
1070
    77
1070
     1
1070
    73
1070
     0
1070
   171
1070
     3
1070
   274
1070
     4
1070
   177
1070
    35
1070
   176
1070
    35
1070
   178
1070
    35
1070
    48
1040
-0.005
1070
    41
1041
3.5
1070
   147
1041
1.75
1070
    42
1041
1.5875
1070
    44
1041
2.0
1070
   140
1041
3.5
1070
   343
1005
0
1070
   344
1005
0
1002
}
0
DIMENSION
5
126
100
AcDbEntity
8
SK2
62
256
6
ByLayer
370
13
48
1
60
0
100
AcDbDimension
2
DimnDraft3D6
10
-46.625163
20
3
30
0
11
-47.250163
21
21.47418
31
0
70
33
71
5
72
1
41
1
210
0
220
0
230
1
3
Standard
100
AcDbAlignedDimension
13
-37.5875
23
-3
33
0
14
-37.5875
24
3
34
0
1001
ACAD
1000
DSTYLE
1002
{
1070
   279
1070
     0
1070
    74
1070
     0
1070
   173
1070
     1
1070
   340
1005
E7
1070
   271
1070
     3
1070
   272
1070
     2
1070
    77
1070
     1
1070
    73
1070
     0
1070
   171
1070
     3
1070
   274
1070
     4
1070
   177
1070
    35
1070
   176
1070
    35
1070
   178
1070
    35
1070
    48
1040
-0.005
1070
    41
1041
3.5
1070
   147
1041
1.75
1070
    42
1041
1.5875
1070
    44
1041
2.0
1070
   140
1041
3.5
1070
   343
1005
0
1070
   344
1005
0
1002
}
0
DIMENSION
5
131
100
AcDbEntity
8
2
62
256
6
ByLayer
370
13
48
1
60
0
100
AcDbDimension
2
DimnDraft3D7
10
60.083343
20
2.5
30
0
11
55.458343
21
19.567266
31
0
70
33
71
5
72
1
41
1
210
0
220
0
230
1
3
Standard
100
AcDbAlignedDimension
13
46.7375
23
-2.5
33
0
14
46.7375
24
2.5
34
0
1001
ACAD
1000
DSTYLE
1002
{
1070
   279
1070
     0
1070
    74
1070
     0
1070
   173
1070
     1
1070
   340
1005
E7
1070
   271
1070
     3
1070
   272
1070
     2
1070
    77
1070
     1
1070
    73
1070
     0
1070
   171
1070
     3
1070
   274
1070
     4
1070
   177
1070
    35
1070
   176
1070
    35
1070
   178
1070
    35
1070
    48
1040
-0.005
1070
    41
1041
3.5
1070
   147
1041
1.75
1070
    42
1041
1.5875
1070
    44
1041
2.0
1070
   140
1041
3.5
1070
   343
1005
0
1070
   344
1005
0
1002
}
0
ENDSEC
0
SECTION
2
OBJECTS
0
DICTIONARY
5
19c
330
0
100
AcDbDictionary
280
0
281
1
3
ACAD_GROUP
350
19d
3
ACAD_MLINESTYLE
350
19e
0
DICTIONARY
5
19d
330
0
100
AcDbDictionary
280
0
281
1
0
DICTIONARY
5
19e
330
0
100
AcDbDictionary
280
0
281
1
3
Standard
350
18
0
MLINESTYLE
5
18
330
19e
100
AcDbMlineStyle
2
Standard
70
0
3

62
256
51
90
52
90
71
2
49
-0.5
62
256
6
ByLayer
49
0.5
62
256
6
ByLayer
0
RASTERVARIABLES
5
18a
330

100
AcDbRasterVariables
90
0
70
1
71
1
72
1
0
ENDSEC
0
EOF
