0
SECTION
2
HEADER
9
$ACADVER
1
AC1015
9
$DWGCODEPAGE
3
ANSI_1252
9
$HANDSEED
5
19e
9
$ANGBASE
50
0
9
$ANGDIR
70
0
9
$ATTMODE
70
1
9
$AUNITS
70
0
9
$AUPREC
70
0
9
$CECOLOR
62
256
9
$CELTSCALE
40
1
9
$CELTYPE
6
ByLayer
9
$CELWEIGHT
370
18
9
$CLAYER
8
0
9
$CMLJUST
70
0
9
$CMLSCALE
40
1
9
$CMLSTYLE
2
Standard
9
$DIMSTYLE
2
Standard
9
$TEXTSIZE
40
0.2
9
$TEXTSTYLE
7
Standard
9
$LUNITS
70
2
9
$LUPREC
70
4
9
$EXTNAMES
290
1
9
$INSUNITS
70
4
9
$LTSCALE
40
1
9
$LWDISPLAY
290
1
9
$PDMODE
70
0
9
$PDSIZE
40
0
9
$PLINEGEN
70
0
0
ENDSEC
0
SECTION
2
CLASSES
0
CLASS
1
RASTERVARIABLES
2
AcDbRasterVariables
3
ISM
90
0
280
0
281
0
0
ENDSEC
0
SECTION
2
TABLES
0
TABLE
2
VPORT
5
194
100
AcDbSymbolTable
0
VPORT
5
1
100
AcDbSymbolTableRecord
100
AcDbViewportTableRecord
2
*Active
70
0
10
0
20
0
11
1
21
1
12
-1
22
1
13
0
23
0
14
0.5
24
0.5
15
10
25
10
16
0
26
0
36
1
17
0
27
0
37
0
0
ENDTAB
0
TABLE
2
LTYPE
5
195
100
AcDbSymbolTable
0
LTYPE
5
14
100
AcDbSymbolTableRecord
100
AcDbLinetypeTableRecord
70
0
2
ByBlock
3

72
65
73
0
40
0
0
LTYPE
5
15
100
AcDbSymbolTableRecord
100
AcDbLinetypeTableRecord
70
0
2
ByLayer
3

72
65
73
0
40
0
0
LTYPE
5
16
100
AcDbSymbolTableRecord
100
AcDbLinetypeTableRecord
70
0
2
CONTINUOUS
3
Solid line
72
65
73
0
40
0
0
LTYPE
5
6A
100
AcDbSymbolTableRecord
100
AcDbLinetypeTableRecord
70
0
2
CENTER
3
____ _ ____ _ ____ _ ____
72
65
73
4
40
47.5
49
22
74
0
49
-8.5
74
0
49
8.5
74
0
49
-8.5
74
0
0
LTYPE
5
6B
100
AcDbSymbolTableRecord
100
AcDbLinetypeTableRecord
70
0
2
DASHED
3
__ __ __ __ __ __ __ __ __
72
65
73
2
40
25.72
49
12.86
74
0
49
-12.86
74
0
0
ENDTAB
0
TABLE
2
LAYER
5
196
100
AcDbSymbolTable
0
LAYER
5
10
100
AcDbSymbolTableRecord
100
AcDbLayerTableRecord
2
0
70
0
62
7
6
CONTINUOUS
290
1
370
-3
390
0
0
LAYER
5
6D
100
AcDbSymbolTableRecord
100
AcDbLayerTableRecord
2
81
70
0
62
-3
6
CONTINUOUS
290
1
370
-3
390
0
0
LAYER
5
6F
100
AcDbSymbolTableRecord
100
AcDbLayerTableRecord
2
80
70
0
62
-6
6
CONTINUOUS
290
1
370
-3
390
0
0
LAYER
5
74
100
AcDbSymbolTableRecord
100
AcDbLayerTableRecord
2
2
70
0
62
7
6
CONTINUOUS
290
1
370
-3
390
0
0
LAYER
5
78
100
AcDbSymbolTableRecord
100
AcDbLayerTableRecord
2
1
70
0
62
4
6
CONTINUOUS
290
1
370
-3
390
0
0
LAYER
5
86
100
AcDbSymbolTableRecord
100
AcDbLayerTableRecord
2
4
70
0
62
-2
6
CENTER
290
1
370
-3
390
0
0
LAYER
5
180
100
AcDbSymbolTableRecord
100
AcDbLayerTableRecord
2
SK2
70
0
62
7
6
CONTINUOUS
290
1
370
-3
390
0
0
LAYER
5
181
100
AcDbSymbolTableRecord
100
AcDbLayerTableRecord
2
SK1
70
0
62
4
6
CONTINUOUS
290
1
370
-3
390
0
0
LAYER
5
182
100
AcDbSymbolTableRecord
100
AcDbLayerTableRecord
2
SK4
70
0
62
2
6
CENTER
290
1
370
-3
390
0
0
LAYER
5
183
100
AcDbSymbolTableRecord
100
AcDbLayerTableRecord
2
SK6
70
0
62
5
6
CONTINUOUS
290
1
370
-3
390
0
0
ENDTAB
0
TABLE
2
STYLE
5
197
100
AcDbSymbolTable
0
STYLE
5
11
100
AcDbSymbolTableRecord
100
AcDbTextStyleTableRecord
2
Standard
3
txt
70
0
71
0
40
0
41
1
42
0
50
0
0
STYLE
5
DC
100
AcDbSymbolTableRecord
100
AcDbTextStyleTableRecord
2
iso_b_vert
3
simplex.shx
70
0
71
0
40
0
41
1
42
0
50
0
0
STYLE
5
DD
100
AcDbSymbolTableRecord
100
AcDbTextStyleTableRecord
2
DWGDirectTextStyle
3
simplex
70
0
71
0
40
0
41
1
42
0
50
0
0
ENDTAB
0
TABLE
2
DIMSTYLE
5
198
100
AcDbSymbolTable
100
AcDbDimStyleTable
0
DIMSTYLE
105
27
100
AcDbSymbolTableRecord
100
AcDbDimStyleTableRecord
2
Standard
70
0
3
<>
41
0.18
42
0.0625
44
0.18
140
0.18
147
0.09
73
0
74
0
77
1
271
2
275
0
278
52
280
0
340
11
0
ENDTAB
0
TABLE
2
VIEW
5
199
100
AcDbSymbolTable
0
ENDTAB
0
TABLE
2
UCS
5
19a
100
AcDbSymbolTable
0
ENDTAB
0
TABLE
2
APPID
5
19b
100
AcDbSymbolTable
0
APPID
5
12
100
AcDbSymbolTableRecord
100
AcDbRegAppTableRecord
2
ACAD
70
0
0
ENDTAB
0
TABLE
2
BLOCK_RECORD
5
19c
100
AcDbSymbolTable
0
BLOCK_RECORD
5
1F
100
AcDbSymbolTableRecord
100
AcDbBlockTableRecord
2
*Model_Space
340
0
70
0
0
BLOCK_RECORD
5
1B
100
AcDbSymbolTableRecord
100
AcDbBlockTableRecord
2
*Paper_Space
340
0
70
0
0
BLOCK_RECORD
5
23
100
AcDbSymbolTableRecord
100
AcDbBlockTableRecord
2
*Paper_Space0
340
0
70
0
0
BLOCK_RECORD
5
DF
100
AcDbSymbolTableRecord
100
AcDbBlockTableRecord
2
DimnDraft3D1
340
0
70
0
0
BLOCK_RECORD
5
E9
100
AcDbSymbolTableRecord
100
AcDbBlockTableRecord
2
DimnDraft3D2
340
0
70
0
0
BLOCK_RECORD
5
F3
100
AcDbSymbolTableRecord
100
AcDbBlockTableRecord
2
DimnDraft3D3
340
0
70
0
0
BLOCK_RECORD
5
FD
100
AcDbSymbolTableRecord
100
AcDbBlockTableRecord
2
DimnDraft3D4
340
0
70
0
0
BLOCK_RECORD
5
107
100
AcDbSymbolTableRecord
100
AcDbBlockTableRecord
2
DimnDraft3D5
340
0
70
0
0
BLOCK_RECORD
5
111
100
AcDbSymbolTableRecord
100
AcDbBlockTableRecord
2
DimnDraft3D6
340
0
70
0
0
BLOCK_RECORD
5
11C
100
AcDbSymbolTableRecord
100
AcDbBlockTableRecord
2
DimnDraft3D7
340
0
70
0
0
ENDTAB
0
ENDSEC
0
SECTION
2
BLOCKS
0
BLOCK
5
20
100
AcDbEntity
8
0
100
AcDbBlockBegin
2
*Model_Space
70
0
10
0
20
0
30
0
3
*Model_Space
0
ENDBLK
5
21
100
AcDbEntity
8
0
100
AcDbBlockEnd
0
BLOCK
5
1C
100
AcDbEntity
8
0
100
AcDbBlockBegin
2
*Paper_Space
70
0
10
0
20
0
30
0
3
*Paper_Space
0
ENDBLK
5
1D
100
AcDbEntity
8
0
100
AcDbBlockEnd
0
BLOCK
5
24
100
AcDbEntity
8
0
100
AcDbBlockBegin
2
*Paper_Space0
70
0
10
0
20
0
30
0
3
*Paper_Space0
0
ENDBLK
5
25
100
AcDbEntity
8
0
100
AcDbBlockEnd
0
BLOCK
5
E6
100
AcDbEntity
8
0
100
AcDbBlockBegin
2
DimnDraft3D1
70
0
10
0
20
0
30
0
3
DimnDraft3D1
0
MTEXT
5
E0
100
AcDbEntity
8
SK2
62
256
6
ByLayer
370
13
48
1
60
0
100
AcDbMText
10
9.021375
20
-11.638398
30
0
210
0
220
0
230
1
1
\W0.7317;29,22
40
3.5
41
0
44
1.084337
50
0
71
7
72
5
7
iso_b_vert
0
LINE
5
E1
100
AcDbEntity
8
SK2
62
256
6
ByLayer
370
13
48
1
60
0
100
AcDbLine
10
0
20
-1.5875
30
0
11
0
21
-14.513398
31
0
39
0
210
0
220
0
230
1
0
LINE
5
E2
100
AcDbEntity
8
SK2
62
256
6
ByLayer
370
13
48
1
60
0
100
AcDbLine
10
29.22
20
-3.8875
30
0
11
29.22
21
-14.513398
31
0
39
0
210
0
220
0
230
1
0
LINE
5
E3
100
AcDbEntity
8
SK2
62
256
6
ByLayer
370
13
48
1
60
0
100
AcDbLine
10
0
20
-12.513398
30
0
11
29.22
21
-12.513398
31
0
39
0
210
0
220
0
230
1
0
SOLID
5
E4
100
AcDbEntity
8
SK2
62
256
6
ByLayer
370
13
48
1
60
0
100
AcDbTrace
10
0
20
-12.513398
30
0
11
3.499998
21
-12.052615
31
0
12
3.500002
22
-12.974182
32
0
13
0
23
-12.513398
33
0
39
0
210
0
220
0
230
1
0
SOLID
5
E5
100
AcDbEntity
8
SK2
62
256
6
ByLayer
370
13
48
1
60
0
100
AcDbTrace
10
29.22
20
-12.513398
30
0
11
25.720002
21
-12.974182
31
0
12
25.719998
22
-12.052615
32
0
13
29.22
23
-12.513398
33
0
39
0
210
0
220
0
230
1
0
ENDBLK
5
E7
100
AcDbEntity
8
0
100
AcDbBlockEnd
0
BLOCK
5
F0
100
AcDbEntity
8
0
100
AcDbBlockBegin
2
DimnDraft3D2
70
0
10
0
20
0
30
0
3
DimnDraft3D2
0
MTEXT
5
EA
100
AcDbEntity
8
SK2
62
256
6
ByLayer
370
13
48
1
60
0
100
AcDbMText
10
-6.887384
20
-30.817985
30
0
210
0
220
0
230
1
1
\W0.7317;66,00
40
3.5
41
0
44
1.084337
50
0
71
7
72
5
7
iso_b_vert
0
LINE
5
EB
100
AcDbEntity
8
SK2
62
256
6
ByLayer
370
13
48
1
60
0
100
AcDbLine
10
-36
20
-4.5875
30
0
11
-36
21
-33.692985
31
0
39
0
210
0
220
0
230
1
0
LINE
5
EC
100
AcDbEntity
8
SK2
62
256
6
ByLayer
370
13
48
1
60
0
100
AcDbLine
10
30
20
-1.5875
30
0
11
30
21
-33.692985
31
0
39
0
210
0
220
0
230
1
0
LINE
5
ED
100
AcDbEntity
8
SK2
62
256
6
ByLayer
370
13
48
1
60
0
100
AcDbLine
10
-36
20
-31.692985
30
0
11
30
21
-31.692985
31
0
39
0
210
0
220
0
230
1
0
SOLID
5
EE
100
AcDbEntity
8
SK2
62
256
6
ByLayer
370
13
48
1
60
0
100
AcDbTrace
10
-36
20
-31.692985
30
0
11
-32.500002
21
-31.232202
31
0
12
-32.499998
22
-32.153769
32
0
13
-36
23
-31.692985
33
0
39
0
210
0
220
0
230
1
0
SOLID
5
EF
100
AcDbEntity
8
SK2
62
256
6
ByLayer
370
13
48
1
60
0
100
AcDbTrace
10
30
20
-31.692985
30
0
11
26.500002
21
-32.153769
31
0
12
26.499998
22
-31.232202
32
0
13
30
23
-31.692985
33
0
39
0
210
0
220
0
230
1
0
ENDBLK
5
F1
100
AcDbEntity
8
0
100
AcDbBlockEnd
0
BLOCK
5
FA
100
AcDbEntity
8
0
100
AcDbBlockBegin
2
DimnDraft3D3
70
0
10
0
20
0
30
0
3
DimnDraft3D3
0
MTEXT
5
F4
100
AcDbEntity
8
SK2
62
256
6
ByLayer
370
13
48
1
60
0
100
AcDbMText
10
18.514605
20
14.784119
30
0
210
0
220
0
230
1
1
\W0.6977;14,58
40
3.5
41
0
44
1.084337
50
0
71
7
72
5
7
iso_b_vert
0
LINE
5
F5
100
AcDbEntity
8
SK2
62
256
6
ByLayer
370
13
48
1
60
0
100
AcDbLine
10
15.42
20
3.8875
30
0
11
15.42
21
15.909119
31
0
39
0
210
0
220
0
230
1
0
LINE
5
F6
100
AcDbEntity
8
SK2
62
256
6
ByLayer
370
13
48
1
60
0
100
AcDbLine
10
30
20
1.5875
30
0
11
30
21
15.909119
31
0
39
0
210
0
220
0
230
1
0
LINE
5
F7
100
AcDbEntity
8
SK2
62
256
6
ByLayer
370
13
48
1
60
0
100
AcDbLine
10
15.42
20
13.909119
30
0
11
30
21
13.909119
31
0
39
0
210
0
220
0
230
1
0
SOLID
5
F8
100
AcDbEntity
8
SK2
62
256
6
ByLayer
370
13
48
1
60
0
100
AcDbTrace
10
15.42
20
13.909119
30
0
11
18.919998
21
14.369903
31
0
12
18.920002
22
13.448335
32
0
13
15.42
23
13.909119
33
0
39
0
210
0
220
0
230
1
0
SOLID
5
F9
100
AcDbEntity
8
SK2
62
256
6
ByLayer
370
13
48
1
60
0
100
AcDbTrace
10
30
20
13.909119
30
0
11
26.500002
21
13.448335
31
0
12
26.499998
22
14.369903
32
0
13
30
23
13.909119
33
0
39
0
210
0
220
0
230
1
0
ENDBLK
5
FB
100
AcDbEntity
8
0
100
AcDbBlockEnd
0
BLOCK
5
104
100
AcDbEntity
8
0
100
AcDbBlockBegin
2
DimnDraft3D4
70
0
10
0
20
0
30
0
3
DimnDraft3D4
0
MTEXT
5
FE
100
AcDbEntity
8
SK2
62
256
6
ByLayer
370
13
48
1
60
0
100
AcDbMText
10
36.840636
20
-14.227503
30
0
210
0
220
0
230
1
1
\W0.7150;0,78
40
3.5
41
0
44
1.084337
50
0
71
7
72
5
7
iso_b_vert
0
LINE
5
FF
100
AcDbEntity
8
SK2
62
256
6
ByLayer
370
13
48
1
60
0
100
AcDbLine
10
30
20
-1.5875
30
0
11
30
21
-17.102503
31
0
39
0
210
0
220
0
230
1
0
LINE
5
100
100
AcDbEntity
8
SK2
62
256
6
ByLayer
370
13
48
1
60
0
100
AcDbLine
10
29.22
20
-3.8875
30
0
11
29.22
21
-17.102503
31
0
39
0
210
0
220
0
230
1
0
LINE
5
101
100
AcDbEntity
8
SK2
62
256
6
ByLayer
370
13
48
1
60
0
100
AcDbLine
10
20.47
20
-15.102503
30
0
11
43.997215
21
-15.102503
31
0
39
0
210
0
220
0
230
1
0
SOLID
5
102
100
AcDbEntity
8
SK2
62
256
6
ByLayer
370
13
48
1
60
0
100
AcDbTrace
10
30
20
-15.102503
30
0
11
33.499998
21
-14.641719
31
0
12
33.500002
22
-15.563287
32
0
13
30
23
-15.102503
33
0
39
0
210
0
220
0
230
1
0
SOLID
5
103
100
AcDbEntity
8
SK2
62
256
6
ByLayer
370
13
48
1
60
0
100
AcDbTrace
10
29.22
20
-15.102503
30
0
11
25.720002
21
-15.563287
31
0
12
25.719998
22
-14.641719
32
0
13
29.22
23
-15.102503
33
0
39
0
210
0
220
0
230
1
0
ENDBLK
5
105
100
AcDbEntity
8
0
100
AcDbBlockEnd
0
BLOCK
5
10E
100
AcDbEntity
8
0
100
AcDbBlockBegin
2
DimnDraft3D5
70
0
10
0
20
0
30
0
3
DimnDraft3D5
0
MTEXT
5
108
100
AcDbEntity
8
SK2
62
256
6
ByLayer
370
13
48
1
60
0
100
AcDbMText
10
-9.968008
20
-20.468428
30
0
210
0
220
0
230
1
1
\W0.7317;65,22
40
3.5
41
0
44
1.084337
50
0
71
7
72
5
7
iso_b_vert
0
LINE
5
109
100
AcDbEntity
8
SK2
62
256
6
ByLayer
370
13
48
1
60
0
100
AcDbLine
10
-36
20
-4.5875
30
0
11
-36
21
-23.343428
31
0
39
0
210
0
220
0
230
1
0
LINE
5
10A
100
AcDbEntity
8
SK2
62
256
6
ByLayer
370
13
48
1
60
0
100
AcDbLine
10
29.22
20
-3.8875
30
0
11
29.22
21
-23.343428
31
0
39
0
210
0
220
0
230
1
0
LINE
5
10B
100
AcDbEntity
8
SK2
62
256
6
ByLayer
370
13
48
1
60
0
100
AcDbLine
10
-36
20
-21.343428
30
0
11
29.22
21
-21.343428
31
0
39
0
210
0
220
0
230
1
0
SOLID
5
10C
100
AcDbEntity
8
SK2
62
256
6
ByLayer
370
13
48
1
60
0
100
AcDbTrace
10
-36
20
-21.343428
30
0
11
-32.500002
21
-20.882645
31
0
12
-32.499998
22
-21.804212
32
0
13
-36
23
-21.343428
33
0
39
0
210
0
220
0
230
1
0
SOLID
5
10D
100
AcDbEntity
8
SK2
62
256
6
ByLayer
370
13
48
1
60
0
100
AcDbTrace
10
29.22
20
-21.343428
30
0
11
25.720002
21
-21.804212
31
0
12
25.719998
22
-20.882645
32
0
13
29.22
23
-21.343428
33
0
39
0
210
0
220
0
230
1
0
ENDBLK
5
10F
100
AcDbEntity
8
0
100
AcDbBlockEnd
0
BLOCK
5
119
100
AcDbEntity
8
0
100
AcDbBlockBegin
2
DimnDraft3D6
70
0
10
0
20
0
30
0
3
DimnDraft3D6
0
MTEXT
5
112
100
AcDbEntity
8
SK2
62
256
6
ByLayer
370
13
48
1
60
0
100
AcDbMText
10
-46.375163
20
22.34918
30
0
210
0
220
0
230
1
1
\W0.7317;6,000
40
3.5
41
0
44
1.084337
50
90
71
7
72
5
7
iso_b_vert
0
MTEXT
5
113
100
AcDbEntity
8
SK2
62
256
6
ByLayer
370
13
48
1
60
0
100
AcDbMText
10
-46.375163
20
17.126524
30
0
210
0
220
0
230
1
1
%%c
40
3.5
41
0
44
1.084337
50
90
71
7
72
5
7
iso_b_vert
0
LINE
5
114
100
AcDbEntity
8
SK2
62
256
6
ByLayer
370
13
48
1
60
0
100
AcDbLine
10
-37.5875
20
-3
30
0
11
-46.625163
21
-3
31
0
39
0
210
0
220
0
230
1
0
LINE
5
115
100
AcDbEntity
8
SK2
62
256
6
ByLayer
370
13
48
1
60
0
100
AcDbLine
10
-37.5875
20
3
30
0
11
-46.625163
21
3
31
0
39
0
210
0
220
0
230
1
0
LINE
5
116
100
AcDbEntity
8
SK2
62
256
6
ByLayer
370
13
48
1
60
0
100
AcDbLine
10
-44.625163
20
32.121549
30
0
11
-44.625163
21
-11.75
31
0
39
0
210
0
220
0
230
1
0
SOLID
5
117
100
AcDbEntity
8
SK2
62
256
6
ByLayer
370
13
48
1
60
0
100
AcDbTrace
10
-44.625163
20
-3
30
0
11
-44.164379
21
-6.499998
31
0
12
-45.085946
22
-6.500002
32
0
13
-44.625163
23
-3
33
0
39
0
210
0
220
0
230
1
0
SOLID
5
118
100
AcDbEntity
8
SK2
62
256
6
ByLayer
370
13
48
1
60
0
100
AcDbTrace
10
-44.625163
20
3
30
0
11
-45.085946
21
6.499998
31
0
12
-44.164379
22
6.500002
32
0
13
-44.625163
23
3
33
0
39
0
210
0
220
0
230
1
0
ENDBLK
5
11A
100
AcDbEntity
8
0
100
AcDbBlockEnd
0
BLOCK
5
124
100
AcDbEntity
8
0
100
AcDbBlockBegin
2
DimnDraft3D7
70
0
10
0
20
0
30
0
3
DimnDraft3D7
0
MTEXT
5
11D
100
AcDbEntity
8
2
62
256
6
ByLayer
370
13
48
1
60
0
100
AcDbMText
10
40.333343
20
20.242266
30
0
210
0
220
0
230
1
1
\W0.7581;4,600
40
3.5
41
0
44
1.084337
50
90
71
7
72
5
7
iso_b_vert
0
MTEXT
5
11E
100
AcDbEntity
8
2
62
256
6
ByLayer
370
13
48
1
60
0
100
AcDbMText
10
40.333343
20
15.01961
30
0
210
0
220
0
230
1
1
%%c
40
3.5
41
0
44
1.084337
50
90
71
7
72
5
7
iso_b_vert
0
LINE
5
11F
100
AcDbEntity
8
2
62
256
6
ByLayer
370
13
48
1
60
0
100
AcDbLine
10
30.8075
20
-2.3
30
0
11
44.083343
21
-2.3
31
0
39
0
210
0
220
0
230
1
0
LINE
5
120
100
AcDbEntity
8
2
62
256
6
ByLayer
370
13
48
1
60
0
100
AcDbLine
10
30.8075
20
2.3
30
0
11
44.083343
21
2.3
31
0
39
0
210
0
220
0
230
1
0
LINE
5
121
100
AcDbEntity
8
2
62
256
6
ByLayer
370
13
48
1
60
0
100
AcDbLine
10
42.083343
20
30.383056
30
0
11
42.083343
21
-11.05
31
0
39
0
210
0
220
0
230
1
0
SOLID
5
122
100
AcDbEntity
8
2
62
256
6
ByLayer
370
13
48
1
60
0
100
AcDbTrace
10
42.083343
20
-2.3
30
0
11
42.544126
21
-5.799998
31
0
12
41.622559
22
-5.800002
32
0
13
42.083343
23
-2.3
33
0
39
0
210
0
220
0
230
1
0
SOLID
5
123
100
AcDbEntity
8
2
62
256
6
ByLayer
370
13
48
1
60
0
100
AcDbTrace
10
42.083343
20
2.3
30
0
11
41.622559
21
5.799998
31
0
12
42.544126
22
5.800002
32
0
13
42.083343
23
2.3
33
0
39
0
210
0
220
0
230
1
0
ENDBLK
5
125
100
AcDbEntity
8
0
100
AcDbBlockEnd
0
ENDSEC
0
SECTION
2
ENTITIES
0
ARC
5
9C
100
AcDbEntity
8
1
62
256
6
ByLayer
370
18
48
1
60
0
100
AcDbCircle
39
0
10
0
20
2.2
30
0
40
0.799999999999998
210
0
220
0
230
1
100
AcDbArc
50
33.505879
51
90
0
ARC
5
9D
100
AcDbEntity
8
1
62
256
6
ByLayer
370
18
48
1
60
0
100
AcDbCircle
39
0
10
-1.334127
20
-3.083236
30
0
40
0.799999999999998
210
0
220
0
230
-1
100
AcDbArc
50
33.505879
51
90.034377
0
ARC
5
9E
100
AcDbEntity
8
1
62
256
6
ByLayer
370
18
48
1
60
0
100
AcDbCircle
39
0
10
0
20
-2.2
30
0
40
0.799999999999998
210
0
220
0
230
1
100
AcDbArc
50
270
51
326.494121
0
ARC
5
9F
100
AcDbEntity
8
1
62
256
6
ByLayer
370
18
48
1
60
0
100
AcDbCircle
39
0
10
-1.334127
20
3.083236
30
0
40
0.799999999999998
210
0
220
0
230
-1
100
AcDbArc
50
269.965623
51
326.494121
0
ELLIPSE
5
A0
100
AcDbEntity
8
1
62
256
6
ByLayer
370
18
48
1
60
0
100
AcDbEllipse
10
8.25
20
2.42069
30
0
11
0.25
21
0
31
0
210
0
220
0
230
1
40
1
41
-2.49146924192169
42
-1.55985007652916
0
ELLIPSE
5
A1
100
AcDbEntity
8
1
62
256
6
ByLayer
370
18
48
1
60
0
100
AcDbEllipse
10
8.25
20
-2.42069
30
0
11
0.25
21
0
31
0
210
0
220
0
230
1
40
1
41
1.57880927304285
42
2.48735366636949
0
ELLIPSE
5
A2
100
AcDbEntity
8
1
62
256
6
ByLayer
370
18
48
1
60
0
100
AcDbEllipse
10
30.058273
20
-0.025164
30
0
11
0.135544944334501
21
-0.427068209825287
31
0
210
0
220
0
230
-1
40
0.100282
41
1.71634324885508
42
2.3365328688678
0
ELLIPSE
5
A3
100
AcDbEntity
8
1
62
256
6
ByLayer
370
18
48
1
60
0
100
AcDbEllipse
10
29.539429
20
1.145826
30
0
11
0.358234453854119
21
-0.964846218237372
31
0
210
0
220
0
230
-1
40
0.131755
41
-1.50500809352596
42
-0.736518128025185
0
ELLIPSE
5
A4
100
AcDbEntity
8
1
62
256
6
ByLayer
370
18
48
1
60
0
100
AcDbEllipse
10
29.539429
20
-1.145826
30
0
11
0.358234453833417
21
0.964846218194573
31
0
210
0
220
0
230
-1
40
0.131755
41
0.736518128027113
42
1.50500809355863
0
ELLIPSE
5
A5
100
AcDbEntity
8
1
62
256
6
ByLayer
370
13
48
1
60
0
100
AcDbEllipse
10
29.940738
20
1.145826
30
0
11
1.51746203499785
21
-0.664658277037889
31
0
210
0
220
0
230
-1
40
0.461948
41
1.59739324917127
42
1.91055724882954
0
ELLIPSE
5
A6
100
AcDbEntity
8
1
62
256
6
ByLayer
370
18
48
1
60
0
100
AcDbEllipse
10
30.000214
20
-0.000502
30
0
11
0.853100702196273
21
-2.29768792731276
31
0
210
0
220
0
230
-1
40
0.131755
41
-2.96974541220928
42
-2.84244072530869
0
ELLIPSE
5
A7
100
AcDbEntity
8
1
62
256
6
ByLayer
370
13
48
1
60
0
100
AcDbEllipse
10
29.593454
20
0.250629
30
0
11
0.15308208161242
21
0.258003636193772
31
0
210
0
220
0
230
1
40
0.454519
41
0.917105603404807
42
2.31336900500031
0
ELLIPSE
5
A8
100
AcDbEntity
8
1
62
256
6
ByLayer
370
18
48
1
60
0
100
AcDbEllipse
10
29.860911
20
0.091938
30
0
11
0.0727819104929979
21
0.301917195714603
31
0
210
0
220
0
230
-1
40
0.478434
41
1.6836874179172
42
2.45976119972779
0
ELLIPSE
5
A9
100
AcDbEntity
8
1
62
256
6
ByLayer
370
18
48
1
60
0
100
AcDbEllipse
10
30.000214
20
0.000502
30
0
11
0.853100709882302
21
2.29768795023432
31
0
210
0
220
0
230
-1
40
0.131755
41
2.84244072682303
42
2.96974541307774
0
ELLIPSE
5
AA
100
AcDbEntity
8
1
62
256
6
ByLayer
370
18
48
1
60
0
100
AcDbEllipse
10
30.058273
20
0.025164
30
0
11
0.135544944371299
21
0.427068209918264
31
0
210
0
220
0
230
-1
40
0.100282
41
-2.33653286889094
42
-1.71634324899605
0
ELLIPSE
5
AB
100
AcDbEntity
8
1
62
256
6
ByLayer
370
13
48
1
60
0
100
AcDbEllipse
10
29.750831
20
1.022629
30
0
11
1.45318388574959
21
-1.00055842862939
31
0
210
0
220
0
230
-1
40
0.533762
41
1.44484622738545
42
1.75020302137461
0
POINT
5
6C
100
AcDbEntity
8
81
62
256
6
ByLayer
370
18
48
1
60
0
100
AcDbPoint
10
30
20
0
30
0
39
0
210
0
220
0
230
1
50
360
0
POINT
5
6E
100
AcDbEntity
8
80
62
256
6
ByLayer
370
18
48
1
60
0
100
AcDbPoint
10
0
20
0
30
0
39
0
210
0
220
0
230
1
50
360
0
POINT
5
70
100
AcDbEntity
8
SK2
62
256
6
ByLayer
370
18
48
1
60
1
100
AcDbPoint
10
-36
20
-3
30
0
39
0
210
0
220
0
230
1
50
360
0
POINT
5
72
100
AcDbEntity
8
SK2
62
256
6
ByLayer
370
18
48
1
60
1
100
AcDbPoint
10
-36
20
3
30
0
39
0
210
0
220
0
230
1
50
360
0
POINT
5
73
100
AcDbEntity
8
2
62
256
6
ByLayer
370
18
48
1
60
1
100
AcDbPoint
10
29.22
20
-2.3
30
0
39
0
210
0
220
0
230
1
50
360
0
POINT
5
75
100
AcDbEntity
8
2
62
256
6
ByLayer
370
18
48
1
60
1
100
AcDbPoint
10
29.22
20
2.3
30
0
39
0
210
0
220
0
230
1
50
360
0
SPLINE
5
AC
100
AcDbEntity
8
1
62
256
6
ByLayer
370
18
48
1
60
0
100
AcDbSpline
70
4
71
3
72
20
73
16
40
0
40
0
40
0
40
0
40
0.11610119585193
40
0.199379988221398
40
0.252882286738032
40
0.299836322109176
40
0.345363196917246
40
0.4496093096793
40
0.542792328881782
40
0.608737526636761
40
0.679958568926032
40
0.756692167476798
40
0.829450701429952
40
0.911835043248307
40
1
40
1
40
1
40
1
41
1
10
18.0528480337686
20
-2.17642136884132
30
0
41
1
10
18.2651217838938
20
-2.17625998140343
30
0
41
1
10
18.6296974983667
20
-2.17617612881131
30
0
41
1
10
19.0922332305862
20
-2.17741672431345
30
0
41
1
10
19.4282856275759
20
-2.17742300783908
30
0
41
1
10
19.695294754997
20
-2.17677894462469
30
0
41
1
10
20.0551164381575
20
-2.17626432288011
30
0
41
1
10
20.4994894197569
20
-2.17732010708053
30
0
41
1
10
20.98120660834
20
-2.17969759912327
30
0
41
1
10
21.402522835444
20
-2.17767126955829
30
0
41
1
10
21.7937519378691
20
-2.1761397362682
30
0
41
1
10
22.1974427165761
20
-2.17919857382793
30
0
41
1
10
22.6215526805951
20
-2.17974167202902
30
0
41
1
10
23.0665659448532
20
-2.17699394586279
30
0
41
1
10
23.3785065267904
20
-2.17840853669568
30
0
41
1
10
23.5397636088626
20
-2.17951924330052
30
0
0
SPLINE
5
AD
100
AcDbEntity
8
1
62
256
6
ByLayer
370
18
48
1
60
0
100
AcDbSpline
70
4
71
2
72
6
73
3
40
0
40
0
40
0
40
1
40
1
40
1
41
1
10
28.8196447560932
20
-2.18164801305014
30
0
41
1
10
29.0034163432326
20
-2.18168286114982
30
0
41
1
10
29.187495701465
20
-2.18263264930144
30
0
0
SPLINE
5
AE
100
AcDbEntity
8
1
62
256
6
ByLayer
370
18
48
1
60
0
100
AcDbSpline
70
4
71
3
72
18
73
14
40
0
40
0
40
0
40
0
40
0.109943511112875
40
0.215621146920997
40
0.286428485016427
40
0.351620793562591
40
0.420549658623288
40
0.490771234280547
40
0.574923615685814
40
0.655306874668977
40
0.733987225438538
40
0.854289399191767
40
1
40
1
40
1
40
1
41
1
10
12.6446626040945
20
2.17294100896265
30
0
41
1
10
12.4837117063228
20
2.17258015672135
30
0
41
1
10
12.168019706302
20
2.1721672476296
30
0
41
1
10
11.7482543989608
20
2.17346248322716
30
0
41
1
10
11.3944493008652
20
2.17356992843327
30
0
41
1
10
11.0943255588128
20
2.17184537330994
30
0
41
1
10
10.7949581892302
20
2.17103986216534
30
0
41
1
10
10.4678295567485
20
2.17144112949052
30
0
41
1
10
10.1239133408675
20
2.17197222578761
30
0
41
1
10
9.76760925381623
20
2.17091604651114
30
0
41
1
10
9.35833533724252
20
2.17119238579272
30
0
41
1
10
8.8534642343993
20
2.1710197010072
30
0
41
1
10
8.4637843302296
20
2.17076896103521
30
0
41
1
10
8.25033381829908
20
2.17055783188178
30
0
0
SPLINE
5
AF
100
AcDbEntity
8
1
62
256
6
ByLayer
370
18
48
1
60
0
100
AcDbSpline
70
4
71
3
72
19
73
15
40
0
40
0
40
0
40
0
40
0.104054519769717
40
0.201424296689822
40
0.287417363621098
40
0.378108546050661
40
0.462284456747816
40
0.540224864508046
40
0.650357561963446
40
0.77356569254297
40
0.827373752983803
40
0.882868569701235
40
0.94610275663901
40
1
40
1
40
1
40
1
41
1
10
23.5390795349746
20
2.17951686697683
30
0
41
1
10
23.3780504786573
20
2.17840810675804
30
0
41
1
10
23.0663379218207
20
2.17699464165972
30
0
41
1
10
22.6215526807663
20
2.17974183317153
30
0
41
1
10
22.1974427165298
20
2.17919853032251
30
0
41
1
10
21.7937519378808
20
2.17613974725907
30
0
41
1
10
21.4025228354412
20
2.17767126697316
30
0
41
1
10
20.9812066083402
20
2.17969760010698
30
0
41
1
10
20.4994894197551
20
2.17732010673191
30
0
41
1
10
20.0551164381556
20
2.1762643229192
30
0
41
1
10
19.6952947549952
20
2.17677894461772
30
0
41
1
10
19.4282856275744
20
2.17742300784127
30
0
41
1
10
19.1611436506262
20
2.17741801280383
30
0
41
1
10
18.9798771707026
20
2.17706481087907
30
0
41
1
10
18.8964711670876
20
2.17689920001061
30
0
0
SPLINE
5
B0
100
AcDbEntity
8
1
62
256
6
ByLayer
370
18
48
1
60
0
100
AcDbSpline
70
4
71
3
72
18
73
14
40
0
40
0
40
0
40
0
40
0.120244064664835
40
0.231874720242816
40
0.306452923613901
40
0.370735576538657
40
0.438857108115502
40
0.509041927961794
40
0.593274775472956
40
0.674652706372538
40
0.752194261783297
40
0.865649289724254
40
1
40
1
40
1
40
1
41
1
10
8.25035304182379
20
-2.17057708833431
30
0
41
1
10
8.42654500176783
20
-2.17079420447732
30
0
41
1
10
8.76631344144715
20
-2.17109010989495
30
0
41
1
10
9.21539062025482
20
-2.17110349958389
30
0
41
1
10
9.58245183851187
20
-2.17099738723616
30
0
41
1
10
9.88579489505
20
-2.17125331082573
30
0
41
1
10
10.1826897116038
20
-2.17191153679352
30
0
41
1
10
10.5088262204446
20
-2.17138499297244
30
0
41
1
10
10.8543759184504
20
-2.17092117510325
30
0
41
1
10
11.2107542841034
20
-2.17266754783623
30
0
41
1
10
11.6095821940859
20
-2.17392186734699
30
0
41
1
10
12.08651872615
20
-2.17228873644578
30
0
41
1
10
12.4494992260629
20
-2.1727188126309
30
0
41
1
10
12.6462851774599
20
-2.17300384206655
30
0
0
SPLINE
5
B1
100
AcDbEntity
8
1
62
256
6
ByLayer
370
18
48
1
60
0
100
AcDbSpline
70
4
71
3
72
14
73
10
40
0
40
0
40
0
40
0
40
0.25
40
0.25
40
0.5
40
0.5
40
0.75
40
0.75
40
1
40
1
40
1
40
1
41
1
10
28.9660286602139
20
0.437969897066182
30
0
41
1
10
28.9643549601127
20
0.464633661274092
30
0
41
1
10
28.9661488771318
20
0.491940909123457
30
0
41
1
10
28.977880200989
20
0.547848883854812
30
0
41
1
10
28.9881143662606
20
0.576041361811264
30
0
41
1
10
29.0164789008847
20
0.629531512104421
30
0
41
1
10
29.0373525201408
20
0.652674255096827
30
0
41
1
10
29.0873256466821
20
0.687563711942062
30
0
41
1
10
29.1159406376983
20
0.699307468884172
30
0
41
1
10
29.1455401721928
20
0.706414990984399
30
0
0
SPLINE
5
B2
100
AcDbEntity
8
1
62
256
6
ByLayer
370
18
48
1
60
0
100
AcDbSpline
70
4
71
3
72
10
73
6
40
0
40
0
40
0
40
0
40
0.5
40
0.5
40
1
40
1
40
1
40
1
41
1
10
8.10934289681569
20
2.17423453664739
30
0
41
1
10
8.08917461228492
20
2.17869111190311
30
0
41
1
10
8.07192035539771
20
2.18411300306889
30
0
41
1
10
8.04652764811556
20
2.19625619997103
30
0
41
1
10
8.03856638471819
20
2.20290008680806
30
0
41
1
10
8.03856903423264
20
2.20934265572365
30
0
0
SPLINE
5
B3
100
AcDbEntity
8
1
62
256
6
ByLayer
370
18
48
1
60
0
100
AcDbSpline
70
4
71
3
72
26
73
22
40
0
40
0
40
0
40
0
40
0.0624999999999978
40
0.0624999999999978
40
0.124999999999996
40
0.124999999999996
40
0.249999999999991
40
0.249999999999991
40
0.312499999999992
40
0.312499999999992
40
0.374999999999993
40
0.374999999999993
40
0.499999999999994
40
0.499999999999994
40
0.624999999999996
40
0.624999999999996
40
0.749999999999997
40
0.749999999999997
40
0.874999999999999
40
0.874999999999999
40
1
40
1
40
1
40
1
41
1
10
27.2457606397867
20
1.0482424347602
30
0
41
1
10
27.2501102446827
20
0.99426024814133
30
0
41
1
10
27.2575871597926
20
0.939394294369691
30
0
41
1
10
27.2786149758564
20
0.827945899227331
30
0
41
1
10
27.2922701929344
20
0.771018808834299
30
0
41
1
10
27.341529411986
20
0.600193907047242
30
0
41
1
10
27.3847245232561
20
0.4877781282905
30
0
41
1
10
27.4624007231973
20
0.32098017629815
30
0
41
1
10
27.4906224026161
20
0.265412273428069
30
0
41
1
10
27.5502086140572
20
0.156584685155025
30
0
41
1
10
27.5815694022565
20
0.103275853372224
30
0
41
1
10
27.6797850488527
20
-0.0537373473087257
30
0
41
1
10
27.7507448256216
20
-0.154548413304298
30
0
41
1
10
27.9016185534782
20
-0.349859302001533
30
0
41
1
10
27.9816753247713
20
-0.444403753523346
30
0
41
1
10
28.145356923299
20
-0.623590591863092
30
0
41
1
10
28.2295071778748
20
-0.708923501248421
30
0
41
1
10
28.4017014347876
20
-0.872406089260409
30
0
41
1
10
28.4897501863831
20
-0.95054700639983
30
0
41
1
10
28.6693161184519
20
-1.10043024309897
30
0
41
1
10
28.761048658203
20
-1.17230571086876
30
0
41
1
10
28.8536938871744
20
-1.24055435493713
30
0
0
SPLINE
5
B4
100
AcDbEntity
8
1
62
256
6
ByLayer
370
18
48
1
60
0
100
AcDbSpline
70
4
71
3
72
8
73
4
40
0
40
0
40
0
40
0
40
1
40
1
40
1
40
1
41
1
10
8.03856903422576
20
-2.20934265573686
30
0
41
1
10
8.05708897128056
20
-2.17677330984753
30
0
41
1
10
8.08141336662013
20
-2.14839612152235
30
0
41
1
10
8.11214249219276
20
-2.12574340915677
30
0
0
SPLINE
5
B5
100
AcDbEntity
8
1
62
256
6
ByLayer
370
18
48
1
60
0
100
AcDbSpline
70
4
71
3
72
18
73
14
40
0
40
0
40
0
40
0
40
0.25
40
0.25
40
0.5
40
0.5
40
0.625
40
0.625
40
0.75
40
0.75
40
0.875
40
0.875
40
1
40
1
40
1
40
1
41
1
10
29.145540172193
20
0.706414990984058
30
0
41
1
10
29.2064439702604
20
0.721039379446353
30
0
41
1
10
29.2670116615154
20
0.737764617014562
30
0
41
1
10
29.3856428693161
20
0.778396210181256
30
0
41
1
10
29.4440550451566
20
0.802307911639588
30
0
41
1
10
29.525193398926
20
0.847889364049507
30
0
41
1
10
29.5511033648848
20
0.864687648030383
30
0
41
1
10
29.5994441524133
20
0.903287146094556
30
0
41
1
10
29.622249904546
20
0.925525641585267
30
0
41
1
10
29.6596812623956
20
0.975887186262042
30
0
41
1
10
29.6744639822259
20
1.00463759714356
30
0
41
1
10
29.6911557420311
20
1.06526758035022
30
0
41
1
10
29.6931921531142
20
1.09783162403147
30
0
41
1
10
29.6898283511821
20
1.12949369291664
30
0
0
SPLINE
5
B6
100
AcDbEntity
8
1
62
256
6
ByLayer
370
18
48
1
60
0
100
AcDbSpline
70
4
71
3
72
28
73
24
40
0
40
0
40
0
40
0
40
0.250000000000005
40
0.250000000000005
40
0.500000000000011
40
0.500000000000011
40
0.625000000000007
40
0.625000000000007
40
0.687500000000005
40
0.687500000000005
40
0.750000000000003
40
0.750000000000003
40
0.812500000000001
40
0.812500000000001
40
0.84375
40
0.84375
40
0.874999999999999
40
0.874999999999999
40
0.906249999999999
40
0.906249999999999
40
0.937499999999998
40
0.937499999999998
40
1
40
1
40
1
40
1
41
1
10
27.2457606397901
20
1.04824243476134
30
0
41
1
10
27.3910936947504
20
0.90191736677258
30
0
41
1
10
27.5445911599721
20
0.766924719666804
30
0
41
1
10
27.8597802107243
20
0.530576492183798
30
0
41
1
10
28.0229861545744
20
0.427957720410689
30
0
41
1
10
28.2661537038692
20
0.309468434734129
30
0
41
1
10
28.3472401371756
20
0.275759949650421
30
0
41
1
10
28.4689216443367
20
0.23501121163622
30
0
41
1
10
28.5094908121099
20
0.223068225736199
30
0
41
1
10
28.5906483034998
20
0.202807502377112
30
0
41
1
10
28.6313317577194
20
0.193794041616201
30
0
41
1
10
28.7103890175353
20
0.18399763330703
30
0
41
1
10
28.7493467457587
20
0.182806712041724
30
0
41
1
10
28.8043213846857
20
0.190371531847234
30
0
41
1
10
28.8218729735029
20
0.194512013364488
30
0
41
1
10
28.8551012343991
20
0.206718091733904
30
0
41
1
10
28.8709347360755
20
0.214873942086001
30
0
41
1
10
28.8993725377045
20
0.235332041696182
30
0
41
1
10
28.9120169654868
20
0.24759166074432
30
0
41
1
10
28.9338795806029
20
0.276529658852354
30
0
41
1
10
28.9430240545387
20
0.293235475980964
30
0
41
1
10
28.9637623370536
20
0.347762313436846
30
0
41
1
10
28.9689383624661
20
0.391615347222228
30
0
41
1
10
28.9660286602139
20
0.43796989706621
30
0
0
SPLINE
5
B7
100
AcDbEntity
8
1
62
256
6
ByLayer
370
18
48
1
60
0
100
AcDbSpline
70
4
71
3
72
12
73
8
40
0
40
0
40
0
40
0
40
0.264817754070998
40
0.264817754070998
40
0.545048049989745
40
0.545048049989745
40
1
40
1
40
1
40
1
41
1
10
29.1966752749014
20
-2.17820766370562
30
0
41
1
10
28.9896701590961
20
-2.18687547156793
30
0
41
1
10
28.7832106113976
20
-2.1837317405369
30
0
41
1
10
28.357613444554
20
-2.15333684513652
30
0
41
1
10
28.1379958391393
20
-2.12459021836892
30
0
41
1
10
27.5610968543566
20
-2.01579428264455
30
0
41
1
10
27.2084979195875
20
-1.91640166947713
30
0
41
1
10
26.8558587668062
20
-1.78912005490648
30
0
0
SPLINE
5
B8
100
AcDbEntity
8
1
62
256
6
ByLayer
370
13
48
1
60
0
100
AcDbSpline
70
4
71
3
72
28
73
24
40
0
40
0
40
0
40
0
40
0.0395986689985469
40
0.0395986689985469
40
0.144772890584227
40
0.144772890584227
40
0.197360001377069
40
0.197360001377069
40
0.24994711216991
40
0.24994711216991
40
0.460295555341273
40
0.460295555341273
40
0.565469776926956
40
0.565469776926956
40
0.670643998512639
40
0.670643998512639
40
0.775818220098322
40
0.775818220098322
40
0.828405330891162
40
0.828405330891162
40
0.880992441684002
40
0.880992441684002
40
1
40
1
40
1
40
1
41
1
10
26.8558578261996
20
-1.78911971540373
30
0
41
1
10
26.7740770240112
20
-1.75960173217652
30
0
41
1
10
26.6922940585818
20
-1.7285838065566
30
0
41
1
10
26.3930847020137
20
-1.6098888507141
30
0
41
1
10
26.1753000421419
20
-1.51345802226291
30
0
41
1
10
25.8461629193633
20
-1.35509970680894
30
0
41
1
10
25.7358512641006
20
-1.29989555501763
30
0
41
1
10
25.5165054907903
20
-1.18638100205706
30
0
41
1
10
25.4072149881347
20
-1.12795664067673
30
0
41
1
10
24.8619703793838
20
-0.828573966466735
30
0
41
1
10
24.4296096711749
20
-0.565945425273384
30
0
41
1
10
23.7738211274478
20
-0.157225448272555
30
0
41
1
10
23.5528714936947
20
-0.0179128335100245
30
0
41
1
10
23.1152549932741
20
0.25736733341904
30
0
41
1
10
22.8976881157694
20
0.393385230148681
30
0
41
1
10
22.4627988692986
20
0.658660322854587
30
0
41
1
10
22.2454411758304
20
0.787828735746785
30
0
41
1
10
21.9184285873652
20
0.97471423709726
30
0
41
1
10
21.8092018025678
20
1.03577780694783
30
0
41
1
10
21.589964850175
20
1.15490786468695
30
0
41
1
10
21.4796616940768
20
1.21314246536932
30
0
41
1
10
21.1210784352107
20
1.3960566074293
30
0
41
1
10
20.874518014794
20
1.51213590023713
30
0
41
1
10
20.6284348299268
20
1.61580194701759
30
0
0
SPLINE
5
B9
100
AcDbEntity
8
1
62
256
6
ByLayer
370
18
48
1
60
0
100
AcDbSpline
70
4
71
3
72
12
73
8
40
0
40
0
40
0
40
0
40
0.25
40
0.25
40
0.5
40
0.5
40
1
40
1
40
1
40
1
41
1
10
9.82645731711938
20
-1.48814655305949
30
0
41
1
10
9.69235873574175
20
-1.42697650710886
30
0
41
1
10
9.55929599154103
20
-1.36162493963968
30
0
41
1
10
9.29406845921727
20
-1.22271798142242
30
0
41
1
10
9.16206428712948
20
-1.14922214692314
30
0
41
1
10
8.76894987123896
20
-0.92002553639395
30
0
41
1
10
8.50964385321512
20
-0.755030723026948
30
0
41
1
10
8.25062365408763
20
-0.580044840660065
30
0
0
SPLINE
5
BA
100
AcDbEntity
8
1
62
256
6
ByLayer
370
18
48
1
60
0
100
AcDbSpline
70
4
71
3
72
66
73
62
40
0
40
0
40
0
40
0
40
0.0189424508330851
40
0.0189424508330851
40
0.0601218542043721
40
0.0601218542043721
40
0.101301257575659
40
0.101301257575659
40
0.142480660946946
40
0.142480660946946
40
0.16307036263259
40
0.16307036263259
40
0.183660064318235
40
0.183660064318235
40
0.224839467689523
40
0.224839467689523
40
0.266018871060811
40
0.266018871060811
40
0.286608572746454
40
0.286608572746454
40
0.307198274432098
40
0.307198274432098
40
0.348377677803385
40
0.348377677803385
40
0.389557081174672
40
0.389557081174672
40
0.430736484545959
40
0.430736484545959
40
0.471915887917246
40
0.471915887917246
40
0.513095291288533
40
0.513095291288533
40
0.533684992974176
40
0.533684992974176
40
0.554274694659819
40
0.554274694659819
40
0.595454098031106
40
0.595454098031106
40
0.636633501402393
40
0.636633501402393
40
0.67781290477368
40
0.67781290477368
40
0.698402606459323
40
0.698402606459323
40
0.718992308144966
40
0.718992308144966
40
0.760171711516252
40
0.760171711516252
40
0.801351114887538
40
0.801351114887538
40
0.842530518258824
40
0.842530518258824
40
0.863120219944468
40
0.863120219944468
40
0.883709921630111
40
0.883709921630111
40
0.924889325001398
40
0.924889325001398
40
0.966068728372685
40
0.966068728372685
40
1
40
1
40
1
40
1
41
1
10
25.8636955777746
20
-1.70785479381641
30
0
41
1
10
25.780244477507
20
-1.74030329467274
30
0
41
1
10
25.6968252429365
20
-1.77128229144631
30
0
41
1
10
25.4320942343908
20
-1.86491137111574
30
0
41
1
10
25.2511399393732
20
-1.92223572861025
30
0
41
1
10
24.8877188466099
20
-2.02014377171844
30
0
41
1
10
24.7060157518604
20
-2.05965377995406
30
0
41
1
10
24.3439102327571
20
-2.1238112826664
30
0
41
1
10
24.1626816069105
20
-2.14774022991938
30
0
41
1
10
23.8900026910788
20
-2.16964185782706
30
0
41
1
10
23.7992455645436
20
-2.17480883003762
30
0
41
1
10
23.6179734013322
20
-2.18010946755712
30
0
41
1
10
23.5273890151827
20
-2.17994912920787
30
0
41
1
10
23.2554293016543
20
-2.17288035887347
30
0
41
1
10
23.074110920346
20
-2.16118528818473
30
0
41
1
10
22.7109995845076
20
-2.11994035774077
30
0
41
1
10
22.5297177848815
20
-2.09107418745407
30
0
41
1
10
22.2581447686143
20
-2.03278252514451
30
0
41
1
10
22.1675952829411
20
-2.01043845829315
30
0
41
1
10
21.9862908733451
20
-1.96254436662525
30
0
41
1
10
21.8955253604337
20
-1.93704649170195
30
0
41
1
10
21.6228978634575
20
-1.85498174729742
30
0
41
1
10
21.4418934674562
20
-1.79306776966303
30
0
41
1
10
21.0799481529143
20
-1.65496163946429
30
0
41
1
10
20.8984517709014
20
-1.57797146132137
30
0
41
1
10
20.5351678277799
20
-1.41082892545904
30
0
41
1
10
20.3540577246746
20
-1.32158018195133
30
0
41
1
10
19.9913429558224
20
-1.13315556180163
30
0
41
1
10
19.810018823802
20
-1.03380343555818
30
0
41
1
10
19.4468359193931
20
-0.828062437321677
30
0
41
1
10
19.2657776834355
20
-0.721860040083584
30
0
41
1
10
18.9942023289945
20
-0.557586359308203
30
0
41
1
10
18.9035992607365
20
-0.502141105767862
30
0
41
1
10
18.7221298603497
20
-0.390569235183023
30
0
41
1
10
18.6311830816576
20
-0.334360330430343
30
0
41
1
10
18.3587509323925
20
-0.164967265114257
30
0
41
1
10
18.1780403814088
20
-0.0505803278867631
30
0
41
1
10
17.8157181169851
20
0.176757297442265
30
0
41
1
10
17.6339808274632
20
0.290183935409516
30
0
41
1
10
17.2708459325667
20
0.51420718834683
30
0
41
1
10
17.0895241915566
20
0.624268572370767
30
0
41
1
10
16.8175491022643
20
0.785362856303919
30
0
41
1
10
16.7270075965265
20
0.838574286115744
30
0
41
1
10
16.5455148515624
20
0.942968066561548
30
0
41
1
10
16.4544642559623
20
0.993898243467271
30
0
41
1
10
16.1818222716532
20
1.14273909490853
30
0
41
1
10
16.0006867715276
20
1.23852816034054
30
0
41
1
10
15.637871822886
20
1.41860056468028
30
0
41
1
10
15.4556591618475
20
1.50364691398832
30
0
41
1
10
15.0927107885173
20
1.66048071532003
30
0
41
1
10
14.911653723242
20
1.73219918466631
30
0
41
1
10
14.6394333681903
20
1.82839007854284
30
0
41
1
10
14.5486938286555
20
1.85858637668267
30
0
41
1
10
14.3667886181317
20
1.91414031978988
30
0
41
1
10
14.2758432063159
20
1.9400618051985
30
0
41
1
10
14.0032669827973
20
2.01289607768308
30
0
41
1
10
13.8216634699801
20
2.05422277244148
30
0
41
1
10
13.4587836747071
20
2.11970615363592
30
0
41
1
10
13.2763792527595
20
2.14267368303496
30
0
41
1
10
12.9450348303819
20
2.16768675155799
30
0
41
1
10
12.7956322942056
20
2.17317961683074
30
0
41
1
10
12.6459386959622
20
2.17268211080318
30
0
0
SPLINE
5
BB
100
AcDbEntity
8
1
62
256
6
ByLayer
370
18
48
1
60
0
100
AcDbSpline
70
4
71
3
72
8
73
4
40
0
40
0
40
0
40
0
40
1
40
1
40
1
40
1
41
1
10
8.12331617437829
20
2.17125592922392
30
0
41
1
10
8.11860444756408
20
2.17222981155501
30
0
41
1
10
8.11393657543772
20
2.17321947389135
30
0
41
1
10
8.10934289681589
20
2.17423453664733
30
0
0
SPLINE
5
BC
100
AcDbEntity
8
1
62
256
6
ByLayer
370
18
48
1
60
0
100
AcDbSpline
70
4
71
3
72
38
73
34
40
0
40
0
40
0
40
0
40
0.0548741010786662
40
0.0548741010786662
40
0.120987098171525
40
0.120987098171525
40
0.154043596717955
40
0.154043596717955
40
0.187100095264384
40
0.187100095264384
40
0.319326089450102
40
0.319326089450102
40
0.385439086542961
40
0.385439086542961
40
0.45155208363582
40
0.45155208363582
40
0.583778077821536
40
0.583778077821536
40
0.616834576367966
40
0.616834576367966
40
0.649891074914395
40
0.649891074914395
40
0.716004072007256
40
0.716004072007256
40
0.782117069100116
40
0.782117069100116
40
0.815173567646546
40
0.815173567646546
40
0.848230066192976
40
0.848230066192976
40
0.980456060378698
40
0.980456060378698
40
1
40
1
40
1
40
1
41
1
10
8.96864591191761
20
1.91825976602752
30
0
41
1
10
9.15023612999934
20
1.85470832314522
30
0
41
1
10
9.3311270944441
20
1.78351376879749
30
0
41
1
10
9.729847330974
20
1.61120210089155
30
0
41
1
10
9.94782803195426
20
1.50723141690384
30
0
41
1
10
10.2763547456534
20
1.33762823281944
30
0
41
1
10
10.386113842922
20
1.27882283074607
30
0
41
1
10
10.6064321979824
20
1.15698435816179
30
0
41
1
10
10.7170800419474
20
1.0938845463358
30
0
41
1
10
11.2667256474244
20
0.772495664546142
30
0
41
1
10
11.7006130952892
20
0.494672106011706
30
0
41
1
10
12.3558905258639
20
0.0669956645233185
30
0
41
1
10
12.5753866363793
20
-0.0775635027865746
30
0
41
1
10
13.0170559444866
20
-0.365809826658847
30
0
41
1
10
13.2359668051617
20
-0.507383499478181
30
0
41
1
10
13.8907820212836
20
-0.919141634601829
30
0
41
1
10
14.3244848785075
20
-1.17699769823116
30
0
41
1
10
14.8749192229986
20
-1.46105982779696
30
0
41
1
10
14.9855986842551
20
-1.51602175023569
30
0
41
1
10
15.2057018194285
20
-1.62057433442752
30
0
41
1
10
15.3154011702768
20
-1.67031399581509
30
0
41
1
10
15.6438726417074
20
-1.81158956524604
30
0
41
1
10
15.8620252997981
20
-1.89520732865907
30
0
41
1
10
16.2987758851978
20
-2.03924907917073
30
0
41
1
10
16.517555376171
20
-2.09971704090089
30
0
41
1
10
16.8482115252652
20
-2.17120729910263
30
0
41
1
10
16.9588538951892
20
-2.19185715162899
30
0
41
1
10
17.1787960369956
20
-2.22625658070797
30
0
41
1
10
17.2883810292648
20
-2.24006543233199
30
0
41
1
10
17.8352160819368
20
-2.29227412776737
30
0
41
1
10
18.2700851790049
20
-2.28010724235509
30
0
41
1
10
18.7759437498827
20
-2.20331555195497
30
0
41
1
10
18.8411836992472
20
-2.1922357069644
30
0
41
1
10
18.9064676282087
20
-2.17999537616905
30
0
0
SPLINE
5
BD
100
AcDbEntity
8
1
62
256
6
ByLayer
370
18
48
1
60
0
100
AcDbSpline
70
4
71
3
72
28
73
24
40
0
40
0
40
0
40
0
40
0.10576313599427
40
0.10576313599427
40
0.21152627198854
40
0.21152627198854
40
0.31728940798281
40
0.31728940798281
40
0.42305254397708
40
0.42305254397708
40
0.52881567997135
40
0.52881567997135
40
0.63457881596562
40
0.63457881596562
40
0.74034195195989
40
0.74034195195989
40
0.84610508795416
40
0.84610508795416
40
0.898986655951295
40
0.898986655951295
40
0.95186822394843
40
0.95186822394843
40
1
40
1
40
1
40
1
41
1
10
9.8265180558349
20
-1.48815926895858
30
0
41
1
10
10.0088547457463
20
-1.57157458350417
30
0
41
1
10
10.1908399790354
20
-1.64839280040943
30
0
41
1
10
10.554212824584
20
-1.7876468386296
30
0
41
1
10
10.7363452208802
20
-1.850046229593
30
0
41
1
10
11.1005573819118
20
-1.95984277484882
30
0
41
1
10
11.2821728765076
20
-2.00796341600011
30
0
41
1
10
11.6459603856123
20
-2.08543089625326
30
0
41
1
10
11.8285191485328
20
-2.11495437921496
30
0
41
1
10
12.1919562505018
20
-2.15637550858216
30
0
41
1
10
12.3737449106008
20
-2.16812344023231
30
0
41
1
10
12.7382795825749
20
-2.17520065147275
30
0
41
1
10
12.9195818585414
20
-2.16978356874753
30
0
41
1
10
13.2812489881215
20
-2.14212507690669
30
0
41
1
10
13.4616647276495
20
-2.11923930671887
30
0
41
1
10
13.8220526899521
20
-2.05409899931468
30
0
41
1
10
14.0028807656016
20
-2.01297939215749
30
0
41
1
10
14.2748888872071
20
-1.94032668589003
30
0
41
1
10
14.3656899855515
20
-1.91445950379338
30
0
41
1
10
14.5477185306869
20
-1.85890038692455
30
0
41
1
10
14.6384954069745
20
-1.82870875727321
30
0
41
1
10
14.8118575936884
20
-1.76747430584018
30
0
41
1
10
14.8943598879034
20
-1.73672984168601
30
0
41
1
10
14.9768376095152
20
-1.70450369117171
30
0
0
SPLINE
5
BE
100
AcDbEntity
8
1
62
256
6
ByLayer
370
18
48
1
60
0
100
AcDbSpline
70
4
71
3
72
22
73
18
40
0
40
0
40
0
40
0
40
0.0458698529915357
40
0.0458698529915357
40
0.119264479684494
40
0.119264479684494
40
0.266053733070412
40
0.266053733070412
40
0.412842986456329
40
0.412842986456329
40
0.559632239842247
40
0.559632239842247
40
0.706421493228165
40
0.706421493228165
40
0.853210746614082
40
0.853210746614082
40
1
40
1
40
1
40
1
41
1
10
23.5399103283023
20
2.17929350767261
30
0
41
1
10
23.5965187590464
20
2.17966849171606
30
0
41
1
10
23.6531033457652
20
2.17909473331775
30
0
41
1
10
23.8002361915133
20
2.17475952915811
30
0
41
1
10
23.8908155245213
20
2.16958793494004
30
0
41
1
10
24.1631708189078
20
2.14767807529805
30
0
41
1
10
24.3447510932216
20
2.12368369298045
30
0
41
1
10
24.7067505175656
20
2.05950210839288
30
0
41
1
10
24.8881260632588
20
2.02004393712164
30
0
41
1
10
25.2513553392647
20
1.9221678092612
30
0
41
1
10
25.4325509647413
20
1.86476029269517
30
0
41
1
10
25.7951073146931
20
1.73651177334088
30
0
41
1
10
25.9761190153737
20
1.66553037702713
30
0
41
1
10
26.3395174289965
20
1.50945557873263
30
0
41
1
10
26.5207947643018
20
1.42448351698491
30
0
41
1
10
26.8828725582522
20
1.24351593302467
30
0
41
1
10
27.0640464920656
20
1.14791094778735
30
0
41
1
10
27.2457606397826
20
1.04824243476548
30
0
0
SPLINE
5
BF
100
AcDbEntity
8
1
62
256
6
ByLayer
370
18
48
1
60
0
100
AcDbSpline
70
4
71
3
72
8
73
4
40
0
40
0
40
0
40
0
40
1
40
1
40
1
40
1
41
1
10
29.2328244314883
20
-2.17657418502281
30
0
41
1
10
29.2229581659703
20
-2.1808457666873
30
0
41
1
10
29.2138321149939
20
-2.18299429216185
30
0
41
1
10
29.2054574915067
20
-2.18298760088234
30
0
0
SPLINE
5
C0
100
AcDbEntity
8
1
62
256
6
ByLayer
370
13
48
1
60
0
100
AcDbSpline
70
4
71
3
72
24
73
20
40
0
40
0
40
0
40
0
40
0.0766855939931518
40
0.0766855939931518
40
0.230571328327627
40
0.230571328327627
40
0.307514195494864
40
0.307514195494864
40
0.384457062662102
40
0.384457062662102
40
0.538342796996576
40
0.538342796996576
40
0.692228531331051
40
0.692228531331051
40
0.769171398498288
40
0.769171398498288
40
0.846114265665525
40
0.846114265665525
40
1
40
1
40
1
40
1
41
1
10
8.25037099882269
20
-2.17068660651898
30
0
41
1
10
8.25036741808461
20
-2.17082675118084
30
0
41
1
10
8.25036276894971
20
-2.16734999840304
30
0
41
1
10
8.25034752607081
20
-2.14627297154144
30
0
41
1
10
8.25033567772925
20
-2.11804301892761
30
0
41
1
10
8.25032230603887
20
-2.05371438337943
30
0
41
1
10
8.25031862994126
20
-2.02883830099878
30
0
41
1
10
8.25031374010712
20
-1.9722802719954
30
0
41
1
10
8.2503125329107
20
-1.94044141249324
30
0
41
1
10
8.25031370444555
20
-1.83605036260548
30
0
41
1
10
8.25032088427946
20
-1.754673459972
30
0
41
1
10
8.2503504223296
20
-1.56877330095133
30
0
41
1
10
8.25037311071054
20
-1.46323980120417
30
0
41
1
10
8.25041652964825
20
-1.29287683936298
30
0
41
1
10
8.25043255234442
20
-1.23391275451644
30
0
41
1
10
8.25046715269377
20
-1.11160107933841
30
0
41
1
10
8.25048582370795
20
-1.04794924369278
30
0
41
1
10
8.25054352114532
20
-0.853732782932127
30
0
41
1
10
8.25058444960573
20
-0.719320932865344
30
0
41
1
10
8.2506236538247
20
-0.580044840637413
30
0
0
SPLINE
5
C1
100
AcDbEntity
8
1
62
256
6
ByLayer
370
18
48
1
60
0
100
AcDbSpline
70
4
71
3
72
12
73
8
40
0
40
0
40
0
40
0
40
0.394844099470227
40
0.394844099470227
40
0.789688198940454
40
0.789688198940454
40
1
40
1
40
1
40
1
41
1
10
8.03856903423284
20
2.209342655727
30
0
41
1
10
8.03857729450397
20
2.22942835603138
30
0
41
1
10
8.03858269445587
20
2.24565122816267
30
0
41
1
10
8.03858887310929
20
2.27038217782919
30
0
41
1
10
8.03858963842549
20
2.27889627688648
30
0
41
1
10
8.03858813588189
20
2.28579635491664
30
0
41
1
10
8.03858713009345
20
2.2870810223402
30
0
41
1
10
8.03858573222141
20
2.2872576500572
30
0
0
SPLINE
5
C2
100
AcDbEntity
8
1
62
256
6
ByLayer
370
18
48
1
60
0
100
AcDbSpline
70
4
71
3
72
16
73
12
40
0
40
0
40
0
40
0
40
0.285120241654913
40
0.285120241654913
40
0.429686537848896
40
0.429686537848896
40
0.57425283404288
40
0.57425283404288
40
0.863385426430852
40
0.863385426430852
40
1
40
1
40
1
40
1
41
1
10
18.0797420605151
20
-2.17631364025942
30
0
41
1
10
17.8647003633735
20
-2.17606818256434
30
0
41
1
10
17.6499814821088
20
-2.16324494183522
30
0
41
1
10
17.3254242593779
20
-2.12520667072621
30
0
41
1
10
17.2160342656845
20
-2.10922016864683
30
0
41
1
10
16.9965198855608
20
-2.07083312766631
30
0
41
1
10
16.8861461110255
20
-2.04837288073821
30
0
41
1
10
16.5564106697975
20
-1.97204727952322
30
0
41
1
10
16.3380359031425
20
-1.90919011099606
30
0
41
1
10
16.0170550091044
20
-1.80081995645176
30
0
41
1
10
15.9140995488473
20
-1.76363903628172
30
0
41
1
10
15.8110832651686
20
-1.72416199202658
30
0
0
SPLINE
5
C3
100
AcDbEntity
8
1
62
256
6
ByLayer
370
13
48
1
60
0
100
AcDbSpline
70
4
71
3
72
26
73
22
40
0
40
0
40
0
40
0
40
0.0586830029486787
40
0.0586830029486787
40
0.114306492208149
40
0.114306492208149
40
0.169929981467619
40
0.169929981467619
40
0.392423938505497
40
0.392423938505497
40
0.503670917024436
40
0.503670917024436
40
0.614917895543376
40
0.614917895543376
40
0.837411852581259
40
0.837411852581259
40
0.89303534184073
40
0.89303534184073
40
0.9486588311002
40
0.9486588311002
40
1
40
1
40
1
40
1
41
1
10
15.8110832653389
20
-1.72416199209184
30
0
41
1
10
15.696074748385
20
-1.68008938384887
30
0
41
1
10
15.580990422723
20
-1.6331549471127
30
0
41
1
10
15.3563968139154
20
-1.53645884202552
30
0
41
1
10
15.2469048344039
20
-1.48696850009497
30
0
41
1
10
15.0272456749549
20
-1.38335166974332
30
0
41
1
10
14.9168500574183
20
-1.32909581592281
30
0
41
1
10
14.3678325672382
20
-1.0495553682868
30
0
41
1
10
13.9346613389986
20
-0.798466610028413
30
0
41
1
10
13.2809601303536
20
-0.400782136572019
30
0
41
1
10
13.0623927642857
20
-0.264659339877284
30
0
41
1
10
12.6216792202262
20
0.0113176996021309
30
0
41
1
10
12.4027379486893
20
0.149134348269996
30
0
41
1
10
11.7486779212948
20
0.55580848438106
30
0
41
1
10
11.3153169145304
20
0.818013373268229
30
0
41
1
10
10.7667724432328
20
1.11864118653324
30
0
41
1
10
10.656402032202
20
1.17751316464242
30
0
41
1
10
10.4366209157746
20
1.29091803439792
30
0
41
1
10
10.3271059334951
20
1.345523240007
30
0
41
1
10
10.1169544226476
20
1.44618768670713
30
0
41
1
10
10.0162835532257
20
1.49256887118264
30
0
41
1
10
9.91572960023251
20
1.53696388728633
30
0
0
SPLINE
5
C4
100
AcDbEntity
8
1
62
256
6
ByLayer
370
18
48
1
60
0
100
AcDbSpline
70
4
71
3
72
23
73
19
40
0
40
0
40
0
40
0
40
0.109004762626227
40
0.109004762626227
40
0.257503968855189
40
0.257503968855189
40
0.406003175084151
40
0.406003175084151
40
0.480252778198632
40
0.480252778198632
40
0.554502381313113
40
0.628751984427594
40
0.628751984427594
40
0.703001587542075
40
0.703001587542075
40
0.851500793771038
40
0.851500793771038
40
1
40
1
40
1
40
1
41
1
10
8.03858573797157
20
-2.28725691696653
30
0
41
1
10
8.03858188809846
20
-2.28775211952683
30
0
41
1
10
8.03857505871838
20
-2.27982978834208
30
0
41
1
10
8.03855641388481
20
-2.24149194894733
30
0
41
1
10
8.03854359564491
20
-2.20326583150882
30
0
41
1
10
8.03852353186772
20
-2.09848072773045
30
0
41
1
10
8.03851615128124
20
-2.03193676098391
30
0
41
1
10
8.03851377070973
20
-1.91039426281844
30
0
41
1
10
8.03851443838641
20
-1.86625103310249
30
0
41
1
10
8.03851907799128
20
-1.77266263363956
30
0
41
1
10
8.03852700264096
20
-1.67332539017528
30
0
41
1
10
8.03854184438529
20
-1.56264935885642
30
0
41
1
10
8.03856018555251
20
-1.44620819123966
30
0
41
1
10
8.03857118569067
20
-1.38473099845962
30
0
41
1
10
8.03860852863954
20
-1.19492542314995
30
0
41
1
10
8.03863924658512
20
-1.06103777513943
30
0
41
1
10
8.03870740004061
20
-0.778816774674766
30
0
41
1
10
8.03874515763437
20
-0.629186010632026
30
0
41
1
10
8.03878087833701
20
-0.478574682899136
30
0
0
SPLINE
5
C5
100
AcDbEntity
8
1
62
256
6
ByLayer
370
18
48
1
60
0
100
AcDbSpline
70
4
71
3
72
19
73
15
40
0
40
0
40
0
40
0
40
0.124999999999998
40
0.124999999999998
40
0.249999999999996
40
0.249999999999996
40
0.499999999999997
40
0.499999999999997
40
0.624999999999998
40
0.624999999999998
40
0.749999999999999
40
0.874999999999999
40
0.874999999999999
40
1
40
1
40
1
40
1
41
1
10
29.2054574915069
20
-2.18298760088234
30
0
41
1
10
29.1731158009633
20
-2.18297471487992
30
0
41
1
10
29.1423924640566
20
-2.17817497942104
30
0
41
1
10
29.0843297726725
20
-2.1585661915733
30
0
41
1
10
29.0568892001859
20
-2.14367947776279
30
0
41
1
10
28.9807581804756
20
-2.08318556586781
30
0
41
1
10
28.9394546143672
20
-2.02320104065859
30
0
41
1
10
28.8922886403917
20
-1.90246498032323
30
0
41
1
10
28.8789801297396
20
-1.85661534009788
30
0
41
1
10
28.85821511541
20
-1.7558121134588
30
0
41
1
10
28.8432910839938
20
-1.64654156121918
30
0
41
1
10
28.8398543588177
20
-1.52061854420512
30
0
41
1
10
28.8423283811729
20
-1.38612706797221
30
0
41
1
10
28.846577690577
20
-1.31450272330253
30
0
41
1
10
28.8536938871762
20
-1.24055435493875
30
0
0
SPLINE
5
C6
100
AcDbEntity
8
1
62
256
6
ByLayer
370
18
48
1
60
0
100
AcDbSpline
70
4
71
3
72
12
73
8
40
0
40
0
40
0
40
0
40
0.249999999999986
40
0.249999999999986
40
0.499999999999972
40
0.499999999999972
40
1
40
1
40
1
40
1
41
1
10
8.25062365382843
20
-0.580044840492661
30
0
41
1
10
8.23094169342932
20
-0.566748328410142
30
0
41
1
10
8.21141333911254
20
-0.554442013722735
30
0
41
1
10
8.17271578761861
20
-0.53184355968645
30
0
41
1
10
8.15333353609213
20
-0.521448884907244
30
0
41
1
10
8.09755207160364
20
-0.494543350546337
30
0
41
1
10
8.06330040371751
20
-0.482342152536347
30
0
41
1
10
8.03878087833701
20
-0.478574682899165
30
0
0
SPLINE
5
C7
100
AcDbEntity
8
1
62
256
6
ByLayer
370
18
48
1
60
0
100
AcDbSpline
70
4
71
3
72
12
73
8
40
0
40
0
40
0
40
0
40
0.249999999999995
40
0.249999999999995
40
0.49999999999999
40
0.49999999999999
40
1
40
1
40
1
40
1
41
1
10
29.2187190119213
20
-2.26360970597642
30
0
41
1
10
29.223856804102
20
-2.25020755911868
30
0
41
1
10
29.2286381629289
20
-2.23629706628441
30
0
41
1
10
29.2358260368065
20
-2.21150007756674
30
0
41
1
10
29.2381372418783
20
-2.20086756686578
30
0
41
1
10
29.2408828195054
20
-2.1783303779078
30
0
41
1
10
29.2378415691456
20
-2.17440202442083
30
0
41
1
10
29.2328244314861
20
-2.17657418502378
30
0
0
SPLINE
5
C8
100
AcDbEntity
8
1
62
256
6
ByLayer
370
18
48
1
60
0
100
AcDbSpline
70
4
71
3
72
24
73
20
40
0
40
0
40
0
40
0
40
0.0624999999999971
40
0.0624999999999971
40
0.124999999999994
40
0.124999999999994
40
0.249999999999995
40
0.249999999999995
40
0.374999999999996
40
0.374999999999996
40
0.499999999999997
40
0.499999999999997
40
0.624999999999997
40
0.624999999999997
40
0.749999999999998
40
0.749999999999998
40
0.874999999999999
40
0.874999999999999
40
1
40
1
40
1
40
1
41
1
10
29.674350233786
20
-0.392805036097855
30
0
41
1
10
29.6662117264439
20
-0.411439621412825
30
0
41
1
10
29.6587519148694
20
-0.431283973472404
30
0
41
1
10
29.6466664144013
20
-0.470207147354103
30
0
41
1
10
29.6418334309215
20
-0.489999108349508
30
0
41
1
10
29.6326887223448
20
-0.544580265662376
30
0
41
1
10
29.6338126843129
20
-0.575409377414815
30
0
41
1
10
29.648278627046
20
-0.612770465692478
30
0
41
1
10
29.6613286196822
20
-0.620305823152705
30
0
41
1
10
29.6926395580755
20
-0.615577194975856
30
0
41
1
10
29.7110350250832
20
-0.603691496367929
30
0
41
1
10
29.7495967196889
20
-0.564063465422123
30
0
41
1
10
29.7695812744178
20
-0.536427540825571
30
0
41
1
10
29.8062833264435
20
-0.4704656987482
30
0
41
1
10
29.8232235301907
20
-0.431529975729632
30
0
41
1
10
29.8468536407484
20
-0.352875795947
30
0
41
1
10
29.8528058413417
20
-0.31487660037422
30
0
41
1
10
29.8500198799803
20
-0.257851992253563
30
0
41
1
10
29.8416080427601
20
-0.239964870415662
30
0
41
1
10
29.8290494679358
20
-0.232998594683977
30
0
0
SPLINE
5
C9
100
AcDbEntity
8
1
62
256
6
ByLayer
370
18
48
1
60
0
100
AcDbSpline
70
4
71
3
72
16
73
12
40
0
40
0
40
0
40
0
40
0.125
40
0.125
40
0.25
40
0.25
40
0.5
40
0.5
40
0.75
40
0.75
40
1
40
1
40
1
40
1
41
1
10
29.6743502337855
20
-0.392805036097599
30
0
41
1
10
29.6656461243598
20
-0.37815407086137
30
0
41
1
10
29.6581447423708
20
-0.362441631541913
30
0
41
1
10
29.6484783547951
20
-0.33097718603895
30
0
41
1
10
29.6464357717475
20
-0.315362949076416
30
0
41
1
10
29.6506669111775
20
-0.273289051510574
30
0
41
1
10
29.666808216689
20
-0.254552263092023
30
0
41
1
10
29.7059860672754
20
-0.232393740953029
30
0
41
1
10
29.7294485321426
20
-0.227810586072678
30
0
41
1
10
29.7777825548063
20
-0.225622652001363
30
0
41
1
10
29.8031347857121
20
-0.228075728908266
30
0
41
1
10
29.8290494679357
20
-0.232998594683977
30
0
0
SPLINE
5
CA
100
AcDbEntity
8
1
62
256
6
ByLayer
370
18
48
1
60
0
100
AcDbSpline
70
4
71
3
72
30
73
26
40
0
40
0
40
0
40
0
40
0.0921614454219068
40
0.0921614454219068
40
0.184322890843814
40
0.184322890843814
40
0.27648433626572
40
0.27648433626572
40
0.368645781687627
40
0.368645781687627
40
0.460807227109534
40
0.460807227109534
40
0.552968672531441
40
0.552968672531441
40
0.645130117953348
40
0.645130117953348
40
0.737291563375254
40
0.737291563375254
40
0.829453008797161
40
0.829453008797161
40
0.875533731508114
40
0.875533731508114
40
0.921614454219066
40
0.921614454219066
40
1
40
1
40
1
40
1
41
1
10
11.4859474435682
20
0.388242737596698
30
0
41
1
10
11.6713830797939
20
0.266648878695065
30
0
41
1
10
11.8569946339159
20
0.145118312427655
30
0
41
1
10
12.2275322281566
20
-0.0993778084065866
30
0
41
1
10
12.4125821908154
20
-0.222736485996109
30
0
41
1
10
12.7843116713392
20
-0.464815390728859
30
0
41
1
10
12.9692590503058
20
-0.58448758595415
30
0
41
1
10
13.3394052289418
20
-0.817981578291636
30
0
41
1
10
13.5256554415018
20
-0.931168543744576
30
0
41
1
10
13.8964311533708
20
-1.15015256181727
30
0
41
1
10
14.0813494232679
20
-1.25479682551679
30
0
41
1
10
14.4521466042651
20
-1.45210851802182
30
0
41
1
10
14.6375825038161
20
-1.54603033550924
30
0
41
1
10
15.0085263753741
20
-1.71812119381207
30
0
41
1
10
15.193824058637
20
-1.79677596081709
30
0
41
1
10
15.5638105182841
20
-1.93938424239249
30
0
41
1
10
15.7501471792896
20
-2.00230676052263
30
0
41
1
10
16.1207921962339
20
-2.110687948421
30
0
41
1
10
16.3053387063695
20
-2.15619388494636
30
0
41
1
10
16.5836335932565
20
-2.21001788329775
30
0
41
1
10
16.6766103631761
20
-2.22564815921237
30
0
41
1
10
16.8622164118799
20
-2.25216654486172
30
0
41
1
10
16.9546503326997
20
-2.26304772763592
30
0
41
1
10
17.2046431747648
20
-2.28569251334193
30
0
41
1
10
17.3623222859612
20
-2.29286975305723
30
0
41
1
10
17.5199345357027
20
-2.29295243305842
30
0
0
SPLINE
5
CB
100
AcDbEntity
8
1
62
256
6
ByLayer
370
18
48
1
60
0
100
AcDbSpline
70
4
71
3
72
20
73
16
40
0
40
0
40
0
40
0
40
0.0233605676958852
40
0.0233605676958852
40
0.186133806413238
40
0.186133806413238
40
0.34890704513059
40
0.34890704513059
40
0.511680283847943
40
0.511680283847943
40
0.674453522565296
40
0.674453522565296
40
0.837226761282648
40
0.837226761282648
40
1
40
1
40
1
40
1
41
1
10
25.8600744138339
20
1.70508707696973
30
0
41
1
10
25.8866653013485
20
1.71689577053976
30
0
41
1
10
25.913267182317
20
1.72855406308557
30
0
41
1
10
26.12533318443
20
1.82022909761855
30
0
41
1
10
26.3104934325075
20
1.89367809248645
30
0
41
1
10
26.6807735538371
20
2.02221814644349
30
0
41
1
10
26.8658038380695
20
2.07806682161669
30
0
41
1
10
27.2361769369576
20
2.17224663883073
30
0
41
1
10
27.4219379455709
20
2.20990185501404
30
0
41
1
10
27.7919824349399
20
2.2662223152189
30
0
41
1
10
27.9764463072947
20
2.28489748692104
30
0
41
1
10
28.347870282182
20
2.30238772634772
30
0
41
1
10
28.5328677212544
20
2.30129764597407
30
0
41
1
10
28.9029819365833
20
2.27937601861399
30
0
41
1
10
29.0891522190446
20
2.25869025048618
30
0
41
1
10
29.274220307217
20
2.22826339265819
30
0
0
SPLINE
5
CC
100
AcDbEntity
8
1
62
256
6
ByLayer
370
18
48
1
60
0
100
AcDbSpline
70
4
71
3
72
8
73
4
40
0
40
0
40
0
40
0
40
1
40
1
40
1
40
1
41
1
10
29.2114468113866
20
2.28256272757074
30
0
41
1
10
29.069141555597
20
2.2941277739711
30
0
41
1
10
28.9272209497692
20
2.29984581941119
30
0
41
1
10
28.7854015515133
20
2.29976285048031
30
0
0
SPLINE
5
CD
100
AcDbEntity
8
1
62
256
6
ByLayer
370
18
48
1
60
0
100
AcDbSpline
70
4
71
3
72
40
73
36
40
0
40
0
40
0
40
0
40
0.0290074632650788
40
0.0290074632650788
40
0.150381530356947
40
0.150381530356947
40
0.180725047129914
40
0.180725047129914
40
0.211068563902881
40
0.211068563902881
40
0.271755597448816
40
0.271755597448816
40
0.33244263099475
40
0.33244263099475
40
0.393129664540684
40
0.393129664540684
40
0.514503731632551
40
0.514503731632551
40
0.544847248405516
40
0.544847248405516
40
0.575190765178482
40
0.575190765178482
40
0.635877798724414
40
0.635877798724414
40
0.696564832270345
40
0.696564832270345
40
0.757251865816277
40
0.757251865816277
40
0.878625932908138
40
0.878625932908138
40
0.939312966454069
40
0.939312966454069
40
0.969656483227035
40
0.969656483227035
40
1
40
1
40
1
40
1
41
1
10
18.9842751053069
20
-2.18237608675688
30
0
41
1
10
18.8791383960498
20
-2.20374773480199
30
0
41
1
10
18.7743170142384
20
-2.22205155900733
30
0
41
1
10
18.2318071782117
20
-2.30092192939321
30
0
41
1
10
17.7965210160495
20
-2.31064373398144
30
0
41
1
10
17.2448046481345
20
-2.25302236667514
30
0
41
1
10
17.1337768027221
20
-2.23795299696565
30
0
41
1
10
16.9129953250427
20
-2.20125205403113
30
0
41
1
10
16.8029803315505
20
-2.17960747581225
30
0
41
1
10
16.473628484539
20
-2.10519529944074
30
0
41
1
10
16.255287440313
20
-2.04277318169741
30
0
41
1
10
15.8182517701654
20
-1.89428450964834
30
0
41
1
10
15.5994491206166
20
-1.80833240705272
30
0
41
1
10
15.1591364581587
20
-1.61456119235049
30
0
41
1
10
14.9367053942028
20
-1.50617913530741
30
0
41
1
10
14.2766179268586
20
-1.15897435586967
30
0
41
1
10
13.8417928767565
20
-0.896764119600817
30
0
41
1
10
13.2928620923334
20
-0.547214048565678
30
0
41
1
10
13.1828209186752
20
-0.47618877747837
30
0
41
1
10
12.9618827855926
20
-0.332379847772614
30
0
41
1
10
12.8508052738556
20
-0.259477969373592
30
0
41
1
10
12.5196571903226
20
-0.0413059034196408
30
0
41
1
10
12.3004984346342
20
0.104192704212153
30
0
41
1
10
11.8629415172553
20
0.391606478687322
30
0
41
1
10
11.6445153541957
20
0.533479853649538
30
0
41
1
10
11.2061146718584
20
0.810148415737473
30
0
41
1
10
10.9860051941219
20
0.945333018689297
30
0
41
1
10
10.3213227499747
20
1.33338408919701
30
0
41
1
10
9.8851928484932
20
1.56039971919202
30
0
41
1
10
9.22866490885693
20
1.84030382449362
30
0
41
1
10
9.00933610913739
20
1.92335020006024
30
0
41
1
10
8.67775090685421
20
2.03043948285818
30
0
41
1
10
8.56667803715371
20
2.06320422655506
30
0
41
1
10
8.34500614630792
20
2.12211506387732
30
0
41
1
10
8.23420495791538
20
2.14833596139494
30
0
41
1
10
8.12331617437138
20
2.17125592922534
30
0
0
SPLINE
5
CE
100
AcDbEntity
8
1
62
256
6
ByLayer
370
18
48
1
60
0
100
AcDbSpline
70
4
71
3
72
14
73
10
40
0
40
0
40
0
40
0
40
0.25
40
0.25
40
0.5
40
0.5
40
0.75
40
0.75
40
1
40
1
40
1
40
1
41
1
10
29.689828351182
20
1.12949369291681
30
0
41
1
10
29.6554078369369
20
1.22131450203816
30
0
41
1
10
29.6208820158308
20
1.3130287759349
30
0
41
1
10
29.5516966209742
20
1.49632184238374
30
0
41
1
10
29.5171454183103
20
1.58801955431241
30
0
41
1
10
29.4480045343746
20
1.77136751952452
30
0
41
1
10
29.4133462030433
20
1.86292922187158
30
0
41
1
10
29.3439534574454
20
2.04594289511917
30
0
41
1
10
29.3093584763668
20
2.13764827278791
30
0
41
1
10
29.2742203072173
20
2.22826339265742
30
0
0
SPLINE
5
CF
100
AcDbEntity
8
1
62
256
6
ByLayer
370
18
48
1
60
0
100
AcDbSpline
70
4
71
3
72
63
73
59
40
0
40
0
40
0
40
0
40
0.124999999999972
40
0.124999999999972
40
0.187499999999958
40
0.187499999999958
40
0.249999999999943
40
0.249999999999943
40
0.374999999999915
40
0.374999999999915
40
0.437499999999901
40
0.437499999999901
40
0.499999999999887
40
0.499999999999887
40
0.531249999999882
40
0.531249999999882
40
0.546874999999879
40
0.546874999999879
40
0.554687499999876
40
0.558593749999876
40
0.558593749999876
40
0.562499999999876
40
0.562499999999876
40
0.566406249999876
40
0.566406249999876
40
0.570312499999876
40
0.570312499999876
40
0.578124999999877
40
0.578124999999877
40
0.593749999999882
40
0.593749999999882
40
0.609374999999888
40
0.609374999999888
40
0.624999999999893
40
0.624999999999893
40
0.640624999999898
40
0.640624999999898
40
0.656249999999903
40
0.656249999999903
40
0.671874999999908
40
0.671874999999908
40
0.687499999999914
40
0.687499999999914
40
0.703124999999919
40
0.703124999999919
40
0.718749999999924
40
0.718749999999924
40
0.734374999999929
40
0.734374999999929
40
0.749999999999934
40
0.749999999999934
40
0.812499999999951
40
0.812499999999951
40
0.874999999999967
40
0.874999999999967
40
0.937499999999984
40
0.937499999999984
40
1
40
1
40
1
40
1
41
1
10
11.4859474435635
20
0.388242737599768
30
0
41
1
10
11.1576103463231
20
0.602535861274674
30
0
41
1
10
10.8276703600866
20
0.804107481899223
30
0
41
1
10
10.3217212723723
20
1.07709981044619
30
0
41
1
10
10.1511862016937
20
1.16314685564961
30
0
41
1
10
9.80464033308783
20
1.32354424663902
30
0
41
1
10
9.62942860641579
20
1.39746431042173
30
0
41
1
10
9.10001894677271
20
1.59778689611528
30
0
41
1
10
8.74026640112896
20
1.70317584626037
30
0
41
1
10
8.18476854342927
20
1.82341095832845
30
0
41
1
10
7.99699595316389
20
1.85727827142736
30
0
41
1
10
7.61566858697981
20
1.91396557994693
30
0
41
1
10
7.42155985038664
20
1.93683960884627
30
0
41
1
10
7.12864119744867
20
1.96357731632827
30
0
41
1
10
7.03066293122077
20
1.97123991861434
30
0
41
1
10
6.88317150416978
20
1.98097156188527
30
0
41
1
10
6.83391518161153
20
1.9839215507503
30
0
41
1
10
6.75991407508872
20
1.98791379360077
30
0
41
1
10
6.72289250303078
20
1.98980126154956
30
0
41
1
10
6.68583915797257
20
1.99152731325782
30
0
41
1
10
6.66112983796376
20
1.99264227966103
30
0
41
1
10
6.64875313748823
20
1.99343196150366
30
0
41
1
10
6.62415812721349
20
1.99294987862479
30
0
41
1
10
6.611436885769
20
1.99183635172511
30
0
41
1
10
6.58956095453601
20
1.98635727222043
30
0
41
1
10
6.57878195030165
20
1.98345005999568
30
0
41
1
10
6.54643472835329
20
1.97467808043081
30
0
41
1
10
6.52505409028316
20
1.96855237315941
30
0
41
1
10
6.46172971826755
20
1.94928894291914
30
0
41
1
10
6.4207192455807
20
1.9353129893947
30
0
41
1
10
6.34162831427346
20
1.90444360552348
30
0
41
1
10
6.30354198422259
20
1.88755754821807
30
0
41
1
10
6.23109809074077
20
1.84987177055743
30
0
41
1
10
6.19647056020358
20
1.82887384230983
30
0
41
1
10
6.13386258211824
20
1.78253392548532
30
0
41
1
10
6.10584865518396
20
1.75725135009924
30
0
41
1
10
6.05807217086357
20
1.7010946828577
30
0
41
1
10
6.03859193851935
20
1.67026008394637
30
0
41
1
10
6.01125004995956
20
1.60518453672233
30
0
41
1
10
6.00304470983167
20
1.57032017560266
30
0
41
1
10
5.99830422890989
20
1.4971882440943
30
0
41
1
10
6.00172073592771
20
1.45995850707351
30
0
41
1
10
6.01822435205906
20
1.38416151560367
30
0
41
1
10
6.03137632796438
20
1.34572066238866
30
0
41
1
10
6.06430452401298
20
1.27040427205444
30
0
41
1
10
6.08417001200201
20
1.23311651620423
30
0
41
1
10
6.12912547799039
20
1.15898092633952
30
0
41
1
10
6.15427851210197
20
1.12210270271038
30
0
41
1
10
6.20755789172802
20
1.05012527960932
30
0
41
1
10
6.23582335339719
20
1.01479588345768
30
0
41
1
10
6.38338929287355
20
0.840509461014364
30
0
41
1
10
6.52141752451766
20
0.707260372708532
30
0
41
1
10
6.80621769458585
20
0.452525790041847
30
0
41
1
10
6.95452777273871
20
0.330189754761079
30
0
41
1
10
7.25768297376476
20
0.0902892745829149
30
0
41
1
10
7.41335995878009
20
-0.0276873747695277
30
0
41
1
10
7.72562172466021
20
-0.257612601059264
30
0
41
1
10
7.88208033136635
20
-0.369465903615605
30
0
41
1
10
8.03878087817697
20
-0.478574682787695
30
0
0
SPLINE
5
D0
100
AcDbEntity
8
1
62
256
6
ByLayer
370
18
48
1
60
0
100
AcDbSpline
70
4
71
3
72
68
73
64
40
0
40
0
40
0
40
0
40
0.0068256458141033
40
0.0068256458141033
40
0.044151816992314
40
0.044151816992314
40
0.118804159348736
40
0.118804159348736
40
0.156130330526946
40
0.156130330526946
40
0.193456501705157
40
0.193456501705157
40
0.268108844061578
40
0.268108844061578
40
0.342761186418
40
0.342761186418
40
0.417413528774421
40
0.417413528774421
40
0.454739699952632
40
0.454739699952632
40
0.464071242747185
40
0.468737014144461
40
0.471069899843099
40
0.471069899843099
40
0.471653121267759
40
0.471653121267759
40
0.472236342692418
40
0.472236342692418
40
0.473402785541737
40
0.473402785541737
40
0.48273432833629
40
0.48273432833629
40
0.492065871130842
40
0.492065871130842
40
0.566718213487262
40
0.566718213487262
40
0.641370555843682
40
0.641370555843682
40
0.716022898200103
40
0.716022898200103
40
0.753349069378313
40
0.753349069378313
40
0.762680612172865
40
0.762680612172865
40
0.767346383570142
40
0.767346383570142
40
0.768512826419461
40
0.768512826419461
40
0.76909604784412
40
0.76909604784412
40
0.76967926926878
40
0.772012154967418
40
0.790675240556522
40
0.790675240556522
40
0.865327582912941
40
0.865327582912941
40
0.90265375409115
40
0.90265375409115
40
0.939979925269359
40
0.939979925269359
40
0.977306096447568
40
0.977306096447568
40
1
40
1
40
1
40
1
41
1
10
11.485936796659
20
0.388276220978611
30
0
41
1
10
11.4746172555363
20
0.394631152985141
30
0
41
1
10
11.463292017369
20
0.40093735963265
30
0
41
1
10
11.3899928736056
20
0.441397402049574
30
0
41
1
10
11.3275189217789
20
0.474221937354343
30
0
41
1
10
11.1413517620219
20
0.565189010763703
30
0
41
1
10
11.0199102263571
20
0.615441026930569
30
0
41
1
10
10.8392490406954
20
0.66899720650153
30
0
41
1
10
10.7790561109867
20
0.683244784075299
30
0
41
1
10
10.6591784790203
20
0.703411500214543
30
0
41
1
10
10.6003403015986
20
0.709213809922034
30
0
41
1
10
10.4255701305266
20
0.714236568265108
30
0
41
1
10
10.3113341913166
20
0.701097331056388
30
0
41
1
10
10.0798215850201
20
0.644838463656185
30
0
41
1
10
9.96553649278735
20
0.602525837710942
30
0
41
1
10
9.73518946021738
20
0.495854996254167
30
0
41
1
10
9.6181755052225
20
0.430865914249608
30
0
41
1
10
9.44184374244148
20
0.321748592305994
30
0
41
1
10
9.38284160016826
20
0.283394878185334
30
0
41
1
10
9.3086284192386
20
0.2333110759009
30
0
41
1
10
9.2863511079882
20
0.218139211404946
30
0
41
1
10
9.26032950455351
20
0.200191424272162
30
0
41
1
10
9.24916981976969
20
0.192447494533099
30
0
41
1
10
9.24451924180613
20
0.189213977216241
30
0
41
1
10
9.24323813985725
20
0.188852136333537
30
0
41
1
10
9.24214677929001
20
0.18692341865318
30
0
41
1
10
9.2434176409767
20
0.185822519345493
30
0
41
1
10
9.24557232501684
20
0.183150798403119
30
0
41
1
10
9.24720511189761
20
0.1815296858328
30
0
41
1
10
9.26203859985179
20
0.167094761947141
30
0
41
1
10
9.27659716247427
20
0.155691021103792
30
0
41
1
10
9.30530936793673
20
0.132529382818234
30
0
41
1
10
9.31980348992096
20
0.121109532691577
30
0
41
1
10
9.45071933864779
20
0.0188716336910488
30
0
41
1
10
9.56944936938464
20
-0.0691752600307893
30
0
41
1
10
9.80673472318162
20
-0.245553678896755
30
0
41
1
10
9.92546320552768
20
-0.333719817433774
30
0
41
1
10
10.1631025986456
20
-0.509973852218621
30
0
41
1
10
10.2819178691423
20
-0.598176204728333
30
0
41
1
10
10.4590748559468
20
-0.732075432486567
30
0
41
1
10
10.5180720808356
20
-0.776797043983237
30
0
41
1
10
10.5907204034411
20
-0.834212006892415
30
0
41
1
10
10.6052038860046
20
-0.845759436241508
30
0
41
1
10
10.6265309261519
20
-0.86358337392906
30
0
41
1
10
10.633676030644
20
-0.869515914416013
30
0
41
1
10
10.6419297723863
20
-0.877649272691201
30
0
41
1
10
10.6437020255423
20
-0.879243730594112
30
0
41
1
10
10.6454218192738
20
-0.882231779257438
30
0
41
1
10
10.6444762881758
20
-0.883096583558483
30
0
41
1
10
10.6430255208141
20
-0.884645774882017
30
0
41
1
10
10.6393993986377
20
-0.888516793877557
30
0
41
1
10
10.6125948590661
20
-0.917090231746187
30
0
41
1
10
10.5867277955144
20
-0.944367399681255
30
0
41
1
10
10.472617848631
20
-1.06324835035633
30
0
41
1
10
10.3847733860206
20
-1.15034075809368
30
0
41
1
10
10.2559819005147
20
-1.26392263202834
30
0
41
1
10
10.2134286485076
20
-1.29901835612114
30
0
41
1
10
10.1278460889827
20
-1.36253832217835
30
0
41
1
10
10.085168652685
20
-1.39067254925126
30
0
41
1
10
9.99931357243926
20
-1.43767626853082
30
0
41
1
10
9.9559930293799
20
-1.45667565484126
30
0
41
1
10
9.88354869292326
20
-1.47832681656956
30
0
41
1
10
9.85536702379994
20
-1.48442795985454
30
0
41
1
10
9.8265033955449
20
-1.48816116532348
30
0
0
SPLINE
5
D1
100
AcDbEntity
8
1
62
256
6
ByLayer
370
18
48
1
60
0
100
AcDbSpline
70
4
71
3
72
14
73
10
40
0
40
0
40
0
40
0
40
0.25
40
0.25
40
0.5
40
0.5
40
0.75
40
0.75
40
1
40
1
40
1
40
1
41
1
10
29.6898283511819
20
-1.12949369291687
30
0
41
1
10
29.6554078369368
20
-1.22131450203821
30
0
41
1
10
29.6208820158308
20
-1.31302877593495
30
0
41
1
10
29.5516966209742
20
-1.49632184238379
30
0
41
1
10
29.5171454183104
20
-1.58801955431247
30
0
41
1
10
29.4480045343746
20
-1.77136751952455
30
0
41
1
10
29.4133462030433
20
-1.86292922187161
30
0
41
1
10
29.3439534574454
20
-2.0459428951192
30
0
41
1
10
29.3093584763669
20
-2.13764827278794
30
0
41
1
10
29.2742203072173
20
-2.22826339265742
30
0
0
SPLINE
5
D2
100
AcDbEntity
8
1
62
256
6
ByLayer
370
18
48
1
60
0
100
AcDbSpline
70
4
71
3
72
8
73
4
40
0
40
0
40
0
40
0
40
1
40
1
40
1
40
1
41
1
10
29.2114468113889
20
-2.28256272754416
30
0
41
1
10
29.2138721265315
20
-2.2762474041449
30
0
41
1
10
29.2162962039894
20
-2.26992970230333
30
0
41
1
10
29.2187190119179
20
-2.26360970598512
30
0
0
SPLINE
5
D3
100
AcDbEntity
8
1
62
256
6
ByLayer
370
18
48
1
60
0
100
AcDbSpline
70
4
71
3
72
28
73
24
40
0
40
0
40
0
40
0
40
0.132352936439044
40
0.132352936439044
40
0.193796674810053
40
0.193796674810053
40
0.255240413181061
40
0.255240413181061
40
0.378127889923078
40
0.378127889923078
40
0.501015366665096
40
0.501015366665096
40
0.562459105036104
40
0.562459105036104
40
0.623902843407113
40
0.623902843407113
40
0.869677796891141
40
0.869677796891141
40
0.93112153526215
40
0.93112153526215
40
0.992565273633159
40
0.992565273633159
40
1
40
1
40
1
40
1
41
1
10
20.6333488474705
20
1.60403595689007
30
0
41
1
10
20.8680446178051
20
1.49464398380991
30
0
41
1
10
21.1033427062952
20
1.37396025614035
30
0
41
1
10
21.4510148041307
20
1.18298075920356
30
0
41
1
10
21.561525073558
20
1.12033523126837
30
0
41
1
10
21.7811165957934
20
0.992541960575238
30
0
41
1
10
21.8904962225183
20
0.927205315166475
30
0
41
1
10
22.217923332756
20
0.727684004937373
30
0
41
1
10
22.4356137259018
20
0.590479666239162
30
0
41
1
10
22.871292759918
20
0.310006267416668
30
0
41
1
10
23.089295147882
20
0.166769673434544
30
0
41
1
10
23.4183183843845
20
-0.0499691513568905
30
0
41
1
10
23.5287110794971
20
-0.122552417424089
30
0
41
1
10
23.7491717867328
20
-0.266922910243778
30
0
41
1
10
23.8589401462291
20
-0.338512303177311
30
0
41
1
10
24.4062561608409
20
-0.692419712213763
30
0
41
1
10
24.8391339332256
20
-0.962792876405643
30
0
41
1
10
25.3857101053481
20
-1.26790463879027
30
0
41
1
10
25.4952966245491
20
-1.32728534622865
30
0
41
1
10
25.7153100668948
20
-1.44232358157777
30
0
41
1
10
25.8258932845379
20
-1.49804182204267
30
0
41
1
10
25.9490494046213
20
-1.55748118062348
30
0
41
1
10
25.9623367199226
20
-1.56386019826604
30
0
41
1
10
25.9756181981912
20
-1.57020214152388
30
0
0
SPLINE
5
D4
100
AcDbEntity
8
1
62
256
6
ByLayer
370
13
48
1
60
0
100
AcDbSpline
70
4
71
3
72
12
73
8
40
0
40
0
40
0
40
0
40
0.190201391984
40
0.190201391984
40
0.595100695992
40
0.595100695992
40
1
40
1
40
1
40
1
41
1
10
25.9756181982608
20
-1.57020214155705
30
0
41
1
10
26.1818642817513
20
-1.66868522696103
30
0
41
1
10
26.3867027929309
20
-1.75822800312497
30
0
41
1
10
27.0266199815575
20
-2.00783050109928
30
0
41
1
10
27.4603923565017
20
-2.13346128071129
30
0
41
1
10
28.3431201212443
20
-2.28065115719377
30
0
41
1
10
28.7796758662414
20
-2.29978807980413
30
0
41
1
10
29.2187190119025
20
-2.26360970597798
30
0
0
SPLINE
5
D5
100
AcDbEntity
8
1
62
256
6
ByLayer
370
18
48
1
60
0
100
AcDbSpline
70
4
71
3
72
62
73
58
40
0
40
0
40
0
40
0
40
0.0298659428248801
40
0.0298659428248801
40
0.0712613931629598
40
0.0712613931629598
40
0.112656843501039
40
0.112656843501039
40
0.133354568670079
40
0.133354568670079
40
0.154052293839118
40
0.154052293839118
40
0.195447744177196
40
0.195447744177196
40
0.236843194515273
40
0.236843194515273
40
0.278238644853351
40
0.278238644853351
40
0.319634095191428
40
0.319634095191428
40
0.361029545529506
40
0.361029545529506
40
0.402424995867584
40
0.402424995867584
40
0.443820446205661
40
0.443820446205661
40
0.485215896543738
40
0.485215896543738
40
0.505913621712777
40
0.505913621712777
40
0.526611346881815
40
0.526611346881815
40
0.568006797219891
40
0.568006797219891
40
0.609402247557968
40
0.609402247557968
40
0.650797697896044
40
0.650797697896044
40
0.692193148234121
40
0.692193148234121
40
0.712890873403159
40
0.712890873403159
40
0.733588598572197
40
0.733588598572197
40
0.774984048910275
40
0.774984048910275
40
0.816379499248352
40
0.816379499248352
40
0.85777494958643
40
0.85777494958643
40
0.899170399924508
40
0.899170399924508
40
0.940565850262587
40
0.940565850262587
40
0.981961300600666
40
0.981961300600666
40
1
40
1
40
1
40
1
41
1
10
14.9779846322406
20
1.70225306948944
30
0
41
1
10
15.1117213971284
20
1.76136500501846
30
0
41
1
10
15.245348581635
20
1.81663567052297
30
0
41
1
10
15.5638105182795
20
1.93938424239084
30
0
41
1
10
15.7501471792849
20
2.00230676052109
30
0
41
1
10
16.120792196229
20
2.11068794841972
30
0
41
1
10
16.3053387063645
20
2.15619388494523
30
0
41
1
10
16.5836335932513
20
2.21001788329684
30
0
41
1
10
16.676610363171
20
2.22564815921154
30
0
41
1
10
16.8622164118747
20
2.25216654486104
30
0
41
1
10
16.9546503326944
20
2.26304772763535
30
0
41
1
10
17.2323123283781
20
2.28819883331937
30
0
41
1
10
17.4177524660956
20
2.29517369210322
30
0
41
1
10
17.7882986541455
20
2.28950348696387
30
0
41
1
10
17.9739981246902
20
2.27672125016497
30
0
41
1
10
18.3446294062085
20
2.23207574714078
30
0
41
1
10
18.5291153248054
20
2.19987747317865
30
0
41
1
10
18.9003989851654
20
2.11712944524601
30
0
41
1
10
19.0861122927619
20
2.06655883243425
30
0
41
1
10
19.4558999814431
20
1.9478008958356
30
0
41
1
10
19.6412322121474
20
1.88024152989007
30
0
41
1
10
20.0126761102275
20
1.72867843793668
30
0
41
1
10
20.1974025506564
20
1.64480255247938
30
0
41
1
10
20.5679311662171
20
1.46513658024997
30
0
41
1
10
20.7530435950513
20
1.36813175400883
30
0
41
1
10
21.1240097161109
20
1.16288637339156
30
0
41
1
10
21.3094974262432
20
1.05599196033305
30
0
41
1
10
21.5868591005232
20
0.888116734528097
30
0
41
1
10
21.6792117130721
20
0.83094516097384
30
0
41
1
10
21.864590832417
20
0.715415165538616
30
0
41
1
10
21.9576241742403
20
0.656851414491456
30
0
41
1
10
22.2360310787209
20
0.47934247727332
30
0
41
1
10
22.4204676677939
20
0.357825237970729
30
0
41
1
10
22.7908278313215
20
0.114144268550945
30
0
41
1
10
22.9768473966189
20
-0.0088478234550564
30
0
41
1
10
23.3469013898013
20
-0.254876739249056
30
0
41
1
10
23.532184415591
20
-0.375982088854414
30
0
41
1
10
23.902472192075
20
-0.615598984829774
30
0
41
1
10
24.0878935787534
20
-0.734295505208621
30
0
41
1
10
24.3659695039705
20
-0.905063717110806
30
0
41
1
10
24.4585877637257
20
-0.961012436916349
30
0
41
1
10
24.6435501767757
20
-1.07112346531693
30
0
41
1
10
24.7358217303713
20
-1.12537441121353
30
0
41
1
10
25.0134974492782
20
-1.28371576499299
30
0
41
1
10
25.1997534515558
20
-1.38386601761047
30
0
41
1
10
25.569625690954
20
-1.57230732482159
30
0
41
1
10
25.7544315126509
20
-1.65989022561666
30
0
41
1
10
26.1253331844204
20
-1.82022909761466
30
0
41
1
10
26.3104934324979
20
-1.89367809248282
30
0
41
1
10
26.6807735538273
20
-2.02221814644042
30
0
41
1
10
26.8658038380597
20
-2.07806682161385
30
0
41
1
10
27.2361769369476
20
-2.17224663882851
30
0
41
1
10
27.4219379455607
20
-2.20990185501216
30
0
41
1
10
27.7919824349297
20
-2.26622231521768
30
0
41
1
10
27.9764463072842
20
-2.28489748692016
30
0
41
1
10
28.243085128208
20
-2.2974534260461
30
0
41
1
10
28.3238762751216
20
-2.29939662587449
30
0
41
1
10
28.4045958004216
20
-2.299469265814
30
0
0
SPLINE
5
D6
100
AcDbEntity
8
1
62
256
6
ByLayer
370
18
48
1
60
0
100
AcDbSpline
70
4
71
3
72
40
73
36
40
0
40
0
40
0
40
0
40
0.116478731539562
40
0.116478731539562
40
0.174718097309344
40
0.174718097309344
40
0.232957463079125
40
0.232957463079125
40
0.291196828848906
40
0.291196828848906
40
0.349436194618687
40
0.349436194618687
40
0.46591492615825
40
0.46591492615825
40
0.495034609043141
40
0.495034609043141
40
0.524154291928032
40
0.524154291928032
40
0.582393657697812
40
0.582393657697812
40
0.640633023467593
40
0.640633023467593
40
0.669752706352483
40
0.669752706352483
40
0.698872389237372
40
0.698872389237372
40
0.815351120776932
40
0.815351120776932
40
0.873590486546711
40
0.873590486546711
40
0.902710169431601
40
0.902710169431601
40
0.93182985231649
40
0.93182985231649
40
1
40
1
40
1
40
1
41
1
10
29.2114468113864
20
-2.28256272757076
30
0
41
1
10
28.7712304881841
20
-2.31833879343551
30
0
41
1
10
28.335292078873
20
-2.29811515977559
30
0
41
1
10
27.675259804363
20
-2.18649452634566
30
0
41
1
10
27.4532284367881
20
-2.13526127267011
30
0
41
1
10
27.012820126404
20
-2.00854519727258
30
0
41
1
10
26.7937812468411
20
-1.93302243816373
30
0
41
1
10
26.3557995893331
20
-1.75972062022476
30
0
41
1
10
26.1368484514717
20
-1.66193186842079
30
0
41
1
10
25.6963365500255
20
-1.44646285336717
30
0
41
1
10
25.4742342895011
20
-1.3283519107419
30
0
41
1
10
24.8150716291562
20
-0.956005386690919
30
0
41
1
10
24.3805592004563
20
-0.681641529318625
30
0
41
1
10
23.8315817661856
20
-0.323302161356906
30
0
41
1
10
23.721501051165
20
-0.250852485384257
30
0
41
1
10
23.5004536957644
20
-0.104832750541618
30
0
41
1
10
23.3895692905572
20
-0.0312729845983881
30
0
41
1
10
23.0592157505887
20
0.188079963123243
30
0
41
1
10
22.8403776696518
20
0.332825361930304
30
0
41
1
10
22.4031542074143
20
0.615957711720029
30
0
41
1
10
22.1847813688392
20
0.75437098352549
30
0
41
1
10
21.8563279526763
20
0.955355766613792
30
0
41
1
10
21.7465926293978
20
1.02109684359846
30
0
41
1
10
21.5263116999455
20
1.14961602533029
30
0
41
1
10
21.4154789460564
20
1.21255867767135
30
0
41
1
10
20.8622120967108
20
1.51680022606621
30
0
41
1
10
20.4272881521723
20
1.72561128745386
30
0
41
1
10
19.7710120039565
20
1.97187518542074
30
0
41
1
10
19.5515669679977
20
2.04278469357161
30
0
41
1
10
19.2196466780487
20
2.13062470074112
30
0
41
1
10
19.1087415695837
20
2.15676025928667
30
0
41
1
10
18.8883847769495
20
2.20213656675921
30
0
41
1
10
18.7785886755204
20
2.22144383595938
30
0
41
1
10
18.4125159999241
20
2.27461913163464
30
0
41
1
10
18.1570958620219
20
2.29333860647148
30
0
41
1
10
17.9010281625023
20
2.29323105874911
30
0
0
SPLINE
5
D7
100
AcDbEntity
8
SK1
62
256
6
ByLayer
370
18
48
1
60
0
100
AcDbSpline
70
4
71
3
72
8
73
4
40
0
40
0
40
0
40
0
40
1
40
1
40
1
40
1
41
1
10
-35.4
20
-2.03380684335693
30
0
41
1
10
-35.6037679034388
20
-1.70903014938818
30
0
41
1
10
-35.8060922365892
20
-1.38356637555552
30
0
41
1
10
-36
20
-1.05409666197926
30
0
0
SPLINE
5
D8
100
AcDbEntity
8
SK1
62
256
6
ByLayer
370
18
48
1
60
0
100
AcDbSpline
70
4
71
3
72
14
73
10
40
0
40
0
40
0
40
0
40
0.500000000000003
40
0.500000000000003
40
0.750000000000003
40
0.750000000000003
40
0.875000000000002
40
0.875000000000002
40
1
40
1
40
1
40
1
41
1
10
-35.3999999999999
20
-2.72841042621059
30
0
41
1
10
-35.3787677796885
20
-2.76225152778744
30
0
41
1
10
-35.3584290958895
20
-2.79333177521934
30
0
41
1
10
-35.3303626450498
20
-2.83293647248402
30
0
41
1
10
-35.3215171954455
20
-2.84481651012672
30
0
41
1
10
-35.3102812516991
20
-2.85793914154149
30
0
41
1
10
-35.3068890218584
20
-2.86149458036377
30
0
41
1
10
-35.3017585680987
20
-2.8653045738873
30
0
41
1
10
-35.3
20
-2.86553490164894
30
0
41
1
10
-35.3
20
-2.86268448115237
30
0
0
SPLINE
5
D9
100
AcDbEntity
8
SK1
62
256
6
ByLayer
370
18
48
1
60
0
100
AcDbSpline
70
4
71
3
72
8
73
4
40
0
40
0
40
0
40
0
40
1
40
1
40
1
40
1
41
1
10
-36
20
-1.74870024483246
30
0
41
1
10
-35.8061088095982
20
-2.07814179912089
30
0
41
1
10
-35.6037786761503
20
-2.40361656209061
30
0
41
1
10
-35.4
20
-2.72841042621013
30
0
0
SPLINE
5
DA
100
AcDbEntity
8
SK1
62
256
6
ByLayer
370
18
48
1
60
0
100
AcDbSpline
70
4
71
3
72
14
73
10
40
0
40
0
40
0
40
0
40
0.124999999999999
40
0.124999999999999
40
0.249999999999998
40
0.249999999999998
40
0.5
40
0.5
40
1
40
1
40
1
40
1
41
1
10
-35.3
20
-2.26069470934627
30
0
41
1
10
-35.3
20
-2.25356582830409
30
0
41
1
10
-35.3017593723636
20
-2.24417131157756
30
0
41
1
10
-35.3069353411979
20
-2.22459241439293
30
0
41
1
10
-35.3102739075534
20
-2.21450488326511
30
0
41
1
10
-35.3215583577555
20
-2.18373837783082
30
0
41
1
10
-35.3303095934911
20
-2.16371632961378
30
0
41
1
10
-35.358391202053
20
-2.10442312528727
30
0
41
1
10
-35.378655954467
20
-2.0678261782333
30
0
41
1
10
-35.4
20
-2.03380684335693
30
0
0
LINE
5
76
100
AcDbEntity
8
81
62
256
6
ByLayer
370
18
48
1
60
0
100
AcDbLine
10
30
20
0
30
0
11
35
21
0
31
0
39
0
210
0
220
0
230
1
0
LINE
5
77
100
AcDbEntity
8
1
62
256
6
ByLayer
370
18
48
1
60
0
100
AcDbLine
10
8.038562
20
2.287259
30
0
11
1.334607
21
2.283236
31
0
39
0
210
0
220
0
230
1
0
LINE
5
79
100
AcDbEntity
8
1
62
256
6
ByLayer
370
18
48
1
60
0
100
AcDbLine
10
17.900778
20
2.293176
30
0
11
17.520293
21
2.292948
31
0
39
0
210
0
220
0
230
1
0
LINE
5
7A
100
AcDbEntity
8
1
62
256
6
ByLayer
370
18
48
1
60
0
100
AcDbLine
10
28.785474
20
2.299707
30
0
11
28.405706
21
2.299479
31
0
39
0
210
0
220
0
230
1
0
LINE
5
7B
100
AcDbEntity
8
1
62
256
6
ByLayer
370
18
48
1
60
0
100
AcDbLine
10
28.405706
20
-2.299479
30
0
11
28.785456
21
-2.299707
31
0
39
0
210
0
220
0
230
1
0
LINE
5
7C
100
AcDbEntity
8
1
62
256
6
ByLayer
370
18
48
1
60
0
100
AcDbLine
10
17.520293
20
-2.292948
30
0
11
17.900621
21
-2.293176
31
0
39
0
210
0
220
0
230
1
0
LINE
5
7D
100
AcDbEntity
8
1
62
256
6
ByLayer
370
18
48
1
60
0
100
AcDbLine
10
1.334607
20
-2.283236
30
0
11
8.038562
21
-2.287259
31
0
39
0
210
0
220
0
230
1
0
LINE
5
7E
100
AcDbEntity
8
SK1
62
256
6
ByLayer
370
18
48
1
60
0
100
AcDbLine
10
-35.278312
20
3
30
0
11
-36
21
1.75
31
0
39
0
210
0
220
0
230
1
0
LINE
5
80
100
AcDbEntity
8
SK1
62
256
6
ByLayer
370
18
48
1
60
0
100
AcDbLine
10
-36
20
-1.75
30
0
11
-35.278312
21
-3
31
0
39
0
210
0
220
0
230
1
0
LINE
5
81
100
AcDbEntity
8
SK1
62
256
6
ByLayer
370
18
48
1
60
0
100
AcDbLine
10
0
20
3
30
0
11
-35.278312
21
3
31
0
39
0
210
0
220
0
230
1
0
LINE
5
82
100
AcDbEntity
8
SK1
62
256
6
ByLayer
370
18
48
1
60
0
100
AcDbLine
10
-35.278312
20
-3
30
0
11
0
21
-3
31
0
39
0
210
0
220
0
230
1
0
LINE
5
83
100
AcDbEntity
8
SK4
62
256
6
ByLayer
370
18
48
0.05
60
0
100
AcDbLine
10
35
20
0
30
0
11
-41
21
0
31
0
39
0
210
0
220
0
230
1
0
LINE
5
85
100
AcDbEntity
8
4
62
256
6
ByLayer
370
18
48
0.05
60
0
100
AcDbLine
10
30
20
0
30
0
11
0
21
0
31
0
39
0
210
0
220
0
230
1
0
LINE
5
87
100
AcDbEntity
8
80
62
256
6
ByLayer
370
18
48
1
60
0
100
AcDbLine
10
0
20
0
30
0
11
-5
21
0
31
0
39
0
210
0
220
0
230
1
0
LINE
5
88
100
AcDbEntity
8
1
62
256
6
ByLayer
370
13
48
1
60
0
100
AcDbLine
10
29.890204
20
0.462761
30
0
11
29.593454
21
0.462761
31
0
39
0
210
0
220
0
230
1
0
LINE
5
89
100
AcDbEntity
8
1
62
256
6
ByLayer
370
18
48
1
60
0
100
AcDbLine
10
29.933458
20
0.261025
30
0
11
29.890204
21
0.462761
31
0
39
0
210
0
220
0
230
1
0
LINE
5
8A
100
AcDbEntity
8
1
62
256
6
ByLayer
370
18
48
1
60
0
100
AcDbLine
10
28.853694
20
-1.240554
30
0
11
29.67435
21
-0.392805
31
0
39
0
210
0
220
0
230
1
0
LINE
5
8B
100
AcDbEntity
8
1
62
256
6
ByLayer
370
13
48
1
60
0
100
AcDbLine
10
0.667063
20
2.641618
30
0
11
0.667063
21
-2.641618
31
0
39
0
210
0
220
0
230
1
0
LINE
5
8C
100
AcDbEntity
8
1
62
256
6
ByLayer
370
18
48
1
60
0
100
AcDbLine
10
30
20
0
30
0
11
29.205457
21
-2.182988
31
0
39
0
210
0
220
0
230
1
0
LINE
5
8D
100
AcDbEntity
8
1
62
256
6
ByLayer
370
18
48
1
60
0
100
AcDbLine
10
30
20
0
30
0
11
29.99624
21
-0.023327
31
0
39
0
210
0
220
0
230
1
0
LINE
5
8E
100
AcDbEntity
8
1
62
256
6
ByLayer
370
13
48
1
60
0
100
AcDbLine
10
1.334607
20
2.283236
30
0
11
1.334607
21
-2.283236
31
0
39
0
210
0
220
0
230
1
0
LINE
5
8F
100
AcDbEntity
8
1
62
256
6
ByLayer
370
13
48
1
60
0
100
AcDbLine
10
29.403547
20
0.127432
30
0
11
29.895435
21
-0.164422
31
0
39
0
210
0
220
0
230
1
0
LINE
5
90
100
AcDbEntity
8
1
62
256
6
ByLayer
370
18
48
1
60
0
100
AcDbLine
10
29.829049
20
-0.232999
30
0
11
29.895435
21
-0.164422
31
0
39
0
210
0
220
0
230
1
0
LINE
5
91
100
AcDbEntity
8
1
62
256
6
ByLayer
370
13
48
1
60
0
100
AcDbLine
10
29.593454
20
0.462761
30
0
11
29.933458
21
0.261025
31
0
39
0
210
0
220
0
230
1
0
LINE
5
92
100
AcDbEntity
8
1
62
256
6
ByLayer
370
18
48
1
60
0
100
AcDbLine
10
0
20
-3
30
0
11
0
21
3
31
0
39
0
210
0
220
0
230
1
0
LINE
5
93
100
AcDbEntity
8
1
62
256
6
ByLayer
370
18
48
1
60
0
100
AcDbLine
10
29.933458
20
-0.261025
30
0
11
29.890204
21
-0.462761
31
0
39
0
210
0
220
0
230
1
0
LINE
5
94
100
AcDbEntity
8
1
62
256
6
ByLayer
370
18
48
1
60
0
100
AcDbLine
10
29.99624
20
0.023327
30
0
11
30
21
0
31
0
39
0
210
0
220
0
230
1
0
LINE
5
95
100
AcDbEntity
8
SK1
62
256
6
ByLayer
370
18
48
1
60
0
100
AcDbLine
10
-35.3
20
-2.862684
30
0
11
-35.3
21
-2.260695
31
0
39
0
210
0
220
0
230
1
0
LINE
5
96
100
AcDbEntity
8
SK1
62
256
6
ByLayer
370
18
48
1
60
0
100
AcDbLine
10
-36
20
-1.054088
30
0
11
-36
21
-1.7487
31
0
39
0
210
0
220
0
230
1
0
LINE
5
97
100
AcDbEntity
8
SK1
62
256
6
ByLayer
370
18
48
1
60
0
100
AcDbLine
10
-36
20
-1.75
30
0
11
-36
21
-1.7487
31
0
39
0
210
0
220
0
230
1
0
LINE
5
98
100
AcDbEntity
8
SK1
62
256
6
ByLayer
370
18
48
1
60
0
100
AcDbLine
10
0
20
-3
30
0
11
0
21
3
31
0
39
0
210
0
220
0
230
1
0
LINE
5
99
100
AcDbEntity
8
SK1
62
256
6
ByLayer
370
18
48
1
60
0
100
AcDbLine
10
-36
20
1.75
30
0
11
-36
21
-1.054097
31
0
39
0
210
0
220
0
230
1
0
LINE
5
9A
100
AcDbEntity
8
SK1
62
256
6
ByLayer
370
18
48
1
60
0
100
AcDbLine
10
-35.278312
20
3
30
0
11
-35.278312
21
-3
31
0
39
0
210
0
220
0
230
1
0
LINE
5
9B
100
AcDbEntity
8
SK1
62
256
6
ByLayer
370
13
48
1
60
0
100
AcDbLine
10
-35.4
20
-2.033796
30
0
11
-35.4
21
-2.72841
31
0
39
0
210
0
220
0
230
1
0
MTEXT
5
DB
100
AcDbEntity
8
SK6
62
256
6
ByLayer
370
13
48
1
60
0
100
AcDbMText
10
-0.870831
20
34.682694
30
0
210
0
220
0
230
1
1
\W0.7598;R840-0460-30-A1A1220
40
3.5
41
0
44
1.084337
50
0
71
8
72
5
7
iso_b_vert
0
DIMENSION
5
E8
100
AcDbEntity
8
SK2
62
256
6
ByLayer
370
13
48
1
60
0
100
AcDbDimension
2
DimnDraft3D1
10
29.22
20
-12.513398
30
0
11
13.470059
21
-12.513398
31
0
70
32
71
5
72
1
41
1
210
0
220
0
230
1
3
Standard
100
AcDbAlignedDimension
13
0
23
-1.5875
33
0
14
29.22
24
-3.8875
34
0
50
0
100
AcDbRotatedDimension
1001
ACAD
1000
DSTYLE
1002
{
1070
   279
1070
     0
1070
   172
1070
     1
1070
   173
1070
     1
1070
   340
1005
DC
1070
   271
1070
     2
1070
   272
1070
     2
1070
    77
1070
     1
1070
    73
1070
     0
1070
   171
1070
     3
1070
   274
1070
     4
1070
   177
1070
    35
1070
   176
1070
    35
1070
   178
1070
    35
1070
    48
1040
-0.005
1070
    41
1041
3.5
1070
   147
1041
1.75
1070
    42
1041
1.5875
1070
    44
1041
2.0
1070
   140
1041
3.5
1070
   343
1005
0
1070
   344
1005
0
1002
}
0
DIMENSION
5
F2
100
AcDbEntity
8
SK2
62
256
6
ByLayer
370
13
48
1
60
0
100
AcDbDimension
2
DimnDraft3D2
10
30
20
-31.692985
30
0
11
-2.4387
21
-31.692985
31
0
70
32
71
5
72
1
41
1
210
0
220
0
230
1
3
Standard
100
AcDbAlignedDimension
13
-36
23
-4.5875
33
0
14
30
24
-1.5875
34
0
50
0
100
AcDbRotatedDimension
1001
ACAD
1000
DSTYLE
1002
{
1070
   279
1070
     0
1070
   172
1070
     1
1070
   173
1070
     1
1070
   340
1005
DC
1070
   271
1070
     2
1070
   272
1070
     2
1070
    77
1070
     1
1070
    73
1070
     0
1070
   171
1070
     3
1070
   274
1070
     4
1070
   177
1070
    35
1070
   176
1070
    35
1070
   178
1070
    35
1070
    48
1040
-0.005
1070
    41
1041
3.5
1070
   147
1041
1.75
1070
    42
1041
1.5875
1070
    44
1041
2.0
1070
   140
1041
3.5
1070
   343
1005
0
1070
   344
1005
0
1002
}
0
DIMENSION
5
FC
100
AcDbEntity
8
SK2
62
256
6
ByLayer
370
13
48
1
60
0
100
AcDbDimension
2
DimnDraft3D3
10
30
20
13.909119
30
0
11
22.71
21
13.909119
31
0
70
32
71
5
72
1
41
1
210
0
220
0
230
1
3
Standard
100
AcDbAlignedDimension
13
15.42
23
3.8875
33
0
14
30
24
1.5875
34
0
50
0
100
AcDbRotatedDimension
1001
ACAD
1000
DSTYLE
1002
{
1070
   279
1070
     0
1070
   172
1070
     1
1070
   173
1070
     1
1070
   340
1005
DC
1070
   271
1070
     2
1070
   272
1070
     2
1070
    77
1070
     1
1070
    73
1070
     0
1070
   171
1070
     3
1070
   274
1070
     4
1070
   177
1070
    35
1070
   176
1070
    35
1070
   178
1070
    35
1070
    48
1040
-0.005
1070
    41
1041
3.5
1070
   147
1041
1.75
1070
    42
1041
1.5875
1070
    44
1041
2.0
1070
   140
1041
3.5
1070
   343
1005
0
1070
   344
1005
0
1002
}
0
DIMENSION
5
106
100
AcDbEntity
8
SK2
62
256
6
ByLayer
370
13
48
1
60
0
100
AcDbDimension
2
DimnDraft3D4
10
29.22
20
-15.102503
30
0
11
39.981425
21
-15.102503
31
0
70
32
71
5
72
1
41
1
210
0
220
0
230
1
3
Standard
100
AcDbAlignedDimension
13
30
23
-1.5875
33
0
14
29.22
24
-3.8875
34
0
50
0
100
AcDbRotatedDimension
1001
ACAD
1000
DSTYLE
1002
{
1070
   279
1070
     0
1070
   172
1070
     1
1070
   173
1070
     1
1070
   340
1005
DC
1070
   271
1070
     2
1070
   272
1070
     2
1070
    77
1070
     1
1070
    73
1070
     0
1070
   171
1070
     3
1070
   274
1070
     4
1070
   177
1070
    35
1070
   176
1070
    35
1070
   178
1070
    35
1070
    48
1040
-0.005
1070
    41
1041
3.5
1070
   147
1041
1.75
1070
    42
1041
1.5875
1070
    44
1041
2.0
1070
   140
1041
3.5
1070
   343
1005
0
1070
   344
1005
0
1002
}
0
DIMENSION
5
110
100
AcDbEntity
8
SK2
62
256
6
ByLayer
370
13
48
1
60
0
100
AcDbDimension
2
DimnDraft3D5
10
29.22
20
-21.343428
30
0
11
-5.519324
21
-21.343428
31
0
70
32
71
5
72
1
41
1
210
0
220
0
230
1
3
Standard
100
AcDbAlignedDimension
13
-36
23
-4.5875
33
0
14
29.22
24
-3.8875
34
0
50
0
100
AcDbRotatedDimension
1001
ACAD
1000
DSTYLE
1002
{
1070
   279
1070
     0
1070
   172
1070
     1
1070
   173
1070
     1
1070
   340
1005
DC
1070
   271
1070
     2
1070
   272
1070
     2
1070
    77
1070
     1
1070
    73
1070
     0
1070
   171
1070
     3
1070
   274
1070
     4
1070
   177
1070
    35
1070
   176
1070
    35
1070
   178
1070
    35
1070
    48
1040
-0.005
1070
    41
1041
3.5
1070
   147
1041
1.75
1070
    42
1041
1.5875
1070
    44
1041
2.0
1070
   140
1041
3.5
1070
   343
1005
0
1070
   344
1005
0
1002
}
0
DIMENSION
5
11B
100
AcDbEntity
8
SK2
62
256
6
ByLayer
370
13
48
1
60
0
100
AcDbDimension
2
DimnDraft3D6
10
-46.625163
20
3
30
0
11
-47.250163
21
21.47418
31
0
70
33
71
5
72
1
41
1
210
0
220
0
230
1
3
Standard
100
AcDbAlignedDimension
13
-37.5875
23
-3
33
0
14
-37.5875
24
3
34
0
1001
ACAD
1000
DSTYLE
1002
{
1070
   279
1070
     0
1070
    74
1070
     0
1070
   173
1070
     1
1070
   340
1005
DC
1070
   271
1070
     3
1070
   272
1070
     2
1070
    77
1070
     1
1070
    73
1070
     0
1070
   171
1070
     3
1070
   274
1070
     4
1070
   177
1070
    35
1070
   176
1070
    35
1070
   178
1070
    35
1070
    48
1040
-0.005
1070
    41
1041
3.5
1070
   147
1041
1.75
1070
    42
1041
1.5875
1070
    44
1041
2.0
1070
   140
1041
3.5
1070
   343
1005
0
1070
   344
1005
0
1002
}
0
DIMENSION
5
126
100
AcDbEntity
8
2
62
256
6
ByLayer
370
13
48
1
60
0
100
AcDbDimension
2
DimnDraft3D7
10
44.083343
20
2.3
30
0
11
39.458343
21
19.367266
31
0
70
33
71
5
72
1
41
1
210
0
220
0
230
1
3
Standard
100
AcDbAlignedDimension
13
30.8075
23
-2.3
33
0
14
30.8075
24
2.3
34
0
1001
ACAD
1000
DSTYLE
1002
{
1070
   279
1070
     0
1070
    74
1070
     0
1070
   173
1070
     1
1070
   340
1005
DC
1070
   271
1070
     3
1070
   272
1070
     2
1070
    77
1070
     1
1070
    73
1070
     0
1070
   171
1070
     3
1070
   274
1070
     4
1070
   177
1070
    35
1070
   176
1070
    35
1070
   178
1070
    35
1070
    48
1040
-0.005
1070
    41
1041
3.5
1070
   147
1041
1.75
1070
    42
1041
1.5875
1070
    44
1041
2.0
1070
   140
1041
3.5
1070
   343
1005
0
1070
   344
1005
0
1002
}
0
ENDSEC
0
SECTION
2
OBJECTS
0
DICTIONARY
5
191
330
0
100
AcDbDictionary
280
0
281
1
3
ACAD_GROUP
350
192
3
ACAD_MLINESTYLE
350
193
0
DICTIONARY
5
192
330
0
100
AcDbDictionary
280
0
281
1
0
DICTIONARY
5
193
330
0
100
AcDbDictionary
280
0
281
1
3
Standard
350
18
0
MLINESTYLE
5
18
330
193
100
AcDbMlineStyle
2
Standard
70
0
3

62
256
51
90
52
90
71
2
49
-0.5
62
256
6
ByLayer
49
0.5
62
256
6
ByLayer
0
RASTERVARIABLES
5
17f
330

100
AcDbRasterVariables
90
0
70
1
71
1
72
1
0
ENDSEC
0
EOF
