0
SECTION
2
HEADER
9
$ACADVER
1
AC1015
9
$DWGCODEPAGE
3
ANSI_1252
9
$HANDSEED
5
1a2
9
$ANGBASE
50
0
9
$ANGDIR
70
0
9
$ATTMODE
70
1
9
$AUNITS
70
0
9
$AUPREC
70
0
9
$CECOLOR
62
256
9
$CELTSCALE
40
1
9
$CELTYPE
6
ByLayer
9
$CELWEIGHT
370
18
9
$CLAYER
8
0
9
$CMLJUST
70
0
9
$CMLSCALE
40
1
9
$CMLSTYLE
2
Standard
9
$DIMSTYLE
2
Standard
9
$TEXTSIZE
40
0.2
9
$TEXTSTYLE
7
Standard
9
$LUNITS
70
2
9
$LUPREC
70
4
9
$EXTNAMES
290
1
9
$INSUNITS
70
4
9
$LTSCALE
40
1
9
$LWDISPLAY
290
1
9
$PDMODE
70
0
9
$PDSIZE
40
0
9
$PLINEGEN
70
0
0
ENDSEC
0
SECTION
2
CLASSES
0
CLASS
1
RASTERVARIABLES
2
AcDbRasterVariables
3
ISM
90
0
280
0
281
0
0
ENDSEC
0
SECTION
2
TABLES
0
TABLE
2
VPORT
5
198
100
AcDbSymbolTable
0
VPORT
5
1
100
AcDbSymbolTableRecord
100
AcDbViewportTableRecord
2
*Active
70
0
10
0
20
0
11
1
21
1
12
-1
22
1
13
0
23
0
14
0.5
24
0.5
15
10
25
10
16
0
26
0
36
1
17
0
27
0
37
0
0
ENDTAB
0
TABLE
2
LTYPE
5
199
100
AcDbSymbolTable
0
LTYPE
5
14
100
AcDbSymbolTableRecord
100
AcDbLinetypeTableRecord
70
0
2
ByBlock
3

72
65
73
0
40
0
0
LTYPE
5
15
100
AcDbSymbolTableRecord
100
AcDbLinetypeTableRecord
70
0
2
ByLayer
3

72
65
73
0
40
0
0
LTYPE
5
16
100
AcDbSymbolTableRecord
100
AcDbLinetypeTableRecord
70
0
2
CONTINUOUS
3
Solid line
72
65
73
0
40
0
0
LTYPE
5
6A
100
AcDbSymbolTableRecord
100
AcDbLinetypeTableRecord
70
0
2
CENTER
3
____ _ ____ _ ____ _ ____
72
65
73
4
40
47.5
49
22
74
0
49
-8.5
74
0
49
8.5
74
0
49
-8.5
74
0
0
LTYPE
5
6B
100
AcDbSymbolTableRecord
100
AcDbLinetypeTableRecord
70
0
2
DASHED
3
__ __ __ __ __ __ __ __ __
72
65
73
2
40
25.72
49
12.86
74
0
49
-12.86
74
0
0
ENDTAB
0
TABLE
2
LAYER
5
19a
100
AcDbSymbolTable
0
LAYER
5
10
100
AcDbSymbolTableRecord
100
AcDbLayerTableRecord
2
0
70
0
62
7
6
CONTINUOUS
290
1
370
-3
390
0
0
LAYER
5
6D
100
AcDbSymbolTableRecord
100
AcDbLayerTableRecord
2
81
70
0
62
-3
6
CONTINUOUS
290
1
370
-3
390
0
0
LAYER
5
6F
100
AcDbSymbolTableRecord
100
AcDbLayerTableRecord
2
80
70
0
62
-6
6
CONTINUOUS
290
1
370
-3
390
0
0
LAYER
5
74
100
AcDbSymbolTableRecord
100
AcDbLayerTableRecord
2
2
70
0
62
7
6
CONTINUOUS
290
1
370
-3
390
0
0
LAYER
5
78
100
AcDbSymbolTableRecord
100
AcDbLayerTableRecord
2
1
70
0
62
4
6
CONTINUOUS
290
1
370
-3
390
0
0
LAYER
5
88
100
AcDbSymbolTableRecord
100
AcDbLayerTableRecord
2
4
70
0
62
-2
6
CENTER
290
1
370
-3
390
0
0
LAYER
5
184
100
AcDbSymbolTableRecord
100
AcDbLayerTableRecord
2
SK2
70
0
62
7
6
CONTINUOUS
290
1
370
-3
390
0
0
LAYER
5
185
100
AcDbSymbolTableRecord
100
AcDbLayerTableRecord
2
SK1
70
0
62
4
6
CONTINUOUS
290
1
370
-3
390
0
0
LAYER
5
186
100
AcDbSymbolTableRecord
100
AcDbLayerTableRecord
2
SK4
70
0
62
2
6
CENTER
290
1
370
-3
390
0
0
LAYER
5
187
100
AcDbSymbolTableRecord
100
AcDbLayerTableRecord
2
SK6
70
0
62
5
6
CONTINUOUS
290
1
370
-3
390
0
0
ENDTAB
0
TABLE
2
STYLE
5
19b
100
AcDbSymbolTable
0
STYLE
5
11
100
AcDbSymbolTableRecord
100
AcDbTextStyleTableRecord
2
Standard
3
txt
70
0
71
0
40
0
41
1
42
0
50
0
0
STYLE
5
E0
100
AcDbSymbolTableRecord
100
AcDbTextStyleTableRecord
2
iso_b_vert
3
simplex.shx
70
0
71
0
40
0
41
1
42
0
50
0
0
STYLE
5
E1
100
AcDbSymbolTableRecord
100
AcDbTextStyleTableRecord
2
DWGDirectTextStyle
3
simplex
70
0
71
0
40
0
41
1
42
0
50
0
0
ENDTAB
0
TABLE
2
DIMSTYLE
5
19c
100
AcDbSymbolTable
100
AcDbDimStyleTable
0
DIMSTYLE
105
27
100
AcDbSymbolTableRecord
100
AcDbDimStyleTableRecord
2
Standard
70
0
3
<>
41
0.18
42
0.0625
44
0.18
140
0.18
147
0.09
73
0
74
0
77
1
271
2
275
0
278
52
280
0
340
11
0
ENDTAB
0
TABLE
2
VIEW
5
19d
100
AcDbSymbolTable
0
ENDTAB
0
TABLE
2
UCS
5
19e
100
AcDbSymbolTable
0
ENDTAB
0
TABLE
2
APPID
5
19f
100
AcDbSymbolTable
0
APPID
5
12
100
AcDbSymbolTableRecord
100
AcDbRegAppTableRecord
2
ACAD
70
0
0
ENDTAB
0
TABLE
2
BLOCK_RECORD
5
1a0
100
AcDbSymbolTable
0
BLOCK_RECORD
5
1F
100
AcDbSymbolTableRecord
100
AcDbBlockTableRecord
2
*Model_Space
340
0
70
0
0
BLOCK_RECORD
5
1B
100
AcDbSymbolTableRecord
100
AcDbBlockTableRecord
2
*Paper_Space
340
0
70
0
0
BLOCK_RECORD
5
23
100
AcDbSymbolTableRecord
100
AcDbBlockTableRecord
2
*Paper_Space0
340
0
70
0
0
BLOCK_RECORD
5
E3
100
AcDbSymbolTableRecord
100
AcDbBlockTableRecord
2
DimnDraft3D1
340
0
70
0
0
BLOCK_RECORD
5
ED
100
AcDbSymbolTableRecord
100
AcDbBlockTableRecord
2
DimnDraft3D2
340
0
70
0
0
BLOCK_RECORD
5
F7
100
AcDbSymbolTableRecord
100
AcDbBlockTableRecord
2
DimnDraft3D3
340
0
70
0
0
BLOCK_RECORD
5
101
100
AcDbSymbolTableRecord
100
AcDbBlockTableRecord
2
DimnDraft3D4
340
0
70
0
0
BLOCK_RECORD
5
10B
100
AcDbSymbolTableRecord
100
AcDbBlockTableRecord
2
DimnDraft3D5
340
0
70
0
0
BLOCK_RECORD
5
115
100
AcDbSymbolTableRecord
100
AcDbBlockTableRecord
2
DimnDraft3D6
340
0
70
0
0
BLOCK_RECORD
5
120
100
AcDbSymbolTableRecord
100
AcDbBlockTableRecord
2
DimnDraft3D7
340
0
70
0
0
ENDTAB
0
ENDSEC
0
SECTION
2
BLOCKS
0
BLOCK
5
20
100
AcDbEntity
8
0
100
AcDbBlockBegin
2
*Model_Space
70
0
10
0
20
0
30
0
3
*Model_Space
0
ENDBLK
5
21
100
AcDbEntity
8
0
100
AcDbBlockEnd
0
BLOCK
5
1C
100
AcDbEntity
8
0
100
AcDbBlockBegin
2
*Paper_Space
70
0
10
0
20
0
30
0
3
*Paper_Space
0
ENDBLK
5
1D
100
AcDbEntity
8
0
100
AcDbBlockEnd
0
BLOCK
5
24
100
AcDbEntity
8
0
100
AcDbBlockBegin
2
*Paper_Space0
70
0
10
0
20
0
30
0
3
*Paper_Space0
0
ENDBLK
5
25
100
AcDbEntity
8
0
100
AcDbBlockEnd
0
BLOCK
5
EA
100
AcDbEntity
8
0
100
AcDbBlockBegin
2
DimnDraft3D1
70
0
10
0
20
0
30
0
3
DimnDraft3D1
0
MTEXT
5
E4
100
AcDbEntity
8
SK2
62
256
6
ByLayer
370
13
48
1
60
0
100
AcDbMText
10
13.061375
20
-11.538398
30
0
210
0
220
0
230
1
1
\W0.7317;37,26
40
3.5
41
0
44
1.084337
50
0
71
7
72
5
7
iso_b_vert
0
LINE
5
E5
100
AcDbEntity
8
SK2
62
256
6
ByLayer
370
13
48
1
60
0
100
AcDbLine
10
0
20
-1.5875
30
0
11
0
21
-14.413398
31
0
39
0
210
0
220
0
230
1
0
LINE
5
E6
100
AcDbEntity
8
SK2
62
256
6
ByLayer
370
13
48
1
60
0
100
AcDbLine
10
37.26
20
-3.7875
30
0
11
37.26
21
-14.413398
31
0
39
0
210
0
220
0
230
1
0
LINE
5
E7
100
AcDbEntity
8
SK2
62
256
6
ByLayer
370
13
48
1
60
0
100
AcDbLine
10
0
20
-12.413398
30
0
11
37.26
21
-12.413398
31
0
39
0
210
0
220
0
230
1
0
SOLID
5
E8
100
AcDbEntity
8
SK2
62
256
6
ByLayer
370
13
48
1
60
0
100
AcDbTrace
10
0
20
-12.413398
30
0
11
3.499998
21
-11.952615
31
0
12
3.500002
22
-12.874182
32
0
13
0
23
-12.413398
33
0
39
0
210
0
220
0
230
1
0
SOLID
5
E9
100
AcDbEntity
8
SK2
62
256
6
ByLayer
370
13
48
1
60
0
100
AcDbTrace
10
37.26
20
-12.413398
30
0
11
33.760002
21
-12.874182
31
0
12
33.759998
22
-11.952615
32
0
13
37.26
23
-12.413398
33
0
39
0
210
0
220
0
230
1
0
ENDBLK
5
EB
100
AcDbEntity
8
0
100
AcDbBlockEnd
0
BLOCK
5
F4
100
AcDbEntity
8
0
100
AcDbBlockBegin
2
DimnDraft3D2
70
0
10
0
20
0
30
0
3
DimnDraft3D2
0
MTEXT
5
EE
100
AcDbEntity
8
SK2
62
256
6
ByLayer
370
13
48
1
60
0
100
AcDbMText
10
-3.031595
20
-30.817985
30
0
210
0
220
0
230
1
1
\W0.7581;74,00
40
3.5
41
0
44
1.084337
50
0
71
7
72
5
7
iso_b_vert
0
LINE
5
EF
100
AcDbEntity
8
SK2
62
256
6
ByLayer
370
13
48
1
60
0
100
AcDbLine
10
-36
20
-4.5875
30
0
11
-36
21
-33.692985
31
0
39
0
210
0
220
0
230
1
0
LINE
5
F0
100
AcDbEntity
8
SK2
62
256
6
ByLayer
370
13
48
1
60
0
100
AcDbLine
10
38
20
-1.5875
30
0
11
38
21
-33.692985
31
0
39
0
210
0
220
0
230
1
0
LINE
5
F1
100
AcDbEntity
8
SK2
62
256
6
ByLayer
370
13
48
1
60
0
100
AcDbLine
10
-36
20
-31.692985
30
0
11
38
21
-31.692985
31
0
39
0
210
0
220
0
230
1
0
SOLID
5
F2
100
AcDbEntity
8
SK2
62
256
6
ByLayer
370
13
48
1
60
0
100
AcDbTrace
10
-36
20
-31.692985
30
0
11
-32.500002
21
-31.232202
31
0
12
-32.499998
22
-32.153769
32
0
13
-36
23
-31.692985
33
0
39
0
210
0
220
0
230
1
0
SOLID
5
F3
100
AcDbEntity
8
SK2
62
256
6
ByLayer
370
13
48
1
60
0
100
AcDbTrace
10
38
20
-31.692985
30
0
11
34.500002
21
-32.153769
31
0
12
34.499998
22
-31.232202
32
0
13
38
23
-31.692985
33
0
39
0
210
0
220
0
230
1
0
ENDBLK
5
F5
100
AcDbEntity
8
0
100
AcDbBlockEnd
0
BLOCK
5
FE
100
AcDbEntity
8
0
100
AcDbBlockBegin
2
DimnDraft3D3
70
0
10
0
20
0
30
0
3
DimnDraft3D3
0
MTEXT
5
F8
100
AcDbEntity
8
SK2
62
256
6
ByLayer
370
13
48
1
60
0
100
AcDbMText
10
21.997105
20
14.684119
30
0
210
0
220
0
230
1
1
\W0.7495;22,74
40
3.5
41
0
44
1.084337
50
0
71
7
72
5
7
iso_b_vert
0
LINE
5
F9
100
AcDbEntity
8
SK2
62
256
6
ByLayer
370
13
48
1
60
0
100
AcDbLine
10
15.26
20
3.7875
30
0
11
15.26
21
15.809119
31
0
39
0
210
0
220
0
230
1
0
LINE
5
FA
100
AcDbEntity
8
SK2
62
256
6
ByLayer
370
13
48
1
60
0
100
AcDbLine
10
38
20
1.5875
30
0
11
38
21
15.809119
31
0
39
0
210
0
220
0
230
1
0
LINE
5
FB
100
AcDbEntity
8
SK2
62
256
6
ByLayer
370
13
48
1
60
0
100
AcDbLine
10
15.26
20
13.809119
30
0
11
38
21
13.809119
31
0
39
0
210
0
220
0
230
1
0
SOLID
5
FC
100
AcDbEntity
8
SK2
62
256
6
ByLayer
370
13
48
1
60
0
100
AcDbTrace
10
15.26
20
13.809119
30
0
11
18.759998
21
14.269903
31
0
12
18.760002
22
13.348335
32
0
13
15.26
23
13.809119
33
0
39
0
210
0
220
0
230
1
0
SOLID
5
FD
100
AcDbEntity
8
SK2
62
256
6
ByLayer
370
13
48
1
60
0
100
AcDbTrace
10
38
20
13.809119
30
0
11
34.500002
21
13.348335
31
0
12
34.499998
22
14.269903
32
0
13
38
23
13.809119
33
0
39
0
210
0
220
0
230
1
0
ENDBLK
5
FF
100
AcDbEntity
8
0
100
AcDbBlockEnd
0
BLOCK
5
108
100
AcDbEntity
8
0
100
AcDbBlockBegin
2
DimnDraft3D4
70
0
10
0
20
0
30
0
3
DimnDraft3D4
0
MTEXT
5
102
100
AcDbEntity
8
SK2
62
256
6
ByLayer
370
13
48
1
60
0
100
AcDbMText
10
44.656425
20
-14.127503
30
0
210
0
220
0
230
1
1
\W0.7383;0,74
40
3.5
41
0
44
1.084337
50
0
71
7
72
5
7
iso_b_vert
0
LINE
5
103
100
AcDbEntity
8
SK2
62
256
6
ByLayer
370
13
48
1
60
0
100
AcDbLine
10
38
20
-1.5875
30
0
11
38
21
-17.002503
31
0
39
0
210
0
220
0
230
1
0
LINE
5
104
100
AcDbEntity
8
SK2
62
256
6
ByLayer
370
13
48
1
60
0
100
AcDbLine
10
37.26
20
-3.7875
30
0
11
37.26
21
-17.002503
31
0
39
0
210
0
220
0
230
1
0
LINE
5
105
100
AcDbEntity
8
SK2
62
256
6
ByLayer
370
13
48
1
60
0
100
AcDbLine
10
28.51
20
-15.002503
30
0
11
52.181425
21
-15.002503
31
0
39
0
210
0
220
0
230
1
0
SOLID
5
106
100
AcDbEntity
8
SK2
62
256
6
ByLayer
370
13
48
1
60
0
100
AcDbTrace
10
38
20
-15.002503
30
0
11
41.499998
21
-14.541719
31
0
12
41.500002
22
-15.463287
32
0
13
38
23
-15.002503
33
0
39
0
210
0
220
0
230
1
0
SOLID
5
107
100
AcDbEntity
8
SK2
62
256
6
ByLayer
370
13
48
1
60
0
100
AcDbTrace
10
37.26
20
-15.002503
30
0
11
33.760002
21
-15.463287
31
0
12
33.759998
22
-14.541719
32
0
13
37.26
23
-15.002503
33
0
39
0
210
0
220
0
230
1
0
ENDBLK
5
109
100
AcDbEntity
8
0
100
AcDbBlockEnd
0
BLOCK
5
112
100
AcDbEntity
8
0
100
AcDbBlockBegin
2
DimnDraft3D5
70
0
10
0
20
0
30
0
3
DimnDraft3D5
0
MTEXT
5
10C
100
AcDbEntity
8
SK2
62
256
6
ByLayer
370
13
48
1
60
0
100
AcDbMText
10
-5.928008
20
-20.468428
30
0
210
0
220
0
230
1
1
\W0.7317;73,26
40
3.5
41
0
44
1.084337
50
0
71
7
72
5
7
iso_b_vert
0
LINE
5
10D
100
AcDbEntity
8
SK2
62
256
6
ByLayer
370
13
48
1
60
0
100
AcDbLine
10
-36
20
-4.5875
30
0
11
-36
21
-23.343428
31
0
39
0
210
0
220
0
230
1
0
LINE
5
10E
100
AcDbEntity
8
SK2
62
256
6
ByLayer
370
13
48
1
60
0
100
AcDbLine
10
37.26
20
-3.7875
30
0
11
37.26
21
-23.343428
31
0
39
0
210
0
220
0
230
1
0
LINE
5
10F
100
AcDbEntity
8
SK2
62
256
6
ByLayer
370
13
48
1
60
0
100
AcDbLine
10
-36
20
-21.343428
30
0
11
37.26
21
-21.343428
31
0
39
0
210
0
220
0
230
1
0
SOLID
5
110
100
AcDbEntity
8
SK2
62
256
6
ByLayer
370
13
48
1
60
0
100
AcDbTrace
10
-36
20
-21.343428
30
0
11
-32.500002
21
-20.882645
31
0
12
-32.499998
22
-21.804212
32
0
13
-36
23
-21.343428
33
0
39
0
210
0
220
0
230
1
0
SOLID
5
111
100
AcDbEntity
8
SK2
62
256
6
ByLayer
370
13
48
1
60
0
100
AcDbTrace
10
37.26
20
-21.343428
30
0
11
33.760002
21
-21.804212
31
0
12
33.759998
22
-20.882645
32
0
13
37.26
23
-21.343428
33
0
39
0
210
0
220
0
230
1
0
ENDBLK
5
113
100
AcDbEntity
8
0
100
AcDbBlockEnd
0
BLOCK
5
11D
100
AcDbEntity
8
0
100
AcDbBlockBegin
2
DimnDraft3D6
70
0
10
0
20
0
30
0
3
DimnDraft3D6
0
MTEXT
5
116
100
AcDbEntity
8
SK2
62
256
6
ByLayer
370
13
48
1
60
0
100
AcDbMText
10
-46.375163
20
22.34918
30
0
210
0
220
0
230
1
1
\W0.7317;6,000
40
3.5
41
0
44
1.084337
50
90
71
7
72
5
7
iso_b_vert
0
MTEXT
5
117
100
AcDbEntity
8
SK2
62
256
6
ByLayer
370
13
48
1
60
0
100
AcDbMText
10
-46.375163
20
17.126524
30
0
210
0
220
0
230
1
1
%%c
40
3.5
41
0
44
1.084337
50
90
71
7
72
5
7
iso_b_vert
0
LINE
5
118
100
AcDbEntity
8
SK2
62
256
6
ByLayer
370
13
48
1
60
0
100
AcDbLine
10
-37.5875
20
-3
30
0
11
-46.625163
21
-3
31
0
39
0
210
0
220
0
230
1
0
LINE
5
119
100
AcDbEntity
8
SK2
62
256
6
ByLayer
370
13
48
1
60
0
100
AcDbLine
10
-37.5875
20
3
30
0
11
-46.625163
21
3
31
0
39
0
210
0
220
0
230
1
0
LINE
5
11A
100
AcDbEntity
8
SK2
62
256
6
ByLayer
370
13
48
1
60
0
100
AcDbLine
10
-44.625163
20
32.121549
30
0
11
-44.625163
21
-11.75
31
0
39
0
210
0
220
0
230
1
0
SOLID
5
11B
100
AcDbEntity
8
SK2
62
256
6
ByLayer
370
13
48
1
60
0
100
AcDbTrace
10
-44.625163
20
-3
30
0
11
-44.164379
21
-6.499998
31
0
12
-45.085946
22
-6.500002
32
0
13
-44.625163
23
-3
33
0
39
0
210
0
220
0
230
1
0
SOLID
5
11C
100
AcDbEntity
8
SK2
62
256
6
ByLayer
370
13
48
1
60
0
100
AcDbTrace
10
-44.625163
20
3
30
0
11
-45.085946
21
6.499998
31
0
12
-44.164379
22
6.500002
32
0
13
-44.625163
23
3
33
0
39
0
210
0
220
0
230
1
0
ENDBLK
5
11E
100
AcDbEntity
8
0
100
AcDbBlockEnd
0
BLOCK
5
128
100
AcDbEntity
8
0
100
AcDbBlockBegin
2
DimnDraft3D7
70
0
10
0
20
0
30
0
3
DimnDraft3D7
0
MTEXT
5
121
100
AcDbEntity
8
2
62
256
6
ByLayer
370
13
48
1
60
0
100
AcDbMText
10
48.333343
20
20.142266
30
0
210
0
220
0
230
1
1
\W0.7845;4,400
40
3.5
41
0
44
1.084337
50
90
71
7
72
5
7
iso_b_vert
0
MTEXT
5
122
100
AcDbEntity
8
2
62
256
6
ByLayer
370
13
48
1
60
0
100
AcDbMText
10
48.333343
20
14.91961
30
0
210
0
220
0
230
1
1
%%c
40
3.5
41
0
44
1.084337
50
90
71
7
72
5
7
iso_b_vert
0
LINE
5
123
100
AcDbEntity
8
2
62
256
6
ByLayer
370
13
48
1
60
0
100
AcDbLine
10
38.8475
20
-2.2
30
0
11
52.083343
21
-2.2
31
0
39
0
210
0
220
0
230
1
0
LINE
5
124
100
AcDbEntity
8
2
62
256
6
ByLayer
370
13
48
1
60
0
100
AcDbLine
10
38.8475
20
2.2
30
0
11
52.083343
21
2.2
31
0
39
0
210
0
220
0
230
1
0
LINE
5
125
100
AcDbEntity
8
2
62
256
6
ByLayer
370
13
48
1
60
0
100
AcDbLine
10
50.083343
20
30.651477
30
0
11
50.083343
21
-10.95
31
0
39
0
210
0
220
0
230
1
0
SOLID
5
126
100
AcDbEntity
8
2
62
256
6
ByLayer
370
13
48
1
60
0
100
AcDbTrace
10
50.083343
20
-2.2
30
0
11
50.544126
21
-5.699998
31
0
12
49.622559
22
-5.700002
32
0
13
50.083343
23
-2.2
33
0
39
0
210
0
220
0
230
1
0
SOLID
5
127
100
AcDbEntity
8
2
62
256
6
ByLayer
370
13
48
1
60
0
100
AcDbTrace
10
50.083343
20
2.2
30
0
11
49.622559
21
5.699998
31
0
12
50.544126
22
5.700002
32
0
13
50.083343
23
2.2
33
0
39
0
210
0
220
0
230
1
0
ENDBLK
5
129
100
AcDbEntity
8
0
100
AcDbBlockEnd
0
ENDSEC
0
SECTION
2
ENTITIES
0
ARC
5
9A
100
AcDbEntity
8
1
62
256
6
ByLayer
370
18
48
1
60
0
100
AcDbCircle
39
0
10
0
20
2.2
30
0
40
0.8
210
0
220
0
230
1
100
AcDbArc
50
29.113052
51
90
0
ARC
5
9B
100
AcDbEntity
8
1
62
256
6
ByLayer
370
18
48
1
60
0
100
AcDbCircle
39
0
10
-1.397858
20
-2.978455
30
0
40
0.799999999999995
210
0
220
0
230
-1
100
AcDbArc
50
29.113052
51
90.034377
0
ARC
5
9C
100
AcDbEntity
8
1
62
256
6
ByLayer
370
18
48
1
60
0
100
AcDbCircle
39
0
10
-1.397858
20
2.978455
30
0
40
0.799999999999995
210
0
220
0
230
-1
100
AcDbArc
50
269.965623
51
330.886948
0
ARC
5
9D
100
AcDbEntity
8
1
62
256
6
ByLayer
370
18
48
1
60
0
100
AcDbCircle
39
0
10
0
20
-2.2
30
0
40
0.8
210
0
220
0
230
1
100
AcDbArc
50
270
51
330.886948
0
ELLIPSE
5
9E
100
AcDbEntity
8
1
62
256
6
ByLayer
370
18
48
1
60
0
100
AcDbEllipse
10
37.556895
20
-1.105796
30
0
11
0.342659042792889
21
0.922896382611629
31
0
210
0
220
0
230
-1
40
0.131755
41
0.736518128024067
42
1.50868112646569
0
ELLIPSE
5
9F
100
AcDbEntity
8
1
62
256
6
ByLayer
370
18
48
1
60
0
100
AcDbEllipse
10
37.556895
20
1.105796
30
0
11
0.342659042808444
21
-0.922896382643954
31
0
210
0
220
0
230
-1
40
0.131755
41
-1.50868112644118
42
-0.736518128024584
0
ELLIPSE
5
A0
100
AcDbEntity
8
1
62
256
6
ByLayer
370
13
48
1
60
0
100
AcDbEllipse
10
4.169961
20
-2.187522
30
0
11
0.0513419295216681
21
-0.0858137883617317
31
0
210
0
220
0
230
1
40
0.480829
41
-3.09109251010187
42
-1.93711451928359
0
ELLIPSE
5
A1
100
AcDbEntity
8
1
62
256
6
ByLayer
370
18
48
1
60
0
100
AcDbEllipse
10
38.000204
20
-0.000481
30
0
11
0.816009257536251
21
-2.19778815764017
31
0
210
0
220
0
230
-1
40
0.131755
41
-2.96989288793116
42
-2.84192074287937
0
ELLIPSE
5
A2
100
AcDbEntity
8
1
62
256
6
ByLayer
370
13
48
1
60
0
100
AcDbEllipse
10
37.944221
20
1.105796
30
0
11
1.46846182944692
21
-0.632687255056717
31
0
210
0
220
0
230
-1
40
0.458583
41
1.60196617796286
42
1.91364107368894
0
ELLIPSE
5
A3
100
AcDbEntity
8
1
62
256
6
ByLayer
370
18
48
1
60
0
100
AcDbEllipse
10
38.058624
20
0.026801
30
0
11
0.135544944355573
21
0.427068209879326
31
0
210
0
220
0
230
-1
40
0.100282
41
-2.33653286886666
42
-1.71780982754983
0
ELLIPSE
5
A4
100
AcDbEntity
8
1
62
256
6
ByLayer
370
13
48
1
60
0
100
AcDbEllipse
10
4.250205
20
-2.166432
30
0
11
0.00198622489180299
21
0.0999802726075459
31
0
210
0
220
0
230
1
40
0.529377
41
0.0349251357887625
42
1.57281092648219
0
ELLIPSE
5
A5
100
AcDbEntity
8
1
62
256
6
ByLayer
370
13
48
1
60
0
100
AcDbEllipse
10
37.608458
20
0.240297
30
0
11
0.153082081612418
21
0.258003636193773
31
0
210
0
220
0
230
1
40
0.454519
41
0.917105603404822
42
2.31336900500028
0
ELLIPSE
5
A6
100
AcDbEntity
8
1
62
256
6
ByLayer
370
18
48
1
60
0
100
AcDbEllipse
10
38.000204
20
0.000481
30
0
11
0.816009263546
21
2.19778817560896
31
0
210
0
220
0
230
-1
40
0.131755
41
2.84192074412183
42
2.96989288864072
0
ELLIPSE
5
A7
100
AcDbEntity
8
1
62
256
6
ByLayer
370
18
48
1
60
0
100
AcDbEllipse
10
37.860945
20
0.090488
30
0
11
0.0727819104917045
21
0.301917195721181
31
0
210
0
220
0
230
-1
40
0.478434
41
1.68222083931279
42
2.45976119973366
0
ELLIPSE
5
A8
100
AcDbEntity
8
1
62
256
6
ByLayer
370
18
48
1
60
0
100
AcDbEllipse
10
38.058624
20
-0.026801
30
0
11
0.135544944378713
21
-0.427068209937057
31
0
210
0
220
0
230
-1
40
0.100282
41
1.71780982764041
42
2.33653286888652
0
ELLIPSE
5
A9
100
AcDbEntity
8
1
62
256
6
ByLayer
370
13
48
1
60
0
100
AcDbEllipse
10
37.754315
20
0.982598
30
0
11
1.40497399384095
21
-0.96736454712661
31
0
210
0
220
0
230
-1
40
0.533762
41
1.44484622739626
42
1.74352047884179
0
POINT
5
6C
100
AcDbEntity
8
81
62
256
6
ByLayer
370
18
48
1
60
0
100
AcDbPoint
10
38
20
0
30
0
39
0
210
0
220
0
230
1
50
360
0
POINT
5
6E
100
AcDbEntity
8
80
62
256
6
ByLayer
370
18
48
1
60
0
100
AcDbPoint
10
0
20
0
30
0
39
0
210
0
220
0
230
1
50
360
0
POINT
5
70
100
AcDbEntity
8
SK2
62
256
6
ByLayer
370
18
48
1
60
1
100
AcDbPoint
10
-36
20
-3
30
0
39
0
210
0
220
0
230
1
50
360
0
POINT
5
72
100
AcDbEntity
8
SK2
62
256
6
ByLayer
370
18
48
1
60
1
100
AcDbPoint
10
-36
20
3
30
0
39
0
210
0
220
0
230
1
50
360
0
POINT
5
73
100
AcDbEntity
8
2
62
256
6
ByLayer
370
18
48
1
60
1
100
AcDbPoint
10
37.26
20
-2.2
30
0
39
0
210
0
220
0
230
1
50
360
0
POINT
5
75
100
AcDbEntity
8
2
62
256
6
ByLayer
370
18
48
1
60
1
100
AcDbPoint
10
37.26
20
2.2
30
0
39
0
210
0
220
0
230
1
50
360
0
SPLINE
5
AA
100
AcDbEntity
8
1
62
256
6
ByLayer
370
18
48
1
60
0
100
AcDbSpline
70
4
71
3
72
21
73
17
40
0
40
0
40
0
40
0
40
0.112711634740474
40
0.185072481799791
40
0.243390836030026
40
0.301351067602518
40
0.359623560635375
40
0.422446324455437
40
0.496802886672105
40
0.591112086400945
40
0.680886691580318
40
0.750717059069986
40
0.796959034170174
40
0.842820074148927
40
0.911936864300383
40
1
40
1
40
1
40
1
41
1
10
15.2097223776063
20
-2.07375683396674
30
0
41
1
10
15.4131217578009
20
-2.07398482720748
30
0
41
1
10
15.7471190075708
20
-2.07426203027839
30
0
41
1
10
16.1864056338118
20
-2.07431545442532
30
0
41
1
10
16.5268783124929
20
-2.07438385019878
30
0
41
1
10
16.841948616711
20
-2.0754238483502
30
0
41
1
10
17.1651442929516
20
-2.07493686861483
30
0
41
1
10
17.5179379852476
20
-2.07471733222113
30
0
41
1
10
17.9357746828524
20
-2.07589634844496
30
0
41
1
10
18.4022569159412
20
-2.07711013603731
30
0
41
1
10
18.8605775103272
20
-2.07407453418529
30
0
41
1
10
19.2321211451326
20
-2.07816000009456
30
0
41
1
10
19.5244177577156
20
-2.0777497273082
30
0
41
1
10
19.8153787652243
20
-2.0762303294166
30
0
41
1
10
20.1818753327771
20
-2.07512996059379
30
0
41
1
10
20.4655478874756
20
-2.07646322405324
30
0
41
1
10
20.6244775783855
20
-2.07776912702781
30
0
0
SPLINE
5
AB
100
AcDbEntity
8
1
62
256
6
ByLayer
370
18
48
1
60
0
100
AcDbSpline
70
4
71
2
72
6
73
3
40
0
40
0
40
0
40
1
40
1
40
1
41
1
10
36.9474255772931
20
-2.08683885243516
30
0
41
1
10
37.0911389960614
20
-2.08535234015321
30
0
41
1
10
37.2348635949008
20
-2.0870910664697
30
0
0
SPLINE
5
AC
100
AcDbEntity
8
1
62
256
6
ByLayer
370
18
48
1
60
0
100
AcDbSpline
70
4
71
3
72
18
73
14
40
0
40
0
40
0
40
0
40
0.0913733972224515
40
0.160675399690544
40
0.208601014850101
40
0.365144536584717
40
0.510789613277044
40
0.580917639230555
40
0.646479661344162
40
0.709665444571939
40
0.77593104883948
40
0.87772594492673
40
1
40
1
40
1
40
1
41
1
10
4.44880613994755
20
-2.06629731841662
30
0
41
1
10
4.60992533086693
20
-2.06671374811913
30
0
41
1
10
4.89315769638276
20
-2.06729458897263
30
0
41
1
10
5.25989729034842
20
-2.06772449422184
30
0
41
1
10
5.7427405236696
20
-2.0679099125237
30
0
41
1
10
6.36080340198743
20
-2.06990225580461
30
0
41
1
10
7.01769387628616
20
-2.06733253043473
30
0
41
1
10
7.51419995615845
20
-2.06906722455824
30
0
41
1
10
7.86513411827335
20
-2.07002228412745
30
0
41
1
10
8.2092703426577
20
-2.06990564097302
30
0
41
1
10
8.61736455022208
20
-2.06845527139163
30
0
41
1
10
9.12972939281829
20
-2.07099924261286
30
0
41
1
10
9.52514029358898
20
-2.07094395336375
30
0
41
1
10
9.74091225095276
20
-2.07091824637914
30
0
0
SPLINE
5
AD
100
AcDbEntity
8
1
62
256
6
ByLayer
370
18
48
1
60
0
100
AcDbSpline
70
4
71
3
72
20
73
16
40
0
40
0
40
0
40
0
40
0.102729353496777
40
0.172432768571363
40
0.230255644931925
40
0.288620966242316
40
0.350708855965275
40
0.416700619381057
40
0.486561308842447
40
0.608666865277275
40
0.71857398928415
40
0.818401813876911
40
0.86442072463379
40
0.932714240949354
40
1
40
1
40
1
40
1
41
1
10
26.0955842861831
20
-2.08041673795239
30
0
41
1
10
26.2809341861229
20
-2.08058924965852
30
0
41
1
10
26.5920494309559
20
-2.08077322160273
30
0
41
1
10
27.0074995505118
20
-2.081319910746
30
0
41
1
10
27.3429059155939
20
-2.08082575372143
30
0
41
1
10
27.6645571075604
20
-2.0812262504401
30
0
41
1
10
28.0009661474934
20
-2.08236678474029
30
0
41
1
10
28.3580931875159
20
-2.08150075610161
30
0
41
1
10
28.8235405441427
20
-2.08218544138015
30
0
41
1
10
29.3681941019642
20
-2.08096937985354
30
0
41
1
10
29.9669798278547
20
-2.08409928014115
30
0
41
1
10
30.4283281068376
20
-2.08314229524376
30
0
41
1
10
30.8145654153994
20
-2.08251946794161
30
0
41
1
10
31.1423095080086
20
-2.08250447690486
30
0
41
1
10
31.3867980459968
20
-2.08310858131071
30
0
41
1
10
31.5081153776286
20
-2.08354666118774
30
0
0
SPLINE
5
AE
100
AcDbEntity
8
1
62
256
6
ByLayer
370
18
48
1
60
0
100
AcDbSpline
70
4
71
3
72
21
73
17
40
0
40
0
40
0
40
0
40
0.105744775047455
40
0.18860507093847
40
0.243585334549106
40
0.299022280201356
40
0.382738044483051
40
0.490363851935599
40
0.603425933921581
40
0.68218900539972
40
0.75026718135367
40
0.811592723949538
40
0.872516477540508
40
0.933358490697345
40
0.994837187566907
40
1
40
1
40
1
40
1
41
1
10
20.6252487620705
20
2.07777254613185
30
0
41
1
10
20.4660620257517
20
2.0764641030942
30
0
41
1
10
20.1821324178225
20
2.07512974729096
30
0
41
1
10
19.8153787667003
20
2.07623025645518
30
0
41
1
10
19.5244177574103
20
2.07774971682886
30
0
41
1
10
19.2321211451915
20
2.07816012773276
30
0
41
1
10
18.8605775108395
20
2.07407363600265
30
0
41
1
10
18.4022569131875
20
2.07711461112626
30
0
41
1
10
17.9514012403775
20
2.07592178585247
30
0
41
1
10
17.5600867323545
20
2.07487309578065
30
0
41
1
10
17.2466653284579
20
2.07477090229367
30
0
41
1
10
16.9601025416852
20
2.07537395923819
30
0
41
1
10
16.6844404265409
20
2.07489913249128
30
0
41
1
10
16.4085287470676
20
2.07429182530205
30
0
41
1
10
16.2166246163943
20
2.07433089774193
30
0
41
1
10
16.1162967282016
20
2.07431889472619
30
0
41
1
10
16.10852412711
20
2.07431777961213
30
0
0
SPLINE
5
AF
100
AcDbEntity
8
1
62
256
6
ByLayer
370
18
48
1
60
0
100
AcDbSpline
70
4
71
3
72
22
73
18
40
0
40
0
40
0
40
0
40
0.0915771617749856
40
0.171035877747703
40
0.222810132020683
40
0.274930336333561
40
0.329428094794936
40
0.392662951709564
40
0.466020942390749
40
0.542859467889421
40
0.688309951735906
40
0.805625781924814
40
0.841091363073688
40
0.875328590461575
40
0.91379858545238
40
0.974399304712703
40
1
40
1
40
1
40
1
41
1
10
9.74159217995418
20
2.07099892738393
30
0
41
1
10
9.60327426976235
20
2.07121402185595
30
0
41
1
10
9.34494108829307
20
2.07121685062549
30
0
41
1
10
9.0084043356093
20
2.06996325198682
30
0
41
1
10
8.73146398358736
20
2.06870858501173
30
0
41
1
10
8.49222524586747
20
2.06918125838052
30
0
41
1
10
8.2356754139455
20
2.06975726020974
30
0
41
1
10
7.94704987475589
20
2.06999617868817
30
0
41
1
10
7.62467683461895
20
2.0696379062191
30
0
41
1
10
7.17813052958124
20
2.06728161776601
30
0
41
1
10
6.66518242700658
20
2.06933380616311
30
0
41
1
10
6.21472555159517
20
2.06882665320808
30
0
41
1
10
5.93224387341218
20
2.06821646343028
30
0
41
1
10
5.76886514632611
20
2.06805872924886
30
0
41
1
10
5.56746857686261
20
2.06790644434358
30
0
41
1
10
5.37983997237117
20
2.06767650732922
30
0
41
1
10
5.25001725257124
20
2.06750040242289
30
0
41
1
10
5.21145317699811
20
2.06744691435344
30
0
0
SPLINE
5
B0
100
AcDbEntity
8
1
62
256
6
ByLayer
370
18
48
1
60
0
100
AcDbSpline
70
4
71
3
72
19
73
15
40
0
40
0
40
0
40
0
40
0.0810510303519731
40
0.163318614066596
40
0.218753811980254
40
0.339008183989837
40
0.471404259241038
40
0.618494783029533
40
0.702650211373852
40
0.782145062630613
40
0.856937238243314
40
0.927245141775609
40
0.996899606479136
40
1
40
1
40
1
40
1
41
1
10
31.5081037403744
20
2.08354663286013
30
0
41
1
10
31.3867902864424
20
2.08310856928497
30
0
41
1
10
31.1423056270343
20
2.08250447367252
30
0
41
1
10
30.8145654152315
20
2.08251946851519
30
0
41
1
10
30.4283281069241
20
2.08314229493988
30
0
41
1
10
29.966979827819
20
2.08409928025779
30
0
41
1
10
29.3681941019699
20
2.08096937981648
30
0
41
1
10
28.823540544134
20
2.08218544138566
30
0
41
1
10
28.3580931875099
20
2.08150075610058
30
0
41
1
10
28.0009661474899
20
2.0823667847406
30
0
41
1
10
27.6645571075591
20
2.08122625044001
30
0
41
1
10
27.3429059155937
20
2.08082575372146
30
0
41
1
10
27.1286223609863
20
2.08114145948852
30
0
41
1
10
27.0196483687639
20
2.08115806079246
30
0
41
1
10
27.0150045247549
20
2.08115851833929
30
0
0
SPLINE
5
B1
100
AcDbEntity
8
1
62
256
6
ByLayer
370
18
48
1
60
0
100
AcDbSpline
70
4
71
3
72
8
73
4
40
0
40
0
40
0
40
0
40
1
40
1
40
1
40
1
41
1
10
4.19727384645887
20
-2.16558163840452
30
0
41
1
10
4.52290309892044
20
-2.16400912977935
30
0
41
1
10
4.84577307060729
20
-2.13361477858004
30
0
41
1
10
5.16932678609547
20
-2.07592973324177
30
0
0
SPLINE
5
B2
100
AcDbEntity
8
1
62
256
6
ByLayer
370
18
48
1
60
0
100
AcDbSpline
70
4
71
3
72
26
73
22
40
0
40
0
40
0
40
0
40
0.0330831756450145
40
0.0330831756450145
40
0.216367281785511
40
0.216367281785511
40
0.308009334855758
40
0.308009334855758
40
0.399651387926005
40
0.399651387926005
40
0.582935494066499
40
0.582935494066499
40
0.674577547136746
40
0.674577547136746
40
0.766219600206993
40
0.766219600206993
40
0.85786165327724
40
0.85786165327724
40
0.949503706347487
40
0.949503706347487
40
1
40
1
40
1
40
1
41
1
10
17.4508304128252
20
1.6720669791759
30
0
41
1
10
17.5130497612981
20
1.64718051730148
30
0
41
1
10
17.5752035749528
20
1.6215102600685
30
0
41
1
10
17.9814062940676
20
1.44864993879003
30
0
41
1
10
18.324291125172
20
1.27915500483741
30
0
41
1
10
18.8429197814201
20
0.99752366968346
30
0
41
1
10
19.0170394090092
20
0.898929178353853
30
0
41
1
10
19.3628126793756
20
0.697381534898426
30
0
41
1
10
19.53494420122
20
0.594020824820802
30
0
41
1
10
20.0506526156839
20
0.278745294825797
30
0
41
1
10
20.3934332928989
20
0.0614645355744017
30
0
41
1
10
20.9131371866934
20
-0.263968762524826
30
0
41
1
10
21.0871261758616
20
-0.372159824085344
30
0
41
1
10
21.4337951995112
20
-0.584397975005828
30
0
41
1
10
21.606961141744
20
-0.688776061803509
30
0
41
1
10
21.954095896626
20
-0.892301691701221
30
0
41
1
10
22.1271055027131
20
-0.990618509759969
30
0
41
1
10
22.4712699976251
20
-1.17808021535706
30
0
41
1
10
22.6426260258411
20
-1.26750712318662
30
0
41
1
10
22.9082563620825
20
-1.3984407323002
30
0
41
1
10
23.0026023459563
20
-1.44342046953136
30
0
41
1
10
23.0970037862472
20
-1.48676447784717
30
0
0
SPLINE
5
B3
100
AcDbEntity
8
1
62
256
6
ByLayer
370
13
48
1
60
0
100
AcDbSpline
70
4
71
3
72
18
73
14
40
0
40
0
40
0
40
0
40
0.199777637533906
40
0.199777637533906
40
0.337651983910361
40
0.337651983910361
40
0.475526330286816
40
0.475526330286816
40
0.751275023039731
40
0.751275023039731
40
0.889149369416187
40
0.889149369416187
40
1
40
1
40
1
40
1
41
1
10
23.0970037859384
20
-1.48676447770535
30
0
41
1
10
23.3452469707429
20
-1.60074424998695
30
0
41
1
10
23.5938736413011
20
-1.70341282025626
30
0
41
1
10
24.0171242405368
20
-1.85475267742885
30
0
41
1
10
24.1911703780997
20
-1.91014735407157
30
0
41
1
10
24.5360892997871
20
-2.00522144227423
30
0
41
1
10
24.7076907711997
20
-2.04529026900647
30
0
41
1
10
25.2217956196355
20
-2.14265402619151
30
0
41
1
10
25.5634860120729
20
-2.17668535945896
30
0
41
1
10
26.0804678968538
20
-2.17952670759249
30
0
41
1
10
26.2543778288492
20
-2.17234487421013
30
0
41
1
10
26.5662974927782
20
-2.14476018453104
30
0
41
1
10
26.7047255775705
20
-2.12731957011627
30
0
41
1
10
26.842800807187
20
-2.10489898503411
30
0
0
SPLINE
5
B4
100
AcDbEntity
8
1
62
256
6
ByLayer
370
13
48
1
60
0
100
AcDbSpline
70
4
71
3
72
26
73
22
40
0
40
0
40
0
40
0
40
0.125
40
0.125
40
0.1875
40
0.1875
40
0.25
40
0.25
40
0.375
40
0.375
40
0.5
40
0.5
40
0.625
40
0.625
40
0.75
40
0.75
40
0.875
40
0.875
40
0.9375
40
0.9375
40
1
40
1
40
1
40
1
41
1
10
4.25034187614153
20
-2.0664756600184
30
0
41
1
10
4.25035173551987
20
-2.0624110754635
30
0
41
1
10
4.25034976616064
20
-2.04486479580262
30
0
41
1
10
4.25033690324145
20
-1.99869886349523
30
0
41
1
10
4.25033091265391
20
-1.97985655096107
30
0
41
1
10
4.25031707566549
20
-1.93604321790346
30
0
41
1
10
4.25030923977928
20
-1.91108837867168
30
0
41
1
10
4.25028490348487
20
-1.82730034698949
30
0
41
1
10
4.25026760186353
20
-1.75963166081968
30
0
41
1
10
4.25023982043302
20
-1.5997395402851
30
0
41
1
10
4.25022970913415
20
-1.5087518165133
30
0
41
1
10
4.25022361673336
20
-1.30878990768198
30
0
41
1
10
4.25022759257521
20
-1.20106473715597
30
0
41
1
10
4.25025170732172
20
-0.97051099038967
30
0
41
1
10
4.250272214717
20
-0.84632112217443
30
0
41
1
10
4.2503268337727
20
-0.591552876923174
30
0
41
1
10
4.25036085769457
20
-0.460445535727075
30
0
41
1
10
4.25041807905234
20
-0.258108424166522
30
0
41
1
10
4.25043816184723
20
-0.189736671894337
30
0
41
1
10
4.25047875646808
20
-0.0532295648321224
30
0
41
1
10
4.25049935071928
20
0.0151963745863952
30
0
41
1
10
4.25051965235309
20
0.0837279384925012
30
0
0
SPLINE
5
B5
100
AcDbEntity
8
1
62
256
6
ByLayer
370
18
48
1
60
0
100
AcDbSpline
70
4
71
3
72
8
73
4
40
0
40
0
40
0
40
0
40
1
40
1
40
1
40
1
41
1
10
4.13271341720113
20
-2.18000336159298
30
0
41
1
10
4.12606806548882
20
-2.17996091904632
30
0
41
1
10
4.11948731679587
20
-2.1799057065123
30
0
41
1
10
4.11304687799085
20
-2.1798339075265
30
0
0
SPLINE
5
B6
100
AcDbEntity
8
1
62
256
6
ByLayer
370
18
48
1
60
0
100
AcDbSpline
70
4
71
3
72
26
73
22
40
0
40
0
40
0
40
0
40
0.250000000000003
40
0.250000000000003
40
0.500000000000006
40
0.500000000000006
40
0.625000000000015
40
0.625000000000015
40
0.687500000000012
40
0.687500000000012
40
0.75000000000001
40
0.75000000000001
40
0.812500000000007
40
0.812500000000007
40
0.875000000000005
40
0.875000000000005
40
0.937500000000003
40
0.937500000000003
40
0.968750000000001
40
0.968750000000001
40
1
40
1
40
1
40
1
41
1
10
35.3688494340623
20
0.92342264455425
30
0
41
1
10
35.5109437322054
20
0.790302538326387
30
0
41
1
10
35.6589305243703
20
0.668385922044934
30
0
41
1
10
35.9629123683655
20
0.455186326286054
30
0
41
1
10
36.1160667173269
20
0.365534702686006
30
0
41
1
10
36.347865854452
20
0.26117714428392
30
0
41
1
10
36.4254803236268
20
0.231462080131251
30
0
41
1
10
36.5425254733126
20
0.19597150666317
30
0
41
1
10
36.5813755255947
20
0.185750950321761
30
0
41
1
10
36.6584748714306
20
0.168819177128597
30
0
41
1
10
36.6969813857012
20
0.161400111765346
30
0
41
1
10
36.7719351362906
20
0.154889033084317
30
0
41
1
10
36.808223597144
20
0.155361905987291
30
0
41
1
10
36.87602189957
20
0.167674962521517
30
0
41
1
10
36.9079886420666
20
0.18044156815526
30
0
41
1
10
36.9596384410327
20
0.222476527266195
30
0
41
1
10
36.9796688434807
20
0.252090277763955
30
0
41
1
10
36.9974972127594
20
0.305717978681145
30
0
41
1
10
37.0015550062512
20
0.325418521218779
30
0
41
1
10
37.0056614092107
20
0.366389092579567
30
0
41
1
10
37.0057805651281
20
0.38782177115786
30
0
41
1
10
37.0041875623322
20
0.410093151283235
30
0
0
SPLINE
5
B7
100
AcDbEntity
8
1
62
256
6
ByLayer
370
18
48
1
60
0
100
AcDbSpline
70
4
71
3
72
8
73
4
40
0
40
0
40
0
40
0
40
1
40
1
40
1
40
1
41
1
10
37.2456691918305
20
-2.18336034504867
30
0
41
1
10
37.2475728225664
20
-2.17837896771061
30
0
41
1
10
37.2494756534632
20
-2.17339622212543
30
0
41
1
10
37.2513776693818
20
-2.16841214912236
30
0
0
SPLINE
5
B8
100
AcDbEntity
8
1
62
256
6
ByLayer
370
18
48
1
60
0
100
AcDbSpline
70
4
71
3
72
66
73
62
40
0
40
0
40
0
40
0
40
0.0258563797316295
40
0.0258563797316295
40
0.0608446721243298
40
0.0608446721243298
40
0.09583296451703
40
0.09583296451703
40
0.13082125690973
40
0.13082125690973
40
0.16580954930243
40
0.16580954930243
40
0.200797841695131
40
0.200797841695131
40
0.235786134087831
40
0.235786134087831
40
0.270774426480531
40
0.270774426480531
40
0.305762718873231
40
0.305762718873231
40
0.340751011265932
40
0.340751011265932
40
0.375739303658632
40
0.375739303658632
40
0.410727596051332
40
0.410727596051332
40
0.445715888444032
40
0.445715888444032
40
0.480704180836733
40
0.480704180836733
40
0.515692473229433
40
0.515692473229433
40
0.550680765622133
40
0.550680765622133
40
0.568174911818484
40
0.568174911818484
40
0.585669058014835
40
0.585669058014835
40
0.620657350407538
40
0.620657350407538
40
0.655645642800241
40
0.655645642800241
40
0.690633935192943
40
0.690633935192943
40
0.725622227585646
40
0.725622227585646
40
0.760610519978349
40
0.760610519978349
40
0.795598812371051
40
0.795598812371051
40
0.830587104763754
40
0.830587104763754
40
0.865575397156456
40
0.865575397156456
40
0.900563689549159
40
0.900563689549159
40
0.935551981941862
40
0.935551981941862
40
0.970540274334564
40
0.970540274334564
40
1
40
1
40
1
40
1
41
1
10
33.8497182777502
20
-1.62974985650339
30
0
41
1
10
33.7348925284422
20
-1.67244512114041
30
0
41
1
10
33.620274740284
20
-1.71230661810191
30
0
41
1
10
33.3508214979112
20
-1.80014335775928
30
0
41
1
10
33.1957499515753
20
-1.84551785166303
30
0
41
1
10
32.884784960252
20
-1.92545428181205
30
0
41
1
10
32.7291880827286
20
-1.96016072940662
30
0
41
1
10
32.4206472032855
20
-2.01657767194132
30
0
41
1
10
32.26691782077
20
-2.03776886488529
30
0
41
1
10
31.9595847628358
20
-2.06876047957979
30
0
41
1
10
31.806084635571
20
-2.07860016540386
30
0
41
1
10
31.499497939673
20
-2.0857953708861
30
0
41
1
10
31.3459994705063
20
-2.08278757612686
30
0
41
1
10
31.0377113650651
20
-2.06483162109015
30
0
41
1
10
30.8830205967675
20
-2.05027152287678
30
0
41
1
10
30.5727093520496
20
-2.00856202668902
30
0
41
1
10
30.4175051248085
20
-1.98163184824537
30
0
41
1
10
30.1074762799236
20
-1.91607614836988
30
0
41
1
10
29.9524201105608
20
-1.87733977257173
30
0
41
1
10
29.6423120572566
20
-1.78703325288788
30
0
41
1
10
29.4868380776927
20
-1.73651271749949
30
0
41
1
10
29.1764130008663
20
-1.62733399060153
30
0
41
1
10
29.0213315059126
20
-1.56811016718049
30
0
41
1
10
28.7114650738266
20
-1.43841833905498
30
0
41
1
10
28.5564416435955
20
-1.36868420052468
30
0
41
1
10
28.2455883332892
20
-1.22289448099912
30
0
41
1
10
28.0908541041358
20
-1.14689018612773
30
0
41
1
10
27.7829447360111
20
-0.987844936486454
30
0
41
1
10
27.6297561851738
20
-0.904599232320123
30
0
41
1
10
27.3230392986149
20
-0.735277189326212
30
0
41
1
10
27.1696742349696
20
-0.648854479902013
30
0
41
1
10
26.8629011408016
20
-0.471626826170933
30
0
41
1
10
26.7095457409578
20
-0.380484336549642
30
0
41
1
10
26.4782848788412
20
-0.242893086122052
30
0
41
1
10
26.4010440429662
20
-0.196820304657479
30
0
41
1
10
26.2460834049485
20
-0.104271830283096
30
0
41
1
10
26.1682365659846
20
-0.0577342092527715
30
0
41
1
10
25.9350690105319
20
0.0819434820270999
30
0
41
1
10
25.7807138602293
20
0.175369875901566
30
0
41
1
10
25.472614726474
20
0.359132610358273
30
0
41
1
10
25.318895075729
20
0.449514147770344
30
0
41
1
10
25.0117436751343
20
0.626718289884622
30
0
41
1
10
24.8586074858486
20
0.714393840940289
30
0
41
1
10
24.55162036879
20
0.885174815320511
30
0
41
1
10
24.3977479559442
20
0.968082076970717
30
0
41
1
10
24.0885419575388
20
1.12717026165359
30
0
41
1
10
23.9332190540041
20
1.20437568381769
30
0
41
1
10
23.6225109731085
20
1.3519450089909
30
0
41
1
10
23.4673568660255
20
1.42155816182483
30
0
41
1
10
23.1570443116723
20
1.55128986396571
30
0
41
1
10
23.0021208543913
20
1.61163314216506
30
0
41
1
10
22.6915645797225
20
1.7236909210273
30
0
41
1
10
22.5359590740123
20
1.77457918314693
30
0
41
1
10
22.2255597694083
20
1.86363646884192
30
0
41
1
10
22.0706651926777
20
1.90165360025185
30
0
41
1
10
21.7605802889316
20
1.9687736497562
30
0
41
1
10
21.6048070101492
20
1.99742989108407
30
0
41
1
10
21.2946623312307
20
2.0420287875815
30
0
41
1
10
21.1405117049729
20
2.05831160651252
30
0
41
1
10
20.8574609566242
20
2.07589956577161
30
0
41
1
10
20.7282135047821
20
2.07874560736474
30
0
41
1
10
20.5988953240492
20
2.07718920888172
30
0
0
SPLINE
5
B9
100
AcDbEntity
8
1
62
256
6
ByLayer
370
18
48
1
60
0
100
AcDbSpline
70
4
71
3
72
34
73
30
40
0
40
0
40
0
40
0
40
0.0530333844019131
40
0.0530333844019131
40
0.125876970217151
40
0.125876970217151
40
0.198720556032388
40
0.198720556032388
40
0.271564141847626
40
0.271564141847626
40
0.344407727662863
40
0.344407727662863
40
0.4172513134781
40
0.4172513134781
40
0.490094899293338
40
0.490094899293338
40
0.562938485108575
40
0.562938485108575
40
0.635782070923813
40
0.635782070923813
40
0.70862565673905
40
0.70862565673905
40
0.781469242554288
40
0.781469242554288
40
0.854312828369525
40
0.854312828369525
40
0.927156414184762
40
0.927156414184762
40
1
40
1
40
1
40
1
41
1
10
12.0841800301209
20
-1.61785342087831
30
0
41
1
10
11.972343664986
20
-1.65937032370854
30
0
41
1
10
11.8602142143568
20
-1.69819531897272
30
0
41
1
10
11.5934249813101
20
-1.7849526623904
30
0
41
1
10
11.4382193866508
20
-1.83019561306546
30
0
41
1
10
11.1281486655309
20
-1.91020372740431
30
0
41
1
10
10.9732641006838
20
-1.94478309397374
30
0
41
1
10
10.6634788019797
20
-2.00158141297573
30
0
41
1
10
10.5087284983206
20
-2.02257944195858
30
0
41
1
10
10.198270466145
20
-2.05419198473584
30
0
41
1
10
10.0430048898177
20
-2.06480947237637
30
0
41
1
10
9.73302282350753
20
-2.07342317849844
30
0
41
1
10
9.57840642625422
20
-2.07113272875628
30
0
41
1
10
9.26852725648951
20
-2.05343671826728
30
0
41
1
10
9.11290496310062
20
-2.03831691122062
30
0
41
1
10
8.80243444723101
20
-1.99529378406885
30
0
41
1
10
8.64762254632953
20
-1.96858232122827
30
0
41
1
10
8.33799084262319
20
-1.90374909810976
30
0
41
1
10
8.18272454745585
20
-1.86550245640325
30
0
41
1
10
7.87191209871469
20
-1.77753225894674
30
0
41
1
10
7.71754700380467
20
-1.7279806748023
30
0
41
1
10
7.41007096110334
20
-1.61856306269331
30
0
41
1
10
7.25664360222748
20
-1.55923169813323
30
0
41
1
10
6.94992656550787
20
-1.43337135133396
30
0
41
1
10
6.79680116414821
20
-1.36634429559913
30
0
41
1
10
6.49063924024151
20
-1.22362617789494
30
0
41
1
10
6.33733278399811
20
-1.14827712347096
30
0
41
1
10
6.02921530696955
20
-0.990529493227143
30
0
41
1
10
5.87439700495588
20
-0.908459269316381
30
0
41
1
10
5.71890833801621
20
-0.823241366412333
30
0
0
SPLINE
5
BA
100
AcDbEntity
8
1
62
256
6
ByLayer
370
18
48
1
60
0
100
AcDbSpline
70
4
71
3
72
34
73
30
40
0
40
0
40
0
40
0
40
0.0008475352959854
40
0.0008475352959854
40
0.106796692211409
40
0.106796692211409
40
0.15977127066912
40
0.15977127066912
40
0.212745849126831
40
0.212745849126831
40
0.318695006042252
40
0.318695006042252
40
0.371669584499964
40
0.371669584499964
40
0.424644162957674
40
0.424644162957674
40
0.63654247678852
40
0.63654247678852
40
0.689517055246232
40
0.689517055246232
40
0.742491633703944
40
0.742491633703944
40
0.848440790619366
40
0.848440790619366
40
0.901415369077077
40
0.901415369077077
40
0.954389947534787
40
0.954389947534787
40
1
40
1
40
1
40
1
41
1
10
6.2623513598204
20
1.78181719746229
30
0
41
1
10
6.2651119210669
20
1.78083735895837
30
0
41
1
10
6.26787215547373
20
1.77985593475157
30
0
41
1
10
6.61564326044535
20
1.65598889026981
30
0
41
1
10
6.95764949219267
20
1.50760729939913
30
0
41
1
10
7.47246372854482
20
1.25422243237745
30
0
41
1
10
7.64443456222392
20
1.16471710979275
30
0
41
1
10
7.99025572590099
20
0.976854110742551
30
0
41
1
10
8.16466366914068
20
0.878073512302564
30
0
41
1
10
8.68341438330847
20
0.575205858021178
30
0
41
1
10
9.02551768245911
20
0.363455323953758
30
0
41
1
10
9.53999279409095
20
0.0421735263105916
30
0
41
1
10
9.71169994009435
20
-0.0655313944561442
30
0
41
1
10
10.0565347724769
20
-0.280562672950708
30
0
41
1
10
10.2302791772186
20
-0.388326788895256
30
0
41
1
10
11.0973752309447
20
-0.917355592943437
30
0
41
1
10
11.7744414742876
20
-1.30057034613441
30
0
41
1
10
12.6427375090082
20
-1.66941972911707
30
0
41
1
10
12.8160131373259
20
-1.73704301207724
30
0
41
1
10
13.1603612285613
20
-1.85823709124412
30
0
41
1
10
13.3318723109834
20
-1.91195895603244
30
0
41
1
10
13.8461158939374
20
-2.05128271482232
30
0
41
1
10
14.1885690971944
20
-2.11536752102347
30
0
41
1
10
14.7074705567337
20
-2.16390587833118
30
0
41
1
10
14.8816733082064
20
-2.17201799908366
30
0
41
1
10
15.2269419455346
20
-2.17193532490697
30
0
41
1
10
15.3987213316884
20
-2.1638572558563
30
0
41
1
10
15.7179171432534
20
-2.13410092570976
30
0
41
1
10
15.8653559860648
20
-2.11449686972139
30
0
41
1
10
16.0129181139954
20
-2.08918244466039
30
0
0
SPLINE
5
BB
100
AcDbEntity
8
1
62
256
6
ByLayer
370
18
48
1
60
0
100
AcDbSpline
70
4
71
3
72
26
73
22
40
0
40
0
40
0
40
0
40
0.0830001435405017
40
0.0830001435405017
40
0.166754034836751
40
0.166754034836751
40
0.334261817429248
40
0.334261817429248
40
0.418015708725497
40
0.418015708725497
40
0.459892654373618
40
0.459892654373618
40
0.50176960002174
40
0.50176960002174
40
0.669277382614238
40
0.669277382614238
40
0.753031273910486
40
0.753031273910486
40
0.836785165206735
40
0.836785165206735
40
1
40
1
40
1
40
1
41
1
10
27.9764795979294
20
1.81227952387349
30
0
41
1
10
28.1468992366767
20
1.75279903984651
30
0
41
1
10
28.3181499411698
20
1.6863585412529
30
0
41
1
10
28.663461473296
20
1.54027783515346
30
0
41
1
10
28.8359408384682
20
1.46156916568745
30
0
41
1
10
29.3513948935624
20
1.21056024328627
30
0
41
1
10
29.6922724214484
20
1.02346534323453
30
0
41
1
10
30.207267891039
20
0.723971113876161
30
0
41
1
10
30.3793771404996
20
0.620735195688439
30
0
41
1
10
30.6389702557663
20
0.461855636298907
30
0
41
1
10
30.7258637781463
20
0.408156652639235
30
0
41
1
10
30.8987928631066
20
0.300604230422778
30
0
41
1
10
30.9849938919099
20
0.246646003142161
30
0
41
1
10
31.4151320860978
20
-0.0233335775206172
30
0
41
1
10
31.7564040773658
20
-0.239998179281315
30
0
41
1
10
32.2698776044604
20
-0.556714532929561
30
0
41
1
10
32.4414260512278
20
-0.660699079189925
30
0
41
1
10
32.7861686101605
20
-0.864092702231545
30
0
41
1
10
32.9601328585434
20
-0.96390261707711
30
0
41
1
10
33.469403788444
20
-1.24467696279882
30
0
41
1
10
33.8024138915201
20
-1.41329796642066
30
0
41
1
10
34.1357035362233
20
-1.56037774909669
30
0
0
SPLINE
5
BC
100
AcDbEntity
8
1
62
256
6
ByLayer
370
13
48
1
60
0
100
AcDbSpline
70
4
71
3
72
12
73
8
40
0
40
0
40
0
40
0
40
0.338980281240721
40
0.338980281240721
40
0.66949014062036
40
0.66949014062036
40
1
40
1
40
1
40
1
41
1
10
34.1357035360357
20
-1.56037774901387
30
0
41
1
10
34.4865258401156
20
-1.71519464496271
30
0
41
1
10
34.8376578698933
20
-1.84614436315812
30
0
41
1
10
35.5405874699548
20
-2.04702386718901
30
0
41
1
10
35.8826174367893
20
-2.1155662116812
30
0
41
1
10
36.565820236425
20
-2.18972395005503
30
0
41
1
10
36.9069506874786
20
-2.19533129841452
30
0
41
1
10
37.2513776693676
20
-2.16841214911671
30
0
0
SPLINE
5
BD
100
AcDbEntity
8
1
62
256
6
ByLayer
370
18
48
1
60
0
100
AcDbSpline
70
4
71
3
72
68
73
64
40
0
40
0
40
0
40
0
40
0.0085285247476738
40
0.0085285247476738
40
0.0430793956421163
40
0.0430793956421163
40
0.0776302665365589
40
0.0776302665365589
40
0.112181137431001
40
0.112181137431001
40
0.146732008325444
40
0.146732008325444
40
0.181282879219887
40
0.181282879219887
40
0.215833750114329
40
0.215833750114329
40
0.250384621008772
40
0.250384621008772
40
0.284935491903214
40
0.284935491903214
40
0.319486362797657
40
0.319486362797657
40
0.354037233692099
40
0.354037233692099
40
0.388588104586541
40
0.388588104586541
40
0.423138975480984
40
0.423138975480984
40
0.457689846375426
40
0.457689846375426
40
0.492240717269869
40
0.492240717269869
40
0.526791588164311
40
0.526791588164311
40
0.561342459058754
40
0.561342459058754
40
0.595893329953196
40
0.595893329953196
40
0.630444200847639
40
0.630444200847639
40
0.664995071742081
40
0.664995071742081
40
0.699545942636524
40
0.699545942636524
40
0.734096813530966
40
0.734096813530966
40
0.768647684425409
40
0.768647684425409
40
0.803198555319851
40
0.803198555319851
40
0.837749426214294
40
0.837749426214294
40
0.872300297108736
40
0.872300297108736
40
0.906851168003179
40
0.906851168003179
40
0.941402038897621
40
0.941402038897621
40
0.958677474344843
40
0.958677474344843
40
0.975952909792064
40
0.975952909792064
40
1
40
1
40
1
40
1
41
1
10
12.0886391208037
20
1.60921773638066
30
0
41
1
10
12.1271482167287
20
1.6256293001841
30
0
41
1
10
12.1655880364712
20
1.64174630895383
30
0
41
1
10
12.3592171442195
20
1.72161754269939
30
0
41
1
10
12.5134757429741
20
1.78073281479897
30
0
41
1
10
12.8228686746052
20
1.88657522628924
30
0
41
1
10
12.9775126685055
20
1.9338437541432
30
0
41
1
10
13.2861796405211
20
2.01736773559446
30
0
41
1
10
13.4400860855976
20
2.05357825824993
30
0
41
1
10
13.7504608636791
20
2.11283111385077
30
0
41
1
10
13.9064222252495
20
2.13625444561995
30
0
41
1
10
14.2194222653665
20
2.1704595295115
30
0
41
1
10
14.3745486053447
20
2.18097176921265
30
0
41
1
10
14.6849610538133
20
2.18855816472635
30
0
41
1
10
14.8399136603879
20
2.18582697677465
30
0
41
1
10
15.1487836612118
20
2.16742827968807
30
0
41
1
10
15.3023269661907
20
2.15155274957877
30
0
41
1
10
15.6113193858031
20
2.10739222010079
30
0
41
1
10
15.7664045301686
20
2.07912543263052
30
0
41
1
10
16.0771835602794
20
2.00976490659656
30
0
41
1
10
16.2330095353325
20
1.96810677076934
30
0
41
1
10
16.5453011655771
20
1.8739676690341
30
0
41
1
10
16.701014994114
20
1.8216844924529
30
0
41
1
10
17.0109670267888
20
1.70645305444427
30
0
41
1
10
17.1647811439084
20
1.64299653916868
30
0
41
1
10
17.473243511054
20
1.50767967943744
30
0
41
1
10
17.627923611384
20
1.43595422686209
30
0
41
1
10
17.9374260734519
20
1.28353727919617
30
0
41
1
10
18.0918925092203
20
1.2023108461008
30
0
41
1
10
18.4027812143986
20
1.03286526565705
30
0
41
1
10
18.5600707028423
20
0.944915485452782
30
0
41
1
10
18.8718636273599
20
0.764487748129625
30
0
41
1
10
19.0265037824938
20
0.671343467819725
30
0
41
1
10
19.3351720531223
20
0.482134086390659
30
0
41
1
10
19.4898122698817
20
0.387042105340555
30
0
41
1
10
19.7988149183947
20
0.194533412861688
30
0
41
1
10
19.9529797216875
20
0.0967902924545001
30
0
41
1
10
20.2618209858199
20
-0.0998329564097844
30
0
41
1
10
20.4173169621418
20
-0.197368283658364
30
0
41
1
10
20.7297694723167
20
-0.392015264360623
30
0
41
1
10
20.8863161776515
20
-0.489243674393293
30
0
41
1
10
21.1962172074639
20
-0.679640581826618
30
0
41
1
10
21.3511067008881
20
-0.771737335754125
30
0
41
1
10
21.6603973435508
20
-0.95058433451328
30
0
41
1
10
21.8146527981118
20
-1.03754162197123
30
0
41
1
10
22.1224833238639
20
-1.20620898389484
30
0
41
1
10
22.2770023898591
20
-1.28661306320905
30
0
41
1
10
22.5873653051332
20
-1.43951212325589
30
0
41
1
10
22.743034821729
20
-1.51223891621675
30
0
41
1
10
23.0551351017994
20
-1.65013497867642
30
0
41
1
10
23.210754738037
20
-1.71349878005
30
0
41
1
10
23.5212297621528
20
-1.8286733020627
30
0
41
1
10
23.6759718376136
20
-1.88078474980006
30
0
41
1
10
23.9839417930252
20
-1.97434407588557
30
0
41
1
10
24.1378892577918
20
-2.01518008667267
30
0
41
1
10
24.4470764610648
20
-2.08434200324933
30
0
41
1
10
24.6020093922894
20
-2.11290781191158
30
0
41
1
10
24.8344902280098
20
-2.146578120676
30
0
41
1
10
24.9119928708695
20
-2.15625026076845
30
0
41
1
10
25.067769882866
20
-2.17221410440774
30
0
41
1
10
25.1461647283655
20
-2.17852867781474
30
0
41
1
10
25.3329977608743
20
-2.18962707058151
30
0
41
1
10
25.4413875280979
20
-2.19288239496893
30
0
41
1
10
25.5493517282012
20
-2.19295247290265
30
0
0
SPLINE
5
BE
100
AcDbEntity
8
1
62
256
6
ByLayer
370
18
48
1
60
0
100
AcDbSpline
70
4
71
3
72
20
73
16
40
0
40
0
40
0
40
0
40
0.0565235858353868
40
0.0565235858353868
40
0.19130593071605
40
0.19130593071605
40
0.460870620477367
40
0.460870620477367
40
0.595652965358026
40
0.595652965358026
40
0.730435310238684
40
0.730435310238684
40
0.865217655119342
40
0.865217655119342
40
1
40
1
40
1
40
1
41
1
10
33.8570723352372
20
1.61721862843262
30
0
41
1
10
33.9225714924576
20
1.64526521351846
30
0
41
1
10
33.9881395005035
20
1.67242545373318
30
0
41
1
10
34.20963952268
20
1.76122317182657
30
0
41
1
10
34.3646054332748
20
1.81862571213782
30
0
41
1
10
34.8272166137381
20
1.97432173189827
30
0
41
1
10
35.1361849728263
20
2.05363770847922
30
0
41
1
10
35.5983188769078
20
2.13737517262675
30
0
41
1
10
35.7531793254879
20
2.15880908168208
30
0
41
1
10
36.0646847295345
20
2.18876962069021
30
0
41
1
10
36.2215270213317
20
2.19732016028488
30
0
41
1
10
36.5318807739562
20
2.20091589236864
30
0
41
1
10
36.6867777255138
20
2.19598126720899
30
0
41
1
10
36.9967492636416
20
2.1732859120481
30
0
41
1
10
37.1515986079957
20
2.15552549149041
30
0
41
1
10
37.3060450697054
20
2.13109841439038
30
0
0
SPLINE
5
BF
100
AcDbEntity
8
1
62
256
6
ByLayer
370
18
48
1
60
0
100
AcDbSpline
70
4
71
3
72
8
73
4
40
0
40
0
40
0
40
0
40
1
40
1
40
1
40
1
41
1
10
37.2657795613725
20
-2.08118448242743
30
0
41
1
10
37.2566469097213
20
-2.08504663093663
30
0
41
1
10
37.2481826227853
20
-2.08699233374168
30
0
41
1
10
37.240396736018
20
-2.08699281553461
30
0
0
SPLINE
5
C0
100
AcDbEntity
8
1
62
256
6
ByLayer
370
18
48
1
60
0
100
AcDbSpline
70
4
71
3
72
10
73
6
40
0
40
0
40
0
40
0
40
0.5
40
0.5
40
1
40
1
40
1
40
1
41
1
10
4.2503418761415
20
-2.0664756600184
30
0
41
1
10
4.22684874343418
20
-2.06619481292475
30
0
41
1
10
4.2038362319781
20
-2.06912007536502
30
0
41
1
10
4.15883300798325
20
-2.08130620468134
30
0
41
1
10
4.13683871641581
20
-2.09068381575855
30
0
41
1
10
4.11660134669523
20
-2.10306371236902
30
0
0
SPLINE
5
C1
100
AcDbEntity
8
1
62
256
6
ByLayer
370
18
48
1
60
0
100
AcDbSpline
70
4
71
3
72
8
73
4
40
0
40
0
40
0
40
0
40
1
40
1
40
1
40
1
41
1
10
4.04111729782792
20
-2.17445336898001
30
0
41
1
10
4.06023067332194
20
-2.14660991144882
30
0
41
1
10
4.08543145338587
20
-2.1221314104871
30
0
41
1
10
4.11660134669523
20
-2.10306371236902
30
0
0
SPLINE
5
C2
100
AcDbEntity
8
1
62
256
6
ByLayer
370
18
48
1
60
0
100
AcDbSpline
70
4
71
3
72
28
73
24
40
0
40
0
40
0
40
0
40
0.0625000000000001
40
0.0625000000000001
40
0.125
40
0.125
40
0.25
40
0.25
40
0.375
40
0.375
40
0.500000000000001
40
0.500000000000001
40
0.562500000000001
40
0.562500000000001
40
0.625
40
0.625
40
0.75
40
0.75
40
0.875
40
0.875
40
0.9375
40
0.9375
40
1
40
1
40
1
40
1
41
1
10
4.04111729782599
20
-2.17445336898294
30
0
41
1
10
4.04112185258575
20
-2.16924225714672
30
0
41
1
10
4.0411240157529
20
-2.16041584149627
30
0
41
1
10
4.04112449463369
20
-2.13555662315051
30
0
41
1
10
4.04112279286355
20
-2.11943244386757
30
0
41
1
10
4.04111339512406
20
-2.06064744723577
30
0
41
1
10
4.04110157685562
20
-2.0080740202111
30
0
41
1
10
4.04107499663726
20
-1.87688189124432
30
0
41
1
10
4.04106008342615
20
-1.79715396659384
30
0
41
1
10
4.04103547783129
20
-1.61704596124528
30
0
41
1
10
4.04102568725258
20
-1.51654976934805
30
0
41
1
10
4.04101862422556
20
-1.34999041432815
30
0
41
1
10
4.04101754203563
20
-1.29151122267243
30
0
41
1
10
4.04101836616547
20
-1.17156583063965
30
0
41
1
10
4.04102025023963
20
-1.10991027111899
30
0
41
1
10
4.04103050632187
20
-0.920002253285617
30
0
41
1
10
4.04104359061563
20
-0.786462968169275
30
0
41
1
10
4.04108162804789
20
-0.507322902052579
30
0
41
1
10
4.0411059915283
20
-0.365674823931187
30
0
41
1
10
4.04114739687771
20
-0.150196253584994
30
0
41
1
10
4.04116199804923
20
-0.0778651969873749
30
0
41
1
10
4.04119210289636
20
0.0678340921145946
30
0
41
1
10
4.0412075849442
20
0.141097551700284
30
0
41
1
10
4.04122273986809
20
0.213242568752207
30
0
0
SPLINE
5
C3
100
AcDbEntity
8
1
62
256
6
ByLayer
370
18
48
1
60
0
100
AcDbSpline
70
4
71
3
72
14
73
10
40
0
40
0
40
0
40
0
40
0.25
40
0.25
40
0.5
40
0.5
40
0.75
40
0.75
40
1
40
1
40
1
40
1
41
1
10
37.004187562332
20
0.410093151283263
30
0
41
1
10
37.0022640300783
20
0.436985582428235
30
0
41
1
10
37.0038194785619
20
0.464546066032511
30
0
41
1
10
37.0136249720626
20
0.52139270269447
30
0
41
1
10
37.0215393533999
20
0.550369930020253
30
0
41
1
10
37.0486267993204
20
0.604994856669464
30
0
41
1
10
37.0691513901569
20
0.628894575081432
30
0
41
1
10
37.1187043581287
20
0.664771027977338
30
0
41
1
10
37.1475289483948
20
0.676954014329681
30
0
41
1
10
37.1773180171487
20
0.684264222917932
30
0
0
SPLINE
5
C4
100
AcDbEntity
8
1
62
256
6
ByLayer
370
18
48
1
60
0
100
AcDbSpline
70
4
71
3
72
16
73
12
40
0
40
0
40
0
40
0
40
0.25
40
0.25
40
0.5
40
0.5
40
0.75
40
0.75
40
0.875
40
0.875
40
1
40
1
40
1
40
1
41
1
10
37.6995281877501
20
-1.09356656932616
30
0
41
1
10
37.6669585620916
20
-1.18036858272237
30
0
41
1
10
37.634314690846
20
-1.26708767296827
30
0
41
1
10
37.5691071308968
20
-1.44061540745577
30
0
41
1
10
37.5364963214238
20
-1.52737887874292
30
0
41
1
10
37.4710361716486
20
-1.70060857499186
30
0
41
1
10
37.4381067911171
20
-1.78683923934153
30
0
41
1
10
37.3888233070127
20
-1.91639840400472
30
0
41
1
10
37.3723994326664
20
-1.95959241339963
30
0
41
1
10
37.3394201512958
20
-2.04572688833724
30
0
41
1
10
37.3228004005238
20
-2.08854332415649
30
0
41
1
10
37.3060450697142
20
-2.13109841438825
30
0
0
SPLINE
5
C5
100
AcDbEntity
8
1
62
256
6
ByLayer
370
18
48
1
60
0
100
AcDbSpline
70
4
71
3
72
36
73
32
40
0
40
0
40
0
40
0
40
0.130787305538994
40
0.130787305538994
40
0.196180958308491
40
0.196180958308491
40
0.261574611077988
40
0.261574611077988
40
0.326968263847485
40
0.326968263847485
40
0.392361916616982
40
0.392361916616982
40
0.457755569386479
40
0.457755569386479
40
0.523149222155976
40
0.523149222155976
40
0.588542874925473
40
0.588542874925473
40
0.65393652769497
40
0.65393652769497
40
0.719330180464467
40
0.719330180464467
40
0.784723833233964
40
0.784723833233964
40
0.85011748600346
40
0.85011748600346
40
0.915511138772958
40
0.915511138772958
40
0.980904791542454
40
0.980904791542454
40
1
40
1
40
1
40
1
41
1
10
7.54607151414751
20
1.01274487702366
30
0
41
1
10
7.85834459441926
20
0.836598763279198
30
0
41
1
10
8.16967075953835
20
0.654284400562773
30
0
41
1
10
8.63222999709464
20
0.367251681640056
30
0
41
1
10
8.78670044510861
20
0.270895973340572
30
0
41
1
10
9.09655500378668
20
0.0774403778482622
30
0
41
1
10
9.25174823138599
20
-0.0199627013173256
30
0
41
1
10
9.562281896267
20
-0.216855285684886
30
0
41
1
10
9.71905581846829
20
-0.315363916487854
30
0
41
1
10
10.0315121956006
20
-0.507699236597489
30
0
41
1
10
10.1870484965555
20
-0.602052498151266
30
0
41
1
10
10.4961699866627
20
-0.788007100515159
30
0
41
1
10
10.6503993450851
20
-0.878580783884104
30
0
41
1
10
10.9598162368973
20
-1.05268171889443
30
0
41
1
10
11.1146618046687
20
-1.13673812079801
30
0
41
1
10
11.4240520352591
20
-1.29949782968873
30
0
41
1
10
11.5789546307002
20
-1.37766878339568
30
0
41
1
10
11.891579339305
20
-1.52443952073105
30
0
41
1
10
12.0486253077501
20
-1.59349965041238
30
0
41
1
10
12.3592171442188
20
-1.72161754269908
30
0
41
1
10
12.5134757429735
20
-1.78073281479871
30
0
41
1
10
12.8228686746047
20
-1.88657522628904
30
0
41
1
10
12.977512668505
20
-1.93384375414306
30
0
41
1
10
13.2861796405205
20
-2.01736773559429
30
0
41
1
10
13.4400860855968
20
-2.05357825824979
30
0
41
1
10
13.7504608636782
20
-2.1128311138506
30
0
41
1
10
13.9064222252485
20
-2.13625444561981
30
0
41
1
10
14.219422265365
20
-2.17045952951136
30
0
41
1
10
14.3745486053438
20
-2.18097176921262
30
0
41
1
10
14.5750756685304
20
-2.18587259590316
30
0
41
1
10
14.6203748824335
20
-2.18642391435677
30
0
41
1
10
14.6656458984719
20
-2.18642032222957
30
0
0
SPLINE
5
C6
100
AcDbEntity
8
1
62
256
6
ByLayer
370
18
48
1
60
0
100
AcDbSpline
70
4
71
3
72
66
73
62
40
0
40
0
40
0
40
0
40
0.0291656702204135
40
0.0291656702204135
40
0.0636830515192324
40
0.0636830515192324
40
0.0982004328180512
40
0.0982004328180512
40
0.13271781411687
40
0.13271781411687
40
0.149976504766279
40
0.149976504766279
40
0.167235195415689
40
0.167235195415689
40
0.201752576714508
40
0.201752576714508
40
0.236269958013327
40
0.236269958013327
40
0.270787339312145
40
0.270787339312145
40
0.305304720610964
40
0.305304720610964
40
0.339822101909783
40
0.339822101909783
40
0.374339483208602
40
0.374339483208602
40
0.408856864507421
40
0.408856864507421
40
0.443374245806239
40
0.443374245806239
40
0.477891627105058
40
0.477891627105058
40
0.512409008403877
40
0.512409008403877
40
0.546926389702696
40
0.546926389702696
40
0.581443771001515
40
0.581443771001515
40
0.615961152300334
40
0.615961152300334
40
0.650478533599152
40
0.650478533599152
40
0.684995914897971
40
0.684995914897971
40
0.71951329619679
40
0.71951329619679
40
0.754030677495609
40
0.754030677495609
40
0.788548058794428
40
0.788548058794428
40
0.823065440093246
40
0.823065440093246
40
0.857582821392065
40
0.857582821392065
40
0.926617583989703
40
0.926617583989703
40
0.961134965288522
40
0.961134965288522
40
0.995652346587341
40
0.995652346587341
40
1
40
1
40
1
40
1
41
1
10
22.9716379854056
20
1.61285344400878
30
0
41
1
10
23.1033816817002
20
1.66964446646014
30
0
41
1
10
23.2348233748158
20
1.72242733636267
30
0
41
1
10
23.5212297621522
20
1.8286733020625
30
0
41
1
10
23.6759718376131
20
1.88078474979992
30
0
41
1
10
23.9839417930249
20
1.97434407588545
30
0
41
1
10
24.1378892577913
20
2.01518008667256
30
0
41
1
10
24.4470764610642
20
2.08434200324922
30
0
41
1
10
24.6020093922888
20
2.11290781191147
30
0
41
1
10
24.834490228009
20
2.14657812067588
30
0
41
1
10
24.9119928708686
20
2.15625026076833
30
0
41
1
10
25.0677698828649
20
2.17221410440766
30
0
41
1
10
25.1461647283645
20
2.17852867781465
30
0
41
1
10
25.3804888850812
20
2.19244817315806
30
0
41
1
10
25.5360129772092
20
2.19511508906518
30
0
41
1
10
25.8451411338713
20
2.1873301475915
30
0
41
1
10
25.9989296517026
20
2.17677166996253
30
0
41
1
10
26.3077386859463
20
2.14314480693633
30
0
41
1
10
26.4622795059224
20
2.12005736470672
30
0
41
1
10
26.7711224559486
20
2.06089769750639
30
0
41
1
10
26.9253579036578
20
2.02465495275757
30
0
41
1
10
27.2367897124579
20
1.94071242319703
30
0
41
1
10
27.3939482034949
20
1.89259373120646
30
0
41
1
10
27.7050245850903
20
1.78527297866444
30
0
41
1
10
27.8591840699125
20
1.72565896146608
30
0
41
1
10
28.1683420628557
20
1.59829977051641
30
0
41
1
10
28.3228670254124
20
1.53015493530313
30
0
41
1
10
28.6312855508967
20
1.38435832750494
30
0
41
1
10
28.7848202923989
20
1.30617309045624
30
0
41
1
10
29.0942399680572
20
1.14386561805821
30
0
41
1
10
29.2497365414699
20
1.05932499558642
30
0
41
1
10
29.5617683454179
20
0.882496087371038
30
0
41
1
10
29.7175424113373
20
0.789695601180341
30
0
41
1
10
30.0279013710045
20
0.603295130117857
30
0
41
1
10
30.182853106329
20
0.509024979457536
30
0
41
1
10
30.4916920210032
20
0.317421458779762
30
0
41
1
10
30.6451522979189
20
0.219398675016237
30
0
41
1
10
30.9533639715982
20
0.0240080278896642
30
0
41
1
10
31.1081180252366
20
-0.0733405254705985
30
0
41
1
10
31.418187979187
20
-0.268531854455063
30
0
41
1
10
31.5731550611747
20
-0.366989999497093
30
0
41
1
10
31.8854971240651
20
-0.56131867008537
30
0
41
1
10
32.0413102603265
20
-0.655531072725523
30
0
41
1
10
32.3514149379861
20
-0.839651428300272
30
0
41
1
10
32.5054182959913
20
-0.929948232909197
30
0
41
1
10
32.8132558901053
20
-1.10410036437219
30
0
41
1
10
32.967690936409
20
-1.18715176190301
30
0
41
1
10
33.2766961892917
20
-1.3465740392883
30
0
41
1
10
33.4310685543116
20
-1.42316813155159
30
0
41
1
10
33.7407731658192
20
-1.56828565307799
30
0
41
1
10
33.8975290484418
20
-1.63610039471325
30
0
41
1
10
34.2096395226793
20
-1.76122317182632
30
0
41
1
10
34.3646054332743
20
-1.81862571213765
30
0
41
1
10
34.8272166137379
20
-1.97432173189819
30
0
41
1
10
35.1361849728261
20
-2.05363770847916
30
0
41
1
10
35.5983188769073
20
-2.13737517262666
30
0
41
1
10
35.7531793254873
20
-2.15880908168199
30
0
41
1
10
36.0646847295335
20
-2.18876962069012
30
0
41
1
10
36.2215270213308
20
-2.19732016028485
30
0
41
1
10
36.3962492759563
20
-2.19934447741133
30
0
41
1
10
36.4157902133238
20
-2.19946411898027
30
0
41
1
10
36.4353274465873
20
-2.19947758935422
30
0
0
SPLINE
5
C7
100
AcDbEntity
8
1
62
256
6
ByLayer
370
18
48
1
60
0
100
AcDbSpline
70
4
71
3
72
18
73
14
40
0
40
0
40
0
40
0
40
0.249999999999976
40
0.249999999999976
40
0.499999999999951
40
0.499999999999951
40
0.624999999999963
40
0.624999999999963
40
0.749999999999976
40
0.749999999999976
40
0.874999999999988
40
0.874999999999988
40
1
40
1
40
1
40
1
41
1
10
37.1773180171487
20
0.684264222917619
30
0
41
1
10
37.2360484257418
20
0.698676608240419
30
0
41
1
10
37.2943335600438
20
0.71509276548511
30
0
41
1
10
37.4082058410968
20
0.754622774661243
30
0
41
1
10
37.4636611335445
20
0.777458072689626
30
0
41
1
10
37.5421717597047
20
0.821751878244697
30
0
41
1
10
37.5676123181051
20
0.838325764491003
30
0
41
1
10
37.6143808970101
20
0.876037785721962
30
0
41
1
10
37.6361048938943
20
0.897594069150443
30
0
41
1
10
37.6713398320177
20
0.945855476859606
30
0
41
1
10
37.6852266065149
20
0.973397780248405
30
0
41
1
10
37.7009109590575
20
1.03200166410935
30
0
41
1
10
37.7027502105145
20
1.06318659445984
30
0
41
1
10
37.6995281877506
20
1.09356656932616
30
0
0
SPLINE
5
C8
100
AcDbEntity
8
1
62
256
6
ByLayer
370
18
48
1
60
0
100
AcDbSpline
70
4
71
3
72
57
73
53
40
0
40
0
40
0
40
0
40
0.062500000000007
40
0.062500000000007
40
0.125000000000014
40
0.125000000000014
40
0.25000000000003
40
0.25000000000003
40
0.312500000000039
40
0.312500000000039
40
0.375000000000048
40
0.375000000000048
40
0.500000000000064
40
0.500000000000064
40
0.562500000000072
40
0.562500000000072
40
0.566406250000072
40
0.566406250000072
40
0.570312500000072
40
0.570312500000072
40
0.574218750000072
40
0.574218750000072
40
0.578125000000073
40
0.59375000000007
40
0.59375000000007
40
0.625000000000065
40
0.625000000000065
40
0.640625000000063
40
0.640625000000063
40
0.656250000000061
40
0.656250000000061
40
0.671875000000059
40
0.671875000000059
40
0.687500000000057
40
0.687500000000057
40
0.703125000000055
40
0.703125000000055
40
0.718750000000053
40
0.718750000000053
40
0.734375000000051
40
0.734375000000051
40
0.750000000000049
40
0.750000000000049
40
0.781250000000044
40
0.781250000000044
40
0.812500000000038
40
0.812500000000038
40
0.875000000000026
40
0.875000000000026
40
0.937500000000013
40
0.937500000000013
40
1
40
1
40
1
40
1
41
1
10
7.54522170383021
20
1.01319058468337
30
0
41
1
10
7.37845461019927
20
1.10641365363716
30
0
41
1
10
7.21042830956111
20
1.19462455620484
30
0
41
1
10
6.87188788944059
20
1.3596169273045
30
0
41
1
10
6.70240379856958
20
1.4358839689221
30
0
41
1
10
6.19129958443509
20
1.64532890954146
30
0
41
1
10
5.84696864094906
20
1.75877565132581
30
0
41
1
10
5.31681606672277
20
1.89085424040178
30
0
41
1
10
5.13783095008947
20
1.92861570476794
30
0
41
1
10
4.7742277349686
20
1.99288967243061
30
0
41
1
10
4.58918561030296
20
2.019456860557
30
0
41
1
10
4.0274151693271
20
2.08481272967109
30
0
41
1
10
3.64648517607085
20
2.10934197312488
30
0
41
1
10
3.06347240974139
20
2.13165283292943
30
0
41
1
10
2.8672168346242
20
2.13662749457336
30
0
41
1
10
2.65805244357932
20
2.14003387453312
30
0
41
1
10
2.64570015604028
20
2.14033053343755
30
0
41
1
10
2.6212699491181
20
2.14023842979674
30
0
41
1
10
2.60875003803943
20
2.13988686363348
30
0
41
1
10
2.5865233478805
20
2.13797726660493
30
0
41
1
10
2.57599468603448
20
2.13679123034328
30
0
41
1
10
2.55453545188078
20
2.13451912121329
30
0
41
1
10
2.50113841319791
20
2.12863639647105
30
0
41
1
10
2.4490357385896
20
2.12166448723829
30
0
41
1
10
2.3283870967706
20
2.10228903452989
30
0
41
1
10
2.25313515825152
20
2.08604321020465
30
0
41
1
10
2.15390683700002
20
2.05124012087978
30
0
41
1
10
2.12398815456879
20
2.038115072213
30
0
41
1
10
2.0720756631529
20
2.00770213875054
30
0
41
1
10
2.04995749944254
20
1.99013829848175
30
0
41
1
10
2.01762401488804
20
1.95134276851991
30
0
41
1
10
2.00708114361569
20
1.93002687989511
30
0
41
1
10
1.99799016579459
20
1.88291126671311
30
0
41
1
10
1.99965731039202
20
1.85785055160539
30
0
41
1
10
2.0134557845173
20
1.80585364049693
30
0
41
1
10
2.02571378364829
20
1.77862879528186
30
0
41
1
10
2.05746126096892
20
1.72430748763551
30
0
41
1
10
2.077001347394
20
1.69691886357819
30
0
41
1
10
2.12161812776932
20
1.64160722346031
30
0
41
1
10
2.14676531481325
20
1.61365317194125
30
0
41
1
10
2.20015963973037
20
1.5584244114456
30
0
41
1
10
2.22855487816506
20
1.53096755141067
30
0
41
1
10
2.31760807793688
20
1.44878911241517
30
0
41
1
10
2.38209892514391
20
1.39422401552636
30
0
41
1
10
2.51761839697088
20
1.28485147091897
30
0
41
1
10
2.58769191943583
20
1.23084741226975
30
0
41
1
10
2.80247979502477
20
1.06958210589761
30
0
41
1
10
2.95165739237737
20
0.963013140896436
30
0
41
1
10
3.25673980841711
20
0.748806821938018
30
0
41
1
10
3.41338356774432
20
0.640805824131803
30
0
41
1
10
3.72660725789305
20
0.426379390327611
30
0
41
1
10
3.88370454198304
20
0.31961937322157
30
0
41
1
10
4.04122273983444
20
0.213242568774973
30
0
0
SPLINE
5
C9
100
AcDbEntity
8
1
62
256
6
ByLayer
370
18
48
1
60
0
100
AcDbSpline
70
4
71
3
72
14
73
10
40
0
40
0
40
0
40
0
40
0.0930827443192302
40
0.0930827443192302
40
0.577025620986509
40
0.577025620986509
40
0.818997059320149
40
0.818997059320149
40
1
40
1
40
1
40
1
41
1
10
26.1331015502908
20
-2.08041871321123
30
0
41
1
10
26.0666200133118
20
-2.08049188439117
30
0
41
1
10
26.00022868634
20
-2.07942572753879
30
0
41
1
10
25.5899971615442
20
-2.06580953057528
30
0
41
1
10
25.2486005061305
20
-2.02377434313854
30
0
41
1
10
24.7348872061343
20
-1.91736557719943
30
0
41
1
10
24.563434298309
20
-1.8747420300038
30
0
41
1
10
24.2622402525604
20
-1.78801333859332
30
0
41
1
10
24.1325174887433
20
-1.74680010570105
30
0
41
1
10
24.0031270444361
20
-1.70212250018454
30
0
0
SPLINE
5
CA
100
AcDbEntity
8
1
62
256
6
ByLayer
370
13
48
1
60
0
100
AcDbSpline
70
4
71
3
72
26
73
22
40
0
40
0
40
0
40
0
40
0.0207788682295556
40
0.0207788682295556
40
0.185714176524937
40
0.185714176524937
40
0.268181830672629
40
0.268181830672629
40
0.350649484820321
40
0.350649484820321
40
0.433117138968013
40
0.433117138968013
40
0.515584793115705
40
0.515584793115705
40
0.68052010141109
40
0.68052010141109
40
0.762987755558782
40
0.762987755558782
40
0.845455409706474
40
0.845455409706474
40
1
40
1
40
1
40
1
41
1
10
24.003126099265
20
-1.70212217382362
30
0
41
1
10
23.9595429185409
20
-1.68707320381955
30
0
41
1
10
23.9159974423
20
-1.67163117471946
30
0
41
1
10
23.5275384439532
20
-1.53031970123473
30
0
41
1
10
23.1856527273129
20
-1.38180137667319
30
0
41
1
10
22.6723008430627
20
-1.13164041474235
30
0
41
1
10
22.5010694147379
20
-1.04374943046042
30
0
41
1
10
22.1571707110712
20
-0.860401165661187
30
0
41
1
10
21.9842215193103
20
-0.764657520939267
30
0
41
1
10
21.6377532903085
20
-0.56749661824216
30
0
41
1
10
21.4648885366132
20
-0.466712758846768
30
0
41
1
10
21.118807767423
20
-0.26248008481673
30
0
41
1
10
20.9451286217229
20
-0.158714049967585
30
0
41
1
10
20.4264182988253
20
0.152028370907544
30
0
41
1
10
20.0839275320163
20
0.358254941446859
30
0
41
1
10
19.5687827997946
20
0.655682496099899
30
0
41
1
10
19.3968446557159
20
0.752855579935897
30
0
41
1
10
19.0514309614766
20
0.941431644573385
30
0
41
1
10
18.8776194716975
20
1.03323681572661
30
0
41
1
10
18.3816312714192
20
1.28358465442693
30
0
41
1
10
18.0605208091102
20
1.43067656253933
30
0
41
1
10
17.7385378196738
20
1.55786728066363
30
0
0
SPLINE
5
CB
100
AcDbEntity
8
1
62
256
6
ByLayer
370
13
48
1
60
0
100
AcDbSpline
70
4
71
3
72
8
73
4
40
0
40
0
40
0
40
0
40
1
40
1
40
1
40
1
41
1
10
4.47518255618221
20
-2.06635898512329
30
0
41
1
10
4.40034279816754
20
-2.06785876161752
30
0
41
1
10
4.32540932490525
20
-2.06790297629564
30
0
41
1
10
4.25034187614116
20
-2.0664756600184
30
0
0
SPLINE
5
CC
100
AcDbEntity
8
1
62
256
6
ByLayer
370
18
48
1
60
0
100
AcDbSpline
70
4
71
3
72
8
73
4
40
0
40
0
40
0
40
0
40
1
40
1
40
1
40
1
41
1
10
37.2456691918293
20
2.1833603450666
30
0
41
1
10
37.1035217733985
20
2.19438072305465
30
0
41
1
10
36.9616656228149
20
2.19982749912205
30
0
41
1
10
36.8198300129753
20
2.19972829223869
30
0
0
SPLINE
5
CD
100
AcDbEntity
8
1
62
256
6
ByLayer
370
18
48
1
60
0
100
AcDbSpline
70
4
71
3
72
40
73
36
40
0
40
0
40
0
40
0
40
0.0021331135840326
40
0.0021331135840326
40
0.0892185151962211
40
0.0892185151962211
40
0.132761216002315
40
0.132761216002315
40
0.17630391680841
40
0.17630391680841
40
0.263389318420597
40
0.263389318420597
40
0.30693201922669
40
0.30693201922669
40
0.350474720032783
40
0.350474720032783
40
0.524645523257156
40
0.524645523257156
40
0.56818822406325
40
0.56818822406325
40
0.611730924869343
40
0.611730924869343
40
0.69881632648153
40
0.69881632648153
40
0.742359027287623
40
0.742359027287623
40
0.785901728093716
40
0.785901728093716
40
0.872987129705902
40
0.872987129705902
40
0.916529830511994
40
0.916529830511994
40
0.960072531318087
40
0.960072531318087
40
1
40
1
40
1
40
1
41
1
10
26.928188635112
20
-2.10424558661339
30
0
41
1
10
26.9197249885673
20
-2.10575548731143
30
0
41
1
10
26.9112646844006
20
-2.10724577285322
30
0
41
1
10
26.5575598655566
20
-2.16875328072945
30
0
41
1
10
26.2154161131426
20
-2.196925924597
30
0
41
1
10
25.7004500698307
20
-2.1907060800724
30
0
41
1
10
25.5284521287013
20
-2.18054839874563
30
0
41
1
10
25.1826987468197
20
-2.14393949717729
30
0
41
1
10
25.0082554100673
20
-2.11730970415189
30
0
41
1
10
24.4890706089716
20
-2.01451024354694
30
0
41
1
10
24.1465209092674
20
-1.91565911327123
30
0
41
1
10
23.6319416606006
20
-1.72730191752143
30
0
41
1
10
23.4601770487438
20
-1.6579294006979
30
0
41
1
10
23.1151512801584
20
-1.50691934985636
30
0
41
1
10
22.9412904182025
20
-1.42494018468426
30
0
41
1
10
22.073376921872
20
-0.989724185854783
30
0
41
1
10
21.3957407098184
20
-0.570301548168771
30
0
41
1
10
20.5264220017304
20
-0.0218591290808376
30
0
41
1
10
20.3531233567134
20
0.0880836267874088
30
0
41
1
10
20.0084591449434
20
0.305188413363482
30
0
41
1
10
19.836738877778
20
0.412522492552625
30
0
41
1
10
19.3218390673484
20
0.728461371293747
30
0
41
1
10
18.9789396587293
20
0.931050143290634
30
0
41
1
10
18.4590850679125
20
1.21337445941114
30
0
41
1
10
18.2846914617131
20
1.30365634972489
30
0
41
1
10
17.9390848917905
20
1.47223791019277
30
0
41
1
10
17.7671472199379
20
1.55103568914467
30
0
41
1
10
17.2518739701795
20
1.76888377940153
30
0
41
1
10
16.9094612926087
20
1.88983543297382
30
0
41
1
10
16.3907879491451
20
2.02810711467555
30
0
41
1
10
16.2163104010181
20
2.06712257018532
30
0
41
1
10
15.8698252176055
20
2.12881604431183
30
0
41
1
10
15.697524769735
20
2.15160986027081
30
0
41
1
10
15.3679086272495
20
2.17988070957068
30
0
41
1
10
15.2105610805543
20
2.18665653829027
30
0
41
1
10
15.0531391564495
20
2.18665782142094
30
0
0
SPLINE
5
CE
100
AcDbEntity
8
1
62
256
6
ByLayer
370
18
48
1
60
0
100
AcDbSpline
70
4
71
3
72
10
73
6
40
0
40
0
40
0
40
0
40
0.0809338824011201
40
0.0809338824011201
40
1
40
1
40
1
40
1
41
1
10
5.26717775701135
20
-2.07145749477985
30
0
41
1
10
5.23656958461942
20
-2.07747050718962
30
0
41
1
10
5.20593102423121
20
-2.08324540555211
30
0
41
1
10
4.82695958566666
20
-2.15161489167028
30
0
41
1
10
4.480807534679
20
-2.18222656985645
30
0
41
1
10
4.13271341719405
20
-2.18000336159625
30
0
0
SPLINE
5
CF
100
AcDbEntity
8
1
62
256
6
ByLayer
370
18
48
1
60
0
100
AcDbSpline
70
4
71
3
72
20
73
16
40
0
40
0
40
0
40
0
40
0.125
40
0.125
40
0.25
40
0.25
40
0.375
40
0.375
40
0.5
40
0.5
40
0.625
40
0.625
40
0.75
40
0.75
40
1
40
1
40
1
40
1
41
1
10
35.3688494340602
20
0.923422644553398
30
0
41
1
10
35.3829008990986
20
0.821335775422739
30
0
41
1
10
35.4079045615403
20
0.717153735076238
30
0
41
1
10
35.4782221008326
20
0.504904280964183
30
0
41
1
10
35.5221948111197
20
0.400799905473178
30
0
41
1
10
35.6241293511582
20
0.196359630734008
30
0
41
1
10
35.6826625163737
20
0.0952892403286967
30
0
41
1
10
35.8079181504795
20
-0.0977318069197963
30
0
41
1
10
35.8749247504132
20
-0.190403975861045
30
0
41
1
10
36.0161286758609
20
-0.369445065567817
30
0
41
1
10
36.0906304541325
20
-0.456109583784695
30
0
41
1
10
36.2446889910616
20
-0.622475587291405
30
0
41
1
10
36.3235380853816
20
-0.701475501578983
30
0
41
1
10
36.5646494499625
20
-0.927984156756196
30
0
41
1
10
36.7313875041415
20
-1.06520477279525
30
0
41
1
10
36.9030916433056
20
-1.19101024831792
30
0
0
SPLINE
5
D0
100
AcDbEntity
8
1
62
256
6
ByLayer
370
18
48
1
60
0
100
AcDbSpline
70
4
71
3
72
10
73
6
40
0
40
0
40
0
40
0
40
0.5
40
0.5
40
1
40
1
40
1
40
1
41
1
10
4.04122273986809
20
0.213242568752236
30
0
41
1
10
4.0660770817571
20
0.198814533466191
30
0
41
1
10
4.09978092065509
20
0.179079752952305
30
0
41
1
10
4.17278168625981
20
0.134327199328112
30
0
41
1
10
4.21191911344062
20
0.109422714802946
30
0
41
1
10
4.25051965236196
20
0.0837279384907106
30
0
0
SPLINE
5
D1
100
AcDbEntity
8
1
62
256
6
ByLayer
370
18
48
1
60
0
100
AcDbSpline
70
4
71
3
72
12
73
8
40
0
40
0
40
0
40
0
40
0.25
40
0.25
40
0.5
40
0.5
40
1
40
1
40
1
40
1
41
1
10
4.25051965235906
20
0.0837279384926433
30
0
41
1
10
4.37134942493515
20
0.0032965749692835
30
0
41
1
10
4.49252275448475
20
-0.0765174372910167
30
0
41
1
10
4.73591626055929
20
-0.234366417755183
30
0
41
1
10
4.85840150322679
20
-0.312560286715183
30
0
41
1
10
5.22595526539169
20
-0.54188826495124
30
0
41
1
10
5.47097548027844
20
-0.687834306324078
30
0
41
1
10
5.71879840563193
20
-0.82318083058226
30
0
0
SPLINE
5
D2
100
AcDbEntity
8
1
62
256
6
ByLayer
370
18
48
1
60
0
100
AcDbSpline
70
4
71
3
72
38
73
34
40
0
40
0
40
0
40
0
40
0.0914034888621975
40
0.0914034888621975
40
0.137105233293298
40
0.137105233293298
40
0.182806977724398
40
0.182806977724398
40
0.2742104665866
40
0.2742104665866
40
0.319912211017702
40
0.319912211017702
40
0.365613955448803
40
0.365613955448803
40
0.457017444311003
40
0.457017444311003
40
0.502719188742105
40
0.502719188742105
40
0.548420933173206
40
0.548420933173206
40
0.639824422035409
40
0.639824422035409
40
0.68552616646651
40
0.68552616646651
40
0.731227910897612
40
0.731227910897612
40
0.822631399759817
40
0.822631399759817
40
0.868333144190921
40
0.868333144190921
40
0.914034888622025
40
0.914034888622025
40
1
40
1
40
1
40
1
41
1
10
37.2456691918289
20
-2.18336034506663
30
0
41
1
10
36.9002214132958
20
-2.21014215465974
30
0
41
1
10
36.5572281000184
20
-2.20395104500722
30
0
41
1
10
36.0406142636321
20
-2.14642153466002
30
0
41
1
10
35.8680658178382
20
-2.11917274915456
30
0
41
1
10
35.5210892744465
20
-2.0486225678687
30
0
41
1
10
35.3474745144002
20
-2.00546093913471
30
0
41
1
10
34.8298058882408
20
-1.85501230387268
30
0
41
1
10
34.4868688598402
20
-1.72636880947704
30
0
41
1
10
33.9692753721675
20
-1.49695790606586
30
0
41
1
10
33.7957302642056
20
-1.41419525772378
30
0
41
1
10
33.4486394114629
20
-1.23842452476239
30
0
41
1
10
33.2761984593633
20
-1.14609315197055
30
0
41
1
10
32.7603534712896
20
-0.858551774939826
30
0
41
1
10
32.4183724225902
20
-0.652912415855496
30
0
41
1
10
31.9025442605553
20
-0.332147798760047
30
0
41
1
10
31.7300557646078
20
-0.223276021490705
30
0
41
1
10
31.3827705689387
20
-0.0034679493963949
30
0
41
1
10
31.2093063517861
20
0.106624086488154
30
0
41
1
10
30.6926094815001
20
0.432836255592463
30
0
41
1
10
30.3508177024986
20
0.645329362181201
30
0
41
1
10
29.8352529419467
20
0.946094026681408
30
0
41
1
10
29.6630514086417
20
1.04355527149025
30
0
41
1
10
29.3170440880203
20
1.23141106018622
30
0
41
1
10
29.142793404972
20
1.32148182792605
30
0
41
1
10
28.6245328098444
20
1.57315710729313
30
0
41
1
10
28.2824525750806
20
1.71861655156928
30
0
41
1
10
27.7675333992973
20
1.89658189212022
30
0
41
1
10
27.595702287379
20
1.94929619351382
30
0
41
1
10
27.2504119146675
20
2.04025020617016
30
0
41
1
10
27.0761331955383
20
2.07857242183508
30
0
41
1
10
26.5771172063757
20
2.16535900684812
30
0
41
1
10
26.2547216113365
20
2.19353109784962
30
0
41
1
10
25.9321554034396
20
2.19317516177705
30
0
0
SPLINE
5
D3
100
AcDbEntity
8
1
62
256
6
ByLayer
370
18
48
1
60
0
100
AcDbSpline
70
4
71
3
72
44
73
40
40
0
40
0
40
0
40
0
40
0.0080067651559281
40
0.0080067651559281
40
0.0512534842930533
40
0.0512534842930533
40
0.137746922567302
40
0.137746922567302
40
0.180993641704425
40
0.180993641704425
40
0.202617001272987
40
0.202617001272987
40
0.224240360841548
40
0.224240360841548
40
0.310733799115792
40
0.310733799115792
40
0.353980518252913
40
0.353980518252913
40
0.397227237390035
40
0.397227237390035
40
0.483720675664279
40
0.483720675664279
40
0.526967394801401
40
0.526967394801401
40
0.548590754369963
40
0.548590754369963
40
0.570214113938524
40
0.570214113938524
40
0.656707552212771
40
0.656707552212771
40
0.743200990487019
40
0.743200990487019
40
0.829694428761266
40
0.829694428761266
40
0.916187867035513
40
0.916187867035513
40
0.959434586172637
40
0.959434586172637
40
1
40
1
40
1
40
1
41
1
10
16.140376310544
20
-2.07981848522147
30
0
41
1
10
16.1082192502761
20
-2.08608825625976
30
0
41
1
10
16.0760372747398
20
-2.09209458860943
30
0
41
1
10
15.8698789509392
20
-2.12882956757233
30
0
41
1
10
15.6970630012041
20
-2.15167406367075
30
0
41
1
10
15.1802287131198
20
-2.19592846316019
30
0
41
1
10
14.8379327133404
20
-2.19314544674791
30
0
41
1
10
14.3217119261605
20
-2.14073589385262
30
0
41
1
10
14.1490843035274
20
-2.11524145020889
30
0
41
1
10
13.8885460019666
20
-2.06496982136267
30
0
41
1
10
13.8013369938236
20
-2.04617563754263
30
0
41
1
10
13.6278045729247
20
-2.00494724554679
30
0
41
1
10
13.5413002430808
20
-1.98248346933445
30
0
41
1
10
13.109689761257
20
-1.86130459045634
30
0
41
1
10
12.7673881723089
20
-1.73595142787735
30
0
41
1
10
12.251548518878
20
-1.51223451443778
30
0
41
1
10
12.0792712973215
20
-1.43164450636289
30
0
41
1
10
11.732958545608
20
-1.25945803083621
30
0
41
1
10
11.5584025224547
20
-1.16749477006169
30
0
41
1
10
11.0391433237463
20
-0.882013448950886
30
0
41
1
10
10.6963252780692
20
-0.677822614575518
30
0
41
1
10
10.181008686433
20
-0.360309689383627
30
0
41
1
10
10.008986121716
20
-0.252706255752202
30
0
41
1
10
9.74980779657736
20
-0.089847008592983
30
0
41
1
10
9.66322706952758
20
-0.0353135464757486
30
0
41
1
10
9.48957657136634
20
0.0740778756912732
30
0
41
1
10
9.40235439500611
20
0.129021588899405
30
0
41
1
10
8.96827374758391
20
0.401627142576331
30
0
41
1
10
8.625238168039
20
0.614502803538869
30
0
41
1
10
7.93815484061341
20
1.01565845762545
30
0
41
1
10
7.59430659005255
20
1.20427821684186
30
0
41
1
10
6.89784889631932
20
1.54504711441862
30
0
41
1
10
6.55374587055096
20
1.69211653443267
30
0
41
1
10
5.86636618682843
20
1.93233126184472
30
0
41
1
10
5.52338231562135
20
2.02591591862404
30
0
41
1
10
5.00264863026126
20
2.11994842112324
30
0
41
1
10
4.82819953729066
20
2.14348862820177
30
0
41
1
10
4.49134435494929
20
2.17306132560662
30
0
41
1
10
4.32835358566979
20
2.1802025514647
30
0
41
1
10
4.16509117784616
20
2.18011540131951
30
0
0
SPLINE
5
D4
100
AcDbEntity
8
1
62
256
6
ByLayer
370
13
48
1
60
0
100
AcDbSpline
70
4
71
3
72
8
73
4
40
0
40
0
40
0
40
0
40
1
40
1
40
1
40
1
41
1
10
4.13271341718792
20
-2.18000336158224
30
0
41
1
10
4.15339513675104
20
-2.17041529318428
30
0
41
1
10
4.1749852313452
20
-2.16568927320466
30
0
41
1
10
4.19727384645887
20
-2.16558163840452
30
0
0
SPLINE
5
D5
100
AcDbEntity
8
1
62
256
6
ByLayer
370
18
48
1
60
0
100
AcDbSpline
70
4
71
3
72
66
73
62
40
0
40
0
40
0
40
0
40
0.0114222030588139
40
0.0114222030588139
40
0.0464508361412271
40
0.0464508361412271
40
0.0814794692236403
40
0.0814794692236403
40
0.116508102306054
40
0.116508102306054
40
0.151536735388467
40
0.151536735388467
40
0.18656536847088
40
0.18656536847088
40
0.221594001553293
40
0.221594001553293
40
0.256622634635707
40
0.256622634635707
40
0.29165126771812
40
0.29165126771812
40
0.326679900800533
40
0.326679900800533
40
0.361708533882946
40
0.361708533882946
40
0.396737166965359
40
0.396737166965359
40
0.431765800047773
40
0.431765800047773
40
0.466794433130186
40
0.466794433130186
40
0.501823066212599
40
0.501823066212599
40
0.536851699295012
40
0.536851699295012
40
0.571880332377426
40
0.571880332377426
40
0.606908965459839
40
0.606908965459839
40
0.641937598542252
40
0.641937598542252
40
0.676966231624665
40
0.676966231624665
40
0.711994864707079
40
0.711994864707079
40
0.747023497789492
40
0.747023497789492
40
0.782052130871905
40
0.782052130871905
40
0.817080763954318
40
0.817080763954318
40
0.852109397036731
40
0.852109397036731
40
0.887138030119144
40
0.887138030119144
40
0.922166663201558
40
0.922166663201558
40
0.957195296283971
40
0.957195296283971
40
0.992223929366384
40
0.992223929366384
40
1
40
1
40
1
40
1
41
1
10
9.74068918194067
20
2.07122338069499
30
0
41
1
10
9.79121433705257
20
2.07118098817082
30
0
41
1
10
9.84175764074377
20
2.07043804855047
30
0
41
1
10
10.0474729031115
20
2.06456717760671
30
0
41
1
10
10.2030492881133
20
2.05380815341565
30
0
41
1
10
10.5134135224946
20
2.02199642860495
30
0
41
1
10
10.6677753575846
20
2.00088535063091
30
0
41
1
10
10.9757217180392
20
1.9442387618962
30
0
41
1
10
11.1292519512808
20
1.90990427595443
30
0
41
1
10
11.4358346478376
20
1.83082565859021
30
0
41
1
10
11.588887448481
20
1.78630790800111
30
0
41
1
10
11.8960982803229
20
1.6866423832268
30
0
41
1
10
12.0499759142357
20
1.63229782735516
30
0
41
1
10
12.3585978372592
20
1.51203771322628
30
0
41
1
10
12.5137943972286
20
1.44566738109219
30
0
41
1
10
12.8246432594667
20
1.30648178485745
30
0
41
1
10
12.979905885698
20
1.23354704392557
30
0
41
1
10
13.2900144849045
20
1.08036461856219
30
0
41
1
10
13.4447893543828
20
0.999388558830958
30
0
41
1
10
13.7558138608377
20
0.833048717514743
30
0
41
1
10
13.9113221823469
20
0.746875587161838
30
0
41
1
10
14.2214081947583
20
0.570640407770384
30
0
41
1
10
14.3760935319567
20
0.480305841368619
30
0
41
1
10
14.6865246116815
20
0.298396200451322
30
0
41
1
10
14.8423772242718
20
0.206130320293227
30
0
41
1
10
15.1527151258907
20
0.0205800405277046
30
0
41
1
10
15.3073597165703
20
-0.0727984004722657
30
0
41
1
10
15.6174144046888
20
-0.257799435921385
30
0
41
1
10
15.772917309073
20
-0.34968658115028
30
0
41
1
10
16.0837281112688
20
-0.531389981169042
30
0
41
1
10
16.2379878372289
20
-0.620696072485345
30
0
41
1
10
16.5460841857288
20
-0.79438278205879
30
0
41
1
10
16.7000104932997
20
-0.878772692320979
30
0
41
1
10
17.0070272817159
20
-1.04175440487879
30
0
41
1
10
17.1601486877012
20
-1.12026145670356
30
0
41
1
10
17.4670697076712
20
-1.27066901910226
30
0
41
1
10
17.6210916822361
20
-1.34236790253723
30
0
41
1
10
17.9298956012996
20
-1.47842666760874
30
0
41
1
10
18.0851988786517
20
-1.54295607299079
30
0
41
1
10
18.3951913171379
20
-1.66164216617724
30
0
41
1
10
18.5495786992878
20
-1.71490137881122
30
0
41
1
10
18.8573386321531
20
-1.81139676748242
30
0
41
1
10
19.0107139504764
20
-1.85511624107411
30
0
41
1
10
19.3170427313697
20
-1.93282555036626
30
0
41
1
10
19.4702724913498
20
-1.96467908282329
30
0
41
1
10
19.7772266802511
20
-2.01606400925178
30
0
41
1
10
19.9308643543891
20
-2.03601778527474
30
0
41
1
10
20.2391064411076
20
-2.06459426025327
30
0
41
1
10
20.3943778933836
20
-2.07313598760231
30
0
41
1
10
20.7050294016804
20
-2.0796466786546
30
0
41
1
10
20.8597741968599
20
-2.07649654116096
30
0
41
1
10
21.1688361661346
20
-2.05566618262444
30
0
41
1
10
21.3235221774492
20
-2.03855836365804
30
0
41
1
10
21.6338960836053
20
-1.99242717461539
30
0
41
1
10
21.7892396688526
20
-1.96309069850651
30
0
41
1
10
22.0988428650521
20
-1.89492780095253
30
0
41
1
10
22.2535754955188
20
-1.85625710454929
30
0
41
1
10
22.5636170182734
20
-1.76585511462406
30
0
41
1
10
22.7192181491616
20
-1.71423950276551
30
0
41
1
10
22.908299945456
20
-1.64530743746502
30
0
41
1
10
22.9426175747648
20
-1.63258636118661
30
0
41
1
10
22.9769075107986
20
-1.61966318364165
30
0
0
SPLINE
5
D6
100
AcDbEntity
8
1
62
256
6
ByLayer
370
18
48
1
60
0
100
AcDbSpline
70
4
71
3
72
22
73
18
40
0
40
0
40
0
40
0
40
0.0411082149268343
40
0.0411082149268343
40
0.16096968806098
40
0.16096968806098
40
0.280831161195126
40
0.280831161195126
40
0.400692634329271
40
0.400692634329271
40
0.520554107463416
40
0.520554107463416
40
0.640415580597562
40
0.640415580597562
40
0.760277053731708
40
0.760277053731708
40
1
40
1
40
1
40
1
41
1
10
31.5005478035783
20
2.08362098879812
30
0
41
1
10
31.5534399035723
20
2.08386250303289
30
0
41
1
10
31.6063968608057
20
2.08334568611019
30
0
41
1
10
31.8141051771425
20
2.0782241346536
30
0
41
1
10
31.9697874709168
20
2.06800828956364
30
0
41
1
10
32.2797461244627
20
2.03617724052734
30
0
41
1
10
32.4343635988834
20
2.01444444055019
30
0
41
1
10
32.7437240121276
20
1.95709208635733
30
0
41
1
10
32.899170980033
20
1.9220720175484
30
0
41
1
10
33.209631353748
20
1.84160359075185
30
0
41
1
10
33.3644421060442
20
1.7959814313308
30
0
41
1
10
33.6738477735526
20
1.69453950656802
30
0
41
1
10
33.8287846554032
20
1.63923115630482
30
0
41
1
10
34.1394933521586
20
1.51775928573684
30
0
41
1
10
34.2943807000516
20
1.45169937817013
30
0
41
1
10
34.7560853532027
20
1.24219983244768
30
0
41
1
10
35.0626203893934
20
1.08902339064494
30
0
41
1
10
35.3688494340631
20
0.923422644553852
30
0
0
SPLINE
5
D7
100
AcDbEntity
8
1
62
256
6
ByLayer
370
18
48
1
60
0
100
AcDbSpline
70
4
71
3
72
12
73
8
40
0
40
0
40
0
40
0
40
0.250000000000003
40
0.250000000000003
40
0.500000000000006
40
0.500000000000006
40
1
40
1
40
1
40
1
41
1
10
37.2513776693847
20
-2.16841214911537
30
0
41
1
10
37.2564511264707
20
-2.15511758083767
30
0
41
1
10
37.2611667688671
20
-2.14136255653122
30
0
41
1
10
37.2683136820203
20
-2.11678680118342
30
0
41
1
10
37.270676071327
20
-2.10612420008278
30
0
41
1
10
37.2736250743206
20
-2.08331105862379
30
0
41
1
10
37.2707291998382
20
-2.07909130734871
30
0
41
1
10
37.2657795613709
20
-2.08118448242806
30
0
0
SPLINE
5
D8
100
AcDbEntity
8
1
62
256
6
ByLayer
370
18
48
1
60
0
100
AcDbSpline
70
4
71
3
72
17
73
13
40
0
40
0
40
0
40
0
40
0.25
40
0.25
40
0.5
40
0.5
40
0.625
40
0.625
40
0.75
40
0.875
40
0.875
40
1
40
1
40
1
40
1
41
1
10
37.2403967360183
20
-2.08699281553461
30
0
41
1
10
37.178681619242
20
-2.08698877758346
30
0
41
1
10
37.1229037783428
20
-2.06889640362385
30
0
41
1
10
37.0258608217815
20
-1.99229219982249
30
0
41
1
10
36.9863477810327
20
-1.93530028910877
30
0
41
1
10
36.94114295784
20
-1.82063230584282
30
0
41
1
10
36.9283721452807
20
-1.77712524430072
30
0
41
1
10
36.9083503715089
20
-1.68123270467109
30
0
41
1
10
36.8939003021705
20
-1.5772883821852
30
0
41
1
10
36.8903912444215
20
-1.45753298238986
30
0
41
1
10
36.8925022814665
20
-1.32965586984869
30
0
41
1
10
36.8964260029349
20
-1.26145465713614
30
0
41
1
10
36.9030916433055
20
-1.19101024831792
30
0
0
SPLINE
5
D9
100
AcDbEntity
8
1
62
256
6
ByLayer
370
18
48
1
60
0
100
AcDbSpline
70
4
71
3
72
75
73
71
40
0
40
0
40
0
40
0
40
0.0496019666056886
40
0.0496019666056886
40
0.0884792226742037
40
0.0884792226742037
40
0.127356478742719
40
0.127356478742719
40
0.166233734811234
40
0.166233734811234
40
0.205110990879749
40
0.205110990879749
40
0.28286550301678
40
0.28286550301678
40
0.321742759085295
40
0.321742759085295
40
0.360620015153811
40
0.360620015153811
40
0.438374527290841
40
0.438374527290841
40
0.457813155325099
40
0.457813155325099
40
0.467532469342228
40
0.46996229784651
40
0.471177212098651
40
0.471784669224722
40
0.471784669224722
40
0.472088397787757
40
0.472088397787757
40
0.472392126350792
40
0.472392126350792
40
0.477251783359357
40
0.477251783359357
40
0.496690411393616
40
0.496690411393616
40
0.516129039427875
40
0.516129039427875
40
0.59388355156491
40
0.59388355156491
40
0.671638063701946
40
0.671638063701946
40
0.710515319770463
40
0.710515319770463
40
0.749392575838981
40
0.749392575838981
40
0.759111889856111
40
0.759111889856111
40
0.761541718360393
40
0.761541718360393
40
0.763971546864675
40
0.763971546864675
40
0.764275275427711
40
0.764275275427711
40
0.764579003990746
40
0.765186461116816
40
0.766401375368958
40
0.76883120387324
40
0.788269831907498
40
0.788269831907498
40
0.827147087976014
40
0.827147087976014
40
0.866024344044531
40
0.866024344044531
40
0.904901600113048
40
0.904901600113048
40
0.943778856181564
40
0.943778856181564
40
0.982656112250081
40
0.982656112250081
40
1
40
1
40
1
40
1
41
1
10
7.54564145614214
20
1.01306155473733
30
0
41
1
10
7.46153681227364
20
1.04503221101808
30
0
41
1
10
7.3772230763264
20
1.073375437902
30
0
41
1
10
7.22591009483287
20
1.11525810179813
30
0
41
1
10
7.15942665291402
20
1.13049834105206
30
0
41
1
10
7.02817524794818
20
1.15314457798564
30
0
41
1
10
6.96311548941509
20
1.16063213984026
30
0
41
1
10
6.83362936589259
20
1.16717523379
30
0
41
1
10
6.76920221622547
20
1.16622913573505
30
0
41
1
10
6.64027694945554
20
1.15538624492814
30
0
41
1
10
6.57554175545329
20
1.14538592270259
30
0
41
1
10
6.38472459406432
20
1.10296176369789
30
0
41
1
10
6.26046715834667
20
1.05816735848316
30
0
41
1
10
6.07287513911069
20
0.971158662537789
30
0
41
1
10
6.00984123605582
20
0.938667073489597
30
0
41
1
10
5.88432501433169
20
0.868785671433471
30
0
41
1
10
5.82190746944937
20
0.831471895518575
30
0
41
1
10
5.63457527210551
20
0.713845810416984
30
0
41
1
10
5.50951249585469
20
0.627872738254155
30
0
41
1
10
5.35024579780472
20
0.514559872922376
30
0
41
1
10
5.31836267013986
20
0.491682514716984
30
0
41
1
10
5.27047189813351
20
0.457124277108562
30
0
41
1
10
5.25050633544771
20
0.442676420244794
30
0
41
1
10
5.22852987365451
20
0.426730794875169
30
0
41
1
10
5.22153602029948
20
0.4216524559736
30
0
41
1
10
5.21853837929248
20
0.41947505364854
30
0
41
1
10
5.2170395135839
20
0.418386193839723
30
0
41
1
10
5.21748294177283
20
0.417595868050569
30
0
41
1
10
5.21813128456884
20
0.416556428390805
30
0
41
1
10
5.21851274146115
20
0.416074900870939
30
0
41
1
10
5.22517161057536
20
0.408149725348693
30
0
41
1
10
5.2331401026623
20
0.402351918268181
30
0
41
1
10
5.27091328512864
20
0.371704342563049
30
0
41
1
10
5.3022698533926
20
0.348693993929373
30
0
41
1
10
5.36487575399471
20
0.302567320096898
30
0
41
1
10
5.39634428892498
20
0.279743378173634
30
0
41
1
10
5.55402496348745
20
0.166128621408859
30
0
41
1
10
5.68124617901248
20
0.0768224899576921
30
0
41
1
10
5.93549000473669
20
-0.101732398210828
30
0
41
1
10
6.06283611069605
20
-0.190540664505704
30
0
41
1
10
6.25342754095982
20
-0.324103765595765
30
0
41
1
10
6.3168790216705
20
-0.36869063675266
30
0
41
1
10
6.44341634567434
20
-0.45821732546915
30
0
41
1
10
6.50665596360744
20
-0.503007445019392
30
0
41
1
10
6.58453537930109
20
-0.560212130353818
30
0
41
1
10
6.60007637709253
20
-0.571696662958374
30
0
41
1
10
6.61908714933389
20
-0.58646067103254
30
0
41
1
10
6.62286784654833
20
-0.589436153172386
30
0
41
1
10
6.63029350321804
20
-0.5955073819066
30
0
41
1
10
6.63430653039393
20
-0.598410379253437
30
0
41
1
10
6.63750150976142
20
-0.602472164631706
30
0
41
1
10
6.63803484857226
20
-0.603125719490123
30
0
41
1
10
6.63723946391337
20
-0.603689273725593
30
0
41
1
10
6.63604647130921
20
-0.604534063127204
30
0
41
1
10
6.63326343045071
20
-0.606501427563614
30
0
41
1
10
6.62769973058383
20
-0.610420913470165
30
0
41
1
10
6.59752186007503
20
-0.631532269909599
30
0
41
1
10
6.5690962708461
20
-0.650567549292902
30
0
41
1
10
6.49359436643982
20
-0.69891931127151
30
0
41
1
10
6.44392580997976
20
-0.727782420844335
30
0
41
1
10
6.34532536331591
20
-0.778111906195278
30
0
41
1
10
6.2963584793581
20
-0.799610721069939
30
0
41
1
10
6.19789691293005
20
-0.83436603518831
30
0
41
1
10
6.14878030229727
20
-0.847451381216075
30
0
41
1
10
6.05032926249717
20
-0.863982417730199
30
0
41
1
10
6.00083158057549
20
-0.867491703309923
30
0
41
1
10
5.89915689482501
20
-0.863922344357491
30
0
41
1
10
5.84650167225158
20
-0.856709484131386
30
0
41
1
10
5.7680389295912
20
-0.838015544312611
30
0
41
1
10
5.74360746480949
20
-0.831150910392012
30
0
41
1
10
5.71886904178155
20
-0.823228783160289
30
0
0
SPLINE
5
DA
100
AcDbEntity
8
1
62
256
6
ByLayer
370
18
48
1
60
0
100
AcDbSpline
70
4
71
3
72
10
73
6
40
0
40
0
40
0
40
0
40
0.5
40
0.5
40
1
40
1
40
1
40
1
41
1
10
4.11304687799077
20
-2.1798339075265
30
0
41
1
10
4.09265938877533
20
-2.17960662471347
30
0
41
1
10
4.07514932593853
20
-2.17919450205781
30
0
41
1
10
4.0492927359507
20
-2.17752069023862
30
0
41
1
10
4.04111573613108
20
-2.17624010787148
30
0
41
1
10
4.04111729782562
20
-2.17445336898288
30
0
0
SPLINE
5
DB
100
AcDbEntity
8
1
62
256
6
ByLayer
370
18
48
1
60
0
100
AcDbSpline
70
4
71
3
72
16
73
12
40
0
40
0
40
0
40
0
40
0.250000000000003
40
0.250000000000003
40
0.500000000000006
40
0.500000000000006
40
0.75000000000001
40
0.75000000000001
40
0.875000000000005
40
0.875000000000005
40
1
40
1
40
1
40
1
41
1
10
37.69952818775
20
1.0935665693261
30
0
41
1
10
37.6669585620916
20
1.18036858272231
30
0
41
1
10
37.6343146908459
20
1.26708767296824
30
0
41
1
10
37.5691071308969
20
1.44061540745577
30
0
41
1
10
37.5364963214238
20
1.52737887874289
30
0
41
1
10
37.4710361716486
20
1.70060857499186
30
0
41
1
10
37.4381067911171
20
1.78683923934153
30
0
41
1
10
37.3888233070128
20
1.91639840400472
30
0
41
1
10
37.3723994326664
20
1.95959241339963
30
0
41
1
10
37.3394201512958
20
2.04572688833724
30
0
41
1
10
37.3228004005238
20
2.08854332415649
30
0
41
1
10
37.3060450697142
20
2.13109841438825
30
0
0
SPLINE
5
DC
100
AcDbEntity
8
1
62
256
6
ByLayer
370
13
48
1
60
0
100
AcDbSpline
70
4
71
3
72
28
73
24
40
0
40
0
40
0
40
0
40
0.0870459730129332
40
0.0870459730129332
40
0.20828015237584
40
0.20828015237584
40
0.450748511101651
40
0.450748511101651
40
0.511365600783102
40
0.511365600783102
40
0.571982690464553
40
0.571982690464553
40
0.693216869827451
40
0.693216869827451
40
0.7538339595089
40
0.7538339595089
40
0.814451049190349
40
0.814451049190349
40
0.935685228553247
40
0.935685228553247
40
0.996302318234697
40
0.996302318234697
40
1
40
1
40
1
40
1
41
1
10
36.9752796114976
20
-2.08685120567165
30
0
41
1
10
36.7292132595364
20
-2.08541096700429
30
0
41
1
10
36.4841983601768
20
-2.06812224953259
30
0
41
1
10
35.8973702550198
20
-1.98999149236096
30
0
41
1
10
35.5548127270596
20
-1.91456548344252
30
0
41
1
10
34.5160366515674
20
-1.60367173386968
30
0
41
1
10
33.8404688205773
20
-1.29355431251832
30
0
41
1
10
32.9775049363084
20
-0.827437401520683
30
0
41
1
10
32.8039981967422
20
-0.730321730930825
30
0
41
1
10
32.4599386477765
20
-0.533112163166976
30
0
41
1
10
32.2886301521585
20
-0.43266042464046
30
0
41
1
10
31.7756741758539
20
-0.127810260982272
30
0
41
1
10
31.4345490413179
20
0.0793470241478644
30
0
41
1
10
30.9187039541148
20
0.386828594555538
30
0
41
1
10
30.745355271209
20
0.489203610401006
30
0
41
1
10
30.4000237630639
20
0.688456965728591
30
0
41
1
10
30.2282218740215
20
0.785235866195933
30
0
41
1
10
29.7139584809777
20
1.06486597376133
30
0
41
1
10
29.3732293976597
20
1.23813456573629
30
0
41
1
10
28.8581746639416
20
1.46805618204996
30
0
41
1
10
28.6858122934574
20
1.53960497076204
30
0
41
1
10
28.5019844298074
20
1.6098814744735
30
0
41
1
10
28.4914194302359
20
1.61389805809679
30
0
41
1
10
28.4808582233241
20
1.61789068131549
30
0
0
SPLINE
5
DD
100
AcDbEntity
8
1
62
256
6
ByLayer
370
18
48
1
60
0
100
AcDbSpline
70
4
71
3
72
14
73
10
40
0
40
0
40
0
40
0
40
0.0758264604205255
40
0.0758264604205255
40
0.344715756259051
40
0.344715756259051
40
0.882494347936105
40
0.882494347936105
40
1
40
1
40
1
40
1
41
1
10
15.2392583758045
20
-2.07377625808408
30
0
41
1
10
15.1907474514935
20
-2.07375678319809
30
0
41
1
10
15.1421853791359
20
-2.0731292286398
30
0
41
1
10
14.9211261725702
20
-2.06749970573665
30
0
41
1
10
14.7472466852976
20
-2.05527548659978
30
0
41
1
10
14.2291588088149
20
-1.99589562469612
30
0
41
1
10
13.8870673929858
20
-1.9264380986142
30
0
41
1
10
13.4696507511224
20
-1.80898510680888
30
0
41
1
10
13.3947810957787
20
-1.78662232337436
30
0
41
1
10
13.3198473180414
20
-1.7629992417354
30
0
0
SPLINE
5
DE
100
AcDbEntity
8
1
62
256
6
ByLayer
370
13
48
1
60
0
100
AcDbSpline
70
4
71
3
72
24
73
20
40
0
40
0
40
0
40
0
40
0.0447639302504851
40
0.0447639302504851
40
0.124274378023626
40
0.124274378023626
40
0.442316169116186
40
0.442316169116186
40
0.521826616889327
40
0.521826616889327
40
0.601337064662467
40
0.601337064662467
40
0.760357960208747
40
0.760357960208747
40
0.839868407981889
40
0.839868407981889
40
0.919378855755031
40
0.919378855755031
40
1
40
1
40
1
40
1
41
1
10
13.319846364787
20
-1.7629989412192
30
0
41
1
10
13.2233087867118
20
-1.73256518794739
30
0
41
1
10
13.1266647824323
20
-1.70003967977991
30
0
41
1
10
12.8577934918789
20
-1.60417684872405
30
0
41
1
10
12.6846998477938
20
-1.53630178656647
30
0
41
1
10
11.8181752908532
20
-1.1689895253738
30
0
41
1
10
11.1411031389227
20
-0.794551846575445
30
0
41
1
10
10.2751343461899
20
-0.285937780200385
30
0
41
1
10
10.1017655677599
20
-0.182676910583496
30
0
41
1
10
9.75742849672906
20
0.0228901126034202
30
0
41
1
10
9.58590306830882
20
0.125548957483744
30
0
41
1
10
9.0718913517546
20
0.430846508062217
30
0
41
1
10
8.72996363569465
20
0.630786077164629
30
0
41
1
10
8.21193579041085
20
0.914857454672955
30
0
41
1
10
8.03788605402173
20
1.00709973754792
30
0
41
1
10
7.69259919705172
20
1.18186825724501
30
0
41
1
10
7.52079557976987
20
1.26475779412223
30
0
41
1
10
7.17548552045827
20
1.42166697338817
30
0
41
1
10
7.00194253803258
20
1.4954542468837
30
0
41
1
10
6.82817599485711
20
1.56337857238145
30
0
0
LINE
5
76
100
AcDbEntity
8
81
62
256
6
ByLayer
370
18
48
1
60
0
100
AcDbLine
10
38
20
0
30
0
11
43
21
0
31
0
39
0
210
0
220
0
230
1
0
LINE
5
77
100
AcDbEntity
8
1
62
256
6
ByLayer
370
18
48
1
60
0
100
AcDbLine
10
4.164497
20
2.180115
30
0
11
1.398338
21
2.178455
31
0
39
0
210
0
220
0
230
1
0
LINE
5
79
100
AcDbEntity
8
1
62
256
6
ByLayer
370
18
48
1
60
0
100
AcDbLine
10
15.050581
20
2.186647
30
0
11
14.662835
21
2.186414
31
0
39
0
210
0
220
0
230
1
0
LINE
5
7A
100
AcDbEntity
8
1
62
256
6
ByLayer
370
18
48
1
60
0
100
AcDbLine
10
25.935282
20
2.193177
30
0
11
25.54764
21
2.192945
31
0
39
0
210
0
220
0
230
1
0
LINE
5
7B
100
AcDbEntity
8
1
62
256
6
ByLayer
370
18
48
1
60
0
100
AcDbLine
10
36.820082
20
2.199708
30
0
11
36.435593
21
2.199478
31
0
39
0
210
0
220
0
230
1
0
LINE
5
7C
100
AcDbEntity
8
1
62
256
6
ByLayer
370
18
48
1
60
0
100
AcDbLine
10
36.435593
20
-2.199478
30
0
11
36.820075
21
-2.199708
31
0
39
0
210
0
220
0
230
1
0
LINE
5
7D
100
AcDbEntity
8
1
62
256
6
ByLayer
370
18
48
1
60
0
100
AcDbLine
10
25.54764
20
-2.192945
30
0
11
25.935605
21
-2.193178
31
0
39
0
210
0
220
0
230
1
0
LINE
5
7E
100
AcDbEntity
8
1
62
256
6
ByLayer
370
18
48
1
60
0
100
AcDbLine
10
14.662835
20
-2.186414
30
0
11
15.049371
21
-2.186646
31
0
39
0
210
0
220
0
230
1
0
LINE
5
7F
100
AcDbEntity
8
1
62
256
6
ByLayer
370
18
48
1
60
0
100
AcDbLine
10
1.398338
20
-2.178455
30
0
11
4.164412
21
-2.180115
31
0
39
0
210
0
220
0
230
1
0
LINE
5
80
100
AcDbEntity
8
SK1
62
256
6
ByLayer
370
18
48
1
60
0
100
AcDbLine
10
-35.278312
20
3
30
0
11
-36
21
1.75
31
0
39
0
210
0
220
0
230
1
0
LINE
5
82
100
AcDbEntity
8
SK1
62
256
6
ByLayer
370
18
48
1
60
0
100
AcDbLine
10
-36
20
-1.75
30
0
11
-35.278312
21
-3
31
0
39
0
210
0
220
0
230
1
0
LINE
5
83
100
AcDbEntity
8
SK1
62
256
6
ByLayer
370
18
48
1
60
0
100
AcDbLine
10
0
20
3
30
0
11
-35.278312
21
3
31
0
39
0
210
0
220
0
230
1
0
LINE
5
84
100
AcDbEntity
8
SK1
62
256
6
ByLayer
370
18
48
1
60
0
100
AcDbLine
10
-35.278312
20
-3
30
0
11
0
21
-3
31
0
39
0
210
0
220
0
230
1
0
LINE
5
85
100
AcDbEntity
8
SK4
62
256
6
ByLayer
370
18
48
0.05
60
0
100
AcDbLine
10
43
20
0
30
0
11
-41
21
0
31
0
39
0
210
0
220
0
230
1
0
LINE
5
87
100
AcDbEntity
8
4
62
256
6
ByLayer
370
18
48
0.05
60
0
100
AcDbLine
10
38
20
0
30
0
11
0
21
0
31
0
39
0
210
0
220
0
230
1
0
LINE
5
89
100
AcDbEntity
8
80
62
256
6
ByLayer
370
18
48
1
60
0
100
AcDbLine
10
0
20
0
30
0
11
-5
21
0
31
0
39
0
210
0
220
0
230
1
0
LINE
5
8A
100
AcDbEntity
8
1
62
256
6
ByLayer
370
18
48
1
60
0
100
AcDbLine
10
31.691517
20
-0.436744
30
0
11
31.694566
21
-0.442454
31
0
39
0
210
0
220
0
230
1
0
LINE
5
8B
100
AcDbEntity
8
1
62
256
6
ByLayer
370
13
48
1
60
0
100
AcDbLine
10
0.698929
20
2.589228
30
0
11
0.698929
21
-2.589228
31
0
39
0
210
0
220
0
230
1
0
LINE
5
8C
100
AcDbEntity
8
1
62
256
6
ByLayer
370
13
48
1
60
0
100
AcDbLine
10
37.418552
20
0.117099
30
0
11
37.895469
21
-0.165871
31
0
39
0
210
0
220
0
230
1
0
LINE
5
8D
100
AcDbEntity
8
1
62
256
6
ByLayer
370
18
48
1
60
0
100
AcDbLine
10
37.933809
20
0.259387
30
0
11
37.892419
21
0.452429
31
0
39
0
210
0
220
0
230
1
0
LINE
5
8E
100
AcDbEntity
8
1
62
256
6
ByLayer
370
13
48
1
60
0
100
AcDbLine
10
37.892419
20
0.452429
30
0
11
37.608458
21
0.452429
31
0
39
0
210
0
220
0
230
1
0
LINE
5
8F
100
AcDbEntity
8
1
62
256
6
ByLayer
370
18
48
1
60
0
100
AcDbLine
10
38
20
0
30
0
11
37.996404
21
-0.022311
31
0
39
0
210
0
220
0
230
1
0
LINE
5
90
100
AcDbEntity
8
1
62
256
6
ByLayer
370
13
48
1
60
0
100
AcDbLine
10
37.608458
20
0.452429
30
0
11
37.933809
21
0.259387
31
0
39
0
210
0
220
0
230
1
0
LINE
5
91
100
AcDbEntity
8
1
62
256
6
ByLayer
370
13
48
1
60
0
100
AcDbLine
10
1.398338
20
2.178455
30
0
11
1.398338
21
-2.178455
31
0
39
0
210
0
220
0
230
1
0
LINE
5
92
100
AcDbEntity
8
1
62
256
6
ByLayer
370
18
48
1
60
0
100
AcDbLine
10
37.933809
20
-0.259387
30
0
11
37.892419
21
-0.452429
31
0
39
0
210
0
220
0
230
1
0
LINE
5
93
100
AcDbEntity
8
1
62
256
6
ByLayer
370
18
48
1
60
0
100
AcDbLine
10
36.903092
20
-1.19101
30
0
11
37.895469
21
-0.165871
31
0
39
0
210
0
220
0
230
1
0
LINE
5
94
100
AcDbEntity
8
1
62
256
6
ByLayer
370
18
48
1
60
0
100
AcDbLine
10
0
20
-3
30
0
11
0
21
3
31
0
39
0
210
0
220
0
230
1
0
LINE
5
95
100
AcDbEntity
8
1
62
256
6
ByLayer
370
18
48
1
60
0
100
AcDbLine
10
37.996404
20
0.022311
30
0
11
38
21
0
31
0
39
0
210
0
220
0
230
1
0
LINE
5
96
100
AcDbEntity
8
1
62
256
6
ByLayer
370
18
48
1
60
0
100
AcDbLine
10
38
20
0
30
0
11
37.240397
21
-2.086993
31
0
39
0
210
0
220
0
230
1
0
LINE
5
97
100
AcDbEntity
8
SK1
62
256
6
ByLayer
370
18
48
1
60
0
100
AcDbLine
10
0
20
-3
30
0
11
0
21
3
31
0
39
0
210
0
220
0
230
1
0
LINE
5
98
100
AcDbEntity
8
SK1
62
256
6
ByLayer
370
18
48
1
60
0
100
AcDbLine
10
-35.278312
20
3
30
0
11
-35.278312
21
-3
31
0
39
0
210
0
220
0
230
1
0
LINE
5
99
100
AcDbEntity
8
SK1
62
256
6
ByLayer
370
18
48
1
60
0
100
AcDbLine
10
-36
20
1.75
30
0
11
-36
21
-1.75
31
0
39
0
210
0
220
0
230
1
0
MTEXT
5
DF
100
AcDbEntity
8
SK6
62
256
6
ByLayer
370
13
48
1
60
0
100
AcDbMText
10
3.129169
20
34.582694
30
0
210
0
220
0
230
1
1
\W0.7781;R840-0440-50-A0A1220
40
3.5
41
0
44
1.084337
50
0
71
8
72
5
7
iso_b_vert
0
DIMENSION
5
EC
100
AcDbEntity
8
SK2
62
256
6
ByLayer
370
13
48
1
60
0
100
AcDbDimension
2
DimnDraft3D1
10
37.26
20
-12.413398
30
0
11
17.510059
21
-12.413398
31
0
70
32
71
5
72
1
41
1
210
0
220
0
230
1
3
Standard
100
AcDbAlignedDimension
13
0
23
-1.5875
33
0
14
37.26
24
-3.7875
34
0
50
0
100
AcDbRotatedDimension
1001
ACAD
1000
DSTYLE
1002
{
1070
   279
1070
     0
1070
   172
1070
     1
1070
   173
1070
     1
1070
   340
1005
E0
1070
   271
1070
     2
1070
   272
1070
     2
1070
    77
1070
     1
1070
    73
1070
     0
1070
   171
1070
     3
1070
   274
1070
     4
1070
   177
1070
    35
1070
   176
1070
    35
1070
   178
1070
    35
1070
    48
1040
-0.005
1070
    41
1041
3.5
1070
   147
1041
1.75
1070
    42
1041
1.5875
1070
    44
1041
2.0
1070
   140
1041
3.5
1070
   343
1005
0
1070
   344
1005
0
1002
}
0
DIMENSION
5
F6
100
AcDbEntity
8
SK2
62
256
6
ByLayer
370
13
48
1
60
0
100
AcDbDimension
2
DimnDraft3D2
10
38
20
-31.692985
30
0
11
1.6013
21
-31.692985
31
0
70
32
71
5
72
1
41
1
210
0
220
0
230
1
3
Standard
100
AcDbAlignedDimension
13
-36
23
-4.5875
33
0
14
38
24
-1.5875
34
0
50
0
100
AcDbRotatedDimension
1001
ACAD
1000
DSTYLE
1002
{
1070
   279
1070
     0
1070
   172
1070
     1
1070
   173
1070
     1
1070
   340
1005
E0
1070
   271
1070
     2
1070
   272
1070
     2
1070
    77
1070
     1
1070
    73
1070
     0
1070
   171
1070
     3
1070
   274
1070
     4
1070
   177
1070
    35
1070
   176
1070
    35
1070
   178
1070
    35
1070
    48
1040
-0.005
1070
    41
1041
3.5
1070
   147
1041
1.75
1070
    42
1041
1.5875
1070
    44
1041
2.0
1070
   140
1041
3.5
1070
   343
1005
0
1070
   344
1005
0
1002
}
0
DIMENSION
5
100
100
AcDbEntity
8
SK2
62
256
6
ByLayer
370
13
48
1
60
0
100
AcDbDimension
2
DimnDraft3D3
10
38
20
13.809119
30
0
11
26.63
21
13.809119
31
0
70
32
71
5
72
1
41
1
210
0
220
0
230
1
3
Standard
100
AcDbAlignedDimension
13
15.26
23
3.7875
33
0
14
38
24
1.5875
34
0
50
0
100
AcDbRotatedDimension
1001
ACAD
1000
DSTYLE
1002
{
1070
   279
1070
     0
1070
   172
1070
     1
1070
   173
1070
     1
1070
   340
1005
E0
1070
   271
1070
     2
1070
   272
1070
     2
1070
    77
1070
     1
1070
    73
1070
     0
1070
   171
1070
     3
1070
   274
1070
     4
1070
   177
1070
    35
1070
   176
1070
    35
1070
   178
1070
    35
1070
    48
1040
-0.005
1070
    41
1041
3.5
1070
   147
1041
1.75
1070
    42
1041
1.5875
1070
    44
1041
2.0
1070
   140
1041
3.5
1070
   343
1005
0
1070
   344
1005
0
1002
}
0
DIMENSION
5
10A
100
AcDbEntity
8
SK2
62
256
6
ByLayer
370
13
48
1
60
0
100
AcDbDimension
2
DimnDraft3D4
10
37.26
20
-15.002503
30
0
11
47.981425
21
-15.002503
31
0
70
32
71
5
72
1
41
1
210
0
220
0
230
1
3
Standard
100
AcDbAlignedDimension
13
38
23
-1.5875
33
0
14
37.26
24
-3.7875
34
0
50
0
100
AcDbRotatedDimension
1001
ACAD
1000
DSTYLE
1002
{
1070
   279
1070
     0
1070
   172
1070
     1
1070
   173
1070
     1
1070
   340
1005
E0
1070
   271
1070
     2
1070
   272
1070
     2
1070
    77
1070
     1
1070
    73
1070
     0
1070
   171
1070
     3
1070
   274
1070
     4
1070
   177
1070
    35
1070
   176
1070
    35
1070
   178
1070
    35
1070
    48
1040
-0.005
1070
    41
1041
3.5
1070
   147
1041
1.75
1070
    42
1041
1.5875
1070
    44
1041
2.0
1070
   140
1041
3.5
1070
   343
1005
0
1070
   344
1005
0
1002
}
0
DIMENSION
5
114
100
AcDbEntity
8
SK2
62
256
6
ByLayer
370
13
48
1
60
0
100
AcDbDimension
2
DimnDraft3D5
10
37.26
20
-21.343428
30
0
11
-1.479324
21
-21.343428
31
0
70
32
71
5
72
1
41
1
210
0
220
0
230
1
3
Standard
100
AcDbAlignedDimension
13
-36
23
-4.5875
33
0
14
37.26
24
-3.7875
34
0
50
0
100
AcDbRotatedDimension
1001
ACAD
1000
DSTYLE
1002
{
1070
   279
1070
     0
1070
   172
1070
     1
1070
   173
1070
     1
1070
   340
1005
E0
1070
   271
1070
     2
1070
   272
1070
     2
1070
    77
1070
     1
1070
    73
1070
     0
1070
   171
1070
     3
1070
   274
1070
     4
1070
   177
1070
    35
1070
   176
1070
    35
1070
   178
1070
    35
1070
    48
1040
-0.005
1070
    41
1041
3.5
1070
   147
1041
1.75
1070
    42
1041
1.5875
1070
    44
1041
2.0
1070
   140
1041
3.5
1070
   343
1005
0
1070
   344
1005
0
1002
}
0
DIMENSION
5
11F
100
AcDbEntity
8
SK2
62
256
6
ByLayer
370
13
48
1
60
0
100
AcDbDimension
2
DimnDraft3D6
10
-46.625163
20
3
30
0
11
-47.250163
21
21.47418
31
0
70
33
71
5
72
1
41
1
210
0
220
0
230
1
3
Standard
100
AcDbAlignedDimension
13
-37.5875
23
-3
33
0
14
-37.5875
24
3
34
0
1001
ACAD
1000
DSTYLE
1002
{
1070
   279
1070
     0
1070
    74
1070
     0
1070
   173
1070
     1
1070
   340
1005
E0
1070
   271
1070
     3
1070
   272
1070
     2
1070
    77
1070
     1
1070
    73
1070
     0
1070
   171
1070
     3
1070
   274
1070
     4
1070
   177
1070
    35
1070
   176
1070
    35
1070
   178
1070
    35
1070
    48
1040
-0.005
1070
    41
1041
3.5
1070
   147
1041
1.75
1070
    42
1041
1.5875
1070
    44
1041
2.0
1070
   140
1041
3.5
1070
   343
1005
0
1070
   344
1005
0
1002
}
0
DIMENSION
5
12A
100
AcDbEntity
8
2
62
256
6
ByLayer
370
13
48
1
60
0
100
AcDbDimension
2
DimnDraft3D7
10
52.083343
20
2.2
30
0
11
47.458343
21
19.267266
31
0
70
33
71
5
72
1
41
1
210
0
220
0
230
1
3
Standard
100
AcDbAlignedDimension
13
38.8475
23
-2.2
33
0
14
38.8475
24
2.2
34
0
1001
ACAD
1000
DSTYLE
1002
{
1070
   279
1070
     0
1070
    74
1070
     0
1070
   173
1070
     1
1070
   340
1005
E0
1070
   271
1070
     3
1070
   272
1070
     2
1070
    77
1070
     1
1070
    73
1070
     0
1070
   171
1070
     3
1070
   274
1070
     4
1070
   177
1070
    35
1070
   176
1070
    35
1070
   178
1070
    35
1070
    48
1040
-0.005
1070
    41
1041
3.5
1070
   147
1041
1.75
1070
    42
1041
1.5875
1070
    44
1041
2.0
1070
   140
1041
3.5
1070
   343
1005
0
1070
   344
1005
0
1002
}
0
ENDSEC
0
SECTION
2
OBJECTS
0
DICTIONARY
5
195
330
0
100
AcDbDictionary
280
0
281
1
3
ACAD_GROUP
350
196
3
ACAD_MLINESTYLE
350
197
0
DICTIONARY
5
196
330
0
100
AcDbDictionary
280
0
281
1
0
DICTIONARY
5
197
330
0
100
AcDbDictionary
280
0
281
1
3
Standard
350
18
0
MLINESTYLE
5
18
330
197
100
AcDbMlineStyle
2
Standard
70
0
3

62
256
51
90
52
90
71
2
49
-0.5
62
256
6
ByLayer
49
0.5
62
256
6
ByLayer
0
RASTERVARIABLES
5
183
330

100
AcDbRasterVariables
90
0
70
1
71
1
72
1
0
ENDSEC
0
EOF
