0
SECTION
2
HEADER
9
$ACADVER
1
AC1015
9
$DWGCODEPAGE
3
ANSI_1252
9
$HANDSEED
5
1a1
9
$ANGBASE
50
0
9
$ANGDIR
70
0
9
$ATTMODE
70
1
9
$AUNITS
70
0
9
$AUPREC
70
0
9
$CECOLOR
62
256
9
$CELTSCALE
40
1
9
$CELTYPE
6
ByLayer
9
$CELWEIGHT
370
18
9
$CLAYER
8
0
9
$CMLJUST
70
0
9
$CMLSCALE
40
1
9
$CMLSTYLE
2
Standard
9
$DIMSTYLE
2
Standard
9
$TEXTSIZE
40
0.2
9
$TEXTSTYLE
7
Standard
9
$LUNITS
70
2
9
$LUPREC
70
4
9
$EXTNAMES
290
1
9
$INSUNITS
70
4
9
$LTSCALE
40
1
9
$LWDISPLAY
290
1
9
$PDMODE
70
0
9
$PDSIZE
40
0
9
$PLINEGEN
70
0
0
ENDSEC
0
SECTION
2
CLASSES
0
CLASS
1
RASTERVARIABLES
2
AcDbRasterVariables
3
ISM
90
0
280
0
281
0
0
ENDSEC
0
SECTION
2
TABLES
0
TABLE
2
VPORT
5
197
100
AcDbSymbolTable
0
VPORT
5
1
100
AcDbSymbolTableRecord
100
AcDbViewportTableRecord
2
*Active
70
0
10
0
20
0
11
1
21
1
12
-1
22
1
13
0
23
0
14
0.5
24
0.5
15
10
25
10
16
0
26
0
36
1
17
0
27
0
37
0
0
ENDTAB
0
TABLE
2
LTYPE
5
198
100
AcDbSymbolTable
0
LTYPE
5
14
100
AcDbSymbolTableRecord
100
AcDbLinetypeTableRecord
70
0
2
ByBlock
3

72
65
73
0
40
0
0
LTYPE
5
15
100
AcDbSymbolTableRecord
100
AcDbLinetypeTableRecord
70
0
2
ByLayer
3

72
65
73
0
40
0
0
LTYPE
5
16
100
AcDbSymbolTableRecord
100
AcDbLinetypeTableRecord
70
0
2
CONTINUOUS
3
Solid line
72
65
73
0
40
0
0
LTYPE
5
6A
100
AcDbSymbolTableRecord
100
AcDbLinetypeTableRecord
70
0
2
CENTER
3
____ _ ____ _ ____ _ ____
72
65
73
4
40
47.5
49
22
74
0
49
-8.5
74
0
49
8.5
74
0
49
-8.5
74
0
0
LTYPE
5
6B
100
AcDbSymbolTableRecord
100
AcDbLinetypeTableRecord
70
0
2
DASHED
3
__ __ __ __ __ __ __ __ __
72
65
73
2
40
25.72
49
12.86
74
0
49
-12.86
74
0
0
ENDTAB
0
TABLE
2
LAYER
5
199
100
AcDbSymbolTable
0
LAYER
5
10
100
AcDbSymbolTableRecord
100
AcDbLayerTableRecord
2
0
70
0
62
7
6
CONTINUOUS
290
1
370
-3
390
0
0
LAYER
5
6D
100
AcDbSymbolTableRecord
100
AcDbLayerTableRecord
2
81
70
0
62
-3
6
CONTINUOUS
290
1
370
-3
390
0
0
LAYER
5
6F
100
AcDbSymbolTableRecord
100
AcDbLayerTableRecord
2
80
70
0
62
-6
6
CONTINUOUS
290
1
370
-3
390
0
0
LAYER
5
74
100
AcDbSymbolTableRecord
100
AcDbLayerTableRecord
2
2
70
0
62
7
6
CONTINUOUS
290
1
370
-3
390
0
0
LAYER
5
78
100
AcDbSymbolTableRecord
100
AcDbLayerTableRecord
2
1
70
0
62
4
6
CONTINUOUS
290
1
370
-3
390
0
0
LAYER
5
86
100
AcDbSymbolTableRecord
100
AcDbLayerTableRecord
2
4
70
0
62
-2
6
CENTER
290
1
370
-3
390
0
0
LAYER
5
183
100
AcDbSymbolTableRecord
100
AcDbLayerTableRecord
2
SK2
70
0
62
7
6
CONTINUOUS
290
1
370
-3
390
0
0
LAYER
5
184
100
AcDbSymbolTableRecord
100
AcDbLayerTableRecord
2
SK1
70
0
62
4
6
CONTINUOUS
290
1
370
-3
390
0
0
LAYER
5
185
100
AcDbSymbolTableRecord
100
AcDbLayerTableRecord
2
SK4
70
0
62
2
6
CENTER
290
1
370
-3
390
0
0
LAYER
5
186
100
AcDbSymbolTableRecord
100
AcDbLayerTableRecord
2
SK6
70
0
62
5
6
CONTINUOUS
290
1
370
-3
390
0
0
ENDTAB
0
TABLE
2
STYLE
5
19a
100
AcDbSymbolTable
0
STYLE
5
11
100
AcDbSymbolTableRecord
100
AcDbTextStyleTableRecord
2
Standard
3
txt
70
0
71
0
40
0
41
1
42
0
50
0
0
STYLE
5
DF
100
AcDbSymbolTableRecord
100
AcDbTextStyleTableRecord
2
iso_b_vert
3
simplex.shx
70
0
71
0
40
0
41
1
42
0
50
0
0
STYLE
5
E0
100
AcDbSymbolTableRecord
100
AcDbTextStyleTableRecord
2
DWGDirectTextStyle
3
simplex
70
0
71
0
40
0
41
1
42
0
50
0
0
ENDTAB
0
TABLE
2
DIMSTYLE
5
19b
100
AcDbSymbolTable
100
AcDbDimStyleTable
0
DIMSTYLE
105
27
100
AcDbSymbolTableRecord
100
AcDbDimStyleTableRecord
2
Standard
70
0
3
<>
41
0.18
42
0.0625
44
0.18
140
0.18
147
0.09
73
0
74
0
77
1
271
2
275
0
278
52
280
0
340
11
0
ENDTAB
0
TABLE
2
VIEW
5
19c
100
AcDbSymbolTable
0
ENDTAB
0
TABLE
2
UCS
5
19d
100
AcDbSymbolTable
0
ENDTAB
0
TABLE
2
APPID
5
19e
100
AcDbSymbolTable
0
APPID
5
12
100
AcDbSymbolTableRecord
100
AcDbRegAppTableRecord
2
ACAD
70
0
0
ENDTAB
0
TABLE
2
BLOCK_RECORD
5
19f
100
AcDbSymbolTable
0
BLOCK_RECORD
5
1F
100
AcDbSymbolTableRecord
100
AcDbBlockTableRecord
2
*Model_Space
340
0
70
0
0
BLOCK_RECORD
5
1B
100
AcDbSymbolTableRecord
100
AcDbBlockTableRecord
2
*Paper_Space
340
0
70
0
0
BLOCK_RECORD
5
23
100
AcDbSymbolTableRecord
100
AcDbBlockTableRecord
2
*Paper_Space0
340
0
70
0
0
BLOCK_RECORD
5
E2
100
AcDbSymbolTableRecord
100
AcDbBlockTableRecord
2
DimnDraft3D1
340
0
70
0
0
BLOCK_RECORD
5
EC
100
AcDbSymbolTableRecord
100
AcDbBlockTableRecord
2
DimnDraft3D2
340
0
70
0
0
BLOCK_RECORD
5
F6
100
AcDbSymbolTableRecord
100
AcDbBlockTableRecord
2
DimnDraft3D3
340
0
70
0
0
BLOCK_RECORD
5
100
100
AcDbSymbolTableRecord
100
AcDbBlockTableRecord
2
DimnDraft3D4
340
0
70
0
0
BLOCK_RECORD
5
10A
100
AcDbSymbolTableRecord
100
AcDbBlockTableRecord
2
DimnDraft3D5
340
0
70
0
0
BLOCK_RECORD
5
114
100
AcDbSymbolTableRecord
100
AcDbBlockTableRecord
2
DimnDraft3D6
340
0
70
0
0
BLOCK_RECORD
5
11F
100
AcDbSymbolTableRecord
100
AcDbBlockTableRecord
2
DimnDraft3D7
340
0
70
0
0
ENDTAB
0
ENDSEC
0
SECTION
2
BLOCKS
0
BLOCK
5
20
100
AcDbEntity
8
0
100
AcDbBlockBegin
2
*Model_Space
70
0
10
0
20
0
30
0
3
*Model_Space
0
ENDBLK
5
21
100
AcDbEntity
8
0
100
AcDbBlockEnd
0
BLOCK
5
1C
100
AcDbEntity
8
0
100
AcDbBlockBegin
2
*Paper_Space
70
0
10
0
20
0
30
0
3
*Paper_Space
0
ENDBLK
5
1D
100
AcDbEntity
8
0
100
AcDbBlockEnd
0
BLOCK
5
24
100
AcDbEntity
8
0
100
AcDbBlockBegin
2
*Paper_Space0
70
0
10
0
20
0
30
0
3
*Paper_Space0
0
ENDBLK
5
25
100
AcDbEntity
8
0
100
AcDbBlockEnd
0
BLOCK
5
E9
100
AcDbEntity
8
0
100
AcDbBlockBegin
2
DimnDraft3D1
70
0
10
0
20
0
30
0
3
DimnDraft3D1
0
MTEXT
5
E3
100
AcDbEntity
8
SK2
62
256
6
ByLayer
370
13
48
1
60
0
100
AcDbMText
10
9.071375
20
-11.488398
30
0
210
0
220
0
230
1
1
\W0.7317;29,27
40
3.5
41
0
44
1.084337
50
0
71
7
72
5
7
iso_b_vert
0
LINE
5
E4
100
AcDbEntity
8
SK2
62
256
6
ByLayer
370
13
48
1
60
0
100
AcDbLine
10
0
20
-1.5875
30
0
11
0
21
-14.363398
31
0
39
0
210
0
220
0
230
1
0
LINE
5
E5
100
AcDbEntity
8
SK2
62
256
6
ByLayer
370
13
48
1
60
0
100
AcDbLine
10
29.27
20
-3.7375
30
0
11
29.27
21
-14.363398
31
0
39
0
210
0
220
0
230
1
0
LINE
5
E6
100
AcDbEntity
8
SK2
62
256
6
ByLayer
370
13
48
1
60
0
100
AcDbLine
10
0
20
-12.363398
30
0
11
29.27
21
-12.363398
31
0
39
0
210
0
220
0
230
1
0
SOLID
5
E7
100
AcDbEntity
8
SK2
62
256
6
ByLayer
370
13
48
1
60
0
100
AcDbTrace
10
0
20
-12.363398
30
0
11
3.499998
21
-11.902615
31
0
12
3.500002
22
-12.824182
32
0
13
0
23
-12.363398
33
0
39
0
210
0
220
0
230
1
0
SOLID
5
E8
100
AcDbEntity
8
SK2
62
256
6
ByLayer
370
13
48
1
60
0
100
AcDbTrace
10
29.27
20
-12.363398
30
0
11
25.770002
21
-12.824182
31
0
12
25.769998
22
-11.902615
32
0
13
29.27
23
-12.363398
33
0
39
0
210
0
220
0
230
1
0
ENDBLK
5
EA
100
AcDbEntity
8
0
100
AcDbBlockEnd
0
BLOCK
5
F3
100
AcDbEntity
8
0
100
AcDbBlockBegin
2
DimnDraft3D2
70
0
10
0
20
0
30
0
3
DimnDraft3D2
0
MTEXT
5
ED
100
AcDbEntity
8
SK2
62
256
6
ByLayer
370
13
48
1
60
0
100
AcDbMText
10
-6.837384
20
-30.817985
30
0
210
0
220
0
230
1
1
\W0.7317;66,00
40
3.5
41
0
44
1.084337
50
0
71
7
72
5
7
iso_b_vert
0
LINE
5
EE
100
AcDbEntity
8
SK2
62
256
6
ByLayer
370
13
48
1
60
0
100
AcDbLine
10
-36
20
-4.5875
30
0
11
-36
21
-33.692985
31
0
39
0
210
0
220
0
230
1
0
LINE
5
EF
100
AcDbEntity
8
SK2
62
256
6
ByLayer
370
13
48
1
60
0
100
AcDbLine
10
30
20
-1.5875
30
0
11
30
21
-33.692985
31
0
39
0
210
0
220
0
230
1
0
LINE
5
F0
100
AcDbEntity
8
SK2
62
256
6
ByLayer
370
13
48
1
60
0
100
AcDbLine
10
-36
20
-31.692985
30
0
11
30
21
-31.692985
31
0
39
0
210
0
220
0
230
1
0
SOLID
5
F1
100
AcDbEntity
8
SK2
62
256
6
ByLayer
370
13
48
1
60
0
100
AcDbTrace
10
-36
20
-31.692985
30
0
11
-32.500002
21
-31.232202
31
0
12
-32.499998
22
-32.153769
32
0
13
-36
23
-31.692985
33
0
39
0
210
0
220
0
230
1
0
SOLID
5
F2
100
AcDbEntity
8
SK2
62
256
6
ByLayer
370
13
48
1
60
0
100
AcDbTrace
10
30
20
-31.692985
30
0
11
26.500002
21
-32.153769
31
0
12
26.499998
22
-31.232202
32
0
13
30
23
-31.692985
33
0
39
0
210
0
220
0
230
1
0
ENDBLK
5
F4
100
AcDbEntity
8
0
100
AcDbBlockEnd
0
BLOCK
5
FD
100
AcDbEntity
8
0
100
AcDbBlockBegin
2
DimnDraft3D3
70
0
10
0
20
0
30
0
3
DimnDraft3D3
0
MTEXT
5
F7
100
AcDbEntity
8
SK2
62
256
6
ByLayer
370
13
48
1
60
0
100
AcDbMText
10
19.173816
20
14.634119
30
0
210
0
220
0
230
1
1
\W0.6713;13,63
40
3.5
41
0
44
1.084337
50
0
71
7
72
5
7
iso_b_vert
0
LINE
5
F8
100
AcDbEntity
8
SK2
62
256
6
ByLayer
370
13
48
1
60
0
100
AcDbLine
10
16.37
20
3.7375
30
0
11
16.37
21
15.759119
31
0
39
0
210
0
220
0
230
1
0
LINE
5
F9
100
AcDbEntity
8
SK2
62
256
6
ByLayer
370
13
48
1
60
0
100
AcDbLine
10
30
20
1.5875
30
0
11
30
21
15.759119
31
0
39
0
210
0
220
0
230
1
0
LINE
5
FA
100
AcDbEntity
8
SK2
62
256
6
ByLayer
370
13
48
1
60
0
100
AcDbLine
10
16.37
20
13.759119
30
0
11
30
21
13.759119
31
0
39
0
210
0
220
0
230
1
0
SOLID
5
FB
100
AcDbEntity
8
SK2
62
256
6
ByLayer
370
13
48
1
60
0
100
AcDbTrace
10
16.37
20
13.759119
30
0
11
19.869998
21
14.219903
31
0
12
19.870002
22
13.298335
32
0
13
16.37
23
13.759119
33
0
39
0
210
0
220
0
230
1
0
SOLID
5
FC
100
AcDbEntity
8
SK2
62
256
6
ByLayer
370
13
48
1
60
0
100
AcDbTrace
10
30
20
13.759119
30
0
11
26.500002
21
13.298335
31
0
12
26.499998
22
14.219903
32
0
13
30
23
13.759119
33
0
39
0
210
0
220
0
230
1
0
ENDBLK
5
FE
100
AcDbEntity
8
0
100
AcDbBlockEnd
0
BLOCK
5
107
100
AcDbEntity
8
0
100
AcDbBlockBegin
2
DimnDraft3D4
70
0
10
0
20
0
30
0
3
DimnDraft3D4
0
MTEXT
5
101
100
AcDbEntity
8
SK2
62
256
6
ByLayer
370
13
48
1
60
0
100
AcDbMText
10
36.840636
20
-14.077503
30
0
210
0
220
0
230
1
1
\W0.7150;0,73
40
3.5
41
0
44
1.084337
50
0
71
7
72
5
7
iso_b_vert
0
LINE
5
102
100
AcDbEntity
8
SK2
62
256
6
ByLayer
370
13
48
1
60
0
100
AcDbLine
10
30
20
-1.5875
30
0
11
30
21
-16.952503
31
0
39
0
210
0
220
0
230
1
0
LINE
5
103
100
AcDbEntity
8
SK2
62
256
6
ByLayer
370
13
48
1
60
0
100
AcDbLine
10
29.27
20
-3.7375
30
0
11
29.27
21
-16.952503
31
0
39
0
210
0
220
0
230
1
0
LINE
5
104
100
AcDbEntity
8
SK2
62
256
6
ByLayer
370
13
48
1
60
0
100
AcDbLine
10
20.52
20
-14.952503
30
0
11
43.997215
21
-14.952503
31
0
39
0
210
0
220
0
230
1
0
SOLID
5
105
100
AcDbEntity
8
SK2
62
256
6
ByLayer
370
13
48
1
60
0
100
AcDbTrace
10
30
20
-14.952503
30
0
11
33.499998
21
-14.491719
31
0
12
33.500002
22
-15.413287
32
0
13
30
23
-14.952503
33
0
39
0
210
0
220
0
230
1
0
SOLID
5
106
100
AcDbEntity
8
SK2
62
256
6
ByLayer
370
13
48
1
60
0
100
AcDbTrace
10
29.27
20
-14.952503
30
0
11
25.770002
21
-15.413287
31
0
12
25.769998
22
-14.491719
32
0
13
29.27
23
-14.952503
33
0
39
0
210
0
220
0
230
1
0
ENDBLK
5
108
100
AcDbEntity
8
0
100
AcDbBlockEnd
0
BLOCK
5
111
100
AcDbEntity
8
0
100
AcDbBlockBegin
2
DimnDraft3D5
70
0
10
0
20
0
30
0
3
DimnDraft3D5
0
MTEXT
5
10B
100
AcDbEntity
8
SK2
62
256
6
ByLayer
370
13
48
1
60
0
100
AcDbMText
10
-9.918008
20
-20.468428
30
0
210
0
220
0
230
1
1
\W0.7317;65,27
40
3.5
41
0
44
1.084337
50
0
71
7
72
5
7
iso_b_vert
0
LINE
5
10C
100
AcDbEntity
8
SK2
62
256
6
ByLayer
370
13
48
1
60
0
100
AcDbLine
10
-36
20
-4.5875
30
0
11
-36
21
-23.343428
31
0
39
0
210
0
220
0
230
1
0
LINE
5
10D
100
AcDbEntity
8
SK2
62
256
6
ByLayer
370
13
48
1
60
0
100
AcDbLine
10
29.27
20
-3.7375
30
0
11
29.27
21
-23.343428
31
0
39
0
210
0
220
0
230
1
0
LINE
5
10E
100
AcDbEntity
8
SK2
62
256
6
ByLayer
370
13
48
1
60
0
100
AcDbLine
10
-36
20
-21.343428
30
0
11
29.27
21
-21.343428
31
0
39
0
210
0
220
0
230
1
0
SOLID
5
10F
100
AcDbEntity
8
SK2
62
256
6
ByLayer
370
13
48
1
60
0
100
AcDbTrace
10
-36
20
-21.343428
30
0
11
-32.500002
21
-20.882645
31
0
12
-32.499998
22
-21.804212
32
0
13
-36
23
-21.343428
33
0
39
0
210
0
220
0
230
1
0
SOLID
5
110
100
AcDbEntity
8
SK2
62
256
6
ByLayer
370
13
48
1
60
0
100
AcDbTrace
10
29.27
20
-21.343428
30
0
11
25.770002
21
-21.804212
31
0
12
25.769998
22
-20.882645
32
0
13
29.27
23
-21.343428
33
0
39
0
210
0
220
0
230
1
0
ENDBLK
5
112
100
AcDbEntity
8
0
100
AcDbBlockEnd
0
BLOCK
5
11C
100
AcDbEntity
8
0
100
AcDbBlockBegin
2
DimnDraft3D6
70
0
10
0
20
0
30
0
3
DimnDraft3D6
0
MTEXT
5
115
100
AcDbEntity
8
SK2
62
256
6
ByLayer
370
13
48
1
60
0
100
AcDbMText
10
-46.375163
20
22.34918
30
0
210
0
220
0
230
1
1
\W0.7317;6,000
40
3.5
41
0
44
1.084337
50
90
71
7
72
5
7
iso_b_vert
0
MTEXT
5
116
100
AcDbEntity
8
SK2
62
256
6
ByLayer
370
13
48
1
60
0
100
AcDbMText
10
-46.375163
20
17.126524
30
0
210
0
220
0
230
1
1
%%c
40
3.5
41
0
44
1.084337
50
90
71
7
72
5
7
iso_b_vert
0
LINE
5
117
100
AcDbEntity
8
SK2
62
256
6
ByLayer
370
13
48
1
60
0
100
AcDbLine
10
-37.5875
20
-3
30
0
11
-46.625163
21
-3
31
0
39
0
210
0
220
0
230
1
0
LINE
5
118
100
AcDbEntity
8
SK2
62
256
6
ByLayer
370
13
48
1
60
0
100
AcDbLine
10
-37.5875
20
3
30
0
11
-46.625163
21
3
31
0
39
0
210
0
220
0
230
1
0
LINE
5
119
100
AcDbEntity
8
SK2
62
256
6
ByLayer
370
13
48
1
60
0
100
AcDbLine
10
-44.625163
20
32.121549
30
0
11
-44.625163
21
-11.75
31
0
39
0
210
0
220
0
230
1
0
SOLID
5
11A
100
AcDbEntity
8
SK2
62
256
6
ByLayer
370
13
48
1
60
0
100
AcDbTrace
10
-44.625163
20
-3
30
0
11
-44.164379
21
-6.499998
31
0
12
-45.085946
22
-6.500002
32
0
13
-44.625163
23
-3
33
0
39
0
210
0
220
0
230
1
0
SOLID
5
11B
100
AcDbEntity
8
SK2
62
256
6
ByLayer
370
13
48
1
60
0
100
AcDbTrace
10
-44.625163
20
3
30
0
11
-45.085946
21
6.499998
31
0
12
-44.164379
22
6.500002
32
0
13
-44.625163
23
3
33
0
39
0
210
0
220
0
230
1
0
ENDBLK
5
11D
100
AcDbEntity
8
0
100
AcDbBlockEnd
0
BLOCK
5
127
100
AcDbEntity
8
0
100
AcDbBlockBegin
2
DimnDraft3D7
70
0
10
0
20
0
30
0
3
DimnDraft3D7
0
MTEXT
5
120
100
AcDbEntity
8
2
62
256
6
ByLayer
370
13
48
1
60
0
100
AcDbMText
10
40.333343
20
20.092266
30
0
210
0
220
0
230
1
1
\W0.7581;4,300
40
3.5
41
0
44
1.084337
50
90
71
7
72
5
7
iso_b_vert
0
MTEXT
5
121
100
AcDbEntity
8
2
62
256
6
ByLayer
370
13
48
1
60
0
100
AcDbMText
10
40.333343
20
14.86961
30
0
210
0
220
0
230
1
1
%%c
40
3.5
41
0
44
1.084337
50
90
71
7
72
5
7
iso_b_vert
0
LINE
5
122
100
AcDbEntity
8
2
62
256
6
ByLayer
370
13
48
1
60
0
100
AcDbLine
10
30.8575
20
-2.15
30
0
11
44.083343
21
-2.15
31
0
39
0
210
0
220
0
230
1
0
LINE
5
123
100
AcDbEntity
8
2
62
256
6
ByLayer
370
13
48
1
60
0
100
AcDbLine
10
30.8575
20
2.15
30
0
11
44.083343
21
2.15
31
0
39
0
210
0
220
0
230
1
0
LINE
5
124
100
AcDbEntity
8
2
62
256
6
ByLayer
370
13
48
1
60
0
100
AcDbLine
10
42.083343
20
30.233056
30
0
11
42.083343
21
-10.9
31
0
39
0
210
0
220
0
230
1
0
SOLID
5
125
100
AcDbEntity
8
2
62
256
6
ByLayer
370
13
48
1
60
0
100
AcDbTrace
10
42.083343
20
-2.15
30
0
11
42.544126
21
-5.649998
31
0
12
41.622559
22
-5.650002
32
0
13
42.083343
23
-2.15
33
0
39
0
210
0
220
0
230
1
0
SOLID
5
126
100
AcDbEntity
8
2
62
256
6
ByLayer
370
13
48
1
60
0
100
AcDbTrace
10
42.083343
20
2.15
30
0
11
41.622559
21
5.649998
31
0
12
42.544126
22
5.650002
32
0
13
42.083343
23
2.15
33
0
39
0
210
0
220
0
230
1
0
ENDBLK
5
128
100
AcDbEntity
8
0
100
AcDbBlockEnd
0
ENDSEC
0
SECTION
2
ENTITIES
0
ARC
5
9D
100
AcDbEntity
8
1
62
256
6
ByLayer
370
18
48
1
60
0
100
AcDbCircle
39
0
10
0
20
2.2
30
0
40
0.800000000000004
210
0
220
0
230
1
100
AcDbArc
50
27.276658
51
90
0
ARC
5
9E
100
AcDbEntity
8
1
62
256
6
ByLayer
370
18
48
1
60
0
100
AcDbCircle
39
0
10
-1.422086
20
-2.93326
30
0
40
0.799999999999993
210
0
220
0
230
-1
100
AcDbArc
50
27.276658
51
90.034377
0
ARC
5
9F
100
AcDbEntity
8
1
62
256
6
ByLayer
370
18
48
1
60
0
100
AcDbCircle
39
0
10
0
20
-2.2
30
0
40
0.800000000000004
210
0
220
0
230
1
100
AcDbArc
50
270
51
332.723342
0
ARC
5
A0
100
AcDbEntity
8
1
62
256
6
ByLayer
370
18
48
1
60
0
100
AcDbCircle
39
0
10
-1.422086
20
2.93326
30
0
40
0.799999999999993
210
0
220
0
230
-1
100
AcDbArc
50
269.965623
51
332.723342
0
ELLIPSE
5
A1
100
AcDbEntity
8
1
62
256
6
ByLayer
370
18
48
1
60
0
100
AcDbEllipse
10
8.25
20
2.276724
30
0
11
0.25
21
0
31
0
210
0
220
0
230
1
40
1
41
-2.48917246917234
42
-1.56322977555282
0
ELLIPSE
5
A2
100
AcDbEntity
8
1
62
256
6
ByLayer
370
18
48
1
60
0
100
AcDbEllipse
10
8.25
20
-2.276724
30
0
11
0.25
21
0
31
0
210
0
220
0
230
1
40
1
41
1.57494544754737
42
2.48618075364191
0
ELLIPSE
5
A3
100
AcDbEntity
8
1
62
256
6
ByLayer
370
18
48
1
60
0
100
AcDbEllipse
10
30.0588
20
-0.027621
30
0
11
0.135544944414526
21
-0.427068210027907
31
0
210
0
220
0
230
-1
40
0.100282
41
1.71854420448982
42
2.33653286889976
0
ELLIPSE
5
A4
100
AcDbEntity
8
1
62
256
6
ByLayer
370
13
48
1
60
0
100
AcDbEllipse
10
29.753354
20
0.964186
30
0
11
1.38086904850524
21
-0.950767606781489
31
0
210
0
220
0
230
-1
40
0.533762
41
1.44848543393706
42
1.73876332834723
0
ELLIPSE
5
A5
100
AcDbEntity
8
1
62
256
6
ByLayer
370
18
48
1
60
0
100
AcDbEllipse
10
30.0002
20
0.00047
30
0
11
0.797463535213494
21
2.1478382712991
31
0
210
0
220
0
230
-1
40
0.131755
41
2.84089753904005
42
2.97008183223799
0
ELLIPSE
5
A6
100
AcDbEntity
8
1
62
256
6
ByLayer
370
18
48
1
60
0
100
AcDbEllipse
10
29.565285
20
-1.087383
30
0
11
0.334871337302029
21
0.901921464881461
31
0
210
0
220
0
230
-1
40
0.131755
41
0.736518128024156
42
1.49463593516361
0
ELLIPSE
5
A7
100
AcDbEntity
8
1
62
256
6
ByLayer
370
18
48
1
60
0
100
AcDbEllipse
10
29.565285
20
1.087383
30
0
11
0.334871337286081
21
-0.901921464848649
31
0
210
0
220
0
230
-1
40
0.131755
41
-1.49463593519073
42
-0.736518128026896
0
ELLIPSE
5
A8
100
AcDbEntity
8
1
62
256
6
ByLayer
370
18
48
1
60
0
100
AcDbEllipse
10
30.0588
20
0.027621
30
0
11
0.135544944382822
21
0.427068209946256
31
0
210
0
220
0
230
-1
40
0.100282
41
-2.33653286891425
42
-1.71854420439284
0
ELLIPSE
5
A9
100
AcDbEntity
8
1
62
256
6
ByLayer
370
13
48
1
60
0
100
AcDbEllipse
10
29.613259
20
0.236734
30
0
11
0.153082081612425
21
0.258003636193769
31
0
210
0
220
0
230
1
40
0.454519
41
0.917105603404897
42
2.31336900500028
0
ELLIPSE
5
AA
100
AcDbEntity
8
1
62
256
6
ByLayer
370
18
48
1
60
0
100
AcDbEllipse
10
30.0002
20
-0.00047
30
0
11
0.797463535548741
21
-2.14783827219013
31
0
210
0
220
0
230
-1
40
0.131755
41
-2.97008183227624
42
-2.84089753910466
0
ELLIPSE
5
AB
100
AcDbEntity
8
1
62
256
6
ByLayer
370
13
48
1
60
0
100
AcDbEllipse
10
29.943261
20
1.087383
30
0
11
1.44394349842286
21
-0.616736981786115
31
0
210
0
220
0
230
-1
40
0.45679
41
1.60435068739
42
1.91256936819246
0
ELLIPSE
5
AC
100
AcDbEntity
8
1
62
256
6
ByLayer
370
18
48
1
60
0
100
AcDbEllipse
10
29.860962
20
0.089763
30
0
11
0.0727819104901427
21
0.301917195728294
31
0
210
0
220
0
230
-1
40
0.478434
41
1.68148646261489
42
2.45976119974209
0
POINT
5
6C
100
AcDbEntity
8
81
62
256
6
ByLayer
370
18
48
1
60
0
100
AcDbPoint
10
30
20
0
30
0
39
0
210
0
220
0
230
1
50
360
0
POINT
5
6E
100
AcDbEntity
8
80
62
256
6
ByLayer
370
18
48
1
60
0
100
AcDbPoint
10
0
20
0
30
0
39
0
210
0
220
0
230
1
50
360
0
POINT
5
70
100
AcDbEntity
8
SK2
62
256
6
ByLayer
370
18
48
1
60
1
100
AcDbPoint
10
-36
20
-3
30
0
39
0
210
0
220
0
230
1
50
360
0
POINT
5
72
100
AcDbEntity
8
SK2
62
256
6
ByLayer
370
18
48
1
60
1
100
AcDbPoint
10
-36
20
3
30
0
39
0
210
0
220
0
230
1
50
360
0
POINT
5
73
100
AcDbEntity
8
2
62
256
6
ByLayer
370
18
48
1
60
1
100
AcDbPoint
10
29.27
20
-2.15
30
0
39
0
210
0
220
0
230
1
50
360
0
POINT
5
75
100
AcDbEntity
8
2
62
256
6
ByLayer
370
18
48
1
60
1
100
AcDbPoint
10
29.27
20
2.15
30
0
39
0
210
0
220
0
230
1
50
360
0
SPLINE
5
AD
100
AcDbEntity
8
1
62
256
6
ByLayer
370
18
48
1
60
0
100
AcDbSpline
70
4
71
3
72
16
73
12
40
0
40
0
40
0
40
0
40
0.115130845342017
40
0.217275280795812
40
0.304048330228397
40
0.39380589223156
40
0.485517467076713
40
0.599355541580414
40
0.699127448940753
40
0.831812457036907
40
1
40
1
40
1
40
1
41
1
10
8.25040678281539
20
-2.02658441068502
30
0
41
1
10
8.41780065571135
20
-2.02687355603004
30
0
41
1
10
8.7336989696197
20
-2.02725147889672
30
0
41
1
10
9.17569766481176
20
-2.02715279317638
30
0
41
1
10
9.58085999488702
20
-2.0270220853757
30
0
41
1
10
9.97085119266706
20
-2.0276836807879
30
0
41
1
10
10.4001914467355
20
-2.0280037546421
30
0
41
1
10
10.8440924773374
20
-2.02672728987648
30
0
41
1
10
11.3475623519479
20
-2.02969924532403
30
0
41
1
10
11.9300339283239
20
-2.02904909600665
30
0
41
1
10
12.3674621677504
20
-2.02916984126111
30
0
41
1
10
12.6119846767043
20
-2.02898935659516
30
0
0
SPLINE
5
AE
100
AcDbEntity
8
1
62
256
6
ByLayer
370
18
48
1
60
0
100
AcDbSpline
70
4
71
3
72
17
73
13
40
0
40
0
40
0
40
0
40
0.124742306557619
40
0.210329768244987
40
0.264806226272556
40
0.315301216172171
40
0.497819109524041
40
0.676001452228441
40
0.722039783512838
40
0.785286571643698
40
0.885081654678116
40
1
40
1
40
1
40
1
41
1
10
18.1153090083517
20
-2.03251415322569
30
0
41
1
10
18.3391185424804
20
-2.03229478354117
30
0
41
1
10
18.7165149233421
20
-2.03210912637451
30
0
41
1
10
19.1917333351626
20
-2.0335252990505
30
0
41
1
10
19.5337189246592
20
-2.03324933513054
30
0
41
1
10
20.0496562544796
20
-2.03194219789964
30
0
41
1
10
20.7876041042978
20
-2.03531424983822
30
0
41
1
10
21.517545311404
20
-2.03315568420032
30
0
41
1
10
22.0334497593183
20
-2.0325938168277
30
0
41
1
10
22.4086577075359
20
-2.03685822353472
30
0
41
1
10
22.9074832417107
20
-2.03320312896611
30
0
41
1
10
23.2927902647386
20
-2.03453842908738
30
0
41
1
10
23.4990108129034
20
-2.03520422554965
30
0
0
SPLINE
5
AF
100
AcDbEntity
8
1
62
256
6
ByLayer
370
18
48
1
60
0
100
AcDbSpline
70
4
71
3
72
17
73
13
40
0
40
0
40
0
40
0
40
0.130206191683868
40
0.240472642426367
40
0.318592105364123
40
0.400647601997133
40
0.485631577839846
40
0.570523371377109
40
0.651782621366918
40
0.731161270944534
40
0.85246226566363
40
1
40
1
40
1
40
1
41
1
10
12.6079605082279
20
2.02892943280472
30
0
41
1
10
12.4189017224877
20
2.02872957123148
30
0
41
1
10
12.0697202992326
20
2.02840978879527
30
0
41
1
10
11.6067901730494
20
2.0299686588607
30
0
41
1
10
11.2141970687306
20
2.02867208754461
30
0
41
1
10
10.8580283094677
20
2.02707301700107
30
0
41
1
10
10.4920601738735
20
2.02760416350327
30
0
41
1
10
10.1272347172786
20
2.02813184189736
30
0
41
1
10
9.77056165111455
20
2.027019098051
30
0
41
1
10
9.36096963836039
20
2.02726580345671
30
0
41
1
10
8.85529215202811
20
2.02713868247693
30
0
41
1
10
8.46473612442861
20
2.02681519637028
30
0
41
1
10
8.25038850807636
20
2.02654907973923
30
0
0
SPLINE
5
B0
100
AcDbEntity
8
1
62
256
6
ByLayer
370
18
48
1
60
0
100
AcDbSpline
70
4
71
2
72
6
73
3
40
0
40
0
40
0
40
1
40
1
40
1
41
1
10
28.8763716711371
20
-2.03759196836046
30
0
41
1
10
29.0584495132146
20
-2.03766687542611
30
0
41
1
10
29.2408178367092
20
-2.03863256004098
30
0
0
SPLINE
5
B1
100
AcDbEntity
8
1
62
256
6
ByLayer
370
18
48
1
60
0
100
AcDbSpline
70
4
71
3
72
19
73
15
40
0
40
0
40
0
40
0
40
0.143527433841939
40
0.259988474786544
40
0.365113298934608
40
0.459305009535921
40
0.546359064428675
40
0.626277412771996
40
0.68630028465543
40
0.747804517976074
40
0.810633856804959
40
0.874106038354675
40
0.944543414484699
40
1
40
1
40
1
40
1
41
1
10
23.4973175907355
20
2.0352200818586
30
0
41
1
10
23.2834598740064
20
2.03458858961716
30
0
41
1
10
22.8960703875427
20
2.03349162591448
30
0
41
1
10
22.3520389273849
20
2.03658496330513
30
0
41
1
10
21.8815046661946
20
2.0319194886807
30
0
41
1
10
21.454789869131
20
2.03352616444033
30
0
41
1
10
21.065632809677
20
2.03539374221089
30
0
41
1
10
20.7273904529404
20
2.03373959845246
30
0
41
1
10
20.4272183330682
20
2.03339287106604
30
0
41
1
10
20.1525110439948
20
2.03264371820128
30
0
41
1
10
19.8726615638136
20
2.03246727525246
30
0
41
1
10
19.5795018073576
20
2.03314904067327
30
0
41
1
10
19.2973343475807
20
2.03350034994625
30
0
41
1
10
19.1097452931882
20
2.03316674482917
30
0
41
1
10
19.0271135467336
20
2.03299834131281
30
0
0
SPLINE
5
B2
100
AcDbEntity
8
1
62
256
6
ByLayer
370
18
48
1
60
0
100
AcDbSpline
70
4
71
3
72
12
73
8
40
0
40
0
40
0
40
0
40
0.50000000000003
40
0.50000000000003
40
0.750000000000015
40
0.750000000000015
40
1
40
1
40
1
40
1
41
1
10
8.25069501242075
20
-0.57560886768934
30
0
41
1
10
8.21231447902878
20
-0.55163255716883
30
0
41
1
10
8.17414557369398
20
-0.531517149643832
30
0
41
1
10
8.11930815050204
20
-0.508884406876291
30
0
41
1
10
8.10201315718496
20
-0.502854235268188
30
0
41
1
10
8.06978042195129
20
-0.494069255212764
30
0
41
1
10
8.05509829148755
20
-0.491426341333067
30
0
41
1
10
8.04278160214284
20
-0.49071407927056
30
0
0
SPLINE
5
B3
100
AcDbEntity
8
1
62
256
6
ByLayer
370
18
48
1
60
0
100
AcDbSpline
70
4
71
3
72
60
73
56
40
0
40
0
40
0
40
0
40
0.0389277003377562
40
0.0389277003377562
40
0.0799690704968089
40
0.0799690704968089
40
0.121010440655862
40
0.121010440655862
40
0.141531125735388
40
0.141531125735388
40
0.162051810814914
40
0.162051810814914
40
0.203093180973968
40
0.203093180973968
40
0.244134551133022
40
0.244134551133022
40
0.285175921292075
40
0.285175921292075
40
0.326217291451129
40
0.326217291451129
40
0.367258661610183
40
0.367258661610183
40
0.408300031769237
40
0.408300031769237
40
0.44934140192829
40
0.44934140192829
40
0.490382772087344
40
0.490382772087344
40
0.531424142246398
40
0.531424142246398
40
0.572465512405452
40
0.572465512405452
40
0.613506882564506
40
0.613506882564506
40
0.654548252723559
40
0.654548252723559
40
0.695589622882613
40
0.695589622882613
40
0.71611030796214
40
0.71611030796214
40
0.736630993041667
40
0.736630993041667
40
0.777672363200721
40
0.777672363200721
40
0.818713733359774
40
0.818713733359774
40
0.859755103518828
40
0.859755103518828
40
0.900796473677883
40
0.900796473677883
40
0.941837843836938
40
0.941837843836938
40
0.982879213995993
40
0.982879213995993
40
1
40
1
40
1
40
1
41
1
10
14.9764212313488
20
1.57289322386134
30
0
41
1
10
15.1516790278947
20
1.64632314441954
30
0
41
1
10
15.3265871218543
20
1.71338055226465
30
0
41
1
10
15.6849053342314
20
1.83825261152634
30
0
41
1
10
15.8696406637927
20
1.89430675411964
30
0
41
1
10
16.2390965563794
20
1.99070505971528
30
0
41
1
10
16.4228084417868
20
2.0306867898008
30
0
41
1
10
16.6993046433886
20
2.07715050661525
30
0
41
1
10
16.7914980803808
20
2.0904687505072
30
0
41
1
10
16.9758163616218
20
2.11275697969344
30
0
41
1
10
17.0679441706941
20
2.12173519075762
30
0
41
1
10
17.3448056062033
20
2.14169094944288
30
0
41
1
10
17.5293507761467
20
2.14586332287897
30
0
41
1
10
17.8973168679373
20
2.13611342861239
30
0
41
1
10
18.0816866128907
20
2.12210455618532
30
0
41
1
10
18.4512800381987
20
2.07631183789712
30
0
41
1
10
18.6348595501638
20
2.04427932994787
30
0
41
1
10
19.0033050037082
20
1.9637243216863
30
0
41
1
10
19.1879362107614
20
1.91497891302416
30
0
41
1
10
19.5567402272221
20
1.80086199529768
30
0
41
1
10
19.7410676285545
20
1.73648225276108
30
0
41
1
10
20.1093796348623
20
1.5931608998323
30
0
41
1
10
20.2934242541006
20
1.51374300363008
30
0
41
1
10
20.6629172826264
20
1.34399123679717
30
0
41
1
10
20.8467569247086
20
1.25286347264859
30
0
41
1
10
21.214729168573
20
1.06077788768045
30
0
41
1
10
21.3997062409824
20
0.960461787336669
30
0
41
1
10
21.7684528573675
20
0.750586353194564
30
0
41
1
10
21.9523819687188
20
0.642447974783408
30
0
41
1
10
22.3208577153804
20
0.422181594748395
30
0
41
1
10
22.5049188421456
20
0.308547431569679
30
0
41
1
10
22.8740683787345
20
0.0813010871985398
30
0
41
1
10
23.058305681414
20
-0.0325207822046423
30
0
41
1
10
23.4259143629634
20
-0.260866120119061
30
0
41
1
10
23.6108547723562
20
-0.373627911864475
30
0
41
1
10
23.9797888284055
20
-0.596245213394667
30
0
41
1
10
24.1633465794431
20
-0.705781545231531
30
0
41
1
10
24.4397145881808
20
-0.863788801570649
30
0
41
1
10
24.5318812925507
20
-0.915609331600024
30
0
41
1
10
24.7161825182241
20
-1.0177077614438
30
0
41
1
10
24.8083445904177
20
-1.06813570969209
30
0
41
1
10
25.0848520821327
20
-1.21477930690517
30
0
41
1
10
25.2692215829787
20
-1.3068370461051
30
0
41
1
10
25.637006006775
20
-1.48090631317689
30
0
41
1
10
25.8215541282503
20
-1.56208070739072
30
0
41
1
10
26.1906493583394
20
-1.71001490610044
30
0
41
1
10
26.3740607177446
20
-1.77746882539327
30
0
41
1
10
26.7423557208695
20
-1.89584155708172
30
0
41
1
10
26.9271246354327
20
-1.94740369755132
30
0
41
1
10
27.295438765301
20
-2.03389018701574
30
0
41
1
10
27.4796155635152
20
-2.06828515820018
30
0
41
1
10
27.8477602989611
20
-2.11976259446223
30
0
41
1
10
28.0319223954309
20
-2.13676923238907
30
0
41
1
10
28.293463019459
20
-2.14774532514843
30
0
41
1
10
28.3703211786254
20
-2.14939849118352
30
0
41
1
10
28.4471284656713
20
-2.14946827608398
30
0
0
SPLINE
5
B4
100
AcDbEntity
8
1
62
256
6
ByLayer
370
18
48
1
60
0
100
AcDbSpline
70
4
71
3
72
17
73
13
40
0
40
0
40
0
40
0
40
0.250000000000002
40
0.250000000000002
40
0.500000000000004
40
0.500000000000004
40
0.625000000000003
40
0.625000000000003
40
0.750000000000002
40
0.875000000000001
40
0.875000000000001
40
1
40
1
40
1
40
1
41
1
10
29.2578723888472
20
-2.03897885399684
30
0
41
1
10
29.1976877952416
20
-2.03894137504719
30
0
41
1
10
29.1433339487014
20
-2.0212535444121
30
0
41
1
10
29.0487056108993
20
-1.94643978212179
30
0
41
1
10
29.0101837465536
20
-1.89081075710899
30
0
41
1
10
28.9661044458677
20
-1.77896658003215
30
0
41
1
10
28.9536505700248
20
-1.73654719120017
30
0
41
1
10
28.9341097043189
20
-1.6430412638137
30
0
41
1
10
28.9199938379188
20
-1.54169801444334
30
0
41
1
10
28.9165249050175
20
-1.42497348274156
30
0
41
1
10
28.9185205608061
20
-1.30035443554607
30
0
41
1
10
28.9223076013276
20
-1.23388654019581
30
0
41
1
10
28.9287612441184
20
-1.16523577845874
30
0
0
SPLINE
5
B5
100
AcDbEntity
8
1
62
256
6
ByLayer
370
18
48
1
60
0
100
AcDbSpline
70
4
71
3
72
71
73
67
40
0
40
0
40
0
40
0
40
0.05873091124014
40
0.05873091124014
40
0.0981585989037438
40
0.0981585989037438
40
0.137586286567348
40
0.137586286567348
40
0.216441661894555
40
0.216441661894555
40
0.25586934955816
40
0.25586934955816
40
0.295297037221763
40
0.295297037221763
40
0.374152412548971
40
0.374152412548971
40
0.453007787876179
40
0.453007787876179
40
0.472721631707981
40
0.472721631707981
40
0.473953746947469
40
0.473953746947469
40
0.474569804567212
40
0.474569804567212
40
0.474877833377084
40
0.474877833377084
40
0.475185862186956
40
0.475185862186956
40
0.477650092665931
40
0.477650092665931
40
0.482578553623882
40
0.482578553623882
40
0.492435475539782
40
0.492435475539782
40
0.531863163203385
40
0.531863163203385
40
0.689573913857795
40
0.689573913857795
40
0.729001601521398
40
0.729001601521398
40
0.748715445353199
40
0.748715445353199
40
0.7585723672691
40
0.7585723672691
40
0.761036597748075
40
0.761036597748075
40
0.762268712987562
40
0.762268712987562
40
0.762884770607306
40
0.762884770607306
40
0.763192799417178
40
0.763192799417178
40
0.76350082822705
40
0.768429289185001
40
0.768429289185001
40
0.807856976848606
40
0.807856976848606
40
0.847284664512212
40
0.847284664512212
40
0.886712352175818
40
0.886712352175818
40
0.926140039839423
40
0.926140039839423
40
0.965567727503029
40
0.965567727503029
40
1
40
1
40
1
40
1
41
1
10
11.6283048887216
20
0.301337987943214
30
0
41
1
10
11.5279584172487
20
0.353164827668877
30
0
41
1
10
11.4274963102858
20
0.401658925245954
30
0
41
1
10
11.258686176484
20
0.474523849094112
30
0
41
1
10
11.1906204609256
20
0.501554318362366
30
0
41
1
10
11.0534512590897
20
0.549787474001278
30
0
41
1
10
10.9846494742239
20
0.570816513663203
30
0
41
1
10
10.7816589745506
20
0.621757348176516
30
0
41
1
10
10.6491490289896
20
0.640080488462701
30
0
41
1
10
10.4500387741522
20
0.641445815215434
30
0
41
1
10
10.3832535927972
20
0.637501519868977
30
0
41
1
10
10.2514495590083
20
0.621251871145546
30
0
41
1
10
10.1861788320765
20
0.608998716347884
30
0
41
1
10
9.99083803689598
20
0.560923355674447
30
0
41
1
10
9.86078028734923
20
0.513654058387942
30
0
41
1
10
9.5973617803653
20
0.394360327690578
30
0
41
1
10
9.46558807216317
20
0.323088392228385
30
0
41
1
10
9.29971058849401
20
0.223988822918813
30
0
41
1
10
9.26648857991404
20
0.203671785147407
30
0
41
1
10
9.23115094604597
20
0.181627096108372
30
0
41
1
10
9.22907215053587
20
0.18032868715153
30
0
41
1
10
9.22595379530816
20
0.178378605185486
30
0
41
1
10
9.22456759014878
20
0.178048285675885
30
0
41
1
10
9.22356629403126
20
0.176549986881099
30
0
41
1
10
9.22411501050249
20
0.175892494149991
30
0
41
1
10
9.22482954368553
20
0.174888599035342
30
0
41
1
10
9.22523192790516
20
0.174418709628696
30
0
41
1
10
9.22897360670922
20
0.170275116015176
30
0
41
1
10
9.23286370917884
20
0.167115470495673
30
0
41
1
10
9.24435427686734
20
0.157536588734985
30
0
41
1
10
9.25224008011887
20
0.151417811112935
30
0
41
1
10
9.27601163103873
20
0.133195907468974
30
0
41
1
10
9.29208180787685
20
0.121315413532329
30
0
41
1
10
9.37268633371303
20
0.0622737697627542
30
0
41
1
10
9.43806343255346
20
0.0161729460081688
30
0
41
1
10
9.76531322338809
20
-0.213855144062421
30
0
41
1
10
10.0296957164236
20
-0.394657007012853
30
0
41
1
10
10.3578352804452
20
-0.624465473490119
30
0
41
1
10
10.4233695876816
20
-0.67058687597455
30
0
41
1
10
10.5211687483978
20
-0.74053019790415
30
0
41
1
10
10.5537045457181
20
-0.763945462961999
30
0
41
1
10
10.6020589994191
20
-0.799712712078247
30
0
41
1
10
10.6181522451852
20
-0.811677850018754
30
0
41
1
10
10.6377606386446
20
-0.827312855007619
30
0
41
1
10
10.6416599347914
20
-0.830472807269672
30
0
41
1
10
10.6473390262597
20
-0.835413419587297
30
0
41
1
10
10.6492202684225
20
-0.837079098693778
30
0
41
1
10
10.651820119361
20
-0.839799526699721
30
0
41
1
10
10.6531500606702
20
-0.840742630160207
30
0
41
1
10
10.6530059250214
20
-0.84250475704323
30
0
41
1
10
10.6522959135548
20
-0.842753191932502
30
0
41
1
10
10.6514484578632
20
-0.843530817513965
30
0
41
1
10
10.6442454822097
20
-0.850138383520573
30
0
41
1
10
10.6370495034745
20
-0.856707371366213
30
0
41
1
10
10.5761497831852
20
-0.912031920205635
30
0
41
1
10
10.5223252908474
20
-0.959019324052093
30
0
41
1
10
10.4157959652179
20
-1.04663882710162
30
0
41
1
10
10.3631067359882
20
-1.08728528933432
30
0
41
1
10
10.2576754794907
20
-1.16131625187049
30
0
41
1
10
10.2049438594211
20
-1.19470764568368
30
0
41
1
10
10.0977529754868
20
-1.25273753954613
30
0
41
1
10
10.0434808304853
20
-1.27717385633119
30
0
41
1
10
9.93418340879126
20
-1.31440990588814
30
0
41
1
10
9.87880320965627
20
-1.32740387412852
30
0
41
1
10
9.77157494157956
20
-1.34008750438713
30
0
41
1
10
9.71974150677408
20
-1.34118947880987
30
0
41
1
10
9.66649373346704
20
-1.33730932389426
30
0
0
SPLINE
5
B6
100
AcDbEntity
8
1
62
256
6
ByLayer
370
18
48
1
60
0
100
AcDbSpline
70
4
71
3
72
14
73
10
40
0
40
0
40
0
40
0
40
0.500000000000006
40
0.500000000000006
40
0.75000000000001
40
0.75000000000001
40
0.875000000000005
40
0.875000000000005
40
1
40
1
40
1
40
1
41
1
10
29.7092527991587
20
1.06275204499539
30
0
41
1
10
29.6454937389383
20
1.23358425509949
30
0
41
1
10
29.5812405447538
20
1.40398277990491
30
0
41
1
10
29.484781593167
20
1.65941844246655
30
0
41
1
10
29.4524995559821
20
1.74443243695777
30
0
41
1
10
29.4038812089152
20
1.87152262649499
30
0
41
1
10
29.3876769071883
20
1.91389032133912
30
0
41
1
10
29.3551647721408
20
1.99838038441513
30
0
41
1
10
29.3387977834917
20
2.04036257923812
30
0
41
1
10
29.3223347033119
20
2.08211707728802
30
0
0
SPLINE
5
B7
100
AcDbEntity
8
1
62
256
6
ByLayer
370
18
48
1
60
0
100
AcDbSpline
70
4
71
3
72
32
73
28
40
0
40
0
40
0
40
0
40
0.0932484113387139
40
0.0932484113387139
40
0.186496822677428
40
0.186496822677428
40
0.279745234016141
40
0.279745234016141
40
0.372993645354855
40
0.372993645354855
40
0.419617851024211
40
0.419617851024211
40
0.466242056693567
40
0.466242056693567
40
0.559490468032281
40
0.559490468032281
40
0.652738879370994
40
0.652738879370994
40
0.745987290709708
40
0.745987290709708
40
0.839235702048422
40
0.839235702048422
40
0.885859907717779
40
0.885859907717779
40
0.932484113387136
40
0.932484113387136
40
1
40
1
40
1
40
1
41
1
10
11.6287485270726
20
0.301023140424093
30
0
41
1
10
11.8132011122144
20
0.187418965563552
30
0
41
1
10
11.9978498941249
20
0.074282586457457
30
0
41
1
10
12.3663906295707
20
-0.152934072181694
30
0
41
1
10
12.5502128696766
20
-0.267221071782814
30
0
41
1
10
12.9202050967286
20
-0.49129908227394
30
0
41
1
10
13.104244670047
20
-0.601876997666466
30
0
41
1
10
13.4723890000905
20
-0.816970013325204
30
0
41
1
10
13.6571565480584
20
-0.920681946885793
30
0
41
1
10
13.934118800038
20
-1.07152146768425
30
0
41
1
10
14.0261393666984
20
-1.12082358163093
30
0
41
1
10
14.2104641082865
20
-1.21626963480665
30
0
41
1
10
14.3026746762362
20
-1.26255518367785
30
0
41
1
10
14.5791808019012
20
-1.39749210546265
30
0
41
1
10
14.7630566291263
20
-1.4827288239554
30
0
41
1
10
15.1326835182429
20
-1.63902257927495
30
0
41
1
10
15.3171163803913
20
-1.71008004743868
30
0
41
1
10
15.6849053342344
20
-1.83825261152728
30
0
41
1
10
15.8696406637958
20
-1.89430675412055
30
0
41
1
10
16.2390965563828
20
-1.99070505971608
30
0
41
1
10
16.4228084417903
20
-2.03068678980151
30
0
41
1
10
16.6993046433923
20
-2.07715050661582
30
0
41
1
10
16.7914980803845
20
-2.09046875050771
30
0
41
1
10
16.9758163616257
20
-2.11275697969387
30
0
41
1
10
17.0679441706981
20
-2.12173519075796
30
0
41
1
10
17.293871092453
20
-2.13801966577961
30
0
41
1
10
17.4274956029998
20
-2.14286515365686
30
0
41
1
10
17.5609025345106
20
-2.14295551304045
30
0
0
SPLINE
5
B8
100
AcDbEntity
8
1
62
256
6
ByLayer
370
18
48
1
60
0
100
AcDbSpline
70
4
71
3
72
20
73
16
40
0
40
0
40
0
40
0
40
0.0465939184756028
40
0.0465939184756028
40
0.205494932063002
40
0.205494932063002
40
0.364395945650402
40
0.364395945650402
40
0.523296959237801
40
0.523296959237801
40
0.682197972825201
40
0.682197972825201
40
0.8410989864126
40
0.8410989864126
40
1
40
1
40
1
40
1
41
1
10
25.8437756509698
20
1.56915544236622
30
0
41
1
10
25.8978733589082
20
1.59204995002233
30
0
41
1
10
25.9519875728787
20
1.61435872548216
30
0
41
1
10
26.1906493583501
20
1.71001490610448
30
0
41
1
10
26.3740607177554
20
1.77746882539705
30
0
41
1
10
26.7423557208806
20
1.89584155708496
30
0
41
1
10
26.9271246354439
20
1.94740369755431
30
0
41
1
10
27.2954387653125
20
2.0338901870181
30
0
41
1
10
27.4796155635269
20
2.0682851582022
30
0
41
1
10
27.847760298973
20
2.11976259446354
30
0
41
1
10
28.031922395443
20
2.13676923238998
30
0
41
1
10
28.4010278850084
20
2.15225950701293
30
0
41
1
10
28.5848352055548
20
2.15093802582919
30
0
41
1
10
28.953131273681
20
2.13000777351437
30
0
41
1
10
29.1383278190734
20
2.11055857099848
30
0
41
1
10
29.3223347033172
20
2.08211707727446
30
0
0
SPLINE
5
B9
100
AcDbEntity
8
1
62
256
6
ByLayer
370
18
48
1
60
0
100
AcDbSpline
70
4
71
3
72
26
73
22
40
0
40
0
40
0
40
0
40
0.25
40
0.25
40
0.5
40
0.5
40
0.625
40
0.625
40
0.6875
40
0.6875
40
0.75
40
0.75
40
0.8125
40
0.8125
40
0.875
40
0.875
40
0.9375
40
0.9375
40
0.96875
40
0.96875
40
1
40
1
40
1
40
1
41
1
10
27.4327935776176
20
0.859543532196341
30
0
41
1
10
27.5714594055488
20
0.734773457471476
30
0
41
1
10
27.71397668187
20
0.621425362521535
30
0
41
1
10
28.008217888678
20
0.422032723656258
30
0
41
1
10
28.1613566166798
20
0.335245037017529
30
0
41
1
10
28.3901919880398
20
0.236622506507956
30
0
41
1
10
28.4668033511829
20
0.208776347739757
30
0
41
1
10
28.5805139410203
20
0.176319692625213
30
0
41
1
10
28.6182880363775
20
0.16702495446151
30
0
41
1
10
28.693221355453
20
0.151793276100761
30
0
41
1
10
28.7305826583373
20
0.14524982416512
30
0
41
1
10
28.803295354025
20
0.139997203189182
30
0
41
1
10
28.8383095448928
20
0.141296768137295
30
0
41
1
10
28.9028989558835
20
0.155960547169371
30
0
41
1
10
28.9332865387613
20
0.169562000578082
30
0
41
1
10
28.9826778807151
20
0.211769470125432
30
0
41
1
10
29.0021581937236
20
0.24066501363032
30
0
41
1
10
29.0188107075649
20
0.29317700814093
30
0
41
1
10
29.0223822576676
20
0.312591118436984
30
0
41
1
10
29.0248519071472
20
0.353417828258358
30
0
41
1
10
29.0241914555653
20
0.374641733597343
30
0
41
1
10
29.0221615418176
20
0.396451315089337
30
0
0
SPLINE
5
BA
100
AcDbEntity
8
1
62
256
6
ByLayer
370
18
48
1
60
0
100
AcDbSpline
70
4
71
3
72
20
73
16
40
0
40
0
40
0
40
0
40
0.108968216635735
40
0.108968216635735
40
0.220444714552076
40
0.220444714552076
40
0.331921212468417
40
0.331921212468417
40
0.554874208301098
40
0.554874208301098
40
0.666350706217441
40
0.666350706217441
40
0.777827204133783
40
0.777827204133783
40
1
40
1
40
1
40
1
41
1
10
20.7414373771895
20
1.47794299482186
30
0
41
1
10
20.9555162080913
20
1.38296838887319
30
0
41
1
10
21.1688613829685
20
1.28003726640188
30
0
41
1
10
21.6008176471574
20
1.0582340468045
30
0
41
1
10
21.8193016968154
20
0.938869714011304
30
0
41
1
10
22.2585502764271
20
0.688584462643234
30
0
41
1
10
22.4807688540505
20
0.557478570927145
30
0
41
1
10
23.1409623631395
20
0.159473670619974
30
0
41
1
10
23.5753394931369
20
-0.113431779296008
30
0
41
1
10
24.232058733215
20
-0.511356816571578
30
0
41
1
10
24.4518839885654
20
-0.642455331128843
30
0
41
1
10
24.8944702097201
20
-0.896955465063542
30
0
41
1
10
25.1138432813196
20
-1.01820783603662
30
0
41
1
10
25.7676194254911
20
-1.3597508602829
30
0
41
1
10
26.1991774348176
20
-1.55884143701044
30
0
41
1
10
26.6356988330761
20
-1.71876401471016
30
0
0
SPLINE
5
BB
100
AcDbEntity
8
1
62
256
6
ByLayer
370
13
48
1
60
0
100
AcDbSpline
70
4
71
3
72
16
73
12
40
0
40
0
40
0
40
0
40
0.0017469959196317
40
0.0017469959196317
40
0.126528621429673
40
0.126528621429673
40
0.251310246939713
40
0.251310246939713
40
0.500873497959805
40
0.500873497959805
40
1
40
1
40
1
40
1
41
1
10
26.6356978943071
20
-1.71876367078573
30
0
41
1
10
26.6372311310672
20
-1.71932538268797
30
0
41
1
10
26.6387644290602
20
-1.71988661137715
30
0
41
1
10
26.7498201417785
20
-1.76049935230537
30
0
41
1
10
26.8596526297261
20
-1.79808598446843
30
0
41
1
10
27.0801829790001
20
-1.86798973931747
30
0
41
1
10
27.1910757755692
20
-1.90034311556659
30
0
41
1
10
27.5215031946869
20
-1.98800614556484
30
0
41
1
10
27.7401324458432
20
-2.03424850985329
30
0
41
1
10
28.3945235770675
20
-2.13592419656166
30
0
41
1
10
28.8284143763356
20
-2.15448061082344
30
0
41
1
10
29.2676666444057
20
-2.12084655172501
30
0
0
SPLINE
5
BC
100
AcDbEntity
8
1
62
256
6
ByLayer
370
18
48
1
60
0
100
AcDbSpline
70
4
71
3
72
58
73
54
40
0
40
0
40
0
40
0
40
0.124999999999995
40
0.124999999999995
40
0.249999999999989
40
0.249999999999989
40
0.312499999999986
40
0.312499999999986
40
0.374999999999984
40
0.374999999999984
40
0.499999999999976
40
0.499999999999976
40
0.562499999999972
40
0.562499999999972
40
0.566406249999972
40
0.566406249999972
40
0.570312499999971
40
0.570312499999971
40
0.572265624999971
40
0.572265624999971
40
0.57421874999997
40
0.57421874999997
40
0.57812499999997
40
0.57812499999997
40
0.593749999999971
40
0.593749999999971
40
0.609374999999972
40
0.609374999999972
40
0.624999999999973
40
0.624999999999973
40
0.640624999999974
40
0.640624999999974
40
0.656249999999976
40
0.656249999999976
40
0.671874999999977
40
0.671874999999977
40
0.687499999999978
40
0.687499999999978
40
0.71874999999998
40
0.71874999999998
40
0.749999999999982
40
0.749999999999982
40
0.781249999999985
40
0.781249999999985
40
0.812499999999987
40
0.812499999999987
40
0.843749999999989
40
0.843749999999989
40
0.874999999999991
40
0.874999999999991
40
0.937499999999996
40
0.937499999999996
40
1
40
1
40
1
40
1
41
1
10
11.6278763366596
20
0.30153748165958
30
0
41
1
10
11.2893495949445
20
0.509013898034652
30
0
41
1
10
10.9452795744089
20
0.705469679416836
30
0
41
1
10
10.25383279501
20
1.05510191313419
30
0
41
1
10
9.90475346589653
20
1.20887014162238
30
0
41
1
10
9.3680392328715
20
1.40171943015901
30
0
41
1
10
9.18695880313075
20
1.45976450177278
30
0
41
1
10
8.81936838399093
20
1.56331945353483
30
0
41
1
10
8.63257949193093
20
1.60889083170406
30
0
41
1
10
8.06471338799253
20
1.72739109218887
30
0
41
1
10
7.68004886325068
20
1.78149789523863
30
0
41
1
10
7.0919822401865
20
1.83470300039883
30
0
41
1
10
6.89395920339481
20
1.84776534856243
30
0
41
1
10
6.68292800515792
20
1.85708130047831
30
0
41
1
10
6.67051245487494
20
1.85761243108914
30
0
41
1
10
6.64567743965799
20
1.85864110590893
30
0
41
1
10
6.63325791932877
20
1.8591385270002
30
0
41
1
10
6.6143916207422
20
1.85793480373337
30
0
41
1
10
6.60831713908968
20
1.85727377550631
30
0
41
1
10
6.59684827700644
20
1.85525856030051
30
0
41
1
10
6.59154271759272
20
1.85379252750931
30
0
41
1
10
6.57535017203281
20
1.84967170089783
30
0
41
1
10
6.56459810833985
20
1.84686025897514
30
0
41
1
10
6.51106405371365
20
1.83246001308802
30
0
41
1
10
6.46901923312987
20
1.81986180283107
30
0
41
1
10
6.38758602572346
20
1.7920962734353
30
0
41
1
10
6.34810072539264
20
1.77691175005015
30
0
41
1
10
6.27227572395532
20
1.74303555865635
30
0
41
1
10
6.23572042495536
20
1.72422674725985
30
0
41
1
10
6.16788566071975
20
1.68223384326654
30
0
41
1
10
6.13682825227508
20
1.6592305439352
30
0
41
1
10
6.08211323992816
20
1.60775617857476
30
0
41
1
10
6.05842585453553
20
1.57900321699174
30
0
41
1
10
6.02270354153487
20
1.51716829044054
30
0
41
1
10
6.01026148483496
20
1.483309952409
30
0
41
1
10
5.99829050981191
20
1.4124931149324
30
0
41
1
10
5.99860351457559
20
1.37592815250483
30
0
41
1
10
6.01641489580601
20
1.26274257899087
30
0
41
1
10
6.04984675133164
20
1.18706404086476
30
0
41
1
10
6.13862728638537
20
1.03992327660094
30
0
41
1
10
6.19293551900341
20
0.969754388898366
30
0
41
1
10
6.31257312285038
20
0.832605017318912
30
0
41
1
10
6.37802540954738
20
0.76585762199673
30
0
41
1
10
6.51313691577434
20
0.637113281885973
30
0
41
1
10
6.58330538480979
20
0.574631208170757
30
0
41
1
10
6.72719450086626
20
0.452036193959799
30
0
41
1
10
6.80093525804443
20
0.391940158619434
30
0
41
1
10
6.95110376259743
20
0.273381863526737
30
0
41
1
10
7.02763377125942
20
0.214863237143703
30
0
41
1
10
7.25799345059008
20
0.0429105825640477
30
0
41
1
10
7.41339117886307
20
-0.0676771184997449
30
0
41
1
10
7.72642342074363
20
-0.283304175990054
30
0
41
1
10
7.88408281111242
20
-0.38829740346111
30
0
41
1
10
8.04278160214363
20
-0.490714079271072
30
0
0
SPLINE
5
BD
100
AcDbEntity
8
1
62
256
6
ByLayer
370
18
48
1
60
0
100
AcDbSpline
70
4
71
3
72
10
73
6
40
0
40
0
40
0
40
0
40
0.5
40
0.5
40
1
40
1
40
1
40
1
41
1
10
8.11443475597622
20
2.04063756575866
30
0
41
1
10
8.09407542337868
20
2.0448169403802
30
0
41
1
10
8.07656820621929
20
2.04992443112661
30
0
41
1
10
8.05067930210495
20
2.06136209898017
30
0
41
1
10
8.04246663771946
20
2.06761960725208
30
0
41
1
10
8.04247153401465
20
2.07364670676907
30
0
0
SPLINE
5
BE
100
AcDbEntity
8
1
62
256
6
ByLayer
370
18
48
1
60
0
100
AcDbSpline
70
4
71
3
72
12
73
8
40
0
40
0
40
0
40
0
40
0.249999999999997
40
0.249999999999997
40
0.499999999999995
40
0.499999999999995
40
1
40
1
40
1
40
1
41
1
10
9.66648681227733
20
-1.33730803695389
30
0
41
1
10
9.54630148215554
20
-1.28459041613434
30
0
41
1
10
9.42647029086083
20
-1.22862766849076
30
0
41
1
10
9.18858696359467
20
-1.11117934404919
30
0
41
1
10
9.070408914175
20
-1.04974276917679
30
0
41
1
10
8.71731923798998
20
-0.858389403461615
30
0
41
1
10
8.48380236079325
20
-0.721230975437777
30
0
41
1
10
8.25069501258369
20
-0.57560886779126
30
0
0
SPLINE
5
BF
100
AcDbEntity
8
1
62
256
6
ByLayer
370
18
48
1
60
0
100
AcDbSpline
70
4
71
3
72
8
73
4
40
0
40
0
40
0
40
0
40
1
40
1
40
1
40
1
41
1
10
8.1377883308476
20
2.03609598527541
30
0
41
1
10
8.12988800498579
20
2.0375711476633
30
0
41
1
10
8.12206338648306
20
2.03907155643174
30
0
41
1
10
8.11443475597613
20
2.04063756575869
30
0
0
SPLINE
5
C0
100
AcDbEntity
8
1
62
256
6
ByLayer
370
18
48
1
60
0
100
AcDbSpline
70
4
71
3
72
16
73
12
40
0
40
0
40
0
40
0
40
0.249999999999991
40
0.249999999999991
40
0.499999999999983
40
0.499999999999983
40
0.749999999999974
40
0.749999999999974
40
0.874999999999987
40
0.874999999999987
40
1
40
1
40
1
40
1
41
1
10
29.1938862750428
20
0.672657322956724
30
0
41
1
10
29.2508980590222
20
0.686366131122384
30
0
41
1
10
29.3073014411071
20
0.701968920974025
30
0
41
1
10
29.4180693055662
20
0.739748490623185
30
0
41
1
10
29.4724269607616
20
0.761782777823669
30
0
41
1
10
29.5743756485762
20
0.817755124696788
30
0
41
1
10
29.6232657917194
20
0.852102503097939
30
0
41
1
10
29.6775092403291
20
0.9212479589211
30
0
41
1
10
29.6919514559197
20
0.947243615667816
30
0
41
1
10
29.7092436310445
20
1.00339933098684
30
0
41
1
10
29.7118984987628
20
1.03330564865016
30
0
41
1
10
29.7092527991585
20
1.06275204499531
30
0
0
SPLINE
5
C1
100
AcDbEntity
8
1
62
256
6
ByLayer
370
18
48
1
60
0
100
AcDbSpline
70
4
71
3
72
20
73
16
40
0
40
0
40
0
40
0
40
0.125
40
0.125
40
0.25
40
0.25
40
0.375
40
0.375
40
0.5
40
0.5
40
0.625
40
0.625
40
0.75
40
0.75
40
1
40
1
40
1
40
1
41
1
10
27.4327935776169
20
0.859543532195914
30
0
41
1
10
27.4491782169695
20
0.76077175575594
30
0
41
1
10
27.4756584130618
20
0.660538470330351
30
0
41
1
10
27.5471293619966
20
0.457392171581347
30
0
41
1
10
27.5912073650564
20
0.357246886491197
30
0
41
1
10
27.6918589201925
20
0.161995112631956
30
0
41
1
10
27.7491684381246
20
0.0656542996591725
30
0
41
1
10
27.8716700376962
20
-0.118814223758136
30
0
41
1
10
27.9368590163159
20
-0.207192841932454
30
0
41
1
10
28.0735898259663
20
-0.377730367253207
30
0
41
1
10
28.1451506116525
20
-0.459870716990821
30
0
41
1
10
28.2938062681019
20
-0.618733313264954
30
0
41
1
10
28.3702751549004
20
-0.694754905732424
30
0
41
1
10
28.6030950177174
20
-0.91218233044944
30
0
41
1
10
28.7636791190037
20
-1.04414717813566
30
0
41
1
10
28.9287612441184
20
-1.16523577845874
30
0
0
SPLINE
5
C2
100
AcDbEntity
8
1
62
256
6
ByLayer
370
18
48
1
60
0
100
AcDbSpline
70
4
71
3
72
40
73
36
40
0
40
0
40
0
40
0
40
0.116679123820327
40
0.116679123820327
40
0.17501868573049
40
0.17501868573049
40
0.233358247640653
40
0.233358247640653
40
0.291697809550816
40
0.291697809550816
40
0.35003737146098
40
0.35003737146098
40
0.466716495281306
40
0.466716495281306
40
0.495886276236387
40
0.495886276236387
40
0.525056057191468
40
0.525056057191468
40
0.583395619101629
40
0.583395619101629
40
0.70007474292195
40
0.70007474292195
40
0.72924452387703
40
0.72924452387703
40
0.75841430483211
40
0.75841430483211
40
0.816753866742272
40
0.816753866742272
40
0.875093428652433
40
0.875093428652433
40
0.904263209607513
40
0.904263209607513
40
0.933432990562593
40
0.933432990562593
40
1
40
1
40
1
40
1
41
1
10
29.2627347093313
20
-2.13378811455297
30
0
41
1
10
28.8215179171832
20
-2.16719669024181
30
0
41
1
10
28.3844071483844
20
-2.14794950173552
30
0
41
1
10
27.7230320093783
20
-2.04295039917335
30
0
41
1
10
27.5007089842496
20
-1.99481914539783
30
0
41
1
10
27.059396879114
20
-1.87549887360416
30
0
41
1
10
26.8397440367208
20
-1.80447488367008
30
0
41
1
10
26.400572524628
20
-1.64169755585508
30
0
41
1
10
26.181075494803
20
-1.54990402582703
30
0
41
1
10
25.7399335161559
20
-1.34774269916821
30
0
41
1
10
25.5174337504732
20
-1.23688423365681
30
0
41
1
10
24.8563570989267
20
-0.887351699429388
30
0
41
1
10
24.4208720223738
20
-0.629843674743228
30
0
41
1
10
23.8719110820549
20
-0.294731452527571
30
0
41
1
10
23.7619006844624
20
-0.227027947023146
30
0
41
1
10
23.54116265323
20
-0.0906920390895607
30
0
41
1
10
23.4301565580792
20
-0.0218494135128253
30
0
41
1
10
23.0980667880126
20
0.184210739858798
30
0
41
1
10
22.8782954772722
20
0.32001270230117
30
0
41
1
10
22.2205757981508
20
0.717736693290334
30
0
41
1
10
21.7849184785081
20
0.971056187692398
30
0
41
1
10
21.2320012781812
20
1.25442714683769
30
0
41
1
10
21.1207521427306
20
1.30958118775473
30
0
41
1
10
20.8995669888872
20
1.41526293476338
30
0
41
1
10
20.789390584077
20
1.46584546870238
30
0
41
1
10
20.4596794365284
20
1.61041247733994
30
0
41
1
10
20.240932606212
20
1.69717772504481
30
0
41
1
10
19.8032453134283
20
1.84936487240421
30
0
41
1
10
19.5842670829738
20
1.91476289210644
30
0
41
1
10
19.2540617545115
20
1.99541907848396
30
0
41
1
10
19.1437182272434
20
2.01940729555937
30
0
41
1
10
18.9222753029349
20
2.06134033782374
30
0
41
1
10
18.8111730778863
20
2.07924316537429
30
0
41
1
10
18.448848172224
20
2.12714812337256
30
0
41
1
10
18.1986307108555
20
2.14356178573237
30
0
41
1
10
17.9487429148556
20
2.14323214994971
30
0
0
SPLINE
5
C3
100
AcDbEntity
8
1
62
256
6
ByLayer
370
18
48
1
60
0
100
AcDbSpline
70
4
71
3
72
10
73
6
40
0
40
0
40
0
40
0
40
0.799924802432747
40
0.799924802432747
40
1
40
1
40
1
40
1
41
1
10
8.04247153401508
20
2.07364670676799
30
0
41
1
10
8.04249938107833
20
2.10792508417344
30
0
41
1
10
8.04251715201821
20
2.12849514294169
30
0
41
1
10
8.04253094250512
20
2.1366160508239
30
0
41
1
10
8.0425332741288
20
2.13736030852823
30
0
41
1
10
8.04253524159094
20
2.13723087334464
30
0
0
SPLINE
5
C4
100
AcDbEntity
8
1
62
256
6
ByLayer
370
13
48
1
60
0
100
AcDbSpline
70
4
71
3
72
26
73
22
40
0
40
0
40
0
40
0
40
0.0105927560903149
40
0.0105927560903149
40
0.0867010056218291
40
0.0867010056218291
40
0.238917504684858
40
0.238917504684858
40
0.391134003747886
40
0.391134003747886
40
0.543350502810914
40
0.543350502810914
40
0.619458752342429
40
0.619458752342429
40
0.695567001873943
40
0.695567001873943
40
0.847783500936971
40
0.847783500936971
40
0.923891750468486
40
0.923891750468486
40
1
40
1
40
1
40
1
41
1
10
8.25043200473681
20
-2.02669699759784
30
0
41
1
10
8.25043264328423
20
-2.02674479705533
30
0
41
1
10
8.25043325623187
20
-2.02672889839653
30
0
41
1
10
8.25043807165167
20
-2.02607603254765
30
0
41
1
10
8.25044105258999
20
-2.02225024957548
30
0
41
1
10
8.25044774286505
20
-2.00125575285998
30
0
41
1
10
8.25044922475999
20
-1.97466199127106
30
0
41
1
10
8.25045307537636
20
-1.89534416037378
30
0
41
1
10
8.25045547440894
20
-1.84308056635484
30
0
41
1
10
8.25046642902626
20
-1.71570939877259
30
0
41
1
10
8.25047489771356
20
-1.64155222589261
30
0
41
1
10
8.25049401167382
20
-1.51505437515903
30
0
41
1
10
8.25050143555185
20
-1.4703264618754
30
0
41
1
10
8.25051853112006
20
-1.37559670689919
30
0
41
1
10
8.25052817698511
20
-1.3257788100085
30
0
41
1
10
8.25055969732884
20
-1.1716400866737
30
0
41
1
10
8.25058438063928
20
-1.06175329411425
30
0
41
1
10
8.25062471520278
20
-0.886198203595825
30
0
41
1
10
8.25063875684722
20
-0.825616489647842
30
0
41
1
10
8.25066697889045
20
-0.702232613382023
30
0
41
1
10
8.25068115191331
20
-0.639460578217438
30
0
41
1
10
8.25069501242066
20
-0.575608867690079
30
0
0
SPLINE
5
C5
100
AcDbEntity
8
1
62
256
6
ByLayer
370
18
48
1
60
0
100
AcDbSpline
70
4
71
3
72
8
73
4
40
0
40
0
40
0
40
0
40
1
40
1
40
1
40
1
41
1
10
29.2627347093326
20
-2.13378811453865
30
0
41
1
10
29.2643793054311
20
-2.12947524917954
30
0
41
1
10
29.266023287115
20
-2.12516138602214
30
0
41
1
10
29.2676666444198
20
-2.12084655173084
30
0
0
SPLINE
5
C6
100
AcDbEntity
8
1
62
256
6
ByLayer
370
18
48
1
60
0
100
AcDbSpline
70
4
71
3
72
18
73
14
40
0
40
0
40
0
40
0
40
0.124999999999986
40
0.124999999999986
40
0.249999999999972
40
0.249999999999972
40
0.374999999999958
40
0.374999999999958
40
0.499999999999944
40
0.499999999999944
40
0.749999999999972
40
0.749999999999972
40
1
40
1
40
1
40
1
41
1
10
29.6726109915929
20
-0.396828735306656
30
0
41
1
10
29.6633735654069
20
-0.381889399394936
30
0
41
1
10
29.65529824539
20
-0.365790800372167
30
0
41
1
10
29.6446111295864
20
-0.333402929909823
30
0
41
1
10
29.6421148294627
20
-0.317193981730213
30
0
41
1
10
29.6445098501823
20
-0.28797313648883
30
0
41
1
10
29.6493238190889
20
-0.275554769186328
30
0
41
1
10
29.663331239308
20
-0.255872919543094
30
0
41
1
10
29.6725679840906
20
-0.248359769598835
30
0
41
1
10
29.7029900918439
20
-0.231489898431846
30
0
41
1
10
29.7273222464299
20
-0.22706738611987
30
0
41
1
10
29.7773437168838
20
-0.225457694036237
30
0
41
1
10
29.8036878895288
20
-0.228360757731707
30
0
41
1
10
29.8304191483294
20
-0.233810734005203
30
0
0
SPLINE
5
C7
100
AcDbEntity
8
1
62
256
6
ByLayer
370
18
48
1
60
0
100
AcDbSpline
70
4
71
3
72
14
73
10
40
0
40
0
40
0
40
0
40
0.544363980152612
40
0.544363980152612
40
0.823381876055459
40
0.823381876055459
40
0.962890824006877
40
0.962890824006877
40
1
40
1
40
1
40
1
41
1
10
29.2499834207668
20
-2.03481534513182
30
0
41
1
10
28.8222576370337
20
-2.05094580012434
30
0
41
1
10
28.3990762161488
20
-2.01987553870555
30
0
41
1
10
27.7558021327775
20
-1.90613903408766
30
0
41
1
10
27.5373353398808
20
-1.85594234016182
30
0
41
1
10
27.2072085607317
20
-1.76369550772625
30
0
41
1
10
27.0965795129726
20
-1.73006582128002
30
0
41
1
10
26.9573757507562
20
-1.68450745391351
30
0
41
1
10
26.9281555870453
20
-1.67476365167906
30
0
41
1
10
26.8989611302883
20
-1.66485135960144
30
0
0
SPLINE
5
C8
100
AcDbEntity
8
1
62
256
6
ByLayer
370
13
48
1
60
0
100
AcDbSpline
70
4
71
3
72
24
73
20
40
0
40
0
40
0
40
0
40
0.0391445031765085
40
0.0391445031765085
40
0.252466456878131
40
0.252466456878131
40
0.359127433728943
40
0.359127433728943
40
0.465788410579754
40
0.465788410579754
40
0.679110364281377
40
0.679110364281377
40
0.785771341132187
40
0.785771341132187
40
0.892432317982997
40
0.892432317982997
40
0.999093294833807
40
0.999093294833807
40
1
40
1
40
1
40
1
41
1
10
26.8989601833609
20
-1.66485103809447
30
0
41
1
10
26.8184007566365
20
-1.63749896634167
30
0
41
1
10
26.7380370710782
20
-1.60886395680859
30
0
41
1
10
26.2206895132588
20
-1.41631961694154
30
0
41
1
10
25.7879398030698
20
-1.21757170202397
30
0
41
1
10
25.1332920498122
20
-0.881587194855996
30
0
41
1
10
24.9140047596125
20
-0.763185458972572
30
0
41
1
10
24.4723265093529
20
-0.516632487390154
30
0
41
1
10
24.2532069776777
20
-0.39039775896768
30
0
41
1
10
23.5976879631136
20
-0.0085687932189842
30
0
41
1
10
23.1636186852832
20
0.250999981909928
30
0
41
1
10
22.5043628999771
20
0.626111925759602
30
0
41
1
10
22.2827716540321
20
0.748831562186808
30
0
41
1
10
21.84438258591
20
0.981986182603606
30
0
41
1
10
21.6262361926447
20
1.09271846095942
30
0
41
1
10
21.1899923288244
20
1.29955962394809
30
0
41
1
10
20.9719941378466
20
1.39581613499786
30
0
41
1
10
20.7513358839963
20
1.48441137066524
30
0
41
1
10
20.7494758582943
20
1.48515753473566
30
0
41
1
10
20.7476157698542
20
1.48590307859647
30
0
0
SPLINE
5
C9
100
AcDbEntity
8
1
62
256
6
ByLayer
370
18
48
1
60
0
100
AcDbSpline
70
4
71
3
72
16
73
12
40
0
40
0
40
0
40
0
40
0.297742220058155
40
0.297742220058155
40
0.440188167029391
40
0.440188167029391
40
0.582634114000627
40
0.582634114000627
40
0.8675260079431
40
0.8675260079431
40
1
40
1
40
1
40
1
41
1
10
18.1424160197815
20
-2.03240323987379
30
0
41
1
10
17.9135914312488
20
-2.03220440592966
30
0
41
1
10
17.6851639822762
20
-2.01869092418329
30
0
41
1
10
17.3465559116844
20
-1.97934585588891
30
0
41
1
10
17.2368104994624
20
-1.96363039623432
30
0
41
1
10
17.0166644092909
20
-1.92621995440561
30
0
41
1
10
16.9060156116643
20
-1.90446913887655
30
0
41
1
10
16.5750905707013
20
-1.83077889422174
30
0
41
1
10
16.3558491563526
20
-1.77041656275466
30
0
41
1
10
16.0352614411162
20
-1.66731331384412
30
0
41
1
10
15.9335533060325
20
-1.63241598106194
30
0
41
1
10
15.8318045121598
20
-1.59545216814254
30
0
0
SPLINE
5
CA
100
AcDbEntity
8
1
62
256
6
ByLayer
370
13
48
1
60
0
100
AcDbSpline
70
4
71
3
72
28
73
24
40
0
40
0
40
0
40
0
40
0.0612305877777755
40
0.0612305877777755
40
0.118455158821449
40
0.118455158821449
40
0.175679729865123
40
0.175679729865123
40
0.404578014039814
40
0.404578014039814
40
0.51902715612716
40
0.51902715612716
40
0.576251727170835
40
0.576251727170835
40
0.633476298214509
40
0.633476298214509
40
0.862374582389199
40
0.862374582389199
40
0.919599153432871
40
0.919599153432871
40
0.976823724476544
40
0.976823724476544
40
1
40
1
40
1
40
1
41
1
10
15.8318045123543
20
-1.59545216821323
30
0
41
1
10
15.7147374756535
20
-1.55292346709911
30
0
41
1
10
15.5976166162939
20
-1.50765923306105
30
0
41
1
10
15.3706722217256
20
-1.41511056511428
30
0
41
1
10
15.2608701141974
20
-1.36814839301772
30
0
41
1
10
15.0406653427927
20
-1.26998785365248
30
0
41
1
10
14.9299932138436
20
-1.2186544170375
30
0
41
1
10
14.3787146143684
20
-0.953991910674034
30
0
41
1
10
13.9438226307496
20
-0.716909732632075
30
0
41
1
10
13.288658878241
20
-0.343342891649883
30
0
41
1
10
13.0698001962494
20
-0.215776147600167
30
0
41
1
10
12.7392949656888
20
-0.0223750638817819
30
0
41
1
10
12.628554096271
20
0.0425484061520933
30
0
41
1
10
12.4082514139825
20
0.17136595366091
30
0
41
1
10
12.2984654730702
20
0.235403394680475
30
0
41
1
10
11.7507079746866
20
0.552671513557584
30
0
41
1
10
11.3160707963089
20
0.796732797420674
30
0
41
1
10
10.7679623687027
20
1.07440332602354
30
0
41
1
10
10.6580784887361
20
1.12853501883251
30
0
41
1
10
10.4374984228812
20
1.23351716876712
30
0
41
1
10
10.3268147559245
20
1.28435162736767
30
0
41
1
10
10.1722272523999
20
1.3524342570268
30
0
41
1
10
10.1277247795163
20
1.37169097568054
30
0
41
1
10
10.0832745427201
20
1.39057606522033
30
0
0
SPLINE
5
CB
100
AcDbEntity
8
1
62
256
6
ByLayer
370
18
48
1
60
0
100
AcDbSpline
70
4
71
3
72
24
73
20
40
0
40
0
40
0
40
0
40
0.0624999999999999
40
0.0624999999999999
40
0.125
40
0.125
40
0.25
40
0.25
40
0.375
40
0.375
40
0.5
40
0.5
40
0.625
40
0.625
40
0.75
40
0.75
40
0.875
40
0.875
40
1
40
1
40
1
40
1
41
1
10
29.6726109915937
20
-0.396828735307025
30
0
41
1
10
29.6646531718877
20
-0.415431712103981
30
0
41
1
10
29.657416945842
20
-0.43512621903082
30
0
41
1
10
29.6457608174654
20
-0.473676638737885
30
0
41
1
10
29.6411509664084
20
-0.493223193974671
30
0
41
1
10
29.6326280652108
20
-0.546865637936349
30
0
41
1
10
29.6340672767677
20
-0.576940016094738
30
0
41
1
10
29.6488030064302
20
-0.613203557853922
30
0
41
1
10
29.6618298333534
20
-0.620384960878681
30
0
41
1
10
29.6929497650207
20
-0.615371417304715
30
0
41
1
10
29.7111851524407
20
-0.60353089667737
30
0
41
1
10
29.749394416415
20
-0.564277675210406
30
0
41
1
10
29.7691920319201
20
-0.536968703293923
30
0
41
1
10
29.805622651984
20
-0.471806967892803
30
0
41
1
10
29.8224436986072
20
-0.433470520627935
30
0
41
1
10
29.84630217642
20
-0.355330668371806
30
0
41
1
10
29.8525125295247
20
-0.317624500919322
30
0
41
1
10
29.8505127297291
20
-0.259890732098739
30
0
41
1
10
29.8425906879639
20
-0.241506270236414
30
0
41
1
10
29.8304191483294
20
-0.233810734005203
30
0
0
SPLINE
5
CC
100
AcDbEntity
8
1
62
256
6
ByLayer
370
18
48
1
60
0
100
AcDbSpline
70
4
71
3
72
14
73
10
40
0
40
0
40
0
40
0
40
0.5
40
0.5
40
0.75
40
0.75
40
0.875
40
0.875
40
1
40
1
40
1
40
1
41
1
10
29.7092527991587
20
-1.06275204499545
30
0
41
1
10
29.6454937389383
20
-1.23358425509932
30
0
41
1
10
29.5812405447539
20
-1.40398277990451
30
0
41
1
10
29.4847815931672
20
-1.65941844246581
30
0
41
1
10
29.4524995559825
20
-1.74443243695691
30
0
41
1
10
29.4038812089156
20
-1.87152262649397
30
0
41
1
10
29.3876769071886
20
-1.91389032133804
30
0
41
1
10
29.3551647721413
20
-1.99838038441393
30
0
41
1
10
29.3387977834922
20
-2.04036257923687
30
0
41
1
10
29.3223347033124
20
-2.08211707728674
30
0
0
SPLINE
5
CD
100
AcDbEntity
8
1
62
256
6
ByLayer
370
13
48
1
60
0
100
AcDbSpline
70
4
71
3
72
8
73
4
40
0
40
0
40
0
40
0
40
1
40
1
40
1
40
1
41
1
10
8.13778833084766
20
-2.03609598527541
30
0
41
1
10
8.15714564222822
20
-2.02450447093779
30
0
41
1
10
8.17725081118357
20
-2.01676241861412
30
0
41
1
10
8.19798973668648
20
-2.01271012090163
30
0
0
SPLINE
5
CE
100
AcDbEntity
8
1
62
256
6
ByLayer
370
13
48
1
60
0
100
AcDbSpline
70
4
71
3
72
8
73
4
40
0
40
0
40
0
40
0
40
1
40
1
40
1
40
1
41
1
10
29.4181366812743
20
0.116637562762946
30
0
41
1
10
29.4196944999778
20
0.115709115971384
30
0
41
1
10
29.421252913359
20
0.114782172734778
30
0
41
1
10
29.4228119131239
20
0.113856737986311
30
0
0
SPLINE
5
CF
100
AcDbEntity
8
1
62
256
6
ByLayer
370
18
48
1
60
0
100
AcDbSpline
70
4
71
3
72
8
73
4
40
0
40
0
40
0
40
0
40
1
40
1
40
1
40
1
41
1
10
29.2627347093313
20
2.13378811455297
30
0
41
1
10
29.1206250527082
20
2.14454854186192
30
0
41
1
10
28.9788846309072
20
2.14985059268739
30
0
41
1
10
28.8372482860312
20
2.1497450800849
30
0
0
SPLINE
5
D0
100
AcDbEntity
8
1
62
256
6
ByLayer
370
18
48
1
60
0
100
AcDbSpline
70
4
71
3
72
38
73
34
40
0
40
0
40
0
40
0
40
0.0317205219115358
40
0.0317205219115358
40
0.152755456672591
40
0.152755456672591
40
0.21327292405312
40
0.21327292405312
40
0.273790391433648
40
0.273790391433648
40
0.394825326194704
40
0.394825326194704
40
0.425084059884968
40
0.425084059884968
40
0.455342793575233
40
0.455342793575233
40
0.515860260955761
40
0.515860260955761
40
0.57637772833629
40
0.57637772833629
40
0.606636462026555
40
0.606636462026555
40
0.636895195716819
40
0.636895195716819
40
0.75793013047788
40
0.75793013047788
40
0.818447597858411
40
0.818447597858411
40
0.848706331548676
40
0.848706331548676
40
0.87896506523894
40
0.87896506523894
40
1
40
1
40
1
40
1
41
1
10
19.0480139864241
20
-2.03748113119775
30
0
41
1
10
18.9318791072662
20
-2.05975965906981
30
0
41
1
10
18.8157135176123
20
-2.07865531652058
30
0
41
1
10
18.2592515979289
20
-2.1521679912949
30
0
41
1
10
17.8230543025414
20
-2.15873511313393
30
0
41
1
10
17.1646905800976
20
-2.09172883630163
30
0
41
1
10
16.9438357456827
20
-2.0564876532022
30
0
41
1
10
16.4999238622664
20
-1.96096925953967
30
0
41
1
10
16.279929995471
20
-1.9011749660298
30
0
41
1
10
15.6219957775363
20
-1.68935335903686
30
0
41
1
10
15.1857819543206
20
-1.50532173832093
30
0
41
1
10
14.6332200287683
20
-1.23228337430754
30
0
41
1
10
14.5220363719114
20
-1.17533924476916
30
0
41
1
10
14.3005675408164
20
-1.05840630564708
30
0
41
1
10
14.1902381643961
20
-0.99847447584483
30
0
41
1
10
13.8600518368738
20
-0.814952130410632
30
0
41
1
10
13.6409929276897
20
-0.687643185256547
30
0
41
1
10
13.2029977828044
20
-0.426323574604879
30
0
41
1
10
12.9840592106809
20
-0.292312988419809
30
0
41
1
10
12.654031250441
20
-0.0889888910463696
30
0
41
1
10
12.5437579175524
20
-0.0208196373795317
30
0
41
1
10
12.322401682396
20
0.11586215165957
30
0
41
1
10
12.2111289000865
20
0.184490201395931
30
0
41
1
10
11.6580447621031
20
0.523605960874505
30
0
41
1
10
11.2216651864975
20
0.78460597443646
30
0
41
1
10
10.5637236598191
20
1.14163778335151
30
0
41
1
10
10.3437253563614
20
1.25471367184818
30
0
41
1
10
10.0109978363077
20
1.41285580051888
30
0
41
1
10
9.89979328203967
20
1.46356256699963
30
0
41
1
10
9.67865527888031
20
1.55990141958421
30
0
41
1
10
9.56845541604335
20
1.60568039942899
30
0
41
1
10
9.01834027003429
20
1.82168600393604
30
0
41
1
10
8.58110402711225
20
1.95331931852363
30
0
41
1
10
8.1377883308476
20
2.03609598527541
30
0
0
SPLINE
5
D1
100
AcDbEntity
8
1
62
256
6
ByLayer
370
18
48
1
60
0
100
AcDbSpline
70
4
71
3
72
26
73
22
40
0
40
0
40
0
40
0
40
0.104920173895332
40
0.104920173895332
40
0.209840347790664
40
0.209840347790664
40
0.314760521685997
40
0.314760521685997
40
0.419680695581329
40
0.419680695581329
40
0.524600869476661
40
0.524600869476661
40
0.629521043371993
40
0.629521043371993
40
0.734441217267325
40
0.734441217267325
40
0.839361391162658
40
0.839361391162658
40
0.94428156505799
40
0.94428156505799
40
1
40
1
40
1
40
1
41
1
10
9.66649373378988
20
-1.33730932391776
30
0
41
1
10
9.85225032093342
20
-1.41905804186794
30
0
41
1
10
10.0376852689211
20
-1.49505178390629
30
0
41
1
10
10.4076581515431
20
-1.63313626469778
30
0
41
1
10
10.5926239143686
20
-1.69497741170619
30
0
41
1
10
10.964103920712
20
-1.80447299864204
30
0
41
1
10
11.1493850152582
20
-1.85267135051601
30
0
41
1
10
11.5195887154914
20
-1.93227531526446
30
0
41
1
10
11.7048454007784
20
-1.96298063336025
30
0
41
1
10
12.0757828030781
20
-2.00747025135678
30
0
41
1
10
12.2614167927769
20
-2.02064439422915
30
0
41
1
10
12.6319017834537
20
-2.0313833032383
30
0
41
1
10
12.8168322980145
20
-2.02844530354031
30
0
41
1
10
13.1882584791651
20
-2.00524720402197
30
0
41
1
10
13.3736525986607
20
-1.98534203813864
30
0
41
1
10
13.7436367272543
20
-1.92596381979973
30
0
41
1
10
13.9288546646422
20
-1.88758344692747
30
0
41
1
10
14.2998025455371
20
-1.7960309795167
30
0
41
1
10
14.4853404590755
20
-1.74437484494348
30
0
41
1
10
14.768791223685
20
-1.65172531864283
30
0
41
1
10
14.8669771574796
20
-1.61737808173791
30
0
41
1
10
14.9652289936719
20
-1.5810937793876
30
0
0
SPLINE
5
D2
100
AcDbEntity
8
1
62
256
6
ByLayer
370
18
48
1
60
0
100
AcDbSpline
70
4
71
3
72
22
73
18
40
0
40
0
40
0
40
0
40
0.0130398138188227
40
0.0130398138188227
40
0.15403412613042
40
0.15403412613042
40
0.295028438442016
40
0.295028438442016
40
0.436022750753613
40
0.436022750753613
40
0.57701706306521
40
0.57701706306521
40
0.718011375376807
40
0.718011375376807
40
0.859005687688403
40
0.859005687688403
40
1
40
1
40
1
40
1
41
1
10
23.4995326444793
20
2.03460411098391
30
0
41
1
10
23.516619734304
20
2.03470812178932
30
0
41
1
10
23.5337019604807
20
2.03474798119041
30
0
41
1
10
23.7354205451883
20
2.03446559457845
30
0
41
1
10
23.920023928606
20
2.02372448704722
30
0
41
1
10
24.2897343263306
20
1.98572766023739
30
0
41
1
10
24.4748812903634
20
1.95738302289806
30
0
41
1
10
24.8445306903562
20
1.88674645533558
30
0
41
1
10
25.0289157994689
20
1.84341070319405
30
0
41
1
10
25.3987417213465
20
1.73985952532047
30
0
41
1
10
25.5842936682158
20
1.68038538060514
30
0
41
1
10
25.9535122280544
20
1.54814092292176
30
0
41
1
10
26.138253673273
20
1.47641481120638
30
0
41
1
10
26.5082542342033
20
1.3181417496676
30
0
41
1
10
26.6933909641308
20
1.23203324667648
30
0
41
1
10
27.0631872314992
20
1.05227980343324
30
0
41
1
10
27.2478147094273
20
0.957853317733054
30
0
41
1
10
27.4327935776177
20
0.859543532196284
30
0
0
SPLINE
5
D3
100
AcDbEntity
8
1
62
256
6
ByLayer
370
18
48
1
60
0
100
AcDbSpline
70
4
71
3
72
64
73
60
40
0
40
0
40
0
40
0
40
0.0069547949189546
40
0.0069547949189546
40
0.0488493726624929
40
0.0488493726624929
40
0.0907439504060312
40
0.0907439504060312
40
0.132638528149569
40
0.132638528149569
40
0.174533105893108
40
0.174533105893108
40
0.216427683636646
40
0.216427683636646
40
0.258322261380184
40
0.258322261380184
40
0.279269550251954
40
0.279269550251954
40
0.300216839123723
40
0.300216839123723
40
0.342111416867264
40
0.342111416867264
40
0.363058705739034
40
0.363058705739034
40
0.384005994610805
40
0.384005994610805
40
0.425900572354344
40
0.425900572354344
40
0.467795150097884
40
0.467795150097884
40
0.509689727841423
40
0.509689727841423
40
0.551584305584962
40
0.551584305584962
40
0.593478883328502
40
0.593478883328502
40
0.635373461072041
40
0.635373461072041
40
0.677268038815581
40
0.677268038815581
40
0.698215327687351
40
0.698215327687351
40
0.719162616559121
40
0.719162616559121
40
0.761057194302663
40
0.761057194302663
40
0.802951772046205
40
0.802951772046205
40
0.844846349789747
40
0.844846349789747
40
0.865793638661518
40
0.865793638661518
40
0.88674092753329
40
0.88674092753329
40
0.928635505276833
40
0.928635505276833
40
0.970530083020376
40
0.970530083020376
40
1
40
1
40
1
40
1
41
1
10
25.8591057051205
20
-1.5815061453558
30
0
41
1
10
25.8283499709149
20
-1.59283180234124
30
0
41
1
10
25.7976058562294
20
-1.60399053834803
30
0
41
1
10
25.5817945108264
20
-1.6812302890292
30
0
41
1
10
25.3967365876286
20
-1.74047666361537
30
0
41
1
10
25.0268499721106
20
-1.8439328168177
30
0
41
1
10
24.841396553097
20
-1.88744458203195
30
0
41
1
10
24.4705449561952
20
-1.95811041390027
30
0
41
1
10
24.2857721644205
20
-1.98626449985787
30
0
41
1
10
23.9157387301881
20
-2.02403234405315
30
0
41
1
10
23.7299564336005
20
-2.03467628407159
30
0
41
1
10
23.3592724144788
20
-2.03478223888638
30
0
41
1
10
23.1741809577822
20
-2.02744437072255
30
0
41
1
10
22.8037576300049
20
-1.99670888617089
30
0
41
1
10
22.618424639837
20
-1.97297869941369
30
0
41
1
10
22.3402347429098
20
-1.92328062817543
30
0
41
1
10
22.2475806785075
20
-1.90401652546615
30
0
41
1
10
22.0624676186469
20
-1.86148213403968
30
0
41
1
10
21.9699997582692
20
-1.83871385779301
30
0
41
1
10
21.6924580463286
20
-1.76502646594531
30
0
41
1
10
21.5067786817488
20
-1.70886548483855
30
0
41
1
10
21.228744750701
20
-1.61380446413068
30
0
41
1
10
21.1363425616005
20
-1.5802345074199
30
0
41
1
10
20.951417964775
20
-1.50932416773418
30
0
41
1
10
20.858912636285
20
-1.47204158323476
30
0
41
1
10
20.5812612701149
20
-1.35601370936135
30
0
41
1
10
20.3959558393525
20
-1.27224146600605
30
0
41
1
10
20.0251642024886
20
-1.09472509708203
30
0
41
1
10
19.8399139970298
20
-1.00194623209106
30
0
41
1
10
19.4701184413426
20
-0.807534039571152
30
0
41
1
10
19.2844372268981
20
-0.706645914150528
30
0
41
1
10
18.9137012766686
20
-0.498533889902632
30
0
41
1
10
18.7289093926729
20
-0.39186237780487
30
0
41
1
10
18.3586083388723
20
-0.177211627238677
30
0
41
1
10
18.1730548774657
20
-0.0682242567526146
30
0
41
1
10
17.8026786498556
20
0.149466789654838
30
0
41
1
10
17.6175875184944
20
0.256947224773313
30
0
41
1
10
17.247660027435
20
0.470443327460657
30
0
41
1
10
17.0621866232234
20
0.57612852936046
30
0
41
1
10
16.7842697906181
20
0.729766241098645
30
0
41
1
10
16.6917460595954
20
0.780237783800743
30
0
41
1
10
16.5069962412675
20
0.87945716696558
30
0
41
1
10
16.414643914511
20
0.927721185077587
30
0
41
1
10
16.1371485058297
20
1.06964571324937
30
0
41
1
10
15.9515432665089
20
1.16069449598427
30
0
41
1
10
15.5812874991723
20
1.33212892914676
30
0
41
1
10
15.3963948989719
20
1.41255601608395
30
0
41
1
10
15.0263357487104
20
1.56024997089244
30
0
41
1
10
14.841039596279
20
1.62852649842992
30
0
41
1
10
14.5631505690044
20
1.71870766249432
30
0
41
1
10
14.470621452889
20
1.74630376801085
30
0
41
1
10
14.2857130924507
20
1.7980305312725
30
0
41
1
10
14.1933116806007
20
1.82247636567746
30
0
41
1
10
13.9158939532975
20
1.89041847826729
30
0
41
1
10
13.73014392461
20
1.92854258391185
30
0
41
1
10
13.3601983809187
20
1.98705675276426
30
0
41
1
10
13.1756002106631
20
2.00637714701125
30
0
41
1
10
12.8605109988547
20
2.02545933085068
30
0
41
1
10
12.730232103988
20
2.02907439547462
30
0
41
1
10
12.5999577043069
20
2.02854401862848
30
0
0
SPLINE
5
D4
100
AcDbEntity
8
1
62
256
6
ByLayer
370
18
48
1
60
0
100
AcDbSpline
70
4
71
3
72
28
73
24
40
0
40
0
40
0
40
0
40
0.0985749436480923
40
0.0985749436480923
40
0.150023191680703
40
0.150023191680703
40
0.201471439713314
40
0.201471439713314
40
0.407264431843756
40
0.407264431843756
40
0.458712679876367
40
0.458712679876367
40
0.510160927908977
40
0.510160927908977
40
0.613057423974198
40
0.613057423974198
40
0.818850416104642
40
0.818850416104642
40
0.870298664137254
40
0.870298664137254
40
0.921746912169865
40
0.921746912169865
40
1
40
1
40
1
40
1
41
1
10
9.5411988024033
20
1.60637711542819
30
0
41
1
10
9.75069442590194
20
1.5222763260158
30
0
41
1
10
9.96072750647318
20
1.42941997408067
30
0
41
1
10
10.2823899553988
20
1.27556705341377
30
0
41
1
10
10.3933600370267
20
1.22040625381797
30
0
41
1
10
10.6143650485117
20
1.10690693390777
30
0
41
1
10
10.7244323059713
20
1.04856376231785
30
0
41
1
10
11.2733375646422
20
0.750066139908654
30
0
41
1
10
11.7083683028251
20
0.490237996282787
30
0
41
1
10
12.2570977523145
20
0.155257865524419
30
0
41
1
10
12.367095901015
20
0.0877615062599943
30
0
41
1
10
12.5878789954414
20
-0.0477929728679385
30
0
41
1
10
12.6988774430454
20
-0.115981467377537
30
0
41
1
10
13.0299410595824
20
-0.318543642309692
30
0
41
1
10
13.2490541806712
20
-0.45155174433333
30
0
41
1
10
13.9050988167564
20
-0.839161201544641
30
0
41
1
10
14.3404195075319
20
-1.08301122402671
30
0
41
1
10
14.8930600174644
20
-1.3521318661447
30
0
41
1
10
15.0039571544654
20
-1.40413524458191
30
0
41
1
10
15.2245411786509
20
-1.50319208527483
30
0
41
1
10
15.3345198982108
20
-1.55038406787256
30
0
41
1
10
15.6113409890528
20
-1.66313583076428
30
0
41
1
10
15.7779519047684
20
-1.72547474793592
30
0
41
1
10
15.9445824453302
20
-1.78167097488114
30
0
0
SPLINE
5
D5
100
AcDbEntity
8
1
62
256
6
ByLayer
370
13
48
1
60
0
100
AcDbSpline
70
4
71
3
72
18
73
14
40
0
40
0
40
0
40
0
40
0.0520580783741481
40
0.0520580783741481
40
0.269423551819358
40
0.269423551819358
40
0.378106288541965
40
0.378106288541965
40
0.486789025264573
40
0.486789025264573
40
0.921519972154998
40
0.921519972154998
40
1
40
1
40
1
40
1
41
1
10
15.9445833928804
20
-1.78167129444282
30
0
41
1
10
15.9970582515084
20
-1.79936845746664
30
0
41
1
10
16.0495350564706
20
-1.816456431532
30
0
41
1
10
16.3212043085561
20
-1.90166791912782
30
0
41
1
10
16.5408182392051
20
-1.95957541006487
30
0
41
1
10
16.8726029756454
20
-2.02833963717421
30
0
41
1
10
16.9834708341597
20
-2.04824630640971
30
0
41
1
10
17.2039880048946
20
-2.08160717142383
30
0
41
1
10
17.3139005834326
20
-2.09511300667694
30
0
41
1
10
17.8625162526787
20
-2.14681274311673
30
0
41
1
10
18.2992364374615
20
-2.13730985753909
30
0
41
1
10
18.8209585254683
20
-2.06503792358239
30
0
41
1
10
18.900910979978
20
-2.05232250152295
30
0
41
1
10
18.9807655014839
20
-2.03801086753907
30
0
0
SPLINE
5
D6
100
AcDbEntity
8
1
62
256
6
ByLayer
370
18
48
1
60
0
100
AcDbSpline
70
4
71
3
72
14
73
10
40
0
40
0
40
0
40
0
40
0.25
40
0.25
40
0.5
40
0.5
40
0.75
40
0.75
40
1
40
1
40
1
40
1
41
1
10
29.0221615418176
20
0.396451315089337
30
0
41
1
10
29.0196313621156
20
0.423635800373717
30
0
41
1
10
29.0207482289413
20
0.451420012118149
30
0
41
1
10
29.0304806904554
20
0.508541892524107
30
0
41
1
10
29.0389178998588
20
0.537940573738013
30
0
41
1
10
29.0652480204832
20
0.593059872900113
30
0
41
1
10
29.0853829877731
20
0.617123058235819
30
0
41
1
10
29.1352733229639
20
0.653496604796345
30
0
41
1
10
29.1640438883582
20
0.665481551113118
30
0
41
1
10
29.1938862750427
20
0.672657322957292
30
0
0
SPLINE
5
D7
100
AcDbEntity
8
1
62
256
6
ByLayer
370
18
48
1
60
0
100
AcDbSpline
70
4
71
3
72
8
73
4
40
0
40
0
40
0
40
0
40
1
40
1
40
1
40
1
41
1
10
29.2822193846913
20
-2.03351061859428
30
0
41
1
10
29.2734677599762
20
-2.03715624871708
30
0
41
1
10
29.2653490661306
20
-2.03898767478876
30
0
41
1
10
29.257872388847
20
-2.03897885399684
30
0
0
SPLINE
5
D8
100
AcDbEntity
8
1
62
256
6
ByLayer
370
18
48
1
60
0
100
AcDbSpline
70
4
71
3
72
12
73
8
40
0
40
0
40
0
40
0
40
0.249999999999996
40
0.249999999999996
40
0.499999999999992
40
0.499999999999992
40
1
40
1
40
1
40
1
41
1
10
29.2676666444037
20
-2.12084655172515
30
0
41
1
10
29.2727100505114
20
-2.10760447615584
30
0
41
1
10
29.2773957316087
20
-2.09392288019586
30
0
41
1
10
29.2845255008071
20
-2.06944720242578
30
0
41
1
10
29.2869111903555
20
-2.05877485795773
30
0
41
1
10
29.2899584941664
20
-2.0358237741622
30
0
41
1
10
29.2871340761882
20
-2.03146332475342
30
0
41
1
10
29.2822193846899
20
-2.0335106185949
30
0
0
SPLINE
5
D9
100
AcDbEntity
8
1
62
256
6
ByLayer
370
18
48
1
60
0
100
AcDbSpline
70
4
71
3
72
26
73
22
40
0
40
0
40
0
40
0
40
0.111110586442512
40
0.111110586442512
40
0.185184704238969
40
0.185184704238969
40
0.259258822035427
40
0.259258822035427
40
0.407407057628342
40
0.407407057628342
40
0.481481175424799
40
0.481481175424799
40
0.555555293221256
40
0.555555293221256
40
0.703703528814171
40
0.703703528814171
40
0.851851764407085
40
0.851851764407085
40
0.925925882203543
40
0.925925882203543
40
1
40
1
40
1
40
1
41
1
10
8.04253523891185
20
-2.13723104904838
30
0
41
1
10
8.04254113948525
20
-2.13684530616661
30
0
41
1
10
8.04254376545964
20
-2.12860376952614
30
0
41
1
10
8.04254553107177
20
-2.10208226510099
30
0
41
1
10
8.04254552728469
20
-2.08803897681079
30
0
41
1
10
8.04254500737812
20
-2.05288551605131
30
0
41
1
10
8.04254449473532
20
-2.0317957111657
30
0
41
1
10
8.04254352230987
20
-1.95933107379534
30
0
41
1
10
8.04254367099338
20
-1.89850632306607
30
0
41
1
10
8.04254914486381
20
-1.78843784639503
30
0
41
1
10
8.0425518571509
20
-1.74833291973471
30
0
41
1
10
8.04255940122212
20
-1.66305211842587
30
0
41
1
10
8.04256422037668
20
-1.61789854051617
30
0
41
1
10
8.04258213072251
20
-1.47508569087412
30
0
41
1
10
8.04259873489087
20
-1.37014704047493
30
0
41
1
10
8.04264143777959
20
-1.14005816582633
30
0
41
1
10
8.04266690654669
20
-1.01827230817921
30
0
41
1
10
8.04270846440971
20
-0.826969032395567
30
0
41
1
10
8.04272287379234
20
-0.76169394529083
30
0
41
1
10
8.04275217691173
20
-0.628063786780018
30
0
41
1
10
8.04276712506214
20
-0.559437373950317
30
0
41
1
10
8.04278160214284
20
-0.49071407927056
30
0
0
SPLINE
5
DA
100
AcDbEntity
8
SK1
62
256
6
ByLayer
370
18
48
1
60
0
100
AcDbSpline
70
4
71
3
72
8
73
4
40
0
40
0
40
0
40
0
40
1
40
1
40
1
40
1
41
1
10
-36
20
-1.74870024483246
30
0
41
1
10
-35.8061088095982
20
-2.07814179912086
30
0
41
1
10
-35.6037786761503
20
-2.40361656209058
30
0
41
1
10
-35.4
20
-2.7284104262101
30
0
0
SPLINE
5
DB
100
AcDbEntity
8
SK1
62
256
6
ByLayer
370
18
48
1
60
0
100
AcDbSpline
70
4
71
3
72
8
73
4
40
0
40
0
40
0
40
0
40
1
40
1
40
1
40
1
41
1
10
-35.4
20
-2.0338068433569
30
0
41
1
10
-35.6037679034388
20
-1.70903014938816
30
0
41
1
10
-35.8060922365892
20
-1.38356637555552
30
0
41
1
10
-36
20
-1.05409666197926
30
0
0
SPLINE
5
DC
100
AcDbEntity
8
SK1
62
256
6
ByLayer
370
18
48
1
60
0
100
AcDbSpline
70
4
71
3
72
14
73
10
40
0
40
0
40
0
40
0
40
0.124999999999998
40
0.124999999999998
40
0.249999999999996
40
0.249999999999996
40
0.499999999999996
40
0.499999999999996
40
1
40
1
40
1
40
1
41
1
10
-35.3
20
-2.26069470934624
30
0
41
1
10
-35.3
20
-2.25356582830406
30
0
41
1
10
-35.3017593723636
20
-2.24417131157753
30
0
41
1
10
-35.306935341198
20
-2.22459241439293
30
0
41
1
10
-35.3102739075535
20
-2.21450488326508
30
0
41
1
10
-35.3215583577555
20
-2.18373837783079
30
0
41
1
10
-35.3303095934912
20
-2.16371632961375
30
0
41
1
10
-35.358391202053
20
-2.10442312528727
30
0
41
1
10
-35.378655954467
20
-2.06782617823328
30
0
41
1
10
-35.4
20
-2.0338068433569
30
0
0
SPLINE
5
DD
100
AcDbEntity
8
SK1
62
256
6
ByLayer
370
18
48
1
60
0
100
AcDbSpline
70
4
71
3
72
14
73
10
40
0
40
0
40
0
40
0
40
0.500000000000001
40
0.500000000000001
40
0.750000000000001
40
0.750000000000001
40
0.875000000000001
40
0.875000000000001
40
1
40
1
40
1
40
1
41
1
10
-35.4
20
-2.72841042621056
30
0
41
1
10
-35.3787677796885
20
-2.76225152778741
30
0
41
1
10
-35.3584290958895
20
-2.79333177521932
30
0
41
1
10
-35.3303626450498
20
-2.83293647248399
30
0
41
1
10
-35.3215171954455
20
-2.84481651012669
30
0
41
1
10
-35.3102812516991
20
-2.85793914154149
30
0
41
1
10
-35.3068890218585
20
-2.86149458036374
30
0
41
1
10
-35.3017585680987
20
-2.86530457388727
30
0
41
1
10
-35.3
20
-2.86553490164894
30
0
41
1
10
-35.3
20
-2.86268448115237
30
0
0
LINE
5
76
100
AcDbEntity
8
81
62
256
6
ByLayer
370
18
48
1
60
0
100
AcDbLine
10
30
20
0
30
0
11
35
21
0
31
0
39
0
210
0
220
0
230
1
0
LINE
5
77
100
AcDbEntity
8
1
62
256
6
ByLayer
370
18
48
1
60
0
100
AcDbLine
10
8.042518
20
2.137232
30
0
11
1.422566
21
2.13326
31
0
39
0
210
0
220
0
230
1
0
LINE
5
79
100
AcDbEntity
8
1
62
256
6
ByLayer
370
18
48
1
60
0
100
AcDbLine
10
17.95148
20
2.143177
30
0
11
17.560854
21
2.142943
31
0
39
0
210
0
220
0
230
1
0
LINE
5
7A
100
AcDbEntity
8
1
62
256
6
ByLayer
370
18
48
1
60
0
100
AcDbLine
10
28.837955
20
2.149709
30
0
11
28.4481
21
2.149475
31
0
39
0
210
0
220
0
230
1
0
LINE
5
7B
100
AcDbEntity
8
1
62
256
6
ByLayer
370
18
48
1
60
0
100
AcDbLine
10
28.4481
20
-2.149475
30
0
11
28.837945
21
-2.149709
31
0
39
0
210
0
220
0
230
1
0
LINE
5
7C
100
AcDbEntity
8
1
62
256
6
ByLayer
370
18
48
1
60
0
100
AcDbLine
10
17.560854
20
-2.142943
30
0
11
17.951955
21
-2.143178
31
0
39
0
210
0
220
0
230
1
0
LINE
5
7D
100
AcDbEntity
8
1
62
256
6
ByLayer
370
18
48
1
60
0
100
AcDbLine
10
1.422566
20
-2.13326
30
0
11
8.042518
21
-2.137232
31
0
39
0
210
0
220
0
230
1
0
LINE
5
7E
100
AcDbEntity
8
SK1
62
256
6
ByLayer
370
18
48
1
60
0
100
AcDbLine
10
-35.278312
20
3
30
0
11
-36
21
1.75
31
0
39
0
210
0
220
0
230
1
0
LINE
5
80
100
AcDbEntity
8
SK1
62
256
6
ByLayer
370
18
48
1
60
0
100
AcDbLine
10
-36
20
-1.75
30
0
11
-35.278312
21
-3
31
0
39
0
210
0
220
0
230
1
0
LINE
5
81
100
AcDbEntity
8
SK1
62
256
6
ByLayer
370
18
48
1
60
0
100
AcDbLine
10
0
20
3
30
0
11
-35.278312
21
3
31
0
39
0
210
0
220
0
230
1
0
LINE
5
82
100
AcDbEntity
8
SK1
62
256
6
ByLayer
370
18
48
1
60
0
100
AcDbLine
10
-35.278312
20
-3
30
0
11
0
21
-3
31
0
39
0
210
0
220
0
230
1
0
LINE
5
83
100
AcDbEntity
8
SK4
62
256
6
ByLayer
370
18
48
0.05
60
0
100
AcDbLine
10
35
20
0
30
0
11
-41
21
0
31
0
39
0
210
0
220
0
230
1
0
LINE
5
85
100
AcDbEntity
8
4
62
256
6
ByLayer
370
18
48
0.05
60
0
100
AcDbLine
10
30
20
0
30
0
11
0
21
0
31
0
39
0
210
0
220
0
230
1
0
LINE
5
87
100
AcDbEntity
8
80
62
256
6
ByLayer
370
18
48
1
60
0
100
AcDbLine
10
0
20
0
30
0
11
-5
21
0
31
0
39
0
210
0
220
0
230
1
0
LINE
5
88
100
AcDbEntity
8
1
62
256
6
ByLayer
370
13
48
1
60
0
100
AcDbLine
10
29.613259
20
0.448866
30
0
11
29.933985
21
0.258568
31
0
39
0
210
0
220
0
230
1
0
LINE
5
89
100
AcDbEntity
8
1
62
256
6
ByLayer
370
18
48
1
60
0
100
AcDbLine
10
29.933985
20
-0.258568
30
0
11
29.893183
21
-0.448866
31
0
39
0
210
0
220
0
230
1
0
LINE
5
8A
100
AcDbEntity
8
1
62
256
6
ByLayer
370
13
48
1
60
0
100
AcDbLine
10
0.711043
20
2.56663
30
0
11
0.711043
21
-2.56663
31
0
39
0
210
0
220
0
230
1
0
LINE
5
8B
100
AcDbEntity
8
1
62
256
6
ByLayer
370
18
48
1
60
0
100
AcDbLine
10
30
20
0
30
0
11
29.996485
21
-0.021804
31
0
39
0
210
0
220
0
230
1
0
LINE
5
8C
100
AcDbEntity
8
1
62
256
6
ByLayer
370
18
48
1
60
0
100
AcDbLine
10
29.996485
20
0.021804
30
0
11
30
21
0
31
0
39
0
210
0
220
0
230
1
0
LINE
5
8D
100
AcDbEntity
8
1
62
256
6
ByLayer
370
18
48
1
60
0
100
AcDbLine
10
29.830419
20
-0.233811
30
0
11
29.895486
21
-0.166596
31
0
39
0
210
0
220
0
230
1
0
LINE
5
8E
100
AcDbEntity
8
1
62
256
6
ByLayer
370
13
48
1
60
0
100
AcDbLine
10
29.423352
20
0.113536
30
0
11
29.895486
21
-0.166596
31
0
39
0
210
0
220
0
230
1
0
LINE
5
8F
100
AcDbEntity
8
1
62
256
6
ByLayer
370
13
48
1
60
0
100
AcDbLine
10
29.893183
20
0.448866
30
0
11
29.613259
21
0.448866
31
0
39
0
210
0
220
0
230
1
0
LINE
5
90
100
AcDbEntity
8
1
62
256
6
ByLayer
370
18
48
1
60
0
100
AcDbLine
10
0
20
-3
30
0
11
0
21
3
31
0
39
0
210
0
220
0
230
1
0
LINE
5
91
100
AcDbEntity
8
1
62
256
6
ByLayer
370
18
48
1
60
0
100
AcDbLine
10
30
20
0
30
0
11
29.257872
21
-2.038979
31
0
39
0
210
0
220
0
230
1
0
LINE
5
92
100
AcDbEntity
8
1
62
256
6
ByLayer
370
13
48
1
60
0
100
AcDbLine
10
29.422826
20
0.113848
30
0
11
29.423352
21
0.113536
31
0
39
0
210
0
220
0
230
1
0
LINE
5
93
100
AcDbEntity
8
1
62
256
6
ByLayer
370
18
48
1
60
0
100
AcDbLine
10
28.928761
20
-1.165236
30
0
11
29.672611
21
-0.396829
31
0
39
0
210
0
220
0
230
1
0
LINE
5
94
100
AcDbEntity
8
1
62
256
6
ByLayer
370
13
48
1
60
0
100
AcDbLine
10
1.422566
20
2.13326
30
0
11
1.422566
21
-2.13326
31
0
39
0
210
0
220
0
230
1
0
LINE
5
95
100
AcDbEntity
8
1
62
256
6
ByLayer
370
18
48
1
60
0
100
AcDbLine
10
29.933985
20
0.258568
30
0
11
29.893183
21
0.448866
31
0
39
0
210
0
220
0
230
1
0
LINE
5
96
100
AcDbEntity
8
SK1
62
256
6
ByLayer
370
18
48
1
60
0
100
AcDbLine
10
-36
20
1.75
30
0
11
-36
21
-1.054097
31
0
39
0
210
0
220
0
230
1
0
LINE
5
97
100
AcDbEntity
8
SK1
62
256
6
ByLayer
370
18
48
1
60
0
100
AcDbLine
10
-35.3
20
-2.862684
30
0
11
-35.3
21
-2.260695
31
0
39
0
210
0
220
0
230
1
0
LINE
5
98
100
AcDbEntity
8
SK1
62
256
6
ByLayer
370
18
48
1
60
0
100
AcDbLine
10
0
20
-3
30
0
11
0
21
3
31
0
39
0
210
0
220
0
230
1
0
LINE
5
99
100
AcDbEntity
8
SK1
62
256
6
ByLayer
370
18
48
1
60
0
100
AcDbLine
10
-36
20
-1.75
30
0
11
-36
21
-1.7487
31
0
39
0
210
0
220
0
230
1
0
LINE
5
9A
100
AcDbEntity
8
SK1
62
256
6
ByLayer
370
18
48
1
60
0
100
AcDbLine
10
-36
20
-1.054088
30
0
11
-36
21
-1.7487
31
0
39
0
210
0
220
0
230
1
0
LINE
5
9B
100
AcDbEntity
8
SK1
62
256
6
ByLayer
370
13
48
1
60
0
100
AcDbLine
10
-35.4
20
-2.033796
30
0
11
-35.4
21
-2.72841
31
0
39
0
210
0
220
0
230
1
0
LINE
5
9C
100
AcDbEntity
8
SK1
62
256
6
ByLayer
370
18
48
1
60
0
100
AcDbLine
10
-35.278312
20
3
30
0
11
-35.278312
21
-3
31
0
39
0
210
0
220
0
230
1
0
MTEXT
5
DE
100
AcDbEntity
8
SK6
62
256
6
ByLayer
370
13
48
1
60
0
100
AcDbMText
10
-0.870831
20
34.532694
30
0
210
0
220
0
230
1
1
\W0.7598;R840-0430-30-A1A1220
40
3.5
41
0
44
1.084337
50
0
71
8
72
5
7
iso_b_vert
0
DIMENSION
5
EB
100
AcDbEntity
8
SK2
62
256
6
ByLayer
370
13
48
1
60
0
100
AcDbDimension
2
DimnDraft3D1
10
29.27
20
-12.363398
30
0
11
13.520059
21
-12.363398
31
0
70
32
71
5
72
1
41
1
210
0
220
0
230
1
3
Standard
100
AcDbAlignedDimension
13
0
23
-1.5875
33
0
14
29.27
24
-3.7375
34
0
50
0
100
AcDbRotatedDimension
1001
ACAD
1000
DSTYLE
1002
{
1070
   279
1070
     0
1070
   172
1070
     1
1070
   173
1070
     1
1070
   340
1005
DF
1070
   271
1070
     2
1070
   272
1070
     2
1070
    77
1070
     1
1070
    73
1070
     0
1070
   171
1070
     3
1070
   274
1070
     4
1070
   177
1070
    35
1070
   176
1070
    35
1070
   178
1070
    35
1070
    48
1040
-0.005
1070
    41
1041
3.5
1070
   147
1041
1.75
1070
    42
1041
1.5875
1070
    44
1041
2.0
1070
   140
1041
3.5
1070
   343
1005
0
1070
   344
1005
0
1002
}
0
DIMENSION
5
F5
100
AcDbEntity
8
SK2
62
256
6
ByLayer
370
13
48
1
60
0
100
AcDbDimension
2
DimnDraft3D2
10
30
20
-31.692985
30
0
11
-2.3887
21
-31.692985
31
0
70
32
71
5
72
1
41
1
210
0
220
0
230
1
3
Standard
100
AcDbAlignedDimension
13
-36
23
-4.5875
33
0
14
30
24
-1.5875
34
0
50
0
100
AcDbRotatedDimension
1001
ACAD
1000
DSTYLE
1002
{
1070
   279
1070
     0
1070
   172
1070
     1
1070
   173
1070
     1
1070
   340
1005
DF
1070
   271
1070
     2
1070
   272
1070
     2
1070
    77
1070
     1
1070
    73
1070
     0
1070
   171
1070
     3
1070
   274
1070
     4
1070
   177
1070
    35
1070
   176
1070
    35
1070
   178
1070
    35
1070
    48
1040
-0.005
1070
    41
1041
3.5
1070
   147
1041
1.75
1070
    42
1041
1.5875
1070
    44
1041
2.0
1070
   140
1041
3.5
1070
   343
1005
0
1070
   344
1005
0
1002
}
0
DIMENSION
5
FF
100
AcDbEntity
8
SK2
62
256
6
ByLayer
370
13
48
1
60
0
100
AcDbDimension
2
DimnDraft3D3
10
30
20
13.759119
30
0
11
23.185
21
13.759119
31
0
70
32
71
5
72
1
41
1
210
0
220
0
230
1
3
Standard
100
AcDbAlignedDimension
13
16.37
23
3.7375
33
0
14
30
24
1.5875
34
0
50
0
100
AcDbRotatedDimension
1001
ACAD
1000
DSTYLE
1002
{
1070
   279
1070
     0
1070
   172
1070
     1
1070
   173
1070
     1
1070
   340
1005
DF
1070
   271
1070
     2
1070
   272
1070
     2
1070
    77
1070
     1
1070
    73
1070
     0
1070
   171
1070
     3
1070
   274
1070
     4
1070
   177
1070
    35
1070
   176
1070
    35
1070
   178
1070
    35
1070
    48
1040
-0.005
1070
    41
1041
3.5
1070
   147
1041
1.75
1070
    42
1041
1.5875
1070
    44
1041
2.0
1070
   140
1041
3.5
1070
   343
1005
0
1070
   344
1005
0
1002
}
0
DIMENSION
5
109
100
AcDbEntity
8
SK2
62
256
6
ByLayer
370
13
48
1
60
0
100
AcDbDimension
2
DimnDraft3D4
10
29.27
20
-14.952503
30
0
11
39.981425
21
-14.952503
31
0
70
32
71
5
72
1
41
1
210
0
220
0
230
1
3
Standard
100
AcDbAlignedDimension
13
30
23
-1.5875
33
0
14
29.27
24
-3.7375
34
0
50
0
100
AcDbRotatedDimension
1001
ACAD
1000
DSTYLE
1002
{
1070
   279
1070
     0
1070
   172
1070
     1
1070
   173
1070
     1
1070
   340
1005
DF
1070
   271
1070
     2
1070
   272
1070
     2
1070
    77
1070
     1
1070
    73
1070
     0
1070
   171
1070
     3
1070
   274
1070
     4
1070
   177
1070
    35
1070
   176
1070
    35
1070
   178
1070
    35
1070
    48
1040
-0.005
1070
    41
1041
3.5
1070
   147
1041
1.75
1070
    42
1041
1.5875
1070
    44
1041
2.0
1070
   140
1041
3.5
1070
   343
1005
0
1070
   344
1005
0
1002
}
0
DIMENSION
5
113
100
AcDbEntity
8
SK2
62
256
6
ByLayer
370
13
48
1
60
0
100
AcDbDimension
2
DimnDraft3D5
10
29.27
20
-21.343428
30
0
11
-5.469324
21
-21.343428
31
0
70
32
71
5
72
1
41
1
210
0
220
0
230
1
3
Standard
100
AcDbAlignedDimension
13
-36
23
-4.5875
33
0
14
29.27
24
-3.7375
34
0
50
0
100
AcDbRotatedDimension
1001
ACAD
1000
DSTYLE
1002
{
1070
   279
1070
     0
1070
   172
1070
     1
1070
   173
1070
     1
1070
   340
1005
DF
1070
   271
1070
     2
1070
   272
1070
     2
1070
    77
1070
     1
1070
    73
1070
     0
1070
   171
1070
     3
1070
   274
1070
     4
1070
   177
1070
    35
1070
   176
1070
    35
1070
   178
1070
    35
1070
    48
1040
-0.005
1070
    41
1041
3.5
1070
   147
1041
1.75
1070
    42
1041
1.5875
1070
    44
1041
2.0
1070
   140
1041
3.5
1070
   343
1005
0
1070
   344
1005
0
1002
}
0
DIMENSION
5
11E
100
AcDbEntity
8
SK2
62
256
6
ByLayer
370
13
48
1
60
0
100
AcDbDimension
2
DimnDraft3D6
10
-46.625163
20
3
30
0
11
-47.250163
21
21.47418
31
0
70
33
71
5
72
1
41
1
210
0
220
0
230
1
3
Standard
100
AcDbAlignedDimension
13
-37.5875
23
-3
33
0
14
-37.5875
24
3
34
0
1001
ACAD
1000
DSTYLE
1002
{
1070
   279
1070
     0
1070
    74
1070
     0
1070
   173
1070
     1
1070
   340
1005
DF
1070
   271
1070
     3
1070
   272
1070
     2
1070
    77
1070
     1
1070
    73
1070
     0
1070
   171
1070
     3
1070
   274
1070
     4
1070
   177
1070
    35
1070
   176
1070
    35
1070
   178
1070
    35
1070
    48
1040
-0.005
1070
    41
1041
3.5
1070
   147
1041
1.75
1070
    42
1041
1.5875
1070
    44
1041
2.0
1070
   140
1041
3.5
1070
   343
1005
0
1070
   344
1005
0
1002
}
0
DIMENSION
5
129
100
AcDbEntity
8
2
62
256
6
ByLayer
370
13
48
1
60
0
100
AcDbDimension
2
DimnDraft3D7
10
44.083343
20
2.15
30
0
11
39.458343
21
19.217266
31
0
70
33
71
5
72
1
41
1
210
0
220
0
230
1
3
Standard
100
AcDbAlignedDimension
13
30.8575
23
-2.15
33
0
14
30.8575
24
2.15
34
0
1001
ACAD
1000
DSTYLE
1002
{
1070
   279
1070
     0
1070
    74
1070
     0
1070
   173
1070
     1
1070
   340
1005
DF
1070
   271
1070
     3
1070
   272
1070
     2
1070
    77
1070
     1
1070
    73
1070
     0
1070
   171
1070
     3
1070
   274
1070
     4
1070
   177
1070
    35
1070
   176
1070
    35
1070
   178
1070
    35
1070
    48
1040
-0.005
1070
    41
1041
3.5
1070
   147
1041
1.75
1070
    42
1041
1.5875
1070
    44
1041
2.0
1070
   140
1041
3.5
1070
   343
1005
0
1070
   344
1005
0
1002
}
0
ENDSEC
0
SECTION
2
OBJECTS
0
DICTIONARY
5
194
330
0
100
AcDbDictionary
280
0
281
1
3
ACAD_GROUP
350
195
3
ACAD_MLINESTYLE
350
196
0
DICTIONARY
5
195
330
0
100
AcDbDictionary
280
0
281
1
0
DICTIONARY
5
196
330
0
100
AcDbDictionary
280
0
281
1
3
Standard
350
18
0
MLINESTYLE
5
18
330
196
100
AcDbMlineStyle
2
Standard
70
0
3

62
256
51
90
52
90
71
2
49
-0.5
62
256
6
ByLayer
49
0.5
62
256
6
ByLayer
0
RASTERVARIABLES
5
182
330

100
AcDbRasterVariables
90
0
70
1
71
1
72
1
0
ENDSEC
0
EOF
