0
SECTION
2
HEADER
9
$ACADVER
1
AC1015
9
$DWGCODEPAGE
3
ANSI_1252
9
$HANDSEED
5
196
9
$ANGBASE
50
0
9
$ANGDIR
70
0
9
$ATTMODE
70
1
9
$AUNITS
70
0
9
$AUPREC
70
0
9
$CECOLOR
62
256
9
$CELTSCALE
40
1
9
$CELTYPE
6
ByLayer
9
$CELWEIGHT
370
18
9
$CLAYER
8
0
9
$CMLJUST
70
0
9
$CMLSCALE
40
1
9
$CMLSTYLE
2
Standard
9
$DIMSTYLE
2
Standard
9
$TEXTSIZE
40
0.2
9
$TEXTSTYLE
7
Standard
9
$LUNITS
70
2
9
$LUPREC
70
4
9
$EXTNAMES
290
1
9
$INSUNITS
70
4
9
$LTSCALE
40
1
9
$LWDISPLAY
290
1
9
$PDMODE
70
0
9
$PDSIZE
40
0
9
$PLINEGEN
70
0
0
ENDSEC
0
SECTION
2
CLASSES
0
CLASS
1
RASTERVARIABLES
2
AcDbRasterVariables
3
ISM
90
0
280
0
281
0
0
ENDSEC
0
SECTION
2
TABLES
0
TABLE
2
VPORT
5
18c
100
AcDbSymbolTable
0
VPORT
5
1
100
AcDbSymbolTableRecord
100
AcDbViewportTableRecord
2
*Active
70
0
10
0
20
0
11
1
21
1
12
-1
22
1
13
0
23
0
14
0.5
24
0.5
15
10
25
10
16
0
26
0
36
1
17
0
27
0
37
0
0
ENDTAB
0
TABLE
2
LTYPE
5
18d
100
AcDbSymbolTable
0
LTYPE
5
14
100
AcDbSymbolTableRecord
100
AcDbLinetypeTableRecord
70
0
2
ByBlock
3

72
65
73
0
40
0
0
LTYPE
5
15
100
AcDbSymbolTableRecord
100
AcDbLinetypeTableRecord
70
0
2
ByLayer
3

72
65
73
0
40
0
0
LTYPE
5
16
100
AcDbSymbolTableRecord
100
AcDbLinetypeTableRecord
70
0
2
CONTINUOUS
3
Solid line
72
65
73
0
40
0
0
LTYPE
5
6A
100
AcDbSymbolTableRecord
100
AcDbLinetypeTableRecord
70
0
2
CENTER
3
____ _ ____ _ ____ _ ____
72
65
73
4
40
47.5
49
22
74
0
49
-8.5
74
0
49
8.5
74
0
49
-8.5
74
0
0
LTYPE
5
6B
100
AcDbSymbolTableRecord
100
AcDbLinetypeTableRecord
70
0
2
DASHED
3
__ __ __ __ __ __ __ __ __
72
65
73
2
40
25.72
49
12.86
74
0
49
-12.86
74
0
0
ENDTAB
0
TABLE
2
LAYER
5
18e
100
AcDbSymbolTable
0
LAYER
5
10
100
AcDbSymbolTableRecord
100
AcDbLayerTableRecord
2
0
70
0
62
7
6
CONTINUOUS
290
1
370
-3
390
0
0
LAYER
5
6D
100
AcDbSymbolTableRecord
100
AcDbLayerTableRecord
2
81
70
0
62
-3
6
CONTINUOUS
290
1
370
-3
390
0
0
LAYER
5
6F
100
AcDbSymbolTableRecord
100
AcDbLayerTableRecord
2
80
70
0
62
-6
6
CONTINUOUS
290
1
370
-3
390
0
0
LAYER
5
74
100
AcDbSymbolTableRecord
100
AcDbLayerTableRecord
2
2
70
0
62
7
6
CONTINUOUS
290
1
370
-3
390
0
0
LAYER
5
78
100
AcDbSymbolTableRecord
100
AcDbLayerTableRecord
2
1
70
0
62
4
6
CONTINUOUS
290
1
370
-3
390
0
0
LAYER
5
86
100
AcDbSymbolTableRecord
100
AcDbLayerTableRecord
2
4
70
0
62
-2
6
CENTER
290
1
370
-3
390
0
0
LAYER
5
178
100
AcDbSymbolTableRecord
100
AcDbLayerTableRecord
2
SK2
70
0
62
7
6
CONTINUOUS
290
1
370
-3
390
0
0
LAYER
5
179
100
AcDbSymbolTableRecord
100
AcDbLayerTableRecord
2
SK1
70
0
62
4
6
CONTINUOUS
290
1
370
-3
390
0
0
LAYER
5
17a
100
AcDbSymbolTableRecord
100
AcDbLayerTableRecord
2
SK4
70
0
62
2
6
CENTER
290
1
370
-3
390
0
0
LAYER
5
17b
100
AcDbSymbolTableRecord
100
AcDbLayerTableRecord
2
SK6
70
0
62
5
6
CONTINUOUS
290
1
370
-3
390
0
0
ENDTAB
0
TABLE
2
STYLE
5
18f
100
AcDbSymbolTable
0
STYLE
5
11
100
AcDbSymbolTableRecord
100
AcDbTextStyleTableRecord
2
Standard
3
txt
70
0
71
0
40
0
41
1
42
0
50
0
0
STYLE
5
D4
100
AcDbSymbolTableRecord
100
AcDbTextStyleTableRecord
2
iso_b_vert
3
simplex.shx
70
0
71
0
40
0
41
1
42
0
50
0
0
STYLE
5
D5
100
AcDbSymbolTableRecord
100
AcDbTextStyleTableRecord
2
DWGDirectTextStyle
3
simplex
70
0
71
0
40
0
41
1
42
0
50
0
0
ENDTAB
0
TABLE
2
DIMSTYLE
5
190
100
AcDbSymbolTable
100
AcDbDimStyleTable
0
DIMSTYLE
105
27
100
AcDbSymbolTableRecord
100
AcDbDimStyleTableRecord
2
Standard
70
0
3
<>
41
0.18
42
0.0625
44
0.18
140
0.18
147
0.09
73
0
74
0
77
1
271
2
275
0
278
52
280
0
340
11
0
ENDTAB
0
TABLE
2
VIEW
5
191
100
AcDbSymbolTable
0
ENDTAB
0
TABLE
2
UCS
5
192
100
AcDbSymbolTable
0
ENDTAB
0
TABLE
2
APPID
5
193
100
AcDbSymbolTable
0
APPID
5
12
100
AcDbSymbolTableRecord
100
AcDbRegAppTableRecord
2
ACAD
70
0
0
ENDTAB
0
TABLE
2
BLOCK_RECORD
5
194
100
AcDbSymbolTable
0
BLOCK_RECORD
5
1F
100
AcDbSymbolTableRecord
100
AcDbBlockTableRecord
2
*Model_Space
340
0
70
0
0
BLOCK_RECORD
5
1B
100
AcDbSymbolTableRecord
100
AcDbBlockTableRecord
2
*Paper_Space
340
0
70
0
0
BLOCK_RECORD
5
23
100
AcDbSymbolTableRecord
100
AcDbBlockTableRecord
2
*Paper_Space0
340
0
70
0
0
BLOCK_RECORD
5
D7
100
AcDbSymbolTableRecord
100
AcDbBlockTableRecord
2
DimnDraft3D1
340
0
70
0
0
BLOCK_RECORD
5
E1
100
AcDbSymbolTableRecord
100
AcDbBlockTableRecord
2
DimnDraft3D2
340
0
70
0
0
BLOCK_RECORD
5
EB
100
AcDbSymbolTableRecord
100
AcDbBlockTableRecord
2
DimnDraft3D3
340
0
70
0
0
BLOCK_RECORD
5
F5
100
AcDbSymbolTableRecord
100
AcDbBlockTableRecord
2
DimnDraft3D4
340
0
70
0
0
BLOCK_RECORD
5
FF
100
AcDbSymbolTableRecord
100
AcDbBlockTableRecord
2
DimnDraft3D5
340
0
70
0
0
BLOCK_RECORD
5
109
100
AcDbSymbolTableRecord
100
AcDbBlockTableRecord
2
DimnDraft3D6
340
0
70
0
0
BLOCK_RECORD
5
114
100
AcDbSymbolTableRecord
100
AcDbBlockTableRecord
2
DimnDraft3D7
340
0
70
0
0
ENDTAB
0
ENDSEC
0
SECTION
2
BLOCKS
0
BLOCK
5
20
100
AcDbEntity
8
0
100
AcDbBlockBegin
2
*Model_Space
70
0
10
0
20
0
30
0
3
*Model_Space
0
ENDBLK
5
21
100
AcDbEntity
8
0
100
AcDbBlockEnd
0
BLOCK
5
1C
100
AcDbEntity
8
0
100
AcDbBlockBegin
2
*Paper_Space
70
0
10
0
20
0
30
0
3
*Paper_Space
0
ENDBLK
5
1D
100
AcDbEntity
8
0
100
AcDbBlockEnd
0
BLOCK
5
24
100
AcDbEntity
8
0
100
AcDbBlockBegin
2
*Paper_Space0
70
0
10
0
20
0
30
0
3
*Paper_Space0
0
ENDBLK
5
25
100
AcDbEntity
8
0
100
AcDbBlockEnd
0
BLOCK
5
DE
100
AcDbEntity
8
0
100
AcDbBlockBegin
2
DimnDraft3D1
70
0
10
0
20
0
30
0
3
DimnDraft3D1
0
MTEXT
5
D8
100
AcDbEntity
8
SK2
62
256
6
ByLayer
370
13
48
1
60
0
100
AcDbMText
10
9.091375
20
-11.438398
30
0
210
0
220
0
230
1
1
\W0.7402;29,29
40
3.5
41
0
44
1.084337
50
0
71
7
72
5
7
iso_b_vert
0
LINE
5
D9
100
AcDbEntity
8
SK2
62
256
6
ByLayer
370
13
48
1
60
0
100
AcDbLine
10
0
20
-1.5875
30
0
11
0
21
-14.313398
31
0
39
0
210
0
220
0
230
1
0
LINE
5
DA
100
AcDbEntity
8
SK2
62
256
6
ByLayer
370
13
48
1
60
0
100
AcDbLine
10
29.29
20
-3.6875
30
0
11
29.29
21
-14.313398
31
0
39
0
210
0
220
0
230
1
0
LINE
5
DB
100
AcDbEntity
8
SK2
62
256
6
ByLayer
370
13
48
1
60
0
100
AcDbLine
10
0
20
-12.313398
30
0
11
29.29
21
-12.313398
31
0
39
0
210
0
220
0
230
1
0
SOLID
5
DC
100
AcDbEntity
8
SK2
62
256
6
ByLayer
370
13
48
1
60
0
100
AcDbTrace
10
0
20
-12.313398
30
0
11
3.499998
21
-11.852615
31
0
12
3.500002
22
-12.774182
32
0
13
0
23
-12.313398
33
0
39
0
210
0
220
0
230
1
0
SOLID
5
DD
100
AcDbEntity
8
SK2
62
256
6
ByLayer
370
13
48
1
60
0
100
AcDbTrace
10
29.29
20
-12.313398
30
0
11
25.790002
21
-12.774182
31
0
12
25.789998
22
-11.852615
32
0
13
29.29
23
-12.313398
33
0
39
0
210
0
220
0
230
1
0
ENDBLK
5
DF
100
AcDbEntity
8
0
100
AcDbBlockEnd
0
BLOCK
5
E8
100
AcDbEntity
8
0
100
AcDbBlockBegin
2
DimnDraft3D2
70
0
10
0
20
0
30
0
3
DimnDraft3D2
0
MTEXT
5
E2
100
AcDbEntity
8
SK2
62
256
6
ByLayer
370
13
48
1
60
0
100
AcDbMText
10
-6.817384
20
-30.817985
30
0
210
0
220
0
230
1
1
\W0.7317;66,00
40
3.5
41
0
44
1.084337
50
0
71
7
72
5
7
iso_b_vert
0
LINE
5
E3
100
AcDbEntity
8
SK2
62
256
6
ByLayer
370
13
48
1
60
0
100
AcDbLine
10
-36
20
-4.5875
30
0
11
-36
21
-33.692985
31
0
39
0
210
0
220
0
230
1
0
LINE
5
E4
100
AcDbEntity
8
SK2
62
256
6
ByLayer
370
13
48
1
60
0
100
AcDbLine
10
30
20
-1.5875
30
0
11
30
21
-33.692985
31
0
39
0
210
0
220
0
230
1
0
LINE
5
E5
100
AcDbEntity
8
SK2
62
256
6
ByLayer
370
13
48
1
60
0
100
AcDbLine
10
-36
20
-31.692985
30
0
11
30
21
-31.692985
31
0
39
0
210
0
220
0
230
1
0
SOLID
5
E6
100
AcDbEntity
8
SK2
62
256
6
ByLayer
370
13
48
1
60
0
100
AcDbTrace
10
-36
20
-31.692985
30
0
11
-32.500002
21
-31.232202
31
0
12
-32.499998
22
-32.153769
32
0
13
-36
23
-31.692985
33
0
39
0
210
0
220
0
230
1
0
SOLID
5
E7
100
AcDbEntity
8
SK2
62
256
6
ByLayer
370
13
48
1
60
0
100
AcDbTrace
10
30
20
-31.692985
30
0
11
26.500002
21
-32.153769
31
0
12
26.499998
22
-31.232202
32
0
13
30
23
-31.692985
33
0
39
0
210
0
220
0
230
1
0
ENDBLK
5
E9
100
AcDbEntity
8
0
100
AcDbBlockEnd
0
BLOCK
5
F2
100
AcDbEntity
8
0
100
AcDbBlockBegin
2
DimnDraft3D3
70
0
10
0
20
0
30
0
3
DimnDraft3D3
0
MTEXT
5
EC
100
AcDbEntity
8
SK2
62
256
6
ByLayer
370
13
48
1
60
0
100
AcDbMText
10
19.771316
20
14.584119
30
0
210
0
220
0
230
1
1
\W0.6563;13,31
40
3.5
41
0
44
1.084337
50
0
71
7
72
5
7
iso_b_vert
0
LINE
5
ED
100
AcDbEntity
8
SK2
62
256
6
ByLayer
370
13
48
1
60
0
100
AcDbLine
10
16.69
20
3.6875
30
0
11
16.69
21
15.709119
31
0
39
0
210
0
220
0
230
1
0
LINE
5
EE
100
AcDbEntity
8
SK2
62
256
6
ByLayer
370
13
48
1
60
0
100
AcDbLine
10
30
20
1.5875
30
0
11
30
21
15.709119
31
0
39
0
210
0
220
0
230
1
0
LINE
5
EF
100
AcDbEntity
8
SK2
62
256
6
ByLayer
370
13
48
1
60
0
100
AcDbLine
10
16.69
20
13.709119
30
0
11
30
21
13.709119
31
0
39
0
210
0
220
0
230
1
0
SOLID
5
F0
100
AcDbEntity
8
SK2
62
256
6
ByLayer
370
13
48
1
60
0
100
AcDbTrace
10
16.69
20
13.709119
30
0
11
20.189998
21
14.169903
31
0
12
20.190002
22
13.248335
32
0
13
16.69
23
13.709119
33
0
39
0
210
0
220
0
230
1
0
SOLID
5
F1
100
AcDbEntity
8
SK2
62
256
6
ByLayer
370
13
48
1
60
0
100
AcDbTrace
10
30
20
13.709119
30
0
11
26.500002
21
13.248335
31
0
12
26.499998
22
14.169903
32
0
13
30
23
13.709119
33
0
39
0
210
0
220
0
230
1
0
ENDBLK
5
F3
100
AcDbEntity
8
0
100
AcDbBlockEnd
0
BLOCK
5
FC
100
AcDbEntity
8
0
100
AcDbBlockBegin
2
DimnDraft3D4
70
0
10
0
20
0
30
0
3
DimnDraft3D4
0
MTEXT
5
F6
100
AcDbEntity
8
SK2
62
256
6
ByLayer
370
13
48
1
60
0
100
AcDbMText
10
37.278136
20
-14.027503
30
0
210
0
220
0
230
1
1
\W0.6993;0,71
40
3.5
41
0
44
1.084337
50
0
71
7
72
5
7
iso_b_vert
0
LINE
5
F7
100
AcDbEntity
8
SK2
62
256
6
ByLayer
370
13
48
1
60
0
100
AcDbLine
10
30
20
-1.5875
30
0
11
30
21
-16.902503
31
0
39
0
210
0
220
0
230
1
0
LINE
5
F8
100
AcDbEntity
8
SK2
62
256
6
ByLayer
370
13
48
1
60
0
100
AcDbLine
10
29.29
20
-3.6875
30
0
11
29.29
21
-16.902503
31
0
39
0
210
0
220
0
230
1
0
LINE
5
F9
100
AcDbEntity
8
SK2
62
256
6
ByLayer
370
13
48
1
60
0
100
AcDbLine
10
20.54
20
-14.902503
30
0
11
43.559715
21
-14.902503
31
0
39
0
210
0
220
0
230
1
0
SOLID
5
FA
100
AcDbEntity
8
SK2
62
256
6
ByLayer
370
13
48
1
60
0
100
AcDbTrace
10
30
20
-14.902503
30
0
11
33.499998
21
-14.441719
31
0
12
33.500002
22
-15.363287
32
0
13
30
23
-14.902503
33
0
39
0
210
0
220
0
230
1
0
SOLID
5
FB
100
AcDbEntity
8
SK2
62
256
6
ByLayer
370
13
48
1
60
0
100
AcDbTrace
10
29.29
20
-14.902503
30
0
11
25.790002
21
-15.363287
31
0
12
25.789998
22
-14.441719
32
0
13
29.29
23
-14.902503
33
0
39
0
210
0
220
0
230
1
0
ENDBLK
5
FD
100
AcDbEntity
8
0
100
AcDbBlockEnd
0
BLOCK
5
106
100
AcDbEntity
8
0
100
AcDbBlockBegin
2
DimnDraft3D5
70
0
10
0
20
0
30
0
3
DimnDraft3D5
0
MTEXT
5
100
100
AcDbEntity
8
SK2
62
256
6
ByLayer
370
13
48
1
60
0
100
AcDbMText
10
-9.898008
20
-20.468428
30
0
210
0
220
0
230
1
1
\W0.7402;65,29
40
3.5
41
0
44
1.084337
50
0
71
7
72
5
7
iso_b_vert
0
LINE
5
101
100
AcDbEntity
8
SK2
62
256
6
ByLayer
370
13
48
1
60
0
100
AcDbLine
10
-36
20
-4.5875
30
0
11
-36
21
-23.343428
31
0
39
0
210
0
220
0
230
1
0
LINE
5
102
100
AcDbEntity
8
SK2
62
256
6
ByLayer
370
13
48
1
60
0
100
AcDbLine
10
29.29
20
-3.6875
30
0
11
29.29
21
-23.343428
31
0
39
0
210
0
220
0
230
1
0
LINE
5
103
100
AcDbEntity
8
SK2
62
256
6
ByLayer
370
13
48
1
60
0
100
AcDbLine
10
-36
20
-21.343428
30
0
11
29.29
21
-21.343428
31
0
39
0
210
0
220
0
230
1
0
SOLID
5
104
100
AcDbEntity
8
SK2
62
256
6
ByLayer
370
13
48
1
60
0
100
AcDbTrace
10
-36
20
-21.343428
30
0
11
-32.500002
21
-20.882645
31
0
12
-32.499998
22
-21.804212
32
0
13
-36
23
-21.343428
33
0
39
0
210
0
220
0
230
1
0
SOLID
5
105
100
AcDbEntity
8
SK2
62
256
6
ByLayer
370
13
48
1
60
0
100
AcDbTrace
10
29.29
20
-21.343428
30
0
11
25.790002
21
-21.804212
31
0
12
25.789998
22
-20.882645
32
0
13
29.29
23
-21.343428
33
0
39
0
210
0
220
0
230
1
0
ENDBLK
5
107
100
AcDbEntity
8
0
100
AcDbBlockEnd
0
BLOCK
5
111
100
AcDbEntity
8
0
100
AcDbBlockBegin
2
DimnDraft3D6
70
0
10
0
20
0
30
0
3
DimnDraft3D6
0
MTEXT
5
10A
100
AcDbEntity
8
SK2
62
256
6
ByLayer
370
13
48
1
60
0
100
AcDbMText
10
-46.375163
20
22.34918
30
0
210
0
220
0
230
1
1
\W0.7317;6,000
40
3.5
41
0
44
1.084337
50
90
71
7
72
5
7
iso_b_vert
0
MTEXT
5
10B
100
AcDbEntity
8
SK2
62
256
6
ByLayer
370
13
48
1
60
0
100
AcDbMText
10
-46.375163
20
17.126524
30
0
210
0
220
0
230
1
1
%%c
40
3.5
41
0
44
1.084337
50
90
71
7
72
5
7
iso_b_vert
0
LINE
5
10C
100
AcDbEntity
8
SK2
62
256
6
ByLayer
370
13
48
1
60
0
100
AcDbLine
10
-37.5875
20
-3
30
0
11
-46.625163
21
-3
31
0
39
0
210
0
220
0
230
1
0
LINE
5
10D
100
AcDbEntity
8
SK2
62
256
6
ByLayer
370
13
48
1
60
0
100
AcDbLine
10
-37.5875
20
3
30
0
11
-46.625163
21
3
31
0
39
0
210
0
220
0
230
1
0
LINE
5
10E
100
AcDbEntity
8
SK2
62
256
6
ByLayer
370
13
48
1
60
0
100
AcDbLine
10
-44.625163
20
32.121549
30
0
11
-44.625163
21
-11.75
31
0
39
0
210
0
220
0
230
1
0
SOLID
5
10F
100
AcDbEntity
8
SK2
62
256
6
ByLayer
370
13
48
1
60
0
100
AcDbTrace
10
-44.625163
20
-3
30
0
11
-44.164379
21
-6.499998
31
0
12
-45.085946
22
-6.500002
32
0
13
-44.625163
23
-3
33
0
39
0
210
0
220
0
230
1
0
SOLID
5
110
100
AcDbEntity
8
SK2
62
256
6
ByLayer
370
13
48
1
60
0
100
AcDbTrace
10
-44.625163
20
3
30
0
11
-45.085946
21
6.499998
31
0
12
-44.164379
22
6.500002
32
0
13
-44.625163
23
3
33
0
39
0
210
0
220
0
230
1
0
ENDBLK
5
112
100
AcDbEntity
8
0
100
AcDbBlockEnd
0
BLOCK
5
11C
100
AcDbEntity
8
0
100
AcDbBlockBegin
2
DimnDraft3D7
70
0
10
0
20
0
30
0
3
DimnDraft3D7
0
MTEXT
5
115
100
AcDbEntity
8
2
62
256
6
ByLayer
370
13
48
1
60
0
100
AcDbMText
10
40.333343
20
20.042266
30
0
210
0
220
0
230
1
1
\W0.7581;4,200
40
3.5
41
0
44
1.084337
50
90
71
7
72
5
7
iso_b_vert
0
MTEXT
5
116
100
AcDbEntity
8
2
62
256
6
ByLayer
370
13
48
1
60
0
100
AcDbMText
10
40.333343
20
14.81961
30
0
210
0
220
0
230
1
1
%%c
40
3.5
41
0
44
1.084337
50
90
71
7
72
5
7
iso_b_vert
0
LINE
5
117
100
AcDbEntity
8
2
62
256
6
ByLayer
370
13
48
1
60
0
100
AcDbLine
10
30.8775
20
-2.1
30
0
11
44.083343
21
-2.1
31
0
39
0
210
0
220
0
230
1
0
LINE
5
118
100
AcDbEntity
8
2
62
256
6
ByLayer
370
13
48
1
60
0
100
AcDbLine
10
30.8775
20
2.1
30
0
11
44.083343
21
2.1
31
0
39
0
210
0
220
0
230
1
0
LINE
5
119
100
AcDbEntity
8
2
62
256
6
ByLayer
370
13
48
1
60
0
100
AcDbLine
10
42.083343
20
30.183056
30
0
11
42.083343
21
-10.85
31
0
39
0
210
0
220
0
230
1
0
SOLID
5
11A
100
AcDbEntity
8
2
62
256
6
ByLayer
370
13
48
1
60
0
100
AcDbTrace
10
42.083343
20
-2.1
30
0
11
42.544126
21
-5.599998
31
0
12
41.622559
22
-5.600002
32
0
13
42.083343
23
-2.1
33
0
39
0
210
0
220
0
230
1
0
SOLID
5
11B
100
AcDbEntity
8
2
62
256
6
ByLayer
370
13
48
1
60
0
100
AcDbTrace
10
42.083343
20
2.1
30
0
11
41.622559
21
5.599998
31
0
12
42.544126
22
5.600002
32
0
13
42.083343
23
2.1
33
0
39
0
210
0
220
0
230
1
0
ENDBLK
5
11D
100
AcDbEntity
8
0
100
AcDbBlockEnd
0
ENDSEC
0
SECTION
2
ENTITIES
0
ARC
5
97
100
AcDbEntity
8
1
62
256
6
ByLayer
370
18
48
1
60
0
100
AcDbCircle
39
0
10
0
20
2.2
30
0
40
0.799999999999996
210
0
220
0
230
1
100
AcDbArc
50
25.279905
51
90
0
ARC
5
98
100
AcDbEntity
8
1
62
256
6
ByLayer
370
18
48
1
60
0
100
AcDbCircle
39
0
10
-1.446772
20
-2.883265
30
0
40
0.800000000000007
210
0
220
0
230
-1
100
AcDbArc
50
25.279905
51
90.034377
0
ARC
5
99
100
AcDbEntity
8
1
62
256
6
ByLayer
370
18
48
1
60
0
100
AcDbCircle
39
0
10
-1.446772
20
2.883265
30
0
40
0.800000000000007
210
0
220
0
230
-1
100
AcDbArc
50
269.965623
51
334.720095
0
ARC
5
9A
100
AcDbEntity
8
1
62
256
6
ByLayer
370
18
48
1
60
0
100
AcDbCircle
39
0
10
0
20
-2.2
30
0
40
0.799999999999996
210
0
220
0
230
1
100
AcDbArc
50
270
51
334.720095
0
ELLIPSE
5
9B
100
AcDbEntity
8
1
62
256
6
ByLayer
370
18
48
1
60
0
100
AcDbEllipse
10
8.25
20
2.228541
30
0
11
0.25
21
0
31
0
210
0
220
0
230
1
40
1
41
-2.49099949614509
42
-1.56828978096373
0
ELLIPSE
5
9C
100
AcDbEntity
8
1
62
256
6
ByLayer
370
18
48
1
60
0
100
AcDbEllipse
10
8.25
20
-2.228541
30
0
11
0.25
21
0
31
0
210
0
220
0
230
1
40
1
41
1.57164257496583
42
2.48846740902101
0
ELLIPSE
5
9D
100
AcDbEntity
8
1
62
256
6
ByLayer
370
13
48
1
60
0
100
AcDbEllipse
10
29.942717
20
1.068723
30
0
11
1.41941232406068
21
-0.60081189903208
31
0
210
0
220
0
230
-1
40
0.454918
41
1.60680404434434
42
1.91155378895729
0
ELLIPSE
5
9E
100
AcDbEntity
8
1
62
256
6
ByLayer
370
18
48
1
60
0
100
AcDbEllipse
10
30.058975
20
0.02844
30
0
11
0.135544944341337
21
0.427068209842659
31
0
210
0
220
0
230
-1
40
0.100282
41
-2.33653286887039
42
-1.71927930927634
0
ELLIPSE
5
9F
100
AcDbEntity
8
1
62
256
6
ByLayer
370
18
48
1
60
0
100
AcDbEllipse
10
29.573728
20
-1.068723
30
0
11
0.327083631746167
21
0.880946547016185
31
0
210
0
220
0
230
-1
40
0.131755
41
0.736518128025462
42
1.47750176680233
0
ELLIPSE
5
A0
100
AcDbEntity
8
1
62
256
6
ByLayer
370
13
48
1
60
0
100
AcDbEllipse
10
29.75281
20
0.945526
30
0
11
1.35676410184705
21
-0.934170665575343
31
0
210
0
220
0
230
-1
40
0.533762
41
1.44484622739074
42
1.73333630227934
0
ELLIPSE
5
A1
100
AcDbEntity
8
1
62
256
6
ByLayer
370
18
48
1
60
0
100
AcDbEllipse
10
29.573728
20
1.068723
30
0
11
0.327083631754874
21
-0.880946547034779
31
0
210
0
220
0
230
-1
40
0.131755
41
-1.47750176678961
42
-0.736518128027854
0
ELLIPSE
5
A2
100
AcDbEntity
8
1
62
256
6
ByLayer
370
18
48
1
60
0
100
AcDbEllipse
10
30.058975
20
-0.02844
30
0
11
0.135544944376905
21
-0.427068209932897
31
0
210
0
220
0
230
-1
40
0.100282
41
1.71927930940227
42
2.33653286887973
0
ELLIPSE
5
A3
100
AcDbEntity
8
1
62
256
6
ByLayer
370
18
48
1
60
0
100
AcDbEllipse
10
30.000195
20
0.000459
30
0
11
0.778917821420636
21
2.09788840900463
31
0
210
0
220
0
230
-1
40
0.131755
41
2.84054680571961
42
2.97030764977884
0
ELLIPSE
5
A4
100
AcDbEntity
8
1
62
256
6
ByLayer
370
18
48
1
60
0
100
AcDbEllipse
10
30.000195
20
-0.000459
30
0
11
0.778917829615573
21
-2.09788843343563
31
0
210
0
220
0
230
-1
40
0.131755
41
-2.97030765078906
42
-2.84054680749484
0
ELLIPSE
5
A5
100
AcDbEntity
8
1
62
256
6
ByLayer
370
13
48
1
60
0
100
AcDbEllipse
10
29.618475
20
0.232923
30
0
11
0.153082081612417
21
0.258003636193774
31
0
210
0
220
0
230
1
40
0.454519
41
0.917105603404779
42
2.31336900500036
0
ELLIPSE
5
A6
100
AcDbEntity
8
1
62
256
6
ByLayer
370
18
48
1
60
0
100
AcDbEllipse
10
29.860979
20
0.089038
30
0
11
0.0727819104925844
21
0.301917195716298
31
0
210
0
220
0
230
-1
40
0.478434
41
1.68075135752759
42
2.45976119973024
0
POINT
5
6C
100
AcDbEntity
8
81
62
256
6
ByLayer
370
18
48
1
60
0
100
AcDbPoint
10
30
20
0
30
0
39
0
210
0
220
0
230
1
50
360
0
POINT
5
6E
100
AcDbEntity
8
80
62
256
6
ByLayer
370
18
48
1
60
0
100
AcDbPoint
10
0
20
0
30
0
39
0
210
0
220
0
230
1
50
360
0
POINT
5
70
100
AcDbEntity
8
SK2
62
256
6
ByLayer
370
18
48
1
60
1
100
AcDbPoint
10
-36
20
-3
30
0
39
0
210
0
220
0
230
1
50
360
0
POINT
5
72
100
AcDbEntity
8
SK2
62
256
6
ByLayer
370
18
48
1
60
1
100
AcDbPoint
10
-36
20
3
30
0
39
0
210
0
220
0
230
1
50
360
0
POINT
5
73
100
AcDbEntity
8
2
62
256
6
ByLayer
370
18
48
1
60
1
100
AcDbPoint
10
29.29
20
-2.1
30
0
39
0
210
0
220
0
230
1
50
360
0
POINT
5
75
100
AcDbEntity
8
2
62
256
6
ByLayer
370
18
48
1
60
1
100
AcDbPoint
10
29.29
20
2.1
30
0
39
0
210
0
220
0
230
1
50
360
0
SPLINE
5
A7
100
AcDbEntity
8
1
62
256
6
ByLayer
370
18
48
1
60
0
100
AcDbSpline
70
4
71
3
72
16
73
12
40
0
40
0
40
0
40
0
40
0.116827627389773
40
0.219232844731849
40
0.305830958695157
40
0.395479128390425
40
0.486749735006605
40
0.5994728598965
40
0.698965800935184
40
0.831428966177865
40
1
40
1
40
1
40
1
41
1
10
8.25019600977004
20
-1.97838673809824
30
0
41
1
10
8.41946115520187
20
-1.97843109244553
30
0
41
1
10
8.73708787701059
20
-1.97857428527445
30
0
41
1
10
9.18010981667265
20
-1.97871007502582
30
0
41
1
10
9.58382611154246
20
-1.97932860545509
30
0
41
1
10
9.97139829095127
20
-1.97880700208222
30
0
41
1
10
10.3968184259229
20
-1.97852863786855
30
0
41
1
10
10.8365037503918
20
-1.98020016252508
30
0
41
1
10
11.3358674954823
20
-1.97930478800481
30
0
41
1
10
11.9161302291626
20
-1.98038125547799
30
0
41
1
10
12.352260108443
20
-1.98024671746214
30
0
41
1
10
12.5964815267431
20
-1.98016375932079
30
0
0
SPLINE
5
A8
100
AcDbEntity
8
1
62
256
6
ByLayer
370
18
48
1
60
0
100
AcDbSpline
70
4
71
2
72
6
73
3
40
0
40
0
40
0
40
1
40
1
40
1
41
1
10
28.8955969701518
20
-1.98956750568351
30
0
41
1
10
29.0769354232662
20
-1.98965805584447
30
0
41
1
10
29.2585576221266
20
-1.99062876096735
30
0
0
SPLINE
5
A9
100
AcDbEntity
8
1
62
256
6
ByLayer
370
18
48
1
60
0
100
AcDbSpline
70
4
71
3
72
17
73
13
40
0
40
0
40
0
40
0
40
0.124570465509488
40
0.210013343964082
40
0.26436226641048
40
0.3147409546677
40
0.498560581329441
40
0.678793822210491
40
0.725208255439211
40
0.788219694986165
40
0.886623001092557
40
1
40
1
40
1
40
1
41
1
10
18.137080812197
20
-1.98445558958338
30
0
41
1
10
18.3590512087839
20
-1.98422202576208
30
0
41
1
10
18.7332971359392
20
-1.98401437903746
30
0
41
1
10
19.2044629013765
20
-1.98536331160383
30
0
41
1
10
19.5434083643235
20
-1.98509243781018
30
0
41
1
10
20.0576894845019
20
-1.98382188333943
30
0
41
1
10
20.7963403263382
20
-1.9870048233492
30
0
41
1
10
21.5279161357144
20
-1.98499320471709
30
0
41
1
10
22.0441845063769
20
-1.98437497448086
30
0
41
1
10
22.4145883054422
20
-1.98849291563391
30
0
41
1
10
22.9043455057047
20
-1.98517032281663
30
0
41
1
10
23.2817838832909
20
-1.98630699589879
30
0
41
1
10
23.4838442747088
20
-1.98683296777688
30
0
0
SPLINE
5
AA
100
AcDbEntity
8
1
62
256
6
ByLayer
370
18
48
1
60
0
100
AcDbSpline
70
4
71
3
72
17
73
13
40
0
40
0
40
0
40
0
40
0.128207918513298
40
0.237343833000736
40
0.315799820800079
40
0.398203415500502
40
0.483411005533522
40
0.568630564451089
40
0.650359423754993
40
0.730081725887089
40
0.851794055302997
40
1
40
1
40
1
40
1
41
1
10
12.5916743651158
20
1.98021616134523
30
0
41
1
10
12.4061928168552
20
1.98050656461254
30
0
41
1
10
12.0628129297307
20
1.98081895894146
30
0
41
1
10
11.6056171793376
20
1.97931939497738
30
0
41
1
10
11.2151417815499
20
1.97966179950072
30
0
41
1
10
10.8589739774973
20
1.98004740608508
30
0
41
1
10
10.4930547161757
20
1.97888132223162
30
0
41
1
10
10.1280994463046
20
1.97862028393968
30
0
41
1
10
9.77109363754559
20
1.97910690725044
30
0
41
1
10
9.3612425211364
20
1.97920451120754
30
0
41
1
10
8.85538159751474
20
1.97831978293846
30
0
41
1
10
8.46470110717891
20
1.97832338501459
30
0
41
1
10
8.25017400681713
20
1.97837059809055
30
0
0
SPLINE
5
AB
100
AcDbEntity
8
1
62
256
6
ByLayer
370
18
48
1
60
0
100
AcDbSpline
70
4
71
3
72
10
73
6
40
0
40
0
40
0
40
0
40
0.448913891707986
40
0.707864003191361
40
1
40
1
40
1
40
1
41
1
10
12.9128673988114
20
-0.461421837309956
30
0
41
1
10
12.8872596069896
20
-0.4494203034088
30
0
41
1
10
12.8513898033178
20
-0.43177226836687
30
0
41
1
10
12.8676924694213
20
-0.440267840236714
30
0
41
1
10
12.8977626489897
20
-0.457959954834138
30
0
41
1
10
12.9203157697877
20
-0.471114383927642
30
0
0
SPLINE
5
AC
100
AcDbEntity
8
1
62
256
6
ByLayer
370
18
48
1
60
0
100
AcDbSpline
70
4
71
3
72
10
73
6
40
0
40
0
40
0
40
0
40
0.0393588240752761
40
0.475588997028893
40
1
40
1
40
1
40
1
41
1
10
23.7493049857449
20
-0.438548464326061
30
0
41
1
10
23.7492054943854
20
-0.438517011195643
30
0
41
1
10
23.7485561839582
20
-0.438422855452899
30
0
41
1
10
23.7621625536101
20
-0.445994609194969
30
0
41
1
10
23.7818135740385
20
-0.457342239870087
30
0
41
1
10
23.79659313326
20
-0.465774840517298
30
0
0
SPLINE
5
AD
100
AcDbEntity
8
1
62
256
6
ByLayer
370
18
48
1
60
0
100
AcDbSpline
70
4
71
3
72
19
73
15
40
0
40
0
40
0
40
0
40
0.144029359292893
40
0.259687665337376
40
0.363957625477791
40
0.45732373807503
40
0.543278679195495
40
0.621721853199005
40
0.680862319268411
40
0.741959938908872
40
0.804773770110426
40
0.868259933367706
40
0.938578399167368
40
1
40
1
40
1
40
1
41
1
10
23.4823332105204
20
1.98685630855454
30
0
41
1
10
23.2676039875562
20
1.98642084784152
30
0
41
1
10
22.8804404665661
20
1.98556863994511
30
0
41
1
10
22.3378202289198
20
1.98801924482552
30
0
41
1
10
21.8707215373955
20
1.98376152140466
30
0
41
1
10
21.4479101680562
20
1.98542868422351
30
0
41
1
10
21.063601201141
20
1.98712417200204
30
0
41
1
10
20.7303213451525
20
1.98549315762196
30
0
41
1
10
20.4341006966915
20
1.98517517278188
30
0
41
1
10
20.1611830336848
20
1.98447585112646
30
0
41
1
10
19.8817838474262
20
1.98432934215265
30
0
41
1
10
19.5886380000937
20
1.98499760398693
30
0
41
1
10
19.2975742334853
20
1.9853476734111
30
0
41
1
10
19.1011623276314
20
1.9849836911969
30
0
41
1
10
19.0095907197196
20
1.98480203970794
30
0
0
SPLINE
5
AE
100
AcDbEntity
8
1
62
256
6
ByLayer
370
18
48
1
60
0
100
AcDbSpline
70
4
71
3
72
10
73
6
40
0
40
0
40
0
40
0
40
0.5
40
0.5
40
1
40
1
40
1
40
1
41
1
10
9.61052347257112
20
-1.28790330077703
30
0
41
1
10
9.37949276878328
20
-1.18803369659079
30
0
41
1
10
9.15146629657517
20
-1.0765007738313
30
0
41
1
10
8.69908784553357
20
-0.83720808184006
30
0
41
1
10
8.47447911697429
20
-0.709054980822685
30
0
41
1
10
8.25026556037704
20
-0.57295712048014
30
0
0
SPLINE
5
AF
100
AcDbEntity
8
1
62
256
6
ByLayer
370
13
48
1
60
0
100
AcDbSpline
70
4
71
3
72
27
73
23
40
0
40
0
40
0
40
0
40
0.0052083137952759
40
0.0052083137952759
40
0.0817307511956393
40
0.0817307511956393
40
0.234775625996366
40
0.234775625996366
40
0.387820500797093
40
0.387820500797093
40
0.464342938197456
40
0.464342938197456
40
0.54086537559782
40
0.617387812998183
40
0.617387812998183
40
0.693910250398546
40
0.693910250398546
40
0.846955125199273
40
0.846955125199273
40
0.923477562599637
40
0.923477562599637
40
1
40
1
40
1
40
1
41
1
10
8.25020722821483
20
-1.97850095813158
30
0
41
1
10
8.2502064668391
20
-1.97847338900112
30
0
41
1
10
8.25020570221557
20
-1.97843111220214
30
0
41
1
10
8.25019365606215
20
-1.97753656270297
30
0
41
1
10
8.25018177463954
20
-1.97356129579907
30
0
41
1
10
8.25014590254938
20
-1.95256148418622
30
0
41
1
10
8.25012170919734
20
-1.92654489502181
30
0
41
1
10
8.25008005761012
20
-1.85019860996786
30
0
41
1
10
8.25006264585932
20
-1.79939894089173
30
0
41
1
10
8.2500469089245
20
-1.7067555596667
30
0
41
1
10
8.25004332893391
20
-1.67293874927222
30
0
41
1
10
8.25004000104184
20
-1.60054845900231
30
0
41
1
10
8.25004045805164
20
-1.52327789252692
30
0
41
1
10
8.25004881461325
20
-1.43635996273147
30
0
41
1
10
8.25006119321532
20
-1.34453604049551
30
0
41
1
10
8.2500694098577
20
-1.29621204266883
30
0
41
1
10
8.25009921025958
20
-1.14705961256917
30
0
41
1
10
8.25012609934748
20
-1.04111318860035
30
0
41
1
10
8.25017393492976
20
-0.872611304794333
30
0
41
1
10
8.25019112118005
20
-0.814835950540811
30
0
41
1
10
8.2502273197249
20
-0.695962053201384
30
0
41
1
10
8.25024636914344
20
-0.634749273929089
30
0
41
1
10
8.25026556036858
20
-0.572957120487217
30
0
0
SPLINE
5
B0
100
AcDbEntity
8
1
62
256
6
ByLayer
370
18
48
1
60
0
100
AcDbSpline
70
4
71
3
72
16
73
12
40
0
40
0
40
0
40
0
40
0.25
40
0.25
40
0.375000000000001
40
0.375000000000001
40
0.500000000000001
40
0.500000000000001
40
0.75
40
0.75
40
1
40
1
40
1
40
1
41
1
10
29.0411994477228
20
0.382054829322044
30
0
41
1
10
29.0384834986184
20
0.409421298360542
30
0
41
1
10
29.0393758571653
20
0.437419076622405
30
0
41
1
10
29.0462409930286
20
0.480615513750678
30
0
41
1
10
29.0494705514694
20
0.495229614569411
30
0
41
1
10
29.0578093636033
20
0.524212350520003
30
0
41
1
10
29.0626759228161
20
0.538809916926112
30
0
41
1
10
29.0820961535952
20
0.580621453741202
30
0
41
1
10
29.1022822558061
20
0.605093830469002
30
0
41
1
10
29.1517780665257
20
0.64155472761459
30
0
41
1
10
29.1807789754758
20
0.653731107943486
30
0
41
1
10
29.2107433074455
20
0.660926886028136
30
0
0
SPLINE
5
B1
100
AcDbEntity
8
1
62
256
6
ByLayer
370
18
48
1
60
0
100
AcDbSpline
70
4
71
3
72
16
73
12
40
0
40
0
40
0
40
0
40
0.30398231120984
40
0.30398231120984
40
0.446550338121761
40
0.446550338121761
40
0.589118365033682
40
0.589118365033682
40
0.874254418857531
40
0.874254418857531
40
1
40
1
40
1
40
1
41
1
10
18.1610762466294
20
-1.98434114368331
30
0
41
1
10
17.9275380482294
20
-1.98404963773561
30
0
41
1
10
17.6944203837309
20
-1.97021683498798
30
0
41
1
10
17.3510683548636
20
-1.93033053263758
30
0
41
1
10
17.2412794270368
20
-1.91468117490584
30
0
41
1
10
17.0210779100607
20
-1.8775548191251
30
0
41
1
10
16.9104257662576
20
-1.85602530765144
30
0
41
1
10
16.5794183615676
20
-1.78321146787343
30
0
41
1
10
16.3601047988635
20
-1.72374413301404
30
0
41
1
10
16.0445514243012
20
-1.62392387709085
30
0
41
1
10
15.9480328145439
20
-1.59147493202801
30
0
41
1
10
15.8514909713066
20
-1.5572147254432
30
0
0
SPLINE
5
B2
100
AcDbEntity
8
1
62
256
6
ByLayer
370
13
48
1
60
0
100
AcDbSpline
70
4
71
3
72
28
73
24
40
0
40
0
40
0
40
0
40
0.062266576553635
40
0.062266576553635
40
0.117961392007771
40
0.117961392007771
40
0.173656207461906
40
0.173656207461906
40
0.396435469278451
40
0.396435469278451
40
0.507825100186723
40
0.507825100186723
40
0.563519915640858
40
0.563519915640858
40
0.619214731094994
40
0.619214731094994
40
0.841993992911538
40
0.841993992911538
40
0.897688808365675
40
0.897688808365675
40
0.953383623819814
40
0.953383623819814
40
1
40
1
40
1
40
1
41
1
10
15.8514909713346
20
-1.55721472545312
30
0
41
1
10
15.7291180824547
20
-1.51378774796049
30
0
41
1
10
15.6067078639595
20
-1.46745058670245
30
0
41
1
10
15.3744425889301
20
-1.37449637228482
30
0
41
1
10
15.2646203264639
20
-1.32841972438845
30
0
41
1
10
15.0443974796164
20
-1.23216228031055
30
0
41
1
10
14.9337365813332
20
-1.18185280368874
30
0
41
1
10
14.3821698587439
20
-0.922408751035391
30
0
41
1
10
13.9470429859413
20
-0.690262336498449
30
0
41
1
10
13.2917857876099
20
-0.325206545669488
30
0
41
1
10
13.0729976981637
20
-0.200567048163947
30
0
41
1
10
12.7428400939305
20
-0.0116811555636502
30
0
41
1
10
12.6321585848505
20
0.0517275616562927
30
0
41
1
10
12.411611975147
20
0.177655875246359
30
0
41
1
10
12.301703211289
20
0.240204900052248
30
0
41
1
10
11.7533836874843
20
0.549838866768141
30
0
41
1
10
11.3189054175578
20
0.788144095291244
30
0
41
1
10
10.7711209055503
20
1.05772907619422
30
0
41
1
10
10.6613227584023
20
1.11020664379711
30
0
41
1
10
10.4410473915602
20
1.2119758756555
30
0
41
1
10
10.3303163471052
20
1.26141779556778
30
0
41
1
10
10.1277929036047
20
1.34825255849893
30
0
41
1
10
10.0357782184782
20
1.38631023585373
30
0
41
1
10
9.9439530317741
20
1.42278335927219
30
0
0
SPLINE
5
B3
100
AcDbEntity
8
1
62
256
6
ByLayer
370
18
48
1
60
0
100
AcDbSpline
70
4
71
3
72
24
73
20
40
0
40
0
40
0
40
0
40
0.089054759818399
40
0.089054759818399
40
0.325587186041047
40
0.325587186041047
40
0.384720292596711
40
0.384720292596711
40
0.443853399152374
40
0.443853399152374
40
0.562119612263698
40
0.562119612263698
40
0.680385825375022
40
0.680385825375022
40
0.739518931930684
40
0.739518931930684
40
0.798652038486346
40
0.798652038486346
40
1
40
1
40
1
40
1
41
1
10
20.8922202441454
20
1.38594237379507
30
0
41
1
10
21.0578332323221
20
1.31158741095297
30
0
41
1
10
21.2227697412197
20
1.23286790498389
30
0
41
1
10
21.8248402709275
20
0.931428872343304
30
0
41
1
10
22.259852824317
20
0.685333036299795
30
0
41
1
10
22.8119252805569
20
0.360355305777176
30
0
41
1
10
22.9228639971147
20
0.294360297200711
30
0
41
1
10
23.1433746541624
20
0.162379515190082
30
0
41
1
10
23.2532208368472
20
0.0962164309252103
30
0
41
1
10
23.5819845027417
20
-0.102029979702252
30
0
41
1
10
23.8003440692816
20
-0.233480901875339
30
0
41
1
10
24.237059028871
20
-0.492300097704629
30
0
41
1
10
24.4553973581787
20
-0.619691878542824
30
0
41
1
10
24.7845156940861
20
-0.805021831802719
30
0
41
1
10
24.8944994409389
20
-0.8658222086747
30
0
41
1
10
25.1153092813467
20
-0.984989334694973
30
0
41
1
10
25.2262533775092
20
-1.04342271256394
30
0
41
1
10
25.7119310623715
20
-1.29203926952329
30
0
41
1
10
26.0828285290672
20
-1.46279058737144
30
0
41
1
10
26.4545559243204
20
-1.60607424779343
30
0
0
SPLINE
5
B4
100
AcDbEntity
8
1
62
256
6
ByLayer
370
13
48
1
60
0
100
AcDbSpline
70
4
71
3
72
16
73
12
40
0
40
0
40
0
40
0
40
0.0692267819635492
40
0.0692267819635492
40
0.301920086472661
40
0.301920086472661
40
0.418266738727218
40
0.418266738727218
40
0.534613390981775
40
0.534613390981775
40
1
40
1
40
1
40
1
41
1
10
26.4545559246014
20
-1.60607424790177
30
0
41
1
10
26.5195132715866
20
-1.63111229073979
30
0
41
1
10
26.5844959609945
20
-1.65531159031815
30
0
41
1
10
26.8681413296314
20
-1.75705382050302
30
0
41
1
10
27.0873341681703
20
-1.82565797432923
30
0
41
1
10
27.4183764797135
20
-1.91208396680881
30
0
41
1
10
27.5292117454347
20
-1.93814083188664
30
0
41
1
10
27.7497112853445
20
-1.98394876705103
30
0
41
1
10
27.8596526779497
20
-2.00379297249882
30
0
41
1
10
28.4083387648554
20
-2.08774794005495
30
0
41
1
10
28.8440033802397
20
-2.10608106064899
30
0
41
1
10
29.2839525117458
20
-2.07327347472238
30
0
0
SPLINE
5
B5
100
AcDbEntity
8
1
62
256
6
ByLayer
370
18
48
1
60
0
100
AcDbSpline
70
4
71
3
72
28
73
24
40
0
40
0
40
0
40
0
40
0.0989644806556198
40
0.0989644806556198
40
0.15048166139074
40
0.15048166139074
40
0.20199884212586
40
0.20199884212586
40
0.40806756506634
40
0.40806756506634
40
0.459584745801462
40
0.459584745801462
40
0.511101926536583
40
0.511101926536583
40
0.614136288006823
40
0.614136288006823
40
0.820205010947305
40
0.820205010947305
40
0.871722191682427
40
0.871722191682427
40
0.923239372417548
40
0.923239372417548
40
1
40
1
40
1
40
1
41
1
10
9.53984218812926
20
1.5778527547883
30
0
41
1
10
9.75017542181519
20
1.49592288715806
30
0
41
1
10
9.96101718197156
20
1.40498657365279
30
0
41
1
10
10.2837937889458
20
1.25442859179014
30
0
41
1
10
10.3947774448644
20
1.20066722131011
30
0
41
1
10
10.6154622185789
20
1.09037049201695
30
0
41
1
10
10.7254472311999
20
1.03367852712901
30
0
41
1
10
11.2741141092237
20
0.743375629409229
30
0
41
1
10
11.7090058125374
20
0.489339623570515
30
0
41
1
10
12.2583782257648
20
0.161919131168759
30
0
41
1
10
12.3685207289883
20
0.0959082787999819
30
0
41
1
10
12.5895923357339
20
-0.0367602716595741
30
0
41
1
10
12.7005222121528
20
-0.103422323392778
30
0
41
1
10
13.0312523866551
20
-0.301539240670792
30
0
41
1
10
13.2502877776807
20
-0.431703063732357
30
0
41
1
10
13.9064698426835
20
-0.810950600963253
30
0
41
1
10
14.3420488931389
20
-1.05001876878404
30
0
41
1
10
14.8949955474816
20
-1.31414301520624
30
0
41
1
10
15.0058883097004
20
-1.36516987489659
30
0
41
1
10
15.2265142032095
20
-1.46242642327289
30
0
41
1
10
15.3365244188517
20
-1.50878353573731
30
0
41
1
10
15.6100375668462
20
-1.61823248110605
30
0
41
1
10
15.7733382052233
20
-1.67842248358482
30
0
41
1
10
15.936676543343
20
-1.73287675338997
30
0
0
SPLINE
5
B6
100
AcDbEntity
8
1
62
256
6
ByLayer
370
13
48
1
60
0
100
AcDbSpline
70
4
71
3
72
18
73
14
40
0
40
0
40
0
40
0
40
0.0550987642446106
40
0.0550987642446106
40
0.27117258219103
40
0.27117258219103
40
0.379209491164237
40
0.379209491164237
40
0.487246400137444
40
0.487246400137444
40
0.919394036030268
40
0.919394036030268
40
1
40
1
40
1
40
1
41
1
10
15.9366765433755
20
-1.73287675340083
30
0
41
1
10
15.9925842158862
20
-1.75151543626046
30
0
41
1
10
16.0484963051686
20
-1.76948214049034
30
0
41
1
10
16.3237735106496
20
-1.85451409850086
30
0
41
1
10
16.5434740217001
20
-1.91162245950272
30
0
41
1
10
16.8753459254499
20
-1.97967929203048
30
0
41
1
10
16.9862297016854
20
-1.99942416535555
30
0
41
1
10
17.2068313978504
20
-2.03261710071502
30
0
41
1
10
17.3168020204238
20
-2.04611339141644
30
0
41
1
10
17.865710969463
20
-2.09809716899
30
0
41
1
10
18.3026945942434
20
-2.08991112781243
30
0
41
1
10
18.8272026242557
20
-2.02017374383141
30
0
41
1
10
18.9098385302687
20
-2.00747175271727
30
0
41
1
10
18.9923213480332
20
-1.99311128446149
30
0
0
SPLINE
5
B7
100
AcDbEntity
8
1
62
256
6
ByLayer
370
18
48
1
60
0
100
AcDbSpline
70
4
71
3
72
14
73
10
40
0
40
0
40
0
40
0
40
0.429065080933851
40
0.429065080933851
40
0.578877531247274
40
0.578877531247274
40
0.728689981560698
40
0.728689981560698
40
1
40
1
40
1
40
1
41
1
10
28.925146035895
20
-1.98963008870115
30
0
41
1
10
28.6117846060672
20
-1.98304013187811
30
0
41
1
10
28.2994255225151
20
-1.95191587297899
30
0
41
1
10
27.8758893185948
20
-1.87817310848388
30
0
41
1
10
27.7660878962891
20
-1.85621903459776
30
0
41
1
10
27.5458902745349
20
-1.80658465014565
30
0
41
1
10
27.435287193994
20
-1.77883805385349
30
0
41
1
10
27.1259113347434
20
-1.69383581573803
30
0
41
1
10
26.927719216181
20
-1.63076682097807
30
0
41
1
10
26.7300116428036
20
-1.56022677427182
30
0
0
SPLINE
5
B8
100
AcDbEntity
8
1
62
256
6
ByLayer
370
13
48
1
60
0
100
AcDbSpline
70
4
71
3
72
28
73
24
40
0
40
0
40
0
40
0
40
0.0101557888703665
40
0.0101557888703665
40
0.225093890450075
40
0.225093890450075
40
0.278828415845001
40
0.278828415845001
40
0.332562941239927
40
0.332562941239927
40
0.440031992029777
40
0.440031992029777
40
0.547501042819626
40
0.547501042819626
40
0.60123556821455
40
0.60123556821455
40
0.654970093609475
40
0.654970093609475
40
0.869908195189174
40
0.869908195189174
40
0.977377245979024
40
0.977377245979024
40
1
40
1
40
1
40
1
41
1
10
26.7300107013549
20
-1.56022643837244
30
0
41
1
10
26.709377547095
20
-1.552864736739
30
0
41
1
10
26.6887496702108
20
-1.54542166472922
30
0
41
1
10
26.2316522465774
20
-1.37867022604578
30
0
41
1
10
25.7971620356968
20
-1.18350108909436
30
0
41
1
10
25.2466553014055
20
-0.906929211352036
30
0
41
1
10
25.1359647801575
20
-0.849882387649046
30
0
41
1
10
24.9157584903562
20
-0.733954222565501
30
0
41
1
10
24.8060254606428
20
-0.674969514857651
30
0
41
1
10
24.4775572433463
20
-0.495632326560639
30
0
41
1
10
24.2595523540866
20
-0.372901486054161
30
0
41
1
10
23.8234117768415
20
-0.124720700677926
30
0
41
1
10
23.6052921482329
20
0.0007603124450952
30
0
41
1
10
23.2768789756807
20
0.189018915308395
30
0
41
1
10
23.1671676430729
20
0.251712769095462
30
0
41
1
10
22.9469802603027
20
0.376482008722178
30
0
41
1
10
22.8363025686186
20
0.438680245411376
30
0
41
1
10
22.2857326630941
20
0.744117403717127
30
0
41
1
10
21.8511765266115
20
0.973137440903628
30
0
41
1
10
21.1959894637659
20
1.27550568931514
30
0
41
1
10
20.977122800934
20
1.36952497575692
30
0
41
1
10
20.710503839046
20
1.47347788880046
30
0
41
1
10
20.6640479928054
20
1.49119465606896
30
0
41
1
10
20.6175735680491
20
1.50850968701087
30
0
0
SPLINE
5
B9
100
AcDbEntity
8
1
62
256
6
ByLayer
370
18
48
1
60
0
100
AcDbSpline
70
4
71
3
72
8
73
4
40
0
40
0
40
0
40
0
40
1
40
1
40
1
40
1
41
1
10
20.6175735679896
20
1.50850968703307
30
0
41
1
10
20.5586269452762
20
1.53047149939621
30
0
41
1
10
20.4996504342898
20
1.5517870165844
30
0
41
1
10
20.4407923019193
20
1.57237204693314
30
0
0
SPLINE
5
BA
100
AcDbEntity
8
1
62
256
6
ByLayer
370
18
48
1
60
0
100
AcDbSpline
70
4
71
3
72
8
73
4
40
0
40
0
40
0
40
0
40
1
40
1
40
1
40
1
41
1
10
8.1432087921786
20
1.99073341624194
30
0
41
1
10
8.13410896356436
20
1.99237334091953
30
0
41
1
10
8.12508996721093
20
1.99403860784179
30
0
41
1
10
8.11632390583858
20
1.99578821574576
30
0
0
SPLINE
5
BB
100
AcDbEntity
8
1
62
256
6
ByLayer
370
18
48
1
60
0
100
AcDbSpline
70
4
71
3
72
60
73
56
40
0
40
0
40
0
40
0
40
0.0014723634100569
40
0.0014723634100569
40
0.0423714962595662
40
0.0423714962595662
40
0.0832706291090754
40
0.0832706291090754
40
0.124169761958585
40
0.124169761958585
40
0.165068894808094
40
0.165068894808094
40
0.205968027657603
40
0.205968027657603
40
0.246867160507112
40
0.246867160507112
40
0.287766293356622
40
0.287766293356622
40
0.328665426206131
40
0.328665426206131
40
0.36956455905564
40
0.36956455905564
40
0.41046369190515
40
0.41046369190515
40
0.451362824754659
40
0.451362824754659
40
0.492261957604168
40
0.492261957604168
40
0.512711524028924
40
0.512711524028924
40
0.533161090453679
40
0.533161090453679
40
0.574060223303188
40
0.574060223303188
40
0.614959356152697
40
0.614959356152697
40
0.655858489002206
40
0.655858489002206
40
0.696757621851716
40
0.696757621851716
40
0.737656754701225
40
0.737656754701225
40
0.778555887550734
40
0.778555887550734
40
0.819455020400244
40
0.819455020400244
40
0.860354153249753
40
0.860354153249753
40
0.901253286099263
40
0.901253286099263
40
0.942152418948774
40
0.942152418948774
40
0.983051551798284
40
0.983051551798284
40
1
40
1
40
1
40
1
41
1
10
14.9646711469414
20
1.52545355609092
30
0
41
1
10
14.9713131202558
20
1.52819631522118
30
0
41
1
10
14.9779564356265
20
1.53093024259147
30
0
41
1
10
15.1691779033146
20
1.60934976913981
30
0
41
1
10
15.353595726791
20
1.67818342574634
30
0
41
1
10
15.7209407953414
20
1.80206137053815
30
0
41
1
10
15.9052147685196
20
1.85606062233302
30
0
41
1
10
16.274181036208
20
1.94887176593318
30
0
41
1
10
16.4579600795665
20
1.98730745221667
30
0
41
1
10
16.8261663208971
20
2.04647433195996
30
0
41
1
10
17.0098340312767
20
2.06770595065319
30
0
41
1
10
17.3785019726838
20
2.09241452260008
30
0
41
1
10
17.5631574465343
20
2.09587736303411
30
0
41
1
10
17.9306745222192
20
2.08514078748877
30
0
41
1
10
18.1144842051341
20
2.07090894938634
30
0
41
1
10
18.4835781076776
20
2.02511602266082
30
0
41
1
10
18.6673393501017
20
1.9932389001639
30
0
41
1
10
19.0353393532463
20
1.91360770883964
30
0
41
1
10
19.2193307036712
20
1.86566310410907
30
0
41
1
10
19.587648058386
20
1.7534226028861
30
0
41
1
10
19.7722124448967
20
1.6900481050038
30
0
41
1
10
20.1400736195904
20
1.5494216275998
30
0
41
1
10
20.3234561877434
20
1.4717599515543
30
0
41
1
10
20.6924481486824
20
1.30556275370267
30
0
41
1
10
20.876558368674
20
1.21610701949857
30
0
41
1
10
21.2441017994947
20
1.02821995359486
30
0
41
1
10
21.4283455387061
20
0.930436437518551
30
0
41
1
10
21.7045267884348
20
0.77662309930875
30
0
41
1
10
21.7966128412967
20
0.724194942070483
30
0
41
1
10
21.9807810971304
20
0.618811973550578
30
0
41
1
10
22.0728724962984
20
0.565652337482049
30
0
41
1
10
22.3488913319191
20
0.40434022708078
30
0
41
1
10
22.5321831919977
20
0.293714034333902
30
0
41
1
10
22.9008453400488
20
0.0720276836272831
30
0
41
1
10
23.0854410635199
20
-0.0393797900077288
30
0
41
1
10
23.4526176504824
20
-0.262106593206966
30
0
41
1
10
23.6367510975443
20
-0.371649752745753
30
0
41
1
10
24.0051663823139
20
-0.588653933435609
30
0
41
1
10
24.189166952697
20
-0.695767227319919
30
0
41
1
10
24.5572164553757
20
-0.901001345409355
30
0
41
1
10
24.7406803320385
20
-1.00082149497692
30
0
41
1
10
25.1088836103987
20
-1.19119292914428
30
0
41
1
10
25.2936998063492
20
-1.28114298348873
30
0
41
1
10
25.6610431268512
20
-1.45058547077755
30
0
41
1
10
25.8447177599936
20
-1.52925442269213
30
0
41
1
10
26.2133065371899
20
-1.67314698272079
30
0
41
1
10
26.3972180672387
20
-1.73900676322549
30
0
41
1
10
26.7650863443029
20
-1.85401533220698
30
0
41
1
10
26.9488946309984
20
-1.90391694729581
30
0
41
1
10
27.3167309315474
20
-1.98787452115874
30
0
41
1
10
27.5014510989812
20
-2.02134492679789
30
0
41
1
10
27.8691456483615
20
-2.07114301771938
30
0
41
1
10
28.0523887679579
20
-2.08746808508823
30
0
41
1
10
28.3130078964355
20
-2.09790604333563
30
0
41
1
10
28.3893521893137
20
-2.09944225801294
30
0
41
1
10
28.4656292072087
20
-2.09945796347185
30
0
0
SPLINE
5
BC
100
AcDbEntity
8
1
62
256
6
ByLayer
370
18
48
1
60
0
100
AcDbSpline
70
4
71
3
72
30
73
26
40
0
40
0
40
0
40
0
40
0.093539918930404
40
0.093539918930404
40
0.187079837860808
40
0.187079837860808
40
0.280619756791212
40
0.280619756791212
40
0.374159675721616
40
0.374159675721616
40
0.420929635186816
40
0.420929635186816
40
0.467699594652017
40
0.467699594652017
40
0.561239513582421
40
0.561239513582421
40
0.654779432512825
40
0.654779432512825
40
0.748319351443229
40
0.748319351443229
40
0.841859270373633
40
0.841859270373633
40
0.935399189304037
40
0.935399189304037
40
1
40
1
40
1
40
1
41
1
10
11.6696932575397
20
0.278074078889119
30
0
41
1
10
11.8539113894499
20
0.167103354958357
30
0
41
1
10
12.0383366394527
20
0.056716216502025
30
0
41
1
10
12.4064324653924
20
-0.16485555728238
30
0
41
1
10
12.5899775800013
20
-0.276243637607848
30
0
41
1
10
12.959506708935
20
-0.494499733608137
30
0
41
1
10
13.14339880616
20
-0.602211791733794
30
0
41
1
10
13.5110974671126
20
-0.811498369267667
30
0
41
1
10
13.6955130717246
20
-0.912263562924863
30
0
41
1
10
13.97213137359
20
-1.05884658835288
30
0
41
1
10
14.0641220224165
20
-1.10679476272594
30
0
41
1
10
14.2482715343359
20
-1.19950901483458
30
0
41
1
10
14.3403823780731
20
-1.24444051037892
30
0
41
1
10
14.6165454470558
20
-1.37537251169076
30
0
41
1
10
14.8000244439823
20
-1.45796070255372
30
0
41
1
10
15.1691779033148
20
-1.60934976913987
30
0
41
1
10
15.353595726791
20
-1.67818342574642
30
0
41
1
10
15.7209407953416
20
-1.80206137053815
30
0
41
1
10
15.9052147685198
20
-1.85606062233305
30
0
41
1
10
16.2741810362082
20
-1.94887176593321
30
0
41
1
10
16.4579600795667
20
-1.9873074522167
30
0
41
1
10
16.8261663208973
20
-2.04647433195999
30
0
41
1
10
17.0098340312768
20
-2.06770595065322
30
0
41
1
10
17.321473264615
20
-2.08859238951476
30
0
41
1
10
17.4489318713903
20
-2.09288367854606
30
0
41
1
10
17.5761424690568
20
-2.09295397221982
30
0
0
SPLINE
5
BD
100
AcDbEntity
8
1
62
256
6
ByLayer
370
18
48
1
60
0
100
AcDbSpline
70
4
71
3
72
20
73
16
40
0
40
0
40
0
40
0
40
0.0467185519140132
40
0.0467185519140132
40
0.205598793261682
40
0.205598793261682
40
0.364479034609345
40
0.364479034609345
40
0.523359275957009
40
0.523359275957009
40
0.682239517304672
40
0.682239517304672
40
0.841119758652336
40
0.841119758652336
40
1
40
1
40
1
40
1
41
1
10
25.8665825700453
20
1.53600676285873
30
0
41
1
10
25.9206826303132
20
1.55830798723989
30
0
41
1
10
25.9748205959602
20
1.58004498196158
30
0
41
1
10
26.2133065371905
20
1.67314698272099
30
0
41
1
10
26.3972180672393
20
1.73900676322566
30
0
41
1
10
26.7650863443034
20
1.85401533220716
30
0
41
1
10
26.948894630999
20
1.90391694729595
30
0
41
1
10
27.316730931548
20
1.98787452115886
30
0
41
1
10
27.5014510989818
20
2.02134492679798
30
0
41
1
10
27.8691456483621
20
2.07114301771946
30
0
41
1
10
28.0523887679586
20
2.08746808508829
30
0
41
1
10
28.42091226246
20
2.10222768033074
30
0
41
1
10
28.6050977924785
20
2.10074474734986
30
0
41
1
10
28.9717935065963
20
2.08009379938747
30
0
41
1
10
29.1552670775989
20
2.06117978482518
30
0
41
1
10
29.3382679564295
20
2.03351193897041
30
0
0
SPLINE
5
BE
100
AcDbEntity
8
1
62
256
6
ByLayer
370
18
48
1
60
0
100
AcDbSpline
70
4
71
3
72
49
73
45
40
0
40
0
40
0
40
0
40
0.124999999999987
40
0.124999999999987
40
0.249999999999974
40
0.249999999999974
40
0.37499999999996
40
0.37499999999996
40
0.499999999999947
40
0.499999999999947
40
0.56249999999994
40
0.56249999999994
40
0.570312499999939
40
0.570312499999939
40
0.574218749999939
40
0.574218749999939
40
0.57812499999994
40
0.57812499999994
40
0.582031249999941
40
0.582031249999941
40
0.585937499999942
40
0.593749999999943
40
0.593749999999943
40
0.624999999999947
40
0.624999999999947
40
0.656249999999951
40
0.656249999999951
40
0.671874999999954
40
0.671874999999954
40
0.687499999999956
40
0.687499999999956
40
0.718749999999961
40
0.718749999999961
40
0.749999999999966
40
0.749999999999966
40
0.781249999999971
40
0.781249999999971
40
0.812499999999976
40
0.812499999999976
40
0.874999999999984
40
0.874999999999984
40
0.937499999999992
40
0.937499999999992
40
1
40
1
40
1
40
1
41
1
10
11.6687756497894
20
0.278611161255668
30
0
41
1
10
11.3294783671967
20
0.481941429838571
30
0
41
1
10
10.9845796219022
20
0.674225195462128
30
0
41
1
10
10.2918269619602
20
1.01675966151188
30
0
41
1
10
9.94230481431896
20
1.16757522782788
30
0
41
1
10
9.22697268631131
20
1.42035865980665
30
0
41
1
10
8.86104799826151
20
1.52221785471391
30
0
41
1
10
8.10570395071693
20
1.67899426710213
30
0
41
1
10
7.72246503052583
20
1.73308493163057
30
0
41
1
10
7.13749550034828
20
1.78687756363507
30
0
41
1
10
6.94054624591041
20
1.80025623135279
30
0
41
1
10
6.71816458479285
20
1.8106191950252
30
0
41
1
10
6.69344024383815
20
1.81170542689549
30
0
41
1
10
6.65634018354916
20
1.81323735939105
30
0
41
1
10
6.64399789885169
20
1.8140084855404
30
0
41
1
10
6.61914631733683
20
1.81376151886522
30
0
41
1
10
6.60660907353653
20
1.8128229225434
30
0
41
1
10
6.58457399403858
20
1.80781238780588
30
0
41
1
10
6.57388005952021
20
1.80488367242418
30
0
41
1
10
6.55229504348438
20
1.79923290556954
30
0
41
1
10
6.52007957509008
20
1.79056204063019
30
0
41
1
10
6.48837362474765
20
1.78127062940479
30
0
41
1
10
6.38394754242432
20
1.74872091369366
30
0
41
1
10
6.30406250500599
20
1.71769120021651
30
0
41
1
10
6.16260248635786
20
1.63993172552429
30
0
41
1
10
6.09953563687031
20
1.59199118727906
30
0
41
1
10
6.03591539282201
20
1.50323303978217
30
0
41
1
10
6.01983685435013
20
1.47045345677083
30
0
41
1
10
6.00107013029932
20
1.40190150922285
30
0
41
1
10
5.99806309129701
20
1.36517991363129
30
0
41
1
10
6.0076551214552
20
1.25280115141521
30
0
41
1
10
6.03834198086079
20
1.1756195472434
30
0
41
1
10
6.12304704243988
20
1.02843056754335
30
0
41
1
10
6.17782129008299
20
0.956437112998117
30
0
41
1
10
6.2967785502768
20
0.819293126099296
30
0
41
1
10
6.36156971403142
20
0.753368728075486
30
0
41
1
10
6.49772518213285
20
0.624424880413073
30
0
41
1
10
6.56929496388176
20
0.56135672385858
30
0
41
1
10
6.78741980699749
20
0.377873782567605
30
0
41
1
10
6.93857084552383
20
0.261752486772877
30
0
41
1
10
7.24702434438058
20
0.0356830209411783
30
0
41
1
10
7.40455786648317
20
-0.0741848921066435
30
0
41
1
10
7.72387125024269
20
-0.289204731627677
30
0
41
1
10
7.88377216780927
20
-0.393048614741133
30
0
41
1
10
8.04388732852888
20
-0.493658337063493
30
0
0
SPLINE
5
BF
100
AcDbEntity
8
1
62
256
6
ByLayer
370
18
48
1
60
0
100
AcDbSpline
70
4
71
3
72
36
73
32
40
0
40
0
40
0
40
0
40
0.116750708218635
40
0.116750708218635
40
0.175126062327953
40
0.175126062327953
40
0.233501416437272
40
0.233501416437272
40
0.29187677054659
40
0.29187677054659
40
0.350252124655907
40
0.350252124655907
40
0.467002832874542
40
0.467002832874542
40
0.525378186983859
40
0.525378186983859
40
0.583753541093177
40
0.583753541093177
40
0.70050424931181
40
0.70050424931181
40
0.758879603421127
40
0.758879603421127
40
0.817254957530444
40
0.817254957530444
40
0.87563031163976
40
0.87563031163976
40
0.904817988694419
40
0.904817988694419
40
0.934005665749078
40
0.934005665749078
40
1
40
1
40
1
40
1
41
1
10
29.2797889573848
20
-2.08422296446852
30
0
41
1
10
28.8383132874637
20
-2.11680671313638
30
0
41
1
10
28.4008484579408
20
-2.09788725922766
30
0
41
1
10
27.7391692342697
20
-1.99509499527815
30
0
41
1
10
27.5167888306969
20
-1.94800598642507
30
0
41
1
10
27.0751751559407
20
-1.83124533590072
30
0
41
1
10
26.8553588603649
20
-1.76174989546209
30
0
41
1
10
26.4159002187544
20
-1.60249969688573
30
0
41
1
10
26.1962753391614
20
-1.51270799295008
30
0
41
1
10
25.7549767326737
20
-1.31504497390665
30
0
41
1
10
25.5323965190687
20
-1.206660713834
30
0
41
1
10
24.870818248761
20
-0.864815118774118
30
0
41
1
10
24.4350470274731
20
-0.613022357789532
30
0
41
1
10
23.7763699822619
20
-0.22023006102026
30
0
41
1
10
23.5556756805268
20
-0.0865843982592196
30
0
41
1
10
23.1121219536057
20
0.182209270117824
30
0
41
1
10
22.892038362573
20
0.315020622313512
30
0
41
1
10
22.2336754274785
20
0.703759125032718
30
0
41
1
10
21.7979409568078
20
0.951027791615815
30
0
41
1
10
21.1353846333694
20
1.28240575792606
30
0
41
1
10
20.912722082394
20
1.38663996567203
30
0
41
1
10
20.4722573715477
20
1.57499527300703
30
0
41
1
10
20.2532287353081
20
1.65967232561616
30
0
41
1
10
19.8153378738942
20
1.80801816403388
30
0
41
1
10
19.5964375054316
20
1.87166156210191
30
0
41
1
10
19.2666731654194
20
1.95004316819501
30
0
41
1
10
19.1565284180326
20
1.97333186058401
30
0
41
1
10
18.935605911457
20
2.01401175131372
30
0
41
1
10
18.8245004955958
20
2.03142166147674
30
0
41
1
10
18.4633058649865
20
2.07775642253256
30
0
41
1
10
18.21481435143
20
2.0935349155811
30
0
41
1
10
17.9669473940324
20
2.0932278632917
30
0
0
SPLINE
5
C0
100
AcDbEntity
8
1
62
256
6
ByLayer
370
18
48
1
60
0
100
AcDbSpline
70
4
71
3
72
12
73
8
40
0
40
0
40
0
40
0
40
0.499999999999999
40
0.499999999999999
40
0.75
40
0.75
40
1
40
1
40
1
40
1
41
1
10
8.2502655603738
20
-0.572957120490088
30
0
41
1
10
8.21221116416822
20
-0.549858062703919
30
0
41
1
10
8.17446126406554
20
-0.53072494630311
30
0
41
1
10
8.11997988328636
20
-0.50953455470696
30
0
41
1
10
8.10281190742268
20
-0.50399242671773
30
0
41
1
10
8.07081884753057
20
-0.496163515526973
30
0
41
1
10
8.05618302979491
20
-0.493970300586085
30
0
41
1
10
8.04388732855691
20
-0.493658337081115
30
0
0
SPLINE
5
C1
100
AcDbEntity
8
1
62
256
6
ByLayer
370
18
48
1
60
0
100
AcDbSpline
70
4
71
3
72
10
73
6
40
0
40
0
40
0
40
0
40
0.5
40
0.5
40
1
40
1
40
1
40
1
41
1
10
8.11632390583893
20
1.99578821574565
30
0
41
1
10
8.09585635029845
20
1.99987331114107
30
0
41
1
10
8.07822156305238
20
2.00487752149954
30
0
41
1
10
8.0520982592667
20
2.01608465659928
30
0
41
1
10
8.04377424482718
20
2.02221674039637
30
0
41
1
10
8.04377591174514
20
2.02810743284613
30
0
0
SPLINE
5
C2
100
AcDbEntity
8
1
62
256
6
ByLayer
370
18
48
1
60
0
100
AcDbSpline
70
4
71
3
72
12
73
8
40
0
40
0
40
0
40
0
40
0.250000000000006
40
0.250000000000006
40
0.500000000000011
40
0.500000000000011
40
1
40
1
40
1
40
1
41
1
10
29.2839525117627
20
-2.07327347472113
30
0
41
1
10
29.2889652336905
20
-2.06008406173888
30
0
41
1
10
29.2936199185352
20
-2.04647716225341
30
0
41
1
10
29.3007308431129
20
-2.02210353112454
30
0
41
1
10
29.3031382912369
20
-2.01142671542024
30
0
41
1
10
29.3062851923242
20
-1.98833334202453
30
0
41
1
10
29.3035346751798
20
-1.98382868428459
30
0
41
1
10
29.2986552197795
20
-1.98582970843532
30
0
0
SPLINE
5
C3
100
AcDbEntity
8
1
62
256
6
ByLayer
370
18
48
1
60
0
100
AcDbSpline
70
4
71
3
72
18
73
14
40
0
40
0
40
0
40
0
40
0.25
40
0.25
40
0.5
40
0.5
40
0.625
40
0.625
40
0.75
40
0.75
40
0.875
40
0.875
40
1
40
1
40
1
40
1
41
1
10
29.2107433074455
20
0.660926886028136
30
0
41
1
10
29.2655058407918
20
0.674077822872448
30
0
41
1
10
29.3197850209228
20
0.689026132933947
30
0
41
1
10
29.4267528048258
20
0.7250627907043
30
0
41
1
10
29.4793702071943
20
0.745994175771727
30
0
41
1
10
29.5540717328393
20
0.785802138707282
30
0
41
1
10
29.5780693543371
20
0.800413173366763
30
0
41
1
10
29.6231219855166
20
0.833583320095499
30
0
41
1
10
29.6444715632542
20
0.852411020496646
30
0
41
1
10
29.6809992796958
20
0.895198943849437
30
0
41
1
10
29.6963478772238
20
0.919639521205568
30
0
41
1
10
29.7162057599629
20
0.972281450973725
30
0
41
1
10
29.7207539775205
20
1.00110118711464
30
0
41
1
10
29.7197631169518
20
1.0295625776958
30
0
0
SPLINE
5
C4
100
AcDbEntity
8
1
62
256
6
ByLayer
370
18
48
1
60
0
100
AcDbSpline
70
4
71
3
72
66
73
62
40
0
40
0
40
0
40
0
40
0.0047539551831147
40
0.0047539551831147
40
0.0468033457066773
40
0.0468033457066773
40
0.08885273623024
40
0.08885273623024
40
0.130902126753803
40
0.130902126753803
40
0.172951517277365
40
0.172951517277365
40
0.215000907800928
40
0.215000907800928
40
0.25705029832449
40
0.25705029832449
40
0.278074993586271
40
0.278074993586271
40
0.299099688848052
40
0.299099688848052
40
0.341149079371614
40
0.341149079371614
40
0.362173774633395
40
0.362173774633395
40
0.383198469895176
40
0.383198469895176
40
0.425247860418738
40
0.425247860418738
40
0.467297250942299
40
0.467297250942299
40
0.50934664146586
40
0.50934664146586
40
0.551396031989422
40
0.551396031989422
40
0.593445422512983
40
0.593445422512983
40
0.635494813036545
40
0.635494813036545
40
0.677544203560106
40
0.677544203560106
40
0.698568898821887
40
0.698568898821887
40
0.719593594083668
40
0.719593594083668
40
0.761642984607229
40
0.761642984607229
40
0.80369237513079
40
0.80369237513079
40
0.845741765654352
40
0.845741765654352
40
0.866766460916133
40
0.866766460916133
40
0.887791156177915
40
0.887791156177915
40
0.929840546701478
40
0.929840546701478
40
0.950865241963261
40
0.950865241963261
40
0.971889937225043
40
0.971889937225043
40
1
40
1
40
1
40
1
41
1
10
25.8853115726446
20
-1.52900778411356
30
0
41
1
10
25.864238027906
20
-1.53668747600005
30
0
41
1
10
25.8431643490333
20
-1.54429368579986
30
0
41
1
10
25.6357000487915
20
-1.61847659620293
30
0
41
1
10
25.4498479708583
20
-1.6787018539454
30
0
41
1
10
25.0778249047552
20
-1.78371158634286
30
0
41
1
10
24.8919562334317
20
-1.82841825711722
30
0
41
1
10
24.5187384433318
20
-1.90144581867295
30
0
41
1
10
24.3325696978198
20
-1.93081350289546
30
0
41
1
10
23.9608255695146
20
-1.97168311557405
30
0
41
1
10
23.7746048979724
20
-1.98406400961522
30
0
41
1
10
23.4011836334221
20
-1.9879849391339
30
0
41
1
10
23.2150361744664
20
-1.98214566214131
30
0
41
1
10
22.8424387861258
20
-1.9551973129206
30
0
41
1
10
22.6564605716745
20
-1.93361850772882
30
0
41
1
10
22.3762900271704
20
-1.88714049690608
30
0
41
1
10
22.2829582402946
20
-1.86904856259304
30
0
41
1
10
22.0964863389504
20
-1.82860620155779
30
0
41
1
10
22.0033749337546
20
-1.80685270859323
30
0
41
1
10
21.7241138421043
20
-1.73635310816167
30
0
41
1
10
21.5378456826786
20
-1.68242958146678
30
0
41
1
10
21.2576935477826
20
-1.59073420192996
30
0
41
1
10
21.1644500759313
20
-1.55837370568625
30
0
41
1
10
20.9783238388233
20
-1.48961637706353
30
0
41
1
10
20.8852670576737
20
-1.45339171466591
30
0
41
1
10
20.6059682665154
20
-1.34065028509241
30
0
41
1
10
20.4199103705589
20
-1.25957723748016
30
0
41
1
10
20.0465870619795
20
-1.08623599074568
30
0
41
1
10
19.8599875828075
20
-0.995459912177665
30
0
41
1
10
19.4876792129023
20
-0.805793526993568
30
0
41
1
10
19.3017101771546
20
-0.707047456531967
30
0
41
1
10
18.9278909666648
20
-0.503031300282913
30
0
41
1
10
18.741588349494
20
-0.398142046815536
30
0
41
1
10
18.3687886757073
20
-0.187258462393117
30
0
41
1
10
18.1823425945747
20
-0.08078339602028
30
0
41
1
10
17.8089037323372
20
0.133799438954611
30
0
41
1
10
17.62226190251
20
0.239677516765539
30
0
41
1
10
17.2496261736955
20
0.449678626173522
30
0
41
1
10
17.063459276462
20
0.553540603433305
30
0
41
1
10
16.7831115552229
20
0.705082408173723
30
0
41
1
10
16.6897338033319
20
0.75487727783451
30
0
41
1
10
16.5033971120431
20
0.852539340356202
30
0
41
1
10
16.4104049937459
20
0.900128452244303
30
0
41
1
10
16.1310524090256
20
1.03995088614016
30
0
41
1
10
15.9446433625563
20
1.12916066436313
30
0
41
1
10
15.5712304338532
20
1.29828891457544
30
0
41
1
10
15.3848599752173
20
1.37759348211077
30
0
41
1
10
15.0122626105646
20
1.52263464102282
30
0
41
1
10
14.8263322890118
20
1.58957126632046
30
0
41
1
10
14.5460130617399
20
1.67830018284946
30
0
41
1
10
14.4526331056571
20
1.70535462599796
30
0
41
1
10
14.2662148641049
20
1.75638505653106
30
0
41
1
10
14.1731150067714
20
1.78045443885898
30
0
41
1
10
13.8937618691041
20
1.84715081075353
30
0
41
1
10
13.7073374495128
20
1.8841767504623
30
0
41
1
10
13.4271922046513
20
1.9267640257257
30
0
41
1
10
13.3340150330501
20
1.93883126020984
30
0
41
1
10
13.1476563206018
20
1.95771240926439
30
0
41
1
10
13.0544678938335
20
1.96448627628507
30
0
41
1
10
12.8367146725646
20
1.97663041052897
30
0
41
1
10
12.7122846758643
20
1.98029256454859
30
0
41
1
10
12.5876740314198
20
1.98023218312804
30
0
0
SPLINE
5
C5
100
AcDbEntity
8
1
62
256
6
ByLayer
370
18
48
1
60
0
100
AcDbSpline
70
4
71
3
72
27
73
23
40
0
40
0
40
0
40
0
40
0.113897090399546
40
0.113897090399546
40
0.187738999532917
40
0.187738999532917
40
0.261580908666288
40
0.261580908666288
40
0.40926472693303
40
0.40926472693303
40
0.483106636066401
40
0.483106636066401
40
0.556948545199773
40
0.556948545199773
40
0.704632363466515
40
0.704632363466515
40
0.778474272599886
40
0.778474272599886
40
0.852316181733258
40
0.926158090866629
40
0.926158090866629
40
1
40
1
40
1
40
1
41
1
10
8.04377332234148
20
-2.08722228118108
30
0
41
1
10
8.04376667879617
20
-2.0868649912419
30
0
41
1
10
8.04375724089766
20
-2.0785121700541
30
0
41
1
10
8.04374016117288
20
-2.05193020550041
30
0
41
1
10
8.0437330416523
20
-2.0381834503047
30
0
41
1
10
8.04371892118661
20
-2.00393875670824
30
0
41
1
10
8.04371192410454
20
-1.98338416744906
30
0
41
1
10
8.04369286151018
20
-1.91291388762124
30
0
41
1
10
8.04368260267222
20
-1.8539398974948
30
0
41
1
10
8.04367480978607
20
-1.74755588900913
30
0
41
1
10
8.04367346956391
20
-1.7088785087968
30
0
41
1
10
8.04367383053221
20
-1.62627734586621
30
0
41
1
10
8.04367551591878
20
-1.58257766183104
30
0
41
1
10
8.0436853155939
20
-1.44448753332921
30
0
41
1
10
8.04369822142752
20
-1.34317278298053
30
0
41
1
10
8.0437271518031
20
-1.1769145401058
30
0
41
1
10
8.0437383528737
20
-1.11931177844494
30
0
41
1
10
8.0437630998255
20
-1.00179958739298
30
0
41
1
10
8.04379028373785
20
-0.881428357590153
30
0
41
1
10
8.0438212940108
20
-0.75541150643636
30
0
41
1
10
8.04385358792337
20
-0.626526311824648
30
0
41
1
10
8.04387047407897
20
-0.560269501167227
30
0
41
1
10
8.04388732854926
20
-0.493658337081086
30
0
0
SPLINE
5
C6
100
AcDbEntity
8
1
62
256
6
ByLayer
370
18
48
1
60
0
100
AcDbSpline
70
4
71
3
72
17
73
13
40
0
40
0
40
0
40
0
40
0.25
40
0.25
40
0.5
40
0.5
40
0.625
40
0.625
40
0.75
40
0.875
40
0.875
40
1
40
1
40
1
40
1
41
1
10
29.2753439281692
20
-1.99097619422639
30
0
41
1
10
29.2166548118893
20
-1.99093542009669
30
0
41
1
10
29.1637022834579
20
-1.97373398838238
30
0
41
1
10
29.0713498555572
20
-1.90086071449667
30
0
41
1
10
29.0337545178361
20
-1.8466772253521
30
0
41
1
10
28.9907068970344
20
-1.73780124519806
30
0
41
1
10
28.9785412607166
20
-1.69653834095746
30
0
41
1
10
28.9594055563116
20
-1.60545243074557
30
0
41
1
10
28.9455587927955
20
-1.50674199734655
30
0
41
1
10
28.9420805531196
20
-1.39308432743709
30
0
41
1
10
28.9439173396424
20
-1.27176452982667
30
0
41
1
10
28.9475498860902
20
-1.20701957947381
30
0
41
1
10
28.9537831016542
20
-1.14013067287416
30
0
0
SPLINE
5
C7
100
AcDbEntity
8
1
62
256
6
ByLayer
370
18
48
1
60
0
100
AcDbSpline
70
4
71
3
72
8
73
4
40
0
40
0
40
0
40
0
40
1
40
1
40
1
40
1
41
1
10
29.2797889573849
20
2.08422296446852
30
0
41
1
10
29.1380347745756
20
2.0946853364178
30
0
41
1
10
28.9966394836217
20
2.09984156652726
30
0
41
1
10
28.8553486006639
20
2.0997423848512
30
0
0
SPLINE
5
C8
100
AcDbEntity
8
1
62
256
6
ByLayer
370
18
48
1
60
0
100
AcDbSpline
70
4
71
3
72
38
73
34
40
0
40
0
40
0
40
0
40
0.0289495287922992
40
0.0289495287922992
40
0.150330837693267
40
0.150330837693267
40
0.21102149214375
40
0.21102149214375
40
0.241366819368991
40
0.241366819368991
40
0.271712146594233
40
0.271712146594233
40
0.393093455495197
40
0.393093455495197
40
0.423438782720438
40
0.423438782720438
40
0.453784109945679
40
0.453784109945679
40
0.514474764396161
40
0.514474764396161
40
0.635856073297123
40
0.635856073297123
40
0.666201400522362
40
0.666201400522362
40
0.696546727747602
40
0.696546727747602
40
0.757237382198082
40
0.757237382198082
40
0.817928036648561
40
0.817928036648561
40
0.878618691099041
40
0.878618691099041
40
1
40
1
40
1
40
1
41
1
10
19.0303219440299
20
-1.99655040720441
30
0
41
1
10
18.9247097205625
20
-2.01572017864208
30
0
41
1
10
18.8186238002055
20
-2.03218627239715
30
0
41
1
10
18.2708837721271
20
-2.10239553310944
30
0
41
1
10
17.834165747961
20
-2.10816581066854
30
0
41
1
10
17.1765072226973
20
-2.04208451638129
30
0
41
1
10
16.9565967575311
20
-2.00761633110747
30
0
41
1
10
16.6242209510525
20
-1.93746455758659
30
0
41
1
10
16.5129492641242
20
-1.91095555041076
30
0
41
1
10
16.2918662607131
20
-1.85242054704327
30
0
41
1
10
16.1817004320836
20
-1.82037549813083
30
0
41
1
10
15.6320035991322
20
-1.64709745561999
30
0
41
1
10
15.1959212676451
20
-1.46671904821793
30
0
41
1
10
14.6451713298042
20
-1.2005731410091
30
0
41
1
10
14.5347494608085
20
-1.14529301036009
30
0
41
1
10
14.3131031880257
20
-1.03089707304093
30
0
41
1
10
14.2019330437183
20
-0.971867391023324
30
0
41
1
10
13.8703836794916
20
-0.791721326239866
30
0
41
1
10
13.6507406360671
20
-0.666955742293709
30
0
41
1
10
12.9929882328796
20
-0.283647941020774
30
0
41
1
10
12.5564155160039
20
-0.0154735969280466
30
0
41
1
10
12.0016125093392
20
0.316460765412501
30
0
41
1
10
11.8905002214141
20
0.382525973632994
30
0
41
1
10
11.6695429936083
20
0.512642817170303
30
0
41
1
10
11.5594455942784
20
0.576860079605837
30
0
41
1
10
11.2297775665147
20
0.766183140191401
30
0
41
1
10
11.0108052045042
20
0.887924027610239
30
0
41
1
10
10.5724333268794
20
1.11943253372206
30
0
41
1
10
10.3531001564379
20
1.22929846395002
30
0
41
1
10
9.91207362105771
20
1.43409033916953
30
0
41
1
10
9.68929547315412
20
1.52919254464152
30
0
41
1
10
9.02546163277913
20
1.78259810860027
30
0
41
1
10
8.58689918813658
20
1.9107737971774
30
0
41
1
10
8.1432087921786
20
1.99073341624191
30
0
0
SPLINE
5
C9
100
AcDbEntity
8
1
62
256
6
ByLayer
370
18
48
1
60
0
100
AcDbSpline
70
4
71
3
72
8
73
4
40
0
40
0
40
0
40
0
40
1
40
1
40
1
40
1
41
1
10
29.2797889573867
20
-2.08422296444766
30
0
41
1
10
29.2811772592087
20
-2.08057381763638
30
0
41
1
10
29.2825651126657
20
-2.07692398235358
30
0
41
1
10
29.2839525117596
20
-2.07327347472835
30
0
0
SPLINE
5
CA
100
AcDbEntity
8
1
62
256
6
ByLayer
370
18
48
1
60
0
100
AcDbSpline
70
4
71
3
72
26
73
22
40
0
40
0
40
0
40
0
40
0.250000000000017
40
0.250000000000017
40
0.500000000000035
40
0.500000000000035
40
0.625000000000037
40
0.625000000000037
40
0.68750000000003
40
0.68750000000003
40
0.750000000000024
40
0.750000000000024
40
0.812500000000018
40
0.812500000000018
40
0.875000000000012
40
0.875000000000012
40
0.937500000000006
40
0.937500000000006
40
0.968750000000003
40
0.968750000000003
40
1
40
1
40
1
40
1
41
1
10
27.497235915676
20
0.797751820710118
30
0
41
1
10
27.6348785203376
20
0.678896997986556
30
0
41
1
10
27.7779296784352
20
0.569758561792582
30
0
41
1
10
28.0660832775031
20
0.382646154574132
30
0
41
1
10
28.2117017991777
20
0.303745166006706
30
0
41
1
10
28.4330130041716
20
0.212802757341905
30
0
41
1
10
28.5075677661471
20
0.187071021517312
30
0
41
1
10
28.6179461424913
20
0.15747564640418
30
0
41
1
10
28.6545970680779
20
0.149074884265104
30
0
41
1
10
28.7272653854604
20
0.135482500648294
30
0
41
1
10
28.7634968000958
20
0.129676183547275
30
0
41
1
10
28.8338371809517
20
0.125999181650428
30
0
41
1
10
28.8674806954599
20
0.128276307531138
30
0
41
1
10
28.9296000015827
20
0.144174283767001
30
0
41
1
10
28.9586880983866
20
0.158244394040338
30
0
41
1
10
29.0057753466328
20
0.200558348668608
30
0
41
1
10
29.0242194591516
20
0.229142579871734
30
0
41
1
10
29.0394240688754
20
0.28096601551357
30
0
41
1
10
29.0421931417035
20
0.300345163274074
30
0
41
1
10
29.0440175379592
20
0.340289172324333
30
0
41
1
10
29.0432988190638
20
0.360901126293328
30
0
41
1
10
29.041199447723
20
0.382054829322101
30
0
0
SPLINE
5
CB
100
AcDbEntity
8
1
62
256
6
ByLayer
370
18
48
1
60
0
100
AcDbSpline
70
4
71
3
72
8
73
4
40
0
40
0
40
0
40
0
40
1
40
1
40
1
40
1
41
1
10
29.2986552197809
20
-1.98582970843472
30
0
41
1
10
29.2902855742755
20
-1.98926203057008
30
0
41
1
10
29.2825123659264
20
-1.99098548461683
30
0
41
1
10
29.275343928169
20
-1.99097619422639
30
0
0
SPLINE
5
CC
100
AcDbEntity
8
1
62
256
6
ByLayer
370
18
48
1
60
0
100
AcDbSpline
70
4
71
3
72
16
73
12
40
0
40
0
40
0
40
0
40
0.249999999999997
40
0.249999999999997
40
0.499999999999993
40
0.499999999999993
40
0.74999999999999
40
0.74999999999999
40
0.874999999999995
40
0.874999999999995
40
1
40
1
40
1
40
1
41
1
10
29.7197631169517
20
1.0295625776958
30
0
41
1
10
29.6883732535446
20
1.11377324821245
30
0
41
1
10
29.6569308202278
20
1.19793064120736
30
0
41
1
10
29.5937068228645
20
1.3659017316312
30
0
41
1
10
29.5620325467363
20
1.44983339769462
30
0
41
1
10
29.4986376256836
20
1.61760433058532
30
0
41
1
10
29.4668219755738
20
1.70131188657527
30
0
41
1
10
29.4188069262107
20
1.82643431471899
30
0
41
1
10
29.402796784327
20
1.86814641287174
30
0
41
1
10
29.3706779719632
20
1.95126100992164
30
0
41
1
10
29.3545181760918
20
1.99252056661305
30
0
41
1
10
29.3382679564398
20
2.0335119389687
30
0
0
SPLINE
5
CD
100
AcDbEntity
8
1
62
256
6
ByLayer
370
18
48
1
60
0
100
AcDbSpline
70
4
71
3
72
22
73
18
40
0
40
0
40
0
40
0
40
0.125000000000001
40
0.125000000000001
40
0.187500000000004
40
0.187500000000004
40
0.250000000000007
40
0.250000000000007
40
0.375000000000006
40
0.375000000000006
40
0.500000000000005
40
0.500000000000005
40
0.625000000000004
40
0.625000000000004
40
0.750000000000002
40
0.750000000000002
40
1
40
1
40
1
40
1
41
1
10
27.4972359156757
20
0.797751820710033
30
0
41
1
10
27.5157846554087
20
0.702336198400985
30
0
41
1
10
27.5436443716772
20
0.606033232803441
30
0
41
1
10
27.5980626944749
20
0.460375254885094
30
0
41
1
10
27.6183135892944
20
0.411715690947176
30
0
41
1
10
27.6618293545171
20
0.316192982452776
30
0
41
1
10
27.6851975697235
20
0.26904085658515
30
0
41
1
10
27.7596586221576
20
0.129232614698168
30
0
41
1
10
27.8155060351827
20
0.0376120835292113
30
0
41
1
10
27.9349993208375
20
-0.138849174552973
30
0
41
1
10
27.9982418995512
20
-0.223274582897119
30
0
41
1
10
28.1303625248533
20
-0.385991362894856
30
0
41
1
10
28.1992548695775
20
-0.464267171459255
30
0
41
1
10
28.341918082665
20
-0.615508662851738
30
0
41
1
10
28.4158509021531
20
-0.688577453184649
30
0
41
1
10
28.6404722410685
20
-0.897261679106663
30
0
41
1
10
28.7950914338176
20
-1.02391017347182
30
0
41
1
10
28.9537831016542
20
-1.14013067287416
30
0
0
SPLINE
5
CE
100
AcDbEntity
8
1
62
256
6
ByLayer
370
18
48
1
60
0
100
AcDbSpline
70
4
71
3
72
69
73
65
40
0
40
0
40
0
40
0
40
0.064718918840221
40
0.064718918840221
40
0.104884132525048
40
0.104884132525048
40
0.145049346209876
40
0.145049346209876
40
0.225379773579531
40
0.225379773579531
40
0.265544987264358
40
0.265544987264358
40
0.305710200949186
40
0.305710200949186
40
0.386040628318841
40
0.386040628318841
40
0.466371055688496
40
0.466371055688496
40
0.471391707399099
40
0.471391707399099
40
0.471705498131012
40
0.471705498131012
40
0.472019288862924
40
0.472019288862924
40
0.47264687032675
40
0.47264687032675
40
0.473902033254401
40
0.473902033254401
40
0.476412359109702
40
0.476412359109702
40
0.486453662530909
40
0.486453662530909
40
0.506536269373322
40
0.506536269373322
40
0.546701483058148
40
0.546701483058148
40
0.707362337797452
40
0.707362337797452
40
0.747527551482278
40
0.747527551482278
40
0.757568854903485
40
0.757568854903485
40
0.75819643636731
40
0.75819643636731
40
0.758824017831135
40
0.758824017831135
40
0.759137808563048
40
0.759137808563048
40
0.759451599294961
40
0.760079180758786
40
0.762589506614088
40
0.767610158324692
40
0.767610158324692
40
0.787692765167107
40
0.787692765167107
40
0.868023192536765
40
0.868023192536765
40
0.908188406221594
40
0.908188406221594
40
0.948353619906423
40
0.948353619906423
40
0.988518833591252
40
0.988518833591252
40
1
40
1
40
1
40
1
41
1
10
11.6687820644396
20
0.278622921002409
30
0
41
1
10
11.5555469581091
20
0.335257867465827
30
0
41
1
10
11.4422467875715
20
0.387843617993298
30
0
41
1
10
11.2576350348777
20
0.463154982874528
30
0
41
1
10
11.1866859659511
20
0.489609926328711
30
0
41
1
10
11.0437589894958
20
0.536372536634104
30
0
41
1
10
10.972044877897
20
0.556525936225739
30
0
41
1
10
10.7602745650581
20
0.604506146893755
30
0
41
1
10
10.6218418215468
20
0.620368237188814
30
0
41
1
10
10.4136956247684
20
0.617397052116274
30
0
41
1
10
10.3438356411396
20
0.611893696368156
30
0
41
1
10
10.2058066422793
20
0.592370434609535
30
0
41
1
10
10.1374366742589
20
0.578404803401583
30
0
41
1
10
9.93283480996124
20
0.52502688393966
30
0
41
1
10
9.79678072806428
20
0.474055213075132
30
0
41
1
10
9.52081490410936
20
0.347069660350542
30
0
41
1
10
9.38303869597149
20
0.272066037686045
30
0
41
1
10
9.23551666567965
20
0.184099579670402
30
0
41
1
10
9.22683729008406
20
0.178895941440686
30
0
41
1
10
9.21761391963383
20
0.173337344238689
30
0
41
1
10
9.21729680414904
20
0.172783688708904
30
0
41
1
10
9.21788756766364
20
0.171682283841136
30
0
41
1
10
9.21829798481758
20
0.171189296839429
30
0
41
1
10
9.21954092751352
20
0.169761047673035
30
0
41
1
10
9.22044869736786
20
0.168876318851971
30
0
41
1
10
9.22322358694467
20
0.166266067889097
30
0
41
1
10
9.22515206810306
20
0.164610606424503
30
0
41
1
10
9.23099713579404
20
0.15971442451675
30
0
41
1
10
9.23499143519558
20
0.15655759915839
30
0
41
1
10
9.25509885659548
20
0.140937683526431
30
0
41
1
10
9.27159489949207
20
0.128960099267005
30
0
41
1
10
9.32120505046325
20
0.0931779363623377
30
0
41
1
10
9.35461330809036
20
0.0697545682340888
30
0
41
1
10
9.45505562875275
20
-0.0002118461088116
30
0
41
1
10
9.52240057036295
20
-0.0463567506826905
30
0
41
1
10
9.85968718410848
20
-0.27640554785674
30
0
41
1
10
10.1314821227304
20
-0.457998973423031
30
0
41
1
10
10.4679902294058
20
-0.690249570669266
30
0
41
1
10
10.5353418966869
20
-0.736662031913539
30
0
41
1
10
10.6179626528969
20
-0.796986600667225
30
0
41
1
10
10.634819199703
20
-0.80869387276195
30
0
41
1
10
10.6510791022666
20
-0.823163715684728
30
0
41
1
10
10.6520234479124
20
-0.824029171261515
30
0
41
1
10
10.6538334731026
20
-0.825840631992094
30
0
41
1
10
10.6549810363436
20
-0.826722496281633
30
0
41
1
10
10.6553996102887
20
-0.828531453794852
30
0
41
1
10
10.6546307206594
20
-0.828835936734833
30
0
41
1
10
10.653743881463
20
-0.829607338752595
30
0
41
1
10
10.6524136751714
20
-0.830764009150471
30
0
41
1
10
10.6475368448724
20
-0.835000349547215
30
0
41
1
10
10.6360146865728
20
-0.844975435885203
30
0
41
1
10
10.625388300908
20
-0.854098323033725
30
0
41
1
10
10.5899906218835
20
-0.884309275206647
30
0
41
1
10
10.5617642763413
20
-0.907829997871005
30
0
41
1
10
10.4207842550308
20
-1.02191609252148
30
0
41
1
10
10.3105184175139
20
-1.10072229381464
30
0
41
1
10
10.1413864582128
20
-1.19295655629631
30
0
41
1
10
10.0839477690986
20
-1.2194181267331
30
0
41
1
10
9.96853676462149
20
-1.26071997587292
30
0
41
1
10
9.91030999213464
20
-1.27574297758366
30
0
41
1
10
9.7907761690185
20
-1.29356931993956
30
0
41
1
10
9.72940504049993
20
-1.29635435615734
30
0
41
1
10
9.64731303903085
20
-1.2916226589345
30
0
41
1
10
9.62901329700975
20
-1.29005301166725
30
0
41
1
10
9.61065205478243
20
-1.28799090912352
30
0
0
SPLINE
5
CF
100
AcDbEntity
8
1
62
256
6
ByLayer
370
18
48
1
60
0
100
AcDbSpline
70
4
71
3
72
16
73
12
40
0
40
0
40
0
40
0
40
0.249999999999997
40
0.249999999999997
40
0.499999999999993
40
0.499999999999993
40
0.74999999999999
40
0.74999999999999
40
0.874999999999995
40
0.874999999999995
40
1
40
1
40
1
40
1
41
1
10
29.7197631169517
20
-1.02956257769588
30
0
41
1
10
29.6883732535441
20
-1.11377324821379
30
0
41
1
10
29.6569308202268
20
-1.19793064120992
30
0
41
1
10
29.5937068228626
20
-1.36590173163626
30
0
41
1
10
29.5620325467339
20
-1.44983339770093
30
0
41
1
10
29.4986376256804
20
-1.61760433059411
30
0
41
1
10
29.46682197557
20
-1.70131188658525
30
0
41
1
10
29.4188069262061
20
-1.82643431473082
30
0
41
1
10
29.4027967843222
20
-1.86814641288416
30
0
41
1
10
29.3706779719579
20
-1.95126100993522
30
0
41
1
10
29.3545181760862
20
-1.99252056662709
30
0
41
1
10
29.338267956434
20
-2.03351193898331
30
0
0
SPLINE
5
D0
100
AcDbEntity
8
1
62
256
6
ByLayer
370
18
48
1
60
0
100
AcDbSpline
70
4
71
3
72
10
73
6
40
0
40
0
40
0
40
0
40
0.813742868071595
40
0.813742868071595
40
1
40
1
40
1
40
1
41
1
10
8.04377591174568
20
2.0281074328465
30
0
41
1
10
8.04378508055748
20
2.06050896172775
30
0
41
1
10
8.04378469936935
20
2.07971090557692
30
0
41
1
10
8.04377701726435
20
2.0867313142688
30
0
41
1
10
8.04377529141158
20
2.08732885335613
30
0
41
1
10
8.04377331944778
20
2.08722212506291
30
0
0
SPLINE
5
D1
100
AcDbEntity
8
1
62
256
6
ByLayer
370
18
48
1
60
0
100
AcDbSpline
70
4
71
3
72
30
73
26
40
0
40
0
40
0
40
0
40
0.104547620457909
40
0.104547620457909
40
0.209095240915817
40
0.209095240915817
40
0.313642861373726
40
0.313642861373726
40
0.418190481831634
40
0.418190481831634
40
0.522738102289543
40
0.522738102289543
40
0.627285722747452
40
0.627285722747452
40
0.679559532976407
40
0.679559532976407
40
0.731833343205363
40
0.731833343205363
40
0.836380963663272
40
0.836380963663272
40
0.888654773892227
40
0.888654773892227
40
0.940928584121183
40
0.940928584121183
40
1
40
1
40
1
40
1
41
1
10
9.61074186221833
20
-1.28800099128696
30
0
41
1
10
9.79796982376973
20
-1.36925133268642
30
0
41
1
10
9.98484936883173
20
-1.44393043788784
30
0
41
1
10
10.3579984495616
20
-1.58134639938956
30
0
41
1
10
10.5445268540453
20
-1.64409362468874
30
0
41
1
10
10.9190035217012
20
-1.75454247411844
30
0
41
1
10
11.1056428289344
20
-1.80176611132165
30
0
41
1
10
11.4787384435046
20
-1.87990309627222
30
0
41
1
10
11.6654928507954
20
-1.91108719121431
30
0
41
1
10
12.0392225537711
20
-1.95778139536549
30
0
41
1
10
12.2263336062709
20
-1.97223386010822
30
0
41
1
10
12.5994016495392
20
-1.9830969673371
30
0
41
1
10
12.7856495291062
20
-1.97976603815348
30
0
41
1
10
13.066103242049
20
-1.96368002243545
30
0
41
1
10
13.1597683574869
20
-1.9567027744022
30
0
41
1
10
13.3464477794352
20
-1.93732344271987
30
0
41
1
10
13.4395265136236
20
-1.9250635666632
30
0
41
1
10
13.7189991771901
20
-1.88201835263536
30
0
41
1
10
13.9054108160186
20
-1.84467467140254
30
0
41
1
10
14.185347067009
20
-1.77736618407872
30
0
41
1
10
14.2788067965242
20
-1.75305670342709
30
0
41
1
10
14.4655288800927
20
-1.70168851097
30
0
41
1
10
14.5588527741188
20
-1.67441156557686
30
0
41
1
10
14.7573715513725
20
-1.61117374607454
30
0
41
1
10
14.8625361103547
20
-1.57514101591997
30
0
41
1
10
14.9677729999928
20
-1.5369832872536
30
0
0
SPLINE
5
D2
100
AcDbEntity
8
1
62
256
6
ByLayer
370
18
48
1
60
0
100
AcDbSpline
70
4
71
3
72
22
73
18
40
0
40
0
40
0
40
0
40
0.0260142780624298
40
0.0260142780624298
40
0.165155095482084
40
0.165155095482084
40
0.304295912901738
40
0.304295912901738
40
0.443436730321392
40
0.443436730321392
40
0.582577547741046
40
0.582577547741046
40
0.7217183651607
40
0.7217183651607
40
0.86085918258035
40
0.86085918258035
40
1
40
1
40
1
40
1
41
1
10
23.4876752191051
20
1.98633583154418
30
0
41
1
10
23.5224569116072
20
1.98648993104763
30
0
41
1
10
23.5572262063238
20
1.9863719031494
30
0
41
1
10
23.7778467138706
20
1.98388399153268
30
0
41
1
10
23.9635802871689
20
1.97146162000271
30
0
41
1
10
24.3350401778242
20
1.9304593867345
30
0
41
1
10
24.5216646475772
20
1.90093472217887
30
0
41
1
10
24.8935987317928
20
1.82803463553068
30
0
41
1
10
25.079000459987
20
1.78341087917565
30
0
41
1
10
25.4510245153865
20
1.6783384442781
30
0
41
1
10
25.6374806805146
20
1.61786607034139
30
0
41
1
10
26.0092763512423
20
1.48487074117713
30
0
41
1
10
26.1951623221518
20
1.4128746454582
30
0
41
1
10
26.5669466731812
20
1.25408732761937
30
0
41
1
10
26.7534512553415
20
1.16830821336902
30
0
41
1
10
27.1256395250167
20
0.989216596608571
30
0
41
1
10
27.3111583584885
20
0.895110461925952
30
0
41
1
10
27.497235915676
20
0.797751820710232
30
0
0
LINE
5
76
100
AcDbEntity
8
81
62
256
6
ByLayer
370
18
48
1
60
0
100
AcDbLine
10
30
20
0
30
0
11
35
21
0
31
0
39
0
210
0
220
0
230
1
0
LINE
5
77
100
AcDbEntity
8
1
62
256
6
ByLayer
370
18
48
1
60
0
100
AcDbLine
10
8.043761
20
2.087223
30
0
11
1.447252
21
2.083265
31
0
39
0
210
0
220
0
230
1
0
LINE
5
79
100
AcDbEntity
8
1
62
256
6
ByLayer
370
18
48
1
60
0
100
AcDbLine
10
17.969173
20
2.093179
30
0
11
17.5748
21
2.092942
31
0
39
0
210
0
220
0
230
1
0
LINE
5
7A
100
AcDbEntity
8
1
62
256
6
ByLayer
370
18
48
1
60
0
100
AcDbLine
10
28.855789
20
2.09971
30
0
11
28.463554
21
2.099475
31
0
39
0
210
0
220
0
230
1
0
LINE
5
7B
100
AcDbEntity
8
1
62
256
6
ByLayer
370
18
48
1
60
0
100
AcDbLine
10
28.463554
20
-2.099475
30
0
11
28.855781
21
-2.09971
31
0
39
0
210
0
220
0
230
1
0
LINE
5
7C
100
AcDbEntity
8
1
62
256
6
ByLayer
370
18
48
1
60
0
100
AcDbLine
10
17.5748
20
-2.092942
30
0
11
17.969139
21
-2.093178
31
0
39
0
210
0
220
0
230
1
0
LINE
5
7D
100
AcDbEntity
8
1
62
256
6
ByLayer
370
18
48
1
60
0
100
AcDbLine
10
1.447252
20
-2.083265
30
0
11
8.043761
21
-2.087223
31
0
39
0
210
0
220
0
230
1
0
LINE
5
7E
100
AcDbEntity
8
SK1
62
256
6
ByLayer
370
18
48
1
60
0
100
AcDbLine
10
-35.278312
20
3
30
0
11
-36
21
1.75
31
0
39
0
210
0
220
0
230
1
0
LINE
5
80
100
AcDbEntity
8
SK1
62
256
6
ByLayer
370
18
48
1
60
0
100
AcDbLine
10
-36
20
-1.75
30
0
11
-35.278312
21
-3
31
0
39
0
210
0
220
0
230
1
0
LINE
5
81
100
AcDbEntity
8
SK1
62
256
6
ByLayer
370
18
48
1
60
0
100
AcDbLine
10
0
20
3
30
0
11
-35.278312
21
3
31
0
39
0
210
0
220
0
230
1
0
LINE
5
82
100
AcDbEntity
8
SK1
62
256
6
ByLayer
370
18
48
1
60
0
100
AcDbLine
10
-35.278312
20
-3
30
0
11
0
21
-3
31
0
39
0
210
0
220
0
230
1
0
LINE
5
83
100
AcDbEntity
8
SK4
62
256
6
ByLayer
370
18
48
0.05
60
0
100
AcDbLine
10
35
20
0
30
0
11
-41
21
0
31
0
39
0
210
0
220
0
230
1
0
LINE
5
85
100
AcDbEntity
8
4
62
256
6
ByLayer
370
18
48
0.05
60
0
100
AcDbLine
10
30
20
0
30
0
11
0
21
0
31
0
39
0
210
0
220
0
230
1
0
LINE
5
87
100
AcDbEntity
8
80
62
256
6
ByLayer
370
18
48
1
60
0
100
AcDbLine
10
0
20
0
30
0
11
-5
21
0
31
0
39
0
210
0
220
0
230
1
0
LINE
5
88
100
AcDbEntity
8
1
62
256
6
ByLayer
370
18
48
1
60
0
100
AcDbLine
10
30
20
0
30
0
11
29.275344
21
-1.990976
31
0
39
0
210
0
220
0
230
1
0
LINE
5
89
100
AcDbEntity
8
1
62
256
6
ByLayer
370
18
48
1
60
0
100
AcDbLine
10
28.953783
20
-1.140131
30
0
11
29.895503
21
-0.167322
31
0
39
0
210
0
220
0
230
1
0
LINE
5
8A
100
AcDbEntity
8
1
62
256
6
ByLayer
370
18
48
1
60
0
100
AcDbLine
10
29.934161
20
-0.257749
30
0
11
29.894
21
-0.445055
31
0
39
0
210
0
220
0
230
1
0
LINE
5
8B
100
AcDbEntity
8
1
62
256
6
ByLayer
370
18
48
1
60
0
100
AcDbLine
10
0
20
-3
30
0
11
0
21
3
31
0
39
0
210
0
220
0
230
1
0
LINE
5
8C
100
AcDbEntity
8
1
62
256
6
ByLayer
370
18
48
1
60
0
100
AcDbLine
10
30
20
0
30
0
11
29.996567
21
-0.021296
31
0
39
0
210
0
220
0
230
1
0
LINE
5
8D
100
AcDbEntity
8
1
62
256
6
ByLayer
370
13
48
1
60
0
100
AcDbLine
10
29.618475
20
0.445055
30
0
11
29.934161
21
0.257749
31
0
39
0
210
0
220
0
230
1
0
LINE
5
8E
100
AcDbEntity
8
1
62
256
6
ByLayer
370
18
48
1
60
0
100
AcDbLine
10
29.934161
20
0.257749
30
0
11
29.894
21
0.445055
31
0
39
0
210
0
220
0
230
1
0
LINE
5
8F
100
AcDbEntity
8
1
62
256
6
ByLayer
370
13
48
1
60
0
100
AcDbLine
10
29.428569
20
0.109726
30
0
11
29.895503
21
-0.167322
31
0
39
0
210
0
220
0
230
1
0
LINE
5
90
100
AcDbEntity
8
1
62
256
6
ByLayer
370
13
48
1
60
0
100
AcDbLine
10
29.894
20
0.445055
30
0
11
29.618475
21
0.445055
31
0
39
0
210
0
220
0
230
1
0
LINE
5
91
100
AcDbEntity
8
1
62
256
6
ByLayer
370
13
48
1
60
0
100
AcDbLine
10
1.447252
20
2.083265
30
0
11
1.447252
21
-2.083265
31
0
39
0
210
0
220
0
230
1
0
LINE
5
92
100
AcDbEntity
8
1
62
256
6
ByLayer
370
13
48
1
60
0
100
AcDbLine
10
0.723386
20
2.541633
30
0
11
0.723386
21
-2.541633
31
0
39
0
210
0
220
0
230
1
0
LINE
5
93
100
AcDbEntity
8
1
62
256
6
ByLayer
370
18
48
1
60
0
100
AcDbLine
10
29.996567
20
0.021296
30
0
11
30
21
0
31
0
39
0
210
0
220
0
230
1
0
LINE
5
94
100
AcDbEntity
8
SK1
62
256
6
ByLayer
370
18
48
1
60
0
100
AcDbLine
10
0
20
-3
30
0
11
0
21
3
31
0
39
0
210
0
220
0
230
1
0
LINE
5
95
100
AcDbEntity
8
SK1
62
256
6
ByLayer
370
18
48
1
60
0
100
AcDbLine
10
-35.278312
20
3
30
0
11
-35.278312
21
-3
31
0
39
0
210
0
220
0
230
1
0
LINE
5
96
100
AcDbEntity
8
SK1
62
256
6
ByLayer
370
18
48
1
60
0
100
AcDbLine
10
-36
20
1.75
30
0
11
-36
21
-1.75
31
0
39
0
210
0
220
0
230
1
0
MTEXT
5
D3
100
AcDbEntity
8
SK6
62
256
6
ByLayer
370
13
48
1
60
0
100
AcDbMText
10
-0.870831
20
34.482694
30
0
210
0
220
0
230
1
1
\W0.7725;R840-0420-30-A0A1220
40
3.5
41
0
44
1.084337
50
0
71
8
72
5
7
iso_b_vert
0
DIMENSION
5
E0
100
AcDbEntity
8
SK2
62
256
6
ByLayer
370
13
48
1
60
0
100
AcDbDimension
2
DimnDraft3D1
10
29.29
20
-12.313398
30
0
11
13.540059
21
-12.313398
31
0
70
32
71
5
72
1
41
1
210
0
220
0
230
1
3
Standard
100
AcDbAlignedDimension
13
0
23
-1.5875
33
0
14
29.29
24
-3.6875
34
0
50
0
100
AcDbRotatedDimension
1001
ACAD
1000
DSTYLE
1002
{
1070
   279
1070
     0
1070
   172
1070
     1
1070
   173
1070
     1
1070
   340
1005
D4
1070
   271
1070
     2
1070
   272
1070
     2
1070
    77
1070
     1
1070
    73
1070
     0
1070
   171
1070
     3
1070
   274
1070
     4
1070
   177
1070
    35
1070
   176
1070
    35
1070
   178
1070
    35
1070
    48
1040
-0.005
1070
    41
1041
3.5
1070
   147
1041
1.75
1070
    42
1041
1.5875
1070
    44
1041
2.0
1070
   140
1041
3.5
1070
   343
1005
0
1070
   344
1005
0
1002
}
0
DIMENSION
5
EA
100
AcDbEntity
8
SK2
62
256
6
ByLayer
370
13
48
1
60
0
100
AcDbDimension
2
DimnDraft3D2
10
30
20
-31.692985
30
0
11
-2.3687
21
-31.692985
31
0
70
32
71
5
72
1
41
1
210
0
220
0
230
1
3
Standard
100
AcDbAlignedDimension
13
-36
23
-4.5875
33
0
14
30
24
-1.5875
34
0
50
0
100
AcDbRotatedDimension
1001
ACAD
1000
DSTYLE
1002
{
1070
   279
1070
     0
1070
   172
1070
     1
1070
   173
1070
     1
1070
   340
1005
D4
1070
   271
1070
     2
1070
   272
1070
     2
1070
    77
1070
     1
1070
    73
1070
     0
1070
   171
1070
     3
1070
   274
1070
     4
1070
   177
1070
    35
1070
   176
1070
    35
1070
   178
1070
    35
1070
    48
1040
-0.005
1070
    41
1041
3.5
1070
   147
1041
1.75
1070
    42
1041
1.5875
1070
    44
1041
2.0
1070
   140
1041
3.5
1070
   343
1005
0
1070
   344
1005
0
1002
}
0
DIMENSION
5
F4
100
AcDbEntity
8
SK2
62
256
6
ByLayer
370
13
48
1
60
0
100
AcDbDimension
2
DimnDraft3D3
10
30
20
13.709119
30
0
11
23.345
21
13.709119
31
0
70
32
71
5
72
1
41
1
210
0
220
0
230
1
3
Standard
100
AcDbAlignedDimension
13
16.69
23
3.6875
33
0
14
30
24
1.5875
34
0
50
0
100
AcDbRotatedDimension
1001
ACAD
1000
DSTYLE
1002
{
1070
   279
1070
     0
1070
   172
1070
     1
1070
   173
1070
     1
1070
   340
1005
D4
1070
   271
1070
     2
1070
   272
1070
     2
1070
    77
1070
     1
1070
    73
1070
     0
1070
   171
1070
     3
1070
   274
1070
     4
1070
   177
1070
    35
1070
   176
1070
    35
1070
   178
1070
    35
1070
    48
1040
-0.005
1070
    41
1041
3.5
1070
   147
1041
1.75
1070
    42
1041
1.5875
1070
    44
1041
2.0
1070
   140
1041
3.5
1070
   343
1005
0
1070
   344
1005
0
1002
}
0
DIMENSION
5
FE
100
AcDbEntity
8
SK2
62
256
6
ByLayer
370
13
48
1
60
0
100
AcDbDimension
2
DimnDraft3D4
10
29.29
20
-14.902503
30
0
11
39.981425
21
-14.902503
31
0
70
32
71
5
72
1
41
1
210
0
220
0
230
1
3
Standard
100
AcDbAlignedDimension
13
30
23
-1.5875
33
0
14
29.29
24
-3.6875
34
0
50
0
100
AcDbRotatedDimension
1001
ACAD
1000
DSTYLE
1002
{
1070
   279
1070
     0
1070
   172
1070
     1
1070
   173
1070
     1
1070
   340
1005
D4
1070
   271
1070
     2
1070
   272
1070
     2
1070
    77
1070
     1
1070
    73
1070
     0
1070
   171
1070
     3
1070
   274
1070
     4
1070
   177
1070
    35
1070
   176
1070
    35
1070
   178
1070
    35
1070
    48
1040
-0.005
1070
    41
1041
3.5
1070
   147
1041
1.75
1070
    42
1041
1.5875
1070
    44
1041
2.0
1070
   140
1041
3.5
1070
   343
1005
0
1070
   344
1005
0
1002
}
0
DIMENSION
5
108
100
AcDbEntity
8
SK2
62
256
6
ByLayer
370
13
48
1
60
0
100
AcDbDimension
2
DimnDraft3D5
10
29.29
20
-21.343428
30
0
11
-5.449324
21
-21.343428
31
0
70
32
71
5
72
1
41
1
210
0
220
0
230
1
3
Standard
100
AcDbAlignedDimension
13
-36
23
-4.5875
33
0
14
29.29
24
-3.6875
34
0
50
0
100
AcDbRotatedDimension
1001
ACAD
1000
DSTYLE
1002
{
1070
   279
1070
     0
1070
   172
1070
     1
1070
   173
1070
     1
1070
   340
1005
D4
1070
   271
1070
     2
1070
   272
1070
     2
1070
    77
1070
     1
1070
    73
1070
     0
1070
   171
1070
     3
1070
   274
1070
     4
1070
   177
1070
    35
1070
   176
1070
    35
1070
   178
1070
    35
1070
    48
1040
-0.005
1070
    41
1041
3.5
1070
   147
1041
1.75
1070
    42
1041
1.5875
1070
    44
1041
2.0
1070
   140
1041
3.5
1070
   343
1005
0
1070
   344
1005
0
1002
}
0
DIMENSION
5
113
100
AcDbEntity
8
SK2
62
256
6
ByLayer
370
13
48
1
60
0
100
AcDbDimension
2
DimnDraft3D6
10
-46.625163
20
3
30
0
11
-47.250163
21
21.47418
31
0
70
33
71
5
72
1
41
1
210
0
220
0
230
1
3
Standard
100
AcDbAlignedDimension
13
-37.5875
23
-3
33
0
14
-37.5875
24
3
34
0
1001
ACAD
1000
DSTYLE
1002
{
1070
   279
1070
     0
1070
    74
1070
     0
1070
   173
1070
     1
1070
   340
1005
D4
1070
   271
1070
     3
1070
   272
1070
     2
1070
    77
1070
     1
1070
    73
1070
     0
1070
   171
1070
     3
1070
   274
1070
     4
1070
   177
1070
    35
1070
   176
1070
    35
1070
   178
1070
    35
1070
    48
1040
-0.005
1070
    41
1041
3.5
1070
   147
1041
1.75
1070
    42
1041
1.5875
1070
    44
1041
2.0
1070
   140
1041
3.5
1070
   343
1005
0
1070
   344
1005
0
1002
}
0
DIMENSION
5
11E
100
AcDbEntity
8
2
62
256
6
ByLayer
370
13
48
1
60
0
100
AcDbDimension
2
DimnDraft3D7
10
44.083343
20
2.1
30
0
11
39.458343
21
19.167266
31
0
70
33
71
5
72
1
41
1
210
0
220
0
230
1
3
Standard
100
AcDbAlignedDimension
13
30.8775
23
-2.1
33
0
14
30.8775
24
2.1
34
0
1001
ACAD
1000
DSTYLE
1002
{
1070
   279
1070
     0
1070
    74
1070
     0
1070
   173
1070
     1
1070
   340
1005
D4
1070
   271
1070
     3
1070
   272
1070
     2
1070
    77
1070
     1
1070
    73
1070
     0
1070
   171
1070
     3
1070
   274
1070
     4
1070
   177
1070
    35
1070
   176
1070
    35
1070
   178
1070
    35
1070
    48
1040
-0.005
1070
    41
1041
3.5
1070
   147
1041
1.75
1070
    42
1041
1.5875
1070
    44
1041
2.0
1070
   140
1041
3.5
1070
   343
1005
0
1070
   344
1005
0
1002
}
0
ENDSEC
0
SECTION
2
OBJECTS
0
DICTIONARY
5
189
330
0
100
AcDbDictionary
280
0
281
1
3
ACAD_GROUP
350
18a
3
ACAD_MLINESTYLE
350
18b
0
DICTIONARY
5
18a
330
0
100
AcDbDictionary
280
0
281
1
0
DICTIONARY
5
18b
330
0
100
AcDbDictionary
280
0
281
1
3
Standard
350
18
0
MLINESTYLE
5
18
330
18b
100
AcDbMlineStyle
2
Standard
70
0
3

62
256
51
90
52
90
71
2
49
-0.5
62
256
6
ByLayer
49
0.5
62
256
6
ByLayer
0
RASTERVARIABLES
5
177
330

100
AcDbRasterVariables
90
0
70
1
71
1
72
1
0
ENDSEC
0
EOF
