0
SECTION
2
HEADER
9
$ACADVER
1
AC1015
9
$DWGCODEPAGE
3
ANSI_1252
9
$HANDSEED
5
17b
9
$ANGBASE
50
0
9
$ANGDIR
70
0
9
$ATTMODE
70
1
9
$AUNITS
70
0
9
$AUPREC
70
0
9
$CECOLOR
62
256
9
$CELTSCALE
40
1
9
$CELTYPE
6
ByLayer
9
$CELWEIGHT
370
18
9
$CLAYER
8
0
9
$CMLJUST
70
0
9
$CMLSCALE
40
1
9
$CMLSTYLE
2
Standard
9
$DIMSTYLE
2
Standard
9
$TEXTSIZE
40
0.2
9
$TEXTSTYLE
7
Standard
9
$LUNITS
70
2
9
$LUPREC
70
4
9
$EXTNAMES
290
1
9
$INSUNITS
70
4
9
$LTSCALE
40
1
9
$LWDISPLAY
290
1
9
$PDMODE
70
0
9
$PDSIZE
40
0
9
$PLINEGEN
70
0
0
ENDSEC
0
SECTION
2
CLASSES
0
CLASS
1
RASTERVARIABLES
2
AcDbRasterVariables
3
ISM
90
0
280
0
281
0
0
ENDSEC
0
SECTION
2
TABLES
0
TABLE
2
VPORT
5
171
100
AcDbSymbolTable
0
VPORT
5
1
100
AcDbSymbolTableRecord
100
AcDbViewportTableRecord
2
*Active
70
0
10
0
20
0
11
1
21
1
12
-1
22
1
13
0
23
0
14
0.5
24
0.5
15
10
25
10
16
0
26
0
36
1
17
0
27
0
37
0
0
ENDTAB
0
TABLE
2
LTYPE
5
172
100
AcDbSymbolTable
0
LTYPE
5
14
100
AcDbSymbolTableRecord
100
AcDbLinetypeTableRecord
70
0
2
ByBlock
3

72
65
73
0
40
0
0
LTYPE
5
15
100
AcDbSymbolTableRecord
100
AcDbLinetypeTableRecord
70
0
2
ByLayer
3

72
65
73
0
40
0
0
LTYPE
5
16
100
AcDbSymbolTableRecord
100
AcDbLinetypeTableRecord
70
0
2
CONTINUOUS
3
Solid line
72
65
73
0
40
0
0
LTYPE
5
6A
100
AcDbSymbolTableRecord
100
AcDbLinetypeTableRecord
70
0
2
CENTER
3
____ _ ____ _ ____ _ ____
72
65
73
4
40
47.5
49
22
74
0
49
-8.5
74
0
49
8.5
74
0
49
-8.5
74
0
0
LTYPE
5
6B
100
AcDbSymbolTableRecord
100
AcDbLinetypeTableRecord
70
0
2
DASHED
3
__ __ __ __ __ __ __ __ __
72
65
73
2
40
25.72
49
12.86
74
0
49
-12.86
74
0
0
ENDTAB
0
TABLE
2
LAYER
5
173
100
AcDbSymbolTable
0
LAYER
5
10
100
AcDbSymbolTableRecord
100
AcDbLayerTableRecord
2
0
70
0
62
7
6
CONTINUOUS
290
1
370
-3
390
0
0
LAYER
5
6D
100
AcDbSymbolTableRecord
100
AcDbLayerTableRecord
2
80
70
0
62
-6
6
CONTINUOUS
290
1
370
-3
390
0
0
LAYER
5
6F
100
AcDbSymbolTableRecord
100
AcDbLayerTableRecord
2
81
70
0
62
-3
6
CONTINUOUS
290
1
370
-3
390
0
0
LAYER
5
73
100
AcDbSymbolTableRecord
100
AcDbLayerTableRecord
2
4
70
0
62
-2
6
CENTER
290
1
370
-3
390
0
0
LAYER
5
77
100
AcDbSymbolTableRecord
100
AcDbLayerTableRecord
2
2
70
0
62
7
6
CONTINUOUS
290
1
370
-3
390
0
0
LAYER
5
7F
100
AcDbSymbolTableRecord
100
AcDbLayerTableRecord
2
1
70
0
62
4
6
CONTINUOUS
290
1
370
-3
390
0
0
LAYER
5
15d
100
AcDbSymbolTableRecord
100
AcDbLayerTableRecord
2
SK4
70
0
62
2
6
CENTER
290
1
370
-3
390
0
0
LAYER
5
15e
100
AcDbSymbolTableRecord
100
AcDbLayerTableRecord
2
SK1
70
0
62
4
6
CONTINUOUS
290
1
370
-3
390
0
0
LAYER
5
15f
100
AcDbSymbolTableRecord
100
AcDbLayerTableRecord
2
SK6
70
0
62
5
6
CONTINUOUS
290
1
370
-3
390
0
0
LAYER
5
160
100
AcDbSymbolTableRecord
100
AcDbLayerTableRecord
2
SK2
70
0
62
7
6
CONTINUOUS
290
1
370
-3
390
0
0
ENDTAB
0
TABLE
2
STYLE
5
174
100
AcDbSymbolTable
0
STYLE
5
11
100
AcDbSymbolTableRecord
100
AcDbTextStyleTableRecord
2
Standard
3
txt
70
0
71
0
40
0
41
1
42
0
50
0
0
STYLE
5
EC
100
AcDbSymbolTableRecord
100
AcDbTextStyleTableRecord
2
iso_b_vert
3
simplex.shx
70
0
71
0
40
0
41
1
42
0
50
0
0
STYLE
5
ED
100
AcDbSymbolTableRecord
100
AcDbTextStyleTableRecord
2
DWGDirectTextStyle
3
simplex
70
0
71
0
40
0
41
1
42
0
50
0
0
ENDTAB
0
TABLE
2
DIMSTYLE
5
175
100
AcDbSymbolTable
100
AcDbDimStyleTable
0
DIMSTYLE
105
27
100
AcDbSymbolTableRecord
100
AcDbDimStyleTableRecord
2
Standard
70
0
3
<>
41
0.18
42
0.0625
44
0.18
140
0.18
147
0.09
73
0
74
0
77
1
271
2
275
0
278
52
280
0
340
11
0
ENDTAB
0
TABLE
2
VIEW
5
176
100
AcDbSymbolTable
0
ENDTAB
0
TABLE
2
UCS
5
177
100
AcDbSymbolTable
0
ENDTAB
0
TABLE
2
APPID
5
178
100
AcDbSymbolTable
0
APPID
5
12
100
AcDbSymbolTableRecord
100
AcDbRegAppTableRecord
2
ACAD
70
0
0
ENDTAB
0
TABLE
2
BLOCK_RECORD
5
179
100
AcDbSymbolTable
0
BLOCK_RECORD
5
1F
100
AcDbSymbolTableRecord
100
AcDbBlockTableRecord
2
*Model_Space
340
0
70
0
0
BLOCK_RECORD
5
1B
100
AcDbSymbolTableRecord
100
AcDbBlockTableRecord
2
*Paper_Space
340
0
70
0
0
BLOCK_RECORD
5
23
100
AcDbSymbolTableRecord
100
AcDbBlockTableRecord
2
*Paper_Space0
340
0
70
0
0
BLOCK_RECORD
5
EF
100
AcDbSymbolTableRecord
100
AcDbBlockTableRecord
2
DimnDraft3D1
340
0
70
0
0
BLOCK_RECORD
5
FA
100
AcDbSymbolTableRecord
100
AcDbBlockTableRecord
2
DimnDraft3D2
340
0
70
0
0
ENDTAB
0
ENDSEC
0
SECTION
2
BLOCKS
0
BLOCK
5
20
100
AcDbEntity
8
0
100
AcDbBlockBegin
2
*Model_Space
70
0
10
0
20
0
30
0
3
*Model_Space
0
ENDBLK
5
21
100
AcDbEntity
8
0
100
AcDbBlockEnd
0
BLOCK
5
1C
100
AcDbEntity
8
0
100
AcDbBlockBegin
2
*Paper_Space
70
0
10
0
20
0
30
0
3
*Paper_Space
0
ENDBLK
5
1D
100
AcDbEntity
8
0
100
AcDbBlockEnd
0
BLOCK
5
24
100
AcDbEntity
8
0
100
AcDbBlockBegin
2
*Paper_Space0
70
0
10
0
20
0
30
0
3
*Paper_Space0
0
ENDBLK
5
25
100
AcDbEntity
8
0
100
AcDbBlockEnd
0
BLOCK
5
F7
100
AcDbEntity
8
0
100
AcDbBlockBegin
2
DimnDraft3D1
70
0
10
0
20
0
30
0
3
DimnDraft3D1
0
MTEXT
5
F0
100
AcDbEntity
8
SK2
62
256
6
ByLayer
370
18
48
1
60
0
100
AcDbMText
10
6.182895
20
23.590882
30
0
210
0
220
0
230
1
1
\W0.6367;17.0
40
3
41
0
44
1.084337
50
0
71
7
72
5
7
iso_b_vert
0
LINE
5
F2
100
AcDbEntity
8
SK2
62
256
6
ByLayer
370
13
48
1
60
0
100
AcDbLine
10
0
20
10.479019
30
0
11
0
21
24.840882
31
0
39
0
210
0
220
0
230
1
0
LINE
5
F3
100
AcDbEntity
8
SK2
62
256
6
ByLayer
370
13
48
1
60
0
100
AcDbLine
10
17
20
10
30
0
11
17
21
24.840882
31
0
39
0
210
0
220
0
230
1
0
LINE
5
F4
100
AcDbEntity
8
SK2
62
256
6
ByLayer
370
13
48
1
60
0
100
AcDbLine
10
0
20
22.840882
30
0
11
17
21
22.840882
31
0
39
0
210
0
220
0
230
1
0
SOLID
5
F5
100
AcDbEntity
8
SK2
62
256
6
ByLayer
370
13
48
1
60
0
100
AcDbTrace
10
0
20
22.840882
30
0
11
3.174998
21
23.258879
31
0
12
3.175002
22
22.422885
32
0
13
0
23
22.840882
33
0
39
0
210
0
220
0
230
1
0
SOLID
5
F6
100
AcDbEntity
8
SK2
62
256
6
ByLayer
370
13
48
1
60
0
100
AcDbTrace
10
17
20
22.840882
30
0
11
13.825002
21
22.422885
31
0
12
13.824998
22
23.258879
32
0
13
17
23
22.840882
33
0
39
0
210
0
220
0
230
1
0
ENDBLK
5
F8
100
AcDbEntity
8
0
100
AcDbBlockEnd
0
BLOCK
5
101
100
AcDbEntity
8
0
100
AcDbBlockBegin
2
DimnDraft3D2
70
0
10
0
20
0
30
0
3
DimnDraft3D2
0
MTEXT
5
FB
100
AcDbEntity
8
2
62
256
6
ByLayer
370
18
48
1
60
0
100
AcDbMText
10
24.2262
20
-2.284001
30
0
210
0
220
0
230
1
1
\W0.8385;92%%d
40
3
41
0
44
1.084337
50
44.0000000000001
71
7
72
5
7
iso_b_vert
0
LINE
5
FC
100
AcDbEntity
8
2
62
256
6
ByLayer
370
13
48
1
60
0
100
AcDbLine
10
16.641865
20
-2.659562
30
0
11
16.485112
21
-7.148399
31
0
39
0
210
0
220
0
230
1
0
LINE
5
FD
100
AcDbEntity
8
2
62
256
6
ByLayer
370
13
48
1
60
0
100
AcDbLine
10
19
20
8
30
0
11
32.171738
21
8
31
0
39
0
210
0
220
0
230
1
0
ARC
5
FE
100
AcDbEntity
8
2
62
256
6
ByLayer
370
13
48
1
60
0
100
AcDbCircle
39
0
10
17.014106
20
8
30
0
40
13.1576327166267
210
0
220
0
230
1
100
AcDbArc
50
268
51
0
0
SOLID
5
FF
100
AcDbEntity
8
2
62
256
6
ByLayer
370
13
48
1
60
0
100
AcDbTrace
10
16.554911
20
-5.149617
30
0
11
19.718404
21
-4.651975
31
0
12
19.739413
22
-5.487705
32
0
13
16.554911
23
-5.149617
33
0
39
0
210
0
220
0
230
1
0
SOLID
5
100
100
AcDbEntity
8
2
62
256
6
ByLayer
370
13
48
1
60
0
100
AcDbTrace
10
30.171738
20
8
30
0
11
30.398482
21
4.805642
31
0
12
29.563995
22
4.855798
32
0
13
30.171738
23
8
33
0
39
0
210
0
220
0
230
1
0
ENDBLK
5
102
100
AcDbEntity
8
0
100
AcDbBlockEnd
0
ENDSEC
0
SECTION
2
ENTITIES
0
ARC
5
AD
100
AcDbEntity
8
1
62
256
6
ByLayer
370
18
48
1
60
0
100
AcDbCircle
39
0
10
-9.080451
20
3.7357
30
0
40
1
210
0
220
0
230
-1
100
AcDbArc
50
248.852679
51
292.361826
0
ARC
5
AE
100
AcDbEntity
8
1
62
256
6
ByLayer
370
18
48
1
60
0
100
AcDbCircle
39
0
10
-9.080451
20
3.7357
30
0
40
1
210
0
220
0
230
-1
100
AcDbArc
50
23.507818
51
48
0
ARC
5
AF
100
AcDbEntity
8
1
62
256
6
ByLayer
370
18
48
1
60
0
100
AcDbCircle
39
0
10
8.930604
20
-0.8
30
0
40
0.8
210
0
220
0
230
1
100
AcDbArc
50
58
51
90
0
ARC
5
B0
100
AcDbEntity
8
1
62
256
6
ByLayer
370
18
48
1
60
0
100
AcDbCircle
39
0
10
-9.977584
20
4.171022
30
0
40
1
210
0
220
0
230
-1
100
AcDbArc
50
26.083329
51
122
0
ARC
5
B1
100
AcDbEntity
8
1
62
256
6
ByLayer
370
18
48
1
60
0
100
AcDbCircle
39
0
10
-9.080451
20
3.7357
30
0
40
0.875
210
0
220
0
230
-1
100
AcDbArc
50
89.933071
51
133.33721
0
ARC
5
B2
100
AcDbEntity
8
1
62
256
6
ByLayer
370
18
48
1
60
0
100
AcDbCircle
39
0
10
-9.969441
20
4.536151
30
0
40
0.999999999999998
210
0
220
0
230
-1
100
AcDbArc
50
48
51
122
0
ARC
5
B3
100
AcDbEntity
8
1
62
256
6
ByLayer
370
18
48
1
60
0
100
AcDbCircle
39
0
10
-9.977584
20
4.171022
30
0
40
1.09434144308426
210
0
220
0
230
-1
100
AcDbArc
50
23.307879
51
122
0
ARC
5
B4
100
AcDbEntity
8
1
62
256
6
ByLayer
370
18
48
1
60
0
100
AcDbCircle
39
0
10
9.080451
20
3.7357
30
0
40
0.875
210
0
220
0
230
1
100
AcDbArc
50
97.083483
51
309.335207
0
ARC
5
B5
100
AcDbEntity
8
1
62
256
6
ByLayer
370
18
48
1
60
0
100
AcDbCircle
39
0
10
-14.078083
20
3.562288
30
0
40
1.035
210
0
220
0
230
-1
100
AcDbArc
50
1.950841
51
62.049159
0
ARC
5
B6
100
AcDbEntity
8
1
62
256
6
ByLayer
370
18
48
1
60
0
100
AcDbCircle
39
0
10
14.078083
20
3.562288
30
0
40
0.747999999999999
210
0
220
0
230
1
100
AcDbArc
50
150.161847
51
208.024579
0
ARC
5
B7
100
AcDbEntity
8
1
62
256
6
ByLayer
370
18
48
1
60
0
100
AcDbCircle
39
0
10
-14.078083
20
3.562288
30
0
40
1.035
210
0
220
0
230
-1
100
AcDbArc
50
242.049159
51
302
0
ARC
5
B8
100
AcDbEntity
8
1
62
256
6
ByLayer
370
18
48
1
60
0
100
AcDbCircle
39
0
10
-14.078083
20
3.562288
30
0
40
1.035
210
0
220
0
230
-1
100
AcDbArc
50
181.950841
51
242.049159
0
ARC
5
B9
100
AcDbEntity
8
1
62
256
6
ByLayer
370
18
48
1
60
0
100
AcDbCircle
39
0
10
-14.078083
20
3.562288
30
0
40
1.035
210
0
220
0
230
-1
100
AcDbArc
50
62.049159
51
122
0
ARC
5
BA
100
AcDbEntity
8
1
62
256
6
ByLayer
370
18
48
1
60
0
100
AcDbCircle
39
0
10
14.078083
20
3.562288
30
0
40
0.747999999999999
210
0
220
0
230
1
100
AcDbArc
50
325.838153
51
330.161847
0
ARC
5
BB
100
AcDbEntity
8
1
62
256
6
ByLayer
370
18
48
1
60
0
100
AcDbCircle
39
0
10
14.078083
20
3.562288
30
0
40
0.747999999999999
210
0
220
0
230
1
100
AcDbArc
50
28.024579
51
87.975421
0
ARC
5
BC
100
AcDbEntity
8
1
62
256
6
ByLayer
370
18
48
1
60
0
100
AcDbCircle
39
0
10
14.078083
20
3.562288
30
0
40
0.747999999999999
210
0
220
0
230
1
100
AcDbArc
50
208.024579
51
267.975421
0
ARC
5
BD
100
AcDbEntity
8
1
62
256
6
ByLayer
370
18
48
1
60
0
100
AcDbCircle
39
0
10
14.078083
20
3.562288
30
0
40
0.747999999999999
210
0
220
0
230
1
100
AcDbArc
50
267.975421
51
325.838153
0
ARC
5
BE
100
AcDbEntity
8
1
62
256
6
ByLayer
370
18
48
1
60
0
100
AcDbCircle
39
0
10
14.078083
20
3.562288
30
0
40
0.747999999999999
210
0
220
0
230
1
100
AcDbArc
50
87.975421
51
145.838153
0
ARC
5
BF
100
AcDbEntity
8
1
62
256
6
ByLayer
370
18
48
1
60
0
100
AcDbCircle
39
0
10
14.078083
20
3.562288
30
0
40
0.747999999999999
210
0
220
0
230
1
100
AcDbArc
50
330.161847
51
28.024579
0
ARC
5
C0
100
AcDbEntity
8
1
62
256
6
ByLayer
370
18
48
1
60
0
100
AcDbCircle
39
0
10
-14.078083
20
3.562288
30
0
40
1.035
210
0
220
0
230
-1
100
AcDbArc
50
122
51
181.950841
0
ARC
5
C1
100
AcDbEntity
8
1
62
256
6
ByLayer
370
18
48
1
60
0
100
AcDbCircle
39
0
10
-14.078083
20
3.562288
30
0
40
1.035
210
0
220
0
230
-1
100
AcDbArc
50
302
51
1.950841
0
ARC
5
C3
100
AcDbEntity
8
1
62
256
6
ByLayer
370
18
48
1
60
0
100
AcDbCircle
39
0
10
14.078083
20
3.562288
30
0
40
0.747999999999999
210
0
220
0
230
1
100
AcDbArc
50
145.838153
51
150.161847
0
ARC
5
C5
100
AcDbEntity
8
1
62
256
6
ByLayer
370
18
48
1
60
0
100
AcDbCircle
39
0
10
-16.603
20
7.603
30
0
40
0.397000000000055
210
0
220
0
230
-1
100
AcDbArc
50
62
51
182
0
ARC
5
C7
100
AcDbEntity
8
1
62
256
6
ByLayer
370
18
48
1
60
0
100
AcDbCircle
39
0
10
-9.314308
20
3.727534
30
0
40
0.397000000000055
210
0
220
0
230
-1
100
AcDbArc
50
302
51
62
0
ARC
5
C8
100
AcDbEntity
8
1
62
256
6
ByLayer
370
18
48
1
60
0
100
AcDbCircle
39
0
10
-16.314906
20
-0.646925
30
0
40
0.39700000000003
210
0
220
0
230
-1
100
AcDbArc
50
182
51
302
0
CIRCLE
5
AB
100
AcDbEntity
8
1
62
256
6
ByLayer
370
18
48
1
60
0
100
AcDbCircle
10
-14.078083
20
3.562288
30
0
40
1.55
39
0
210
0
220
0
230
-1
0
CIRCLE
5
AC
100
AcDbEntity
8
1
62
256
6
ByLayer
370
18
48
1
60
0
100
AcDbCircle
10
-14.077405
20
3.561203
30
0
40
1.69405389152441
39
0
210
0
220
0
230
-1
0
CIRCLE
5
C2
100
AcDbEntity
8
1
62
256
6
ByLayer
370
18
48
1
60
0
100
AcDbCircle
10
-14.078083
20
3.562288
30
0
40
1.1
39
0
210
0
220
0
230
-1
0
CIRCLE
5
C4
100
AcDbEntity
8
1
62
256
6
ByLayer
370
18
48
1
60
0
100
AcDbCircle
10
14.077405
20
3.561203
30
0
40
1.60759144878563
39
0
210
0
220
0
230
1
0
CIRCLE
5
C6
100
AcDbEntity
8
1
62
256
6
ByLayer
370
18
48
1
60
0
100
AcDbCircle
10
-14.077405
20
3.561203
30
0
40
1.65562313415252
39
0
210
0
220
0
230
-1
0
ELLIPSE
5
C9
100
AcDbEntity
8
1
62
256
6
ByLayer
370
18
48
1
60
0
100
AcDbEllipse
10
18.716623
20
-5.290036
30
0
11
48.514900007884
21
2.91538773815077
31
0
210
0
220
0
230
-1
40
0.264338
41
-1.67538169550529
42
-1.65542896664525
0
ELLIPSE
5
CA
100
AcDbEntity
8
1
62
256
6
ByLayer
370
18
48
1
60
0
100
AcDbEllipse
10
18.673055
20
-4.975194
30
0
11
48.0252592294358
21
6.52742356962321
31
0
210
0
220
0
230
-1
40
0.265131
41
-1.66497514465649
42
-1.65550215756809
0
ELLIPSE
5
CB
100
AcDbEntity
8
1
62
256
6
ByLayer
370
18
48
1
60
0
100
AcDbEllipse
10
13.489505
20
-5.632639
30
0
11
0.466798576644228
21
12.907351777466
31
0
210
0
220
0
230
-1
40
0.110418
41
-0.0753523990664326
42
-0.0205953125744599
0
ELLIPSE
5
CC
100
AcDbEntity
8
1
62
256
6
ByLayer
370
18
48
1
60
0
100
AcDbEllipse
10
7.612747
20
4.085828
30
0
11
-0.356878032735989
21
0.880419257939359
31
0
210
0
220
0
230
1
40
0.246054
41
-2.55872964458775
42
-0.582962288151547
0
POINT
5
6C
100
AcDbEntity
8
80
62
256
6
ByLayer
370
18
48
0.05
60
0
100
AcDbPoint
10
0
20
0
30
0
39
0
210
0
220
0
230
1
50
360
0
POINT
5
6E
100
AcDbEntity
8
81
62
256
6
ByLayer
370
18
48
0.05
60
0
100
AcDbPoint
10
17
20
8
30
0
39
0
210
0
220
0
230
1
50
360
0
SPLINE
5
CD
100
AcDbEntity
8
1
62
256
6
ByLayer
370
18
48
1
60
0
100
AcDbSpline
70
4
71
3
72
18
73
14
40
0
40
0
40
0
40
0
40
0.25
40
0.25
40
0.500000000000001
40
0.500000000000001
40
0.5625
40
0.5625
40
0.625
40
0.625
40
0.75
40
0.75
40
1
40
1
40
1
40
1
41
1
10
7.31012321080176
20
5.17493250059513
30
0
41
1
10
6.78305379470062
20
4.92998439953666
30
0
41
1
10
6.23674464858172
20
4.68279129053994
30
0
41
1
10
5.10081443801648
20
4.20253373511016
30
0
41
1
10
4.51123966539406
20
3.96936613306897
30
0
41
1
10
3.74115277433863
20
3.69935622983499
30
0
41
1
10
3.58527386690608
20
3.64637266721712
30
0
41
1
10
3.27080539992138
20
3.54320052666355
30
0
41
1
10
3.11279249385808
20
3.49319775934154
30
0
41
1
10
2.63632090342213
20
3.34835455991694
30
0
41
1
10
2.31543057942636
20
3.25868424796988
30
0
41
1
10
1.34220456566456
20
3.01352152387079
30
0
41
1
10
0.679318606064439
20
2.8820396537073
30
0
41
1
10
-2.7E-15
20
2.78958844893617
30
0
0
SPLINE
5
CE
100
AcDbEntity
8
1
62
256
6
ByLayer
370
18
48
1
60
0
100
AcDbSpline
70
4
71
3
72
10
73
6
40
0
40
0
40
0
40
0
40
0.5
40
0.5
40
1
40
1
40
1
40
1
41
1
10
8.5
20
1.9470466482644
30
0
41
1
10
8.5
20
2.0448625364379
30
0
41
1
10
8.49052500674599
20
2.14079272190563
30
0
41
1
10
8.45370222362984
20
2.32908353365662
30
0
41
1
10
8.42601230952945
20
2.42203049451618
30
0
41
1
10
8.39013567043058
20
2.51053827890019
30
0
0
SPLINE
5
CF
100
AcDbEntity
8
1
62
256
6
ByLayer
370
18
48
1
60
0
100
AcDbSpline
70
4
71
3
72
8
73
4
40
0
40
0
40
0
40
0
40
1
40
1
40
1
40
1
41
1
10
8.97254966882863
20
4.60402184392777
30
0
41
1
10
9.00871415012935
20
4.60851578157994
30
0
41
1
10
9.04438151750318
20
4.61065872047919
30
0
41
1
10
9.07942853114551
20
4.61069966024249
30
0
0
SPLINE
5
D0
100
AcDbEntity
8
1
62
256
6
ByLayer
370
18
48
1
60
0
100
AcDbSpline
70
4
71
3
72
30
73
26
40
0
40
0
40
0
40
0
40
0.125
40
0.125
40
0.187499999999999
40
0.187499999999999
40
0.249999999999999
40
0.249999999999999
40
0.375
40
0.375
40
0.5
40
0.5
40
0.562500000000001
40
0.562500000000001
40
0.625000000000001
40
0.625000000000001
40
0.687500000000001
40
0.687500000000001
40
0.750000000000002
40
0.750000000000002
40
0.875000000000002
40
0.875000000000002
40
0.937500000000001
40
0.937500000000001
40
1
40
1
40
1
40
1
41
1
10
8.69999634865392
20
2.81090053653824
30
0
41
1
10
8.63693112363059
20
2.83684500395921
30
0
41
1
10
8.57825256490453
20
2.86840839626419
30
0
41
1
10
8.49565319108457
20
2.92384346394903
30
0
41
1
10
8.4689682587897
20
2.94376346424838
30
0
41
1
10
8.41841565729645
20
2.98551076975653
30
0
41
1
10
8.39439894375108
20
3.00742498113522
30
0
41
1
10
8.32577803790576
20
3.07640021895111
30
0
41
1
10
8.2844721924153
20
3.12671849044699
30
0
41
1
10
8.21070730276947
20
3.2377173188375
30
0
41
1
10
8.17947251371168
20
3.29659630431354
30
0
41
1
10
8.14128340502019
20
3.39057947460415
30
0
41
1
10
8.13005339257031
20
3.42286302577381
30
0
41
1
10
8.1112488049488
20
3.4871648195043
30
0
41
1
10
8.10355050408115
20
3.51946048749738
30
0
41
1
10
8.09139882547744
20
3.58447188197971
30
0
41
1
10
8.086935113646
20
3.61735081488126
30
0
41
1
10
8.08130892354833
20
3.68282756175583
30
0
41
1
10
8.08013027822481
20
3.71536876536624
30
0
41
1
10
8.0813122884326
20
3.81276780465001
30
0
41
1
10
8.08830414488788
20
3.87739642057116
30
0
41
1
10
8.10895966633313
20
3.97510240626386
30
0
41
1
10
8.11755907611002
20
4.00767220533007
30
0
41
1
10
8.13798632805253
20
4.07169121773637
30
0
41
1
10
8.14984599659777
20
4.10331056676984
30
0
41
1
10
8.16344499532203
20
4.13457445595901
30
0
0
SPLINE
5
D1
100
AcDbEntity
8
1
62
256
6
ByLayer
370
18
48
1
60
0
100
AcDbSpline
70
4
71
3
72
38
73
34
40
0
40
0
40
0
40
0
40
0.124987476828811
40
0.124987476828811
40
0.249974953657622
40
0.249974953657622
40
0.312468692072027
40
0.312468692072027
40
0.374962430486432
40
0.374962430486432
40
0.499949907315243
40
0.499949907315243
40
0.624937384144053
40
0.624937384144053
40
0.656184253351256
40
0.656184253351256
40
0.687431122558458
40
0.687431122558458
40
0.749924860972864
40
0.749924860972864
40
0.781171730180066
40
0.781171730180066
40
0.812418599387269
40
0.812418599387269
40
0.874912337801674
40
0.874912337801674
40
0.937406076216079
40
0.937406076216079
40
0.968652945423282
40
0.968652945423282
40
0.999899814630485
40
0.999899814630485
40
1
40
1
40
1
40
1
41
1
10
1.54692610062744
20
4.80442376046588
30
0
41
1
10
1.86325622005691
20
4.86108532089668
30
0
41
1
10
2.17221418582365
20
4.92450332862663
30
0
41
1
10
2.77670710782155
20
5.06222716887618
30
0
41
1
10
3.07224165039051
20
5.13653862530737
30
0
41
1
10
3.50567238833285
20
5.25425850600635
30
0
41
1
10
3.64849609515494
20
5.29454063608642
30
0
41
1
10
3.93075768031976
20
5.37685799197456
30
0
41
1
10
4.06852704562219
20
5.41840527380847
30
0
41
1
10
4.47168087937464
20
5.54347757525707
30
0
41
1
10
4.72709780297211
20
5.62747822646995
30
0
41
1
10
5.20950377673871
20
5.79281895323319
30
0
41
1
10
5.43658108663442
20
5.87420732879045
30
0
41
1
10
5.69890310276123
20
5.97111343938644
30
0
41
1
10
5.75004744924798
20
5.99016385297153
30
0
41
1
10
5.84897516590257
20
6.02727783298189
30
0
41
1
10
5.89685675716977
20
6.04537765628342
30
0
41
1
10
6.03558927975227
20
6.09816002017084
30
0
41
1
10
6.12154817847292
20
6.13133218335244
30
0
41
1
10
6.23971228424739
20
6.17738477373578
30
0
41
1
10
6.27729993567635
20
6.19211651668951
30
0
41
1
10
6.34864303555616
20
6.22020480715818
30
0
41
1
10
6.38249119727267
20
6.23359823455789
30
0
41
1
10
6.47717540314025
20
6.27120936198986
30
0
41
1
10
6.53080355462735
20
6.29271427028425
30
0
41
1
10
6.61815261787052
20
6.32789203272165
30
0
41
1
10
6.65187957697631
20
6.34156729296345
30
0
41
1
10
6.68631230982302
20
6.35555085377555
30
0
41
1
10
6.69509992809162
20
6.35912591775602
30
0
41
1
10
6.7068545947708
20
6.36390992292397
30
0
41
1
10
6.70987239598095
20
6.36513945225602
30
0
41
1
10
6.71008629092768
20
6.36522656996832
30
0
41
1
10
6.71008721715542
20
6.36522694719793
30
0
41
1
10
6.71008814339381
20
6.36522732440141
30
0
0
SPLINE
5
D2
100
AcDbEntity
8
1
62
256
6
ByLayer
370
18
48
1
60
0
100
AcDbSpline
70
4
71
3
72
41
73
37
40
0
40
0
40
0
40
0
40
0.0624449226675091
40
0.0624449226675091
40
0.0936967585785921
40
0.109322676534134
40
0.109322676534134
40
0.124948594489675
40
0.124948594489675
40
0.187452266311841
40
0.187452266311841
40
0.249955938134007
40
0.249955938134007
40
0.28120777404509
40
0.28120777404509
40
0.312459609956173
40
0.312459609956173
40
0.374963281778339
40
0.374963281778339
40
0.499970625422672
40
0.499970625422672
40
0.531222461333755
40
0.531222461333755
40
0.562474297244838
40
0.562474297244838
40
0.624977969067004
40
0.624977969067004
40
0.749985312711336
40
0.749985312711336
40
0.781237148622419
40
0.781237148622419
40
0.812488984533502
40
0.812488984533502
40
0.874992656355668
40
0.874992656355668
40
1
40
1
40
1
40
1
41
1
10
-4.83919624631543
20
4.79341741081006
30
0
41
1
10
-4.83805138244724
20
4.79321364353447
30
0
41
1
10
-4.82408405148329
20
4.79071587644324
30
0
41
1
10
-4.78407886918675
20
4.78368012794857
30
0
41
1
10
-4.75928171782205
20
4.77933791054508
30
0
41
1
10
-4.72723196547864
20
4.77380293154326
30
0
41
1
10
-4.7042366180841
20
4.76985330218704
30
0
41
1
10
-4.69191871759121
20
4.7677476532441
30
0
41
1
10
-4.62684513225557
20
4.75669201517985
30
0
41
1
10
-4.56328592317722
20
4.74609225082378
30
0
41
1
10
-4.41499096255083
20
4.72233433548828
30
0
41
1
10
-4.33024589284692
20
4.70917365513296
30
0
41
1
10
-4.18782065682686
20
4.68823333100107
30
0
41
1
10
-4.13778710431829
20
4.68105366545822
30
0
41
1
10
-4.03261884717526
20
4.66642297696711
30
0
41
1
10
-3.97733785064189
20
4.6589529096585
30
0
41
1
10
-3.80477556843181
20
4.63646739192035
30
0
41
1
10
-3.68223857687433
20
4.62156274939272
30
0
41
1
10
-3.29409249242041
20
4.57871203133558
30
0
41
1
10
-3.00817773872315
20
4.5526013974937
30
0
41
1
10
-2.61876419910333
20
4.52835758110982
30
0
41
1
10
-2.53902643146508
20
4.52391958760424
30
0
41
1
10
-2.3774516919241
20
4.51608567889403
30
0
41
1
10
-2.29583061316386
20
4.51269683970824
30
0
41
1
10
-2.04857368638672
20
4.50424053149737
30
0
41
1
10
-1.88055101105266
20
4.50088433454712
30
0
41
1
10
-1.36749716450308
20
4.49861640478036
30
0
41
1
10
-1.0135611649293
20
4.5075097987166
30
0
41
1
10
-0.556704036311802
20
4.53464788260601
30
0
41
1
10
-0.464580740656944
20
4.54088354509435
30
0
41
1
10
-0.280966908531485
20
4.5548482191798
30
0
41
1
10
-0.189215531321454
20
4.56259114255863
30
0
41
1
10
0.0858695120112971
20
4.58808967213014
30
0
41
1
10
0.269033655941809
20
4.6081161602288
30
0
41
1
10
0.817845647791782
20
4.6771394399191
30
0
41
1
10
1.18280701033067
20
4.73509383737525
30
0
41
1
10
1.54692610062743
20
4.80442376046588
30
0
0
SPLINE
5
D3
100
AcDbEntity
8
1
62
256
6
ByLayer
370
18
48
1
60
0
100
AcDbSpline
70
4
71
3
72
27
73
23
40
0
40
0
40
0
40
0
40
0.125039002940637
40
0.125039002940637
40
0.250078005881275
40
0.250078005881275
40
0.375117008821912
40
0.375117008821912
40
0.50015601176255
40
0.50015601176255
40
0.531415762497709
40
0.531415762497709
40
0.562675513232869
40
0.625195014703188
40
0.625195014703188
40
0.750234017643825
40
0.750234017643825
40
0.875273020584463
40
0.875273020584463
40
0.937792522054782
40
0.937792522054782
40
1
40
1
40
1
40
1
41
1
10
-3.80224954192377
20
2.96332841977133
30
0
41
1
10
-3.92638479407489
20
3.1024987327171
30
0
41
1
10
-4.05455925113017
20
3.23103746615877
30
0
41
1
10
-4.30749392379033
20
3.47112457085737
30
0
41
1
10
-4.43239836530721
20
3.58260836525457
30
0
41
1
10
-4.67263940945178
20
3.79014292889622
30
0
41
1
10
-4.78803752674145
20
3.88616933328831
30
0
41
1
10
-5.00506788999914
20
4.06309925598953
30
0
41
1
10
-5.10673076736696
20
4.14399441969093
30
0
41
1
10
-5.22304064790348
20
4.23533681323724
30
0
41
1
10
-5.24578712614978
20
4.25313180153532
30
0
41
1
10
-5.28995973440199
20
4.28757608600347
30
0
41
1
10
-5.35429419635497
20
4.33756772723191
30
0
41
1
10
-5.41272428048616
20
4.38255251063072
30
0
41
1
10
-5.52139594197303
20
4.46585260217239
30
0
41
1
10
-5.58292394479317
20
4.51250585894232
30
0
41
1
10
-5.68260153226966
20
4.58776768860477
30
0
41
1
10
-5.72075770376428
20
4.61637649350649
30
0
41
1
10
-5.75930367063897
20
4.64523849728928
30
0
41
1
10
-5.7690368771118
20
4.65251412002272
30
0
41
1
10
-5.78203127254639
20
4.66222416166824
30
0
41
1
10
-5.78527777204045
20
4.66464767360594
30
0
41
1
10
-5.78532004026627
20
4.66467922917874
30
0
0
SPLINE
5
D4
100
AcDbEntity
8
1
62
256
6
ByLayer
370
18
48
1
60
0
100
AcDbSpline
70
4
71
3
72
16
73
12
40
0
40
0
40
0
40
0
40
0.25
40
0.25
40
0.5
40
0.5
40
0.625
40
0.625
40
0.75
40
0.75
40
1
40
1
40
1
40
1
41
1
10
-2.7E-15
20
2.78958844893614
30
0
41
1
10
-0.333275738443677
20
2.74423161156258
30
0
41
1
10
-0.663934817830255
20
2.71573065559531
30
0
41
1
10
-1.32010297028558
20
2.6904588224256
30
0
41
1
10
-1.64561184215711
20
2.69368473828939
30
0
41
1
10
-2.12983985694189
20
2.72028113751398
30
0
41
1
10
-2.29109590851823
20
2.73284029406261
30
0
41
1
10
-2.60720227256259
20
2.7642219270885
30
0
41
1
10
-2.76257014994137
20
2.7830479086183
30
0
41
1
10
-3.22100380362729
20
2.84766761341939
30
0
41
1
10
-3.51643410142852
20
2.90157622916092
30
0
41
1
10
-3.80224954192379
20
2.96332841977133
30
0
0
SPLINE
5
D5
100
AcDbEntity
8
1
62
256
6
ByLayer
370
18
48
1
60
0
100
AcDbSpline
70
4
71
3
72
39
73
35
40
0
40
0
40
0
40
0
40
0.0312436882535845
40
0.0312436882535845
40
0.0624873765071689
40
0.0624873765071689
40
0.124974753014337
40
0.124974753014337
40
0.249949506028674
40
0.249949506028674
40
0.312436882535843
40
0.312436882535843
40
0.343680570789427
40
0.343680570789427
40
0.374924259043011
40
0.374924259043011
40
0.499899012057348
40
0.499899012057348
40
0.624873765071685
40
0.624873765071685
40
0.656117453325269
40
0.656117453325269
40
0.687361141578853
40
0.687361141578853
40
0.749848518086022
40
0.749848518086022
40
0.874823271100359
40
0.874823271100359
40
0.937310647607527
40
0.937310647607527
40
0.968554335861111
40
0.968554335861111
40
0.999798024114695
40
1
40
1
40
1
40
1
41
1
10
-3.80224954192377
20
2.96332841977133
30
0
41
1
10
-3.87768361362554
20
2.95730235049686
30
0
41
1
10
-3.95258292402679
20
2.95132569495354
30
0
41
1
10
-4.10129598278142
20
2.93947183657176
30
0
41
1
10
-4.17501165876372
20
2.9336024754848
30
0
41
1
10
-4.39290137803482
20
2.91627192048111
30
0
41
1
10
-4.53434065248625
20
2.90504656389459
30
0
41
1
10
-4.9474394079419
20
2.87232431867062
30
0
41
1
10
-5.20792752774452
20
2.85177723958091
30
0
41
1
10
-5.57636296074617
20
2.8228105567876
30
0
41
1
10
-5.69544667795965
20
2.81346500142408
30
0
41
1
10
-5.86837754662597
20
2.79991498772858
30
0
41
1
10
-5.92507125711733
20
2.79547643499808
30
0
41
1
10
-6.03653173062624
20
2.78675693503229
30
0
41
1
10
-6.09135378355728
20
2.78247168022526
30
0
41
1
10
-6.35861619896562
20
2.76159607810078
30
0
41
1
10
-6.55213702802442
20
2.74653002588658
30
0
41
1
10
-6.89990002617025
20
2.71951358774422
30
0
41
1
10
-7.05414005405037
20
2.70756353427055
30
0
41
1
10
-7.22188616588973
20
2.69458753238595
30
0
41
1
10
-7.2541775043992
20
2.69209083648022
30
0
41
1
10
-7.31621037614291
20
2.68729655608456
30
0
41
1
10
-7.34600359582659
20
2.68499498157891
30
0
41
1
10
-7.43098771862846
20
2.67843226138228
30
0
41
1
10
-7.48185714781107
20
2.67450734652402
30
0
41
1
10
-7.61752554588144
20
2.66404529077238
30
0
41
1
10
-7.68545669646854
20
2.65881489159727
30
0
41
1
10
-7.75388319233142
20
2.65354800923734
30
0
41
1
10
-7.77109545278201
20
2.65222367273941
30
0
41
1
10
-7.78838964519902
20
2.65089313977739
30
0
41
1
10
-7.792732495287
20
2.65055905436722
30
0
41
1
10
-7.79853806341615
20
2.65011245445811
30
0
41
1
10
-7.80001102974223
20
2.64999915159308
30
0
41
1
10
-7.80000824037195
20
2.64999936613537
30
0
41
1
10
-7.80000724321654
20
2.64999944282375
30
0
0
SPLINE
5
D6
100
AcDbEntity
8
1
62
256
6
ByLayer
370
18
48
1
60
0
100
AcDbSpline
70
4
71
3
72
22
73
18
40
0
40
0
40
0
40
0
40
0.125
40
0.125
40
0.25
40
0.25
40
0.375
40
0.375
40
0.5
40
0.5
40
0.625
40
0.625
40
0.75
40
0.75
40
0.875
40
0.875
40
1
40
1
40
1
40
1
41
1
10
7.25230835592172
20
6.38235148440845
30
0
41
1
10
7.22586488622316
20
6.37875268612714
30
0
41
1
10
7.19986762899233
20
6.3749801870118
30
0
41
1
10
7.14874496589877
20
6.36708787964966
30
0
41
1
10
7.12337006929354
20
6.3629237383077
30
0
41
1
10
7.07485245760527
20
6.35441805283472
30
0
41
1
10
7.05186342553656
20
6.35010980934251
30
0
41
1
10
7.00844632527091
20
6.34134412337878
30
0
41
1
10
6.98785576788226
20
6.33684178177179
30
0
41
1
10
6.95112328852848
20
6.32801750749374
30
0
41
1
10
6.93477306654655
20
6.32366038255435
30
0
41
1
10
6.90623431490415
20
6.31501224391477
30
0
41
1
10
6.89421347627467
20
6.31075566727225
30
0
41
1
10
6.87554136694459
20
6.30266653597982
30
0
41
1
10
6.86869770117741
20
6.2987647535337
30
0
41
1
10
6.86039012567016
20
6.29136194389119
30
0
41
1
10
6.85897147727857
20
6.28792528247226
30
0
41
1
10
6.8602603120366
20
6.28474572296679
30
0
0
SPLINE
5
D7
100
AcDbEntity
8
1
62
256
6
ByLayer
370
18
48
1
60
0
100
AcDbSpline
70
4
71
3
72
18
73
14
40
0
40
0
40
0
40
0
40
0.124999999999997
40
0.124999999999997
40
0.249999999999994
40
0.249999999999994
40
0.374999999999991
40
0.374999999999991
40
0.499999999999988
40
0.499999999999988
40
0.749999999999994
40
0.749999999999994
40
1
40
1
40
1
40
1
41
1
10
13.5296163489497
20
2.684558022234
30
0
41
1
10
13.5207131420265
20
2.69012136337403
30
0
41
1
10
13.5123433962709
20
2.69639756744545
30
0
41
1
10
13.4966714820806
20
2.7103762859864
30
0
41
1
10
13.4893837630477
20
2.71810223949748
30
0
41
1
10
13.4765034314741
20
2.73427350483888
30
0
41
1
10
13.4708141764803
20
2.74279737906019
30
0
41
1
10
13.4608936528693
20
2.76069111446796
30
0
41
1
10
13.4566619168371
20
2.77011655815051
30
0
41
1
10
13.4466048308444
20
2.79844868502138
30
0
41
1
10
13.4431203262317
20
2.81800252787534
30
0
41
1
10
13.4422711285179
20
2.85679330828398
30
0
41
1
10
13.4448436230657
20
2.87552386042299
30
0
41
1
10
13.4501545563609
20
2.89359925403181
30
0
0
SPLINE
5
D8
100
AcDbEntity
8
1
62
256
6
ByLayer
370
18
48
1
60
0
100
AcDbSpline
70
4
71
3
72
18
73
14
40
0
40
0
40
0
40
0
40
0.25000000000001
40
0.25000000000001
40
0.500000000000019
40
0.500000000000019
40
0.625000000000014
40
0.625000000000014
40
0.75000000000001
40
0.75000000000001
40
0.875000000000005
40
0.875000000000005
40
1
40
1
40
1
40
1
41
1
10
13.7523351206637
20
2.70477588065628
30
0
41
1
10
13.7384524068473
20
2.69211081100139
30
0
41
1
10
13.722671058015
20
2.68152939908956
30
0
41
1
10
13.6873814861298
20
2.66528033744848
30
0
41
1
10
13.6683716258244
20
2.65985944074964
30
0
41
1
10
13.6382942355008
20
2.65647795662804
30
0
41
1
10
13.6281925249467
20
2.65616727511679
30
0
41
1
10
13.6078398399384
20
2.65722873091471
30
0
41
1
10
13.5974867496724
20
2.6586280192208
30
0
41
1
10
13.5772332687698
20
2.66314754216839
30
0
41
1
10
13.567330998798
20
2.6662452458699
30
0
41
1
10
13.5479866346202
20
2.67415166579349
30
0
41
1
10
13.5384881336967
20
2.67901431584889
30
0
41
1
10
13.5296163489497
20
2.684558022234
30
0
0
SPLINE
5
D9
100
AcDbEntity
8
1
62
256
6
ByLayer
370
18
48
1
60
0
100
AcDbSpline
70
4
71
3
72
22
73
18
40
0
40
0
40
0
40
0
40
0.125
40
0.125
40
0.25
40
0.25
40
0.375
40
0.375
40
0.5
40
0.5
40
0.625
40
0.625
40
0.75
40
0.75
40
0.875
40
0.875
40
1
40
1
40
1
40
1
41
1
10
13.7523351206637
20
2.70477588065631
30
0
41
1
10
13.7713293203737
20
2.72210411096825
30
0
41
1
10
13.7921735531982
20
2.73791612098876
30
0
41
1
10
13.8367537966799
20
2.76554151567567
30
0
41
1
10
13.8605153444862
20
2.77742988700848
30
0
41
1
10
13.9115592849561
20
2.79694660498714
30
0
41
1
10
13.9386842779689
20
2.80443582088398
30
0
41
1
10
13.9943641804003
20
2.81383246888822
30
0
41
1
10
14.0235323983524
20
2.81577464451837
30
0
41
1
10
14.0805464538639
20
2.81370745189611
30
0
41
1
10
14.1090068529176
20
2.80975685647968
30
0
41
1
10
14.1642549288748
20
2.79629790277102
30
0
41
1
10
14.190304540749
20
2.78703444247219
30
0
41
1
10
14.2397567945648
20
2.76398439484154
30
0
41
1
10
14.2630293812517
20
2.75018005372377
30
0
41
1
10
14.3053848422069
20
2.71951807419464
30
0
41
1
10
14.3247549943632
20
2.70252838764037
30
0
41
1
10
14.34246641248
20
2.68391456899076
30
0
0
SPLINE
5
DA
100
AcDbEntity
8
1
62
256
6
ByLayer
370
18
48
1
60
0
100
AcDbSpline
70
4
71
3
72
18
73
14
40
0
40
0
40
0
40
0
40
0.124999999999998
40
0.124999999999998
40
0.249999999999996
40
0.249999999999996
40
0.374999999999994
40
0.374999999999994
40
0.499999999999991
40
0.499999999999991
40
0.749999999999996
40
0.749999999999996
40
1
40
1
40
1
40
1
41
1
10
14.6265492259125
20
4.4400175812778
30
0
41
1
10
14.6354524328357
20
4.43445424013777
30
0
41
1
10
14.6438221785913
20
4.42817803606636
30
0
41
1
10
14.6594940927816
20
4.4141993175254
30
0
41
1
10
14.6667818118145
20
4.40647336401432
30
0
41
1
10
14.6796621433881
20
4.39030209867292
30
0
41
1
10
14.685351398382
20
4.38177822445161
30
0
41
1
10
14.6952719219929
20
4.36388448904384
30
0
41
1
10
14.6995036580251
20
4.35445904536129
30
0
41
1
10
14.7095607440179
20
4.32612691849042
30
0
41
1
10
14.7130452486305
20
4.30657307563646
30
0
41
1
10
14.7138944463443
20
4.26778229522782
30
0
41
1
10
14.7113219517965
20
4.24905174308881
30
0
41
1
10
14.7060110185013
20
4.23097634947999
30
0
0
SPLINE
5
DB
100
AcDbEntity
8
1
62
256
6
ByLayer
370
18
48
1
60
0
100
AcDbSpline
70
4
71
3
72
18
73
14
40
0
40
0
40
0
40
0
40
0.250000000000001
40
0.250000000000001
40
0.500000000000001
40
0.500000000000001
40
0.625000000000001
40
0.625000000000001
40
0.750000000000001
40
0.750000000000001
40
0.875
40
0.875
40
1
40
1
40
1
40
1
41
1
10
14.4038304541985
20
4.41979972285549
30
0
41
1
10
14.4177131680149
20
4.43246479251039
30
0
41
1
10
14.4334945168472
20
4.44304620442225
30
0
41
1
10
14.4687840887324
20
4.45929526606332
30
0
41
1
10
14.4877939490378
20
4.46471616276216
30
0
41
1
10
14.5178713393614
20
4.46809764688376
30
0
41
1
10
14.5279730499155
20
4.46840832839501
30
0
41
1
10
14.5483257349238
20
4.46734687259709
30
0
41
1
10
14.5586788251898
20
4.465947584291
30
0
41
1
10
14.5789323060924
20
4.46142806134341
30
0
41
1
10
14.5888345760642
20
4.4583303576419
30
0
41
1
10
14.608178940242
20
4.45042393771831
30
0
41
1
10
14.6176774411655
20
4.44556128766291
30
0
41
1
10
14.6265492259125
20
4.4400175812778
30
0
0
SPLINE
5
DC
100
AcDbEntity
8
1
62
256
6
ByLayer
370
18
48
1
60
0
100
AcDbSpline
70
4
71
3
72
22
73
18
40
0
40
0
40
0
40
0
40
0.125
40
0.125
40
0.25
40
0.25
40
0.375
40
0.375
40
0.5
40
0.5
40
0.625
40
0.625
40
0.75
40
0.75
40
0.875
40
0.875
40
1
40
1
40
1
40
1
41
1
10
14.4038304541985
20
4.41979972285549
30
0
41
1
10
14.3848362544885
20
4.40247149254355
30
0
41
1
10
14.363992021664
20
4.38665948252304
30
0
41
1
10
14.3194117781824
20
4.35903408783614
30
0
41
1
10
14.295650230376
20
4.34714571650332
30
0
41
1
10
14.2446062899061
20
4.32762899852466
30
0
41
1
10
14.2174812968934
20
4.32013978262782
30
0
41
1
10
14.1618013944619
20
4.31074313462358
30
0
41
1
10
14.1326331765098
20
4.30880095899343
30
0
41
1
10
14.0756191209983
20
4.31086815161569
30
0
41
1
10
14.0471587219447
20
4.31481874703212
30
0
41
1
10
13.9919106459874
20
4.32827770074076
30
0
41
1
10
13.9658610341132
20
4.33754116103958
30
0
41
1
10
13.9164087802974
20
4.36059120867026
30
0
41
1
10
13.8931361936105
20
4.37439554978801
30
0
41
1
10
13.8507807326553
20
4.40505752931713
30
0
41
1
10
13.831410580499
20
4.42204721587143
30
0
41
1
10
13.8136991623822
20
4.44066103452104
30
0
0
SPLINE
5
DD
100
AcDbEntity
8
1
62
256
6
ByLayer
370
18
48
1
60
0
100
AcDbSpline
70
4
71
3
72
18
73
14
40
0
40
0
40
0
40
0
40
0.125000000000001
40
0.125000000000001
40
0.250000000000001
40
0.250000000000001
40
0.375000000000002
40
0.375000000000002
40
0.500000000000003
40
0.500000000000003
40
0.750000000000001
40
0.750000000000001
40
1
40
1
40
1
40
1
41
1
10
13.5929639640583
20
4.47655511890628
30
0
41
1
10
13.6022377837905
20
4.48147589473658
30
0
41
1
10
13.6118615320003
20
4.48557795058665
30
0
41
1
10
13.6318090653144
20
4.49214375815467
30
0
41
1
10
13.6421458854863
20
4.49458326069811
30
0
41
1
10
13.6625933955837
20
4.4976347794119
30
0
41
1
10
13.6728204823889
20
4.49829110835768
30
0
41
1
10
13.6932768721074
20
4.4979181149989
30
0
41
1
10
13.7035545063306
20
4.4968613655534
30
0
41
1
10
13.7331146832246
20
4.49137963414248
30
0
41
1
10
13.7517852807456
20
4.48460435127888
30
0
41
1
10
13.7857876342534
20
4.46591522183536
30
0
41
1
10
13.8007125732944
20
4.45430929309441
30
0
41
1
10
13.8136991623822
20
4.44066103452104
30
0
0
SPLINE
5
DE
100
AcDbEntity
8
1
62
256
6
ByLayer
370
18
48
1
60
0
100
AcDbSpline
70
4
71
3
72
18
73
14
40
0
40
0
40
0
40
0
40
0.25
40
0.25
40
0.499999999999999
40
0.499999999999999
40
0.624999999999999
40
0.624999999999999
40
0.75
40
0.75
40
0.875
40
0.875
40
1
40
1
40
1
40
1
41
1
10
13.4990778829348
20
4.27301913394339
30
0
41
1
10
13.4949927718207
20
4.29140978540411
30
0
41
1
10
13.4936731634358
20
4.31039564658732
30
0
41
1
10
13.4971829013404
20
4.3492023824889
30
0
41
1
10
13.5019747464294
20
4.36842377486968
30
0
41
1
10
13.5140915655428
20
4.39625680632386
30
0
41
1
10
13.5188796847633
20
4.40518936211032
30
0
41
1
10
13.5299952859546
20
4.42233736810678
30
0
41
1
10
13.5363975190492
20
4.43062818225911
30
0
41
1
10
13.5504778731492
20
4.44595527941317
30
0
41
1
10
13.5581346015919
20
4.4530013091987
30
0
41
1
10
13.5747056941084
20
4.46583123708362
30
0
41
1
10
13.5836959715849
20
4.47163743507426
30
0
41
1
10
13.5929639640583
20
4.47655511890628
30
0
0
SPLINE
5
DF
100
AcDbEntity
8
1
62
256
6
ByLayer
370
18
48
1
60
0
100
AcDbSpline
70
4
71
3
72
12
73
8
40
0
40
0
40
0
40
0
40
0.499999999999999
40
0.499999999999999
40
0.749999999999999
40
0.749999999999999
40
1
40
1
40
1
40
1
41
1
10
13.4990778829349
20
4.27301913394322
30
0
41
1
10
13.5093352107961
20
4.22684194650748
30
0
41
1
10
13.5120336844428
20
4.17809880544303
30
0
41
1
10
13.5026830356017
20
4.10398342422204
30
0
41
1
10
13.4972254035886
20
4.07876461009056
30
0
41
1
10
13.4817311826318
20
4.02976999091305
30
0
41
1
10
13.4717088503174
20
4.00577572285417
30
0
41
1
10
13.4591466886662
20
3.98231411717632
30
0
0
SPLINE
5
E0
100
AcDbEntity
8
1
62
256
6
ByLayer
370
18
48
1
60
0
100
AcDbSpline
70
4
71
3
72
12
73
8
40
0
40
0
40
0
40
0
40
0.5
40
0.5
40
0.75
40
0.75
40
1
40
1
40
1
40
1
41
1
10
14.6570876919274
20
2.85155646956858
30
0
41
1
10
14.6468303640661
20
2.89773365700438
30
0
41
1
10
14.6441318904195
20
2.94647679806948
30
0
41
1
10
14.6534825392605
20
3.02059217928994
30
0
41
1
10
14.6589401712737
20
3.04581099342158
30
0
41
1
10
14.6744343922308
20
3.09480561259969
30
0
41
1
10
14.6844567245452
20
3.11879988065834
30
0
41
1
10
14.697018886196
20
3.14226148633549
30
0
0
SPLINE
5
E1
100
AcDbEntity
8
1
62
256
6
ByLayer
370
18
48
1
60
0
100
AcDbSpline
70
4
71
3
72
18
73
14
40
0
40
0
40
0
40
0
40
0.249999999999998
40
0.249999999999998
40
0.499999999999996
40
0.499999999999996
40
0.624999999999997
40
0.624999999999997
40
0.749999999999998
40
0.749999999999998
40
0.874999999999999
40
0.874999999999999
40
1
40
1
40
1
40
1
41
1
10
14.6570876919274
20
2.85155646956858
30
0
41
1
10
14.6611728030415
20
2.83316581810786
30
0
41
1
10
14.6624924114265
20
2.81417995692462
30
0
41
1
10
14.6589826735218
20
2.77537322102302
30
0
41
1
10
14.6541908284329
20
2.7561518286422
30
0
41
1
10
14.6420740093194
20
2.72831879718802
30
0
41
1
10
14.637285890099
20
2.71938624140154
30
0
41
1
10
14.6261702889077
20
2.70223823540505
30
0
41
1
10
14.6197680558131
20
2.69394742125272
30
0
41
1
10
14.605687701713
20
2.67862032409866
30
0
41
1
10
14.5980309732703
20
2.67157429431313
30
0
41
1
10
14.5814598807538
20
2.65874436642821
30
0
41
1
10
14.5724696032773
20
2.65293816843754
30
0
41
1
10
14.5632016108039
20
2.64802048460552
30
0
0
SPLINE
5
E2
100
AcDbEntity
8
1
62
256
6
ByLayer
370
18
48
1
60
0
100
AcDbSpline
70
4
71
3
72
14
73
10
40
0
40
0
40
0
40
0
40
0.25
40
0.25
40
0.5
40
0.5
40
0.75
40
0.75
40
1
40
1
40
1
40
1
41
1
10
13.4292419084375
20
3.93445646479302
30
0
41
1
10
13.4136456821182
20
3.91285867057553
30
0
41
1
10
13.3960477251063
20
3.89287300188559
30
0
41
1
10
13.3586101997339
20
3.85741008287343
30
0
41
1
10
13.3387415473492
20
3.84180950285915
30
0
41
1
10
13.2968067413023
20
3.81443868154471
30
0
41
1
10
13.2750564363946
20
3.80290991952279
30
0
41
1
10
13.2309537210973
20
3.78405553054753
30
0
41
1
10
13.2084515917999
20
3.77663892772884
30
0
41
1
10
13.1854626535624
20
3.77112985354526
30
0
0
SPLINE
5
E3
100
AcDbEntity
8
1
62
256
6
ByLayer
370
18
48
1
60
0
100
AcDbSpline
70
4
71
3
72
18
73
14
40
0
40
0
40
0
40
0
40
0.125000000000001
40
0.125000000000001
40
0.250000000000002
40
0.250000000000002
40
0.375000000000003
40
0.375000000000003
40
0.500000000000004
40
0.500000000000004
40
0.750000000000002
40
0.750000000000002
40
1
40
1
40
1
40
1
41
1
10
13.0436826711195
20
3.59752129966006
30
0
41
1
10
13.0440411737799
20
3.60804637425375
30
0
41
1
10
13.045289229443
20
3.61846285526877
30
0
41
1
10
13.0495623180114
20
3.63907870532034
30
0
41
1
10
13.0526175053657
20
3.64928632759393
30
0
41
1
10
13.06020664936
20
3.66858264996657
30
0
41
1
10
13.0647597445942
20
3.67779485726373
30
0
41
1
10
13.0753325017068
20
3.69537139871784
30
0
41
1
10
13.0814029699204
20
3.7037679738435
30
0
41
1
10
13.1009886243648
20
3.72668778391676
30
0
41
1
10
13.116234674865
20
3.73948988520192
30
0
41
1
10
13.1495289656939
20
3.75961300309666
30
0
41
1
10
13.1670964269709
20
3.76672856699088
30
0
41
1
10
13.1854626535624
20
3.77112985354526
30
0
0
SPLINE
5
E4
100
AcDbEntity
8
1
62
256
6
ByLayer
370
18
48
1
60
0
100
AcDbSpline
70
4
71
3
72
18
73
14
40
0
40
0
40
0
40
0
40
0.249999999999998
40
0.249999999999998
40
0.499999999999996
40
0.499999999999996
40
0.624999999999997
40
0.624999999999997
40
0.749999999999998
40
0.749999999999998
40
0.874999999999999
40
0.874999999999999
40
1
40
1
40
1
40
1
41
1
10
13.1727080024883
20
3.41486074853273
30
0
41
1
10
13.1547932861293
20
3.42053569546741
30
0
41
1
10
13.1377456153578
20
3.42888870186283
30
0
41
1
10
13.1059956046973
20
3.45130627996332
30
0
41
1
10
13.0917934306071
20
3.46503656291168
30
0
41
1
10
13.073797479183
20
3.48938714431637
30
0
41
1
10
13.0684695325384
20
3.49797698843534
30
0
41
1
10
13.0591975673142
20
3.51612389573768
30
0
41
1
10
13.055225512942
20
3.525782491385
30
0
41
1
10
13.0489934304291
20
3.54558332508617
30
0
41
1
10
13.046716515797
20
3.55570648797288
30
0
41
1
10
13.0438741965992
20
3.57640533102599
30
0
41
1
10
13.0433264547236
20
3.58706334620027
30
0
41
1
10
13.0436826711195
20
3.59752129966006
30
0
0
SPLINE
5
E5
100
AcDbEntity
8
1
62
256
6
ByLayer
370
18
48
1
60
0
100
AcDbSpline
70
4
71
3
72
22
73
18
40
0
40
0
40
0
40
0
40
0.125
40
0.125
40
0.25
40
0.25
40
0.375
40
0.375
40
0.5
40
0.5
40
0.625
40
0.625
40
0.75
40
0.75
40
0.875
40
0.875
40
1
40
1
40
1
40
1
41
1
10
13.1727080024883
20
3.41486074853273
30
0
41
1
10
13.1972184643028
20
3.4070964296703
30
0
41
1
10
13.2213428801093
20
3.39697149328643
30
0
41
1
10
13.2675785585806
20
3.37221622257712
30
0
41
1
10
13.2897675111589
20
3.35760133507671
30
0
41
1
10
13.3322209867412
20
3.32319076089559
30
0
41
1
10
13.3522862750158
20
3.30346163756411
30
0
41
1
10
13.3883012862184
20
3.25997063740365
30
0
41
1
10
13.4045882038659
20
3.23569526912422
30
0
41
1
10
13.4313482305834
20
3.18530898862178
30
0
41
1
10
13.4421799433026
20
3.15869556714739
30
0
41
1
10
13.4581950092521
20
3.1041335546347
30
0
41
1
10
13.4632207491272
20
3.07694649988224
30
0
41
1
10
13.4680315780416
20
3.02259868779299
30
0
41
1
10
13.4677361754916
20
2.99554159308718
30
0
41
1
10
13.4624044780282
20
2.94352510276724
30
0
41
1
10
13.457397736385
20
2.91825091554532
30
0
41
1
10
13.4501545563609
20
2.89359925403181
30
0
0
SPLINE
5
E6
100
AcDbEntity
8
1
62
256
6
ByLayer
370
18
48
1
60
0
100
AcDbSpline
70
4
71
3
72
14
73
10
40
0
40
0
40
0
40
0
40
0.25
40
0.25
40
0.5
40
0.5
40
0.75
40
0.75
40
1
40
1
40
1
40
1
41
1
10
14.7269236664247
20
3.19011913871879
30
0
41
1
10
14.7425198927442
20
3.21171693293652
30
0
41
1
10
14.7601178497561
20
3.23170260162638
30
0
41
1
10
14.7975553751285
20
3.26716552063849
30
0
41
1
10
14.8174240275132
20
3.28276610065276
30
0
41
1
10
14.85935883356
20
3.31013692196714
30
0
41
1
10
14.8811091384677
20
3.32166568398904
30
0
41
1
10
14.925211853765
20
3.34052007296427
30
0
41
1
10
14.9477139830624
20
3.34793667578296
30
0
41
1
10
14.9707029212999
20
3.35344574996654
30
0
0
SPLINE
5
E7
100
AcDbEntity
8
1
62
256
6
ByLayer
370
18
48
1
60
0
100
AcDbSpline
70
4
71
3
72
18
73
14
40
0
40
0
40
0
40
0
40
0.124999999999998
40
0.124999999999998
40
0.249999999999996
40
0.249999999999996
40
0.374999999999994
40
0.374999999999994
40
0.499999999999992
40
0.499999999999992
40
0.749999999999996
40
0.749999999999996
40
1
40
1
40
1
40
1
41
1
10
15.1124829037427
20
3.52705430385171
30
0
41
1
10
15.1121244010823
20
3.51652922925806
30
0
41
1
10
15.1108763454192
20
3.50611274824303
30
0
41
1
10
15.1066032568508
20
3.48549689819143
30
0
41
1
10
15.1035480694965
20
3.47528927591787
30
0
41
1
10
15.0959589255022
20
3.45599295354523
30
0
41
1
10
15.091405830268
20
3.44678074624804
30
0
41
1
10
15.0808330731554
20
3.42920420479393
30
0
41
1
10
15.0747626049419
20
3.4208076296683
30
0
41
1
10
15.0551769504974
20
3.39788781959504
30
0
41
1
10
15.0399308999973
20
3.38508571830985
30
0
41
1
10
15.0066366091683
20
3.36496260041514
30
0
41
1
10
14.9890691478913
20
3.35784703652092
30
0
41
1
10
14.9707029212999
20
3.35344574996654
30
0
0
SPLINE
5
E8
100
AcDbEntity
8
1
62
256
6
ByLayer
370
18
48
1
60
0
100
AcDbSpline
70
4
71
3
72
18
73
14
40
0
40
0
40
0
40
0
40
0.249999999999994
40
0.249999999999994
40
0.499999999999988
40
0.499999999999988
40
0.624999999999991
40
0.624999999999991
40
0.749999999999994
40
0.749999999999994
40
0.874999999999997
40
0.874999999999997
40
1
40
1
40
1
40
1
41
1
10
14.9834575723739
20
3.70971485497907
30
0
41
1
10
15.0013722887329
20
3.70403990804439
30
0
41
1
10
15.0184199595044
20
3.69568690164897
30
0
41
1
10
15.0501699701649
20
3.67326932354848
30
0
41
1
10
15.0643721442552
20
3.65953904060012
30
0
41
1
10
15.0823680956793
20
3.63518845919543
30
0
41
1
10
15.0876960423238
20
3.62659861507646
30
0
41
1
10
15.096968007548
20
3.60845170777412
30
0
41
1
10
15.1009400619202
20
3.59879311212677
30
0
41
1
10
15.1071721444331
20
3.57899227842563
30
0
41
1
10
15.1094490590653
20
3.56886911553892
30
0
41
1
10
15.112291378263
20
3.5481702724858
30
0
41
1
10
15.1128391201386
20
3.53751225731151
30
0
41
1
10
15.1124829037427
20
3.52705430385171
30
0
0
SPLINE
5
E9
100
AcDbEntity
8
1
62
256
6
ByLayer
370
18
48
1
60
0
100
AcDbSpline
70
4
71
3
72
22
73
18
40
0
40
0
40
0
40
0
40
0.125
40
0.125
40
0.25
40
0.25
40
0.375
40
0.375
40
0.5
40
0.5
40
0.625
40
0.625
40
0.75
40
0.75
40
0.875
40
0.875
40
1
40
1
40
1
40
1
41
1
10
14.9834575723739
20
3.70971485497907
30
0
41
1
10
14.9589471105594
20
3.7174791738415
30
0
41
1
10
14.9348226947529
20
3.72760411022537
30
0
41
1
10
14.8885870162816
20
3.75235938093468
30
0
41
1
10
14.8663980637033
20
3.76697426843506
30
0
41
1
10
14.823944588121
20
3.80138484261619
30
0
41
1
10
14.8038792998464
20
3.82111396594769
30
0
41
1
10
14.7678642886438
20
3.86460496610815
30
0
41
1
10
14.7515773709963
20
3.88888033438758
30
0
41
1
10
14.7248173442788
20
3.93926661489002
30
0
41
1
10
14.7139856315596
20
3.96588003636441
30
0
41
1
10
14.6979705656102
20
4.02044204887707
30
0
41
1
10
14.692944825735
20
4.04762910362953
30
0
41
1
10
14.6881339968206
20
4.10197691571881
30
0
41
1
10
14.6884293993707
20
4.12903401042462
30
0
41
1
10
14.693761096834
20
4.18105050074456
30
0
41
1
10
14.6987678384773
20
4.20632468796649
30
0
41
1
10
14.7060110185013
20
4.23097634947999
30
0
0
SPLINE
5
EA
100
AcDbEntity
8
1
62
256
6
ByLayer
370
18
48
1
60
0
100
AcDbSpline
70
4
71
3
72
18
73
14
40
0
40
0
40
0
40
0
40
0.124999999999995
40
0.124999999999995
40
0.24999999999999
40
0.24999999999999
40
0.374999999999985
40
0.374999999999985
40
0.49999999999998
40
0.49999999999998
40
0.74999999999999
40
0.74999999999999
40
1
40
1
40
1
40
1
41
1
10
14.5632016108039
20
2.64802048460552
30
0
41
1
10
14.5539277910717
20
2.64309970877523
30
0
41
1
10
14.544304042862
20
2.63899765292516
30
0
41
1
10
14.5243565095478
20
2.63243184535713
30
0
41
1
10
14.5140196893759
20
2.62999234281369
30
0
41
1
10
14.4935721792786
20
2.62694082409988
30
0
41
1
10
14.4833450924733
20
2.62628449515412
30
0
41
1
10
14.4628887027548
20
2.62665748851291
30
0
41
1
10
14.4526110685316
20
2.62771423795837
30
0
41
1
10
14.4230508916376
20
2.63319596936933
30
0
41
1
10
14.4043802941167
20
2.63997125223292
30
0
41
1
10
14.3703779406088
20
2.65866038167641
30
0
41
1
10
14.3554530015678
20
2.67026631041739
30
0
41
1
10
14.34246641248
20
2.68391456899076
30
0
0
LINE
5
70
100
AcDbEntity
8
80
62
256
6
ByLayer
370
18
48
0.05
60
0
100
AcDbLine
10
0
20
0
30
0
11
0
21
-4.147212
31
0
39
0
210
0
220
0
230
1
0
LINE
5
71
100
AcDbEntity
8
81
62
256
6
ByLayer
370
18
48
0.05
60
0
100
AcDbLine
10
17
20
8
30
0
11
26.096212
21
8
31
0
39
0
210
0
220
0
230
1
0
LINE
5
72
100
AcDbEntity
8
4
62
256
6
ByLayer
370
18
48
0.05
60
0
100
AcDbLine
10
0
20
0
30
0
11
0
21
8.479019
31
0
39
0
210
0
220
0
230
1
0
LINE
5
74
100
AcDbEntity
8
SK4
62
256
6
ByLayer
370
18
48
0.05
60
0
100
AcDbLine
10
0
20
8.479019
30
0
11
0
21
-4.147212
31
0
39
0
210
0
220
0
230
1
0
LINE
5
76
100
AcDbEntity
8
2
62
256
6
ByLayer
370
13
48
1
60
0
100
AcDbLine
10
47.077346
20
6.825
30
0
11
47.208998
21
4.825
31
0
39
0
210
0
220
0
230
1
0
LINE
5
78
100
AcDbEntity
8
2
62
256
6
ByLayer
370
13
48
1
60
0
100
AcDbLine
10
19
20
8
30
0
11
49
21
8
31
0
39
0
210
0
220
0
230
1
0
LINE
5
79
100
AcDbEntity
8
2
62
256
6
ByLayer
370
13
48
1
60
0
100
AcDbLine
10
47
20
8
30
0
11
47.417997
21
4.825
31
0
39
0
210
0
220
0
230
1
0
LINE
5
7A
100
AcDbEntity
8
2
62
256
6
ByLayer
370
13
48
1
60
0
100
AcDbLine
10
46.922654
20
6.825
30
0
11
46.791002
21
4.825
31
0
39
0
210
0
220
0
230
1
0
LINE
5
7B
100
AcDbEntity
8
2
62
256
6
ByLayer
370
13
48
1
60
0
100
AcDbLine
10
47
20
8
30
0
11
46.582003
21
4.825
31
0
39
0
210
0
220
0
230
1
0
LINE
5
7C
100
AcDbEntity
8
2
62
256
6
ByLayer
370
18
48
1
60
0
100
AcDbLine
10
47
20
8
30
0
11
47
21
-42
31
0
39
0
210
0
220
0
230
1
0
LINE
5
7D
100
AcDbEntity
8
2
62
256
6
ByLayer
370
13
48
1
60
0
100
AcDbLine
10
46.582003
20
4.825
30
0
11
47.417997
21
4.825
31
0
39
0
210
0
220
0
230
1
0
LINE
5
7E
100
AcDbEntity
8
1
62
256
6
ByLayer
370
18
48
1
60
0
100
AcDbLine
10
13.926874
20
7.2736
30
0
11
12.880934
21
7.205045
31
0
39
0
210
0
220
0
230
1
0
LINE
5
80
100
AcDbEntity
8
1
62
256
6
ByLayer
370
18
48
1
60
0
100
AcDbLine
10
-5.784445
20
4.665555
30
0
11
-7.8
21
2.65
31
0
39
0
210
0
220
0
230
1
0
LINE
5
81
100
AcDbEntity
8
1
62
256
6
ByLayer
370
18
48
1
60
0
100
AcDbLine
10
12.880934
20
7.205045
30
0
11
6.69877
21
6.36369
31
0
39
0
210
0
220
0
230
1
0
LINE
5
82
100
AcDbEntity
8
1
62
256
6
ByLayer
370
18
48
1
60
0
100
AcDbLine
10
-4.82409
20
4.795497
30
0
11
-5.779256
21
4.665505
31
0
39
0
210
0
220
0
230
1
0
LINE
5
83
100
AcDbEntity
8
1
62
256
6
ByLayer
370
18
48
1
60
0
100
AcDbLine
10
-7.8
20
2.650161
30
0
11
-7.8
21
0
31
0
39
0
210
0
220
0
230
1
0
LINE
5
84
100
AcDbEntity
8
1
62
256
6
ByLayer
370
18
48
1
60
0
100
AcDbLine
10
8.390136
20
2.510538
30
0
11
7.382262
21
4.996966
31
0
39
0
210
0
220
0
230
1
0
LINE
5
85
100
AcDbEntity
8
1
62
256
6
ByLayer
370
18
48
1
60
0
100
AcDbLine
10
9.419453
20
-0.162124
30
0
11
9.354539
21
-0.121562
31
0
39
0
210
0
220
0
230
1
0
LINE
5
86
100
AcDbEntity
8
1
62
256
6
ByLayer
370
18
48
1
60
0
100
AcDbLine
10
16.060451
20
-1.333111
30
0
11
9.441218
21
2.803044
31
0
39
0
210
0
220
0
230
1
0
LINE
5
87
100
AcDbEntity
8
1
62
256
6
ByLayer
370
18
48
1
60
0
100
AcDbLine
10
8.41132
20
4.478845
30
0
11
9.30031
21
5.279295
31
0
39
0
210
0
220
0
230
1
0
LINE
5
88
100
AcDbEntity
8
1
62
256
6
ByLayer
370
18
48
1
60
0
100
AcDbLine
10
10.675637
20
5.274048
30
0
11
12.548471
21
6.259394
31
0
39
0
210
0
220
0
230
1
0
LINE
5
89
100
AcDbEntity
8
1
62
256
6
ByLayer
370
18
48
1
60
0
100
AcDbLine
10
8.699996
20
2.810901
30
0
11
8.9
21
2.317491
31
0
39
0
210
0
220
0
230
1
0
LINE
5
8A
100
AcDbEntity
8
1
62
256
6
ByLayer
370
18
48
1
60
0
100
AcDbLine
10
7.252308
20
6.382351
30
0
11
8.163445
21
4.134574
31
0
39
0
210
0
220
0
230
1
0
LINE
5
8B
100
AcDbEntity
8
1
62
256
6
ByLayer
370
18
48
1
60
0
100
AcDbLine
10
8.930604
20
0
30
0
11
8.9
21
0
31
0
39
0
210
0
220
0
230
1
0
LINE
5
8C
100
AcDbEntity
8
1
62
256
6
ByLayer
370
18
48
1
60
0
100
AcDbLine
10
10.49936
20
5.384199
30
0
11
10.675637
21
5.274048
31
0
39
0
210
0
220
0
230
1
0
LINE
5
8D
100
AcDbEntity
8
1
62
256
6
ByLayer
370
18
48
1
60
0
100
AcDbLine
10
15.191395
20
7.302071
30
0
11
13.924969
21
7.219065
31
0
39
0
210
0
220
0
230
1
0
LINE
5
8E
100
AcDbEntity
8
1
62
256
6
ByLayer
370
18
48
1
60
0
100
AcDbLine
10
8.9
20
2.317491
30
0
11
8.5
21
1.947047
31
0
39
0
210
0
220
0
230
1
0
LINE
5
8F
100
AcDbEntity
8
1
62
256
6
ByLayer
370
18
48
1
60
0
100
AcDbLine
10
8.390136
20
2.510538
30
0
11
8.9
21
2.317491
31
0
39
0
210
0
220
0
230
1
0
LINE
5
90
100
AcDbEntity
8
1
62
256
6
ByLayer
370
18
48
1
60
0
100
AcDbLine
10
13.903963
20
6.617528
30
0
11
13.926854
21
7.273037
31
0
39
0
210
0
220
0
230
1
0
LINE
5
91
100
AcDbEntity
8
1
62
256
6
ByLayer
370
18
48
1
60
0
100
AcDbLine
10
10.507503
20
5.01907
30
0
11
10.557497
21
5.099076
31
0
39
0
210
0
220
0
230
1
0
LINE
5
92
100
AcDbEntity
8
1
62
256
6
ByLayer
370
18
48
1
60
0
100
AcDbLine
10
12.433823
20
7.087525
30
0
11
7.252308
21
6.382351
31
0
39
0
210
0
220
0
230
1
0
LINE
5
93
100
AcDbEntity
8
1
62
256
6
ByLayer
370
18
48
1
60
0
100
AcDbLine
10
16.060451
20
-1.333111
30
0
11
16.117487
21
-1.343169
31
0
39
0
210
0
220
0
230
1
0
LINE
5
94
100
AcDbEntity
8
1
62
256
6
ByLayer
370
18
48
1
60
0
100
AcDbLine
10
16.060451
20
-1.333111
30
0
11
9.419453
21
-0.162124
31
0
39
0
210
0
220
0
230
1
0
LINE
5
95
100
AcDbEntity
8
1
62
256
6
ByLayer
370
18
48
1
60
0
100
AcDbLine
10
8.5
20
0
30
0
11
7.382262
21
0
31
0
39
0
210
0
220
0
230
1
0
LINE
5
96
100
AcDbEntity
8
1
62
256
6
ByLayer
370
18
48
1
60
0
100
AcDbLine
10
13.41095
20
6.355388
30
0
11
13.364782
21
6.688876
31
0
39
0
210
0
220
0
230
1
0
LINE
5
97
100
AcDbEntity
8
1
62
256
6
ByLayer
370
18
48
1
60
0
100
AcDbLine
10
12.548471
20
6.259394
30
0
11
12.433823
21
7.087525
31
0
39
0
210
0
220
0
230
1
0
LINE
5
98
100
AcDbEntity
8
SK1
62
256
6
ByLayer
370
18
48
1
60
0
100
AcDbLine
10
-7.8
20
0
30
0
11
0
21
0
31
0
39
0
210
0
220
0
230
1
0
LINE
5
9A
100
AcDbEntity
8
1
62
256
6
ByLayer
370
18
48
1
60
0
100
AcDbLine
10
12.880934
20
7.205045
30
0
11
12.885481
21
7.159886
31
0
39
0
210
0
220
0
230
1
0
LINE
5
9B
100
AcDbEntity
8
1
62
256
6
ByLayer
370
18
48
1
60
0
100
AcDbLine
10
8.5
20
1.947047
30
0
11
8.5
21
0
31
0
39
0
210
0
220
0
230
1
0
LINE
5
9C
100
AcDbEntity
8
1
62
256
6
ByLayer
370
18
48
1
60
0
100
AcDbLine
10
13.820857
20
6.573343
30
0
11
13.847688
21
7.241967
31
0
39
0
210
0
220
0
230
1
0
LINE
5
9D
100
AcDbEntity
8
1
62
256
6
ByLayer
370
18
48
1
60
0
100
AcDbLine
10
7.310123
20
5.174933
30
0
11
6.86026
21
6.284746
31
0
39
0
210
0
220
0
230
1
0
LINE
5
9E
100
AcDbEntity
8
1
62
256
6
ByLayer
370
18
48
1
60
0
100
AcDbLine
10
7.382262
20
0
30
0
11
0
21
0
31
0
39
0
210
0
220
0
230
1
0
LINE
5
9F
100
AcDbEntity
8
1
62
256
6
ByLayer
370
18
48
1
60
0
100
AcDbLine
10
10.507503
20
5.01907
30
0
11
10.686887
21
4.906979
31
0
39
0
210
0
220
0
230
1
0
LINE
5
A0
100
AcDbEntity
8
1
62
256
6
ByLayer
370
18
48
1
60
0
100
AcDbLine
10
8.5
20
0
30
0
11
8.9
21
0
31
0
39
0
210
0
220
0
230
1
0
LINE
5
A1
100
AcDbEntity
8
1
62
256
6
ByLayer
370
18
48
1
60
0
100
AcDbLine
10
8.9
20
0
30
0
11
8.9
21
2.317491
31
0
39
0
210
0
220
0
230
1
0
LINE
5
A2
100
AcDbEntity
8
1
62
256
6
ByLayer
370
18
48
1
60
0
100
AcDbLine
10
13.926874
20
7.2736
30
0
11
13.926854
21
7.273037
31
0
39
0
210
0
220
0
230
1
0
LINE
5
A3
100
AcDbEntity
8
1
62
256
6
ByLayer
370
18
48
1
60
0
100
AcDbLine
10
12.548471
20
6.259394
30
0
11
13.364782
21
6.688876
31
0
39
0
210
0
220
0
230
1
0
LINE
5
A4
100
AcDbEntity
8
1
62
256
6
ByLayer
370
18
48
1
60
0
100
AcDbLine
10
7.382262
20
4.996966
30
0
11
7.382262
21
0
31
0
39
0
210
0
220
0
230
1
0
LINE
5
A5
100
AcDbEntity
8
1
62
256
6
ByLayer
370
18
48
1
60
0
100
AcDbLine
10
10.557497
20
5.099076
30
0
11
10.783073
21
4.95812
31
0
39
0
210
0
220
0
230
1
0
LINE
5
A6
100
AcDbEntity
8
1
62
256
6
ByLayer
370
18
48
1
60
0
100
AcDbLine
10
16.117487
20
-1.343169
30
0
11
16.129541
21
-0.997996
31
0
39
0
210
0
220
0
230
1
0
LINE
5
A7
100
AcDbEntity
8
1
62
256
6
ByLayer
370
18
48
1
60
0
100
AcDbLine
10
7.310123
20
5.174933
30
0
11
7.382262
21
4.996966
31
0
39
0
210
0
220
0
230
1
0
LINE
5
A8
100
AcDbEntity
8
1
62
256
6
ByLayer
370
18
48
1
60
0
100
AcDbLine
10
16.41662
20
7.95353
30
0
11
9.127928
21
4.078064
31
0
39
0
210
0
220
0
230
1
0
LINE
5
A9
100
AcDbEntity
8
1
62
256
6
ByLayer
370
18
48
1
60
0
100
AcDbLine
10
16.711664
20
-0.660781
30
0
11
16.999758
21
7.589145
31
0
39
0
210
0
220
0
230
1
0
LINE
5
AA
100
AcDbEntity
8
1
62
256
6
ByLayer
370
18
48
1
60
0
100
AcDbLine
10
9.10393
20
3.390859
30
0
11
16.104528
21
-0.983601
31
0
39
0
210
0
220
0
230
1
0
MTEXT
5
EB
100
AcDbEntity
8
SK6
62
256
6
ByLayer
370
18
48
1
60
0
100
AcDbMText
10
21.822147
20
18.698297
30
0
210
0
220
0
230
1
1
\W0.7683;R826B-CF17STUC09HP
40
3
41
0
44
1.084337
50
0
71
7
72
5
7
iso_b_vert
0
DIMENSION
5
F9
100
AcDbEntity
8
SK2
62
256
6
ByLayer
370
13
48
1
60
0
100
AcDbDimension
2
DimnDraft3D1
10
17
20
22.840882
30
0
11
5.432895
21
22.840882
31
0
70
32
71
5
72
1
41
1
210
0
220
0
230
1
3
Standard
100
AcDbAlignedDimension
13
0
23
10.479019
33
0
14
17
24
10
34
0
50
0
100
AcDbRotatedDimension
1001
ACAD
1000
DSTYLE
1002
{
1070
   279
1070
     0
1070
   172
1070
     1
1070
   173
1070
     1
1070
   340
1005
EC
1070
   271
1070
     1
1070
    77
1070
     1
1070
    73
1070
     0
1070
   171
1070
     4
1070
   274
1070
     4
1070
   177
1070
     7
1070
   176
1070
     7
1070
   178
1070
     7
1070
    41
1041
3.175
1070
   147
1041
1.5
1070
    42
1041
2.0
1070
    44
1041
2.0
1070
   140
1041
3.0
1070
   343
1005
0
1070
   344
1005
0
1002
}
0
DIMENSION
5
103
100
AcDbEntity
8
2
62
256
6
ByLayer
370
13
48
1
60
0
100
AcDbDimension
2
DimnDraft3D2
10
18
20
8
30
0
11
24.07019
21
0.693211
31
0
70
34
71
5
72
1
41
1
210
0
220
0
230
1
3
Standard
100
AcDb2LineAngularDimension
13
16.711664
23
-0.660781
33
0
14
16.999758
24
7.589145
34
0
15
17
25
8
35
0
16
26.154165
26
-1.464809
36
0
40
0
0
ENDSEC
0
SECTION
2
OBJECTS
0
DICTIONARY
5
16e
330
0
100
AcDbDictionary
280
0
281
1
3
ACAD_GROUP
350
16f
3
ACAD_MLINESTYLE
350
170
0
DICTIONARY
5
16f
330
0
100
AcDbDictionary
280
0
281
1
0
DICTIONARY
5
170
330
0
100
AcDbDictionary
280
0
281
1
3
Standard
350
18
0
MLINESTYLE
5
18
330
170
100
AcDbMlineStyle
2
Standard
70
0
3

62
256
51
90
52
90
71
2
49
-0.5
62
256
6
ByLayer
49
0.5
62
256
6
ByLayer
0
RASTERVARIABLES
5
15c
330

100
AcDbRasterVariables
90
0
70
1
71
1
72
1
0
ENDSEC
0
EOF
