0
SECTION
2
HEADER
9
$ACADVER
1
AC1015
9
$DWGCODEPAGE
3
ANSI_1252
9
$HANDSEED
5
203
9
$ANGBASE
50
0
9
$ANGDIR
70
0
9
$ATTMODE
70
1
9
$AUNITS
70
0
9
$AUPREC
70
0
9
$CECOLOR
62
256
9
$CELTSCALE
40
1
9
$CELTYPE
6
ByLayer
9
$CELWEIGHT
370
18
9
$CLAYER
8
0
9
$CMLJUST
70
0
9
$CMLSCALE
40
1
9
$CMLSTYLE
2
Standard
9
$DIMSTYLE
2
Standard
9
$TEXTSIZE
40
0.2
9
$TEXTSTYLE
7
Standard
9
$LUNITS
70
2
9
$LUPREC
70
4
9
$EXTNAMES
290
1
9
$INSUNITS
70
4
9
$LTSCALE
40
1
9
$LWDISPLAY
290
1
9
$PDMODE
70
0
9
$PDSIZE
40
0
9
$PLINEGEN
70
0
0
ENDSEC
0
SECTION
2
CLASSES
0
CLASS
1
RASTERVARIABLES
2
AcDbRasterVariables
3
ISM
90
0
280
0
281
0
0
ENDSEC
0
SECTION
2
TABLES
0
TABLE
2
VPORT
5
1f9
100
AcDbSymbolTable
0
VPORT
5
1
100
AcDbSymbolTableRecord
100
AcDbViewportTableRecord
2
*Active
70
0
10
0
20
0
11
1
21
1
12
-1
22
1
13
0
23
0
14
0.5
24
0.5
15
10
25
10
16
0
26
0
36
1
17
0
27
0
37
0
0
ENDTAB
0
TABLE
2
LTYPE
5
1fa
100
AcDbSymbolTable
0
LTYPE
5
14
100
AcDbSymbolTableRecord
100
AcDbLinetypeTableRecord
70
0
2
ByBlock
3

72
65
73
0
40
0
0
LTYPE
5
15
100
AcDbSymbolTableRecord
100
AcDbLinetypeTableRecord
70
0
2
ByLayer
3

72
65
73
0
40
0
0
LTYPE
5
16
100
AcDbSymbolTableRecord
100
AcDbLinetypeTableRecord
70
0
2
CONTINUOUS
3
Solid line
72
65
73
0
40
0
0
LTYPE
5
6A
100
AcDbSymbolTableRecord
100
AcDbLinetypeTableRecord
70
0
2
CENTER
3
____ _ ____ _ ____ _ ____
72
65
73
4
40
47.5
49
22
74
0
49
-8.5
74
0
49
8.5
74
0
49
-8.5
74
0
0
LTYPE
5
6B
100
AcDbSymbolTableRecord
100
AcDbLinetypeTableRecord
70
0
2
DASHED
3
__ __ __ __ __ __ __ __ __
72
65
73
2
40
25.72
49
12.86
74
0
49
-12.86
74
0
0
ENDTAB
0
TABLE
2
LAYER
5
1fb
100
AcDbSymbolTable
0
LAYER
5
10
100
AcDbSymbolTableRecord
100
AcDbLayerTableRecord
2
0
70
0
62
7
6
CONTINUOUS
290
1
370
-3
390
0
0
LAYER
5
6D
100
AcDbSymbolTableRecord
100
AcDbLayerTableRecord
2
81
70
0
62
-3
6
CONTINUOUS
290
1
370
-3
390
0
0
LAYER
5
6F
100
AcDbSymbolTableRecord
100
AcDbLayerTableRecord
2
80
70
0
62
-6
6
CONTINUOUS
290
1
370
-3
390
0
0
LAYER
5
73
100
AcDbSymbolTableRecord
100
AcDbLayerTableRecord
2
1
70
0
62
4
6
CONTINUOUS
290
1
370
-3
390
0
0
LAYER
5
90
100
AcDbSymbolTableRecord
100
AcDbLayerTableRecord
2
4
70
0
62
-2
6
CENTER
290
1
370
-3
390
0
0
LAYER
5
16E
100
AcDbSymbolTableRecord
100
AcDbLayerTableRecord
2
2
70
0
62
7
6
CONTINUOUS
290
1
370
-3
390
0
0
LAYER
5
1e6
100
AcDbSymbolTableRecord
100
AcDbLayerTableRecord
2
SK1
70
0
62
4
6
CONTINUOUS
290
1
370
-3
390
0
0
LAYER
5
1e7
100
AcDbSymbolTableRecord
100
AcDbLayerTableRecord
2
SK4
70
0
62
2
6
CENTER
290
1
370
-3
390
0
0
LAYER
5
1e8
100
AcDbSymbolTableRecord
100
AcDbLayerTableRecord
2
SK6
70
0
62
5
6
CONTINUOUS
290
1
370
-3
390
0
0
ENDTAB
0
TABLE
2
STYLE
5
1fc
100
AcDbSymbolTable
0
STYLE
5
11
100
AcDbSymbolTableRecord
100
AcDbTextStyleTableRecord
2
Standard
3
txt
70
0
71
0
40
0
41
1
42
0
50
0
0
STYLE
5
16A
100
AcDbSymbolTableRecord
100
AcDbTextStyleTableRecord
2
iso_b_vert
3
simplex.shx
70
0
71
0
40
0
41
1
42
0
50
0
0
STYLE
5
16B
100
AcDbSymbolTableRecord
100
AcDbTextStyleTableRecord
2
DWGDirectTextStyle
3
simplex
70
0
71
0
40
0
41
1
42
0
50
0
0
ENDTAB
0
TABLE
2
DIMSTYLE
5
1fd
100
AcDbSymbolTable
100
AcDbDimStyleTable
0
DIMSTYLE
105
27
100
AcDbSymbolTableRecord
100
AcDbDimStyleTableRecord
2
Standard
70
0
3
<>
41
0.18
42
0.0625
44
0.18
140
0.18
147
0.09
73
0
74
0
77
1
271
2
275
0
278
52
280
0
340
11
0
ENDTAB
0
TABLE
2
VIEW
5
1fe
100
AcDbSymbolTable
0
ENDTAB
0
TABLE
2
UCS
5
1ff
100
AcDbSymbolTable
0
ENDTAB
0
TABLE
2
APPID
5
200
100
AcDbSymbolTable
0
APPID
5
12
100
AcDbSymbolTableRecord
100
AcDbRegAppTableRecord
2
ACAD
70
0
0
ENDTAB
0
TABLE
2
BLOCK_RECORD
5
201
100
AcDbSymbolTable
0
BLOCK_RECORD
5
1F
100
AcDbSymbolTableRecord
100
AcDbBlockTableRecord
2
*Model_Space
340
0
70
0
0
BLOCK_RECORD
5
1B
100
AcDbSymbolTableRecord
100
AcDbBlockTableRecord
2
*Paper_Space
340
0
70
0
0
BLOCK_RECORD
5
23
100
AcDbSymbolTableRecord
100
AcDbBlockTableRecord
2
*Paper_Space0
340
0
70
0
0
BLOCK_RECORD
5
16F
100
AcDbSymbolTableRecord
100
AcDbBlockTableRecord
2
DimnDraft3D1
340
0
70
0
0
BLOCK_RECORD
5
179
100
AcDbSymbolTableRecord
100
AcDbBlockTableRecord
2
DimnDraft3D2
340
0
70
0
0
BLOCK_RECORD
5
183
100
AcDbSymbolTableRecord
100
AcDbBlockTableRecord
2
DimnDraft3D3
340
0
70
0
0
ENDTAB
0
ENDSEC
0
SECTION
2
BLOCKS
0
BLOCK
5
20
100
AcDbEntity
8
0
100
AcDbBlockBegin
2
*Model_Space
70
0
10
0
20
0
30
0
3
*Model_Space
0
ENDBLK
5
21
100
AcDbEntity
8
0
100
AcDbBlockEnd
0
BLOCK
5
1C
100
AcDbEntity
8
0
100
AcDbBlockBegin
2
*Paper_Space
70
0
10
0
20
0
30
0
3
*Paper_Space
0
ENDBLK
5
1D
100
AcDbEntity
8
0
100
AcDbBlockEnd
0
BLOCK
5
24
100
AcDbEntity
8
0
100
AcDbBlockBegin
2
*Paper_Space0
70
0
10
0
20
0
30
0
3
*Paper_Space0
0
ENDBLK
5
25
100
AcDbEntity
8
0
100
AcDbBlockEnd
0
BLOCK
5
176
100
AcDbEntity
8
0
100
AcDbBlockBegin
2
DimnDraft3D1
70
0
10
0
20
0
30
0
3
DimnDraft3D1
0
MTEXT
5
170
100
AcDbEntity
8
2
62
256
6
ByLayer
370
18
48
1
60
0
100
AcDbMText
10
42.535144
20
0.368421
30
0
210
0
220
0
230
1
1
\W0.2813; 
40
3.5
41
0
44
1.084337
50
90
71
7
72
5
7
iso_b_vert
0
LINE
5
171
100
AcDbEntity
8
2
62
256
6
ByLayer
370
13
48
1
60
0
100
AcDbLine
10
20
20
34.5
30
0
11
45.410144
21
34.5
31
0
39
0
210
0
220
0
230
1
0
LINE
5
172
100
AcDbEntity
8
2
62
256
6
ByLayer
370
13
48
1
60
0
100
AcDbLine
10
19.884806
20
-34.5
30
0
11
45.410144
21
-34.5
31
0
39
0
210
0
220
0
230
1
0
LINE
5
173
100
AcDbEntity
8
2
62
256
6
ByLayer
370
13
48
1
60
0
100
AcDbLine
10
43.410144
20
34.5
30
0
11
43.410144
21
-34.5
31
0
39
0
210
0
220
0
230
1
0
SOLID
5
174
100
AcDbEntity
8
2
62
256
6
ByLayer
370
13
48
1
60
0
100
AcDbTrace
10
43.410144
20
34.5
30
0
11
43.828141
21
31.325002
31
0
12
42.992147
22
31.324998
32
0
13
43.410144
23
34.5
33
0
39
0
210
0
220
0
230
1
0
SOLID
5
175
100
AcDbEntity
8
2
62
256
6
ByLayer
370
13
48
1
60
0
100
AcDbTrace
10
43.410144
20
-34.5
30
0
11
42.992147
21
-31.325002
31
0
12
43.828141
22
-31.324998
32
0
13
43.410144
23
-34.5
33
0
39
0
210
0
220
0
230
1
0
ENDBLK
5
177
100
AcDbEntity
8
0
100
AcDbBlockEnd
0
BLOCK
5
180
100
AcDbEntity
8
0
100
AcDbBlockBegin
2
DimnDraft3D2
70
0
10
0
20
0
30
0
3
DimnDraft3D2
0
MTEXT
5
17A
100
AcDbEntity
8
2
62
256
6
ByLayer
370
18
48
1
60
0
100
AcDbMText
10
6.682895
20
59.25
30
0
210
0
220
0
230
1
1
\W0.6367;18.0
40
3
41
0
44
1.084337
50
0
71
7
72
5
7
iso_b_vert
0
LINE
5
17B
100
AcDbEntity
8
2
62
256
6
ByLayer
370
13
48
1
60
0
100
AcDbLine
10
18
20
36.5
30
0
11
18
21
60.5
31
0
39
0
210
0
220
0
230
1
0
LINE
5
17C
100
AcDbEntity
8
2
62
256
6
ByLayer
370
13
48
1
60
0
100
AcDbLine
10
0
20
2
30
0
11
0
21
60.5
31
0
39
0
210
0
220
0
230
1
0
LINE
5
17D
100
AcDbEntity
8
2
62
256
6
ByLayer
370
13
48
1
60
0
100
AcDbLine
10
18
20
58.5
30
0
11
0
21
58.5
31
0
39
0
210
0
220
0
230
1
0
SOLID
5
17E
100
AcDbEntity
8
2
62
256
6
ByLayer
370
13
48
1
60
0
100
AcDbTrace
10
18
20
58.5
30
0
11
14.825002
21
58.082003
31
0
12
14.824998
22
58.917997
32
0
13
18
23
58.5
33
0
39
0
210
0
220
0
230
1
0
SOLID
5
17F
100
AcDbEntity
8
2
62
256
6
ByLayer
370
13
48
1
60
0
100
AcDbTrace
10
0
20
58.5
30
0
11
3.174998
21
58.917997
31
0
12
3.175002
22
58.082003
32
0
13
0
23
58.5
33
0
39
0
210
0
220
0
230
1
0
ENDBLK
5
181
100
AcDbEntity
8
0
100
AcDbBlockEnd
0
BLOCK
5
18A
100
AcDbEntity
8
0
100
AcDbBlockBegin
2
DimnDraft3D3
70
0
10
0
20
0
30
0
3
DimnDraft3D3
0
MTEXT
5
184
100
AcDbEntity
8
2
62
256
6
ByLayer
370
18
48
1
60
0
100
AcDbMText
10
27.833804
20
21.900106
30
0
210
0
220
0
230
1
1
\W0.8385;90%%d
40
3
41
0
44
1.084337
50
45
71
7
72
5
7
iso_b_vert
0
LINE
5
185
100
AcDbEntity
8
2
62
256
6
ByLayer
370
13
48
1
60
0
100
AcDbLine
10
18
20
20.42258
30
0
11
18
21
15.88698
31
0
39
0
210
0
220
0
230
1
0
LINE
5
186
100
AcDbEntity
8
2
62
256
6
ByLayer
370
13
48
1
60
0
100
AcDbLine
10
20
20
34.5
30
0
11
36.61302
21
34.5
31
0
39
0
210
0
220
0
230
1
0
ARC
5
187
100
AcDbEntity
8
2
62
256
6
ByLayer
370
13
48
1
60
0
100
AcDbCircle
39
0
10
18
20
34.5
30
0
40
16.6130200307806
210
0
220
0
230
1
100
AcDbArc
50
270
51
0
0
SOLID
5
188
100
AcDbEntity
8
2
62
256
6
ByLayer
370
13
48
1
60
0
100
AcDbTrace
10
18
20
17.88698
30
0
11
21.151494
21
18.455684
31
0
12
21.191304
22
17.620639
32
0
13
18
23
17.88698
33
0
39
0
210
0
220
0
230
1
0
SOLID
5
189
100
AcDbEntity
8
2
62
256
6
ByLayer
370
13
48
1
60
0
100
AcDbTrace
10
34.61302
20
34.5
30
0
11
34.879361
21
31.3087
31
0
12
34.044316
22
31.348503
32
0
13
34.61302
23
34.5
33
0
39
0
210
0
220
0
230
1
0
ENDBLK
5
18B
100
AcDbEntity
8
0
100
AcDbBlockEnd
0
ENDSEC
0
SECTION
2
ENTITIES
0
ARC
5
EE
100
AcDbEntity
8
1
62
256
6
ByLayer
370
18
48
1
60
0
100
AcDbCircle
39
0
10
3
20
29.6039
30
0
40
0.897927405783631
210
0
220
0
230
-1
100
AcDbArc
50
187.5
51
172.5
0
ARC
5
EF
100
AcDbEntity
8
1
62
256
6
ByLayer
370
18
48
1
60
0
100
AcDbCircle
39
0
10
3
20
29.6039
30
0
40
0.7
210
0
220
0
230
-1
100
AcDbArc
50
187.5
51
172.5
0
ARC
5
F0
100
AcDbEntity
8
1
62
256
6
ByLayer
370
13
48
0.05
60
0
100
AcDbCircle
39
0
10
17.206
20
-33.706
30
0
40
0.794000000000056
210
0
220
0
230
1
100
AcDbArc
50
260
51
360
0
ARC
5
F6
100
AcDbEntity
8
1
62
256
6
ByLayer
370
18
48
1
60
0
100
AcDbCircle
39
0
10
5.92919
20
20.266821
30
0
40
1.75
210
0
220
0
230
1
100
AcDbArc
50
208.497312
51
348.928217
0
ARC
5
F7
100
AcDbEntity
8
1
62
256
6
ByLayer
370
18
48
1
60
0
100
AcDbCircle
39
0
10
-3.777242
20
36.256874
30
0
40
5
210
0
220
0
230
-1
100
AcDbArc
50
260
51
262.946514
0
ARC
5
F8
100
AcDbEntity
8
1
62
256
6
ByLayer
370
18
48
1
60
0
100
AcDbCircle
39
0
10
6.10977
20
21.421058
30
0
40
1.67203439621247
210
0
220
0
230
1
100
AcDbArc
50
179.75
51
187.432067
0
ARC
5
F9
100
AcDbEntity
8
1
62
256
6
ByLayer
370
18
48
1
60
0
100
AcDbCircle
39
0
10
6.109949
20
21.462115
30
0
40
1.5
210
0
220
0
230
1
100
AcDbArc
50
122.681322
51
179.75
0
ARC
5
FA
100
AcDbEntity
8
1
62
256
6
ByLayer
370
18
48
1
60
0
100
AcDbCircle
39
0
10
-11.65
20
27.084617
30
0
40
1.6765
210
0
220
0
230
-1
100
AcDbArc
50
310
51
9.840113
0
ARC
5
FB
100
AcDbEntity
8
1
62
256
6
ByLayer
370
18
48
1
60
0
100
AcDbCircle
39
0
10
-11.65
20
27.084617
30
0
40
1.6765
210
0
220
0
230
-1
100
AcDbArc
50
9.840113
51
70.159887
0
ARC
5
FC
100
AcDbEntity
8
1
62
256
6
ByLayer
370
18
48
1
60
0
100
AcDbCircle
39
0
10
-11.65
20
27.084617
30
0
40
1.6765
210
0
220
0
230
-1
100
AcDbArc
50
250.159887
51
310
0
ARC
5
FD
100
AcDbEntity
8
1
62
256
6
ByLayer
370
18
48
1
60
0
100
AcDbCircle
39
0
10
-11.65
20
27.084617
30
0
40
1.6765
210
0
220
0
230
-1
100
AcDbArc
50
70.159887
51
130
0
ARC
5
FE
100
AcDbEntity
8
1
62
256
6
ByLayer
370
18
48
1
60
0
100
AcDbCircle
39
0
10
-11.65
20
27.084617
30
0
40
1.6765
210
0
220
0
230
-1
100
AcDbArc
50
189.840113
51
250.159887
0
ARC
5
FF
100
AcDbEntity
8
1
62
256
6
ByLayer
370
18
48
1
60
0
100
AcDbCircle
39
0
10
-11.65
20
27.084617
30
0
40
1.6765
210
0
220
0
230
-1
100
AcDbArc
50
130
51
189.840113
0
ARC
5
100
100
AcDbEntity
8
1
62
256
6
ByLayer
370
18
48
1
60
0
100
AcDbCircle
39
0
10
-6.10977
20
21.421058
30
0
40
1.5
210
0
220
0
230
-1
100
AcDbArc
50
359.824016
51
0.25
0
ARC
5
101
100
AcDbEntity
8
1
62
256
6
ByLayer
370
18
48
1
60
0
100
AcDbCircle
39
0
10
-5.92919
20
20.266821
30
0
40
1.75
210
0
220
0
230
-1
100
AcDbArc
50
28.497312
51
32.410135
0
ARC
5
102
100
AcDbEntity
8
1
62
256
6
ByLayer
370
18
48
1
60
0
100
AcDbCircle
39
0
10
11.65
20
27.084617
30
0
40
1.2065
210
0
220
0
230
1
100
AcDbArc
50
259.920057
51
316.044721
0
ARC
5
103
100
AcDbEntity
8
1
62
256
6
ByLayer
370
18
48
1
60
0
100
AcDbCircle
39
0
10
11.65
20
27.084617
30
0
40
1.2065
210
0
220
0
230
1
100
AcDbArc
50
200.079943
51
259.920057
0
ARC
5
104
100
AcDbEntity
8
1
62
256
6
ByLayer
370
18
48
1
60
0
100
AcDbCircle
39
0
10
11.65
20
27.084617
30
0
40
1.2065
210
0
220
0
230
1
100
AcDbArc
50
143.955279
51
200.079943
0
ARC
5
105
100
AcDbEntity
8
1
62
256
6
ByLayer
370
18
48
1
60
0
100
AcDbCircle
39
0
10
-6.094
20
31.746655
30
0
40
0.793999999999996
210
0
220
0
230
-1
100
AcDbArc
50
0
51
80
0
ARC
5
106
100
AcDbEntity
8
1
62
256
6
ByLayer
370
18
48
1
60
0
100
AcDbCircle
39
0
10
-6.094
20
20.463234
30
0
40
0.793999999999996
210
0
220
0
230
-1
100
AcDbArc
50
260
51
0
0
ARC
5
107
100
AcDbEntity
8
1
62
256
6
ByLayer
370
18
48
1
60
0
100
AcDbCircle
39
0
10
-17.206
20
22.422579
30
0
40
0.793999999999977
210
0
220
0
230
-1
100
AcDbArc
50
180
51
260
0
ARC
5
108
100
AcDbEntity
8
1
62
256
6
ByLayer
370
18
48
1
60
0
100
AcDbCircle
39
0
10
-17.206
20
33.706
30
0
40
0.793999999999997
210
0
220
0
230
-1
100
AcDbArc
50
80
51
180
0
ARC
5
109
100
AcDbEntity
8
1
62
256
6
ByLayer
370
18
48
1
60
0
100
AcDbCircle
39
0
10
11.65
20
27.084617
30
0
40
1.2065
210
0
220
0
230
1
100
AcDbArc
50
316.044721
51
323.955279
0
ARC
5
10A
100
AcDbEntity
8
1
62
256
6
ByLayer
370
18
48
1
60
0
100
AcDbCircle
39
0
10
-11.65
20
27.084617
30
0
40
1.2065
210
0
220
0
230
-1
100
AcDbArc
50
159.920057
51
216.044721
0
ARC
5
10B
100
AcDbEntity
8
1
62
256
6
ByLayer
370
18
48
1
60
0
100
AcDbCircle
39
0
10
-11.65
20
27.084617
30
0
40
1.2065
210
0
220
0
230
-1
100
AcDbArc
50
100.079943
51
159.920057
0
ARC
5
10C
100
AcDbEntity
8
1
62
256
6
ByLayer
370
18
48
1
60
0
100
AcDbCircle
39
0
10
-11.65
20
27.084617
30
0
40
1.2065
210
0
220
0
230
-1
100
AcDbArc
50
43.955279
51
100.079943
0
ARC
5
10D
100
AcDbEntity
8
1
62
256
6
ByLayer
370
18
48
1
60
0
100
AcDbCircle
39
0
10
11.65
20
27.084617
30
0
40
1.2065
210
0
220
0
230
1
100
AcDbArc
50
136.044721
51
143.955279
0
ARC
5
10E
100
AcDbEntity
8
1
62
256
6
ByLayer
370
18
48
1
60
0
100
AcDbCircle
39
0
10
-6.109949
20
21.462115
30
0
40
1.67203439621247
210
0
220
0
230
-1
100
AcDbArc
50
0.25
51
61.026224
0
ARC
5
10F
100
AcDbEntity
8
1
62
256
6
ByLayer
370
18
48
1
60
0
100
AcDbCircle
39
0
10
-15.5
20
10.6039
30
0
40
5
210
0
220
0
230
-1
100
AcDbArc
50
2.182982
51
70
0
ARC
5
110
100
AcDbEntity
8
1
62
256
6
ByLayer
370
18
48
1
60
0
100
AcDbCircle
39
0
10
5.92919
20
20.266821
30
0
40
1.75
210
0
220
0
230
1
100
AcDbArc
50
111.071783
51
138.933752
0
CIRCLE
5
ED
100
AcDbEntity
8
1
62
256
6
ByLayer
370
18
48
1
60
0
100
AcDbCircle
10
3
20
29.6039
30
0
40
1.025
39
0
210
0
220
0
230
-1
0
CIRCLE
5
F1
100
AcDbEntity
8
1
62
256
6
ByLayer
370
18
48
1
60
0
100
AcDbCircle
10
-11.65
20
27.084617
30
0
40
4.00697067753274
39
0
210
0
220
0
230
-1
0
CIRCLE
5
F2
100
AcDbEntity
8
1
62
256
6
ByLayer
370
18
48
1
60
0
100
AcDbCircle
10
-11.65
20
27.084617
30
0
40
3.425
39
0
210
0
220
0
230
-1
0
CIRCLE
5
F3
100
AcDbEntity
8
1
62
256
6
ByLayer
370
18
48
1
60
0
100
AcDbCircle
10
11.65
20
27.084617
30
0
40
3.93651081363659
39
0
210
0
220
0
230
1
0
CIRCLE
5
F4
100
AcDbEntity
8
1
62
256
6
ByLayer
370
18
48
1
60
0
100
AcDbCircle
10
-11.65
20
27.084617
30
0
40
4.07132534818238
39
0
210
0
220
0
230
-1
0
CIRCLE
5
F5
100
AcDbEntity
8
1
62
256
6
ByLayer
370
18
48
1
60
0
100
AcDbCircle
10
-11.65
20
27.084617
30
0
40
2.4
39
0
210
0
220
0
230
-1
0
ELLIPSE
5
111
100
AcDbEntity
8
SK1
62
256
6
ByLayer
370
18
48
1
60
0
100
AcDbEllipse
10
-1.265405
20
2.197533
30
0
11
1.49999999987812
21
1.51595858250037E-15
31
0
210
0
220
0
230
-1
40
0.57735
41
-2.15548162623863
42
-2.0171020160619
0
ELLIPSE
5
112
100
AcDbEntity
8
SK1
62
256
6
ByLayer
370
18
48
1
60
0
100
AcDbEllipse
10
-1.265405
20
4.010783
30
0
11
-1.06054021204573E-16
21
1.73205080756841
31
0
210
0
220
0
230
-1
40
0.866025
41
-2.74348171310015
42
-2.55690735417162
0
ELLIPSE
5
113
100
AcDbEntity
8
1
62
256
6
ByLayer
370
18
48
1
60
0
100
AcDbEllipse
10
-1.265405
20
-10.636459
30
0
11
1.39750348802968
21
-0.581313438701555
31
0
210
0
220
0
230
-1
40
0.937467
41
-1.09612797808446
42
-0.371816338506694
0
ELLIPSE
5
114
100
AcDbEntity
8
1
62
256
6
ByLayer
370
18
48
1
60
0
100
AcDbEllipse
10
-1.265405
20
-10.636459
30
0
11
1.39750348803074
21
-0.581313438700005
31
0
210
0
220
0
230
-1
40
0.937467
41
-0.371816338505515
42
1.78366528770747
0
ELLIPSE
5
115
100
AcDbEntity
8
SK1
62
256
6
ByLayer
370
18
48
1
60
0
100
AcDbEllipse
10
-3
20
-10.255926
30
0
11
0.994577833294886
21
-0.694037071861208
31
0
210
0
220
0
230
-1
40
0.357143
41
0.240968144016105
42
0.602724876804755
0
ELLIPSE
5
116
100
AcDbEntity
8
SK1
62
256
6
ByLayer
370
18
48
1
60
0
100
AcDbEllipse
10
-3
20
-10.645028
30
0
11
1.025
21
1.03590503145942E-15
31
0
210
0
220
0
230
-1
40
0.5
41
0.846971287497612
42
0.928980032893926
0
ELLIPSE
5
117
100
AcDbEntity
8
SK1
62
256
6
ByLayer
370
18
48
1
60
0
100
AcDbEllipse
10
-3
20
-10.645028
30
0
11
1.02500000000001
21
1.03590503145943E-15
31
0
210
0
220
0
230
-1
40
0.5
41
3.14159265358979
42
-0.846971287497628
0
ELLIPSE
5
118
100
AcDbEntity
8
SK1
62
256
6
ByLayer
370
18
48
1
60
0
100
AcDbEllipse
10
-3
20
-10.255926
30
0
11
0.994577833266648
21
-0.694037071839107
31
0
210
0
220
0
230
-1
40
0.357143
41
-1.09121769818615
42
-0.729460965391275
0
ELLIPSE
5
119
100
AcDbEntity
8
1
62
256
6
ByLayer
370
18
48
1
60
0
100
AcDbEllipse
10
-3
20
-10.645028
30
0
11
1.025
21
1.03590503145942E-15
31
0
210
0
220
0
230
-1
40
0.5
41
0.928980032893926
42
2.31733237587895
0
ELLIPSE
5
11A
100
AcDbEntity
8
SK1
62
256
6
ByLayer
370
18
48
1
60
0
100
AcDbEllipse
10
-3
20
-10.645028
30
0
11
1.025
21
1.03590503145942E-15
31
0
210
0
220
0
230
-1
40
0.5
41
2.31733237587895
42
3.14159265358979
0
ELLIPSE
5
11B
100
AcDbEntity
8
SK1
62
256
6
ByLayer
370
18
48
1
60
0
100
AcDbEllipse
10
-3
20
-18.958872
30
0
11
1.02500000000002
21
0
31
0
210
0
220
0
230
1
40
0.5
41
0.849858694257581
42
3.14159265358979
0
ELLIPSE
5
11C
100
AcDbEntity
8
SK1
62
256
6
ByLayer
370
18
48
1
60
0
100
AcDbEllipse
10
-3
20
-19.346089
30
0
11
0.994609579106722
21
0.693091538450267
31
0
210
0
220
0
230
1
40
0.357447
41
0.243079463632358
42
0.605740390857693
0
ELLIPSE
5
11D
100
AcDbEntity
8
1
62
256
6
ByLayer
370
18
48
1
60
0
100
AcDbEllipse
10
4.391221
20
-19.083878
30
0
11
3.09999999999999
21
0
31
0
210
0
220
0
230
1
40
0.866025
41
1.77017239384338
42
2.8758969270641
0
ELLIPSE
5
11E
100
AcDbEntity
8
1
62
256
6
ByLayer
370
18
48
1
60
0
100
AcDbEllipse
10
3.777242
20
-18.8992
30
0
11
5.00000021162733
21
4.11569134932398E-08
31
0
210
0
220
0
230
1
40
0.5
41
1.39626339226288
42
1.44768976595841
0
ELLIPSE
5
11F
100
AcDbEntity
8
1
62
256
6
ByLayer
370
18
48
1
60
0
100
AcDbEllipse
10
6.094
20
-17.085763
30
0
11
0.794000000000003
21
0
31
0
210
0
220
0
230
1
40
0.5
41
3.14159265358979
42
-1.74532925199434
0
ELLIPSE
5
120
100
AcDbEntity
8
1
62
256
6
ByLayer
370
18
48
1
60
0
100
AcDbEllipse
10
6.094
20
-12.963482
30
0
11
0.240851501820378
21
0
31
0
210
0
220
0
230
1
40
0.5
41
-2.62603808821622
42
-2.26088381737917
0
ELLIPSE
5
121
100
AcDbEntity
8
1
62
256
6
ByLayer
370
18
48
1
60
0
100
AcDbEllipse
10
11.307122
20
2.10324
30
0
11
-2.41481456572266
21
2.41481456572266
31
0
210
0
220
0
230
1
40
0.267949
41
-2.87979326579064
42
-0.4998054561232
0
ELLIPSE
5
122
100
AcDbEntity
8
1
62
256
6
ByLayer
370
18
48
1
60
0
100
AcDbEllipse
10
11.307122
20
1.455103
30
0
11
5.22449289680974E-15
21
4.45983865347938
31
0
210
0
220
0
230
1
40
0.560558
41
0.809191482872732
42
1.5707963267949
0
ELLIPSE
5
123
100
AcDbEntity
8
1
62
256
6
ByLayer
370
18
48
1
60
0
100
AcDbEllipse
10
15.5
20
-20.803805
30
0
11
5.00000000000086
21
0
31
0
210
0
220
0
230
1
40
0.5
41
3.14159265358979
42
-2.56807954916675
0
ELLIPSE
5
124
100
AcDbEntity
8
1
62
256
6
ByLayer
370
18
48
1
60
0
100
AcDbEllipse
10
15.5
20
-17.166498
30
0
11
4.82962913145181
21
4.82962913145181
31
0
210
0
220
0
230
1
40
0.267949
41
2.87979326579082
42
-2.82987893696605
0
ELLIPSE
5
125
100
AcDbEntity
8
1
62
256
6
ByLayer
370
18
48
1
60
0
100
AcDbEllipse
10
17.8
20
2.57074
30
0
11
-6.27851787087892
21
6.27851787087892
31
0
210
0
220
0
230
1
40
0.267949
41
0.261799387799144
42
1.52300563832826
0
ELLIPSE
5
126
100
AcDbEntity
8
1
62
256
6
ByLayer
370
18
48
1
60
0
100
AcDbEllipse
10
16.062812
20
2.57074
30
0
11
-0.693745454159258
21
6.49986357729704
31
0
210
0
220
0
230
1
40
0.060703
41
1.77832610928274
42
3.13511373674498
0
ELLIPSE
5
127
100
AcDbEntity
8
1
62
256
6
ByLayer
370
18
48
1
60
0
100
AcDbEllipse
10
16.55
20
-11.058639
30
0
11
0.0816597072834166
21
2.74012717769684
31
0
210
0
220
0
230
1
40
0.180023
41
3.13111404128849
42
-2.19884077262491
0
ELLIPSE
5
128
100
AcDbEntity
8
1
62
256
6
ByLayer
370
18
48
1
60
0
100
AcDbEllipse
10
16.55
20
-13.552259
30
0
11
0.499999999999984
21
0
31
0
210
0
220
0
230
1
40
0.5
41
-1.74532925199435
42
0
0
ELLIPSE
5
129
100
AcDbEntity
8
1
62
256
6
ByLayer
370
18
48
1
60
0
100
AcDbEllipse
10
16.062812
20
2.57074
30
0
11
-0.693745454153357
21
6.49986357724306
31
0
210
0
220
0
230
1
40
0.060703
41
3.13511373674496
42
-2.9058315666207
0
ELLIPSE
5
12A
100
AcDbEntity
8
1
62
256
6
ByLayer
370
18
48
1
60
0
100
AcDbEllipse
10
11.870875
20
2.570756
30
0
11
-17.8252748278858
21
3.58781320650021
31
0
210
0
220
0
230
1
40
0.30407
41
1.90176794012851
42
1.91328138223692
0
ELLIPSE
5
12B
100
AcDbEntity
8
1
62
256
6
ByLayer
370
18
48
1
60
0
100
AcDbEllipse
10
17.206
20
-18.065436
30
0
11
0.794000000000139
21
0
31
0
210
0
220
0
230
1
40
0.5
41
-1.7453292519942
42
0
0
ELLIPSE
5
12C
100
AcDbEntity
8
1
62
256
6
ByLayer
370
18
48
1
60
0
100
AcDbEllipse
10
17.206
20
-19.762845
30
0
11
0.240851501810622
21
0
31
0
210
0
220
0
230
1
40
0.5
41
-1.22977468662034
42
-0.515554565377452
0
ELLIPSE
5
12D
100
AcDbEntity
8
1
62
256
6
ByLayer
370
18
48
1
60
0
100
AcDbEllipse
10
17.206
20
-13.943155
30
0
11
0.240851501808734
21
0
31
0
210
0
220
0
230
1
40
0.5
41
-1.22977468662219
42
-0.515554565373149
0
ELLIPSE
5
12E
100
AcDbEntity
8
1
62
256
6
ByLayer
370
18
48
1
60
0
100
AcDbEllipse
10
17.206
20
-9.998854
30
0
11
0.794000000000465
21
0
31
0
210
0
220
0
230
1
40
0.5
41
0
42
1.02988885044545
0
ELLIPSE
5
12F
100
AcDbEntity
8
1
62
256
6
ByLayer
370
18
48
1
60
0
100
AcDbEllipse
10
11.307122
20
-3.121385
30
0
11
2
21
0
31
0
210
0
220
0
230
1
40
0.5
41
3.14159265358979
42
-4.44089209850063E-16
0
ELLIPSE
5
130
100
AcDbEntity
8
1
62
256
6
ByLayer
370
18
48
1
60
0
100
AcDbEllipse
10
11.307122
20
-3.121385
30
0
11
2
21
0
31
0
210
0
220
0
230
1
40
0.5
41
0
42
3.14159265358979
0
ELLIPSE
5
131
100
AcDbEntity
8
1
62
256
6
ByLayer
370
18
48
1
60
0
100
AcDbEllipse
10
17.8
20
-17.17464
30
0
11
6.27851787090245
21
6.27851787090245
31
0
210
0
220
0
230
1
40
0.267949
41
2.87979326579114
42
-2.87979326579113
0
ELLIPSE
5
132
100
AcDbEntity
8
1
62
256
6
ByLayer
370
18
48
1
60
0
100
AcDbEllipse
10
17.8
20
-17.17464
30
0
11
6.27851787088228
21
6.27851787088228
31
0
210
0
220
0
230
1
40
0.267949
41
-2.87979326579056
42
-2.14218579086007
0
ELLIPSE
5
133
100
AcDbEntity
8
1
62
256
6
ByLayer
370
18
48
1
60
0
100
AcDbEllipse
10
16.062812
20
-17.17464
30
0
11
0.693745454160254
21
6.49986357731293
31
0
210
0
220
0
230
1
40
0.060703
41
-2.3975062618143
42
-1.75254860723523
0
ELLIPSE
5
134
100
AcDbEntity
8
1
62
256
6
ByLayer
370
18
48
1
60
0
100
AcDbEllipse
10
16.55
20
-10.025654
30
0
11
-0.498796811461759
21
3.53545217668574
31
0
210
0
220
0
230
1
40
0.009805
41
2.41888183076002
42
-3.07220471769855
0
ELLIPSE
5
135
100
AcDbEntity
8
1
62
256
6
ByLayer
370
18
48
1
60
0
100
AcDbEllipse
10
-5.3
20
-15.09843
30
0
11
2.1
21
0
31
0
210
0
220
0
230
1
40
0.866025
41
3.14159265358979
42
0
0
ELLIPSE
5
136
100
AcDbEntity
8
1
62
256
6
ByLayer
370
18
48
1
60
0
100
AcDbEllipse
10
-5.3
20
-15.09843
30
0
11
2.1
21
0
31
0
210
0
220
0
230
1
40
0.866025
41
0
42
3.14159265358979
0
ELLIPSE
5
137
100
AcDbEntity
8
1
62
256
6
ByLayer
370
18
48
1
60
0
100
AcDbEllipse
10
-5.3
20
-13.671942
30
0
11
2.00000000000001
21
0
31
0
210
0
220
0
230
1
40
0.866025
41
-2.78448776801205
42
-0.927295218001609
0
ELLIPSE
5
138
100
AcDbEntity
8
1
62
256
6
ByLayer
370
18
48
1
60
0
100
AcDbEllipse
10
16.55
20
-22.898556
30
0
11
0.498796811464538
21
3.53545217670157
31
0
210
0
220
0
230
1
40
0.009805
41
-0.861486694610074
42
-0.0693879358915417
0
ELLIPSE
5
139
100
AcDbEntity
8
1
62
256
6
ByLayer
370
18
48
1
60
0
100
AcDbEllipse
10
15.5
20
6.562598
30
0
11
-4.82962913143772
21
4.82962913143772
31
0
210
0
220
0
230
1
40
0.267949
41
0.261799387799079
42
0.835312492222844
0
ELLIPSE
5
13A
100
AcDbEntity
8
1
62
256
6
ByLayer
370
18
48
1
60
0
100
AcDbEllipse
10
11.307122
20
-3.121385
30
0
11
2.5
21
0
31
0
210
0
220
0
230
1
40
0.5
41
0
42
3.14159265358979
0
ELLIPSE
5
13B
100
AcDbEntity
8
1
62
256
6
ByLayer
370
18
48
1
60
0
100
AcDbEllipse
10
-5.3
20
-13.821942
30
0
11
1.7
21
0
31
0
210
0
220
0
230
1
40
0.866025
41
-3.01100862501633
42
-0.787128270656117
0
ELLIPSE
5
13C
100
AcDbEntity
8
1
62
256
6
ByLayer
370
18
48
1
60
0
100
AcDbEllipse
10
17.206
20
-12.423725
30
0
11
-0.793999964633842
21
7.91797392778164E-10
31
0
210
0
220
0
230
1
40
0.5
41
-3.14088031552236
42
-3.07172330028092
0
ELLIPSE
5
13D
100
AcDbEntity
8
1
62
256
6
ByLayer
370
18
48
1
60
0
100
AcDbEllipse
10
17.206
20
-8.301444
30
0
11
0.240851501813472
21
0
31
0
210
0
220
0
230
1
40
0.5
41
0.515554565368191
42
0.880708836215913
0
ELLIPSE
5
13E
100
AcDbEntity
8
1
62
256
6
ByLayer
370
18
48
1
60
0
100
AcDbEllipse
10
11.307122
20
-28.888133
30
0
11
2.41481456572271
21
2.41481456572271
31
0
210
0
220
0
230
1
40
0.267949
41
-0.261799387799128
42
2.11818842186827
0
ELLIPSE
5
13F
100
AcDbEntity
8
SK1
62
256
6
ByLayer
370
18
48
1
60
0
100
AcDbEllipse
10
-3
20
-18.958872
30
0
11
1.02500000000001
21
0
31
0
210
0
220
0
230
1
40
0.5
41
3.14159265358979
42
-0.849858694257593
0
ELLIPSE
5
140
100
AcDbEntity
8
SK1
62
256
6
ByLayer
370
18
48
1
60
0
100
AcDbEllipse
10
-3
20
-19.346089
30
0
11
0.994609579194357
21
0.693091538517659
31
0
210
0
220
0
230
1
40
0.357447
41
-1.09397699766679
42
-0.807663201345535
0
POINT
5
6C
100
AcDbEntity
8
81
62
256
6
ByLayer
370
13
48
1
60
0
100
AcDbPoint
10
18
20
34.5
30
0
39
0
210
0
220
0
230
1
50
360
0
POINT
5
6E
100
AcDbEntity
8
80
62
256
6
ByLayer
370
13
48
1
60
0
100
AcDbPoint
10
0
20
0
30
0
39
0
210
0
220
0
230
1
50
360
0
SPLINE
5
141
100
AcDbEntity
8
SK1
62
256
6
ByLayer
370
18
48
1
60
0
100
AcDbSpline
70
4
71
3
72
28
73
24
40
0
40
0
40
0
40
0
40
0.0497517583008682
40
0.0995339119734242
40
0.149326454486185
40
0.199109017034433
40
0.248861118473027
40
0.299653314327985
40
0.350477147918715
40
0.40131182704271
40
0.452136152084253
40
0.50292876038086
40
0.55133877200872
40
0.599766760791624
40
0.648194857767527
40
0.696605016986024
40
0.745014116363918
40
0.793440997883269
40
0.841867938336169
40
0.890277118107478
40
0.941082851657621
40
0.991909051665681
40
1
40
1
40
1
40
1
41
1
10
-2.09331072591121
20
-11.0146786332636
30
0
41
1
10
-2.08958270577428
20
-11.0132790661284
30
0
41
1
10
-2.08227614920779
20
-11.0102970142213
30
0
41
1
10
-2.07176266475394
20
-11.0052692496542
30
0
41
1
10
-2.06171734250051
20
-10.9997086114548
30
0
41
1
10
-2.05215912097688
20
-10.9936306308199
30
0
41
1
10
-2.04304284367551
20
-10.9870047953948
30
0
41
1
10
-2.03439647247302
20
-10.9798312755788
30
0
41
1
10
-2.02624102607748
20
-10.9721144008689
30
0
41
1
10
-2.01864784964322
20
-10.9639205473705
30
0
41
1
10
-2.0116317578654
20
-10.9552695054872
30
0
41
1
10
-2.00530617399288
20
-10.9463197791012
30
0
41
1
10
-1.99964966118784
20
-10.9371084757831
30
0
41
1
10
-1.99463318883695
20
-10.9276703730465
30
0
41
1
10
-1.99017232620717
20
-10.9178709231972
30
0
41
1
10
-1.9862739792771
20
-10.9077241205716
30
0
41
1
10
-1.98294486903535
20
-10.8972410331207
30
0
41
1
10
-1.98018656393013
20
-10.8864322629536
30
0
41
1
10
-1.978002090641
20
-10.8753102682651
30
0
41
1
10
-1.97636899368171
20
-10.8636989015615
30
0
41
1
10
-1.97532343734197
20
-10.8515899619055
30
0
41
1
10
-1.97502338903142
20
-10.8425116899451
30
0
41
1
10
-1.97500048324626
20
-10.8375698514154
30
0
41
1
10
-1.97500000000007
20
-10.836889914216
30
0
0
SPLINE
5
142
100
AcDbEntity
8
SK1
62
256
6
ByLayer
370
18
48
1
60
0
100
AcDbSpline
70
4
71
3
72
27
73
23
40
0
40
0
40
0
40
0
40
0.0427359661266571
40
0.0935417021163486
40
0.142887537521108
40
0.192252176286954
40
0.241616755714957
40
0.290962510173636
40
0.34030921008492
40
0.389674896478065
40
0.439040468684202
40
0.488387012825991
40
0.540282650194171
40
0.592200718208948
40
0.644118599276144
40
0.69601398160545
40
0.746643044076693
40
0.797314877094324
40
0.848007909312006
40
0.89870056269092
40
0.949371521095209
40
1
40
1
40
1
40
1
41
1
10
-1.97500000000007
20
-10.836889914216
30
0
41
1
10
-1.97500047321297
20
-10.8332980634462
30
0
41
1
10
-1.97516635909435
20
-10.8253619154623
30
0
41
1
10
-1.97596946231613
20
-10.8129870046721
30
0
41
1
10
-1.977430348954
20
-10.7997685795453
30
0
41
1
10
-1.97947756477192
20
-10.7864214009825
30
0
41
1
10
-1.98212206894837
20
-10.7728257450775
30
0
41
1
10
-1.98536071124742
20
-10.758990366086
30
0
41
1
10
-1.98919211225314
20
-10.7449203334606
30
0
41
1
10
-1.99360929945119
20
-10.7306195492826
30
0
41
1
10
-1.99860509764624
20
-10.7160953251319
30
0
41
1
10
-2.00426856077083
20
-10.7011010289421
30
0
41
1
10
-2.01063027858873
20
-10.6856261659342
30
0
41
1
10
-2.01771350640009
20
-10.6696603493549
30
0
41
1
10
-2.02539937965874
20
-10.6534678456186
30
0
41
1
10
-2.03360740526476
20
-10.6371888725053
30
0
41
1
10
-2.04231511149909
20
-10.6208287700199
30
0
41
1
10
-2.05149237689122
20
-10.6043921212747
30
0
41
1
10
-2.06119343143017
20
-10.5877469099438
30
0
41
1
10
-2.07139710155591
20
-10.5709031212805
30
0
41
1
10
-2.08208404698968
20
-10.5538704362297
30
0
41
1
10
-2.08951705196495
20
-10.542390363041
30
0
41
1
10
-2.0933107259112
20
-10.5366205193775
30
0
0
SPLINE
5
143
100
AcDbEntity
8
1
62
256
6
ByLayer
370
18
48
1
60
0
100
AcDbSpline
70
4
71
3
72
23
73
19
40
0
40
0
40
0
40
0
40
0.0661178580367935
40
0.132247559341326
40
0.198381149516659
40
0.26451073183776
40
0.330628490064143
40
0.385939777187363
40
0.441253388643636
40
0.496564672393449
40
0.551462709122104
40
0.606363021782556
40
0.661261061590412
40
0.729000309607297
40
0.796752275743968
40
0.864508552471912
40
0.932260645520694
40
1
40
1
40
1
40
1
41
1
10
4.39122115531433
20
-16.418119800906
30
0
41
1
10
4.37766750767067
20
-16.4172812835147
30
0
41
1
10
4.35054777049474
20
-16.4158142549903
30
0
41
1
10
4.30983157285178
20
-16.4142437758129
30
0
41
1
10
4.26909198493493
20
-16.4133046423494
30
0
41
1
10
4.22834265622092
20
-16.4129980440747
30
0
41
1
10
4.18981429228638
20
-16.4133076460715
30
0
41
1
10
4.15351428044373
20
-16.41411908144
30
0
41
1
10
4.11944495518716
20
-16.415324745565
30
0
41
1
10
4.0854775143886
20
-16.4169702328018
30
0
41
1
10
4.05161760240097
20
-16.4190517340692
30
0
41
1
10
4.01787067234277
20
-16.4215647884771
30
0
41
1
10
3.98152913889612
20
-16.4247438867725
30
0
41
1
10
3.94260786391791
20
-16.4287163859536
30
0
41
1
10
3.90112893386143
20
-16.4336191176118
30
0
41
1
10
3.85972899798328
20
-16.439181367799
30
0
41
1
10
3.81842261757787
20
-16.4454003474758
30
0
41
1
10
3.79095681821701
20
-16.4499823089879
30
0
41
1
10
3.77724198668538
20
-16.4523822499083
30
0
0
SPLINE
5
144
100
AcDbEntity
8
1
62
256
6
ByLayer
370
18
48
1
60
0
100
AcDbSpline
70
4
71
3
72
32
73
28
40
0
40
0
40
0
40
0
40
0.0410004619696802
40
0.0820105343392927
40
0.123023882190105
40
0.164034083593467
40
0.205034653810395
40
0.24603349744995
40
0.287041569034616
40
0.328052912252549
40
0.3690613477709
40
0.410060496714076
40
0.411674283862915
40
0.452347417005574
40
0.493028896723245
40
0.533713437215681
40
0.574395439002706
40
0.615069010100286
40
0.659272937397905
40
0.703486442973684
40
0.747703600521773
40
0.791917968560685
40
0.836122619372352
40
0.877073697957503
40
0.918024819130502
40
0.959012388235522
40
1
40
1
40
1
40
1
41
1
10
3.77724198668538
20
-3.47559784516805
30
0
41
1
10
3.789456333141
20
-3.47559811988698
30
0
41
1
10
3.8138834497237
20
-3.47581466327677
30
0
41
1
10
3.85051853190353
20
-3.47678864650441
30
0
41
1
10
3.88713254770448
20
-3.47840886665061
30
0
41
1
10
3.9237096055582
20
-3.4806735584787
30
0
41
1
10
3.96023656495589
20
-3.48358100682825
30
0
41
1
10
3.99670584344715
20
-3.48713028711507
30
0
41
1
10
4.03311043303469
20
-3.49131592229391
30
0
41
1
10
4.06943941477867
20
-3.4961326724881
30
0
41
1
10
4.10567674857766
20
-3.50157473323044
30
0
41
1
10
4.13024168706347
20
-3.50569610677814
30
0
41
1
10
4.15466910685674
20
-3.51001778318979
30
0
41
1
10
4.17896569431163
20
-3.51453730553424
30
0
41
1
10
4.21458635358255
20
-3.52178325226152
30
0
41
1
10
4.25008383643002
20
-3.52962018996071
30
0
41
1
10
4.28544457394284
20
-3.53803956840916
30
0
41
1
10
4.32167810609866
20
-3.54729415720673
30
0
41
1
10
4.3587641958862
20
-3.55743705368864
30
0
41
1
10
4.39668082334568
20
-3.56851766076962
30
0
41
1
10
4.43440426543368
20
-3.58024637686701
30
0
41
1
10
4.47192068765158
20
-3.59260968548617
30
0
41
1
10
4.50830594179044
20
-3.60527746851686
30
0
41
1
10
4.54357178885579
20
-3.61818675567128
30
0
41
1
10
4.57774407504061
20
-3.6312813087248
30
0
41
1
10
4.6117278104423
20
-3.64488616751048
30
0
41
1
10
4.63425372876817
20
-3.65428703595848
30
0
41
1
10
4.64548287502004
20
-3.6590703396073
30
0
0
SPLINE
5
145
100
AcDbEntity
8
1
62
256
6
ByLayer
370
18
48
1
60
0
100
AcDbSpline
70
4
71
3
72
57
73
53
40
0
40
0
40
0
40
0
40
0.0208072991889668
40
0.041619107815823
40
0.0624309395209437
40
0.0832382701870847
40
0.104045391128755
40
0.124856983439103
40
0.145668585562015
40
0.166475719887333
40
0.18728278295042
40
0.20809430477815
40
0.228905827264719
40
0.249712891226411
40
0.267562246887985
40
0.285415828588538
40
0.303270817652604
40
0.321124393291456
40
0.338973743867824
40
0.359780872278018
40
0.380592472787658
40
0.401404069103098
40
0.422211191792696
40
0.443018353617527
40
0.463829994564467
40
0.484641633960379
40
0.505448793669709
40
0.526255955848187
40
0.547067597295702
40
0.567879240735523
40
0.588686405631369
40
0.606537147878838
40
0.624392123915499
40
0.642248516583735
40
0.660103499341078
40
0.677954247226585
40
0.697815725732128
40
0.71768108537583
40
0.737546448031646
40
0.757407930645417
40
0.777406865855185
40
0.797409759866905
40
0.817412652924772
40
0.837411586833576
40
0.857538615234685
40
0.877669687896168
40
0.897800751665269
40
0.917927767937967
40
0.938443681484581
40
0.958963909866931
40
0.979484116338293
40
1
40
1
40
1
40
1
41
1
10
4.39122115531433
20
21.101777177615
30
0
41
1
10
4.38545959655799
20
21.0911641750196
30
0
41
1
10
4.37415765185202
20
21.0698220041478
30
0
41
1
10
4.35786847498912
20
21.0374593030064
30
0
41
1
10
4.34225272867027
20
21.0047681629992
30
0
41
1
10
4.32731795296725
20
20.9717634365602
30
0
41
1
10
4.31307084408954
20
20.9384568367088
30
0
41
1
10
4.29951518672999
20
20.9048606631016
30
0
41
1
10
4.28665735459025
20
20.8709916998286
30
0
41
1
10
4.27450405472075
20
20.8368667039016
30
0
41
1
10
4.26306081556231
20
20.8024973731688
30
0
41
1
10
4.25233044771976
20
20.7678963233032
30
0
41
1
10
4.24231794865867
20
20.7330808244556
30
0
41
1
10
4.23346869104286
20
20.6997268682706
30
0
41
1
10
4.22567167764684
20
20.6678764639978
30
0
41
1
10
4.21881911222211
20
20.6375632587452
30
0
41
1
10
4.21250491437176
20
20.6071306879918
30
0
41
1
10
4.20673206379914
20
20.576593058476
30
0
41
1
10
4.20121408550889
20
20.5442689124946
30
0
41
1
10
4.19606329271664
20
20.5101461672999
30
0
41
1
10
4.19139826779711
20
20.4742192292608
30
0
41
1
10
4.1874772146089
20
20.4382031590953
30
0
41
1
10
4.18430245446297
20
20.4021159377552
30
0
41
1
10
4.18187646043383
20
20.3659703802386
30
0
41
1
10
4.18019880259686
20
20.3297795645476
30
0
41
1
10
4.1792699807016
20
20.2935616708423
30
0
41
1
10
4.17909081786568
20
20.257334847428
30
0
41
1
10
4.17966270313437
20
20.2211121151156
30
0
41
1
10
4.18098410307402
20
20.1849064668004
30
0
41
1
10
4.18305400173172
20
20.1487360705014
30
0
41
1
10
4.18573823835305
20
20.1143294276927
30
0
41
1
10
4.18891818874975
20
20.0816895452024
30
0
41
1
10
4.19248099115693
20
20.0508124953227
30
0
41
1
10
4.19659140913009
20
20.0200013442923
30
0
41
1
10
4.20124748531981
20
19.9892706323378
30
0
41
1
10
4.20664322525315
20
19.9574806280409
30
0
41
1
10
4.21285207413928
20
19.9246511249664
30
0
41
1
10
4.21994793289794
20
19.8908067994964
30
0
41
1
10
4.22771052053287
20
19.8571093575964
30
0
41
1
10
4.23615600431992
20
19.8234968017822
30
0
41
1
10
4.24528807526292
20
19.7899816067179
30
0
41
1
10
4.25510801585621
20
19.7565759697074
30
0
41
1
10
4.26559007379456
20
19.723372078559
30
0
41
1
10
4.27675350362045
20
19.6903148370349
30
0
41
1
10
4.28860064717222
20
19.6574170796792
30
0
41
1
10
4.30113140314781
20
19.6246911621765
30
0
41
1
10
4.3143144964896
20
19.5922221333465
30
0
41
1
10
4.32823312525753
20
19.5598179275712
30
0
41
1
10
4.34289848367061
20
19.527495909972
30
0
41
1
10
4.35831879330519
20
19.4952739668754
30
0
41
1
10
4.37439361943221
20
19.463371727709
30
0
41
1
10
4.38554030955252
20
19.4423301262595
30
0
41
1
10
4.39122115531433
20
19.4318658139603
30
0
0
SPLINE
5
146
100
AcDbEntity
8
1
62
256
6
ByLayer
370
18
48
1
60
0
100
AcDbSpline
70
4
71
3
72
23
73
19
40
0
40
0
40
0
40
0
40
0.0661178580367943
40
0.132247559341327
40
0.198381149516659
40
0.264510731837762
40
0.330628490064145
40
0.385939777187364
40
0.441253388643636
40
0.496564672393449
40
0.551462709122104
40
0.606363021782556
40
0.661261061590412
40
0.729000309607297
40
0.796752275743968
40
0.864508552471912
40
0.932260645520694
40
1
40
1
40
1
40
1
41
1
10
4.39122115531433
20
31.2947143830758
30
0
41
1
10
4.37766750767067
20
31.2930374620291
30
0
41
1
10
4.35054777049474
20
31.2897947654652
30
0
41
1
10
4.30983157285178
20
31.2852646868394
30
0
41
1
10
4.26909198493493
20
31.2810691391054
30
0
41
1
10
4.22834265622092
20
31.2772091429545
30
0
41
1
10
4.1898142922864
20
31.2738774871158
30
0
41
1
10
4.15351428044373
20
31.2710133584909
30
0
41
1
10
4.11944495518716
20
31.2685592804856
30
0
41
1
10
4.08547751438861
20
31.2663455321767
30
0
41
1
10
4.05161760240097
20
31.2643698989786
30
0
41
1
10
4.01787067234277
20
31.2626297225593
30
0
41
1
10
3.98152913889612
20
31.2610016378497
30
0
41
1
10
3.94260786391791
20
31.2595522265008
30
0
41
1
10
3.90112893386143
20
31.2583526304662
30
0
41
1
10
3.85972899798328
20
31.2574982821195
30
0
41
1
10
3.81842261757787
20
31.2569873970265
30
0
41
1
10
3.790956818217
20
31.256873951499
30
0
41
1
10
3.77724198668538
20
31.2568741528222
30
0
0
SPLINE
5
147
100
AcDbEntity
8
1
62
256
6
ByLayer
370
18
48
1
60
0
100
AcDbSpline
70
4
71
3
72
23
73
19
40
0
40
0
40
0
40
0
40
0.0663613248861976
40
0.132729327457833
40
0.199099557118622
40
0.265467559690256
40
0.331828884576457
40
0.387249676670657
40
0.442671765187441
40
0.498092557281643
40
0.553280728303459
40
0.608470179490681
40
0.663658350512496
40
0.730922044259522
40
0.798192691849034
40
0.865465658663461
40
0.932736306252971
40
1
40
1
40
1
40
1
41
1
10
4.64548287502004
20
-12.7565723371648
30
0
41
1
10
4.62647154532196
20
-12.7548962624399
30
0
41
1
10
4.58841109626752
20
-12.7516542890793
30
0
41
1
10
4.53120760624776
20
-12.747122040952
30
0
41
1
10
4.47390171310894
20
-12.7429211588727
30
0
41
1
10
4.41650414739819
20
-12.7390524371569
30
0
41
1
10
4.362182086282
20
-12.7357108684938
30
0
41
1
10
4.31095665706324
20
-12.7328358990342
30
0
41
1
10
4.26284391286625
20
-12.7303709592126
30
0
41
1
10
4.21475312222063
20
-12.7281419326582
30
0
41
1
10
4.16668898286178
20
-12.7261479413624
30
0
41
1
10
4.11865614021379
20
-12.7243879792647
30
0
41
1
10
4.06708608420816
20
-12.7227478968839
30
0
41
1
10
4.0119740186886
20
-12.7212907907105
30
0
41
1
10
3.95331912279191
20
-12.7200851210493
30
0
41
1
10
3.89463811073359
20
-12.7192236910611
30
0
41
1
10
3.8359422755692
20
-12.7187066585211
30
0
41
1
10
3.79680911349509
20
-12.7185917513552
30
0
41
1
10
3.77724198668538
20
-12.7185917196953
30
0
0
SPLINE
5
148
100
AcDbEntity
8
1
62
256
6
ByLayer
370
18
48
1
60
0
100
AcDbSpline
70
4
71
3
72
43
73
39
40
0
40
0
40
0
40
0
40
0.0916093029893213
40
0.17558068987087
40
0.259552074652874
40
0.347854265439457
40
0.436156449584214
40
0.495024635839594
40
0.553892833422367
40
0.612761003006006
40
0.661097606297257
40
0.709434303729091
40
0.757770904266495
40
0.806107375428669
40
0.838127842034561
40
0.870148277096003
40
0.891574891346033
40
0.913001474004403
40
0.92734086318745
40
0.941680220708163
40
0.951278300355875
40
0.96087634823538
40
0.967302524906707
40
0.97372866965105
40
0.978032870857217
40
0.982337039897911
40
0.988106179149656
40
0.991975985845628
40
0.994575215185225
40
0.996324534193193
40
0.997505417683282
40
0.998306249408708
40
0.998853180446266
40
0.99923080278805
40
0.999625316649832
40
0.999783986251145
40
0.999917150553597
40
1
40
1
40
1
40
1
41
1
10
5.88445450989781
20
-13.0228539299724
30
0
41
1
10
5.86659349528725
20
-13.1479263644136
30
0
41
1
10
5.832360776389
20
-13.387595246059
30
0
41
1
10
5.78175665975522
20
-13.7417594179102
30
0
41
1
10
5.73179780329913
20
-14.0912625753457
30
0
41
1
10
5.68099518819639
20
-14.4464977704233
30
0
41
1
10
5.63508750362386
20
-14.7673068800315
30
0
41
1
10
5.59491895625897
20
-15.0478380079045
30
0
41
1
10
5.56048936750871
20
-15.2881451058843
30
0
41
1
10
5.52811370615052
20
-15.5139471487236
30
0
41
1
10
5.49779188408795
20
-15.7252718438424
30
0
41
1
10
5.46952401474721
20
-15.9221076200237
30
0
41
1
10
5.44125750847275
20
-16.1186932307386
30
0
41
1
10
5.41617311377374
20
-16.2928834591974
30
0
41
1
10
5.39427062900315
20
-16.4447391259257
30
0
41
1
10
5.3776145097729
20
-16.5600039417074
30
0
41
1
10
5.36302464170363
20
-16.6607676476843
30
0
41
1
10
5.35188169199262
20
-16.7375497306945
30
0
41
1
10
5.34212126072353
20
-16.8046395471988
30
0
41
1
10
5.33466659465054
20
-16.8557364064187
30
0
41
1
10
5.32813703246033
20
-16.900356397771
30
0
41
1
10
5.32314981136624
20
-16.9343187618095
30
0
41
1
10
5.31878168672631
20
-16.9639537149996
30
0
41
1
10
5.31544517975074
20
-16.9864929696212
30
0
41
1
10
5.31252304703656
20
-17.0061414669937
30
0
41
1
10
5.30973065245225
20
-17.0248180440471
30
0
41
1
10
5.30702582566124
20
-17.0427628156531
30
0
41
1
10
5.30465783979727
20
-17.0582476763487
30
0
41
1
10
5.30307379036418
20
-17.0684195720245
30
0
41
1
10
5.30201432234301
20
-17.0750671329742
30
0
41
1
10
5.30130578155735
20
-17.0793817370871
30
0
41
1
10
5.30083244709493
20
-17.0821515580791
30
0
41
1
10
5.30051617063998
20
-17.0839048548731
30
0
41
1
10
5.30028387861506
20
-17.0850920455238
30
0
41
1
10
5.30012915752215
20
-17.085775677069
30
0
41
1
10
5.3000390066173
20
-17.0860016724176
30
0
41
1
10
5.30000559767721
20
-17.0859620036541
30
0
41
1
10
5.30000035615177
20
-17.0858281848246
30
0
41
1
10
5.30000000000041
20
-17.0857628604785
30
0
0
SPLINE
5
149
100
AcDbEntity
8
1
62
256
6
ByLayer
370
18
48
1
60
0
100
AcDbSpline
70
4
71
3
72
42
73
38
40
0
40
0
40
0
40
0
40
0.0001119288918651
40
0.0002597860393121
40
0.0005331469712958
40
0.0011152752889367
40
0.0017012848325802
40
0.0028503759725979
40
0.0040010804028203
40
0.0051535528456057
40
0.0063050576165833
40
0.0099669225645725
40
0.0136295295019216
40
0.0172935101770559
40
0.0209581073364332
40
0.0246216419141003
40
0.0368155394490836
40
0.0490097768055388
40
0.0612049369659893
40
0.0734008797200546
40
0.0855969231226531
40
0.0977920247516674
40
0.127048927946402
40
0.156306011981349
40
0.185563349343483
40
0.214820782424976
40
0.24407797837052
40
0.292845104614786
40
0.341612290654166
40
0.390379457821215
40
0.463518968805431
40
0.536658492180835
40
0.609797943385494
40
0.68293739865591
40
0.78862491675904
40
0.894312464239621
40
1
40
1
40
1
40
1
41
1
10
5.95612334693244
20
-17.4767315384278
30
0
41
1
10
5.95594116812589
20
-17.4767088659126
30
0
41
1
10
5.95554041593347
20
-17.4766103174784
30
0
41
1
10
5.95481518732335
20
-17.4761232498465
30
0
41
1
10
5.9538140662752
20
-17.4748933070354
30
0
41
1
10
5.95280439389877
20
-17.4729026853269
30
0
41
1
10
5.95166640180074
20
-17.469578663149
30
0
41
1
10
5.95047497825269
20
-17.465389089221
30
0
41
1
10
5.94939427055422
20
-17.4603259917659
30
0
41
1
10
5.94852958608429
20
-17.4552392332552
30
0
41
1
10
5.94721096203222
20
-17.4464430785037
30
0
41
1
10
5.94555371792251
20
-17.4339320923704
30
0
41
1
10
5.94388703523174
20
-17.4176960983044
30
0
41
1
10
5.94254453535716
20
-17.4014526454428
30
0
41
1
10
5.94143125852494
20
-17.3852085538118
30
0
41
1
10
5.93962407918067
20
-17.3563612193208
30
0
41
1
10
5.93732045512829
20
-17.3149134721189
30
0
41
1
10
5.93500396485142
20
-17.2608772856028
30
0
41
1
10
5.93318659687323
20
-17.2068558267621
30
0
41
1
10
5.93175451379793
20
-17.1528479593
30
0
41
1
10
5.93058285549621
20
-17.0988526199027
30
0
41
1
10
5.92901872860025
20
-17.0196864555902
30
0
41
1
10
5.9272288556943
20
-16.9153577992258
30
0
41
1
10
5.92562930348029
20
-16.7858888275763
30
0
41
1
10
5.9244732660618
20
-16.6564453155416
30
0
41
1
10
5.92367347858983
20
-16.5270235917765
30
0
41
1
10
5.92297474011222
20
-16.3688520208942
30
0
41
1
10
5.92248027701203
20
-16.1819375417967
30
0
41
1
10
5.92238003195334
20
-15.9662931300064
30
0
41
1
10
5.92267072055122
20
-15.7147524234877
30
0
41
1
10
5.92345755116412
20
-15.4273232000134
30
0
41
1
10
5.92484973507189
20
-15.1040139798698
30
0
41
1
10
5.9266291022592
20
-14.7807328828943
30
0
41
1
10
5.92905656597969
20
-14.409525248078
30
0
41
1
10
5.93222196923449
20
-13.9903978492345
30
0
41
1
10
5.93623012678998
20
-13.5233589559407
30
0
41
1
10
5.9391469275253
20
-13.2120183118781
30
0
41
1
10
5.94067281241483
20
-13.0563531119695
30
0
0
SPLINE
5
14A
100
AcDbEntity
8
1
62
256
6
ByLayer
370
18
48
1
60
0
100
AcDbSpline
70
4
71
3
72
41
73
37
40
0
40
0
40
0
40
0
40
0.0285489142322726
40
0.0570978449592002
40
0.0845575062608956
40
0.112040831621636
40
0.139524451707929
40
0.166984515253665
40
0.195225317528982
40
0.223490897066696
40
0.251757076411998
40
0.279998697321198
40
0.30780802210315
40
0.335639587789794
40
0.363471884500449
40
0.391282206925775
40
0.419809088037901
40
0.44835814270117
40
0.476908086591495
40
0.505436181221591
40
0.53501163362476
40
0.564609589421333
40
0.594208560867244
40
0.6237853992919
40
0.654077655783892
40
0.6843917549996
40
0.714706874309726
40
0.745000522833996
40
0.776511334830234
40
0.808044328302145
40
0.839578340387469
40
0.871090542371561
40
0.903306632960006
40
0.935544222427915
40
0.967782698967366
40
1
40
1
40
1
40
1
41
1
10
9.99816384403485
20
27.3711298033918
30
0
41
1
10
9.99751201824752
20
27.3673706977255
30
0
41
1
10
9.99635662872436
20
27.3598351816081
30
0
41
1
10
9.99508285692943
20
27.3486146159352
30
0
41
1
10
9.99425406431753
20
27.3375047976583
30
0
41
1
10
9.9938492539965
20
27.3265241129216
30
0
41
1
10
9.99385569772463
20
27.315550221305
30
0
41
1
10
9.99427661628042
20
27.3045010781346
30
0
41
1
10
9.99512639806399
20
27.2933937673214
30
0
41
1
10
9.99641140271387
20
27.2822460797707
30
0
41
1
10
9.99811710353407
20
27.2711833514146
30
0
41
1
10
10.0002269411448
20
27.2602833603573
30
0
41
1
10
10.002729984314
20
27.2495600910065
30
0
41
1
10
10.0056088375277
20
27.2390236892313
30
0
41
1
10
10.0088664889386
20
27.2286370152269
30
0
41
1
10
10.0125248586181
20
27.2183302818822
30
0
41
1
10
10.0165886255629
20
27.2081217248745
30
0
41
1
10
10.0210561885963
20
27.1980273924844
30
0
41
1
10
10.0258799580644
20
27.1881490914751
30
0
41
1
10
10.0311106132425
20
27.178384365274
30
0
41
1
10
10.036753760638
20
27.1687545263033
30
0
41
1
10
10.0428091518213
20
27.1592783385613
30
0
41
1
10
10.0491931887314
20
27.1500837523495
30
0
41
1
10
10.0559444467027
20
27.14111199432
30
0
41
1
10
10.0630603272418
20
27.1323805959747
30
0
41
1
10
10.0705338253448
20
27.1239032718383
30
0
41
1
10
10.0782908982186
20
27.1157588549017
30
0
41
1
10
10.0864221235674
20
27.1078525452018
30
0
41
1
10
10.0949274707361
20
27.1002072745523
30
0
41
1
10
10.1038027020877
20
27.0928425090034
30
0
41
1
10
10.1129179090195
20
27.0858646265272
30
0
41
1
10
10.1223242868993
20
27.0792315537857
30
0
41
1
10
10.1320141873573
20
27.0729582348628
30
0
41
1
10
10.1419769731629
20
27.0670555742446
30
0
41
1
10
10.152124339685
20
27.0615730465414
30
0
41
1
10
10.1589968876697
20
27.0582015458891
30
0
41
1
10
10.1624603103405
20
27.0565868299794
30
0
0
SPLINE
5
14B
100
AcDbEntity
8
1
62
256
6
ByLayer
370
18
48
1
60
0
100
AcDbSpline
70
4
71
3
72
36
73
32
40
0
40
0
40
0
40
0
40
0.034795663494615
40
0.0696184338143923
40
0.104439972397009
40
0.139233954930665
40
0.174980893752304
40
0.210760551741535
40
0.246538446311781
40
0.282282978248451
40
0.31720721963104
40
0.352165838815506
40
0.387122551041671
40
0.422044189440873
40
0.45819929004025
40
0.494397454045957
40
0.530593251797741
40
0.566745121805218
40
0.598371827140248
40
0.630030600458244
40
0.661688058793255
40
0.693312969137837
40
0.726069039036866
40
0.758863745292677
40
0.791657264856279
40
0.8244117146192
40
0.859479733751483
40
0.894623405776278
40
0.929791631573722
40
0.964933498272478
40
1
40
1
40
1
40
1
41
1
10
10.2621245655597
20
27.6122602583093
30
0
41
1
10
10.2579765468739
20
27.611922227757
30
0
41
1
10
10.2496829749782
20
27.6110657218684
30
0
41
1
10
10.2372487115971
20
27.6092412615169
30
0
41
1
10
10.2248508272635
20
27.60687328207
30
0
41
1
10
10.2123992153239
20
27.603931860633
30
0
41
1
10
10.1999156249105
20
27.6003918405572
30
0
41
1
10
10.1874242866533
20
27.5962354854562
30
0
41
1
10
10.1750666050417
20
27.5914955747848
30
0
41
1
10
10.1629664293875
20
27.5862130662601
30
0
41
1
10
10.1511438408128
20
27.5803986556852
30
0
41
1
10
10.1396157118358
20
27.5740723425755
30
0
41
1
10
10.1283207831043
20
27.5671958775404
30
0
41
1
10
10.1171611041872
20
27.5596884256983
30
0
41
1
10
10.1061752411446
20
27.551526042549
30
0
41
1
10
10.0954018989364
20
27.5426982122255
30
0
41
1
10
10.0850028145402
20
27.5333160145262
30
0
41
1
10
10.0754319953086
20
27.5238094040439
30
0
41
1
10
10.0666610380054
20
27.5142626305264
30
0
41
1
10
10.0586449644895
20
27.5047586512406
30
0
41
1
10
10.0510077528071
20
27.4948817190969
30
0
41
1
10
10.0436872300904
20
27.4845285434093
30
0
41
1
10
10.036722881164
20
27.4736946390064
30
0
41
1
10
10.0301478068587
20
27.4623874187286
30
0
41
1
10
10.0240645193023
20
27.4507616592724
30
0
41
1
10
10.0183639523355
20
27.4385660690953
30
0
41
1
10
10.0131143619649
20
27.4257903212611
30
0
41
1
10
10.008371883878
20
27.412442179945
30
0
41
1
10
10.0042675042743
20
27.3988515249776
30
0
41
1
10
10.0008193201568
20
27.385071235129
30
0
41
1
10
9.99897411696118
20
27.3757918651078
30
0
41
1
10
9.99816384403485
20
27.3711298033918
30
0
0
SPLINE
5
14C
100
AcDbEntity
8
1
62
256
6
ByLayer
370
18
48
1
60
0
100
AcDbSpline
70
4
71
3
72
39
73
35
40
0
40
0
40
0
40
0
40
0.034919456521682
40
0.0698387037325822
40
0.104976872370422
40
0.140114793667729
40
0.17597202457997
40
0.21182895226391
40
0.247950465326074
40
0.284071631713487
40
0.319068743948989
40
0.354065524109726
40
0.389339734951115
40
0.424613581468184
40
0.460816717140749
40
0.497019433348713
40
0.533569497472062
40
0.570119123176596
40
0.601822710028877
40
0.633526056065537
40
0.665487921892521
40
0.697449555569209
40
0.730263832417771
40
0.763077881400417
40
0.796202763596757
40
0.829327453067642
40
0.850440628263686
40
0.87155377896019
40
0.892752762785122
40
0.913951728262571
40
0.935417900515905
40
0.956884060936527
40
0.978442032496142
40
1
40
1
40
1
40
1
41
1
10
10.4950738430579
20
26.1466908201817
30
0
41
1
10
10.4933332628425
20
26.1429321383963
30
0
41
1
10
10.4900101710534
20
26.1353315019253
30
0
41
1
10
10.4854836528985
20
26.1236492012416
30
0
41
1
10
10.4814386922382
20
26.1117051975134
30
0
41
1
10
10.4778660992883
20
26.0994305204651
30
0
41
1
10
10.4748019139274
20
26.0868631109033
30
0
41
1
10
10.4722654106115
20
26.0739872358525
30
0
41
1
10
10.4702973307767
20
26.0609072402873
30
0
41
1
10
10.468929050391
20
26.0477830503509
30
0
41
1
10
10.468158112445
20
26.0346758544023
30
0
41
1
10
10.4679719895756
20
26.0215796054123
30
0
41
1
10
10.4683797383698
20
26.0083798071037
30
0
41
1
10
10.4694032612588
20
25.9949865262568
30
0
41
1
10
10.4710705708318
20
25.9814622852284
30
0
41
1
10
10.4734134036101
20
25.9677953079047
30
0
41
1
10
10.4764325311529
20
25.95413657725
30
0
41
1
10
10.4799727964263
20
25.941123726114
30
0
41
1
10
10.4839269893413
20
25.9288197348949
30
0
41
1
10
10.488209357013
20
25.91719927185
30
0
41
1
10
10.4930158758664
20
25.9056930976139
30
0
41
1
10
10.4983930838014
20
25.894227264099
30
0
41
1
10
10.5043400508404
20
25.8828662970323
30
0
41
1
10
10.5108832863241
20
25.8716091431562
30
0
41
1
10
10.5179682925094
20
25.860587861972
30
0
41
1
10
10.5246656398364
20
25.8511331090014
30
0
41
1
10
10.5307503910528
20
25.843184839083
30
0
41
1
10
10.536069722197
20
25.8366360963597
30
0
41
1
10
10.5415901294958
20
25.830228193131
30
0
41
1
10
10.5473311489452
20
25.8239422757777
30
0
41
1
10
10.5532830378003
20
25.8177965316147
30
0
41
1
10
10.5594508189754
20
25.8117916043325
30
0
41
1
10
10.5658053527352
20
25.8059602971863
30
0
41
1
10
10.5701603688989
20
25.8021948368502
30
0
41
1
10
10.5723665723605
20
25.8003435306576
30
0
0
SPLINE
5
14D
100
AcDbEntity
8
1
62
256
6
ByLayer
370
18
48
1
60
0
100
AcDbSpline
70
4
71
3
72
41
73
37
40
0
40
0
40
0
40
0
40
0.0315855627467043
40
0.0631711528143827
40
0.0906191266077611
40
0.118090700568748
40
0.145562583568335
40
0.173010979139443
40
0.201237411658152
40
0.229488515474366
40
0.257740229932289
40
0.28596749586875
40
0.313807088355867
40
0.341668908438098
40
0.369531468973147
40
0.397372071969902
40
0.425928446215692
40
0.454506958063662
40
0.483086364405054
40
0.511643959353222
40
0.541283718857623
40
0.570946009149289
40
0.600609320841931
40
0.63025047421582
40
0.660607773961
40
0.690986934722843
40
0.721367117244589
40
0.751725811293509
40
0.782425144963854
40
0.813144898465737
40
0.843865562558072
40
0.874566138761881
40
0.905914247589705
40
0.937282132456794
40
0.968650809819532
40
1
40
1
40
1
40
1
41
1
10
10.5723665723605
20
25.8003435306576
30
0
41
1
10
10.5756007457959
20
25.7976301128097
30
0
41
1
10
10.582177673891
20
25.7923501683692
30
0
41
1
10
10.5919339825555
20
25.7851889975802
30
0
41
1
10
10.6015070939469
20
25.7787440907324
30
0
41
1
10
10.6108398534095
20
25.772958428858
30
0
41
1
10
10.620369433039
20
25.7675332995862
30
0
41
1
10
10.6301684110321
20
25.7624309105919
30
0
41
1
10
10.6402290150225
20
25.7576720730447
30
0
41
1
10
10.6505389507696
20
25.7532709847448
30
0
41
1
10
10.6609825873114
20
25.7492768356027
30
0
41
1
10
10.6714898328935
20
25.7457117660045
30
0
41
1
10
10.6820433879124
20
25.7425738735786
30
0
41
1
10
10.6926259961398
20
25.7398537879178
30
0
41
1
10
10.7032657666525
20
25.7375373187047
30
0
41
1
10
10.714034023314
20
25.7356089030253
30
0
41
1
10
10.7249172405178
20
25.7340815530849
30
0
41
1
10
10.7359007047337
20
25.7329617673931
30
0
41
1
10
10.746872628206
20
25.732258571867
30
0
41
1
10
10.7579514823992
20
25.7319650772305
30
0
41
1
10
10.7691215034111
20
25.7320972474524
30
0
41
1
10
10.7803661743659
20
25.732664719631
30
0
41
1
10
10.7915286347748
20
25.7336581590959
30
0
41
1
10
10.8026790431588
20
25.735081934588
30
0
41
1
10
10.8138008740659
20
25.7369424461372
30
0
41
1
10
10.8248787405904
20
25.7392403938569
30
0
41
1
10
10.8358074875235
20
25.7419504647932
30
0
41
1
10
10.8466106280306
20
25.7450744401911
30
0
41
1
10
10.8572740396787
20
25.748609990777
30
0
41
1
10
10.8677860390255
20
25.7525504089699
30
0
41
1
10
10.8780929909696
20
25.7568704807389
30
0
41
1
10
10.8882518891871
20
25.7615916981128
30
0
41
1
10
10.8982474799479
20
25.7667145118222
30
0
41
1
10
10.9080663247713
20
25.7722352657207
30
0
41
1
10
10.9176284382864
20
25.7781063350887
30
0
41
1
10
10.9238221936745
20
25.7822432139248
30
0
41
1
10
10.9268738099088
20
25.7843676272549
30
0
0
SPLINE
5
14E
100
AcDbEntity
8
1
62
256
6
ByLayer
370
18
48
1
60
0
100
AcDbSpline
70
4
71
3
72
41
73
37
40
0
40
0
40
0
40
0
40
0.0312551393154166
40
0.0625823703024669
40
0.0896927746630286
40
0.116803221969233
40
0.144100780408775
40
0.171398407502619
40
0.199276491732334
40
0.227154674431495
40
0.255228320251052
40
0.283302087888135
40
0.310805501425508
40
0.338309041681863
40
0.365988563520942
40
0.393668225672363
40
0.421882152566209
40
0.450096237548583
40
0.478485494990684
40
0.506874916950173
40
0.536160850950946
40
0.565446969657447
40
0.594911297793026
40
0.624375809671408
40
0.654374918793052
40
0.684374216097376
40
0.714546388485355
40
0.744718741335351
40
0.776180626370426
40
0.807642707981692
40
0.839284641888974
40
0.87092675792058
40
0.903107655793888
40
0.935288727089281
40
0.967644286227053
40
1
40
1
40
1
40
1
41
1
10
11.0810016705405
20
28.6616056733269
30
0
41
1
10
11.0770351968905
20
28.6601743438568
30
0
41
1
10
11.0691654722741
20
28.6571408822787
30
0
41
1
10
11.0580822220993
20
28.6523072383417
30
0
41
1
10
11.0477175891771
20
28.6472785022915
30
0
41
1
10
11.0380370253941
20
28.6421254690704
30
0
41
1
10
11.0285484328999
20
28.6366068343446
30
0
41
1
10
11.0192023346881
20
28.6306902168742
30
0
41
1
10
11.0100418635924
20
28.6243908019269
30
0
41
1
10
11.001066181053
20
28.6176990811373
30
0
41
1
10
10.9923560776267
20
28.6106695168704
30
0
41
1
10
10.9839830632827
20
28.603365173777
30
0
41
1
10
10.9759727840283
20
28.5958239068617
30
0
41
1
10
10.9683109125402
20
28.5880516270653
30
0
41
1
10
10.9609548426464
20
28.5800090910164
30
0
41
1
10
10.9538692159313
20
28.5716573175127
30
0
41
1
10
10.9470855124727
20
28.5630233889815
30
0
41
1
10
10.9406040459317
20
28.5541011064932
30
0
41
1
10
10.9344771824245
20
28.5449599731482
30
0
41
1
10
10.9286509385943
20
28.5355175869017
30
0
41
1
10
10.9231568047884
20
28.5258027386907
30
0
41
1
10
10.9180010976116
20
28.5158074821663
30
0
41
1
10
10.9132466630107
20
28.5056483413097
30
0
41
1
10
10.9088707691522
20
28.4952800912338
30
0
41
1
10
10.9048934473871
20
28.4847379612918
30
0
41
1
10
10.9013158152232
20
28.4740172155938
30
0
41
1
10
10.8981645698658
20
28.4631974608529
30
0
41
1
10
10.8954014169112
20
28.4521402129925
30
0
41
1
10
10.8930528066734
20
28.4408802739449
30
0
41
1
10
10.8911332767648
20
28.4294119469143
30
0
41
1
10
10.8896756044786
20
28.4179085628829
30
0
41
1
10
10.8886720539575
20
28.4063219457443
30
0
41
1
10
10.8881306482986
20
28.3946907709621
30
0
41
1
10
10.8880540540027
20
28.3830115975546
30
0
41
1
10
10.8884438773924
20
28.3713646205774
30
0
41
1
10
10.8890104597186
20
28.3636361513175
30
0
41
1
10
10.8893708273192
20
28.3597832442021
30
0
0
SPLINE
5
14F
100
AcDbEntity
8
1
62
256
6
ByLayer
370
18
48
1
60
0
100
AcDbSpline
70
4
71
3
72
36
73
32
40
0
40
0
40
0
40
0
40
0.0350164104035059
40
0.0700601087633599
40
0.105102555518595
40
0.14011725784734
40
0.176091639212424
40
0.212098982323865
40
0.248104544065408
40
0.284076494041983
40
0.319196352427222
40
0.354350765012241
40
0.38950326758734
40
0.424620518825047
40
0.460977132431138
40
0.497376996171985
40
0.5337745054892
40
0.570127904660144
40
0.601945623804491
40
0.633795554614912
40
0.665644185542341
40
0.697460130311197
40
0.73041132563548
40
0.763401259175163
40
0.796390035126412
40
0.829339650055087
40
0.863426905749396
40
0.897582384773281
40
0.931760048627413
40
0.965914015280208
40
1
40
1
40
1
40
1
41
1
10
11.4192958113839
20
28.5544250536478
30
0
41
1
10
11.4169136749556
20
28.5578276801981
30
0
41
1
10
11.4119953285727
20
28.5645402401182
30
0
41
1
10
11.4041563682256
20
28.5743329591539
30
0
41
1
10
11.3958678645133
20
28.5838214953778
30
0
41
1
10
11.3870585298477
20
28.593068439738
30
0
41
1
10
11.3777175997116
20
28.6020423632724
30
0
41
1
10
11.3678419887156
20
28.6107134513422
30
0
41
1
10
11.3575312496245
20
28.6189762888349
30
0
41
1
10
11.3468857123323
20
28.6267428125398
30
0
41
1
10
11.3359250592187
20
28.6340014501849
30
0
41
1
10
11.3246753360465
20
28.6407481600806
30
0
41
1
10
11.3130699614018
20
28.6470183698222
30
0
41
1
10
11.3009901570909
20
28.652855812255
30
0
41
1
10
11.2884347636508
20
28.6582153653601
30
0
41
1
10
11.2754142414505
20
28.6630585827896
30
0
41
1
10
11.2621054769608
20
28.6673021678539
30
0
41
1
10
11.2491051426522
20
28.6707716446485
30
0
41
1
10
11.2364712563764
20
28.6735334634891
30
0
41
1
10
11.2242524319361
20
28.675667689177
30
0
41
1
10
11.2119034727306
20
28.6772891502184
30
0
41
1
10
11.1993044615421
20
28.6783996603831
30
0
41
1
10
11.1864714017536
20
28.6789632014725
30
0
41
1
10
11.1734272680819
20
28.6789552102768
30
0
41
1
10
11.160356455344
20
28.6783652470575
30
0
41
1
10
11.1471446787668
20
28.6771754107213
30
0
41
1
10
11.1338168530324
20
28.6753488727279
30
0
41
1
10
11.1204022252696
20
28.6728676935501
30
0
41
1
10
11.107089676802
20
28.6697613614375
30
0
41
1
10
11.0939282506103
20
28.666039537463
30
0
41
1
10
11.0852880949307
20
28.663150798916
30
0
41
1
10
11.0810016705405
20
28.6616056733269
30
0
0
SPLINE
5
150
100
AcDbEntity
8
1
62
256
6
ByLayer
370
18
48
1
60
0
100
AcDbSpline
70
4
71
3
72
36
73
32
40
0
40
0
40
0
40
0
40
0.0350164104035039
40
0.0700601087633571
40
0.105102555518594
40
0.140117257847338
40
0.176091639212426
40
0.212098982323876
40
0.248104544065415
40
0.284076494041987
40
0.319196352427226
40
0.354350765012248
40
0.389503267587344
40
0.424620518825048
40
0.46097713243114
40
0.497376996171989
40
0.533774505489206
40
0.570127904660148
40
0.601945623804504
40
0.633795554614921
40
0.665644185542349
40
0.6974601303112
40
0.730411325635489
40
0.763401259175167
40
0.796390035126416
40
0.829339650055091
40
0.863426905749399
40
0.897582384773285
40
0.931760048627419
40
0.965914015280212
40
1
40
1
40
1
40
1
41
1
10
11.8807041886161
20
25.6148090254454
30
0
41
1
10
11.8830863250444
20
25.611406398895
30
0
41
1
10
11.8880046714273
20
25.604693838975
30
0
41
1
10
11.8958436317744
20
25.5949011199392
30
0
41
1
10
11.9041321354867
20
25.5854125837153
30
0
41
1
10
11.9129414701523
20
25.5761656393551
30
0
41
1
10
11.9222824002884
20
25.5671917158207
30
0
41
1
10
11.9321580112844
20
25.5585206277509
30
0
41
1
10
11.9424687503755
20
25.5502577902583
30
0
41
1
10
11.9531142876677
20
25.5424912665533
30
0
41
1
10
11.9640749407813
20
25.5352326289082
30
0
41
1
10
11.9753246639535
20
25.5284859190125
30
0
41
1
10
11.9869300385982
20
25.5222157092709
30
0
41
1
10
11.9990098429091
20
25.5163782668382
30
0
41
1
10
12.0115652363492
20
25.5110187137331
30
0
41
1
10
12.0245857585495
20
25.5061754963035
30
0
41
1
10
12.0378945230392
20
25.5019319112393
30
0
41
1
10
12.0508948573479
20
25.4984624344446
30
0
41
1
10
12.0635287436236
20
25.495700615604
30
0
41
1
10
12.0757475680639
20
25.4935663899161
30
0
41
1
10
12.0880965272694
20
25.4919449288748
30
0
41
1
10
12.1006955384579
20
25.4908344187101
30
0
41
1
10
12.1135285982465
20
25.4902708776206
30
0
41
1
10
12.1265727319181
20
25.4902788688164
30
0
41
1
10
12.139643544656
20
25.4908688320356
30
0
41
1
10
12.1528553212333
20
25.4920586683719
30
0
41
1
10
12.1661831469676
20
25.4938852063652
30
0
41
1
10
12.1795977747304
20
25.496366385543
30
0
41
1
10
12.192910323198
20
25.4994727176557
30
0
41
1
10
12.2060717493897
20
25.5031945416301
30
0
41
1
10
12.2147119050693
20
25.5060832801772
30
0
41
1
10
12.2189983294595
20
25.5076284057662
30
0
0
SPLINE
5
151
100
AcDbEntity
8
1
62
256
6
ByLayer
370
18
48
1
60
0
100
AcDbSpline
70
4
71
3
72
41
73
37
40
0
40
0
40
0
40
0
40
0.0312551393154197
40
0.0625823703024742
40
0.08969277466304
40
0.116803221969241
40
0.144100780408783
40
0.17139840750263
40
0.199276491732342
40
0.227154674431507
40
0.25522832025106
40
0.283302087888143
40
0.310805501425514
40
0.338309041681881
40
0.365988563520961
40
0.393668225672368
40
0.421882152566226
40
0.450096237548593
40
0.478485494990693
40
0.506874916950174
40
0.536160850950956
40
0.565446969657457
40
0.594911297793042
40
0.624375809671425
40
0.654374918793064
40
0.684374216097386
40
0.714546388485365
40
0.744718741335361
40
0.776180626370464
40
0.807642707981752
40
0.839284641889053
40
0.870926757920687
40
0.903107655793987
40
0.935288727089372
40
0.967644286227105
40
1
40
1
40
1
40
1
41
1
10
12.2189983294595
20
25.5076284057662
30
0
41
1
10
12.2229648031095
20
25.5090597352363
30
0
41
1
10
12.2308345277259
20
25.5120931968144
30
0
41
1
10
12.2419177779007
20
25.5169268407514
30
0
41
1
10
12.2522824108229
20
25.5219555768016
30
0
41
1
10
12.2619629746059
20
25.5271086100227
30
0
41
1
10
12.2714515671001
20
25.5326272447485
30
0
41
1
10
12.2807976653119
20
25.538543862219
30
0
41
1
10
12.2899581364076
20
25.5448432771663
30
0
41
1
10
12.298933818947
20
25.5515349979558
30
0
41
1
10
12.3076439223733
20
25.5585645622227
30
0
41
1
10
12.3160169367173
20
25.5658689053161
30
0
41
1
10
12.3240272159717
20
25.5734101722315
30
0
41
1
10
12.3316890874598
20
25.5811824520278
30
0
41
1
10
12.3390451573536
20
25.5892249880767
30
0
41
1
10
12.3461307840687
20
25.5975767615805
30
0
41
1
10
12.3529144875273
20
25.6062106901116
30
0
41
1
10
12.3593959540683
20
25.6151329725999
30
0
41
1
10
12.3655228175755
20
25.6242741059449
30
0
41
1
10
12.3713490614058
20
25.6337164921915
30
0
41
1
10
12.3768431952116
20
25.6434313404025
30
0
41
1
10
12.3819989023884
20
25.6534265969268
30
0
41
1
10
12.3867533369893
20
25.6635857377834
30
0
41
1
10
12.3911292308478
20
25.6739539878594
30
0
41
1
10
12.3951065526129
20
25.6844961178014
30
0
41
1
10
12.3986841847768
20
25.6952168634993
30
0
41
1
10
12.4018354301342
20
25.7060366182403
30
0
41
1
10
12.4045985830888
20
25.7170938661007
30
0
41
1
10
12.4069471933266
20
25.7283538051482
30
0
41
1
10
12.4088667232352
20
25.7398221321788
30
0
41
1
10
12.4103243955214
20
25.7513255162103
30
0
41
1
10
12.4113279460425
20
25.7629121333489
30
0
41
1
10
12.4118693517014
20
25.7745433081311
30
0
41
1
10
12.4119459459973
20
25.7862224815385
30
0
41
1
10
12.4115561226078
20
25.7978694585158
30
0
41
1
10
12.4109895402816
20
25.8055979277757
30
0
41
1
10
12.4106291726811
20
25.8094508348911
30
0
0
SPLINE
5
152
100
AcDbEntity
8
1
62
256
6
ByLayer
370
18
48
1
60
0
100
AcDbSpline
70
4
71
3
72
36
73
32
40
0
40
0
40
0
40
0
40
0.0350163753311966
40
0.0700600385354608
40
0.105102450140309
40
0.140117117403828
40
0.176091460625322
40
0.212098765482667
40
0.248104288978206
40
0.284076200822254
40
0.319196063779024
40
0.354350480940648
40
0.389502988091845
40
0.424620243900347
40
0.460976862274798
40
0.497376730791581
40
0.533774244883549
40
0.570127648821231
40
0.60194537161063
40
0.633795306071536
40
0.665643940648499
40
0.697459889061121
40
0.730411088254248
40
0.763401025671764
40
0.796389805499463
40
0.829339424295099
40
0.863426724966428
40
0.89758224923634
40
0.931759958422532
40
0.965913970311483
40
1
40
1
40
1
40
1
41
1
10
12.8049261569421
20
28.0225432589114
30
0
41
1
10
12.8066713367178
20
28.0263124437505
30
0
41
1
10
12.810004142774
20
28.0339374589324
30
0
41
1
10
12.8145327766972
20
28.0456352280514
30
0
41
1
10
12.8185725498167
20
28.0575688580299
30
0
41
1
10
12.8221417639614
20
28.0698314323318
30
0
41
1
10
12.8252078366817
20
28.0824164678876
30
0
41
1
10
12.8277434394001
20
28.0953116531352
30
0
41
1
10
12.8297074442694
20
28.1083779504467
30
0
41
1
10
12.8310741172532
20
28.1214843729828
30
0
41
1
10
12.8318433405781
20
28.1346080890135
30
0
41
1
10
12.8320247046219
20
28.1477245482175
30
0
41
1
10
12.8316153892657
20
28.1609091127316
30
0
41
1
10
12.8305935312229
20
28.1742864534083
30
0
41
1
10
12.8289195342406
20
28.1878349027953
30
0
41
1
10
12.8265654120022
20
28.2015261005717
30
0
41
1
10
12.8235480142594
20
28.2151652564471
30
0
41
1
10
12.820016261339
20
28.2281488119956
30
0
41
1
10
12.8160567570039
20
28.2404599890142
30
0
41
1
10
12.8117631517383
20
28.2520969804106
30
0
41
1
10
12.8069608146736
20
28.2635888694608
30
0
41
1
10
12.8015910658871
20
28.275040251101
30
0
41
1
10
12.7956308033947
20
28.286419192306
30
0
41
1
10
12.7890703320063
20
28.2976934875972
30
0
41
1
10
12.7819932678738
20
28.3086984591439
30
0
41
1
10
12.7743267117618
20
28.3195239313075
30
0
41
1
10
12.7660513374293
20
28.33012985851
30
0
41
1
10
12.7571663273839
20
28.3404819392063
30
0
41
1
10
12.7477920781468
20
28.3504316724314
30
0
41
1
10
12.7379615829773
20
28.3599415080238
30
0
41
1
10
12.7311229519556
20
28.3659606811905
30
0
41
1
10
12.7276334276395
20
28.3688905484355
30
0
0
SPLINE
5
153
100
AcDbEntity
8
1
62
256
6
ByLayer
370
18
48
1
60
0
100
AcDbSpline
70
4
71
3
72
41
73
37
40
0
40
0
40
0
40
0
40
0.0315855627467132
40
0.0631711528143864
40
0.0906191266077646
40
0.118090700568751
40
0.145562583568333
40
0.173010979139446
40
0.20123741165815
40
0.229488515474368
40
0.257740229932287
40
0.285967495868755
40
0.313807088355865
40
0.341668908438099
40
0.369531468973147
40
0.397372071969896
40
0.425928446215691
40
0.45450695806366
40
0.483086364405052
40
0.51164395935322
40
0.541283718857625
40
0.57094600914929
40
0.600609320841923
40
0.630250474215817
40
0.660607773960998
40
0.690986934722843
40
0.721367117244588
40
0.751725811293507
40
0.782425144963856
40
0.813144898465735
40
0.843865562558078
40
0.874566138761881
40
0.905914247589705
40
0.937282132456795
40
0.968650809819533
40
1
40
1
40
1
40
1
41
1
10
12.7276334276395
20
28.3688905484355
30
0
41
1
10
12.7243992542041
20
28.3716039662834
30
0
41
1
10
12.717822326109
20
28.3768839107239
30
0
41
1
10
12.7080660174445
20
28.384045081513
30
0
41
1
10
12.6984929060531
20
28.3904899883608
30
0
41
1
10
12.6891601465905
20
28.3962756502351
30
0
41
1
10
12.6796305669611
20
28.4017007795069
30
0
41
1
10
12.6698315889679
20
28.4068031685013
30
0
41
1
10
12.6597709849775
20
28.4115620060484
30
0
41
1
10
12.6494610492304
20
28.4159630943483
30
0
41
1
10
12.6390174126886
20
28.4199572434904
30
0
41
1
10
12.6285101671065
20
28.4235223130886
30
0
41
1
10
12.6179566120876
20
28.4266602055146
30
0
41
1
10
12.6073740038602
20
28.4293802911754
30
0
41
1
10
12.5967342333475
20
28.4316967603885
30
0
41
1
10
12.585965976686
20
28.4336251760679
30
0
41
1
10
12.5750827594822
20
28.4351525260083
30
0
41
1
10
12.5640992952663
20
28.4362723117001
30
0
41
1
10
12.553127371794
20
28.4369755072262
30
0
41
1
10
12.5420485176009
20
28.4372690018626
30
0
41
1
10
12.5308784965889
20
28.4371368316407
30
0
41
1
10
12.5196338256341
20
28.4365693594622
30
0
41
1
10
12.5084713652252
20
28.4355759199973
30
0
41
1
10
12.4973209568412
20
28.4341521445051
30
0
41
1
10
12.4861991259341
20
28.4322916329559
30
0
41
1
10
12.4751212594096
20
28.4299936852362
30
0
41
1
10
12.4641925124765
20
28.4272836142999
30
0
41
1
10
12.4533893719695
20
28.424159638902
30
0
41
1
10
12.4427259603213
20
28.4206240883161
30
0
41
1
10
12.4322139609745
20
28.4166836701233
30
0
41
1
10
12.4219070090304
20
28.4123635983543
30
0
41
1
10
12.4117481108129
20
28.4076423809803
30
0
41
1
10
12.4017525200521
20
28.4025195672709
30
0
41
1
10
12.3919336752287
20
28.3969988133724
30
0
41
1
10
12.3823715617136
20
28.3911277440044
30
0
41
1
10
12.3761778063256
20
28.3869908651683
30
0
41
1
10
12.3731261900912
20
28.3848664518383
30
0
0
SPLINE
5
154
100
AcDbEntity
8
1
62
256
6
ByLayer
370
18
48
1
60
0
100
AcDbSpline
70
4
71
1
72
4
73
2
40
0
40
0
40
1
40
1
41
1
10
17.0683194344498
20
-18.456409141951
30
0
41
1
10
17.0681233469323
20
-18.4564042432426
30
0
0
SPLINE
5
155
100
AcDbEntity
8
1
62
256
6
ByLayer
370
18
48
1
60
0
100
AcDbSpline
70
4
71
3
72
12
73
8
40
0
40
0
40
0
40
0
40
0.0692336874369304
40
0.301925052359209
40
0.534616423985601
40
0.76730821042754
40
1
40
1
40
1
40
1
41
1
10
17.6147897656906
20
-18.4057343618971
30
0
41
1
10
17.6101917299553
20
-18.4384527662261
30
0
41
1
10
17.5901398634816
20
-18.5811265557646
30
0
41
1
10
17.5546338692095
20
-18.8336773311105
30
0
41
1
10
17.508271494264
20
-19.1633083649332
30
0
41
1
10
17.4619086926825
20
-19.4928214661526
30
0
41
1
10
17.4309999291954
20
-19.7124304859111
30
0
41
1
10
17.4155454901022
20
-19.8222173482202
30
0
0
SPLINE
5
156
100
AcDbEntity
8
1
62
256
6
ByLayer
370
18
48
1
60
0
100
AcDbSpline
70
4
71
3
72
43
73
39
40
0
40
0
40
0
40
0
40
0.0001119291921846
40
0.000259786736383
40
0.0005331484018595
40
0.000821247727856
40
0.0011099571209212
40
0.0017015185090778
40
0.002847487051335
40
0.0039943812295565
40
0.0063041913120192
40
0.0093536765131725
40
0.0124038353523698
40
0.0154539546733549
40
0.0200369037352775
40
0.0246199142243245
40
0.0337638114396603
40
0.0429080487910121
40
0.0520525925925607
40
0.0611969077075248
40
0.0794932246692397
40
0.0977896014043926
40
0.127046583097469
40
0.156303745631241
40
0.185561161492882
40
0.214818673074138
40
0.24407594751881
40
0.292843204608727
40
0.341610521493921
40
0.390377819506732
40
0.463517449145928
40
0.5366572457314
40
0.609796859517093
40
0.682936544530565
40
0.762202335765524
40
0.841468129284224
40
0.920734064108909
40
1
40
1
40
1
40
1
41
1
10
18
20
-18.0654355652982
30
0
41
1
10
17.9999991256366
20
-18.06552196992
30
0
41
1
10
17.9999907689054
20
-18.0656672653568
30
0
41
1
10
17.9999347745679
20
-18.0656452218687
30
0
41
1
10
17.99982825818
20
-18.0652644725464
30
0
41
1
10
17.9996859383358
20
-18.0646118714552
30
0
41
1
10
17.9994793841776
20
-18.063551744916
30
0
41
1
10
17.9991083859031
20
-18.0614975785426
30
0
41
1
10
17.9985661256638
20
-18.0582947817092
30
0
41
1
10
17.9976893630383
20
-18.0528998050212
30
0
41
1
10
17.9964398192608
20
-18.0449945002521
30
0
41
1
10
17.9948166896397
20
-18.0345059666278
30
0
41
1
10
17.9930452521455
20
-18.022884737929
30
0
41
1
10
17.9909735202118
20
-18.0091638664268
30
0
41
1
10
17.9886020736314
20
-17.9933566710152
30
0
41
1
10
17.985044145896
20
-17.9694742562055
30
0
41
1
10
17.9805965417047
20
-17.9394460797324
30
0
41
1
10
17.975258369293
20
-17.9031908404038
30
0
41
1
10
17.9699177680119
20
-17.8667559176081
30
0
41
1
10
17.9627937121762
20
-17.8180178461424
30
0
41
1
10
17.9538854385909
20
-17.7568997460567
30
0
41
1
10
17.9410567003465
20
-17.6685914571702
30
0
41
1
10
17.9260901662126
20
-17.5653151545684
30
0
41
1
10
17.9089854446579
20
-17.4469984518257
30
0
41
1
10
17.8918788439816
20
-17.3284353934524
30
0
41
1
10
17.8747709910059
20
-17.2096849057043
30
0
41
1
10
17.853859529245
20
-17.0643901984464
30
0
41
1
10
17.8291441802567
20
-16.8924977474968
30
0
41
1
10
17.8006244421871
20
-16.6939072089644
30
0
41
1
10
17.7673525564054
20
-16.4620197479269
30
0
41
1
10
17.7293282808368
20
-16.1967772349684
30
0
41
1
10
17.6865515225292
20
-15.8981307725648
30
0
41
1
10
17.6437739301402
20
-15.5992778106963
30
0
41
1
10
17.5998013642669
20
-15.2919051972776
30
0
41
1
10
17.5546338698817
20
-14.9760260736546
30
0
41
1
10
17.508271494083
20
-14.6516497486665
30
0
41
1
10
17.4619086927342
20
-14.3271496532697
30
0
41
1
10
17.4309999291954
20
-14.1107466091301
30
0
41
1
10
17.4155454901022
20
-14.0025266347886
30
0
0
SPLINE
5
157
100
AcDbEntity
8
1
62
256
6
ByLayer
370
18
48
1
60
0
100
AcDbSpline
70
4
71
3
72
34
73
30
40
0
40
0
40
0
40
0
40
0.0137792612395554
40
0.177840464964445
40
0.34190122957166
40
0.450583185149654
40
0.559265033661362
40
0.631989968361272
40
0.704714795834656
40
0.753384694493229
40
0.802054485685404
40
0.834631714658997
40
0.867208835806842
40
0.889020181109257
40
0.910831418047019
40
0.925440480901998
40
0.940049434582847
40
0.959630702765351
40
0.972765369755959
40
0.98158751891197
40
0.987524953136698
40
0.991533037444821
40
0.994251172726012
40
0.996107533437007
40
0.997389236671238
40
0.998728272087513
40
0.99926681898737
40
0.999718797327335
40
1
40
1
40
1
40
1
41
1
10
17.8281015654405
20
-11.1790911041907
30
0
41
1
10
17.8288929748295
20
-11.1735769438734
30
0
41
1
10
17.839107166064
20
-11.102417196973
30
0
41
1
10
17.8587423381624
20
-10.9659536373263
30
0
41
1
10
17.8838269122201
20
-10.7917285196004
30
0
41
1
10
17.9057293651055
20
-10.6398790441982
30
0
41
1
10
17.9223854910791
20
-10.5246129049595
30
0
41
1
10
17.9369753578819
20
-10.4238494366978
30
0
41
1
10
17.9481183078358
20
-10.3470673028295
30
0
41
1
10
17.9578787390476
20
-10.2799774955359
30
0
41
1
10
17.9653334051335
20
-10.2288806343289
30
0
41
1
10
17.9718629673287
20
-10.1842606432771
30
0
41
1
10
17.9768501884365
20
-10.1502982790675
30
0
41
1
10
17.981218313092
20
-10.1206633257796
30
0
41
1
10
17.9845548200849
20
-10.0981240710331
30
0
41
1
10
17.9874769528158
20
-10.0784755735435
30
0
41
1
10
17.9902693474204
20
-10.059798996348
30
0
41
1
10
17.9929741742345
20
-10.0418542245814
30
0
41
1
10
17.9953421601226
20
-10.0263693637178
30
0
41
1
10
17.9969262095753
20
-10.0161974679071
30
0
41
1
10
17.9979856776119
20
-10.0095499068518
30
0
41
1
10
17.9986942184094
20
-10.0052353026589
30
0
41
1
10
17.999167552881
20
-10.0024654816064
30
0
41
1
10
17.9994838293424
20
-10.0007121847681
30
0
41
1
10
17.9997161213728
20
-9.99952499408438
30
0
41
1
10
17.9998708424683
20
-9.99884136251143
30
0
41
1
10
17.9999609933789
20
-9.99861536714032
30
0
41
1
10
17.999994402318
20
-9.99865503588416
30
0
41
1
10
17.9999996438514
20
-9.99878885472583
30
0
41
1
10
18
20
-9.99885417906465
30
0
0
SPLINE
5
158
100
AcDbEntity
8
1
62
256
6
ByLayer
370
18
48
1
60
0
100
AcDbSpline
70
4
71
3
72
15
73
11
40
0
40
0
40
0
40
0
40
0.124986749985307
40
0.249973504868357
40
0.374965693955596
40
0.499957887279599
40
0.624965885820454
40
0.749973887989322
40
0.874986942468339
40
1
40
1
40
1
40
1
41
1
10
4.4517822926671
20
21.2047797343649
30
0
41
1
10
4.45777666669058
20
21.2142200002099
30
0
41
1
10
4.46991666388676
20
21.2329446826135
30
0
41
1
10
4.48858478946326
20
21.2605640934224
30
0
41
1
10
4.5076987306972
20
21.2877172610549
30
0
41
1
10
4.52725230221378
20
21.3144060727303
30
0
41
1
10
4.54723714748204
20
21.3406309787809
30
0
41
1
10
4.56764646020827
20
21.3663930451176
30
0
41
1
10
4.58847301345834
20
21.3916918525144
30
0
41
1
10
4.60262988644443
20
21.4082494793761
30
0
41
1
10
4.60977687471528
20
21.4164511241213
30
0
0
SPLINE
5
159
100
AcDbEntity
8
SK1
62
256
6
ByLayer
370
18
48
1
60
0
100
AcDbSpline
70
4
71
3
72
10
73
6
40
0
40
0
40
0
40
0
40
0.439659669679142
40
0.879514683842477
40
1
40
1
40
1
40
1
41
1
10
-2.09426059910409
20
-18.5878018457431
30
0
41
1
10
-2.09035962154138
20
-18.5892521644878
30
0
41
1
10
-2.08272027552229
20
-18.5923505211785
30
0
41
1
10
-2.0744046681197
20
-18.5963315180354
30
0
41
1
10
-2.06988106475609
20
-18.5987151487443
30
0
41
1
10
-2.06891460131935
20
-18.5992349676921
30
0
0
SPLINE
5
15A
100
AcDbEntity
8
1
62
256
6
ByLayer
370
18
48
1
60
0
100
AcDbSpline
70
4
71
3
72
71
73
67
40
0
40
0
40
0
40
0
40
0.02060125803042
40
0.0411860202425096
40
0.0617195916040764
40
0.0822356858344626
40
0.0997249791085899
40
0.117214204179769
40
0.134655237371933
40
0.152096189571191
40
0.168553139953195
40
0.184998791642996
40
0.201749689963404
40
0.218487617423472
40
0.235120993277744
40
0.251754264879088
40
0.268329399563713
40
0.284904420437744
40
0.297873051854738
40
0.310843581096828
40
0.323812052514162
40
0.336705371715174
40
0.349600759449773
40
0.362493920925235
40
0.375145347415516
40
0.387798919075282
40
0.400450211799935
40
0.413019139624782
40
0.425590336985528
40
0.438159162276209
40
0.453455654501759
40
0.468752106243724
40
0.483978358689129
40
0.499204596907615
40
0.513378132760198
40
0.527537546536693
40
0.541986050690774
40
0.556419848372918
40
0.570748098314591
40
0.585076393012665
40
0.599350658094305
40
0.613624979454425
40
0.628383890501118
40
0.643146317066964
40
0.657905489589137
40
0.672551733669496
40
0.687201080244206
40
0.701847587955676
40
0.716207864897205
40
0.730570747314242
40
0.744931253144326
40
0.759209031975475
40
0.773489085257811
40
0.787767061112456
40
0.805980819498924
40
0.824194705404948
40
0.842347410673216
40
0.860500222453418
40
0.877843289447599
40
0.895174636498417
40
0.912721487918118
40
0.930257035384389
40
0.947712984629885
40
0.965168985847953
40
0.982584471944388
40
1
40
1
40
1
40
1
41
1
10
13.1375396896595
20
27.1126472491137
30
0
41
1
10
13.1312683140819
20
27.1155708368501
30
0
41
1
10
13.1188008812697
20
27.1216168237054
30
0
41
1
10
13.100321514769
20
27.1312790806962
30
0
41
1
10
13.0820912039328
20
27.1415300823401
30
0
41
1
10
13.0650013250014
20
27.1518383776875
30
0
41
1
10
13.0490115347975
20
27.1621137171027
30
0
41
1
10
13.0341011938803
20
27.1722578805954
30
0
41
1
10
13.0194084814198
20
27.1828306058694
30
0
41
1
10
13.0052155671146
20
27.1936238926555
30
0
41
1
10
12.9915091834769
20
27.2046168786784
30
0
41
1
10
12.9782030888837
20
27.2158505363967
30
0
41
1
10
12.9650480954622
20
27.2275443515218
30
0
41
1
10
12.952084616753
20
27.2396826425046
30
0
41
1
10
12.9394034289014
20
27.2521891500974
30
0
41
1
10
12.9270261754036
20
27.2650466280028
30
0
41
1
10
12.9149387744687
20
27.2782768858049
30
0
41
1
10
12.9040079549179
20
27.2908879603032
30
0
41
1
10
12.8941621423456
20
27.3028009991725
30
0
41
1
10
12.885343362046
20
27.313931613143
30
0
41
1
10
12.8767402249086
20
27.3252649237001
30
0
41
1
10
12.8683589749031
20
27.3367960347375
30
0
41
1
10
12.8602051133405
20
27.3485185402207
30
0
41
1
10
12.8523192770236
20
27.360375254035
30
0
41
1
10
12.8447044486214
20
27.3723566505167
30
0
41
1
10
12.8373621890853
20
27.3844519743594
30
0
41
1
10
12.8302666116493
20
27.3967039521657
30
0
41
1
10
12.8234233466868
20
27.4091047250254
30
0
41
1
10
12.8168364722574
20
27.4216449607048
30
0
41
1
10
12.8100389215757
20
27.4352621485014
30
0
41
1
10
12.8031059563787
20
27.4499882073264
30
0
41
1
10
12.7961317770965
20
27.465826142983
30
0
41
1
10
12.7895628377784
20
27.4818275874953
30
0
41
1
10
12.783546505766
20
27.497601174282
30
0
41
1
10
12.7780503792103
20
27.5131361067555
30
0
41
1
10
12.7730134396764
20
27.5285094251708
30
0
41
1
10
12.768317105566
20
27.5440781628662
30
0
41
1
10
12.7639821159423
20
27.5597948780078
30
0
41
1
10
12.7600391315837
20
27.5755381334123
30
0
41
1
10
12.7564889509155
20
27.5912772265097
30
0
41
1
10
12.7533216289348
20
27.6070353890914
30
0
41
1
10
12.75050299451
20
27.6229761732239
30
0
41
1
10
12.7480439273732
20
27.6391072070124
30
0
41
1
10
12.7459570377367
20
27.6554127978681
30
0
41
1
10
12.7442711240071
20
27.6716590059702
30
0
41
1
10
12.7429805462803
20
27.6878326204093
30
0
41
1
10
12.7420768466628
20
27.7039221516788
30
0
41
1
10
12.7415559171155
20
27.7198533978481
30
0
41
1
10
12.7414054057993
20
27.7356170181791
30
0
41
1
10
12.741611382469
20
27.7512057068019
30
0
41
1
10
12.7421669179452
20
27.7666853027677
30
0
41
1
10
12.7430651702022
20
27.7820483720449
30
0
41
1
10
12.7442981714691
20
27.7972887217754
30
0
41
1
10
12.7460062583922
20
27.8138204836211
30
0
41
1
10
12.7482978157006
20
27.8316006888924
30
0
41
1
10
12.7512837842833
20
27.850556298003
30
0
41
1
10
12.7547741670954
20
27.8692978136429
30
0
41
1
10
12.7586969930187
20
27.8875413842824
30
0
41
1
10
12.7630203805008
20
27.9053062738773
30
0
41
1
10
12.7677302207428
20
27.9226681309012
30
0
41
1
10
12.7728891877482
20
27.9398863627988
30
0
41
1
10
12.7784872731524
20
27.956929997284
30
0
41
1
10
12.7844926770213
20
27.9737237796393
30
0
41
1
10
12.7908912760874
20
27.9902541337033
30
0
41
1
10
12.7976844502518
20
28.0065424040221
30
0
41
1
10
12.802468708483
20
28.017235585898
30
0
41
1
10
12.8049261569421
20
28.0225432589114
30
0
0
SPLINE
5
15B
100
AcDbEntity
8
1
62
256
6
ByLayer
370
18
48
1
60
0
100
AcDbSpline
70
4
71
3
72
41
73
37
40
0
40
0
40
0
40
0
40
0.0285219951516253
40
0.0570977290526553
40
0.0844746846364181
40
0.111851680843178
40
0.139418067990474
40
0.166984521961957
40
0.195138918043427
40
0.223293411306584
40
0.251646062321634
40
0.279998834576667
40
0.307730720802839
40
0.335462733036167
40
0.363372495015462
40
0.391282397099621
40
0.419732180308499
40
0.448182121923458
40
0.476809176044048
40
0.505436395480699
40
0.534933679212791
40
0.564431148136886
40
0.594108287919899
40
0.623785612327504
40
0.654002016524281
40
0.684218610190421
40
0.714609560904877
40
0.74500069365254
40
0.776434465590103
40
0.807868429896848
40
0.83947944830428
40
0.871090645377245
40
0.903231997469764
40
0.93537352007969
40
0.967686683730425
40
1
40
1
40
1
40
1
41
1
10
13.3018361559652
20
26.7981042757013
30
0
41
1
10
13.3024874504821
20
26.8018598308228
30
0
41
1
10
13.3036431511238
20
26.8093953070118
30
0
41
1
10
13.3049153654198
20
26.8206049456002
30
0
41
1
10
13.3057442271665
20
26.8316930660006
30
0
41
1
10
13.3061518636013
20
26.8426595897602
30
0
41
1
10
13.3061463640768
20
26.8536446267125
30
0
41
1
10
13.3057244771869
20
26.8647074097588
30
0
41
1
10
13.3048775400143
20
26.8758028891211
30
0
41
1
10
13.3035976266385
20
26.8869366050823
30
0
41
1
10
13.3018911891618
20
26.8980109399767
30
0
41
1
10
13.2997779340482
20
26.9089263907518
30
0
41
1
10
13.2972784713721
20
26.9196417382017
30
0
41
1
10
13.2944058064703
20
26.9301666197106
30
0
41
1
10
13.2911459785329
20
26.940563371309
30
0
41
1
10
13.287482944498
20
26.9508822292092
30
0
41
1
10
13.2834242659126
20
26.9610822924226
30
0
41
1
10
13.2789643582913
20
26.9711664038063
30
0
41
1
10
13.2741370428778
20
26.9810541907969
30
0
41
1
10
13.2689002111306
20
26.9908298279534
30
0
41
1
10
13.263263431858
20
27.0004518643061
30
0
41
1
10
13.2572171005696
20
27.0099191727915
30
0
41
1
10
13.2508281898468
20
27.0191226065814
30
0
41
1
10
13.2440689850658
20
27.0281045294033
30
0
41
1
10
13.2369598608682
20
27.0368299206167
30
0
41
1
10
13.2294961443044
20
27.0453001936342
30
0
41
1
10
13.2217332398803
20
27.0534522601965
30
0
41
1
10
13.2135933902644
20
27.0613667020619
30
0
41
1
10
13.2050960065395
20
27.0690066960717
30
0
41
1
10
13.1962314986085
20
27.076366031724
30
0
41
1
10
13.1871094174629
20
27.0833505902673
30
0
41
1
10
13.1776929683093
20
27.0899906104039
30
0
41
1
10
13.16801088568
20
27.0962604131218
30
0
41
1
10
13.1580590160576
20
27.1021595461003
30
0
41
1
10
13.1479041891068
20
27.1076472743875
30
0
41
1
10
13.1410135067335
20
27.1110278808485
30
0
41
1
10
13.1375396896595
20
27.1126472491137
30
0
0
SPLINE
5
15C
100
AcDbEntity
8
1
62
256
6
ByLayer
370
18
48
1
60
0
100
AcDbSpline
70
4
71
3
72
36
73
32
40
0
40
0
40
0
40
0
40
0.0347956634946065
40
0.0696184338143889
40
0.104439972397002
40
0.139233954930665
40
0.174980893752295
40
0.21076055174153
40
0.246538446311778
40
0.282282978248444
40
0.317207219631034
40
0.352165838815501
40
0.387122551041673
40
0.422044189440869
40
0.458199290040243
40
0.494397454045961
40
0.530593251797737
40
0.566745121805223
40
0.598371827140243
40
0.630030600458243
40
0.66168805879326
40
0.693312969137842
40
0.726069039036864
40
0.758863745292667
40
0.791657264856272
40
0.82441171461919
40
0.859479733751484
40
0.894623405776279
40
0.929791631573723
40
0.964933498272471
40
1
40
1
40
1
40
1
41
1
10
13.0378754344403
20
26.5569738207839
30
0
41
1
10
13.0420234531262
20
26.5573118513361
30
0
41
1
10
13.0503170250218
20
26.5581683572247
30
0
41
1
10
13.0627512884029
20
26.5599928175763
30
0
41
1
10
13.0751491727365
20
26.5623607970231
30
0
41
1
10
13.0876007846761
20
26.5653022184601
30
0
41
1
10
13.1000843750895
20
26.568842238536
30
0
41
1
10
13.1125757133467
20
26.5729985936369
30
0
41
1
10
13.1249333949583
20
26.5777385043083
30
0
41
1
10
13.1370335706125
20
26.583021012833
30
0
41
1
10
13.1488561591872
20
26.588835423408
30
0
41
1
10
13.1603842881642
20
26.5951617365177
30
0
41
1
10
13.1716792168957
20
26.6020382015527
30
0
41
1
10
13.1828388958128
20
26.6095456533949
30
0
41
1
10
13.1938247588554
20
26.6177080365442
30
0
41
1
10
13.2045981010635
20
26.6265358668676
30
0
41
1
10
13.2149971854598
20
26.6359180645669
30
0
41
1
10
13.2245680046914
20
26.6454246750493
30
0
41
1
10
13.2333389619946
20
26.6549714485667
30
0
41
1
10
13.2413550355105
20
26.6644754278525
30
0
41
1
10
13.248992247193
20
26.6743523599962
30
0
41
1
10
13.2563127699096
20
26.6847055356839
30
0
41
1
10
13.263277118836
20
26.6955394400867
30
0
41
1
10
13.2698521931414
20
26.7068466603645
30
0
41
1
10
13.2759354806977
20
26.7184724198208
30
0
41
1
10
13.2816360476645
20
26.7306680099978
30
0
41
1
10
13.2868856380351
20
26.7434437578321
30
0
41
1
10
13.291628116122
20
26.7567918991482
30
0
41
1
10
13.2957324957257
20
26.7703825541155
30
0
41
1
10
13.2991806798432
20
26.7841628439641
30
0
41
1
10
13.3010258830388
20
26.7934422139853
30
0
41
1
10
13.3018361559652
20
26.7981042757013
30
0
0
SPLINE
5
15D
100
AcDbEntity
8
1
62
256
6
ByLayer
370
18
48
1
60
0
100
AcDbSpline
70
4
71
3
72
33
73
29
40
0
40
0
40
0
40
0
40
0.0251961836579121
40
0.0503924070211594
40
0.0755346171120966
40
0.100676872841712
40
0.141615309492402
40
0.182591285037555
40
0.223582851679917
40
0.264564525561515
40
0.305507745897638
40
0.34539096001032
40
0.385301661976236
40
0.425223957303797
40
0.465139184037422
40
0.505026195766555
40
0.547426298370879
40
0.589844738229385
40
0.632264676516698
40
0.674666823303562
40
0.715098711385091
40
0.755530771574727
40
0.79644001265396
40
0.837349402947752
40
0.878005683020776
40
0.918674001081274
40
0.959342911681354
40
1
40
1
40
1
40
1
41
1
10
12.6255251787853
20
26.3746924833042
30
0
41
1
10
12.6285131740444
20
26.3774817403002
30
0
41
1
10
12.6345317483238
20
26.3830007699969
30
0
41
1
10
12.6436833544557
20
26.3910966554118
30
0
41
1
10
12.6529507594423
20
26.3990055598896
30
0
41
1
10
12.6642921018557
20
26.4083426318302
30
0
41
1
10
12.6778115153609
20
26.4189523855582
30
0
41
1
10
12.693604283074
20
26.430629447981
30
0
41
1
10
12.709651118288
20
26.4418026763315
30
0
41
1
10
12.7259203305935
20
26.4524599286876
30
0
41
1
10
12.7422476923205
20
26.4625071925944
30
0
41
1
10
12.7586135322879
20
26.4719586218411
30
0
41
1
10
12.7750006741277
20
26.4808365958584
30
0
41
1
10
12.7915353945099
20
26.489224404849
30
0
41
1
10
12.8081947239095
20
26.4971197775909
30
0
41
1
10
12.8253150377523
20
26.504678593802
30
0
41
1
10
12.8428944699934
20
26.5118676653737
30
0
41
1
10
12.8609289834998
20
26.5186570310178
30
0
41
1
10
12.8790475966412
20
26.5249051227437
30
0
41
1
10
12.8969529526382
20
26.5305268371581
30
0
41
1
10
12.9146293485793
20
26.5355548227849
30
0
41
1
10
12.9321344625325
20
26.5400403786788
30
0
41
1
10
12.9497417463982
20
26.5440610660567
30
0
41
1
10
12.9674053562486
20
26.547607565244
30
0
41
1
10
12.9850492744854
20
26.5506716855689
30
0
41
1
10
13.0026644117813
20
26.5532611885796
30
0
41
1
10
13.0202779166063
20
26.5553859175891
30
0
41
1
10
13.032011179458
20
26.556495827161
30
0
41
1
10
13.0378754344403
20
26.5569738207839
30
0
0
SPLINE
5
15E
100
AcDbEntity
8
1
62
256
6
ByLayer
370
18
48
1
60
0
100
AcDbSpline
70
4
71
3
72
35
73
31
40
0
40
0
40
0
40
0
40
0.0394668833887329
40
0.0789124963779371
40
0.118292551577805
40
0.157650327528136
40
0.193196010996583
40
0.228745931173055
40
0.264291311562199
40
0.299670263385349
40
0.335053787991097
40
0.370432359954467
40
0.405259403567128
40
0.440091287301203
40
0.474917885776162
40
0.509550096884173
40
0.544187643943183
40
0.578819328703189
40
0.615390741104707
40
0.651961940765777
40
0.688410235790168
40
0.724858304850986
40
0.758911653575547
40
0.792936917439259
40
0.827688307390892
40
0.862407567828463
40
0.896874515694524
40
0.931341293364106
40
0.965670717256757
40
1
40
1
40
1
40
1
41
1
10
12.4106291726811
20
25.8094508348911
30
0
41
1
10
12.4100975914979
20
25.8151375078373
30
0
41
1
10
12.4091768403698
20
25.8265358416133
30
0
41
1
10
12.4082203995335
20
25.8437095176685
30
0
41
1
10
12.407694333231
20
25.860945076175
30
0
41
1
10
12.4076046732194
20
25.8776810442685
30
0
41
1
10
12.4079079683662
20
25.8939130472757
30
0
41
1
10
12.4085617261662
20
25.9096317665786
30
0
41
1
10
12.4095786359846
20
25.9253671609195
30
0
41
1
10
12.4109608723992
20
25.9411131434772
30
0
41
1
10
12.4127100466389
20
25.9568634681128
30
0
41
1
10
12.4148212204667
20
25.9725544535621
30
0
41
1
10
12.417291852549
20
25.9881790174696
30
0
41
1
10
12.4201185590747
20
26.003730121117
30
0
41
1
10
12.42331203253
20
26.0192536617486
30
0
41
1
10
12.4268738899241
20
26.0347420042961
30
0
41
1
10
12.4308046196539
20
26.0501871704619
30
0
41
1
10
12.435194559191
20
26.0658974234279
30
0
41
1
10
12.4400722641352
20
26.081860754871
30
0
41
1
10
12.4454604514801
20
26.0980462355929
30
0
41
1
10
12.451272785423
20
26.1141544303689
30
0
41
1
10
12.4573725914659
20
26.1298219672151
30
0
41
1
10
12.4637338283634
20
26.1450552661526
30
0
41
1
10
12.4703717934271
20
26.1599541716954
30
0
41
1
10
12.4774389438416
20
26.1748481724773
30
0
41
1
10
12.484926823501
20
26.1896889281774
30
0
41
1
10
12.4927803602281
20
26.2043586615426
30
0
41
1
10
12.5009840468858
20
26.2188288244816
30
0
41
1
10
12.5095524507882
20
26.2331220494609
30
0
41
1
10
12.5155013956922
20
26.2425193061974
30
0
41
1
10
12.5185373766055
20
26.2471893856927
30
0
0
SPLINE
5
15F
100
AcDbEntity
8
1
62
256
6
ByLayer
370
18
48
1
60
0
100
AcDbSpline
70
4
71
3
72
33
73
29
40
0
40
0
40
0
40
0
40
0.0251961836579093
40
0.0503924070211594
40
0.0755346171121044
40
0.100676872841713
40
0.141615309492407
40
0.182591285037558
40
0.223582851679921
40
0.264564525561519
40
0.305507745897639
40
0.345390960010321
40
0.38530166197624
40
0.425223957303801
40
0.465139184037427
40
0.505026195766556
40
0.547426298370883
40
0.589844738229387
40
0.6322646765167
40
0.674666823303564
40
0.715098711385092
40
0.75553077157473
40
0.796440012653963
40
0.837349402947754
40
0.878005683020776
40
0.918674001081278
40
0.959342911681358
40
1
40
1
40
1
40
1
41
1
10
10.6744748212147
20
27.7945415957889
30
0
41
1
10
10.6714868259555
20
27.791752338793
30
0
41
1
10
10.6654682516762
20
27.7862333090962
30
0
41
1
10
10.6563166455443
20
27.7781374236813
30
0
41
1
10
10.6470492405577
20
27.7702285192035
30
0
41
1
10
10.6357078981444
20
27.760891447263
30
0
41
1
10
10.6221884846391
20
27.7502816935349
30
0
41
1
10
10.606395716926
20
27.7386046311121
30
0
41
1
10
10.590348881712
20
27.7274314027617
30
0
41
1
10
10.5740796694065
20
27.7167741504055
30
0
41
1
10
10.5577523076795
20
27.7067268864987
30
0
41
1
10
10.5413864677121
20
27.697275457252
30
0
41
1
10
10.5249993258723
20
27.6883974832347
30
0
41
1
10
10.5084646054901
20
27.6800096742442
30
0
41
1
10
10.4918052760906
20
27.6721143015022
30
0
41
1
10
10.4746849622477
20
27.6645554852912
30
0
41
1
10
10.4571055300066
20
27.6573664137194
30
0
41
1
10
10.4390710165002
20
27.6505770480754
30
0
41
1
10
10.4209524033588
20
27.6443289563494
30
0
41
1
10
10.4030470473618
20
27.638707241935
30
0
41
1
10
10.3853706514207
20
27.6336792563082
30
0
41
1
10
10.3678655374675
20
27.6291937004144
30
0
41
1
10
10.3502582536018
20
27.6251730130365
30
0
41
1
10
10.3325946437514
20
27.6216265138492
30
0
41
1
10
10.3149507255146
20
27.6185623935242
30
0
41
1
10
10.2973355882187
20
27.6159728905135
30
0
41
1
10
10.2797220833937
20
27.613848161504
30
0
41
1
10
10.267988820542
20
27.6127382519321
30
0
41
1
10
10.2621245655597
20
27.6122602583093
30
0
0
SPLINE
5
160
100
AcDbEntity
8
1
62
256
6
ByLayer
370
18
48
1
60
0
100
AcDbSpline
70
4
71
3
72
35
73
31
40
0
40
0
40
0
40
0
40
0.0394668833886845
40
0.0789124963778589
40
0.118292551577713
40
0.157650327528036
40
0.193196010996484
40
0.228745931172964
40
0.264291311562104
40
0.299670263385255
40
0.335053787991012
40
0.370432359954383
40
0.405259403567045
40
0.44009128730112
40
0.474917885776075
40
0.509550096884093
40
0.544187643943105
40
0.578819328703114
40
0.615390741104647
40
0.651961940765718
40
0.688410235790111
40
0.724858304850938
40
0.758911653575507
40
0.792936917439235
40
0.827688307390863
40
0.862407567828444
40
0.896874515694506
40
0.931341293364103
40
0.965670717256764
40
1
40
1
40
1
40
1
41
1
10
10.8893708273192
20
28.3597832442021
30
0
41
1
10
10.8899024085022
20
28.3540965712558
30
0
41
1
10
10.8908231596301
20
28.3426982374798
30
0
41
1
10
10.8917796004666
20
28.3255245614246
30
0
41
1
10
10.892305666769
20
28.3082890029182
30
0
41
1
10
10.8923953267806
20
28.2915530348247
30
0
41
1
10
10.8920920316338
20
28.2753210318175
30
0
41
1
10
10.8914382738338
20
28.2596023125146
30
0
41
1
10
10.8904213640154
20
28.2438669181737
30
0
41
1
10
10.8890391276008
20
28.228120935616
30
0
41
1
10
10.8872899533611
20
28.2123706109804
30
0
41
1
10
10.8851787795333
20
28.1966796255311
30
0
41
1
10
10.882708147451
20
28.1810550616236
30
0
41
1
10
10.8798814409254
20
28.1655039579761
30
0
41
1
10
10.87668796747
20
28.1499804173446
30
0
41
1
10
10.8731261100759
20
28.1344920747971
30
0
41
1
10
10.8691953803461
20
28.1190469086313
30
0
41
1
10
10.8648054408091
20
28.1033366556653
30
0
41
1
10
10.8599277358649
20
28.0873733242222
30
0
41
1
10
10.8545395485199
20
28.0711878435002
30
0
41
1
10
10.848727214577
20
28.0550796487243
30
0
41
1
10
10.8426274085341
20
28.0394121118781
30
0
41
1
10
10.8362661716366
20
28.0241788129405
30
0
41
1
10
10.829628206573
20
28.0092799073978
30
0
41
1
10
10.8225610561584
20
27.9943859066159
30
0
41
1
10
10.815073176499
20
27.9795451509157
30
0
41
1
10
10.8072196397719
20
27.9648754175506
30
0
41
1
10
10.7990159531142
20
27.9504052546115
30
0
41
1
10
10.7904475492118
20
27.9361120296322
30
0
41
1
10
10.7844986043078
20
27.9267147728957
30
0
41
1
10
10.7814626233945
20
27.9220446934005
30
0
0
SPLINE
5
161
100
AcDbEntity
8
1
62
256
6
ByLayer
370
18
48
1
60
0
100
AcDbSpline
70
4
71
3
72
67
73
63
40
0
40
0
40
0
40
0
40
0.0205551394682164
40
0.0411186358342156
40
0.0616816159039099
40
0.0822360510422532
40
0.0996985653378835
40
0.117166981847675
40
0.134634989085299
40
0.152096945091503
40
0.168548378730397
40
0.18499973669609
40
0.201744292974331
40
0.21848875512247
40
0.235089852760192
40
0.25169803700258
40
0.268305621772897
40
0.284905901594362
40
0.300417158982624
40
0.315939218072845
40
0.331464123891839
40
0.346984720907132
40
0.362494751194319
40
0.377620254540542
40
0.392757585212285
40
0.407898302081362
40
0.423034543068129
40
0.438159131775642
40
0.453416272882032
40
0.468682131169015
40
0.483947838759007
40
0.499204774251724
40
0.513371322202594
40
0.52753787906814
40
0.541979094399358
40
0.556420338984504
40
0.570718099803401
40
0.585022695148242
40
0.599327569483628
40
0.613625710924673
40
0.631257985132582
40
0.648906508464382
40
0.666561756494777
40
0.684212700918789
40
0.70184700761374
40
0.719021887515965
40
0.736208688453557
40
0.753400512362329
40
0.770589266294314
40
0.787765785343675
40
0.80594487651379
40
0.824131819753974
40
0.842319404760006
40
0.860499371437733
40
0.877836647962117
40
0.895173998654214
40
0.912715273923262
40
0.930256613695688
40
0.947689735194818
40
0.965128002599574
40
0.98256652740174
40
1
40
1
40
1
40
1
41
1
10
12.3731261900912
20
28.3848664518383
30
0
41
1
10
12.3674602592267
20
28.380921893115
30
0
41
1
10
12.355988041371
20
28.3731923251304
30
0
41
1
10
12.3383614957178
20
28.3620749383052
30
0
41
1
10
12.3203266715451
20
28.3514532171154
30
0
41
1
10
12.3028159420373
20
28.3418483353835
30
0
41
1
10
12.2859011586103
20
28.3331870987729
30
0
41
1
10
12.2696460794127
20
28.3253943217011
30
0
41
1
10
12.2531149255663
20
28.3179976390662
30
0
41
1
10
12.236638720527
20
28.3111426865967
30
0
41
1
10
12.2202408044239
20
28.3048122309614
30
0
41
1
10
12.203844899575
20
28.2989519851331
30
0
41
1
10
12.1871229739658
20
28.2934523844052
30
0
41
1
10
12.1701259409827
20
28.2883453118105
30
0
41
1
10
12.1529588540088
20
28.2836690626609
30
0
41
1
10
12.1356325441537
20
28.2794286292514
30
0
41
1
10
12.1181096767769
20
28.2756205731019
30
0
41
1
10
12.100790080761
20
28.2723289382763
30
0
41
1
10
12.0836937236996
20
28.2695309157236
30
0
41
1
10
12.0668405446681
20
28.2671993094236
30
0
41
1
10
12.04985309497
20
28.2652768406033
30
0
41
1
10
12.0327515790712
20
28.2637717063753
30
0
41
1
10
12.0156925462707
20
28.2627003603044
30
0
41
1
10
11.9986868470733
20
28.2620591950177
30
0
41
1
10
11.9817472740881
20
28.2618384505094
30
0
41
1
10
11.9647486015086
20
28.2620358064964
30
0
41
1
10
11.9477161049504
20
28.2626547975842
30
0
41
1
10
11.9306184908914
20
28.2637025484149
30
0
41
1
10
11.913468970612
20
28.2651881383691
30
0
41
1
10
11.8962826504084
20
28.2671135028298
30
0
41
1
10
11.8791320774359
20
28.2694726596845
30
0
41
1
10
11.8624473970626
20
28.2721982064327
30
0
41
1
10
11.8462428236421
20
28.2752535012682
30
0
41
1
10
11.830422649424
20
28.2786212882049
30
0
41
1
10
11.8145994509183
20
28.2823834348648
30
0
41
1
10
11.7988434068371
20
28.2865282590167
30
0
41
1
10
11.7832674388354
20
28.291023974618
30
0
41
1
10
11.7678837766328
20
28.2958588977318
30
0
41
1
10
11.7526559298349
20
28.3010395977825
30
0
41
1
10
11.7364289990035
20
28.3069869406614
30
0
41
1
10
11.7192628030509
20
28.3137946687556
30
0
41
1
10
11.7012297997046
20
28.3215518444208
30
0
41
1
10
11.6835022747475
20
28.3297825348211
30
0
41
1
10
11.6661069011268
20
28.3384654490729
30
0
41
1
10
11.6492088213149
20
28.3475056397414
30
0
41
1
10
11.6328059467354
20
28.3568789249084
30
0
41
1
10
11.6168877096461
20
28.3665590403182
30
0
41
1
10
11.6013178615965
20
28.3766135394096
30
0
41
1
10
11.5861101600323
20
28.3870236239527
30
0
41
1
10
11.5709837102995
20
28.397984586837
30
0
41
1
10
11.5559662137241
20
28.4095095685419
30
0
41
1
10
11.5410833928523
20
28.4216083033759
30
0
41
1
10
11.5266220545335
20
28.4340489727524
30
0
41
1
10
11.5128040924183
20
28.4466191769146
30
0
41
1
10
11.4996094986065
20
28.4592891836431
30
0
41
1
10
11.4869655119984
20
28.4720827892753
30
0
41
1
10
11.4746686992855
20
28.4851955602924
30
0
41
1
10
11.4627499584101
20
28.4985928284667
30
0
41
1
10
11.4512543290458
20
28.5122135653066
30
0
41
1
10
11.440179669414
20
28.5260460944758
30
0
41
1
10
11.4295038968422
20
28.5401087352398
30
0
41
1
10
11.4226537758096
20
28.5496287492706
30
0
41
1
10
11.4192958113839
20
28.5544250536478
30
0
0
SPLINE
5
162
100
AcDbEntity
8
1
62
256
6
ByLayer
370
18
48
1
60
0
100
AcDbSpline
70
4
71
3
72
67
73
63
40
0
40
0
40
0
40
0
40
0.0205551394682183
40
0.0411186358342169
40
0.0616816159039113
40
0.0822360510422533
40
0.099698565337886
40
0.117166981847676
40
0.1346349890853
40
0.152096945091503
40
0.168548378730397
40
0.184999736696091
40
0.201744292974332
40
0.21848875512247
40
0.235089852760193
40
0.251698037002581
40
0.268305621772898
40
0.284905901594364
40
0.300417158982625
40
0.315939218072845
40
0.331464123891839
40
0.346984720907134
40
0.362494751194319
40
0.377620254540543
40
0.392757585212285
40
0.407898302081362
40
0.423034543068129
40
0.438159131775642
40
0.453416272882034
40
0.468682131169015
40
0.483947838759007
40
0.499204774251726
40
0.513371322202594
40
0.527537879068141
40
0.541979094399359
40
0.556420338984505
40
0.5707180998034
40
0.585022695148243
40
0.599327569483629
40
0.613625710924674
40
0.631257985132583
40
0.648906508464383
40
0.666561756494777
40
0.68421270091879
40
0.701847007613741
40
0.719021887515966
40
0.736208688453558
40
0.753400512362328
40
0.770589266294313
40
0.787765785343676
40
0.80594487651379
40
0.824131819753973
40
0.842319404760007
40
0.860499371437732
40
0.877836647962116
40
0.895173998654215
40
0.912715273923263
40
0.930256613695688
40
0.947689735194819
40
0.965128002599573
40
0.982566527401737
40
1
40
1
40
1
40
1
41
1
10
10.9268738099088
20
25.7843676272549
30
0
41
1
10
10.9325397407733
20
25.7883121859781
30
0
41
1
10
10.944011958629
20
25.7960417539628
30
0
41
1
10
10.9616385042823
20
25.8071591407879
30
0
41
1
10
10.9796733284548
20
25.8177808619777
30
0
41
1
10
10.9971840579627
20
25.8273857437097
30
0
41
1
10
11.0140988413897
20
25.8360469803203
30
0
41
1
10
11.0303539205873
20
25.8438397573921
30
0
41
1
10
11.0468850744337
20
25.8512364400269
30
0
41
1
10
11.063361279473
20
25.8580913924964
30
0
41
1
10
11.0797591955761
20
25.8644218481317
30
0
41
1
10
11.096155100425
20
25.8702820939601
30
0
41
1
10
11.1128770260342
20
25.8757816946879
30
0
41
1
10
11.1298740590173
20
25.8808887672826
30
0
41
1
10
11.1470411459912
20
25.8855650164322
30
0
41
1
10
11.1643674558463
20
25.8898054498417
30
0
41
1
10
11.1818903232231
20
25.8936135059913
30
0
41
1
10
11.1992099192391
20
25.8969051408168
30
0
41
1
10
11.2163062763004
20
25.8997031633696
30
0
41
1
10
11.2331594553319
20
25.9020347696695
30
0
41
1
10
11.25014690503
20
25.9039572384899
30
0
41
1
10
11.2672484209288
20
25.9054623727178
30
0
41
1
10
11.2843074537293
20
25.9065337187887
30
0
41
1
10
11.3013131529268
20
25.9071748840755
30
0
41
1
10
11.318252725912
20
25.9073956285837
30
0
41
1
10
11.3352513984914
20
25.9071982725968
30
0
41
1
10
11.3522838950497
20
25.9065792815089
30
0
41
1
10
11.3693815091086
20
25.9055315306782
30
0
41
1
10
11.386531029388
20
25.904045940724
30
0
41
1
10
11.4037173495916
20
25.9021205762633
30
0
41
1
10
11.4208679225641
20
25.8997614194086
30
0
41
1
10
11.4375526029374
20
25.8970358726604
30
0
41
1
10
11.4537571763579
20
25.8939805778249
30
0
41
1
10
11.469577350576
20
25.8906127908882
30
0
41
1
10
11.4854005490817
20
25.8868506442283
30
0
41
1
10
11.5011565931629
20
25.8827058200765
30
0
41
1
10
11.5167325611646
20
25.8782101044751
30
0
41
1
10
11.5321162233672
20
25.8733751813613
30
0
41
1
10
11.5473440701651
20
25.8681944813106
30
0
41
1
10
11.5635710009966
20
25.8622471384317
30
0
41
1
10
11.5807371969491
20
25.8554394103375
30
0
41
1
10
11.5987702002954
20
25.8476822346724
30
0
41
1
10
11.6164977252525
20
25.839451544272
30
0
41
1
10
11.6338930988732
20
25.8307686300202
30
0
41
1
10
11.6507911786851
20
25.8217284393517
30
0
41
1
10
11.6671940532646
20
25.8123551541848
30
0
41
1
10
11.683112290354
20
25.802675038775
30
0
41
1
10
11.6986821384035
20
25.7926205396835
30
0
41
1
10
11.7138898399677
20
25.7822104551404
30
0
41
1
10
11.7290162897005
20
25.7712494922562
30
0
41
1
10
11.7440337862759
20
25.7597245105512
30
0
41
1
10
11.7589166071477
20
25.7476257757173
30
0
41
1
10
11.7733779454665
20
25.7351851063408
30
0
41
1
10
11.7871959075817
20
25.7226149021785
30
0
41
1
10
11.8003905013935
20
25.7099448954501
30
0
41
1
10
11.8130344880016
20
25.6971512898179
30
0
41
1
10
11.8253313007145
20
25.6840385188007
30
0
41
1
10
11.8372500415899
20
25.6706412506264
30
0
41
1
10
11.8487456709542
20
25.6570205137865
30
0
41
1
10
11.8598203305861
20
25.6431879846174
30
0
41
1
10
11.8704961031578
20
25.6291253438533
30
0
41
1
10
11.8773462241905
20
25.6196053298225
30
0
41
1
10
11.8807041886161
20
25.6148090254454
30
0
0
SPLINE
5
163
100
AcDbEntity
8
1
62
256
6
ByLayer
370
18
48
1
60
0
100
AcDbSpline
70
4
71
3
72
43
73
39
40
0
40
0
40
0
40
0
40
4.15129330182E-05
40
0.0001746827387846
40
0.0003333588979972
40
0.0007278890670395
40
0.0011055270167035
40
0.0016524806602964
40
0.0024533454864881
40
0.0036342777873313
40
0.0053836691024326
40
0.0079830058818465
40
0.0118529725409313
40
0.0176223502704852
40
0.0219266972360959
40
0.0262310763685117
40
0.0326574867615126
40
0.0390839290828165
40
0.0486823737371042
40
0.0582808501609122
40
0.0726208004706921
40
0.0869607824441132
40
0.108388250890077
40
0.129815750929006
40
0.161837509764134
40
0.193859300145015
40
0.242197769533726
40
0.290536368303013
40
0.338875063970739
40
0.387213665493988
40
0.446084268683934
40
0.504954899874172
40
0.563825519736549
40
0.652131354287864
40
0.74043719548128
40
0.824412051634864
40
0.908386909888079
40
1
40
1
40
1
40
1
41
1
10
17.0683194344498
20
-18.456409141951
30
0
41
1
10
17.0683848968614
20
-18.4564060738957
30
0
41
1
10
17.0686554616692
20
-18.4563801685476
30
0
41
1
10
17.06914207182
20
-18.4561994840982
30
0
41
1
10
17.0699655244222
20
-18.4555898303725
30
0
41
1
10
17.0707949891874
20
-18.4544934927302
30
0
41
1
10
17.0717241546066
20
-18.4528189394806
30
0
41
1
10
17.0727194577833
20
-18.4505154000025
30
0
41
1
10
17.0739218063441
20
-18.4470425324478
30
0
41
1
10
17.0753898511153
20
-18.4418147489096
30
0
41
1
10
17.0771989414423
20
-18.4339636817499
30
0
41
1
10
17.0794450776727
20
-18.4221848339209
30
0
41
1
10
17.0822533819717
20
-18.4045282609954
30
0
41
1
10
17.0849545303276
20
-18.3843154138584
30
0
41
1
10
17.0874460115689
20
-18.363421987665
30
0
41
1
10
17.0898480489816
20
-18.3415397357532
30
0
41
1
10
17.0923848957603
20
-18.3165363166768
30
0
41
1
10
17.0954564328747
20
-18.2837800548066
30
0
41
1
10
17.0987126977048
20
-18.246359137803
30
0
41
1
10
17.1026717369013
20
-18.1973386556961
30
0
41
1
10
17.1068861275176
20
-18.1413460459042
30
0
41
1
10
17.1120328853606
20
-18.0680019209358
30
0
41
1
10
17.1175357798125
20
-17.9842360770365
30
0
41
1
10
17.1242876301817
20
-17.8745184569123
30
0
41
1
10
17.1315412663547
20
-17.749222307495
30
0
41
1
10
17.1405191228198
20
-17.58441079915
30
0
41
1
10
17.1502624671102
20
-17.3956085991478
30
0
41
1
10
17.1606543424962
20
-17.1828038715364
30
0
41
1
10
17.1705726606656
20
-16.9699470874273
30
0
41
1
10
17.1808437890431
20
-16.7415916274371
30
0
41
1
10
17.1914889230511
20
-16.4977402178354
30
0
41
1
10
17.2024547288692
20
-16.2383874904358
30
0
41
1
10
17.2149174862106
20
-15.9357749083789
30
0
41
1
10
17.2287734427372
20
-15.5898919741686
30
0
41
1
10
17.2436741740888
20
-15.2070909522023
30
0
41
1
10
17.2579967075709
20
-14.8306185494724
30
0
41
1
10
17.2722149107062
20
-14.449258185316
30
0
41
1
10
17.2816686328802
20
-14.191260665375
30
0
41
1
10
17.286552802596
20
-14.0566454930441
30
0
0
SPLINE
5
164
100
AcDbEntity
8
1
62
256
6
ByLayer
370
18
48
1
60
0
100
AcDbSpline
70
4
71
3
72
131
73
127
40
0
40
0
40
0
40
0
40
0.0052800354375001
40
0.0176951282026834
40
0.0293458089619891
40
0.0402377539242409
40
0.0504652604761935
40
0.0586483377257757
40
0.0663771649251974
40
0.073651741266282
40
0.0804720659914997
40
0.0868381383949887
40
0.0927013170715734
40
0.0951663641785159
40
0.0970761796650929
40
0.0984307632960385
40
0.0996535847113238
40
0.101954433043347
40
0.105098917794307
40
0.109087039539458
40
0.113918799001201
40
0.119594197052229
40
0.126113234717006
40
0.133475913172789
40
0.141674929610908
40
0.155864082122182
40
0.169561311323713
40
0.182766615732049
40
0.199681695505412
40
0.215714410710152
40
0.230864758238792
40
0.24514766880537
40
0.276146514961896
40
0.293234743605291
40
0.297552145546636
40
0.301511185457492
40
0.304842030123236
40
0.30754467911212
40
0.30961913207444
40
0.310908253083262
40
0.311895942177979
40
0.313170095183599
40
0.314780577131015
40
0.316727388130916
40
0.320517745280395
40
0.325159349462863
40
0.330652201460567
40
0.336996302198287
40
0.349760941780069
40
0.362570895677859
40
0.375381720125611
40
0.388193415079815
40
0.401005980497021
40
0.422362190435881
40
0.443700920419667
40
0.464748941493226
40
0.48213742200905
40
0.499259423158741
40
0.504651448869838
40
0.510016496167152
40
0.515354565019631
40
0.520665655396435
40
0.525914938639479
40
0.530689598829433
40
0.534869927607509
40
0.538455924499338
40
0.540961714830451
40
0.543064820018043
40
0.544765239902443
40
0.546062974357274
40
0.547128384097338
40
0.548623357828503
40
0.550819801151869
40
0.553606397289106
40
0.556983146541778
40
0.560950049274743
40
0.565507105916494
40
0.570386997479836
40
0.5752146876419
40
0.587750162476204
40
0.599900464083483
40
0.611665591572944
40
0.623045544089404
40
0.634181051249449
40
0.645894018648681
40
0.658317752807214
40
0.67145225525092
40
0.685297527587313
40
0.699853571507328
40
0.715120388786867
40
0.73109798128824
40
0.740078404263193
40
0.748397853206722
40
0.75603502012873
40
0.762989904110808
40
0.76926250431664
40
0.774852819992735
40
0.780303964532423
40
0.784899249705952
40
0.788638674837412
40
0.790323329210489
40
0.791787171550353
40
0.793034001491039
40
0.794063818987007
40
0.795138579470566
40
0.796735952070874
40
0.79886602498205
40
0.802026455160334
40
0.805912803399386
40
0.810525070158484
40
0.815863255980931
40
0.821927361494926
40
0.828717387414123
40
0.836233334538106
40
0.844475203752841
40
0.853442996031115
40
0.863136712433023
40
0.874638244210324
40
0.887018147219348
40
0.900276423241716
40
0.914413074190301
40
0.929709233062615
40
0.945916002560957
40
0.963033385130925
40
0.981061383364202
40
1
40
1
40
1
40
1
41
1
10
17.9029933217161
20
-11.7153281890661
30
0
41
1
10
17.9031602480799
20
-11.7165262689328
30
0
41
1
10
17.9037196821766
20
-11.7205414343352
30
0
41
1
10
17.904647506962
20
-11.7272002841027
30
0
41
1
10
17.9057528418829
20
-11.7351325706409
30
0
41
1
10
17.9067890597897
20
-11.7425683893881
30
0
41
1
10
17.9077156951451
20
-11.7492174696077
30
0
41
1
10
17.9085423543119
20
-11.7551488734347
30
0
41
1
10
17.9092756628054
20
-11.7604102457048
30
0
41
1
10
17.9099659011808
20
-11.7653623963768
30
0
41
1
10
17.9106130603745
20
-11.770005297332
30
0
41
1
10
17.9112155950187
20
-11.7743278965006
30
0
41
1
10
17.9116803781515
20
-11.7776621537349
30
0
41
1
10
17.9120042163475
20
-11.7799852497918
30
0
41
1
10
17.9121854446318
20
-11.781285299664
30
0
41
1
10
17.9123273810747
20
-11.7823034787597
30
0
41
1
10
17.9124816740758
20
-11.7834102898627
30
0
41
1
10
17.9126925652795
20
-11.7849230904249
30
0
41
1
10
17.9129909121942
20
-11.7870632121748
30
0
41
1
10
17.9133693058349
20
-11.7897774790152
30
0
41
1
10
17.9138277554359
20
-11.7930659208613
30
0
41
1
10
17.9143662708316
20
-11.7969285643742
30
0
41
1
10
17.9149848641944
20
-11.8013654454963
30
0
41
1
10
17.9156833179276
20
-11.8063749448009
30
0
41
1
10
17.9166244522002
20
-11.8131247391356
30
0
41
1
10
17.9177660704286
20
-11.8213119208003
30
0
41
1
10
17.9190662015078
20
-11.830635210754
30
0
41
1
10
17.9204527125985
20
-11.8405772436248
30
0
41
1
10
17.9219132757792
20
-11.8510494588217
30
0
41
1
10
17.9234355553026
20
-11.8619632608176
30
0
41
1
10
17.9248746647614
20
-11.8722799685563
30
0
41
1
10
17.9267876465793
20
-11.8859927610088
30
0
41
1
10
17.9287621888328
20
-11.9001452289387
30
0
41
1
10
17.9304214196608
20
-11.9120362960848
30
0
41
1
10
17.9312245517031
20
-11.9177917304793
30
0
41
1
10
17.9315920870497
20
-11.9204255222737
30
0
41
1
10
17.9319085005155
20
-11.922692929482
30
0
41
1
10
17.9321652427064
20
-11.9245327073578
30
0
41
1
10
17.9323573334603
20
-11.9259091861851
30
0
41
1
10
17.9324951183932
20
-11.926896513685
30
0
41
1
10
17.9326075552453
20
-11.9277021995925
30
0
41
1
10
17.9327301603392
20
-11.928580742961
30
0
41
1
10
17.9328831306701
20
-11.929676864824
30
0
41
1
10
17.933115765614
20
-11.93134381576
30
0
41
1
10
17.9334443704863
20
-11.933698408468
30
0
41
1
10
17.9338852559635
20
-11.9368574743328
30
0
41
1
10
17.9344070136566
20
-11.9405959198933
30
0
41
1
10
17.9351860016755
20
-11.9461772861307
30
0
41
1
10
17.9361967454421
20
-11.9534188231452
30
0
41
1
10
17.9374123529308
20
-11.9621275834488
30
0
41
1
10
17.9386295419286
20
-11.9708471392585
30
0
41
1
10
17.9398469032849
20
-11.9795673977711
30
0
41
1
10
17.9413350333937
20
-11.9902265922873
30
0
41
1
10
17.943093433206
20
-12.002820663166
30
0
41
1
10
17.9451129614932
20
-12.0172835537317
30
0
41
1
10
17.9470070186126
20
-12.0308465472839
30
0
41
1
10
17.9487676568043
20
-12.0434530382927
30
0
41
1
10
17.9500322811857
20
-12.0525072661692
30
0
41
1
10
17.9509159025847
20
-12.0588333349792
30
0
41
1
10
17.9514260494784
20
-12.0624855165151
30
0
41
1
10
17.9519336454833
20
-12.0661193481665
30
0
41
1
10
17.952437586468
20
-12.0697269272567
30
0
41
1
10
17.9529236816116
20
-12.0732066700499
30
0
41
1
10
17.9533739482752
20
-12.076429859857
30
0
41
1
10
17.9537715005853
20
-12.0792756420103
30
0
41
1
10
17.9540971357519
20
-12.0816065821614
30
0
41
1
10
17.9543569238805
20
-12.083466155079
30
0
41
1
10
17.9545569374858
20
-12.0848978450447
30
0
41
1
10
17.9547186526229
20
-12.086055386175
30
0
41
1
10
17.9548474695337
20
-12.086977438858
30
0
41
1
10
17.9549697643954
20
-12.0878528030549
30
0
41
1
10
17.9551205412628
20
-12.088932030073
30
0
41
1
10
17.9553258737674
20
-12.0904017420386
30
0
41
1
10
17.9555908540455
20
-12.092298374873
30
0
41
1
10
17.9559119574989
20
-12.0945966856005
30
0
41
1
10
17.9562891882513
20
-12.0972966857153
30
0
41
1
10
17.9567140780787
20
-12.1003377445784
30
0
41
1
10
17.9571662672139
20
-12.1035741249161
30
0
41
1
10
17.9578713877952
20
-12.1086206625614
30
0
41
1
10
17.9588070243551
20
-12.1153167435532
30
0
41
1
10
17.9599626547671
20
-12.1235868095005
30
0
41
1
10
17.9610817053689
20
-12.1315946805423
30
0
41
1
10
17.9621686286459
20
-12.1393722589691
30
0
41
1
10
17.9632539360177
20
-12.1471378964628
30
0
41
1
10
17.9643723916755
20
-12.1551403241862
30
0
41
1
10
17.9655543000987
20
-12.1635963118655
30
0
41
1
10
17.966803906446
20
-12.1725361580832
30
0
41
1
10
17.9681212299532
20
-12.181959921733
30
0
41
1
10
17.9695062907232
20
-12.1918676643356
30
0
41
1
10
17.9709591099431
20
-12.202259451697
30
0
41
1
10
17.9722351854734
20
-12.2113864235264
30
0
41
1
10
17.9732909466592
20
-12.2189372330262
30
0
41
1
10
17.9740821434056
20
-12.2245956736942
30
0
41
1
10
17.9748091094501
20
-12.2297945813547
30
0
41
1
10
17.9754711581174
20
-12.2345290893888
30
0
41
1
10
17.9760682795435
20
-12.2387991674223
30
0
41
1
10
17.9766176992615
20
-12.2427280301365
30
0
41
1
10
17.977113902612
20
-12.2462762662405
30
0
41
1
10
17.9775513733931
20
-12.2494044551838
30
0
41
1
10
17.9778693172139
20
-12.2516779132537
30
0
41
1
10
17.9780878820521
20
-12.2532407444411
30
0
41
1
10
17.9782273534897
20
-12.2542380179303
30
0
41
1
10
17.9783460447742
20
-12.255086700803
30
0
41
1
10
17.9784523904311
20
-12.2558471047465
30
0
41
1
10
17.9785698497232
20
-12.256686970993
30
0
41
1
10
17.9787222046566
20
-12.2577763447756
30
0
41
1
10
17.9789407258203
20
-12.2593388109494
30
0
41
1
10
17.9792318623131
20
-12.2614204676905
30
0
41
1
10
17.9796017492334
20
-12.2640651606677
30
0
41
1
10
17.9800407332876
20
-12.2672038446122
30
0
41
1
10
17.9805488212801
20
-12.270836540714
30
0
41
1
10
17.9811260208585
20
-12.2749632719618
30
0
41
1
10
17.9817723407911
20
-12.2795840651681
30
0
41
1
10
17.9824877908567
20
-12.2846989502246
30
0
41
1
10
17.9832723818668
20
-12.290307960313
30
0
41
1
10
17.9841261256462
20
-12.2964111318223
30
0
41
1
10
17.9850833695183
20
-12.3032539427973
30
0
41
1
10
17.9861489739873
20
-12.3108710451167
30
0
41
1
10
17.9873278040231
20
-12.3192971049074
30
0
41
1
10
17.9885903821849
20
-12.3283213275457
30
0
41
1
10
17.989945655889
20
-12.3380075701448
30
0
41
1
10
17.9913946755699
20
-12.3483632310251
30
0
41
1
10
17.9929384939396
20
-12.3593957161269
30
0
41
1
10
17.9945692368575
20
-12.3710486398378
30
0
41
1
10
17.9962869340338
20
-12.3833220969277
30
0
41
1
10
17.9974611308463
20
-12.3917114967112
30
0
41
1
10
17.9980627294948
20
-12.3960096437605
30
0
0
SPLINE
5
165
100
AcDbEntity
8
1
62
256
6
ByLayer
370
18
48
1
60
0
100
AcDbSpline
70
4
71
3
72
71
73
67
40
0
40
0
40
0
40
0
40
0.0206012580304175
40
0.0411860202425096
40
0.0617195916040748
40
0.0822356858344594
40
0.0997249791085897
40
0.117214204179765
40
0.13465523737193
40
0.152096189571188
40
0.168553139953194
40
0.184998791642993
40
0.2017496899634
40
0.218487617423472
40
0.235120993277743
40
0.251754264879087
40
0.268329399563712
40
0.284904420437741
40
0.297873051854735
40
0.310843581096823
40
0.323812052514157
40
0.336705371715172
40
0.34960075944977
40
0.36249392092523
40
0.375145347415516
40
0.38779891907528
40
0.400450211799933
40
0.413019139624784
40
0.425590336985528
40
0.438159162276208
40
0.453455654501757
40
0.468752106243725
40
0.483978358689127
40
0.499204596907613
40
0.5133781327602
40
0.527537546536689
40
0.541986050690773
40
0.556419848372916
40
0.57074809831459
40
0.585076393012663
40
0.599350658094301
40
0.613624979454421
40
0.628383890501113
40
0.643146317066963
40
0.657905489589136
40
0.672551733669498
40
0.687201080244208
40
0.701847587955678
40
0.716207864897201
40
0.730570747314238
40
0.744931253144328
40
0.759209031975477
40
0.773489085257813
40
0.787767061112459
40
0.805980819498927
40
0.82419470540495
40
0.842347410673218
40
0.860500222453421
40
0.877843289447599
40
0.895174636498417
40
0.91272148791812
40
0.930257035384391
40
0.947712984629885
40
0.965168985847956
40
0.982584471944389
40
1
40
1
40
1
40
1
41
1
10
10.1624603103405
20
27.0565868299794
30
0
41
1
10
10.1687316859181
20
27.0536632422432
30
0
41
1
10
10.1811991187303
20
27.0476172553877
30
0
41
1
10
10.1996784852311
20
27.037954998397
30
0
41
1
10
10.2179087960672
20
27.027703996753
30
0
41
1
10
10.2349986749986
20
27.0173957014057
30
0
41
1
10
10.2509884652025
20
27.0071203619905
30
0
41
1
10
10.2658988061198
20
26.9969761984978
30
0
41
1
10
10.2805915185802
20
26.9864034732238
30
0
41
1
10
10.2947844328854
20
26.9756101864376
30
0
41
1
10
10.3084908165232
20
26.9646172004147
30
0
41
1
10
10.3217969111163
20
26.9533835426965
30
0
41
1
10
10.3349519045378
20
26.9416897275713
30
0
41
1
10
10.347915383247
20
26.9295514365886
30
0
41
1
10
10.3605965710986
20
26.9170449289958
30
0
41
1
10
10.3729738245964
20
26.9041874510903
30
0
41
1
10
10.3850612255313
20
26.8909571932882
30
0
41
1
10
10.3959920450821
20
26.8783461187899
30
0
41
1
10
10.4058378576544
20
26.8664330799206
30
0
41
1
10
10.414656637954
20
26.8553024659501
30
0
41
1
10
10.4232597750914
20
26.843969155393
30
0
41
1
10
10.4316410250969
20
26.8324380443557
30
0
41
1
10
10.4397948866595
20
26.8207155388724
30
0
41
1
10
10.4476807229763
20
26.8088588250581
30
0
41
1
10
10.4552955513786
20
26.7968774285764
30
0
41
1
10
10.4626378109147
20
26.7847821047338
30
0
41
1
10
10.4697333883507
20
26.7725301269275
30
0
41
1
10
10.4765766533132
20
26.7601293540678
30
0
41
1
10
10.4831635277426
20
26.7475891183884
30
0
41
1
10
10.4899610784243
20
26.7339719305918
30
0
41
1
10
10.4968940436213
20
26.7192458717668
30
0
41
1
10
10.5038682229035
20
26.7034079361102
30
0
41
1
10
10.5104371622217
20
26.6874064915978
30
0
41
1
10
10.516453494234
20
26.6716329048111
30
0
41
1
10
10.5219496207897
20
26.6560979723377
30
0
41
1
10
10.5269865603236
20
26.6407246539223
30
0
41
1
10
10.531682894434
20
26.6251559162269
30
0
41
1
10
10.5360178840577
20
26.6094392010854
30
0
41
1
10
10.5399608684163
20
26.5936959456809
30
0
41
1
10
10.5435110490844
20
26.5779568525835
30
0
41
1
10
10.5466783710652
20
26.5621986900018
30
0
41
1
10
10.54949700549
20
26.5462579058693
30
0
41
1
10
10.5519560726269
20
26.5301268720808
30
0
41
1
10
10.5540429622633
20
26.5138212812251
30
0
41
1
10
10.5557288759929
20
26.4975750731229
30
0
41
1
10
10.5570194537197
20
26.4814014586838
30
0
41
1
10
10.5579231533372
20
26.4653119274144
30
0
41
1
10
10.5584440828845
20
26.4493806812451
30
0
41
1
10
10.5585945942007
20
26.4336170609141
30
0
41
1
10
10.558388617531
20
26.4180283722913
30
0
41
1
10
10.5578330820549
20
26.4025487763254
30
0
41
1
10
10.5569348297978
20
26.3871857070483
30
0
41
1
10
10.5557018285309
20
26.3719453573178
30
0
41
1
10
10.5539937416078
20
26.355413595472
30
0
41
1
10
10.5517021842994
20
26.3376333902007
30
0
41
1
10
10.5487162157167
20
26.3186777810902
30
0
41
1
10
10.5452258329046
20
26.2999362654502
30
0
41
1
10
10.5413030069813
20
26.2816926948107
30
0
41
1
10
10.5369796194992
20
26.2639278052158
30
0
41
1
10
10.5322697792572
20
26.246565948192
30
0
41
1
10
10.5271108122518
20
26.2293477162943
30
0
41
1
10
10.5215127268476
20
26.2123040818091
30
0
41
1
10
10.5155073229787
20
26.1955102994539
30
0
41
1
10
10.5091087239127
20
26.1789799453898
30
0
41
1
10
10.5023155497482
20
26.1626916750711
30
0
41
1
10
10.497531291517
20
26.1519984931952
30
0
41
1
10
10.4950738430579
20
26.1466908201817
30
0
0
SPLINE
5
166
100
AcDbEntity
8
1
62
256
6
ByLayer
370
18
48
1
60
0
100
AcDbSpline
70
4
71
3
72
20
73
16
40
0
40
0
40
0
40
0
40
0.030140987485891
40
0.0882964685282172
40
0.146452105226894
40
0.204607858503016
40
0.262763498514954
40
0.333590073933037
40
0.404416683037963
40
0.475243278514465
40
0.581483057144312
40
0.687722843765199
40
0.788752069903679
40
0.889781298568201
40
1
40
1
40
1
40
1
41
1
10
17.9016547119716
20
-11.7057205375799
30
0
41
1
10
17.8967721584643
20
-11.6706825048336
30
0
41
1
10
17.8824686550065
20
-11.5680852219634
30
0
41
1
10
17.8587424781741
20
-11.3981583750032
30
0
41
1
10
17.8304759888289
20
-11.1960029076018
30
0
41
1
10
17.8022081149599
20
-10.9940806814226
30
0
41
1
10
17.7718862941669
20
-10.7776728282437
30
0
41
1
10
17.7395106323991
20
-10.5467701796342
30
0
41
1
10
17.7050810437652
20
-10.3013989635526
30
0
41
1
10
17.6649124963658
20
-10.0152956226023
30
0
41
1
10
17.6190048118067
20
-9.6885115679757
30
0
41
1
10
17.5682021967
20
-9.32710364591029
30
0
41
1
10
17.518243340245
20
-8.9718661010365
30
0
41
1
10
17.4676392236109
20
-8.61218725847615
30
0
41
1
10
17.4334065047128
20
-8.36895496771161
30
0
41
1
10
17.4155454901022
20
-8.24207239614268
30
0
0
SPLINE
5
167
100
AcDbEntity
8
1
62
256
6
ByLayer
370
18
48
1
60
0
100
AcDbSpline
70
4
71
1
72
4
73
2
40
0
40
0
40
1
40
1
41
1
10
17.9029966491468
20
-11.715352236208
30
0
41
1
10
17.9016547119716
20
-11.7057205375799
30
0
0
SPLINE
5
168
100
AcDbEntity
8
1
62
256
6
ByLayer
370
18
48
1
60
0
100
AcDbSpline
70
4
71
3
72
31
73
27
40
0
40
0
40
0
40
0
40
0.0004974583221581
40
0.0012970253550751
40
0.0022497354934414
40
0.0046185405446808
40
0.006885922765151
40
0.0101698961206665
40
0.0149783817706978
40
0.0220688367650046
40
0.0325723858212984
40
0.0481791063229134
40
0.0714148364130833
40
0.106054851469203
40
0.131898651305978
40
0.15774264427598
40
0.196327559659131
40
0.234912666743517
40
0.29254284455063
40
0.350173213105632
40
0.43627194195005
40
0.522370860906659
40
0.651023872302665
40
0.779677073386512
40
0.971939435235818
40
1
40
1
40
1
40
1
41
1
10
17.9999999999987
20
-12.4237253096529
30
0
41
1
10
17.9999996438507
20
-12.4236549613276
30
0
41
1
10
17.9999944023186
20
-12.4234472032273
30
0
41
1
10
17.9999609933787
20
-12.4229362538827
30
0
41
1
10
17.9998708424685
20
-12.4218905424895
30
0
41
1
10
17.9997161213728
20
-12.4203916130225
30
0
41
1
10
17.9994838293424
20
-12.4183019943443
30
0
41
1
10
17.999167552881
20
-12.4155937620088
30
0
41
1
10
17.9986942184094
20
-12.4116865273501
30
0
41
1
10
17.9979856776119
20
-12.4060061561851
30
0
41
1
10
17.9969262095753
20
-12.3977084142241
30
0
41
1
10
17.9953421601226
20
-12.385535040291
30
0
41
1
10
17.9929741742345
20
-12.3676160933814
30
0
41
1
10
17.9902693474204
20
-12.3474054371923
30
0
41
1
10
17.9874769528158
20
-12.3266913182411
30
0
41
1
10
17.9845548200849
20
-12.3051189788531
30
0
41
1
10
17.9812183130921
20
-12.2805920585809
30
0
41
1
10
17.9768501884362
20
-12.2486084030292
30
0
41
1
10
17.9718629673305
20
-12.2122189223136
30
0
41
1
10
17.9653334051255
20
-12.1647301563579
30
0
41
1
10
17.9578787390939
20
-12.1106683447457
30
0
41
1
10
17.9481183076299
20
-12.0400734322729
30
0
41
1
10
17.9369753590819
20
-11.9596681912487
30
0
41
1
10
17.922385485733
20
-11.8546218809966
30
0
41
1
10
17.9110588577171
20
-11.773223752955
30
0
41
1
10
17.9039074660012
20
-11.7218892960489
30
0
41
1
10
17.9029966491468
20
-11.715352236208
30
0
0
LINE
5
70
100
AcDbEntity
8
SK1
62
256
6
ByLayer
370
18
48
1
60
0
100
AcDbLine
10
-8
20
7.451421
30
0
11
-2.262707
21
7.451421
31
0
39
0
210
0
220
0
230
1
0
LINE
5
72
100
AcDbEntity
8
1
62
256
6
ByLayer
370
18
48
1
60
0
100
AcDbLine
10
-8
20
31.256874
30
0
11
-8
21
24.244865
31
0
39
0
210
0
220
0
230
1
0
LINE
5
74
100
AcDbEntity
8
SK1
62
256
6
ByLayer
370
18
48
1
60
0
100
AcDbLine
10
-2.321188
20
2.832619
30
0
11
-2.093311
21
2.9197
31
0
39
0
210
0
220
0
230
1
0
LINE
5
75
100
AcDbEntity
8
SK1
62
256
6
ByLayer
370
18
48
1
60
0
100
AcDbLine
10
-2.321188
20
2.832619
30
0
11
-8
21
2.832619
31
0
39
0
210
0
220
0
230
1
0
LINE
5
76
100
AcDbEntity
8
SK1
62
256
6
ByLayer
370
18
48
1
60
0
100
AcDbLine
10
-8
20
2.832619
30
0
11
-8
21
7.451421
31
0
39
0
210
0
220
0
230
1
0
LINE
5
77
100
AcDbEntity
8
1
62
256
6
ByLayer
370
18
48
1
60
0
100
AcDbLine
10
-1.983769
20
29.737689
30
0
11
-2.109754
21
29.721103
31
0
39
0
210
0
220
0
230
1
0
LINE
5
78
100
AcDbEntity
8
1
62
256
6
ByLayer
370
18
48
1
60
0
100
AcDbLine
10
-2.109754
20
29.486697
30
0
11
-1.983769
21
29.470111
31
0
39
0
210
0
220
0
230
1
0
LINE
5
79
100
AcDbEntity
8
1
62
256
6
ByLayer
370
18
48
1
60
0
100
AcDbLine
10
-2.109754
20
29.721103
30
0
11
-2.305989
21
29.695268
31
0
39
0
210
0
220
0
230
1
0
LINE
5
7A
100
AcDbEntity
8
1
62
256
6
ByLayer
370
18
48
1
60
0
100
AcDbLine
10
-2.305989
20
29.512532
30
0
11
-2.109754
21
29.486697
31
0
39
0
210
0
220
0
230
1
0
LINE
5
7B
100
AcDbEntity
8
1
62
256
6
ByLayer
370
18
48
1
60
0
100
AcDbLine
10
-2.262707
20
5.974052
30
0
11
-2.262707
21
15.831291
31
0
39
0
210
0
220
0
230
1
0
LINE
5
7C
100
AcDbEntity
8
SK1
62
256
6
ByLayer
370
18
48
1
60
0
100
AcDbLine
10
-2.321188
20
2.740613
30
0
11
-8
21
2.740613
31
0
39
0
210
0
220
0
230
1
0
LINE
5
7D
100
AcDbEntity
8
SK1
62
256
6
ByLayer
370
18
48
1
60
0
100
AcDbLine
10
-2.321188
20
2.740613
30
0
11
-2.093311
21
2.566451
31
0
39
0
210
0
220
0
230
1
0
LINE
5
7E
100
AcDbEntity
8
1
62
256
6
ByLayer
370
18
48
1
60
0
100
AcDbLine
10
-8
20
-13.520429
30
0
11
-8
21
-11.391837
31
0
39
0
210
0
220
0
230
1
0
LINE
5
7F
100
AcDbEntity
8
1
62
256
6
ByLayer
370
18
48
1
60
0
100
AcDbLine
10
-8
20
-11.391837
30
0
11
-2.321188
21
-11.640252
31
0
39
0
210
0
220
0
230
1
0
LINE
5
80
100
AcDbEntity
8
1
62
256
6
ByLayer
370
18
48
1
60
0
100
AcDbLine
10
-2.093311
20
-11.794191
30
0
11
-2.321188
21
-11.640252
31
0
39
0
210
0
220
0
230
1
0
LINE
5
81
100
AcDbEntity
8
1
62
256
6
ByLayer
370
18
48
1
60
0
100
AcDbLine
10
-0.323047
20
-9.533589
30
0
11
-0.141972
21
-9.736871
31
0
39
0
210
0
220
0
230
1
0
LINE
5
82
100
AcDbEntity
8
1
62
256
6
ByLayer
370
18
48
1
60
0
100
AcDbLine
10
-0.323047
20
-9.533589
30
0
11
-0.95987
21
-5.180553
31
0
39
0
210
0
220
0
230
1
0
LINE
5
83
100
AcDbEntity
8
1
62
256
6
ByLayer
370
18
48
1
60
0
100
AcDbLine
10
-2.093311
20
-11.794191
30
0
11
-2.093311
21
-11.063225
31
0
39
0
210
0
220
0
230
1
0
LINE
5
84
100
AcDbEntity
8
1
62
256
6
ByLayer
370
18
48
1
60
0
100
AcDbLine
10
-8
20
-18.378934
30
0
11
-8
21
-13.520429
31
0
39
0
210
0
220
0
230
1
0
LINE
5
85
100
AcDbEntity
8
1
62
256
6
ByLayer
370
18
48
1
60
0
100
AcDbLine
10
-2.321188
20
-11.640252
30
0
11
-2.321188
21
-11.057254
31
0
39
0
210
0
220
0
230
1
0
LINE
5
86
100
AcDbEntity
8
1
62
256
6
ByLayer
370
18
48
1
60
0
100
AcDbLine
10
-2.262707
20
5.974052
30
0
11
-0.95987
21
-5.180553
31
0
39
0
210
0
220
0
230
1
0
LINE
5
87
100
AcDbEntity
8
SK1
62
256
6
ByLayer
370
18
48
1
60
0
100
AcDbLine
10
-2.093311
20
-10.536621
30
0
11
-2.093311
21
2.566451
31
0
39
0
210
0
220
0
230
1
0
LINE
5
88
100
AcDbEntity
8
SK1
62
256
6
ByLayer
370
18
48
1
60
0
100
AcDbLine
10
-2.321188
20
-10.261023
30
0
11
-2.321188
21
2.740613
31
0
39
0
210
0
220
0
230
1
0
LINE
5
89
100
AcDbEntity
8
1
62
256
6
ByLayer
370
18
48
1
60
0
100
AcDbLine
10
-8
20
-11.391837
30
0
11
-8
21
-10.908447
31
0
39
0
210
0
220
0
230
1
0
LINE
5
8A
100
AcDbEntity
8
SK1
62
256
6
ByLayer
370
18
48
1
60
0
100
AcDbLine
10
-8
20
24.244865
30
0
11
-8
21
7.451421
31
0
39
0
210
0
220
0
230
1
0
LINE
5
8B
100
AcDbEntity
8
SK1
62
256
6
ByLayer
370
18
48
1
60
0
100
AcDbLine
10
-8
20
-10.908447
30
0
11
-8
21
2.740613
31
0
39
0
210
0
220
0
230
1
0
LINE
5
8C
100
AcDbEntity
8
SK1
62
256
6
ByLayer
370
18
48
1
60
0
100
AcDbLine
10
-2.321188
20
-11.057254
30
0
11
-2.321188
21
-11.029033
31
0
39
0
210
0
220
0
230
1
0
LINE
5
8D
100
AcDbEntity
8
SK1
62
256
6
ByLayer
370
18
48
1
60
0
100
AcDbLine
10
-2.093311
20
-11.063225
30
0
11
-2.093311
21
-11.014679
31
0
39
0
210
0
220
0
230
1
0
LINE
5
8E
100
AcDbEntity
8
80
62
256
6
ByLayer
370
13
48
0.05
60
0
100
AcDbLine
10
0
20
0
30
0
11
-16.173227
21
0
31
0
39
0
210
0
220
0
230
1
0
LINE
5
8F
100
AcDbEntity
8
4
62
256
6
ByLayer
370
13
48
0.05
60
0
100
AcDbLine
10
0
20
0
30
0
11
18
21
0
31
0
39
0
210
0
220
0
230
1
0
LINE
5
91
100
AcDbEntity
8
1
62
256
6
ByLayer
370
13
48
0.05
60
0
100
AcDbLine
10
17.068123
20
-34.487937
30
0
11
9.131123
21
-33.08843
31
0
39
0
210
0
220
0
230
1
0
LINE
5
92
100
AcDbEntity
8
1
62
256
6
ByLayer
370
13
48
0.05
60
0
100
AcDbLine
10
18
20
-25.646559
30
0
11
18
21
-33.706
31
0
39
0
210
0
220
0
230
1
0
LINE
5
93
100
AcDbEntity
8
81
62
256
6
ByLayer
370
13
48
0.05
60
0
100
AcDbLine
10
18
20
34.5
30
0
11
22.189439
21
34.5
31
0
39
0
210
0
220
0
230
1
0
LINE
5
94
100
AcDbEntity
8
SK4
62
256
6
ByLayer
370
13
48
0.05
60
0
100
AcDbLine
10
-10
20
0
30
0
11
19.907123
21
0
31
0
39
0
210
0
220
0
230
1
0
LINE
5
96
100
AcDbEntity
8
1
62
256
6
ByLayer
370
18
48
1
60
0
100
AcDbLine
10
3.777242
20
-12.718592
30
0
11
-8
21
-12.718592
31
0
39
0
210
0
220
0
230
1
0
LINE
5
97
100
AcDbEntity
8
1
62
256
6
ByLayer
370
18
48
1
60
0
100
AcDbLine
10
-5.3
20
-14.821942
30
0
11
-4.3
21
-14.321942
31
0
39
0
210
0
220
0
230
1
0
LINE
5
98
100
AcDbEntity
8
1
62
256
6
ByLayer
370
18
48
1
60
0
100
AcDbLine
10
-5.3
20
-13.571942
30
0
11
-5.3
21
-14.821942
31
0
39
0
210
0
220
0
230
1
0
LINE
5
99
100
AcDbEntity
8
1
62
256
6
ByLayer
370
18
48
1
60
0
100
AcDbLine
10
-6.3
20
-14.321942
30
0
11
-5.3
21
-14.821942
31
0
39
0
210
0
220
0
230
1
0
LINE
5
9A
100
AcDbEntity
8
SK1
62
256
6
ByLayer
370
18
48
1
60
0
100
AcDbLine
10
-8
20
-19.658404
30
0
11
-2.323408
21
-19.658404
31
0
39
0
210
0
220
0
230
1
0
LINE
5
9B
100
AcDbEntity
8
SK1
62
256
6
ByLayer
370
18
48
1
60
0
100
AcDbLine
10
-2.190853
20
-19.590264
30
0
11
-2.323408
21
-19.658404
31
0
39
0
210
0
220
0
230
1
0
LINE
5
9C
100
AcDbEntity
8
SK1
62
256
6
ByLayer
370
18
48
1
60
0
100
AcDbLine
10
-2.323408
20
-19.658404
30
0
11
-2.323408
21
-19.343855
31
0
39
0
210
0
220
0
230
1
0
LINE
5
9D
100
AcDbEntity
8
SK1
62
256
6
ByLayer
370
18
48
1
60
0
100
AcDbLine
10
-2.323408
20
-18.573889
30
0
11
-2.323408
21
-18.378934
31
0
39
0
210
0
220
0
230
1
0
LINE
5
9E
100
AcDbEntity
8
1
62
256
6
ByLayer
370
18
48
1
60
0
100
AcDbLine
10
-2.286582
20
-20.368571
30
0
11
-2.041864
21
-18.378934
31
0
39
0
210
0
220
0
230
1
0
LINE
5
9F
100
AcDbEntity
8
1
62
256
6
ByLayer
370
18
48
1
60
0
100
AcDbLine
10
8.3
20
-20.368571
30
0
11
-2.286582
21
-20.368571
31
0
39
0
210
0
220
0
230
1
0
LINE
5
A0
100
AcDbEntity
8
1
62
256
6
ByLayer
370
18
48
1
60
0
100
AcDbLine
10
-2.286582
20
-30.22581
30
0
11
-2.286582
21
-20.368571
31
0
39
0
210
0
220
0
230
1
0
LINE
5
A1
100
AcDbEntity
8
1
62
256
6
ByLayer
370
18
48
1
60
0
100
AcDbLine
10
8.3
20
5.974052
30
0
11
-2.286582
21
5.974052
31
0
39
0
210
0
220
0
230
1
0
LINE
5
A2
100
AcDbEntity
8
1
62
256
6
ByLayer
370
18
48
1
60
0
100
AcDbLine
10
1.4
20
31.256874
30
0
11
1.4
21
15.831291
31
0
39
0
210
0
220
0
230
1
0
LINE
5
A3
100
AcDbEntity
8
1
62
256
6
ByLayer
370
18
48
1
60
0
100
AcDbLine
10
1.4
20
31.256874
30
0
11
-8
21
31.256874
31
0
39
0
210
0
220
0
230
1
0
LINE
5
A4
100
AcDbEntity
8
1
62
256
6
ByLayer
370
18
48
1
60
0
100
AcDbLine
10
3.777242
20
31.256874
30
0
11
1.4
21
31.256874
31
0
39
0
210
0
220
0
230
1
0
LINE
5
A5
100
AcDbEntity
8
1
62
256
6
ByLayer
370
18
48
1
60
0
100
AcDbLine
10
3.777242
20
-16.452382
30
0
11
3.777242
21
-12.718592
31
0
39
0
210
0
220
0
230
1
0
LINE
5
A6
100
AcDbEntity
8
1
62
256
6
ByLayer
370
18
48
1
60
0
100
AcDbLine
10
-1.171235
20
-3.475598
30
0
11
3.777242
21
-3.475598
31
0
39
0
210
0
220
0
230
1
0
LINE
5
A7
100
AcDbEntity
8
1
62
256
6
ByLayer
370
18
48
1
60
0
100
AcDbLine
10
3.777242
20
-12.718592
30
0
11
3.777242
21
-3.475598
31
0
39
0
210
0
220
0
230
1
0
LINE
5
A8
100
AcDbEntity
8
1
62
256
6
ByLayer
370
18
48
1
60
0
100
AcDbLine
10
4.391221
20
19.431866
30
0
11
4.391221
21
15.831291
31
0
39
0
210
0
220
0
230
1
0
LINE
5
A9
100
AcDbEntity
8
1
62
256
6
ByLayer
370
18
48
1
60
0
100
AcDbLine
10
4.391221
20
31.294714
30
0
11
4.391221
21
21.101777
31
0
39
0
210
0
220
0
230
1
0
LINE
5
AA
100
AcDbEntity
8
1
62
256
6
ByLayer
370
18
48
1
60
0
100
AcDbLine
10
4.43793
20
21.46941
30
0
11
4.437751
21
21.428354
31
0
39
0
210
0
220
0
230
1
0
LINE
5
AB
100
AcDbEntity
8
1
62
256
6
ByLayer
370
18
48
1
60
0
100
AcDbLine
10
4.437751
20
21.428354
30
0
11
4.609784
21
21.427603
31
0
39
0
210
0
220
0
230
1
0
LINE
5
AC
100
AcDbEntity
8
1
62
256
6
ByLayer
370
18
48
1
60
0
100
AcDbLine
10
4.43793
20
21.46941
30
0
11
4.609963
21
21.46866
31
0
39
0
210
0
220
0
230
1
0
LINE
5
AD
100
AcDbEntity
8
1
62
256
6
ByLayer
370
18
48
1
60
0
100
AcDbLine
10
4.609963
20
21.46866
30
0
11
4.609784
21
21.427603
31
0
39
0
210
0
220
0
230
1
0
LINE
5
AE
100
AcDbEntity
8
1
62
256
6
ByLayer
370
18
48
1
60
0
100
AcDbLine
10
5.381543
20
-16.502074
30
0
11
4.645483
21
-16.43718
31
0
39
0
210
0
220
0
230
1
0
LINE
5
AF
100
AcDbEntity
8
1
62
256
6
ByLayer
370
18
48
1
60
0
100
AcDbLine
10
4.645483
20
-16.43718
30
0
11
4.645483
21
-12.756572
31
0
39
0
210
0
220
0
230
1
0
LINE
5
B0
100
AcDbEntity
8
1
62
256
6
ByLayer
370
18
48
1
60
0
100
AcDbLine
10
5.553711
20
-12.836645
30
0
11
4.645483
21
-12.756572
31
0
39
0
210
0
220
0
230
1
0
LINE
5
B1
100
AcDbEntity
8
1
62
256
6
ByLayer
370
18
48
1
60
0
100
AcDbLine
10
4.645483
20
-12.756572
30
0
11
4.645483
21
-3.65907
31
0
39
0
210
0
220
0
230
1
0
LINE
5
B2
100
AcDbEntity
8
1
62
256
6
ByLayer
370
18
48
1
60
0
100
AcDbLine
10
5.3
20
-17.085763
30
0
11
5.3
21
-16.494885
31
0
39
0
210
0
220
0
230
1
0
LINE
5
B3
100
AcDbEntity
8
1
62
256
6
ByLayer
370
18
48
1
60
0
100
AcDbLine
10
17.286553
20
-14.056645
30
0
11
5.940673
21
-13.056353
31
0
39
0
210
0
220
0
230
1
0
LINE
5
B4
100
AcDbEntity
8
1
62
256
6
ByLayer
370
18
48
1
60
0
100
AcDbLine
10
8.3
20
-30.22581
30
0
11
-2.286582
21
-30.22581
31
0
39
0
210
0
220
0
230
1
0
LINE
5
B5
100
AcDbEntity
8
1
62
256
6
ByLayer
370
18
48
1
60
0
100
AcDbLine
10
8.3
20
-30.22581
30
0
11
8.3
21
-20.368571
31
0
39
0
210
0
220
0
230
1
0
LINE
5
B6
100
AcDbEntity
8
1
62
256
6
ByLayer
370
18
48
1
60
0
100
AcDbLine
10
8.3
20
-30.22581
30
0
11
9.497799
21
-29.592448
31
0
39
0
210
0
220
0
230
1
0
LINE
5
B7
100
AcDbEntity
8
1
62
256
6
ByLayer
370
18
48
1
60
0
100
AcDbLine
10
8.3
20
15.831291
30
0
11
-2.286582
21
15.831291
31
0
39
0
210
0
220
0
230
1
0
LINE
5
B8
100
AcDbEntity
8
1
62
256
6
ByLayer
370
18
48
1
60
0
100
AcDbLine
10
8.3
20
5.974052
30
0
11
8.3
21
15.831291
31
0
39
0
210
0
220
0
230
1
0
LINE
5
B9
100
AcDbEntity
8
1
62
256
6
ByLayer
370
18
48
1
60
0
100
AcDbLine
10
8.3
20
15.831291
30
0
11
10.5
21
14.561121
31
0
39
0
210
0
220
0
230
1
0
LINE
5
BA
100
AcDbEntity
8
1
62
256
6
ByLayer
370
18
48
1
60
0
100
AcDbLine
10
8.3
20
5.974052
30
0
11
9.497799
21
4.532765
31
0
39
0
210
0
220
0
230
1
0
LINE
5
BB
100
AcDbEntity
8
1
62
256
6
ByLayer
370
18
48
1
60
0
100
AcDbLine
10
11.3
20
-22.160271
30
0
11
11.3
21
-22.803805
31
0
39
0
210
0
220
0
230
1
0
LINE
5
BC
100
AcDbEntity
8
1
62
256
6
ByLayer
370
18
48
1
60
0
100
AcDbLine
10
13.807122
20
-4.903596
30
0
11
13.807122
21
-0.652556
31
0
39
0
210
0
220
0
230
1
0
LINE
5
BD
100
AcDbEntity
8
1
62
256
6
ByLayer
370
18
48
1
60
0
100
AcDbLine
10
13.807122
20
-0.652556
30
0
11
13.807122
21
-0.061823
31
0
39
0
210
0
220
0
230
1
0
LINE
5
BE
100
AcDbEntity
8
1
62
256
6
ByLayer
370
18
48
1
60
0
100
AcDbLine
10
13.807122
20
-0.652556
30
0
11
15.819657
21
-3.074197
31
0
39
0
210
0
220
0
230
1
0
LINE
5
BF
100
AcDbEntity
8
1
62
256
6
ByLayer
370
18
48
1
60
0
100
AcDbLine
10
13.807122
20
-27.313802
30
0
11
15.819657
21
-26.249632
31
0
39
0
210
0
220
0
230
1
0
LINE
5
C0
100
AcDbEntity
8
1
62
256
6
ByLayer
370
18
48
1
60
0
100
AcDbLine
10
15.819657
20
-26.249632
30
0
11
15.819657
21
-21.985158
31
0
39
0
210
0
220
0
230
1
0
LINE
5
C1
100
AcDbEntity
8
1
62
256
6
ByLayer
370
18
48
1
60
0
100
AcDbLine
10
15.819657
20
-26.249632
30
0
11
16.389725
21
-23.794634
31
0
39
0
210
0
220
0
230
1
0
LINE
5
C2
100
AcDbEntity
8
1
62
256
6
ByLayer
370
18
48
1
60
0
100
AcDbLine
10
15.819657
20
-3.074197
30
0
11
15.819657
21
1.190277
31
0
39
0
210
0
220
0
230
1
0
LINE
5
C3
100
AcDbEntity
8
1
62
256
6
ByLayer
370
18
48
1
60
0
100
AcDbLine
10
15.819657
20
-3.074197
30
0
11
16.389725
21
-8.660829
31
0
39
0
210
0
220
0
230
1
0
LINE
5
C4
100
AcDbEntity
8
1
62
256
6
ByLayer
370
18
48
1
60
0
100
AcDbLine
10
4.645483
20
-3.65907
30
0
11
16.389725
21
-8.660829
31
0
39
0
210
0
220
0
230
1
0
LINE
5
C5
100
AcDbEntity
8
1
62
256
6
ByLayer
370
18
48
1
60
0
100
AcDbLine
10
16.389725
20
-8.660829
30
0
11
16.901176
21
-12.680533
31
0
39
0
210
0
220
0
230
1
0
LINE
5
C6
100
AcDbEntity
8
1
62
256
6
ByLayer
370
18
48
1
60
0
100
AcDbLine
10
5.553711
20
-12.836645
30
0
11
16.463176
21
-13.798461
31
0
39
0
210
0
220
0
230
1
0
LINE
5
C7
100
AcDbEntity
8
1
62
256
6
ByLayer
370
18
48
1
60
0
100
AcDbLine
10
16.82953
20
-3.73948
30
0
11
17.05
21
-5.334626
31
0
39
0
210
0
220
0
230
1
0
LINE
5
C8
100
AcDbEntity
8
1
62
256
6
ByLayer
370
18
48
1
60
0
100
AcDbLine
10
17.05
20
-8.181302
30
0
11
17.05
21
-13.552259
31
0
39
0
210
0
220
0
230
1
0
LINE
5
C9
100
AcDbEntity
8
1
62
256
6
ByLayer
370
18
48
1
60
0
100
AcDbLine
10
17.05
20
-8.181302
30
0
11
17.359327
21
-8.208573
31
0
39
0
210
0
220
0
230
1
0
LINE
5
CA
100
AcDbEntity
8
1
62
256
6
ByLayer
370
18
48
1
60
0
100
AcDbLine
10
17.05
20
-8.003643
30
0
11
17.05
21
-8.181302
31
0
39
0
210
0
220
0
230
1
0
LINE
5
CB
100
AcDbEntity
8
1
62
256
6
ByLayer
370
18
48
1
60
0
100
AcDbLine
10
17.068123
20
-18.456404
30
0
11
5.956123
21
-17.476732
31
0
39
0
210
0
220
0
230
1
0
LINE
5
CC
100
AcDbEntity
8
1
62
256
6
ByLayer
370
18
48
1
60
0
100
AcDbLine
10
17.415545
20
-18.448361
30
0
11
17.415545
21
-19.822217
31
0
39
0
210
0
220
0
230
1
0
LINE
5
CD
100
AcDbEntity
8
1
62
256
6
ByLayer
370
18
48
1
60
0
100
AcDbLine
10
17.415545
20
-8.242072
30
0
11
17.415545
21
-14.002527
31
0
39
0
210
0
220
0
230
1
0
LINE
5
CE
100
AcDbEntity
8
1
62
256
6
ByLayer
370
18
48
1
60
0
100
AcDbLine
10
18
20
-9.998854
30
0
11
18
21
-12.423725
31
0
39
0
210
0
220
0
230
1
0
LINE
5
CF
100
AcDbEntity
8
SK1
62
256
6
ByLayer
370
18
48
1
60
0
100
AcDbLine
10
-2.094261
20
-18.378934
30
0
11
-2.094261
21
-18.587802
31
0
39
0
210
0
220
0
230
1
0
LINE
5
D0
100
AcDbEntity
8
1
62
256
6
ByLayer
370
18
48
1
60
0
100
AcDbLine
10
5.3
20
20.463234
30
0
11
5.3
21
31.746655
31
0
39
0
210
0
220
0
230
1
0
LINE
5
D1
100
AcDbEntity
8
1
62
256
6
ByLayer
370
18
48
1
60
0
100
AcDbLine
10
17.343877
20
21.640642
30
0
11
6.231877
21
19.681297
31
0
39
0
210
0
220
0
230
1
0
LINE
5
D2
100
AcDbEntity
8
1
62
256
6
ByLayer
370
18
48
1
60
0
100
AcDbLine
10
18
20
33.706
30
0
11
18
21
22.422579
31
0
39
0
210
0
220
0
230
1
0
LINE
5
D3
100
AcDbEntity
8
1
62
256
6
ByLayer
370
18
48
1
60
0
100
AcDbLine
10
5.956123
20
32.528592
30
0
11
17.068123
21
34.487937
31
0
39
0
210
0
220
0
230
1
0
LINE
5
D4
100
AcDbEntity
8
1
62
256
6
ByLayer
370
18
48
1
60
0
100
AcDbLine
10
5.553711
20
-15.174914
30
0
11
5.553711
21
-12.836645
31
0
39
0
210
0
220
0
230
1
0
LINE
5
D5
100
AcDbEntity
8
1
62
256
6
ByLayer
370
18
48
1
60
0
100
AcDbLine
10
5.381543
20
-16.502074
30
0
11
5.553711
21
-15.174914
31
0
39
0
210
0
220
0
230
1
0
LINE
5
D6
100
AcDbEntity
8
1
62
256
6
ByLayer
370
18
48
1
60
0
100
AcDbLine
10
-5.3
20
-13.571942
30
0
11
-5.785707
21
-13.329089
31
0
39
0
210
0
220
0
230
1
0
LINE
5
D7
100
AcDbEntity
8
1
62
256
6
ByLayer
370
18
48
1
60
0
100
AcDbLine
10
-4.814293
20
-13.329089
30
0
11
-5.3
21
-13.571942
31
0
39
0
210
0
220
0
230
1
0
LINE
5
D8
100
AcDbEntity
8
1
62
256
6
ByLayer
370
18
48
1
60
0
100
AcDbLine
10
-6.3
20
-14.321942
30
0
11
-6.3
21
-13.499211
31
0
39
0
210
0
220
0
230
1
0
LINE
5
D9
100
AcDbEntity
8
1
62
256
6
ByLayer
370
18
48
1
60
0
100
AcDbLine
10
16.901176
20
-20.599591
30
0
11
16.389725
21
-23.794634
31
0
39
0
210
0
220
0
230
1
0
LINE
5
DA
100
AcDbEntity
8
1
62
256
6
ByLayer
370
18
48
1
60
0
100
AcDbLine
10
17.05
20
-18.454806
30
0
11
17.05
21
-19.37195
31
0
39
0
210
0
220
0
230
1
0
LINE
5
DB
100
AcDbEntity
8
1
62
256
6
ByLayer
370
18
48
1
60
0
100
AcDbLine
10
10.46049
20
-17.873852
30
0
11
8.3
21
-20.368571
31
0
39
0
210
0
220
0
230
1
0
LINE
5
DC
100
AcDbEntity
8
1
62
256
6
ByLayer
370
18
48
1
60
0
100
AcDbLine
10
8.807122
20
-4.903596
30
0
11
8.807122
21
1.455103
31
0
39
0
210
0
220
0
230
1
0
LINE
5
DD
100
AcDbEntity
8
1
62
256
6
ByLayer
370
18
48
1
60
0
100
AcDbLine
10
13.807122
20
-4.903596
30
0
11
8.807122
21
-4.903596
31
0
39
0
210
0
220
0
230
1
0
LINE
5
DE
100
AcDbEntity
8
1
62
256
6
ByLayer
370
18
48
1
60
0
100
AcDbLine
10
10.5
20
-21.496625
30
0
11
10.5
21
-17.877336
31
0
39
0
210
0
220
0
230
1
0
LINE
5
DF
100
AcDbEntity
8
1
62
256
6
ByLayer
370
18
48
1
60
0
100
AcDbLine
10
10.5
20
10.892725
30
0
11
10.5
21
14.561121
31
0
39
0
210
0
220
0
230
1
0
LINE
5
E0
100
AcDbEntity
8
1
62
256
6
ByLayer
370
18
48
1
60
0
100
AcDbLine
10
11.3
20
8.199905
30
0
11
11.3
21
8.843439
31
0
39
0
210
0
220
0
230
1
0
LINE
5
E1
100
AcDbEntity
8
1
62
256
6
ByLayer
370
18
48
1
60
0
100
AcDbLine
10
17.05
20
16.488943
30
0
11
17.05
21
21.588824
31
0
39
0
210
0
220
0
230
1
0
LINE
5
E2
100
AcDbEntity
8
1
62
256
6
ByLayer
370
18
48
1
60
0
100
AcDbLine
10
13.789899
20
15.302363
30
0
11
17.05
21
16.488943
31
0
39
0
210
0
220
0
230
1
0
LINE
5
E3
100
AcDbEntity
8
1
62
256
6
ByLayer
370
18
48
1
60
0
100
AcDbLine
10
16.997857
20
-19.850884
30
0
11
17.286553
21
-19.876336
31
0
39
0
210
0
220
0
230
1
0
LINE
5
E4
100
AcDbEntity
8
1
62
256
6
ByLayer
370
18
48
1
60
0
100
AcDbLine
10
-8
20
-18.378934
30
0
11
1.4
21
-18.378934
31
0
39
0
210
0
220
0
230
1
0
LINE
5
E5
100
AcDbEntity
8
1
62
256
6
ByLayer
370
18
48
1
60
0
100
AcDbLine
10
4.645483
20
31.332835
30
0
11
5.3
21
31.448244
31
0
39
0
210
0
220
0
230
1
0
LINE
5
E6
100
AcDbEntity
8
SK1
62
256
6
ByLayer
370
18
48
1
60
0
100
AcDbLine
10
-8
20
-18.378934
30
0
11
-8
21
-19.658404
31
0
39
0
210
0
220
0
230
1
0
LINE
5
E7
100
AcDbEntity
8
1
62
256
6
ByLayer
370
18
48
1
60
0
100
AcDbLine
10
-4.1
20
-16.590911
30
0
11
-4.1
21
-13.605948
31
0
39
0
210
0
220
0
230
1
0
LINE
5
E8
100
AcDbEntity
8
1
62
256
6
ByLayer
370
18
48
1
60
0
100
AcDbLine
10
18
20
-18.065436
30
0
11
18
21
-12.423725
31
0
39
0
210
0
220
0
230
1
0
LINE
5
E9
100
AcDbEntity
8
1
62
256
6
ByLayer
370
18
48
1
60
0
100
AcDbLine
10
13.807122
20
-26.723069
30
0
11
13.807122
21
-27.313802
31
0
39
0
210
0
220
0
230
1
0
LINE
5
EA
100
AcDbEntity
8
1
62
256
6
ByLayer
370
18
48
1
60
0
100
AcDbLine
10
5.884455
20
-12.865804
30
0
11
5.884455
21
-13.022854
31
0
39
0
210
0
220
0
230
1
0
LINE
5
EB
100
AcDbEntity
8
1
62
256
6
ByLayer
370
18
48
1
60
0
100
AcDbLine
10
17.05
20
-8.003643
30
0
11
17.05
21
-5.334626
31
0
39
0
210
0
220
0
230
1
0
LINE
5
EC
100
AcDbEntity
8
1
62
256
6
ByLayer
370
18
48
1
60
0
100
AcDbLine
10
-4.3
20
-13.499211
30
0
11
-4.3
21
-14.321942
31
0
39
0
210
0
220
0
230
1
0
MTEXT
5
169
100
AcDbEntity
8
SK6
62
256
6
ByLayer
370
18
48
1
60
0
100
AcDbMText
10
22.036875
20
38.112829
30
0
210
0
220
0
230
1
1
\W0.7689;3X R820D-AR18SCFC12A
40
3
41
0
44
1.084337
50
0
71
7
72
5
7
iso_b_vert
0
MTEXT
5
16D
100
AcDbEntity
8
2
62
256
6
ByLayer
370
18
48
1
60
0
100
AcDbMText
10
43.257876
20
-18.197464
30
0
210
0
220
0
230
1
1
\W0.7635;Dc = 69.0 - 78.5
40
3
41
0
44
1.084337
50
89.9999999999996
71
7
72
5
7
iso_b_vert
0
DIMENSION
5
178
100
AcDbEntity
8
2
62
256
6
ByLayer
370
13
48
1
60
0
100
AcDbDimension
2
DimnDraft3D1
10
43.410144
20
-34.5
30
0
11
43.410144
21
-0.506579
31
0
70
32
71
5
72
1
41
1
210
0
220
0
230
1
3
Standard
100
AcDbAlignedDimension
13
20
23
34.5
33
0
14
19.884806
24
-34.5
34
0
50
90
100
AcDbRotatedDimension
1001
ACAD
1000
DSTYLE
1002
{
1070
    74
1070
     0
1070
   279
1070
     0
1070
   172
1070
     1
1070
   173
1070
     1
1070
   340
1005
16A
1070
    77
1070
     1
1070
    73
1070
     0
1070
   171
1070
     4
1070
   274
1070
     4
1070
   177
1070
     7
1070
   176
1070
     7
1070
   178
1070
     7
1070
    78
1070
     8
1070
    41
1041
3.175
1070
   147
1041
1.75
1070
    42
1041
2.0
1070
    44
1041
2.0
1070
   140
1041
3.5
1070
   343
1005
0
1070
   344
1005
0
1002
}
0
DIMENSION
5
182
100
AcDbEntity
8
2
62
256
6
ByLayer
370
13
48
1
60
0
100
AcDbDimension
2
DimnDraft3D2
10
0
20
58.5
30
0
11
5.932895
21
58.5
31
0
70
32
71
5
72
1
41
1
210
0
220
0
230
1
3
Standard
100
AcDbAlignedDimension
13
18
23
36.5
33
0
14
0
24
2
34
0
50
0
100
AcDbRotatedDimension
1001
ACAD
1000
DSTYLE
1002
{
1070
   279
1070
     0
1070
   172
1070
     1
1070
   173
1070
     1
1070
   340
1005
16A
1070
   271
1070
     1
1070
    77
1070
     1
1070
    73
1070
     0
1070
   171
1070
     4
1070
   274
1070
     4
1070
   177
1070
     7
1070
   176
1070
     7
1070
   178
1070
     7
1070
    41
1041
3.175
1070
   147
1041
1.5
1070
    42
1041
2.0
1070
    44
1041
2.0
1070
   140
1041
3.0
1070
   343
1005
0
1070
   344
1005
0
1002
}
0
DIMENSION
5
18C
100
AcDbEntity
8
2
62
256
6
ByLayer
370
13
48
1
60
0
100
AcDbDimension
2
DimnDraft3D3
10
19
20
34.5
30
0
11
27.625859
21
24.874141
31
0
70
34
71
5
72
1
41
1
210
0
220
0
230
1
3
Standard
100
AcDb2LineAngularDimension
13
18
23
33.706
33
0
14
18
24
22.422579
34
0
15
18
25
34.5
35
0
16
29.747179
26
22.752821
36
0
40
0
0
ENDSEC
0
SECTION
2
OBJECTS
0
DICTIONARY
5
1f6
330
0
100
AcDbDictionary
280
0
281
1
3
ACAD_GROUP
350
1f7
3
ACAD_MLINESTYLE
350
1f8
0
DICTIONARY
5
1f7
330
0
100
AcDbDictionary
280
0
281
1
0
DICTIONARY
5
1f8
330
0
100
AcDbDictionary
280
0
281
1
3
Standard
350
18
0
MLINESTYLE
5
18
330
1f8
100
AcDbMlineStyle
2
Standard
70
0
3

62
256
51
90
52
90
71
2
49
-0.5
62
256
6
ByLayer
49
0.5
62
256
6
ByLayer
0
RASTERVARIABLES
5
1e5
330

100
AcDbRasterVariables
90
0
70
1
71
1
72
1
0
ENDSEC
0
EOF
