0
SECTION
2
HEADER
9
$ACADVER
1
AC1015
9
$DWGCODEPAGE
3
ANSI_1252
9
$HANDSEED
5
3b8
9
$ANGBASE
50
0
9
$ANGDIR
70
0
9
$ATTMODE
70
1
9
$AUNITS
70
0
9
$AUPREC
70
0
9
$CECOLOR
62
256
9
$CELTSCALE
40
1
9
$CELTYPE
6
ByLayer
9
$CELWEIGHT
370
18
9
$CLAYER
8
0
9
$CMLJUST
70
0
9
$CMLSCALE
40
1
9
$CMLSTYLE
2
Standard
9
$DIMSTYLE
2
Standard
9
$TEXTSIZE
40
0.2
9
$TEXTSTYLE
7
Standard
9
$LUNITS
70
2
9
$LUPREC
70
4
9
$EXTNAMES
290
1
9
$INSUNITS
70
4
9
$LTSCALE
40
1
9
$LWDISPLAY
290
1
9
$PDMODE
70
0
9
$PDSIZE
40
0
9
$PLINEGEN
70
0
0
ENDSEC
0
SECTION
2
CLASSES
0
CLASS
1
RASTERVARIABLES
2
AcDbRasterVariables
3
ISM
90
0
280
0
281
0
0
ENDSEC
0
SECTION
2
TABLES
0
TABLE
2
VPORT
5
3ae
100
AcDbSymbolTable
0
VPORT
5
1
100
AcDbSymbolTableRecord
100
AcDbViewportTableRecord
2
*Active
70
0
10
0
20
0
11
1
21
1
12
-1
22
1
13
0
23
0
14
0.5
24
0.5
15
10
25
10
16
0
26
0
36
1
17
0
27
0
37
0
0
ENDTAB
0
TABLE
2
LTYPE
5
3af
100
AcDbSymbolTable
0
LTYPE
5
14
100
AcDbSymbolTableRecord
100
AcDbLinetypeTableRecord
70
0
2
ByBlock
3

72
65
73
0
40
0
0
LTYPE
5
15
100
AcDbSymbolTableRecord
100
AcDbLinetypeTableRecord
70
0
2
ByLayer
3

72
65
73
0
40
0
0
LTYPE
5
16
100
AcDbSymbolTableRecord
100
AcDbLinetypeTableRecord
70
0
2
CONTINUOUS
3
Solid line
72
65
73
0
40
0
0
LTYPE
5
6A
100
AcDbSymbolTableRecord
100
AcDbLinetypeTableRecord
70
0
2
CENTER
3
____ _ ____ _ ____ _ ____
72
65
73
4
40
47.5
49
22
74
0
49
-8.5
74
0
49
8.5
74
0
49
-8.5
74
0
0
LTYPE
5
6B
100
AcDbSymbolTableRecord
100
AcDbLinetypeTableRecord
70
0
2
DASHED
3
__ __ __ __ __ __ __ __ __
72
65
73
2
40
25.72
49
12.86
74
0
49
-12.86
74
0
0
ENDTAB
0
TABLE
2
LAYER
5
3b0
100
AcDbSymbolTable
0
LAYER
5
10
100
AcDbSymbolTableRecord
100
AcDbLayerTableRecord
2
0
70
0
62
7
6
CONTINUOUS
290
1
370
-3
390
0
0
LAYER
5
6D
100
AcDbSymbolTableRecord
100
AcDbLayerTableRecord
2
81
70
0
62
-3
6
CONTINUOUS
290
1
370
-3
390
0
0
LAYER
5
6F
100
AcDbSymbolTableRecord
100
AcDbLayerTableRecord
2
1
70
0
62
4
6
CONTINUOUS
290
1
370
-3
390
0
0
LAYER
5
71
100
AcDbSymbolTableRecord
100
AcDbLayerTableRecord
2
80
70
0
62
-6
6
CONTINUOUS
290
1
370
-3
390
0
0
LAYER
5
10D
100
AcDbSymbolTableRecord
100
AcDbLayerTableRecord
2
4
70
0
62
-2
6
CENTER
290
1
370
-3
390
0
0
LAYER
5
2FA
100
AcDbSymbolTableRecord
100
AcDbLayerTableRecord
2
2
70
0
62
7
6
CONTINUOUS
290
1
370
-3
390
0
0
LAYER
5
39a
100
AcDbSymbolTableRecord
100
AcDbLayerTableRecord
2
SK1
70
0
62
4
6
CONTINUOUS
290
1
370
-3
390
0
0
LAYER
5
39b
100
AcDbSymbolTableRecord
100
AcDbLayerTableRecord
2
SK4
70
0
62
2
6
CENTER
290
1
370
-3
390
0
0
LAYER
5
39c
100
AcDbSymbolTableRecord
100
AcDbLayerTableRecord
2
SK6
70
0
62
5
6
CONTINUOUS
290
1
370
-3
390
0
0
LAYER
5
39d
100
AcDbSymbolTableRecord
100
AcDbLayerTableRecord
2
SK2
70
0
62
7
6
CONTINUOUS
290
1
370
-3
390
0
0
ENDTAB
0
TABLE
2
STYLE
5
3b1
100
AcDbSymbolTable
0
STYLE
5
11
100
AcDbSymbolTableRecord
100
AcDbTextStyleTableRecord
2
Standard
3
txt
70
0
71
0
40
0
41
1
42
0
50
0
0
STYLE
5
2F5
100
AcDbSymbolTableRecord
100
AcDbTextStyleTableRecord
2
iso_b_vert
3
simplex.shx
70
0
71
0
40
0
41
1
42
0
50
0
0
STYLE
5
2F6
100
AcDbSymbolTableRecord
100
AcDbTextStyleTableRecord
2
DWGDirectTextStyle
3
simplex
70
0
71
0
40
0
41
1
42
0
50
0
0
ENDTAB
0
TABLE
2
DIMSTYLE
5
3b2
100
AcDbSymbolTable
100
AcDbDimStyleTable
0
DIMSTYLE
105
27
100
AcDbSymbolTableRecord
100
AcDbDimStyleTableRecord
2
Standard
70
0
3
<>
41
0.18
42
0.0625
44
0.18
140
0.18
147
0.09
73
0
74
0
77
1
271
2
275
0
278
52
280
0
340
11
0
ENDTAB
0
TABLE
2
VIEW
5
3b3
100
AcDbSymbolTable
0
ENDTAB
0
TABLE
2
UCS
5
3b4
100
AcDbSymbolTable
0
ENDTAB
0
TABLE
2
APPID
5
3b5
100
AcDbSymbolTable
0
APPID
5
12
100
AcDbSymbolTableRecord
100
AcDbRegAppTableRecord
2
ACAD
70
0
0
ENDTAB
0
TABLE
2
BLOCK_RECORD
5
3b6
100
AcDbSymbolTable
0
BLOCK_RECORD
5
1F
100
AcDbSymbolTableRecord
100
AcDbBlockTableRecord
2
*Model_Space
340
0
70
0
0
BLOCK_RECORD
5
1B
100
AcDbSymbolTableRecord
100
AcDbBlockTableRecord
2
*Paper_Space
340
0
70
0
0
BLOCK_RECORD
5
23
100
AcDbSymbolTableRecord
100
AcDbBlockTableRecord
2
*Paper_Space0
340
0
70
0
0
BLOCK_RECORD
5
2F8
100
AcDbSymbolTableRecord
100
AcDbBlockTableRecord
2
DimnDraft3D1
340
0
70
0
0
BLOCK_RECORD
5
307
100
AcDbSymbolTableRecord
100
AcDbBlockTableRecord
2
DimnDraft3D2
340
0
70
0
0
BLOCK_RECORD
5
317
100
AcDbSymbolTableRecord
100
AcDbBlockTableRecord
2
DimnDraft3D3
340
0
70
0
0
BLOCK_RECORD
5
325
100
AcDbSymbolTableRecord
100
AcDbBlockTableRecord
2
DimnDraft3D4
340
0
70
0
0
BLOCK_RECORD
5
333
100
AcDbSymbolTableRecord
100
AcDbBlockTableRecord
2
DimnDraft3D5
340
0
70
0
0
ENDTAB
0
ENDSEC
0
SECTION
2
BLOCKS
0
BLOCK
5
20
100
AcDbEntity
8
0
100
AcDbBlockBegin
2
*Model_Space
70
0
10
0
20
0
30
0
3
*Model_Space
0
ENDBLK
5
21
100
AcDbEntity
8
0
100
AcDbBlockEnd
0
BLOCK
5
1C
100
AcDbEntity
8
0
100
AcDbBlockBegin
2
*Paper_Space
70
0
10
0
20
0
30
0
3
*Paper_Space
0
ENDBLK
5
1D
100
AcDbEntity
8
0
100
AcDbBlockEnd
0
BLOCK
5
24
100
AcDbEntity
8
0
100
AcDbBlockBegin
2
*Paper_Space0
70
0
10
0
20
0
30
0
3
*Paper_Space0
0
ENDBLK
5
25
100
AcDbEntity
8
0
100
AcDbBlockEnd
0
BLOCK
5
304
100
AcDbEntity
8
0
100
AcDbBlockBegin
2
DimnDraft3D1
70
0
10
0
20
0
30
0
3
DimnDraft3D1
0
MTEXT
5
2F9
100
AcDbEntity
8
2
62
256
6
ByLayer
370
18
48
1
60
0
100
AcDbMText
10
97.019203
20
-5.518237
30
0
210
0
220
0
230
1
1
\W1.3125;%%c54
40
3.50012
41
0
44
1.084337
50
90
71
7
72
5
7
iso_b_vert
0
LINE
5
2FB
100
AcDbEntity
8
2
62
256
6
ByLayer
370
13
48
1
60
0
100
AcDbLine
10
82.592946
20
-27.139105
30
0
11
101.944263
21
-27.139105
31
0
39
0
210
0
220
0
230
1
0
LINE
5
2FC
100
AcDbEntity
8
2
62
256
6
ByLayer
370
13
48
1
60
0
100
AcDbLine
10
82.592946
20
26.860895
30
0
11
101.944263
21
26.860895
31
0
39
0
210
0
220
0
230
1
0
LINE
5
2FD
100
AcDbEntity
8
2
62
256
6
ByLayer
370
13
48
1
60
0
100
AcDbLine
10
98.769263
20
-27.139105
30
0
11
98.769263
21
26.860895
31
0
39
0
210
0
220
0
230
1
0
LINE
5
2FE
100
AcDbEntity
8
2
62
256
6
ByLayer
370
13
48
1
60
0
100
AcDbLine
10
98.769263
20
-27.139105
30
0
11
98.351266
21
-23.964106
31
0
39
0
210
0
220
0
230
1
0
LINE
5
2FF
100
AcDbEntity
8
2
62
256
6
ByLayer
370
13
48
1
60
0
100
AcDbLine
10
98.769263
20
-27.139105
30
0
11
99.18726
21
-23.964103
31
0
39
0
210
0
220
0
230
1
0
LINE
5
300
100
AcDbEntity
8
2
62
256
6
ByLayer
370
13
48
1
60
0
100
AcDbLine
10
98.351266
20
-23.964106
30
0
11
99.18726
21
-23.964103
31
0
39
0
210
0
220
0
230
1
0
LINE
5
301
100
AcDbEntity
8
2
62
256
6
ByLayer
370
13
48
1
60
0
100
AcDbLine
10
98.769263
20
26.860895
30
0
11
99.18726
21
23.685897
31
0
39
0
210
0
220
0
230
1
0
LINE
5
302
100
AcDbEntity
8
2
62
256
6
ByLayer
370
13
48
1
60
0
100
AcDbLine
10
98.769263
20
26.860895
30
0
11
98.351266
21
23.685894
31
0
39
0
210
0
220
0
230
1
0
LINE
5
303
100
AcDbEntity
8
2
62
256
6
ByLayer
370
13
48
1
60
0
100
AcDbLine
10
99.18726
20
23.685897
30
0
11
98.351266
21
23.685894
31
0
39
0
210
0
220
0
230
1
0
ENDBLK
5
305
100
AcDbEntity
8
0
100
AcDbBlockEnd
0
BLOCK
5
314
100
AcDbEntity
8
0
100
AcDbBlockBegin
2
DimnDraft3D2
70
0
10
0
20
0
30
0
3
DimnDraft3D2
0
MTEXT
5
308
100
AcDbEntity
8
SK2
62
256
6
ByLayer
370
18
48
1
60
0
100
AcDbMText
10
74.084513
20
34.640586
30
0
210
0
220
0
230
1
1
\W0.5144;12
40
3.50012
41
0
44
1.084337
50
0
71
7
72
5
7
iso_b_vert
0
LINE
5
30A
100
AcDbEntity
8
SK2
62
256
6
ByLayer
370
13
48
1
60
0
100
AcDbLine
10
81.005446
20
28.448395
30
0
11
81.005446
21
36.940556
31
0
39
0
210
0
220
0
230
1
0
LINE
5
30B
100
AcDbEntity
8
SK2
62
256
6
ByLayer
370
13
48
1
60
0
100
AcDbLine
10
68.628104
20
28.565903
30
0
11
68.628104
21
36.940556
31
0
39
0
210
0
220
0
230
1
0
LINE
5
30C
100
AcDbEntity
8
SK2
62
256
6
ByLayer
370
13
48
1
60
0
100
AcDbLine
10
89.755746
20
33.765556
30
0
11
81.005446
21
33.765556
31
0
39
0
210
0
220
0
230
1
0
LINE
5
30D
100
AcDbEntity
8
SK2
62
256
6
ByLayer
370
13
48
1
60
0
100
AcDbLine
10
59.877804
20
33.765556
30
0
11
68.628104
21
33.765556
31
0
39
0
210
0
220
0
230
1
0
LINE
5
30E
100
AcDbEntity
8
SK2
62
256
6
ByLayer
370
13
48
1
60
0
100
AcDbLine
10
81.005446
20
33.765556
30
0
11
84.180445
21
34.183553
31
0
39
0
210
0
220
0
230
1
0
LINE
5
30F
100
AcDbEntity
8
SK2
62
256
6
ByLayer
370
13
48
1
60
0
100
AcDbLine
10
81.005446
20
33.765556
30
0
11
84.180448
21
33.347559
31
0
39
0
210
0
220
0
230
1
0
LINE
5
310
100
AcDbEntity
8
SK2
62
256
6
ByLayer
370
13
48
1
60
0
100
AcDbLine
10
84.180445
20
34.183553
30
0
11
84.180448
21
33.347559
31
0
39
0
210
0
220
0
230
1
0
LINE
5
311
100
AcDbEntity
8
SK2
62
256
6
ByLayer
370
13
48
1
60
0
100
AcDbLine
10
68.628104
20
33.765556
30
0
11
65.453105
21
33.347559
31
0
39
0
210
0
220
0
230
1
0
LINE
5
312
100
AcDbEntity
8
SK2
62
256
6
ByLayer
370
13
48
1
60
0
100
AcDbLine
10
68.628104
20
33.765556
30
0
11
65.453102
21
34.183553
31
0
39
0
210
0
220
0
230
1
0
LINE
5
313
100
AcDbEntity
8
SK2
62
256
6
ByLayer
370
13
48
1
60
0
100
AcDbLine
10
65.453105
20
33.347559
30
0
11
65.453102
21
34.183553
31
0
39
0
210
0
220
0
230
1
0
ENDBLK
5
315
100
AcDbEntity
8
0
100
AcDbBlockEnd
0
BLOCK
5
322
100
AcDbEntity
8
0
100
AcDbBlockBegin
2
DimnDraft3D3
70
0
10
0
20
0
30
0
3
DimnDraft3D3
0
MTEXT
5
318
100
AcDbEntity
8
SK2
62
256
6
ByLayer
370
18
48
1
60
0
100
AcDbMText
10
49.832946
20
47.539017
30
0
210
0
220
0
230
1
1
\W0.6562;60
40
3.50012
41
0
44
1.084337
50
0
71
7
72
5
7
iso_b_vert
0
LINE
5
319
100
AcDbEntity
8
SK2
62
256
6
ByLayer
370
13
48
1
60
0
100
AcDbLine
10
81.005446
20
28.448395
30
0
11
81.005446
21
49.838987
31
0
39
0
210
0
220
0
230
1
0
LINE
5
31A
100
AcDbEntity
8
SK2
62
256
6
ByLayer
370
13
48
1
60
0
100
AcDbLine
10
21
20
27.146374
30
0
11
21
21
49.838987
31
0
39
0
210
0
220
0
230
1
0
LINE
5
31B
100
AcDbEntity
8
SK2
62
256
6
ByLayer
370
13
48
1
60
0
100
AcDbLine
10
81.005446
20
46.663987
30
0
11
21
21
46.663987
31
0
39
0
210
0
220
0
230
1
0
LINE
5
31C
100
AcDbEntity
8
SK2
62
256
6
ByLayer
370
13
48
1
60
0
100
AcDbLine
10
81.005446
20
46.663987
30
0
11
77.830448
21
46.24599
31
0
39
0
210
0
220
0
230
1
0
LINE
5
31D
100
AcDbEntity
8
SK2
62
256
6
ByLayer
370
13
48
1
60
0
100
AcDbLine
10
81.005446
20
46.663987
30
0
11
77.830445
21
47.081984
31
0
39
0
210
0
220
0
230
1
0
LINE
5
31E
100
AcDbEntity
8
SK2
62
256
6
ByLayer
370
13
48
1
60
0
100
AcDbLine
10
77.830448
20
46.24599
30
0
11
77.830445
21
47.081984
31
0
39
0
210
0
220
0
230
1
0
LINE
5
31F
100
AcDbEntity
8
SK2
62
256
6
ByLayer
370
13
48
1
60
0
100
AcDbLine
10
21
20
46.663987
30
0
11
24.174998
21
47.081984
31
0
39
0
210
0
220
0
230
1
0
LINE
5
320
100
AcDbEntity
8
SK2
62
256
6
ByLayer
370
13
48
1
60
0
100
AcDbLine
10
21
20
46.663987
30
0
11
24.175002
21
46.24599
31
0
39
0
210
0
220
0
230
1
0
LINE
5
321
100
AcDbEntity
8
SK2
62
256
6
ByLayer
370
13
48
1
60
0
100
AcDbLine
10
24.174998
20
47.081984
30
0
11
24.175002
21
46.24599
31
0
39
0
210
0
220
0
230
1
0
ENDBLK
5
323
100
AcDbEntity
8
0
100
AcDbBlockEnd
0
BLOCK
5
330
100
AcDbEntity
8
0
100
AcDbBlockBegin
2
DimnDraft3D4
70
0
10
0
20
0
30
0
3
DimnDraft3D4
0
MTEXT
5
326
100
AcDbEntity
8
2
62
256
6
ByLayer
370
18
48
1
60
0
100
AcDbMText
10
39.770461
20
60.695417
30
0
210
0
220
0
230
1
1
\W0.6139;81
40
3.50012
41
0
44
1.084337
50
0
71
7
72
5
7
iso_b_vert
0
LINE
5
327
100
AcDbEntity
8
2
62
256
6
ByLayer
370
13
48
1
60
0
100
AcDbLine
10
0
20
26.2875
30
0
11
0
21
62.995387
31
0
39
0
210
0
220
0
230
1
0
LINE
5
328
100
AcDbEntity
8
2
62
256
6
ByLayer
370
13
48
1
60
0
100
AcDbLine
10
81.005446
20
28.448395
30
0
11
81.005446
21
62.995387
31
0
39
0
210
0
220
0
230
1
0
LINE
5
329
100
AcDbEntity
8
2
62
256
6
ByLayer
370
13
48
1
60
0
100
AcDbLine
10
0
20
59.820387
30
0
11
81.005446
21
59.820387
31
0
39
0
210
0
220
0
230
1
0
LINE
5
32A
100
AcDbEntity
8
2
62
256
6
ByLayer
370
13
48
1
60
0
100
AcDbLine
10
0
20
59.820387
30
0
11
3.174998
21
60.238383
31
0
39
0
210
0
220
0
230
1
0
LINE
5
32B
100
AcDbEntity
8
2
62
256
6
ByLayer
370
13
48
1
60
0
100
AcDbLine
10
0
20
59.820387
30
0
11
3.175002
21
59.40239
31
0
39
0
210
0
220
0
230
1
0
LINE
5
32C
100
AcDbEntity
8
2
62
256
6
ByLayer
370
13
48
1
60
0
100
AcDbLine
10
3.174998
20
60.238383
30
0
11
3.175002
21
59.40239
31
0
39
0
210
0
220
0
230
1
0
LINE
5
32D
100
AcDbEntity
8
2
62
256
6
ByLayer
370
13
48
1
60
0
100
AcDbLine
10
81.005446
20
59.820387
30
0
11
77.830448
21
59.40239
31
0
39
0
210
0
220
0
230
1
0
LINE
5
32E
100
AcDbEntity
8
2
62
256
6
ByLayer
370
13
48
1
60
0
100
AcDbLine
10
81.005446
20
59.820387
30
0
11
77.830445
21
60.238383
31
0
39
0
210
0
220
0
230
1
0
LINE
5
32F
100
AcDbEntity
8
2
62
256
6
ByLayer
370
13
48
1
60
0
100
AcDbLine
10
77.830448
20
59.40239
30
0
11
77.830445
21
60.238383
31
0
39
0
210
0
220
0
230
1
0
ENDBLK
5
331
100
AcDbEntity
8
0
100
AcDbBlockEnd
0
BLOCK
5
33E
100
AcDbEntity
8
0
100
AcDbBlockBegin
2
DimnDraft3D5
70
0
10
0
20
0
30
0
3
DimnDraft3D5
0
MTEXT
5
334
100
AcDbEntity
8
SK2
62
256
6
ByLayer
370
18
48
1
60
0
100
AcDbMText
10
-43.892118
20
-5.194915
30
0
210
0
220
0
230
1
1
\W1.2949;%%c50
40
3.50012
41
0
44
1.084337
50
90
71
7
72
5
7
iso_b_vert
0
LINE
5
335
100
AcDbEntity
8
SK2
62
256
6
ByLayer
370
13
48
1
60
0
100
AcDbLine
10
-1.2875
20
-25
30
0
11
-45.317058
21
-25
31
0
39
0
210
0
220
0
230
1
0
LINE
5
336
100
AcDbEntity
8
SK2
62
256
6
ByLayer
370
13
48
1
60
0
100
AcDbLine
10
-1.2875
20
25
30
0
11
-45.317058
21
25
31
0
39
0
210
0
220
0
230
1
0
LINE
5
337
100
AcDbEntity
8
SK2
62
256
6
ByLayer
370
13
48
1
60
0
100
AcDbLine
10
-42.142058
20
-25
30
0
11
-42.142058
21
25
31
0
39
0
210
0
220
0
230
1
0
LINE
5
338
100
AcDbEntity
8
SK2
62
256
6
ByLayer
370
13
48
1
60
0
100
AcDbLine
10
-42.142058
20
-25
30
0
11
-42.560055
21
-21.825002
31
0
39
0
210
0
220
0
230
1
0
LINE
5
339
100
AcDbEntity
8
SK2
62
256
6
ByLayer
370
13
48
1
60
0
100
AcDbLine
10
-42.142058
20
-25
30
0
11
-41.724061
21
-21.824998
31
0
39
0
210
0
220
0
230
1
0
LINE
5
33A
100
AcDbEntity
8
SK2
62
256
6
ByLayer
370
13
48
1
60
0
100
AcDbLine
10
-42.560055
20
-21.825002
30
0
11
-41.724061
21
-21.824998
31
0
39
0
210
0
220
0
230
1
0
LINE
5
33B
100
AcDbEntity
8
SK2
62
256
6
ByLayer
370
13
48
1
60
0
100
AcDbLine
10
-42.142058
20
25
30
0
11
-41.724061
21
21.825002
31
0
39
0
210
0
220
0
230
1
0
LINE
5
33C
100
AcDbEntity
8
SK2
62
256
6
ByLayer
370
13
48
1
60
0
100
AcDbLine
10
-42.142058
20
25
30
0
11
-42.560055
21
21.824998
31
0
39
0
210
0
220
0
230
1
0
LINE
5
33D
100
AcDbEntity
8
SK2
62
256
6
ByLayer
370
13
48
1
60
0
100
AcDbLine
10
-41.724061
20
21.825002
30
0
11
-42.560055
21
21.824998
31
0
39
0
210
0
220
0
230
1
0
ENDBLK
5
33F
100
AcDbEntity
8
0
100
AcDbBlockEnd
0
ENDSEC
0
SECTION
2
ENTITIES
0
ARC
5
110
100
AcDbEntity
8
SK1
62
256
6
ByLayer
370
25
48
1
60
0
100
AcDbCircle
39
0
10
0.6
20
18.75
30
0
40
1
210
0
220
0
230
-1
100
AcDbArc
50
233.130102
51
246.421822
0
ARC
5
111
100
AcDbEntity
8
SK1
62
256
6
ByLayer
370
25
48
1
60
0
100
AcDbCircle
39
0
10
0.6
20
-18.75
30
0
40
1
210
0
220
0
230
-1
100
AcDbArc
50
113.578178
51
126.869898
0
ELLIPSE
5
112
100
AcDbEntity
8
1
62
256
6
ByLayer
370
25
48
1
60
0
100
AcDbEllipse
10
70.771596
20
21.556374
30
0
11
0.836404841291173
21
-2.48818245742948
31
0
210
0
220
0
230
1
40
0.991003
41
3.14159265358979
42
-1.89898738933855
0
ELLIPSE
5
113
100
AcDbEntity
8
1
62
256
6
ByLayer
370
25
48
1
60
0
100
AcDbEllipse
10
70.736653
20
21.544628
30
0
11
0.573534748336019
21
-1.70618225651633
31
0
210
0
220
0
230
1
40
0.991003
41
0
42
6.28318530717959
0
ELLIPSE
5
114
100
AcDbEntity
8
1
62
256
6
ByLayer
370
25
48
1
60
0
100
AcDbEllipse
10
70.736653
20
21.544628
30
0
11
0.534183891982708
21
-1.58911919614208
31
0
210
0
220
0
230
1
40
0.991003
41
-0.854580385830398
42
0.198198260728764
0
ELLIPSE
5
115
100
AcDbEntity
8
1
62
256
6
ByLayer
370
25
48
1
60
0
100
AcDbEllipse
10
70.736653
20
21.544628
30
0
11
0.534183891770157
21
-1.58911919620671
31
0
210
0
220
0
230
1
40
0.991003
41
0.198198260860144
42
1.2426052643779
0
ELLIPSE
5
116
100
AcDbEntity
8
1
62
256
6
ByLayer
370
25
48
1
60
0
100
AcDbEllipse
10
70.736653
20
21.544628
30
0
11
0.534183892018809
21
-1.58911919612865
31
0
210
0
220
0
230
1
40
0.991003
41
1.2426052642208
42
2.28701226773664
0
ELLIPSE
5
117
100
AcDbEntity
8
1
62
256
6
ByLayer
370
25
48
1
60
0
100
AcDbEllipse
10
70.736653
20
21.544628
30
0
11
0.534183892000229
21
-1.58911919613539
31
0
210
0
220
0
230
1
40
0.991003
41
2.28701226774811
42
-2.94339439287206
0
ELLIPSE
5
118
100
AcDbEntity
8
1
62
256
6
ByLayer
370
25
48
1
60
0
100
AcDbEllipse
10
70.736653
20
21.544628
30
0
11
0.534183891862211
21
-1.58911919617861
31
0
210
0
220
0
230
1
40
0.991003
41
-2.94339439278659
42
-1.89898738926991
0
ELLIPSE
5
119
100
AcDbEntity
8
1
62
256
6
ByLayer
370
25
48
1
60
0
100
AcDbEllipse
10
70.736653
20
21.544628
30
0
11
0.534183892026551
21
-1.58911919612568
31
0
210
0
220
0
230
1
40
0.991003
41
-1.89898738937405
42
-0.854580385857988
0
ELLIPSE
5
11A
100
AcDbEntity
8
1
62
256
6
ByLayer
370
25
48
1
60
0
100
AcDbEllipse
10
70.914258
20
21.60433
30
0
11
0.83640484132439
21
-2.48818245741929
31
0
210
0
220
0
230
1
40
0.991003
41
0
42
3.14159265358979
0
ELLIPSE
5
11B
100
AcDbEntity
8
1
62
256
6
ByLayer
370
25
48
1
60
0
100
AcDbEllipse
10
70.771596
20
21.556374
30
0
11
0.836404841324072
21
-2.48818245741942
31
0
210
0
220
0
230
1
40
0.991003
41
-1.89898738935178
42
0
0
ELLIPSE
5
11C
100
AcDbEntity
8
1
62
256
6
ByLayer
370
25
48
1
60
0
100
AcDbEllipse
10
70.771596
20
21.556374
30
0
11
0.836404841325113
21
-2.48818245741905
31
0
210
0
220
0
230
1
40
0.991003
41
0
42
3.14159265358979
0
ELLIPSE
5
11D
100
AcDbEntity
8
1
62
256
6
ByLayer
370
25
48
1
60
0
100
AcDbEllipse
10
70.919612
20
23.4882
30
0
11
0.218580465398415
21
-0.650245015489479
31
0
210
0
220
0
230
1
40
0.991003
41
0
42
0.463070272063347
0
ELLIPSE
5
11E
100
AcDbEntity
8
1
62
256
6
ByLayer
370
25
48
1
60
0
100
AcDbEllipse
10
70.228843
20
22.805962
30
0
11
0.0930400814468269
21
-0.276780677152596
31
0
210
0
220
0
230
1
40
0.991003
41
-2.82633143248018
42
-1.63720024766999
0
ELLIPSE
5
11F
100
AcDbEntity
8
1
62
256
6
ByLayer
370
25
48
1
60
0
100
AcDbEllipse
10
70.915247
20
19.722592
30
0
11
0.218580465326282
21
-0.650245015492759
31
0
210
0
220
0
230
1
40
0.991003
41
2.0221402559139
42
2.69178754962055
0
ELLIPSE
5
120
100
AcDbEntity
8
1
62
256
6
ByLayer
370
25
48
1
60
0
100
AcDbEllipse
10
70.226071
20
20.414041
30
0
11
0.0930400813968287
21
-0.276780677168166
31
0
210
0
220
0
230
1
40
0.991003
41
-2.16077453121506
42
-0.309228842887314
0
ELLIPSE
5
121
100
AcDbEntity
8
1
62
256
6
ByLayer
370
25
48
1
60
0
100
AcDbEllipse
10
69.291505
20
22.559338
30
0
11
0.218580465403465
21
-0.650245015482776
31
0
210
0
220
0
230
1
40
0.991003
41
0
42
0.720401762168566
0
ELLIPSE
5
122
100
AcDbEntity
8
1
62
256
6
ByLayer
370
25
48
1
60
0
100
AcDbEllipse
10
69.291505
20
22.559338
30
0
11
0.218580465201045
21
-0.650245015538441
31
0
210
0
220
0
230
1
40
0.991003
41
0.720401762477702
42
1.50439240609848
0
ELLIPSE
5
123
100
AcDbEntity
8
1
62
256
6
ByLayer
370
25
48
1
60
0
100
AcDbEllipse
10
69.544116
20
21.614562
30
0
11
0.0930400813954666
21
-0.276780677168572
31
0
210
0
220
0
230
1
40
0.991003
41
-2.79926789488059
42
-0.592793243968221
0
ELLIPSE
5
124
100
AcDbEntity
8
1
62
256
6
ByLayer
370
25
48
1
60
0
100
AcDbEllipse
10
69.289318
20
20.673172
30
0
11
0.218580465397886
21
-0.650245015466841
31
0
210
0
220
0
230
1
40
0.991003
41
1.76480876568551
42
2.5487994093109
0
ELLIPSE
5
125
100
AcDbEntity
8
1
62
256
6
ByLayer
370
25
48
1
60
0
100
AcDbEllipse
10
69.289318
20
20.673172
30
0
11
0.218580465266542
21
-0.6502450155198
31
0
210
0
220
0
230
1
40
0.991003
41
0.980818122275045
42
1.76480876589206
0
ELLIPSE
5
126
100
AcDbEntity
8
1
62
256
6
ByLayer
370
25
48
1
60
0
100
AcDbEllipse
10
70.91743
20
21.605396
30
0
11
0.384427596083074
21
-1.14361605153776
31
0
210
0
220
0
230
1
40
0.991003
41
0.874292788214904
42
1.48613228524248
0
ELLIPSE
5
127
100
AcDbEntity
8
1
62
256
6
ByLayer
370
25
48
1
60
0
100
AcDbEllipse
10
70.91743
20
21.605396
30
0
11
0.384427596256574
21
-1.14361605150559
31
0
210
0
220
0
230
1
40
0.991003
41
2.07341605236639
42
2.71420030808745
0
ELLIPSE
5
128
100
AcDbEntity
8
1
62
256
6
ByLayer
370
25
48
1
60
0
100
AcDbEllipse
10
70.91743
20
21.605396
30
0
11
0.384427596571517
21
-1.14361605138421
31
0
210
0
220
0
230
1
40
0.991003
41
-0.259158429127784
42
0.431177272725818
0
ELLIPSE
5
129
100
AcDbEntity
8
1
62
256
6
ByLayer
370
25
48
1
60
0
100
AcDbEllipse
10
70.91743
20
21.605396
30
0
11
0.384427596606327
21
-1.14361605137685
31
0
210
0
220
0
230
1
40
0.991003
41
-1.37678388760569
42
-0.397223695980159
0
ELLIPSE
5
12A
100
AcDbEntity
8
1
62
256
6
ByLayer
370
25
48
1
60
0
100
AcDbEllipse
10
70.91743
20
21.605396
30
0
11
0.384427596534503
21
-1.14361605139955
31
0
210
0
220
0
230
1
40
0.991003
41
-2.42119089105913
42
-1.37678388754249
0
ELLIPSE
5
12B
100
AcDbEntity
8
1
62
256
6
ByLayer
370
25
48
1
60
0
100
AcDbEllipse
10
70.91743
20
21.605396
30
0
11
0.384427596437238
21
-1.14361605142452
31
0
210
0
220
0
230
1
40
0.991003
41
3.06541580166541
42
-2.42119089097382
0
ELLIPSE
5
12C
100
AcDbEntity
8
1
62
256
6
ByLayer
370
25
48
1
60
0
100
AcDbEllipse
10
71.208896
20
21.617181
30
0
11
0.865742764756199
21
-2.57545850217471
31
0
210
0
220
0
230
1
40
0.991003
41
-0.167186527927747
42
0.544254120581949
0
ELLIPSE
5
12D
100
AcDbEntity
8
1
62
256
6
ByLayer
370
25
48
1
60
0
100
AcDbEllipse
10
71.208896
20
21.617181
30
0
11
0.865742749986846
21
-2.57545850782787
31
0
210
0
220
0
230
1
40
0.991003
41
-0.473687182175149
42
-0.332911808286657
0
ELLIPSE
5
12E
100
AcDbEntity
8
1
62
256
6
ByLayer
370
25
48
1
60
0
100
AcDbEllipse
10
71.208896
20
21.617181
30
0
11
0.865742778597513
21
-2.57545849636088
31
0
210
0
220
0
230
1
40
0.991003
41
-0.332911819614798
42
-0.167186533421518
0
ELLIPSE
5
12F
100
AcDbEntity
8
1
62
256
6
ByLayer
370
25
48
1
60
0
100
AcDbEllipse
10
71.208896
20
21.617181
30
0
11
0.865742764929603
21
-2.5754585020931
31
0
210
0
220
0
230
1
40
0.991003
41
2.59733853292078
42
-3.05259801570864
0
ELLIPSE
5
130
100
AcDbEntity
8
1
62
256
6
ByLayer
370
25
48
1
60
0
100
AcDbEllipse
10
71.254333
20
21.632455
30
0
11
0.8052912783461
21
-2.39562414382983
31
0
210
0
220
0
230
1
40
0.991003
41
-0.0167090771974929
42
2.67894719224299
0
ELLIPSE
5
131
100
AcDbEntity
8
1
62
256
6
ByLayer
370
25
48
1
60
0
100
AcDbEllipse
10
76.42512
20
-14.100709
30
0
11
-3.66210472100144
21
-0.528194105655286
31
0
210
0
220
0
230
1
40
0.458571
41
2.66942573358595
42
-3.08141031906528
0
ELLIPSE
5
132
100
AcDbEntity
8
1
62
256
6
ByLayer
370
25
48
1
60
0
100
AcDbEllipse
10
76.467561
20
-14.394967
30
0
11
-3.39255198611664
21
-0.489315871236886
31
0
210
0
220
0
230
1
40
0.458571
41
-3.09263421267596
42
-2.93662095553063
0
ELLIPSE
5
133
100
AcDbEntity
8
1
62
256
6
ByLayer
370
25
48
1
60
0
100
AcDbEllipse
10
71.751537
20
-3.545131
30
0
11
1.33475278152176
21
-0.202324027810858
31
0
210
0
220
0
230
1
40
0.532433
41
2.46132388055811
42
-3.05989264240299
0
ELLIPSE
5
134
100
AcDbEntity
8
1
62
256
6
ByLayer
370
25
48
1
60
0
100
AcDbEllipse
10
71.751537
20
-3.545131
30
0
11
1.3347527815183
21
-0.202324027809503
31
0
210
0
220
0
230
1
40
0.532433
41
0.680268773032911
42
2.4613238805569
0
ELLIPSE
5
135
100
AcDbEntity
8
1
62
256
6
ByLayer
370
25
48
1
60
0
100
AcDbEllipse
10
71.700793
20
-3.879896
30
0
11
1.73023508717812
21
-0.262271887912682
31
0
210
0
220
0
230
1
40
0.532433
41
2.46132388056444
42
3.07340460946323
0
ELLIPSE
5
136
100
AcDbEntity
8
1
62
256
6
ByLayer
370
25
48
1
60
0
100
AcDbEllipse
10
71.751537
20
-3.545131
30
0
11
1.33475278151834
21
-0.202324027809507
31
0
210
0
220
0
230
1
40
0.532433
41
-3.05989264240317
42
0.680268773032932
0
ELLIPSE
5
137
100
AcDbEntity
8
1
62
256
6
ByLayer
370
25
48
1
60
0
100
AcDbEllipse
10
71.700793
20
-3.879896
30
0
11
1.73023508722385
21
-0.262271887893043
31
0
210
0
220
0
230
1
40
0.532433
41
0.0681880510769357
42
0.68026877301348
0
ELLIPSE
5
138
100
AcDbEntity
8
1
62
256
6
ByLayer
370
25
48
1
60
0
100
AcDbEllipse
10
66.180613
20
-8.076818
30
0
11
1.97741152817225
21
-0.299739300459676
31
0
210
0
220
0
230
1
40
0.532433
41
-2.5664797003368
42
-1.68087599884133
0
ELLIPSE
5
139
100
AcDbEntity
8
1
62
256
6
ByLayer
370
25
48
1
60
0
100
AcDbEllipse
10
66.223055
20
-7.796826
30
0
11
1.70814537137585
21
-0.258923492357691
31
0
210
0
220
0
230
1
40
0.532433
41
-2.42763835774762
42
-1.72780658948879
0
ELLIPSE
5
13A
100
AcDbEntity
8
1
62
256
6
ByLayer
370
25
48
1
60
0
100
AcDbEllipse
10
76.512654
20
-7.659642
30
0
11
3.17363300368521
21
-0.481064524632552
31
0
210
0
220
0
230
1
40
0.532433
41
-1.25654411290979
42
-1.09059818053614
0
ELLIPSE
5
13B
100
AcDbEntity
8
1
62
256
6
ByLayer
370
25
48
1
60
0
100
AcDbEllipse
10
76.42512
20
-8.237111
30
0
11
3.6582113271247
21
-0.554517705848494
31
0
210
0
220
0
230
1
40
0.532433
41
-1.26977942121258
42
0.526118947438284
0
ELLIPSE
5
13C
100
AcDbEntity
8
1
62
256
6
ByLayer
370
25
48
1
60
0
100
AcDbEllipse
10
76.467561
20
-7.95712
30
0
11
3.38894517034004
21
-0.513701897752357
31
0
210
0
220
0
230
1
40
0.532433
41
-1.31176858933075
42
-0.827508720357882
0
ELLIPSE
5
13D
100
AcDbEntity
8
1
62
256
6
ByLayer
370
25
48
1
60
0
100
AcDbEllipse
10
76.467561
20
-7.95712
30
0
11
3.38894517260407
21
-0.513701898904106
31
0
210
0
220
0
230
1
40
0.532433
41
-0.582908513878158
42
-0.355004746599514
0
ELLIPSE
5
13E
100
AcDbEntity
8
1
62
256
6
ByLayer
370
25
48
1
60
0
100
AcDbEllipse
10
76.467561
20
-7.95712
30
0
11
3.38894517078125
21
-0.513701897865929
31
0
210
0
220
0
230
1
40
0.532433
41
-0.172232866446872
42
0.0238315574146033
0
ELLIPSE
5
13F
100
AcDbEntity
8
1
62
256
6
ByLayer
370
25
48
1
60
0
100
AcDbEllipse
10
71.720114
20
-3.781229
30
0
11
2.47176441021914
21
-0.374674125573152
31
0
210
0
220
0
230
1
40
0.532433
41
0.0864207627087739
42
2.75200276576625
0
ELLIPSE
5
140
100
AcDbEntity
8
1
62
256
6
ByLayer
370
25
48
1
60
0
100
AcDbEllipse
10
71.719822
20
-3.754359
30
0
11
1.73023508715347
21
-0.26227188790117
31
0
210
0
220
0
230
1
40
0.532433
41
3.14159265358979
42
-1.48437556408619
0
ELLIPSE
5
141
100
AcDbEntity
8
1
62
256
6
ByLayer
370
25
48
1
60
0
100
AcDbEllipse
10
64.777121
20
-9.503766
30
0
11
-1.99988188456192
21
-0.0217358662693787
31
0
210
0
220
0
230
1
40
0.843313
41
-1.96248273210396
42
-1.65721347218421
0
ELLIPSE
5
142
100
AcDbEntity
8
1
62
256
6
ByLayer
370
25
48
1
60
0
100
AcDbEllipse
10
71.719822
20
-3.754359
30
0
11
1.7302350871542
21
-0.262271887901875
31
0
210
0
220
0
230
1
40
0.532433
41
-1.48437556408551
42
-4.76614452468826E-16
0
ELLIPSE
5
143
100
AcDbEntity
8
1
62
256
6
ByLayer
370
25
48
1
60
0
100
AcDbEllipse
10
71.719822
20
-3.754359
30
0
11
1.7302350871534
21
-0.262271887901208
31
0
210
0
220
0
230
1
40
0.532433
41
0
42
3.14159265358979
0
ELLIPSE
5
144
100
AcDbEntity
8
1
62
256
6
ByLayer
370
25
48
1
60
0
100
AcDbEllipse
10
62.458827
20
18.359304
30
0
11
0.973243462136425
21
-2.30278031157762
31
0
210
0
220
0
230
1
40
0.975779
41
-2.96991441868252
42
-2.17567499950902
0
ELLIPSE
5
145
100
AcDbEntity
8
1
62
256
6
ByLayer
370
25
48
1
60
0
100
AcDbEllipse
10
60.612785
20
19.628158
30
0
11
-0.6184042555785
21
-1.36659290818884
31
0
210
0
220
0
230
1
40
0.567181
41
-1.69006979840744
42
-0.943949223363206
0
ELLIPSE
5
146
100
AcDbEntity
8
1
62
256
6
ByLayer
370
25
48
1
60
0
100
AcDbEllipse
10
61.88881
20
18.691569
30
0
11
3.74427623799507
21
-2.01069524628677
31
0
210
0
220
0
230
1
40
0.098
41
2.02637292692676
42
2.17720980876327
0
ELLIPSE
5
147
100
AcDbEntity
8
1
62
256
6
ByLayer
370
25
48
1
60
0
100
AcDbEllipse
10
64.775076
20
25.119915
30
0
11
1.99996582079155
21
-0.0116925268869469
31
0
210
0
220
0
230
1
40
0.043737
41
2.4668266898514
42
3.01464290642942
0
ELLIPSE
5
148
100
AcDbEntity
8
1
62
256
6
ByLayer
370
25
48
1
60
0
100
AcDbEllipse
10
60.731569
20
19.366681
30
0
11
-0.664876350669679
21
-1.14000276988716
31
0
210
0
220
0
230
1
40
0.336373
41
-2.82769538428929
42
-2.61857387426725
0
ELLIPSE
5
149
100
AcDbEntity
8
1
62
256
6
ByLayer
370
25
48
1
60
0
100
AcDbEllipse
10
67.878586
20
-0.083713
30
0
11
-2.77398414178092
21
-26.3469303017078
31
0
210
0
220
0
230
1
40
0.072855
41
1.38661757464563
42
1.62371746289611
0
ELLIPSE
5
14A
100
AcDbEntity
8
1
62
256
6
ByLayer
370
25
48
1
60
0
100
AcDbEllipse
10
96.61274
20
5.099137
30
0
11
199.191270882805
21
-21.5891824362365
31
0
210
0
220
0
230
1
40
0.065919
41
-1.70141476986283
42
-1.67631685769621
0
ELLIPSE
5
14B
100
AcDbEntity
8
1
62
256
6
ByLayer
370
25
48
1
60
0
100
AcDbEllipse
10
72.919476
20
-0.083227
30
0
11
-2.75788214475968
21
-26.1939956875548
31
0
210
0
220
0
230
1
40
0.072855
41
1.36297399663734
42
1.61732608431574
0
ELLIPSE
5
14C
100
AcDbEntity
8
1
62
256
6
ByLayer
370
25
48
1
60
0
100
AcDbEllipse
10
-6305.902829
20
-185.638092
30
0
11
-6526.64093153852
21
-205.996210966271
31
0
210
0
220
0
230
1
40
0.005073
41
2.92547058820274
42
2.93048914533966
0
ELLIPSE
5
14D
100
AcDbEntity
8
1
62
256
6
ByLayer
370
25
48
1
60
0
100
AcDbEllipse
10
62.03753
20
0.278489
30
0
11
-2.72602956388774
21
-25.8901181570313
31
0
210
0
220
0
230
1
40
0.072853
41
1.14346510859436
42
1.19584679173683
0
ELLIPSE
5
14E
100
AcDbEntity
8
1
62
256
6
ByLayer
370
25
48
1
60
0
100
AcDbEllipse
10
603.914498
20
-55.256564
30
0
11
637.618574262719
21
-68.9179132079447
31
0
210
0
220
0
230
1
40
0.040433
41
-2.59181830836981
42
-2.58035823673598
0
ELLIPSE
5
14F
100
AcDbEntity
8
1
62
256
6
ByLayer
370
25
48
1
60
0
100
AcDbEllipse
10
91.841687
20
2.3E-05
30
0
11
199.844344035524
21
-1.11704994220363
31
0
210
0
220
0
230
1
40
0.127772
41
1.73762115051355
42
1.75349130921653
0
ELLIPSE
5
150
100
AcDbEntity
8
1
62
256
6
ByLayer
370
25
48
1
60
0
100
AcDbEllipse
10
91.8417
20
-5E-06
30
0
11
199.839024428789
21
-21.6650940200202
31
0
210
0
220
0
230
1
40
0.067856
41
-1.74542086020442
42
-1.72955070432937
0
ELLIPSE
5
151
100
AcDbEntity
8
1
62
256
6
ByLayer
370
25
48
1
60
0
100
AcDbEllipse
10
65.582621
20
-8.992981
30
0
11
1.41234284841128
21
-0.0649616329445028
31
0
210
0
220
0
230
1
40
0.746579
41
0.997738996553461
42
1.6468789532245
0
ELLIPSE
5
152
100
AcDbEntity
8
1
62
256
6
ByLayer
370
25
48
1
60
0
100
AcDbEllipse
10
-1.056258
20
0
30
0
11
-11.7092723497279
21
-24.6771864409382
31
0
210
0
220
0
230
1
40
0.341999
41
2.05975995310054
42
2.97437958168082
0
ELLIPSE
5
153
100
AcDbEntity
8
1
62
256
6
ByLayer
370
25
48
1
60
0
100
AcDbEllipse
10
21.056258
20
0
30
0
11
11.7092723497261
21
-24.6771864409361
31
0
210
0
220
0
230
1
40
0.341999
41
-2.97437958168081
42
-2.05975995310048
0
ELLIPSE
5
154
100
AcDbEntity
8
1
62
256
6
ByLayer
370
25
48
1
60
0
100
AcDbEllipse
10
-1.056258
20
0
30
0
11
11.7092723497276
21
-24.6771864409379
31
0
210
0
220
0
230
1
40
0.341999
41
0.167213071908976
42
1.08183270048926
0
ELLIPSE
5
155
100
AcDbEntity
8
1
62
256
6
ByLayer
370
25
48
1
60
0
100
AcDbEllipse
10
21.056258
20
0
30
0
11
-11.7092723497259
21
-24.6771864409358
31
0
210
0
220
0
230
1
40
0.341999
41
-1.08183270048933
42
-0.167213071908988
0
ELLIPSE
5
156
100
AcDbEntity
8
1
62
256
6
ByLayer
370
25
48
1
60
0
100
AcDbEllipse
10
65.229155
20
-13.274137
30
0
11
4.80196568333152
21
-0.220869550439638
31
0
210
0
220
0
230
1
40
0.746579
41
1.99866232832093
42
2.16255578709396
0
ELLIPSE
5
157
100
AcDbEntity
8
1
62
256
6
ByLayer
370
25
48
1
60
0
100
AcDbEllipse
10
65.395986
20
-8.785564
30
0
11
1.41234284840771
21
-0.0649616329493568
31
0
210
0
220
0
230
1
40
0.746579
41
2.00902665610052
42
-3.09606718958634
0
ELLIPSE
5
158
100
AcDbEntity
8
1
62
256
6
ByLayer
370
25
48
1
60
0
100
AcDbEllipse
10
-6305.61355
20
152.494966
30
0
11
6526.35147071097
21
-169.229492237897
31
0
210
0
220
0
230
1
40
0.009301
41
-0.215725509609833
42
-0.21070683867075
0
ELLIPSE
5
159
100
AcDbEntity
8
1
62
256
6
ByLayer
370
25
48
1
60
0
100
AcDbEllipse
10
64.54879
20
19.242602
30
0
11
-4.7189278228003
21
-0.470049239831972
31
0
210
0
220
0
230
1
40
0.456648
41
-0.802752335558334
42
-0.696749573397466
0
ELLIPSE
5
15A
100
AcDbEntity
8
1
62
256
6
ByLayer
370
25
48
1
60
0
100
AcDbEllipse
10
603.914098
20
-2.815609
30
0
11
637.624201543498
21
-3.52637145355258
31
0
210
0
220
0
230
1
40
0.076133
41
2.58514939318137
42
2.59660946904429
0
ELLIPSE
5
15B
100
AcDbEntity
8
1
62
256
6
ByLayer
370
25
48
1
60
0
100
AcDbEllipse
10
62.03753
20
0.030394
30
0
11
-0.300837338948562
21
-25.8893734185875
31
0
210
0
220
0
230
1
40
0.127514
41
3.00214421835985
42
3.05452589791544
0
ELLIPSE
5
15C
100
AcDbEntity
8
1
62
256
6
ByLayer
370
25
48
1
60
0
100
AcDbEllipse
10
65.229155
20
24.911892
30
0
11
4.80479586577614
21
-0.0339372395640911
31
0
210
0
220
0
230
1
40
0.038754
41
2.01540223352192
42
2.14383130136923
0
POINT
5
6C
100
AcDbEntity
8
81
62
256
6
ByLayer
370
25
48
1
60
0
100
AcDbPoint
10
81.005446
20
26.860895
30
0
39
0
210
0
220
0
230
1
50
360
0
POINT
5
6E
100
AcDbEntity
8
1
62
256
6
ByLayer
370
25
48
1
60
1
100
AcDbPoint
10
-26.860895
20
-81.005446
30
0
39
0
210
0
220
0
230
1
50
360
0
POINT
5
70
100
AcDbEntity
8
80
62
256
6
ByLayer
370
25
48
1
60
0
100
AcDbPoint
10
0
20
0
30
0
39
0
210
0
220
0
230
1
50
360
0
POINT
5
72
100
AcDbEntity
8
1
62
256
6
ByLayer
370
25
48
1
60
1
100
AcDbPoint
10
81.005446
20
-27.139105
30
0
39
0
210
0
220
0
230
1
50
360
0
SPLINE
5
15D
100
AcDbEntity
8
1
62
256
6
ByLayer
370
25
48
1
60
0
100
AcDbSpline
70
4
71
3
72
12
73
8
40
0
40
0
40
0
40
0
40
0.063388029671419
40
0.286000988160503
40
0.511590094520419
40
0.751639968867287
40
1
40
1
40
1
40
1
41
1
10
72.3996070509669
20
21.5335288734716
30
0
41
1
10
72.3996097237112
20
21.5420073224519
30
0
41
1
10
72.3981525267249
20
21.5799203410683
30
0
41
1
10
72.3828740647606
20
21.6475054241112
30
0
41
1
10
72.3395238268308
20
21.7258034346806
30
0
41
1
10
72.2760601701764
20
21.7873272131961
30
0
41
1
10
72.2269518684365
20
21.8125079204153
30
0
41
1
10
72.1998618569877
20
21.8211771354177
30
0
0
SPLINE
5
15E
100
AcDbEntity
8
1
62
256
6
ByLayer
370
25
48
1
60
0
100
AcDbSpline
70
4
71
3
72
13
73
9
40
0
40
0
40
0
40
0
40
0.212275563556793
40
0.386387565009908
40
0.561520404343325
40
0.714816161336363
40
0.917450739141726
40
1
40
1
40
1
40
1
41
1
10
71.7215178213412
20
22.6632606249859
30
0
41
1
10
71.7068866204609
20
22.5945464282142
30
0
41
1
10
71.7012993848471
20
22.4665825655858
30
0
41
1
10
71.7465470637056
20
22.2651248312702
30
0
41
1
10
71.8362048717965
20
22.0927389924133
30
0
41
1
10
71.9658298944106
20
21.9451154985187
30
0
41
1
10
72.0911364545015
20
21.8624890430981
30
0
41
1
10
72.1751041045519
20
21.829124667197
30
0
41
1
10
72.1998618569877
20
21.8211771354177
30
0
0
SPLINE
5
15F
100
AcDbEntity
8
1
62
256
6
ByLayer
370
25
48
1
60
0
100
AcDbSpline
70
4
71
3
72
11
73
7
40
0
40
0
40
0
40
0
40
0.284186472106436
40
0.569985996508078
40
0.828961317192151
40
1
40
1
40
1
40
1
41
1
10
71.7215178213412
20
22.6632606249859
30
0
41
1
10
71.7284181421882
20
22.696264185211
30
0
41
1
10
71.7300696582143
20
22.7622844961466
30
0
41
1
10
71.6979770651003
20
22.864198236636
30
0
41
1
10
71.6391807867068
20
22.9412400971747
30
0
41
1
10
71.5937629752143
20
22.9752441653251
30
0
41
1
10
71.5738245035687
20
22.987247948692
30
0
0
SPLINE
5
160
100
AcDbEntity
8
1
62
256
6
ByLayer
370
25
48
1
60
0
100
AcDbSpline
70
4
71
3
72
11
73
7
40
0
40
0
40
0
40
0
40
0.284186181053581
40
0.56998574225424
40
0.828961092406596
40
1
40
1
40
1
40
1
41
1
10
72.1992090697103
20
21.2580274395681
30
0
41
1
10
72.2305727935363
20
21.2660668515459
30
0
41
1
10
72.2872528595644
20
21.2932543773931
30
0
41
1
10
72.3574981346547
20
21.3670104007576
30
0
41
1
10
72.3933388826375
20
21.4541308889496
30
0
41
1
10
72.3994156949498
20
21.5101986535565
30
0
41
1
10
72.3996070509669
20
21.5335288734716
30
0
0
SPLINE
5
161
100
AcDbEntity
8
1
62
256
6
ByLayer
370
25
48
1
60
0
100
AcDbSpline
70
4
71
3
72
12
73
8
40
0
40
0
40
0
40
0
40
0.0573009716925483
40
0.280031064926644
40
0.505395285878038
40
0.744943740650586
40
1
40
1
40
1
40
1
41
1
10
71.5704670866891
20
20.0908552645513
30
0
41
1
10
71.5770425837823
20
20.0946636594332
30
0
41
1
10
71.6082827471888
20
20.1143538822946
30
0
41
1
10
71.6585128755123
20
20.1613462198014
30
0
41
1
10
71.7049251133057
20
20.2406754764656
30
0
41
1
10
71.7273405118921
20
20.3317579036443
30
0
41
1
10
71.724979576367
20
20.3915192750716
30
0
41
1
10
71.7189202117315
20
20.4223421633582
30
0
0
SPLINE
5
162
100
AcDbEntity
8
1
62
256
6
ByLayer
370
25
48
1
60
0
100
AcDbSpline
70
4
71
1
72
4
73
2
40
0
40
0
40
1
40
1
41
1
10
72.1992090697103
20
21.2580274395681
30
0
41
1
10
72.1618759636669
20
21.2469390371066
30
0
0
SPLINE
5
163
100
AcDbEntity
8
1
62
256
6
ByLayer
370
25
48
1
60
0
100
AcDbSpline
70
4
71
2
72
6
73
3
40
0
40
0
40
0
40
1
40
1
40
1
41
1
10
71.3407794106207
20
23.0147157223732
30
0
41
1
10
71.2787893482855
20
22.9934000461513
30
0
41
1
10
71.2362872928625
20
22.9471481305551
30
0
0
SPLINE
5
164
100
AcDbEntity
8
1
62
256
6
ByLayer
370
25
48
1
60
0
100
AcDbSpline
70
4
71
3
72
11
73
7
40
0
40
0
40
0
40
0
40
0.099069090249758
40
0.446989514669582
40
0.799561360700042
40
1
40
1
40
1
40
1
41
1
10
71.5738245035687
20
22.987247948692
30
0
41
1
10
71.5665478597437
20
22.9915497876701
30
0
41
1
10
71.5333480612776
20
23.0094342048681
30
0
41
1
10
71.4686031717292
20
23.0297642522492
30
0
41
1
10
71.3958120882317
20
23.0294697000459
30
0
41
1
10
71.3551784016389
20
23.0196314236107
30
0
41
1
10
71.3407794106207
20
23.0147157223732
30
0
0
SPLINE
5
165
100
AcDbEntity
8
1
62
256
6
ByLayer
370
25
48
1
60
0
100
AcDbSpline
70
4
71
1
72
4
73
2
40
0
40
0
40
1
40
1
41
1
10
70.8550207448693
20
22.7581537382022
30
0
41
1
10
70.9897387225992
20
22.7880540326397
30
0
0
SPLINE
5
166
100
AcDbEntity
8
1
62
256
6
ByLayer
370
25
48
1
60
0
100
AcDbSpline
70
4
71
3
72
10
73
6
40
0
40
0
40
0
40
0
40
0.494848865875523
40
0.898966292198755
40
1
40
1
40
1
40
1
41
1
10
70.2683500857382
20
22.9536084437883
30
0
41
1
10
70.324172081937
20
22.902067807664
30
0
41
1
10
70.4370701521812
20
22.8266573963012
30
0
41
1
10
70.5926321187741
20
22.7739134638381
30
0
41
1
10
70.6735375947512
20
22.7613077483589
30
0
41
1
10
70.6899221532146
20
22.7592556574268
30
0
0
SPLINE
5
167
100
AcDbEntity
8
1
62
256
6
ByLayer
370
25
48
1
60
0
100
AcDbSpline
70
4
71
3
72
11
73
7
40
0
40
0
40
0
40
0
40
0.329866420919427
40
0.66185524917327
40
0.962559224848962
40
1
40
1
40
1
40
1
41
1
10
70.2683500857382
20
22.9536084437883
30
0
41
1
10
70.241657023442
20
22.9780855486168
30
0
41
1
10
70.1825598580816
20
23.0161027739012
30
0
41
1
10
70.0750394395049
20
23.0434064408361
30
0
41
1
10
69.99660367085
20
23.0350477975434
30
0
41
1
10
69.9596064953068
20
23.0235081876913
30
0
41
1
10
69.9555211930192
20
23.022140371379
30
0
0
SPLINE
5
168
100
AcDbEntity
8
1
62
256
6
ByLayer
370
25
48
1
60
0
100
AcDbSpline
70
4
71
3
72
13
73
9
40
0
40
0
40
0
40
0
40
0.178170247023996
40
0.359820596549955
40
0.542535982703643
40
0.702468815188313
40
0.913876612669338
40
1
40
1
40
1
40
1
41
1
10
72.1618759636669
20
21.2469390371066
30
0
41
1
10
72.110182263646
20
21.2302686904887
30
0
41
1
10
72.0116526690525
20
21.1811011090242
30
0
41
1
10
71.8742893066364
20
21.0591575565899
30
0
41
1
10
71.7719526107257
20
20.8962979266306
30
0
41
1
10
71.7099038626345
20
20.7045080719313
30
0
41
1
10
71.7008531706784
20
20.5457742379837
30
0
41
1
10
71.7135647083991
20
20.4497804969287
30
0
41
1
10
71.7189202117318
20
20.4223421633577
30
0
0
SPLINE
5
169
100
AcDbEntity
8
1
62
256
6
ByLayer
370
25
48
1
60
0
100
AcDbSpline
70
4
71
1
72
4
73
2
40
0
40
0
40
1
40
1
41
1
10
71.518481750231
20
20.0673495539193
30
0
41
1
10
71.5704670866891
20
20.0908552645513
30
0
0
SPLINE
5
16A
100
AcDbEntity
8
1
62
256
6
ByLayer
370
25
48
1
60
0
100
AcDbSpline
70
4
71
3
72
11
73
7
40
0
40
0
40
0
40
0
40
0.329866420919417
40
0.661855249173291
40
0.962559224849047
40
1
40
1
40
1
40
1
41
1
10
71.2330392229675
20
20.145087433664
30
0
41
1
10
71.2551282098584
20
20.1190626646168
30
0
41
1
10
71.3060111205139
20
20.0782842099931
30
0
41
1
10
71.4039442364313
20
20.0477577623753
30
0
41
1
10
71.4785258240482
20
20.0548208191365
30
0
41
1
10
71.5144994160614
20
20.0660163504354
30
0
41
1
10
71.518481750231
20
20.0673495539193
30
0
0
SPLINE
5
16B
100
AcDbEntity
8
1
62
256
6
ByLayer
370
25
48
1
60
0
100
AcDbSpline
70
4
71
3
72
11
73
7
40
0
40
0
40
0
40
0
40
0.0990690902497396
40
0.446989514669572
40
0.79956136070008
40
1
40
1
40
1
40
1
41
1
10
69.8994822033086
20
20.1020079361037
30
0
41
1
10
69.9067594677109
20
20.0977063057332
30
0
41
1
10
69.9401560382419
20
20.0798880336474
30
0
41
1
10
70.00688196835
20
20.0602239148883
30
0
41
1
10
70.0845254396674
20
20.0621496017587
30
0
41
1
10
70.129065884846
20
20.0733011387168
30
0
41
1
10
70.1450202898916
20
20.0787396938225
30
0
0
SPLINE
5
16C
100
AcDbEntity
8
1
62
256
6
ByLayer
370
25
48
1
60
0
100
AcDbSpline
70
4
71
1
72
4
73
2
40
0
40
0
40
1
40
1
41
1
10
70.6871343332365
20
20.3542455904519
30
0
41
1
10
70.5452265543993
20
20.3219284377023
30
0
0
SPLINE
5
16D
100
AcDbEntity
8
1
62
256
6
ByLayer
370
25
48
1
60
0
100
AcDbSpline
70
4
71
3
72
10
73
6
40
0
40
0
40
0
40
0
40
0.494848865875545
40
0.898966292198772
40
1
40
1
40
1
40
1
41
1
10
71.2330392229675
20
20.145087433664
30
0
41
1
10
71.1873895389889
20
20.2000475019779
30
0
41
1
10
71.0895996573944
20
20.280536544971
30
0
41
1
10
70.9462135401472
20
20.3373734004871
30
0
41
1
10
70.8681467080955
20
20.3509333287551
30
0
41
1
10
70.8522329248912
20
20.3531436712274
30
0
0
SPLINE
5
16E
100
AcDbEntity
8
1
62
256
6
ByLayer
370
25
48
1
60
0
100
AcDbSpline
70
4
71
3
72
10
73
6
40
0
40
0
40
0
40
0
40
0.174900159046984
40
0.774780460853318
40
1
40
1
40
1
40
1
41
1
10
70.9897387225993
20
22.7880540326397
30
0
41
1
10
71.0071313656133
20
22.7940112362271
30
0
41
1
10
71.081810770795
20
22.8229006121996
30
0
41
1
10
71.1657376827083
20
22.877164600465
30
0
41
1
10
71.2218735427418
20
22.9314515998762
30
0
41
1
10
71.2362872928627
20
22.9471481305553
30
0
0
SPLINE
5
16F
100
AcDbEntity
8
1
62
256
6
ByLayer
370
25
48
1
60
0
100
AcDbSpline
70
4
71
1
72
4
73
2
40
0
40
0
40
1
40
1
41
1
10
69.9555211930192
20
23.022140371379
30
0
41
1
10
69.9028396201882
20
22.9984006202444
30
0
0
SPLINE
5
170
100
AcDbEntity
8
1
62
256
6
ByLayer
370
25
48
1
60
0
100
AcDbSpline
70
4
71
3
72
12
73
8
40
0
40
0
40
0
40
0
40
0.0573009716925543
40
0.280031064926648
40
0.50539528587806
40
0.744943740650597
40
1
40
1
40
1
40
1
41
1
10
69.9028396201882
20
22.9984006202444
30
0
41
1
10
69.8962645808164
20
22.994592379226
30
0
41
1
10
69.865197951399
20
22.974960489976
30
0
41
1
10
69.8168694428872
20
22.928607383733
30
0
41
1
10
69.7761215604448
20
22.8511822053748
30
0
41
1
10
69.7623792782853
20
22.763015254329
30
0
41
1
10
69.7718924234325
20
22.7056581048012
30
0
41
1
10
69.7820278333375
20
22.6762053829133
30
0
0
SPLINE
5
171
100
AcDbEntity
8
1
62
256
6
ByLayer
370
25
48
1
60
0
100
AcDbSpline
70
4
71
1
72
4
73
2
40
0
40
0
40
1
40
1
41
1
10
69.3017389753586
20
21.8405201067033
30
0
41
1
10
69.3445179177205
20
21.8534391320953
30
0
0
SPLINE
5
172
100
AcDbEntity
8
1
62
256
6
ByLayer
370
25
48
1
60
0
100
AcDbSpline
70
4
71
3
72
11
73
7
40
0
40
0
40
0
40
0
40
0.284186181053571
40
0.569985742254264
40
0.8289610924066
40
1
40
1
40
1
40
1
41
1
10
69.3017389753586
20
21.8405201067033
30
0
41
1
10
69.2658032251495
20
21.8309438038154
30
0
41
1
10
69.2009824236517
20
21.8010197621879
30
0
41
1
10
69.1212829398987
20
21.724085697811
30
0
41
1
10
69.0807719471176
20
21.6353953024975
30
0
41
1
10
69.0739068532117
20
21.5790625563016
30
0
41
1
10
69.0736996559104
20
21.5557270113241
30
0
0
SPLINE
5
173
100
AcDbEntity
8
1
62
256
6
ByLayer
370
25
48
1
60
0
100
AcDbSpline
70
4
71
3
72
11
73
7
40
0
40
0
40
0
40
0
40
0.284186472106434
40
0.569985996508073
40
0.828961317192151
40
1
40
1
40
1
40
1
41
1
10
69.7794302237277
20
20.4352869212855
30
0
41
1
10
69.7679578715468
20
20.4007464684861
30
0
41
1
10
69.758165617247
20
20.3319896408277
30
0
41
1
10
69.7808040024727
20
20.2268978595861
30
0
41
1
10
69.8349300414919
20
20.1482860937492
30
0
41
1
10
69.8795595728782
20
20.1140170445098
30
0
41
1
10
69.8994822033086
20
20.1020079361037
30
0
0
SPLINE
5
174
100
AcDbEntity
8
1
62
256
6
ByLayer
370
25
48
1
60
0
100
AcDbSpline
70
4
71
3
72
12
73
8
40
0
40
0
40
0
40
0
40
0.0633880296714144
40
0.286000988160514
40
0.511590094520437
40
0.751639968867301
40
1
40
1
40
1
40
1
41
1
10
69.0736996559104
20
21.5557270113241
30
0
41
1
10
69.0736976037373
20
21.5472487709493
30
0
41
1
10
69.0753508229831
20
21.5094016453974
30
0
41
1
10
69.0926210728571
20
21.4424861037081
30
0
41
1
10
69.141717403127
20
21.3661196474094
30
0
41
1
10
69.2138449092171
20
21.3075082299191
30
0
41
1
10
69.2700317281392
20
21.2847069728173
30
0
41
1
10
69.3010861880812
20
21.2773704108537
30
0
0
SPLINE
5
175
100
AcDbEntity
8
1
62
256
6
ByLayer
370
25
48
1
60
0
100
AcDbSpline
70
4
71
3
72
13
73
9
40
0
40
0
40
0
40
0
40
0.212275563556794
40
0.386387565009912
40
0.561520404343324
40
0.714816161336352
40
0.917450739141725
40
1
40
1
40
1
40
1
41
1
10
69.7794302237277
20
20.4352869212855
30
0
41
1
10
69.8041341325064
20
20.5073870681616
30
0
41
1
10
69.8246937738341
20
20.6403839188605
30
0
41
1
10
69.7949752131912
20
20.8470617806704
30
0
41
1
10
69.707238822801
20
21.02009350587
30
0
41
1
10
69.5671793757746
20
21.1642094583184
30
0
41
1
10
69.4255527400402
20
21.2413499051715
30
0
41
1
10
69.3295402451739
20
21.2706653953139
30
0
41
1
10
69.3010861880812
20
21.2773704108537
30
0
0
SPLINE
5
176
100
AcDbEntity
8
1
62
256
6
ByLayer
370
25
48
1
60
0
100
AcDbSpline
70
4
71
2
72
6
73
3
40
0
40
0
40
0
40
1
40
1
40
1
41
1
10
70.1450202898916
20
20.0787396938225
30
0
41
1
10
70.2137305767873
20
20.1023143797648
30
0
41
1
10
70.2651020158431
20
20.1515477468971
30
0
0
SPLINE
5
177
100
AcDbEntity
8
1
62
256
6
ByLayer
370
25
48
1
60
0
100
AcDbSpline
70
4
71
3
72
10
73
6
40
0
40
0
40
0
40
0
40
0.174900159046938
40
0.774780460853216
40
1
40
1
40
1
40
1
41
1
10
70.5452265543993
20
20.3219284377023
30
0
41
1
10
70.5264318143955
20
20.3154999179111
30
0
41
1
10
70.445136074965
20
20.284386455043
30
0
41
1
10
70.3494037225636
20
20.2261540570057
30
0
41
1
10
70.2825678430261
20
20.1682702361119
30
0
41
1
10
70.2651020158429
20
20.151547746897
30
0
0
SPLINE
5
178
100
AcDbEntity
8
1
62
256
6
ByLayer
370
25
48
1
60
0
100
AcDbSpline
70
4
71
3
72
13
73
9
40
0
40
0
40
0
40
0
40
0.178170247023996
40
0.359820596549948
40
0.542535982703644
40
0.702468815188313
40
0.91387661266934
40
1
40
1
40
1
40
1
41
1
10
69.3445179177205
20
21.8534391320953
30
0
41
1
10
69.4039272360937
20
21.8727030909801
30
0
41
1
10
69.5155250807091
20
21.9262635768127
30
0
41
1
10
69.6672228883439
20
22.0530256663052
30
0
41
1
10
69.7714934021802
20
22.2165353509542
30
0
41
1
10
69.8231045938598
20
22.4048166113829
30
0
41
1
10
69.8158361311692
20
22.5580647463569
30
0
41
1
10
69.7910796450731
20
22.6500095668415
30
0
41
1
10
69.7820278333371
20
22.6762053829136
30
0
0
SPLINE
5
179
100
AcDbEntity
8
1
62
256
6
ByLayer
370
25
48
1
60
0
100
AcDbSpline
70
4
71
1
72
4
73
2
40
0
40
0
40
1
40
1
41
1
10
80.7779276561388
20
21.748854355842
30
0
41
1
10
80.1414971324628
20
22.0604917096065
30
0
0
SPLINE
5
17A
100
AcDbEntity
8
1
62
256
6
ByLayer
370
25
48
1
60
0
100
AcDbSpline
70
4
71
3
72
12
73
8
40
0
40
0
40
0
40
0
40
0.457102257519272
40
0.632905789324878
40
0.76971159129522
40
0.906559047551945
40
1
40
1
40
1
40
1
41
1
10
80.1414977011344
20
22.0604931826666
30
0
41
1
10
80.095499031485
20
22.0751625666694
30
0
41
1
10
80.0438698641593
20
22.1077727071677
30
0
41
1
10
79.9935061004894
20
22.1662893018022
30
0
41
1
10
79.9781407052369
20
22.2083552963245
30
0
41
1
10
79.9783664031552
20
22.2444279901492
30
0
41
1
10
79.9833995374573
20
22.265688449193
30
0
41
1
10
79.9863608007369
20
22.2742292104784
30
0
0
SPLINE
5
17B
100
AcDbEntity
8
1
62
256
6
ByLayer
370
25
48
1
60
0
100
AcDbSpline
70
4
71
3
72
20
73
16
40
0
40
0
40
0
40
0
40
0.0611243976463135
40
0.124886491868956
40
0.185969251881782
40
0.249875018560566
40
0.311750956284891
40
0.374933120445343
40
0.43779918046101
40
0.500005792507058
40
0.624824560774324
40
0.685592766158942
40
0.749926446397676
40
0.874949759095488
40
1
40
1
40
1
40
1
41
1
10
79.986359407316
20
22.2742297134291
30
0
41
1
10
80.0247751186577
20
22.3945254284498
30
0
41
1
10
80.0790854067705
20
22.6432631984438
30
0
41
1
10
80.0814574896411
20
23.0295741174799
30
0
41
1
10
80.0190395118578
20
23.4170280112333
30
0
41
1
10
79.9001258295274
20
23.789393809823
30
0
41
1
10
79.7335599518385
20
24.1490444840005
30
0
41
1
10
79.5269521719798
20
24.4860856225085
30
0
41
1
10
79.2841075665986
20
24.79989780878
30
0
41
1
10
78.9166037154092
20
25.1778012257577
30
0
41
1
10
78.4889178084541
20
25.4859891506475
30
0
41
1
10
78.0197875153231
20
25.7222602906493
30
0
41
1
10
77.5322490286924
20
25.9160468291766
30
0
41
1
10
76.8964650630692
20
26.0897867128389
30
0
41
1
10
76.3836839765708
20
26.1726530893528
30
0
41
1
10
76.1240746987286
20
26.198752765311
30
0
0
SPLINE
5
17C
100
AcDbEntity
8
1
62
256
6
ByLayer
370
25
48
1
60
0
100
AcDbSpline
70
4
71
3
72
10
73
6
40
0
40
0
40
0
40
0
40
0.230950333434681
40
0.612410561907486
40
1
40
1
40
1
40
1
41
1
10
69.9208908786816
20
26.4151110303864
30
0
41
1
10
69.9314124009374
20
26.4107866310144
30
0
41
1
10
69.9596192338
20
26.4007758888044
30
0
41
1
10
70.0078895743462
20
26.3926029559915
30
0
41
1
10
70.0449268417492
20
26.3895108556235
30
0
41
1
10
70.0637585075132
20
26.3891594232088
30
0
0
SPLINE
5
17D
100
AcDbEntity
8
1
62
256
6
ByLayer
370
25
48
1
60
0
100
AcDbSpline
70
4
71
1
72
4
73
2
40
0
40
0
40
1
40
1
41
1
10
68.6281035920919
20
26.9784034135428
30
0
41
1
10
69.9208843676421
20
26.415110710942
30
0
0
SPLINE
5
17E
100
AcDbEntity
8
1
62
256
6
ByLayer
370
25
48
1
60
0
100
AcDbSpline
70
4
71
2
72
6
73
3
40
0
40
0
40
0
40
1
40
1
40
1
41
1
10
77.9324289076773
20
26.9477321791023
30
0
41
1
10
73.2770090497861
20
27.0504735539119
30
0
41
1
10
68.6281073316348
20
26.9784031198702
30
0
0
SPLINE
5
17F
100
AcDbEntity
8
1
62
256
6
ByLayer
370
25
48
1
60
0
100
AcDbSpline
70
4
71
3
72
10
73
6
40
0
40
0
40
0
40
0
40
0.358607685041846
40
0.678728527759997
40
1
40
1
40
1
40
1
41
1
10
80.7779560242552
20
21.7489139399075
30
0
41
1
10
80.8265800440604
20
21.9761063149118
30
0
41
1
10
80.904071225473
20
22.4086065595402
30
0
41
1
10
80.9783885673343
20
23.0541234060151
30
0
41
1
10
81.0005992987353
20
23.4706685474201
30
0
41
1
10
81.005446372227
20
23.6801557783004
30
0
0
SPLINE
5
180
100
AcDbEntity
8
1
62
256
6
ByLayer
370
25
48
1
60
0
100
AcDbSpline
70
4
71
3
72
16
73
12
40
0
40
0
40
0
40
0
40
0.105088447026572
40
0.210169742745241
40
0.318207382430426
40
0.42623445329902
40
0.532402152941446
40
0.638559256674212
40
0.74252327796733
40
0.846482338170363
40
1
40
1
40
1
40
1
41
1
10
81.0054463722269
20
23.6801557783005
30
0
41
1
10
81.0095375891305
20
23.8532394114799
30
0
41
1
10
80.9899069828136
20
24.195886111367
30
0
41
1
10
80.8759789372128
20
24.7107587197705
30
0
41
1
10
80.6747897499844
20
25.2057720443732
30
0
41
1
10
80.3934588402416
20
25.665414572545
30
0
41
1
10
80.0398228524777
20
26.0695876534387
30
0
41
1
10
79.6304477020683
20
26.4072546548657
30
0
41
1
10
79.1745418108763
20
26.6686434883811
30
0
41
1
10
78.608239130773
20
26.8798359284053
30
0
41
1
10
78.1896274942543
20
26.9415173190422
30
0
41
1
10
77.9324289223021
20
26.9477317621457
30
0
0
SPLINE
5
181
100
AcDbEntity
8
1
62
256
6
ByLayer
370
25
48
1
60
0
100
AcDbSpline
70
4
71
3
72
18
73
14
40
0
40
0
40
0
40
0
40
0.0146406175501652
40
0.0214316346382959
40
0.021438139608963
40
0.0214449700249211
40
0.0214647579782349
40
0.0214840158177159
40
0.0220656215784736
40
0.0267185826471674
40
0.101192630755294
40
0.399642268722672
40
1
40
1
40
1
40
1
41
1
10
79.082182089133
20
22.2626382599693
30
0
41
1
10
79.0867994834572
20
22.2620488748245
30
0
41
1
10
79.0935548118217
20
22.2611782635165
30
0
41
1
10
79.1003066143795
20
22.260295996323
30
0
41
1
10
79.1024490238317
20
22.2600147848563
30
0
41
1
10
79.1024594530205
20
22.2600134165402
30
0
41
1
10
79.1024738974936
20
22.2600115120715
30
0
41
1
10
79.1026693128321
20
22.2599856950822
30
0
41
1
10
79.1043235042866
20
22.259767473666
30
0
41
1
10
79.1294196523775
20
22.2564836627179
30
0
41
1
10
79.2482189528879
20
22.2428230153499
30
0
41
1
10
79.553329934377
20
22.2313061039805
30
0
41
1
10
79.8167881006177
20
22.2480268934465
30
0
41
1
10
79.9863564259448
20
22.2742240452449
30
0
0
SPLINE
5
182
100
AcDbEntity
8
1
62
256
6
ByLayer
370
25
48
1
60
0
100
AcDbSpline
70
4
71
3
72
15
73
11
40
0
40
0
40
0
40
0
40
0.12499446915017
40
0.250006096857979
40
0.374996576056435
40
0.499984072444542
40
0.624981869331196
40
0.749982430883801
40
0.874965937009906
40
1
40
1
40
1
40
1
41
1
10
79.0810769089085
20
22.2626006707619
30
0
41
1
10
79.0717679660159
20
22.4481377899097
30
0
41
1
10
79.0204102976021
20
22.8104898964214
30
0
41
1
10
78.8414260877099
20
23.3356893251746
30
0
41
1
10
78.5716915182375
20
23.8187713826474
30
0
41
1
10
78.212631710946
20
24.2401233346139
30
0
41
1
10
77.7789275332484
20
24.5822592400217
30
0
41
1
10
77.2903088959249
20
24.8371306041781
30
0
41
1
10
76.7610664561659
20
24.9931380601638
30
0
41
1
10
76.3996263690958
20
25.02938652141
30
0
41
1
10
76.2151798833607
20
25.030719809237
30
0
0
SPLINE
5
183
100
AcDbEntity
8
1
62
256
6
ByLayer
370
25
48
1
60
0
100
AcDbSpline
70
4
71
3
72
11
73
7
40
0
40
0
40
0
40
0
40
0.249993332868946
40
0.499996743904079
40
0.750000003301489
40
1
40
1
40
1
40
1
41
1
10
76.1240744315889
20
26.1987527841352
30
0
41
1
10
76.136460097787
20
26.1295986098057
30
0
41
1
10
76.1589577963202
20
25.9756794540909
30
0
41
1
10
76.1864558498986
20
25.6929214964659
30
0
41
1
10
76.2059836256389
20
25.3734392869001
30
0
41
1
10
76.2130655157428
20
25.1485063790677
30
0
41
1
10
76.2151742212115
20
25.0320097501572
30
0
0
SPLINE
5
184
100
AcDbEntity
8
1
62
256
6
ByLayer
370
25
48
1
60
0
100
AcDbSpline
70
4
71
3
72
10
73
6
40
0
40
0
40
0
40
0
40
0.364121501396818
40
0.738906366009267
40
1
40
1
40
1
40
1
41
1
10
80.06505997611
20
19.9348210071706
30
0
41
1
10
80.1016098476646
20
20.0185414452521
30
0
41
1
10
80.1794126435167
20
20.1895759340353
30
0
41
1
10
80.2966815439075
20
20.4281706835418
30
0
41
1
10
80.37455429762
20
20.5773002853815
30
0
41
1
10
80.4072892221244
20
20.6385026242848
30
0
0
SPLINE
5
185
100
AcDbEntity
8
1
62
256
6
ByLayer
370
25
48
1
60
0
100
AcDbSpline
70
4
71
2
72
6
73
3
40
0
40
0
40
0
40
1
40
1
40
1
41
1
10
80.0650657119205
20
19.9348187306652
30
0
41
1
10
79.8324392281688
20
20.0663818400822
30
0
41
1
10
79.620550493783
20
20.2318662360707
30
0
0
SPLINE
5
186
100
AcDbEntity
8
1
62
256
6
ByLayer
370
25
48
1
60
0
100
AcDbSpline
70
4
71
3
72
10
73
6
40
0
40
0
40
0
40
0
40
0.261497126224416
40
0.517168901950943
40
1
40
1
40
1
40
1
41
1
10
79.6204243228789
20
20.2319873254129
30
0
41
1
10
79.5781667870645
20
20.2645277885447
30
0
41
1
10
79.4896384297354
20
20.3182576298578
30
0
41
1
10
79.2911883130546
20
20.3739937352277
30
0
41
1
10
79.1424077327249
20
20.3883436126093
30
0
41
1
10
79.0412676126029
20
20.3836297641358
30
0
0
SPLINE
5
187
100
AcDbEntity
8
1
62
256
6
ByLayer
370
25
48
1
60
0
100
AcDbSpline
70
4
71
3
72
18
73
14
40
0
40
0
40
0
40
0
40
0.508029648920768
40
0.943972226258511
40
0.944707724704225
40
0.944891506904088
40
0.944983494890566
40
0.945017184366406
40
0.945037862352386
40
0.945039484190303
40
0.945041767244474
40
0.97288176737897
40
1
40
1
40
1
40
1
41
1
10
79.0412676126028
20
20.3836297641358
30
0
41
1
10
78.9520554908901
20
20.3779426072444
30
0
41
1
10
78.7897903685834
20
20.3867127536696
30
0
41
1
10
78.6214678201732
20
20.4010230870795
30
0
41
1
10
78.5507850779728
20
20.4294264559531
30
0
41
1
10
78.5506215323321
20
20.4294923696162
30
0
41
1
10
78.5505714735385
20
20.4295125124796
30
0
41
1
10
78.5505505785537
20
20.4295209721975
30
0
41
1
10
78.5505412910181
20
20.4295246816859
30
0
41
1
10
78.5505319991102
20
20.4295283803823
30
0
41
1
10
78.5460223771047
20
20.4313202531292
30
0
41
1
10
78.5371923528067
20
20.4350525698692
30
0
41
1
10
78.5285586835481
20
20.4391745463094
30
0
41
1
10
78.5243426396015
20
20.4413026859273
30
0
0
SPLINE
5
188
100
AcDbEntity
8
1
62
256
6
ByLayer
370
25
48
1
60
0
100
AcDbSpline
70
4
71
3
72
26
73
22
40
0
40
0
40
0
40
0
40
0.132796777562808
40
0.267749043516455
40
0.334640459326534
40
0.401061589263366
40
0.467267105009315
40
0.533349977632152
40
0.599703760673262
40
0.666432710931427
40
0.801038608471918
40
0.93782444940821
40
0.972372417500374
40
0.989708110208738
40
0.99839666793004
40
0.999483855206787
40
0.999755692523017
40
0.999891617298097
40
0.9999595812186
40
0.999993580592826
40
1
40
1
40
1
40
1
41
1
10
78.514710055497
20
20.4466806453041
30
0
41
1
10
78.4036136579012
20
20.5036758302351
30
0
41
1
10
78.2083033665135
20
20.6445512288857
30
0
41
1
10
78.0164581077772
20
20.8926402067337
30
0
41
1
10
77.9303627949609
20
21.123139569052
30
0
41
1
10
77.9047440750932
20
21.3047300989512
30
0
41
1
10
77.9223235650993
20
21.4864931267999
30
0
41
1
10
77.9841970595276
20
21.6580101183872
30
0
41
1
10
78.0864339768943
20
21.8090243554407
30
0
41
1
10
78.2664627787782
20
21.9741711095743
30
0
41
1
10
78.5541068639767
20
22.1011510365584
30
0
41
1
10
78.8351056777379
20
22.1194143487666
30
0
41
1
10
79.0048363992045
20
22.0999638709241
30
0
41
1
10
79.0589357575358
20
22.0908358687026
30
0
41
1
10
79.0830316747266
20
22.08612109729
30
0
41
1
10
79.0919444654288
20
22.0842872069117
30
0
41
1
10
79.0932702105834
20
22.0840125611399
30
0
41
1
10
79.0936920575644
20
22.0839249917356
30
0
41
1
10
79.093902994585
20
22.0838811603999
30
0
41
1
10
79.0939990963697
20
22.0838611801565
30
0
41
1
10
79.0940328851518
20
22.083854154449
30
0
41
1
10
79.094042676729
20
22.0838521185176
30
0
0
SPLINE
5
189
100
AcDbEntity
8
1
62
256
6
ByLayer
370
25
48
1
60
0
100
AcDbSpline
70
4
71
3
72
11
73
7
40
0
40
0
40
0
40
0
40
0.0001688317998663
40
0.0003329287302855
40
0.0926814011790851
40
1
40
1
40
1
40
1
41
1
10
79.0940359735041
20
22.0838535264454
30
0
41
1
10
79.0940457573744
20
22.0838514537938
30
0
41
1
10
79.094055532518
20
22.0838493403708
30
0
41
1
10
79.0959436057137
20
22.0834332282113
30
0
41
1
10
79.1163596677691
20
22.0789243557431
30
0
41
1
10
79.1367439834544
20
22.0742888054282
30
0
41
1
10
79.1552220811344
20
22.0699787138261
30
0
0
SPLINE
5
18A
100
AcDbEntity
8
1
62
256
6
ByLayer
370
25
48
1
60
0
100
AcDbSpline
70
4
71
2
72
6
73
3
40
0
40
0
40
0
40
1
40
1
40
1
41
1
10
79.1552209012392
20
22.0699628274968
30
0
41
1
10
79.3470100469855
20
22.046570674854
30
0
41
1
10
79.534483672256
20
22.0421447539196
30
0
0
SPLINE
5
18B
100
AcDbEntity
8
1
62
256
6
ByLayer
370
25
48
1
60
0
100
AcDbSpline
70
4
71
2
72
6
73
3
40
0
40
0
40
0
40
1
40
1
40
1
41
1
10
79.5344836696285
20
22.0421447685182
30
0
41
1
10
79.852517208381
20
22.0363564362685
30
0
41
1
10
80.1414875889758
20
22.0604945165703
30
0
0
SPLINE
5
18C
100
AcDbEntity
8
1
62
256
6
ByLayer
370
25
48
1
60
0
100
AcDbSpline
70
4
71
3
72
10
73
6
40
0
40
0
40
0
40
0
40
0.250591187154861
40
0.50005985656043
40
1
40
1
40
1
40
1
41
1
10
80.4072895313496
20
20.6385031823998
30
0
41
1
10
80.421625772798
20
20.6663537973865
30
0
41
1
10
80.4487834734274
20
20.7223786410912
30
0
41
1
10
80.4972262167863
20
20.8366078254361
30
0
41
1
10
80.5272032171964
20
20.9233129388647
30
0
41
1
10
80.5443566492278
20
20.9817962948727
30
0
0
SPLINE
5
18D
100
AcDbEntity
8
1
62
256
6
ByLayer
370
25
48
1
60
0
100
AcDbSpline
70
4
71
2
72
6
73
3
40
0
40
0
40
0
40
1
40
1
40
1
41
1
10
80.5443566492277
20
20.9817962948727
30
0
41
1
10
80.6712091363591
20
21.4230891836653
30
0
41
1
10
80.7779589201776
20
21.7488953011286
30
0
0
SPLINE
5
18E
100
AcDbEntity
8
1
62
256
6
ByLayer
370
25
48
1
60
0
100
AcDbSpline
70
4
71
3
72
31
73
27
40
0
40
0
40
0
40
0
40
0.0312319321279728
40
0.0624366128453777
40
0.093030365225688
40
0.124925100310725
40
0.15553558107205
40
0.187539086095974
40
0.218166531107022
40
0.250040239121111
40
0.312475989154059
40
0.374954659181113
40
0.437445057604306
40
0.499937615380919
40
0.562440803694699
40
0.624933723612467
40
0.687481425224815
40
0.750005321062913
40
0.781863458905328
40
0.812511511631337
40
0.8444575755171
40
0.874942721950229
40
0.906195114052864
40
0.937479571021541
40
0.969026511961465
40
1
40
1
40
1
40
1
41
1
10
65.951395085222
20
23.563426588538
30
0
41
1
10
65.8983750365942
20
23.4189204237226
30
0
41
1
10
65.8194674534555
20
23.1259210788714
30
0
41
1
10
65.7849863655104
20
22.6699673619169
30
0
41
1
10
65.8258800786816
20
22.2127810997907
30
0
41
1
10
65.9342453785582
20
21.7694303184393
30
0
41
1
10
66.1007822333383
20
21.3377635105938
30
0
41
1
10
66.3121909479492
20
20.9334136973496
30
0
41
1
10
66.5655444487502
20
20.5470679800455
30
0
41
1
10
66.9440970378619
20
20.0683249553094
30
0
41
1
10
67.4877640789431
20
19.5266349895321
30
0
41
1
10
68.2162929885213
20
18.9728998077444
30
0
41
1
10
69.0045529560634
20
18.5099758020577
30
0
41
1
10
69.8385038304629
20
18.1379982656413
30
0
41
1
10
70.7071687412102
20
17.8593575899662
30
0
41
1
10
71.6011090683486
20
17.6791364976602
30
0
41
1
10
72.5098025334535
20
17.6079590297866
30
0
41
1
10
73.2717151902453
20
17.6506182716716
30
0
41
1
10
73.8683300875331
20
17.7571131768996
30
0
41
1
10
74.3100063735914
20
17.8778390939184
30
0
41
1
10
74.731452747369
20
18.0397720805043
30
0
41
1
10
75.1342210584151
20
18.2507057595656
30
0
41
1
10
75.5040956085369
20
18.5107550965831
30
0
41
1
10
75.835437690862
20
18.8266924321001
30
0
41
1
10
76.1082637299533
20
19.19582764431
30
0
41
1
10
76.2396679042496
20
19.4692105453462
30
0
41
1
10
76.2933998720244
20
19.6120658062914
30
0
0
SPLINE
5
18F
100
AcDbEntity
8
1
62
256
6
ByLayer
370
25
48
1
60
0
100
AcDbSpline
70
4
71
3
72
30
73
26
40
0
40
0
40
0
40
0
40
0.0309420495260169
40
0.0624617548683689
40
0.0930262400908235
40
0.12494489309648
40
0.165935325570224
40
0.207713816138057
40
0.24985921953182
40
0.312351870186686
40
0.374864510525232
40
0.437358677471761
40
0.499869586162801
40
0.56237572889239
40
0.624873736957113
40
0.687343086829743
40
0.749762932339616
40
0.781682431766506
40
0.8122931997174
40
0.844369457732456
40
0.874984452941196
40
0.90692968797319
40
0.937514123446397
40
0.969155584587232
40
1
40
1
40
1
40
1
41
1
10
76.2923203721775
20
19.6124908665348
30
0
41
1
10
76.3407327536288
20
19.7561345799537
30
0
41
1
10
76.412077087421
20
20.0494792441317
30
0
41
1
10
76.436293510985
20
20.5034678788732
30
0
41
1
10
76.3864976350544
20
20.958577008595
30
0
41
1
10
76.2596381062935
20
21.4465418652586
30
0
41
1
10
76.0418430833384
20
21.9615653052965
30
0
41
1
10
75.7292330917577
20
22.4831877040556
30
0
41
1
10
75.2928904031821
20
23.0455889279871
30
0
41
1
10
74.7154235425458
20
23.6182265038214
30
0
41
1
10
73.9912567792797
20
24.1697099262061
30
0
41
1
10
73.2078467872638
20
24.6310281122316
30
0
41
1
10
72.3795178201995
20
25.0029618637589
30
0
41
1
10
71.5165273662414
20
25.2826174433655
30
0
41
1
10
70.6286284937137
20
25.464450844789
30
0
41
1
10
69.7263116822553
20
25.5391461352217
30
0
41
1
10
68.9692091240796
20
25.4994670229517
30
0
41
1
10
68.3759343352625
20
25.396337582903
30
0
41
1
10
67.9355092594845
20
25.2782296551126
30
0
41
1
10
67.5147278202988
20
25.1187773107033
30
0
41
1
10
67.1092875921037
20
24.9087894000828
30
0
41
1
10
66.7397760702185
20
24.6514894861654
30
0
41
1
10
66.4098859888058
20
24.3374235517632
30
0
41
1
10
66.138001723618
20
23.9754361500667
30
0
41
1
10
66.0056652054624
20
23.7046084333766
30
0
41
1
10
65.9514516041281
20
23.5635768004951
30
0
0
SPLINE
5
190
100
AcDbEntity
8
1
62
256
6
ByLayer
370
25
48
1
60
0
100
AcDbSpline
70
4
71
3
72
12
73
8
40
0
40
0
40
0
40
0
40
0.132637544788662
40
0.264348896666521
40
0.455444014294836
40
0.776938143159318
40
1
40
1
40
1
40
1
41
1
10
64.3088843274783
20
19.2860691551113
30
0
41
1
10
64.3340577965531
20
19.2861658960885
30
0
41
1
10
64.3816024154262
20
19.2933853355039
30
0
41
1
10
64.45688880942
20
19.3330568825044
30
0
41
1
10
64.5395233525633
20
19.4200920056167
30
0
41
1
10
64.595300612888
20
19.5459733396532
30
0
41
1
10
64.623267942175
20
19.6415233325271
30
0
41
1
10
64.6314291362641
20
19.682210831411
30
0
0
SPLINE
5
191
100
AcDbEntity
8
1
62
256
6
ByLayer
370
25
48
1
60
0
100
AcDbSpline
70
4
71
3
72
12
73
8
40
0
40
0
40
0
40
0
40
0.444883731379381
40
0.62418467056575
40
0.804934674593597
40
0.937047312582537
40
1
40
1
40
1
40
1
41
1
10
64.6314431406225
20
19.6823411821523
30
0
41
1
10
64.7156366981363
20
19.6945019463475
30
0
41
1
10
64.8219299831575
20
19.7329547574133
30
0
41
1
10
64.9465299249503
20
19.8144271980924
30
0
41
1
10
65.0041924104838
20
19.8862640623637
30
0
41
1
10
65.027757078238
20
19.9528474912523
30
0
41
1
10
65.0304229358179
20
19.988577578271
30
0
41
1
10
65.0304107628564
20
20.000340911929
30
0
0
SPLINE
5
192
100
AcDbEntity
8
1
62
256
6
ByLayer
370
25
48
1
60
0
100
AcDbSpline
70
4
71
3
72
12
73
8
40
0
40
0
40
0
40
0
40
0.132674221184174
40
0.264421396076538
40
0.455550302253252
40
0.777172165009403
40
1
40
1
40
1
40
1
41
1
10
65.0304108695569
20
20.0003476009794
30
0
41
1
10
65.0301767887281
20
20.0257102808667
30
0
41
1
10
65.0227453987405
20
20.0736493150016
30
0
41
1
10
64.9829290527376
20
20.1497075767058
30
0
41
1
10
64.8960294728334
20
20.233422589546
30
0
41
1
10
64.7707553268478
20
20.2902659704616
30
0
41
1
10
64.6757570581184
20
20.3189454216978
30
0
41
1
10
64.6353617752604
20
20.3273806734157
30
0
0
SPLINE
5
193
100
AcDbEntity
8
1
62
256
6
ByLayer
370
25
48
1
60
0
100
AcDbSpline
70
4
71
3
72
12
73
8
40
0
40
0
40
0
40
0
40
0.444602957711089
40
0.623955173048348
40
0.804757542659834
40
0.93689143916448
40
1
40
1
40
1
40
1
41
1
10
64.6352253873027
20
20.3274025926172
30
0
41
1
10
64.6226945377885
20
20.4122109325152
30
0
41
1
10
64.5839628542252
20
20.5194509117026
30
0
41
1
10
64.5024534877608
20
20.6453967843388
30
0
41
1
10
64.4308217158267
20
20.7039135145196
30
0
41
1
10
64.3645542676625
20
20.7280525548717
30
0
41
1
10
64.3290338361463
20
20.7309421518854
30
0
41
1
10
64.3173252963306
20
20.7309944351189
30
0
0
SPLINE
5
194
100
AcDbEntity
8
1
62
256
6
ByLayer
370
25
48
1
60
0
100
AcDbSpline
70
4
71
3
72
12
73
8
40
0
40
0
40
0
40
0
40
0.132653675601817
40
0.26438054562411
40
0.455482256528468
40
0.777071681368224
40
1
40
1
40
1
40
1
41
1
10
64.3173185571539
20
20.7309950271072
30
0
41
1
10
64.2921380701624
20
20.730896995511
30
0
41
1
10
64.2445817213636
20
20.7236719320365
30
0
41
1
10
64.169283892268
20
20.6839789159336
30
0
41
1
10
64.0866403792092
20
20.5968991327416
30
0
41
1
10
64.0308775785756
20
20.4709965504278
30
0
41
1
10
64.0029181492112
20
20.3754361800355
30
0
41
1
10
63.9947622020463
20
20.3347675280339
30
0
0
SPLINE
5
195
100
AcDbEntity
8
1
62
256
6
ByLayer
370
25
48
1
60
0
100
AcDbSpline
70
4
71
3
72
12
73
8
40
0
40
0
40
0
40
0
40
0.444885375473515
40
0.624191903459106
40
0.804947411300831
40
0.937069626015149
40
1
40
1
40
1
40
1
41
1
10
63.9947264622955
20
20.3347321776805
30
0
41
1
10
63.9105369595695
20
20.3225717381384
30
0
41
1
10
63.8042492124237
20
20.2841192425982
30
0
41
1
10
63.6796569446364
20
20.2026457219581
30
0
41
1
10
63.6219990608763
20
20.1308068684515
30
0
41
1
10
63.5984392730019
20
20.0642274579712
30
0
41
1
10
63.5957742542274
20
20.0285016604616
30
0
41
1
10
63.5957862293189
20
20.0167432635374
30
0
0
SPLINE
5
196
100
AcDbEntity
8
1
62
256
6
ByLayer
370
25
48
1
60
0
100
AcDbSpline
70
4
71
3
72
12
73
8
40
0
40
0
40
0
40
0
40
0.132661942454017
40
0.26439695401893
40
0.455501419698434
40
0.777059381915082
40
1
40
1
40
1
40
1
41
1
10
63.5957860851635
20
20.0167372642501
30
0
41
1
10
63.5960193572012
20
19.9913737495078
30
0
41
1
10
63.603449442159
20
19.9434328902075
30
0
41
1
10
63.6432638633356
20
19.8673718655234
30
0
41
1
10
63.7301577124305
20
19.7836559880715
30
0
41
1
10
63.8554502862282
20
19.7268001514947
30
0
41
1
10
63.9504689893902
20
19.698115830056
30
0
41
1
10
63.9908907555239
20
19.6896778917174
30
0
0
SPLINE
5
197
100
AcDbEntity
8
1
62
256
6
ByLayer
370
25
48
1
60
0
100
AcDbSpline
70
4
71
3
72
12
73
8
40
0
40
0
40
0
40
0
40
0.44489373901471
40
0.624205161278155
40
0.804965403856595
40
0.937097601387872
40
1
40
1
40
1
40
1
41
1
10
63.9909936370106
20
19.689572468477
30
0
41
1
10
64.0035294357483
20
19.6047135212293
30
0
41
1
10
64.0422903938517
20
19.4974573466081
30
0
41
1
10
64.1238665020176
20
19.3715356186713
30
0
41
1
10
64.1955080815179
20
19.3130801478227
30
0
41
1
10
64.261732884244
20
19.2889970824873
30
0
41
1
10
64.2972108140672
20
19.2861209543719
30
0
41
1
10
64.3088784718766
20
19.2860692901663
30
0
0
SPLINE
5
198
100
AcDbEntity
8
1
62
256
6
ByLayer
370
25
48
1
60
0
100
AcDbSpline
70
4
71
3
72
18
73
14
40
0
40
0
40
0
40
0
40
0.0418380391861417
40
0.0833836680363129
40
0.143663537697672
40
0.245127770699405
40
0.461094413630231
40
0.708038645966864
40
0.790737746989045
40
0.873912594665223
40
0.925947017020835
40
0.978333683734999
40
1
40
1
40
1
40
1
41
1
10
77.9360733187196
20
23.8899805288632
30
0
41
1
10
77.9109107771473
20
23.8898828205049
30
0
41
1
10
77.8633912472009
20
23.8826598867834
30
0
41
1
10
77.7881325274479
20
23.8430049648517
30
0
41
1
10
77.7056214728007
20
23.755860276358
30
0
41
1
10
77.6140953441551
20
23.5520237072379
30
0
41
1
10
77.5666949092776
20
23.2227270714551
30
0
41
1
10
77.5875497877413
20
22.8996621369506
30
0
41
1
10
77.6596930271601
20
22.6687625007706
30
0
41
1
10
77.7212579594536
20
22.5547239939668
30
0
41
1
10
77.8025062568472
20
22.4792376278891
30
0
41
1
10
77.8722372862735
20
22.4493109954143
30
0
41
1
10
77.914851641332
20
22.4455481213979
30
0
41
1
10
77.9276263183787
20
22.445447131892
30
0
0
SPLINE
5
199
100
AcDbEntity
8
1
62
256
6
ByLayer
370
25
48
1
60
0
100
AcDbSpline
70
4
71
3
72
18
73
14
40
0
40
0
40
0
40
0
40
0.041840192102605
40
0.0833879650941739
40
0.143669529848076
40
0.245132984888604
40
0.46109732517543
40
0.708040015378176
40
0.790740770836624
40
0.873917232032922
40
0.925949187249161
40
0.978333408666207
40
1
40
1
40
1
40
1
41
1
10
77.9276406538272
20
22.4454468585539
30
0
41
1
10
77.9528043016666
20
22.4455450061595
30
0
41
1
10
78.0003258289759
20
22.4527690570938
30
0
41
1
10
78.0755866326046
20
22.4924263447464
30
0
41
1
10
78.1580973765546
20
22.5795727683936
30
0
41
1
10
78.2496189599947
20
22.7834089206202
30
0
41
1
10
78.2970121232617
20
23.1127016676373
30
0
41
1
10
78.2761525801829
20
23.435762210913
30
0
41
1
10
78.2040098116423
20
23.6666611850657
30
0
41
1
10
78.1424468451956
20
23.7807001033209
30
0
41
1
10
78.0612029113168
20
23.8561869679564
30
0
41
1
10
77.9914759993395
20
23.8861148194082
30
0
41
1
10
77.9488633044687
20
23.8898789338312
30
0
41
1
10
77.9360885391124
20
23.889980286057
30
0
0
SPLINE
5
19A
100
AcDbEntity
8
1
62
256
6
ByLayer
370
25
48
1
60
0
100
AcDbSpline
70
4
71
3
72
22
73
18
40
0
40
0
40
0
40
0
40
0.0633553670770533
40
0.12437773966496
40
0.187684799025798
40
0.249349056734933
40
0.312790305629977
40
0.374782612053024
40
0.438058744204678
40
0.500663815213739
40
0.563014816762808
40
0.626411506278926
40
0.688208084844231
40
0.751628760846631
40
0.813048265852777
40
0.876330318080508
40
1
40
1
40
1
40
1
41
1
10
78.4311247515579
20
20.2741901533446
30
0
41
1
10
78.3718228885004
20
20.3061723474666
30
0
41
1
10
78.260886983345
20
20.3762759630389
30
0
41
1
10
78.107748678305
20
20.5039568950234
30
0
41
1
10
77.9760880705258
20
20.6515164086156
30
0
41
1
10
77.8681649901575
20
20.8206040968286
30
0
41
1
10
77.790807933511
20
21.0045921584306
30
0
41
1
10
77.7499471978719
20
21.2017686477433
30
0
41
1
10
77.748496401901
20
21.4023416079519
30
0
41
1
10
77.7906737161159
20
21.5985997089376
30
0
41
1
10
77.8734065256102
20
21.7812335926103
30
0
41
1
10
77.9935163296554
20
21.9401405606988
30
0
41
1
10
78.1432144764644
20
22.0723946829711
30
0
41
1
10
78.3141393344218
20
22.1712378003465
30
0
41
1
10
78.5006595171157
20
22.2391942709341
30
0
41
1
10
78.7592454127011
20
22.2861749241097
30
0
41
1
10
78.9550896501351
20
22.27854058115
30
0
41
1
10
79.0865750636244
20
22.2540961679876
30
0
0
SPLINE
5
19B
100
AcDbEntity
8
1
62
256
6
ByLayer
370
25
48
1
60
0
100
AcDbSpline
70
4
71
3
72
46
73
42
40
0
40
0
40
0
40
0
40
0.114803666256272
40
0.229383674407672
40
0.259911765720204
40
0.290577585133784
40
0.321460622368293
40
0.352224995032268
40
0.378512336060257
40
0.381205582310424
40
0.385039003392912
40
0.394788390018846
40
0.404507524382557
40
0.404509667683789
40
0.404511810978235
40
0.404516097546775
40
0.404524670602442
40
0.404541816388138
40
0.404576106657005
40
0.404644681984892
40
0.404781811803336
40
0.405055988107341
40
0.405604007515473
40
0.406698714587701
40
0.408882810235826
40
0.413229795965764
40
0.421839501934136
40
0.438726461165608
40
0.473327235837405
40
0.543731848604194
40
0.612009810950374
40
0.682893358090984
40
0.765626005818461
40
0.852849085122107
40
0.873130605415626
40
0.893655470282615
40
0.914429271010746
40
0.935546980715032
40
0.956863712001972
40
0.969082270494343
40
1
40
1
40
1
40
1
41
1
10
78.431013112988
20
20.2739930362325
30
0
41
1
10
78.3504859204025
20
20.0343804600323
30
0
41
1
10
78.1561073121696
20
19.57443210288
30
0
41
1
10
77.8616932733495
20
19.086294612303
30
0
41
1
10
77.6287579792636
20
18.7825828317179
30
0
41
1
10
77.4985452188088
20
18.6301389890867
30
0
41
1
10
77.3604907377803
20
18.4841959535666
30
0
41
1
10
77.2223437579593
20
18.3518623532445
30
0
41
1
10
77.1243887723224
20
18.2665057782511
30
0
41
1
10
77.0696451412101
20
18.2207902677191
30
0
41
1
10
77.0423672608879
20
18.1982431284138
30
0
41
1
10
77.0005232475888
20
18.1696395594291
30
0
41
1
10
76.9675172235424
20
18.1431321163917
30
0
41
1
10
76.9506345822637
20
18.1304270920788
30
0
41
1
10
76.9506196967963
20
18.1304158900293
30
0
41
1
10
76.9505936473331
20
18.1303962867339
30
0
41
1
10
76.9505415488131
20
18.1303570811526
30
0
41
1
10
76.9504373533496
20
18.1302786740945
30
0
41
1
10
76.9502289687624
20
18.1301218763486
30
0
41
1
10
76.9498122249225
20
18.1298083463663
30
0
41
1
10
76.94897883859
20
18.1291815483815
30
0
41
1
10
76.9473124712493
20
18.1279290000474
30
0
41
1
10
76.9439813573348
20
18.125428091732
30
0
41
1
10
76.9373256094605
20
18.1204430084705
30
0
41
1
10
76.9240399931236
20
18.1105396433401
30
0
41
1
10
76.8975720967656
20
18.0909987243338
30
0
41
1
10
76.84504608323
20
18.0529724168755
30
0
41
1
10
76.737842154249
20
17.9784106068356
30
0
41
1
10
76.5141587047873
20
17.836519444226
30
0
41
1
10
76.1804064641722
20
17.6610121165817
30
0
41
1
10
75.7572431965331
20
17.491968145851
30
0
41
1
10
75.2946575314564
20
17.3552093662718
30
0
41
1
10
74.7811070087688
20
17.2528037439176
30
0
41
1
10
74.3699612857818
20
17.2070680609838
30
0
41
1
10
74.0924182139657
20
17.1890488333528
30
0
41
1
10
73.9587801429108
20
17.182628304984
30
0
41
1
10
73.8232300777383
20
17.1783488271802
30
0
41
1
10
73.6858977264185
20
17.1762134476743
30
0
41
1
10
73.5671283846559
20
17.1761759606158
30
0
41
1
10
73.4270691500112
20
17.1779234604663
30
0
41
1
10
73.3333314314021
20
17.1788951021591
30
0
41
1
10
73.266145785063
20
17.1796872004084
30
0
0
SPLINE
5
19C
100
AcDbEntity
8
1
62
256
6
ByLayer
370
25
48
1
60
0
100
AcDbSpline
70
4
71
3
72
12
73
8
40
0
40
0
40
0
40
0
40
0.162699598902253
40
0.317227735677576
40
0.498791704867682
40
0.799282272837502
40
1
40
1
40
1
40
1
41
1
10
74.1094105562132
20
16.9161294022014
30
0
41
1
10
74.061436409138
20
16.9216363177099
30
0
41
1
10
73.9692476665784
20
16.9376678768103
30
0
41
1
10
73.8318493575921
20
16.9920141440906
30
0
41
1
10
73.6526112354348
20
17.0474894885725
30
0
41
1
10
73.4612075451593
20
17.1102465677165
30
0
41
1
10
73.3218169776029
20
17.1594960279824
30
0
41
1
10
73.2661458509112
20
17.1796871755619
30
0
0
SPLINE
5
19D
100
AcDbEntity
8
1
62
256
6
ByLayer
370
25
48
1
60
0
100
AcDbSpline
70
4
71
1
72
4
73
2
40
0
40
0
40
1
40
1
41
1
10
74.1094018482448
20
16.9161288722515
30
0
41
1
10
74.3322616236747
20
16.8309591705574
30
0
0
SPLINE
5
19E
100
AcDbEntity
8
1
62
256
6
ByLayer
370
25
48
1
60
0
100
AcDbSpline
70
4
71
3
72
15
73
11
40
0
40
0
40
0
40
0
40
0.0082928740374603
40
0.0488556672279079
40
0.129248235323095
40
0.209817220412556
40
0.423318381448542
40
0.636955709922835
40
0.8505976119766
40
1
40
1
40
1
40
1
41
1
10
66.0290903331064
20
18.1407087064927
30
0
41
1
10
66.0464635148659
20
18.1247286908318
30
0
41
1
10
66.1512907865698
20
18.0346669556076
30
0
41
1
10
66.4993300436696
20
17.9015662819018
30
0
41
1
10
67.0417073027809
20
17.7463652281843
30
0
41
1
10
68.0798271890063
20
17.5492409053039
30
0
41
1
10
69.489705175003
20
17.3222380328026
30
0
41
1
10
71.2815964703884
20
17.1155404257522
30
0
41
1
10
72.8963221955842
20
16.9593921260585
30
0
41
1
10
73.9134770081396
20
16.8670801553878
30
0
41
1
10
74.3321992393753
20
16.830732422475
30
0
0
SPLINE
5
19F
100
AcDbEntity
8
1
62
256
6
ByLayer
370
25
48
1
60
0
100
AcDbSpline
70
4
71
3
72
15
73
11
40
0
40
0
40
0
40
0
40
0.124994444633312
40
0.250006077340717
40
0.374996561545366
40
0.499984060673796
40
0.624981858166766
40
0.749982424499081
40
0.874965934126524
40
1
40
1
40
1
40
1
41
1
10
63.1638783966541
20
20.9138690317106
30
0
41
1
10
63.1731739344907
20
20.7283224266238
30
0
41
1
10
63.2245089809897
20
20.3659502645865
30
0
41
1
10
63.4034740689119
20
19.8407167751669
30
0
41
1
10
63.673197672831
20
19.3575992048916
30
0
41
1
10
64.0322568455289
20
18.9362125007131
30
0
41
1
10
64.4659708533374
20
18.5940471165327
30
0
41
1
10
64.9546067977313
20
18.3391532139053
30
0
41
1
10
65.4838719899915
20
18.1831312697013
30
0
41
1
10
65.8453285077595
20
18.1468796542818
30
0
41
1
10
66.0297837230967
20
18.1455463211594
30
0
0
SPLINE
5
1A0
100
AcDbEntity
8
1
62
256
6
ByLayer
370
25
48
1
60
0
100
AcDbSpline
70
4
71
3
72
22
73
18
40
0
40
0
40
0
40
0
40
0.0635049931214244
40
0.124657924056919
40
0.188078309995203
40
0.249835510251293
40
0.313343323682148
40
0.375383095852877
40
0.438677914024423
40
0.501274825102349
40
0.563585162891569
40
0.626943332131358
40
0.688652986896409
40
0.752016167932121
40
0.813333838598584
40
0.876532232777271
40
1
40
1
40
1
40
1
41
1
10
63.8139390924422
20
22.9023326737211
30
0
41
1
10
63.8733042609839
20
22.8700538031893
30
0
41
1
10
63.9842975826736
20
22.7993597582835
30
0
41
1
10
64.1373567037157
20
22.6707622856398
30
0
41
1
10
64.2687188912902
20
22.5223126918743
30
0
41
1
10
64.3760803767575
20
22.3523938421479
30
0
41
1
10
64.4526070416633
20
22.1676982553142
30
0
41
1
10
64.4922978877259
20
21.9700257905621
30
0
41
1
10
64.4923093620674
20
21.7692742290573
30
0
41
1
10
64.448399411982
20
21.5733177685252
30
0
41
1
10
64.3638246229899
20
21.3915223942186
30
0
41
1
10
64.2419680851698
20
21.2340501623828
30
0
41
1
10
64.0907175713383
20
21.1037250573788
30
0
41
1
10
63.9186378127345
20
21.0072358531819
30
0
41
1
10
63.7313503566929
20
20.941893164234
30
0
41
1
10
63.4723917617872
20
20.898582997483
30
0
41
1
10
63.2768619053807
20
20.9089812109489
30
0
41
1
10
63.1458664512235
20
20.9352743971208
30
0
0
SPLINE
5
1A1
100
AcDbEntity
8
1
62
256
6
ByLayer
370
25
48
1
60
0
100
AcDbSpline
70
4
71
3
72
46
73
42
40
0
40
0
40
0
40
0
40
0.114803184122114
40
0.229383019219653
40
0.259911174791972
40
0.290577045588307
40
0.32146011597272
40
0.352221882785776
40
0.378503948965453
40
0.381194551886724
40
0.385026878759119
40
0.394777222691502
40
0.404499614942302
40
0.404501762063088
40
0.404503909172837
40
0.40450820335924
40
0.404516791599634
40
0.40453396755081
40
0.404568317334714
40
0.404637008428992
40
0.404774356725296
40
0.405048917764006
40
0.405597497746819
40
0.406692490305334
40
0.408873813618472
40
0.413201876502165
40
0.421720189500708
40
0.438209985972683
40
0.473296874673181
40
0.543731828768194
40
0.612009831183448
40
0.682893343488755
40
0.765626148522729
40
0.852849288304546
40
0.873130804937443
40
0.893655658380495
40
0.914429439554862
40
0.935547123701981
40
0.956863819020084
40
0.96908208312562
40
1
40
1
40
1
40
1
41
1
10
63.8140065199816
20
22.9024357764925
30
0
41
1
10
63.894538319814
20
23.1420387093926
30
0
41
1
10
64.0889250516069
20
23.601967821758
30
0
41
1
10
64.3833443091668
20
24.0900833909851
30
0
41
1
10
64.6162835924053
20
24.3937793437749
30
0
41
1
10
64.7464978262555
20
24.5462154430053
30
0
41
1
10
64.8845490974094
20
24.6921467524905
30
0
41
1
10
65.0226837821066
20
24.8244612551609
30
0
41
1
10
65.120620042752
20
24.9097993059207
30
0
41
1
10
65.1753478216353
20
24.9555003637404
30
0
41
1
10
65.202621359299
20
24.9780417964288
30
0
41
1
10
65.2444699724511
20
25.0066482690359
30
0
41
1
10
65.2774820065603
20
25.0331611776051
30
0
41
1
10
65.2943700469243
20
25.0458699161192
30
0
41
1
10
65.2943849586338
20
25.0458811376131
30
0
41
1
10
65.2944110538882
20
25.0459007748435
30
0
41
1
10
65.2944632435113
20
25.0459400479643
30
0
41
1
10
65.2945676192651
20
25.0460185887787
30
0
41
1
10
65.294776356767
20
25.0461756487475
30
0
41
1
10
65.295193775774
20
25.0464896820164
30
0
41
1
10
65.2960283897785
20
25.0471174019503
30
0
41
1
10
65.2976967217515
20
25.0483714557398
30
0
41
1
10
65.3010298012719
20
25.0508740220713
30
0
41
1
10
65.3076816226669
20
25.0558570119244
30
0
41
1
10
65.3209278923811
20
25.065734626013
30
0
41
1
10
65.3471910515509
20
25.0851377710514
30
0
41
1
10
65.3987981404394
20
25.1225504789887
30
0
41
1
10
65.5059474323494
20
25.1971761563709
30
0
41
1
10
65.7298531808889
20
25.3391964430047
30
0
41
1
10
66.0645579488165
20
25.5152738080019
30
0
41
1
10
66.4877846172454
20
25.684315499697
30
0
41
1
10
66.9503571456055
20
25.8210700915841
30
0
41
1
10
67.4638964866384
20
25.9234676696105
30
0
41
1
10
67.8750319697998
20
25.9692006682109
30
0
41
1
10
68.1525680295009
20
25.9872185403894
30
0
41
1
10
68.2862025815308
20
25.9936385554984
30
0
41
1
10
68.4217490250168
20
25.997917635862
30
0
41
1
10
68.5590776487604
20
26.0000527499517
30
0
41
1
10
68.6778431425629
20
26.0000900832604
30
0
41
1
10
68.8178984401745
20
25.9983426194909
30
0
41
1
10
68.9116334994513
20
25.9973709941047
30
0
41
1
10
68.9788178135938
20
25.9965789199827
30
0
0
SPLINE
5
1A2
100
AcDbEntity
8
1
62
256
6
ByLayer
370
25
48
1
60
0
100
AcDbSpline
70
4
71
3
72
12
73
8
40
0
40
0
40
0
40
0
40
0.162699595744403
40
0.317227655972826
40
0.49879171282183
40
0.799281969184995
40
1
40
1
40
1
40
1
41
1
10
68.1355530424435
20
26.2601367181897
30
0
41
1
10
68.1835271872246
20
26.2546298039853
30
0
41
1
10
68.2757159041036
20
26.238598250961
30
0
41
1
10
68.4131142151602
20
26.1842519961352
30
0
41
1
10
68.5923522510526
20
26.1287766914081
30
0
41
1
10
68.7837559573928
20
26.0660196044129
30
0
41
1
10
68.9231465155482
20
26.0167701375202
30
0
41
1
10
68.9788177228516
20
25.9965789542224
30
0
0
SPLINE
5
1A3
100
AcDbEntity
8
1
62
256
6
ByLayer
370
25
48
1
60
0
100
AcDbSpline
70
4
71
1
72
4
73
2
40
0
40
0
40
1
40
1
41
1
10
68.1355391983502
20
26.2601296710182
30
0
41
1
10
67.9126732013378
20
26.3452974733461
30
0
0
SPLINE
5
1A4
100
AcDbEntity
8
1
62
256
6
ByLayer
370
25
48
1
60
0
100
AcDbSpline
70
4
71
3
72
15
73
11
40
0
40
0
40
0
40
0
40
0.008570460643517
40
0.0492184200798577
40
0.129779553924052
40
0.210517231617534
40
0.424467350200594
40
0.638553738982481
40
0.852644698976092
40
1
40
1
40
1
40
1
41
1
10
76.2143479217376
20
25.0340794524214
30
0
41
1
10
76.1964626655228
20
25.0506795891741
30
0
41
1
10
76.0911529167154
20
25.1417431578294
30
0
41
1
10
75.7414598117725
20
25.2750542019995
30
0
41
1
10
75.1981050012566
20
25.4305821601857
30
0
41
1
10
74.157824717155
20
25.6278810270579
30
0
41
1
10
72.7451375528535
20
25.8551875459489
30
0
41
1
10
70.9496324784751
20
26.0621044176707
30
0
41
1
10
69.3382786794297
20
26.2177682817714
30
0
41
1
10
68.325701747257
20
26.3096261980364
30
0
41
1
10
67.9127603035118
20
26.3454824602777
30
0
0
SPLINE
5
1A5
100
AcDbEntity
8
1
62
256
6
ByLayer
370
25
48
1
60
0
100
AcDbSpline
70
4
71
1
72
4
73
2
40
0
40
0
40
1
40
1
41
1
10
67.9127544874102
20
26.3455995835986
30
0
41
1
10
67.8489964470509
20
26.3512327531526
30
0
0
SPLINE
5
1A6
100
AcDbEntity
8
1
62
256
6
ByLayer
370
25
48
1
60
0
100
AcDbSpline
70
4
71
1
72
4
73
2
40
0
40
0
40
1
40
1
41
1
10
68.598011804549
20
26.3197274467095
30
0
41
1
10
67.8498028143354
20
26.3511248898911
30
0
0
SPLINE
5
1A7
100
AcDbEntity
8
1
62
256
6
ByLayer
370
25
48
1
60
0
100
AcDbSpline
70
4
71
3
72
11
73
7
40
0
40
0
40
0
40
0
40
0.266444432222616
40
0.531096760197313
40
0.78351890872397
40
1
40
1
40
1
40
1
41
1
10
70.0636729016911
20
26.3891621044533
30
0
41
1
10
69.9502569917751
20
26.3522837733851
30
0
41
1
10
69.7136615963213
20
26.2962633476064
30
0
41
1
10
69.3231218862275
20
26.2626344210171
30
0
41
1
10
68.9485498729637
20
26.2824333172949
30
0
41
1
10
68.7090221045184
20
26.305443115964
30
0
41
1
10
68.5980386430933
20
26.3197180880317
30
0
0
SPLINE
5
1A8
100
AcDbEntity
8
1
62
256
6
ByLayer
370
25
48
1
60
0
100
AcDbSpline
70
4
71
3
72
19
73
15
40
0
40
0
40
0
40
0
40
0.499648048172107
40
0.750080653283989
40
0.875349722241772
40
0.937986710379374
40
0.969050879294787
40
0.976715075250233
40
0.977620319182641
40
0.978399687964528
40
0.979117178211139
40
0.979853133543131
40
0.983778802059051
40
1
40
1
40
1
40
1
41
1
10
79.0865278522578
20
22.2540800213174
30
0
41
1
10
79.0997149566204
20
22.2222258728248
30
0
41
1
10
79.1182461656941
20
22.1751693822274
30
0
41
1
10
79.1368095097758
20
22.1208652702852
30
0
41
1
10
79.1461844393237
20
22.0945533170296
30
0
41
1
10
79.1505028657689
20
22.0817507311458
30
0
41
1
10
79.15254802197
20
22.0756980143561
30
0
41
1
10
79.1522041949349
20
22.0733933145417
30
0
41
1
10
79.1519737510948
20
22.072907833416
30
0
41
1
10
79.1519621204501
20
22.0727668247486
30
0
41
1
10
79.1519977144795
20
22.0726331489488
30
0
41
1
10
79.1522134879486
20
22.0723536452314
30
0
41
1
10
79.1533981524446
20
22.0715589889113
30
0
41
1
10
79.1543730630018
20
22.0706538496099
30
0
41
1
10
79.1552198084929
20
22.069977963111
30
0
0
SPLINE
5
1A9
100
AcDbEntity
8
1
62
256
6
ByLayer
370
25
48
1
60
0
100
AcDbSpline
70
4
71
1
72
4
73
2
40
0
40
0
40
1
40
1
41
1
10
61.4242974409111
20
21.4130451780345
30
0
41
1
10
62.0578203262193
20
21.1004259510959
30
0
0
SPLINE
5
1AA
100
AcDbEntity
8
1
62
256
6
ByLayer
370
25
48
1
60
0
100
AcDbSpline
70
4
71
3
72
12
73
8
40
0
40
0
40
0
40
0
40
0.181401276389178
40
0.317057477821381
40
0.452302811876366
40
0.68192755500042
40
1
40
1
40
1
40
1
41
1
10
62.2063747326991
20
20.8844701351025
30
0
41
1
10
62.2133734180313
20
20.9019706659665
30
0
41
1
10
62.2190351495783
20
20.9321618789564
30
0
41
1
10
62.2109967945413
20
20.9768072832618
30
0
41
1
10
62.1860179390958
20
21.0196099968964
30
0
41
1
10
62.1343442718813
20
21.0637819634075
30
0
41
1
10
62.0880049394812
20
21.0895011311604
30
0
41
1
10
62.0578196610711
20
21.1004243967626
30
0
0
SPLINE
5
1AB
100
AcDbEntity
8
1
62
256
6
ByLayer
370
25
48
1
60
0
100
AcDbSpline
70
4
71
3
72
19
73
15
40
0
40
0
40
0
40
0
40
0.0709191128570133
40
0.144898583527153
40
0.215769271592961
40
0.289915318761003
40
0.361706291317695
40
0.435012777408307
40
0.507952518255462
40
0.580127140359584
40
0.724946915075031
40
0.795452640517766
40
0.870095173409177
40
1
40
1
40
1
40
1
41
1
10
62.2063728757663
20
20.884473775457
30
0
41
1
10
62.1622097400839
20
20.7622457173077
30
0
41
1
10
62.0964242082498
20
20.5096499371833
30
0
41
1
10
62.0775640586517
20
20.1177961411309
30
0
41
1
10
62.1244995086807
20
19.7251378500419
30
0
41
1
10
62.2294921976179
20
19.3480928998705
30
0
41
1
10
62.3834539890153
20
18.9842059969178
30
0
41
1
10
62.579071243908
20
18.6434706205358
30
0
41
1
10
62.8125067128653
20
18.32649752239
30
0
41
1
10
63.1698885089877
20
17.9451858894775
30
0
41
1
10
63.5914723208061
20
17.6349872761482
30
0
41
1
10
64.0580315590178
20
17.3977602983002
30
0
41
1
10
64.5203871092301
20
17.2145524793471
30
0
41
1
10
64.8751858382667
20
17.1126550110553
30
0
41
1
10
65.1059888878632
20
17.0628169368117
30
0
0
SPLINE
5
1AC
100
AcDbEntity
8
1
62
256
6
ByLayer
370
25
48
1
60
0
100
AcDbSpline
70
4
71
1
72
4
73
2
40
0
40
0
40
1
40
1
41
1
10
65.4373184055872
20
16.9969003025623
30
0
41
1
10
65.9643924247218
20
16.9249069232449
30
0
0
SPLINE
5
1AD
100
AcDbEntity
8
1
62
256
6
ByLayer
370
25
48
1
60
0
100
AcDbSpline
70
4
71
3
72
10
73
6
40
0
40
0
40
0
40
0
40
0.230852532368086
40
0.612358933211343
40
1
40
1
40
1
40
1
41
1
10
72.2593123872422
20
16.7393858473768
30
0
41
1
10
72.248803760606
20
16.7437145326864
30
0
41
1
10
72.220554624067
20
16.7537177016883
30
0
41
1
10
72.1718254586871
20
16.7617445530064
30
0
41
1
10
72.1342963252552
20
16.7646772538978
30
0
41
1
10
72.1151624043061
20
16.7649290083673
30
0
0
SPLINE
5
1AE
100
AcDbEntity
8
1
62
256
6
ByLayer
370
25
48
1
60
0
100
AcDbSpline
70
4
71
2
72
6
73
3
40
0
40
0
40
0
40
1
40
1
40
1
41
1
10
73.0104084813239
20
16.4097135507192
30
0
41
1
10
72.6345628297687
20
16.573880087529
30
0
41
1
10
72.2593190171351
20
16.7393862069751
30
0
0
SPLINE
5
1AF
100
AcDbEntity
8
1
62
256
6
ByLayer
370
25
48
1
60
0
100
AcDbSpline
70
4
71
3
72
10
73
6
40
0
40
0
40
0
40
0
40
0.446382946494487
40
0.892735516453666
40
1
40
1
40
1
40
1
41
1
10
61.1108338094917
20
19.4528532956245
30
0
41
1
10
61.0993054398002
20
19.277269656623
30
0
41
1
10
61.104607766547
20
18.9299640414039
30
0
41
1
10
61.1742366018227
20
18.5435840495113
30
0
41
1
10
61.234484829025
20
18.3367369813798
30
0
41
1
10
61.246975454277
20
18.2968219164244
30
0
0
SPLINE
5
1B0
100
AcDbEntity
8
1
62
256
6
ByLayer
370
25
48
1
60
0
100
AcDbSpline
70
4
71
3
72
10
73
6
40
0
40
0
40
0
40
0
40
0.358607686898898
40
0.678728528699232
40
1
40
1
40
1
40
1
41
1
10
61.4242660679595
20
21.4129845778027
30
0
41
1
10
61.3651760162954
20
21.1822740363544
30
0
41
1
10
61.2680062183354
20
20.7431588078313
30
0
41
1
10
61.16499083674
20
20.0879950916696
30
0
41
1
10
61.1246805429454
20
19.665365768832
30
0
41
1
10
61.1108338095517
20
19.4528532956144
30
0
0
SPLINE
5
1B1
100
AcDbEntity
8
1
62
256
6
ByLayer
370
25
48
1
60
0
100
AcDbSpline
70
4
71
3
72
28
73
24
40
0
40
0
40
0
40
0
40
0.0302036092269001
40
0.0606375772553371
40
0.0912645469027501
40
0.122118436706668
40
0.163564130027958
40
0.205219464465284
40
0.247087940552633
40
0.310054986422566
40
0.373216607607804
40
0.436476422419101
40
0.499776494745368
40
0.563088564721927
40
0.626356380066702
40
0.689548176656156
40
0.752565852090524
40
0.815296010907553
40
0.877522143472293
40
0.908427929586171
40
0.939171980106319
40
0.969659678091927
40
1
40
1
40
1
40
1
41
1
10
66.3285307969629
20
23.3696499398048
30
0
41
1
10
66.3767063038589
20
23.4935474816527
30
0
41
1
10
66.4941516425771
20
23.7280793539461
30
0
41
1
10
66.7405561116896
20
24.0411893374562
30
0
41
1
10
67.0380669938207
20
24.306823122409
30
0
41
1
10
67.4124265643337
20
24.5494014065895
30
0
41
1
10
67.8626485896717
20
24.7527489950065
30
0
41
1
10
68.3819596629814
20
24.9042472073622
30
0
41
1
10
69.0072449228176
20
25.0074951544173
30
0
41
1
10
69.7350224379931
20
25.0344064531245
30
0
41
1
10
70.552224663698
20
24.958575964552
30
0
41
1
10
71.3571815453614
20
24.7891828932456
30
0
41
1
10
72.1405321180699
20
24.5341396078837
30
0
41
1
10
72.893632565406
20
24.1982828177811
30
0
41
1
10
73.607411518098
20
23.7844357295515
30
0
41
1
10
74.2692662832905
20
23.2921174054173
30
0
41
1
10
74.8639621384641
20
22.7217115695526
30
0
41
1
10
75.3665206236829
20
22.0719912759514
30
0
41
1
10
75.6792641895044
20
21.4627588049045
30
0
41
1
10
75.8331130755325
20
20.9438625830304
30
0
41
1
10
75.8913762851767
20
20.5454401332021
30
0
41
1
10
75.8810045443861
20
20.143764090016
30
0
41
1
10
75.8225377458617
20
19.8866445111149
30
0
41
1
10
75.7810850218137
20
19.759691266043
30
0
0
SPLINE
5
1B2
100
AcDbEntity
8
1
62
256
6
ByLayer
370
25
48
1
60
0
100
AcDbSpline
70
4
71
3
72
11
73
7
40
0
40
0
40
0
40
0
40
0.252082496348717
40
0.502231081336765
40
0.750135086948632
40
1
40
1
40
1
40
1
41
1
10
75.7820257234568
20
19.7596578507341
30
0
41
1
10
75.7744961741272
20
19.7615570957503
30
0
41
1
10
75.7578487824587
20
19.7661837249624
30
0
41
1
10
75.7273189403863
20
19.7758251448422
30
0
41
1
10
75.6935587018503
20
19.7874741296407
30
0
41
1
10
75.6708182254126
20
19.7958849423789
30
0
41
1
10
75.659172466875
20
19.8003310358084
30
0
0
SPLINE
5
1B3
100
AcDbEntity
8
1
62
256
6
ByLayer
370
25
48
1
60
0
100
AcDbSpline
70
4
71
2
72
6
73
3
40
0
40
0
40
0
40
1
40
1
40
1
41
1
10
75.6577699052792
20
19.8007600409521
30
0
41
1
10
75.7588637205001
20
20.1094867390936
30
0
41
1
10
75.7528292665587
20
20.4350025103632
30
0
0
SPLINE
5
1B4
100
AcDbEntity
8
1
62
256
6
ByLayer
370
25
48
1
60
0
100
AcDbSpline
70
4
71
2
72
6
73
3
40
0
40
0
40
0
40
1
40
1
40
1
41
1
10
75.7528290771713
20
20.4350163345385
30
0
41
1
10
75.7484885727822
20
20.6614631248009
30
0
41
1
10
75.7018411396935
20
20.8832586735589
30
0
0
SPLINE
5
1B5
100
AcDbEntity
8
1
62
256
6
ByLayer
370
25
48
1
60
0
100
AcDbSpline
70
4
71
3
72
11
73
7
40
0
40
0
40
0
40
0
40
0.248265745804632
40
0.498069534308583
40
0.748763215325572
40
1
40
1
40
1
40
1
41
1
10
75.7018383436694
20
20.8832720759489
30
0
41
1
10
75.6477033360882
20
21.1163415535898
30
0
41
1
10
75.497909315588
20
21.5637344851509
30
0
41
1
10
75.1289935601984
20
22.1780140434004
30
0
41
1
10
74.6725176238774
20
22.7280845845227
30
0
41
1
10
74.3269071921401
20
23.0537823681954
30
0
41
1
10
74.1422828119486
20
23.2061352598803
30
0
0
SPLINE
5
1B6
100
AcDbEntity
8
1
62
256
6
ByLayer
370
25
48
1
60
0
100
AcDbSpline
70
4
71
2
72
6
73
3
40
0
40
0
40
0
40
1
40
1
40
1
41
1
10
74.1422785781318
20
23.2061388278189
30
0
41
1
10
73.8288221612585
20
23.4669024434064
30
0
41
1
10
73.4873760416149
20
23.6890205355941
30
0
0
SPLINE
5
1B7
100
AcDbEntity
8
1
62
256
6
ByLayer
370
25
48
1
60
0
100
AcDbSpline
70
4
71
2
72
6
73
3
40
0
40
0
40
0
40
1
40
1
40
1
41
1
10
73.4873740556069
20
23.6890218085658
30
0
41
1
10
72.8303127335392
20
24.1140235678834
30
0
41
1
10
72.101783002394
20
24.3957193429876
30
0
0
SPLINE
5
1B8
100
AcDbEntity
8
1
62
256
6
ByLayer
370
25
48
1
60
0
100
AcDbSpline
70
4
71
3
72
12
73
8
40
0
40
0
40
0
40
0
40
0.166192739939038
40
0.332650128103297
40
0.499380021226221
40
0.749629019696137
40
1
40
1
40
1
40
1
41
1
10
68.3418646338851
20
24.7562946986652
30
0
41
1
10
68.5493183670787
20
24.8047333835838
30
0
41
1
10
68.9669417204923
20
24.876521792045
30
0
41
1
10
69.6054882082898
20
24.9038807772651
30
0
41
1
10
70.3495320641075
20
24.8585587910653
30
0
41
1
10
71.1919434207271
20
24.7052931582552
30
0
41
1
10
71.8013850085131
20
24.5126398875564
30
0
41
1
10
72.1017783677026
20
24.395721138688
30
0
0
SPLINE
5
1B9
100
AcDbEntity
8
1
62
256
6
ByLayer
370
25
48
1
60
0
100
AcDbSpline
70
4
71
2
72
6
73
3
40
0
40
0
40
0
40
1
40
1
40
1
41
1
10
68.0974676424702
20
24.6890708748999
30
0
41
1
10
68.2185917321338
20
24.7265705659434
30
0
41
1
10
68.3418630544988
20
24.7562943178077
30
0
0
SPLINE
5
1BA
100
AcDbEntity
8
1
62
256
6
ByLayer
370
25
48
1
60
0
100
AcDbSpline
70
4
71
3
72
11
73
7
40
0
40
0
40
0
40
0
40
0.247465767873237
40
0.496677808512939
40
0.747660290705191
40
1
40
1
40
1
40
1
41
1
10
66.4339875450382
20
23.3224981750371
30
0
41
1
10
66.5048999093164
20
23.4979512781681
30
0
41
1
10
66.6848360166561
20
23.818451652886
30
0
41
1
10
67.0903752355037
20
24.209485485931
30
0
41
1
10
67.5712276460768
20
24.4977102165536
30
0
41
1
10
67.9163838364133
20
24.635285547623
30
0
41
1
10
68.0974664422957
20
24.6890705031692
30
0
0
SPLINE
5
1BB
100
AcDbEntity
8
1
62
256
6
ByLayer
370
25
48
1
60
0
100
AcDbSpline
70
4
71
3
72
11
73
7
40
0
40
0
40
0
40
0
40
0.252017818982359
40
0.502221086829441
40
0.750133104260349
40
1
40
1
40
1
40
1
41
1
10
66.3285735101936
20
23.3696443643998
30
0
41
1
10
66.3333348778255
20
23.3668078754245
30
0
41
1
10
66.3450884721445
20
23.3604948306575
30
0
41
1
10
66.3699650292508
20
23.3488040544862
30
0
41
1
10
66.4002891585453
20
23.3357890419783
30
0
41
1
10
66.4223051324457
20
23.326980455735
30
0
41
1
10
66.4339725203539
20
23.3224584743448
30
0
0
SPLINE
5
1BC
100
AcDbEntity
8
1
62
256
6
ByLayer
370
25
48
1
60
0
100
AcDbSpline
70
4
71
2
72
6
73
3
40
0
40
0
40
0
40
1
40
1
40
1
41
1
10
75.6586735317024
20
19.8005589928752
30
0
41
1
10
74.6563570335905
20
20.1838777531892
30
0
41
1
10
73.6549458546276
20
20.5671411196388
30
0
0
SPLINE
5
1BD
100
AcDbEntity
8
1
62
256
6
ByLayer
370
25
48
1
60
0
100
AcDbSpline
70
4
71
3
72
16
73
12
40
0
40
0
40
0
40
0
40
0.107450599074294
40
0.214901004748252
40
0.322352464331348
40
0.429803887558207
40
0.537240483531304
40
0.644676792431719
40
0.752077626619428
40
0.859478601704999
40
1
40
1
40
1
40
1
41
1
10
73.6549399566464
20
20.5671255221401
30
0
41
1
10
73.7099199168418
20
20.7159958902519
30
0
41
1
10
73.7939735846715
20
21.0181432974748
30
0
41
1
10
73.8440796661057
20
21.4907098121998
30
0
41
1
10
73.8129790641798
20
21.9642519470013
30
0
41
1
10
73.704962769953
20
22.4269249289778
30
0
41
1
10
73.5199306090897
20
22.864461168724
30
0
41
1
10
73.2660936068038
20
23.26581344731
30
0
41
1
10
72.9483851598217
20
23.6176767866847
30
0
41
1
10
72.5384332952664
20
23.9432008470046
30
0
41
1
10
72.2172772625347
20
24.1083871803557
30
0
41
1
10
72.0227131203073
20
24.1832442918167
30
0
0
SPLINE
5
1BE
100
AcDbEntity
8
1
62
256
6
ByLayer
370
25
48
1
60
0
100
AcDbSpline
70
4
71
2
72
6
73
3
40
0
40
0
40
0
40
1
40
1
40
1
41
1
10
72.1017838916694
20
24.3957428180944
30
0
41
1
10
72.0622215996293
20
24.2894841356574
30
0
41
1
10
72.0227130025508
20
24.18324397289
30
0
0
SPLINE
5
1BF
100
AcDbEntity
8
1
62
256
6
ByLayer
370
25
48
1
60
0
100
AcDbSpline
70
4
71
3
72
29
73
25
40
0
40
0
40
0
40
0
40
0.0303069911214213
40
0.0608081219223751
40
0.0914676739709174
40
0.1223240521554
40
0.153382574072638
40
0.184584026438851
40
0.247214750840695
40
0.310146355001872
40
0.373279482365399
40
0.436517884020757
40
0.49979937813889
40
0.563091221629925
40
0.626336231927957
40
0.689495325756546
40
0.752470414293291
40
0.794323866804156
40
0.836003513988286
40
0.877432054496156
40
0.908335035392691
40
0.939067734798508
40
0.969591961803698
40
1
40
1
40
1
40
1
41
1
10
66.162762182623
20
23.4690147873132
30
0
41
1
10
66.2134871029414
20
23.6001811727481
30
0
41
1
10
66.3364454149862
20
23.8491786634036
30
0
41
1
10
66.5917392945815
20
24.1842863965078
30
0
41
1
10
66.9003316671878
20
24.471365431149
30
0
41
1
10
67.250626841707
20
24.7095330438265
30
0
41
1
10
67.6306873729352
20
24.9006309202644
30
0
41
1
10
68.1654033814285
20
25.0982943659774
30
0
41
1
10
68.8691290051533
20
25.2437438185554
30
0
41
1
10
69.731247157602
20
25.2847396707392
30
0
41
1
10
70.5942068547743
20
25.2108248872964
30
0
41
1
10
71.4443081052249
20
25.0354115255571
30
0
41
1
10
72.2713174988563
20
24.7672483334841
30
0
41
1
10
73.065586906922
20
24.411708271016
30
0
41
1
10
73.8170340300116
20
23.9718649970595
30
0
41
1
10
74.5116380322096
20
23.4473873130081
30
0
41
1
10
75.0643065772167
20
22.9059001921873
30
0
41
1
10
75.4821284663715
20
22.376667385244
30
0
41
1
10
75.7835166087445
20
21.8859793473321
30
0
41
1
10
75.9948910462263
20
21.4038805446364
30
0
41
1
10
76.1197181778959
20
20.9452054453038
30
0
41
1
10
76.172249733903
20
20.5233819833808
30
0
41
1
10
76.1535850836833
20
20.099538260913
30
0
41
1
10
76.0895266513754
20
19.8281730550483
30
0
41
1
10
76.0450907178168
20
19.6942352168565
30
0
0
SPLINE
5
1C0
100
AcDbEntity
8
1
62
256
6
ByLayer
370
25
48
1
60
0
100
AcDbSpline
70
4
71
1
72
4
73
2
40
0
40
0
40
1
40
1
41
1
10
76.0458879639061
20
19.6938793910968
30
0
41
1
10
75.7824997940684
20
19.7595443916447
30
0
0
SPLINE
5
1C1
100
AcDbEntity
8
1
62
256
6
ByLayer
370
25
48
1
60
0
100
AcDbSpline
70
4
71
3
72
12
73
8
40
0
40
0
40
0
40
0
40
0.252178968207667
40
0.50317535348089
40
0.752159520477647
40
0.876356953690835
40
1
40
1
40
1
40
1
41
1
10
66.9155048351439
20
20.9653985149153
30
0
41
1
10
66.7935314674101
20
21.1391512125923
30
0
41
1
10
66.5861935253953
20
21.5012446317806
30
0
41
1
10
66.3645760088049
20
22.092199530313
30
0
41
1
10
66.3009829397582
20
22.6142900437198
30
0
41
1
10
66.3432840300858
20
23.027383463576
30
0
41
1
10
66.398336350349
20
23.2252287384034
30
0
41
1
10
66.433987545173
20
23.3224981753875
30
0
0
SPLINE
5
1C2
100
AcDbEntity
8
1
62
256
6
ByLayer
370
25
48
1
60
0
100
AcDbSpline
70
4
71
3
72
12
73
8
40
0
40
0
40
0
40
0
40
0.250369910501461
40
0.500618654644856
40
0.667350117313389
40
0.833808526623576
40
1
40
1
40
1
40
1
41
1
10
69.9773771069935
20
18.6899673962616
30
0
41
1
10
69.6744682356706
20
18.8052363774018
30
0
41
1
10
69.0893775363199
20
19.0727458664079
30
0
41
1
10
68.3553108129925
20
19.5279488693979
30
0
41
1
10
67.7665539245554
20
19.9979237572441
30
0
41
1
10
67.3051507776924
20
20.451227435914
30
0
41
1
10
67.0391620670084
20
20.7883136976646
30
0
41
1
10
66.9155098836233
20
20.9653911719719
30
0
0
SPLINE
5
1C3
100
AcDbEntity
8
1
62
256
6
ByLayer
370
25
48
1
60
0
100
AcDbSpline
70
4
71
2
72
6
73
3
40
0
40
0
40
0
40
1
40
1
40
1
41
1
10
69.9773850995574
20
18.6899643409825
30
0
41
1
10
70.696867971979
20
18.4143635322062
30
0
41
1
10
71.4558944711273
20
18.2898734232979
30
0
0
SPLINE
5
1C4
100
AcDbEntity
8
1
62
256
6
ByLayer
370
25
48
1
60
0
100
AcDbSpline
70
4
71
3
72
13
73
9
40
0
40
0
40
0
40
0
40
0.251078778479758
40
0.501631794140941
40
0.626755567161853
40
0.751610256057962
40
0.87603856312703
40
1
40
1
40
1
40
1
41
1
10
71.4558971293236
20
18.2898729925921
30
0
41
1
10
71.7586942674292
20
18.239052340633
30
0
41
1
10
72.3629509495322
20
18.183977723841
30
0
41
1
10
73.125919740177
20
18.2205308930387
30
0
41
1
10
73.7225110958862
20
18.3317923854484
30
0
41
1
10
74.1578214294147
20
18.4606731556898
30
0
41
1
10
74.5747892127835
20
18.6401005818168
30
0
41
1
10
74.8292792249646
20
18.7998911871369
30
0
41
1
10
74.9515324459199
20
18.8891456607207
30
0
0
SPLINE
5
1C5
100
AcDbEntity
8
1
62
256
6
ByLayer
370
25
48
1
60
0
100
AcDbSpline
70
4
71
2
72
6
73
3
40
0
40
0
40
0
40
1
40
1
40
1
41
1
10
74.951539661381
20
18.8891510521646
30
0
41
1
10
75.4030628285791
20
19.2157745503063
30
0
41
1
10
75.6300738626009
20
19.7270866689637
30
0
0
SPLINE
5
1C6
100
AcDbEntity
8
1
62
256
6
ByLayer
370
25
48
1
60
0
100
AcDbSpline
70
4
71
2
72
6
73
3
40
0
40
0
40
0
40
1
40
1
40
1
41
1
10
75.6302095931547
20
19.7274088840217
30
0
41
1
10
75.6381376024046
20
19.7461478084475
30
0
41
1
10
75.6456267941988
20
19.7650709729657
30
0
0
SPLINE
5
1C7
100
AcDbEntity
8
1
62
256
6
ByLayer
370
25
48
1
60
0
100
AcDbSpline
70
4
71
1
72
4
73
2
40
0
40
0
40
1
40
1
41
1
10
75.7823794491868
20
19.759221682631
30
0
41
1
10
75.7531395270247
20
19.685394717228
30
0
0
SPLINE
5
1C8
100
AcDbEntity
8
1
62
256
6
ByLayer
370
25
48
1
60
0
100
AcDbSpline
70
4
71
3
72
28
73
24
40
0
40
0
40
0
40
0
40
0.0317493857094075
40
0.0634034164477776
40
0.0949465426906186
40
0.126392666218047
40
0.168143687743797
40
0.209809901357945
40
0.251372508486981
40
0.31358648249689
40
0.375747110985258
40
0.437858574486639
40
0.499945113631577
40
0.562044333461499
40
0.624148024920425
40
0.686327801168765
40
0.748563641531794
40
0.810921694961614
40
0.873452225625596
40
0.904887155424417
40
0.936478399883009
40
0.96820187604048
40
1
40
1
40
1
40
1
41
1
10
66.3285663027339
20
23.3696252088347
30
0
41
1
10
66.2808449672255
20
23.2380749483901
30
0
41
1
10
66.2126753245628
20
22.9719437995223
30
0
41
1
10
66.1955091316259
20
22.5553805438429
30
0
41
1
10
66.2514715692926
20
22.145467277843
30
0
41
1
10
66.3813404799691
20
21.7064896628497
30
0
41
1
10
66.5924626537401
20
21.2506948341353
30
0
41
1
10
66.8870596390356
20
20.7915228102437
30
0
41
1
10
67.2882289554481
20
20.3006039646504
30
0
41
1
10
67.8112756520819
20
19.800253421934
30
0
41
1
10
68.4633999725418
20
19.3168339284796
30
0
41
1
10
69.1639635779706
20
18.9098909369284
30
0
41
1
10
69.9021870358838
20
18.5789494359461
30
0
41
1
10
70.6697190463659
20
18.3257320958495
30
0
41
1
10
71.4593022011375
20
18.1538986579528
30
0
41
1
10
72.2633470338381
20
18.071672709292
30
0
41
1
10
73.0725107257833
20
18.0895943255375
30
0
41
1
10
73.8721436435953
20
18.2257728794011
30
0
41
1
10
74.5108834849847
20
18.4608283604162
30
0
41
1
10
74.9774826295832
20
18.7402136663409
30
0
41
1
10
75.2955987728772
20
19.0003380586024
30
0
41
1
10
75.5659036739607
20
19.3155674092411
30
0
41
1
10
75.6978175606532
20
19.5564593872514
30
0
41
1
10
75.7529860233245
20
19.685147470089
30
0
0
SPLINE
5
1C9
100
AcDbEntity
8
1
62
256
6
ByLayer
370
25
48
1
60
0
100
AcDbSpline
70
4
71
2
72
6
73
3
40
0
40
0
40
0
40
1
40
1
40
1
41
1
10
76.0462782907284
20
19.6937974796039
30
0
41
1
10
76.0378467519133
20
19.6711435602071
30
0
41
1
10
76.0289108855942
20
19.6486889820138
30
0
0
SPLINE
5
1CA
100
AcDbEntity
8
1
62
256
6
ByLayer
370
25
48
1
60
0
100
AcDbSpline
70
4
71
2
72
6
73
3
40
0
40
0
40
0
40
1
40
1
40
1
41
1
10
76.0289108855942
20
19.6486889820138
30
0
41
1
10
76.0226927681547
20
19.633063588957
30
0
41
1
10
76.0162330729945
20
19.6175390454453
30
0
0
SPLINE
5
1CB
100
AcDbEntity
8
1
62
256
6
ByLayer
370
25
48
1
60
0
100
AcDbSpline
70
4
71
3
72
29
73
25
40
0
40
0
40
0
40
0
40
0.0321034229737118
40
0.064053126388766
40
0.0958313503932097
40
0.127443797899927
40
0.169305529936447
40
0.210994261336655
40
0.252492227783898
40
0.314519888607038
40
0.37642591393529
40
0.438242985340137
40
0.500016808888652
40
0.561802113899719
40
0.623606041287105
40
0.685522857230175
40
0.747557764123523
40
0.789061066400417
40
0.830715375935437
40
0.872552529159104
40
0.904133469522188
40
0.935916174881387
40
0.967901820896369
40
1
40
1
40
1
40
1
41
1
10
66.1627350107715
20
23.4689672786264
30
0
41
1
10
66.1116005187843
20
23.3288051897264
30
0
41
1
10
66.0374806792649
20
23.0453442090609
30
0
41
1
10
66.0130085870645
20
22.6021408234282
30
0
41
1
10
66.0649123398326
20
22.1653238994467
30
0
41
1
10
66.1941207177245
20
21.6972316805271
30
0
41
1
10
66.4097913056515
20
21.2112186996819
30
0
41
1
10
66.7141916144882
20
20.7218848550225
30
0
41
1
10
67.1312603057519
20
20.1997165079234
30
0
41
1
10
67.6774233780073
20
19.6684865970745
30
0
41
1
10
68.3604283379601
20
19.156427075235
30
0
41
1
10
69.0953186854745
20
18.7266056684861
30
0
41
1
10
69.8705015291326
20
18.3783196930055
30
0
41
1
10
70.6770386711938
20
18.1133148748428
30
0
41
1
10
71.5072576239871
20
17.9355503306709
30
0
41
1
10
72.3530281441793
20
17.8541176902371
30
0
41
1
10
73.1097368499102
20
17.8774500767586
30
0
41
1
10
73.7646667180958
20
17.9806548511228
30
0
41
1
10
74.3146112067563
20
18.1344903610486
30
0
41
1
10
74.7973742343088
20
18.3446762568809
30
0
41
1
10
75.2052780436082
20
18.5997843575252
30
0
41
1
10
75.5378845495896
20
18.8825669948893
30
0
41
1
10
75.8196756393973
20
19.2226037704722
30
0
41
1
10
75.958166453665
20
19.4802709917427
30
0
41
1
10
76.0162337605268
20
19.6175387044792
30
0
0
SPLINE
5
1CC
100
AcDbEntity
8
1
62
256
6
ByLayer
370
25
48
1
60
0
100
AcDbSpline
70
4
71
1
72
4
73
2
40
0
40
0
40
1
40
1
41
1
10
71.6469105119842
20
24.2972957934065
30
0
41
1
10
72.0227131228692
20
24.1832442912511
30
0
0
SPLINE
5
1CD
100
AcDbEntity
8
1
62
256
6
ByLayer
370
25
48
1
60
0
100
AcDbSpline
70
4
71
2
72
6
73
3
40
0
40
0
40
0
40
1
40
1
40
1
41
1
10
73.1773270478327
20
19.7463743831433
30
0
41
1
10
73.4854343517876
20
20.1139645285723
30
0
41
1
10
73.6549403615992
20
20.567125964091
30
0
0
SPLINE
5
1CE
100
AcDbEntity
8
1
62
256
6
ByLayer
370
25
48
1
60
0
100
AcDbSpline
70
4
71
3
72
10
73
6
40
0
40
0
40
0
40
0
40
0.387491147793306
40
0.774981858087663
40
1
40
1
40
1
40
1
41
1
10
70.0714053377806
20
18.9423465970351
30
0
41
1
10
69.9236523440143
20
18.9992511902672
30
0
41
1
10
69.6420388520243
20
19.1353208108756
30
0
41
1
10
69.3088087616606
20
19.3716901910083
30
0
41
1
10
69.1275782579528
20
19.5410414079268
30
0
41
1
10
69.0636537327821
20
19.6068265332006
30
0
0
SPLINE
5
1CF
100
AcDbEntity
8
1
62
256
6
ByLayer
370
25
48
1
60
0
100
AcDbSpline
70
4
71
3
72
12
73
8
40
0
40
0
40
0
40
0
40
0.0906839482879833
40
0.305888811519349
40
0.521034358004329
40
0.736179337798306
40
1
40
1
40
1
40
1
41
1
10
69.0942143655585
20
23.5699867257313
30
0
41
1
10
69.1413165211185
20
23.6163458787085
30
0
41
1
10
69.3049379582006
20
23.7664386336611
30
0
41
1
10
69.6135466946795
20
23.9892584891343
30
0
41
1
10
70.0367181213288
20
24.1943150967316
30
0
41
1
10
70.5235623860399
20
24.3362508111529
30
0
41
1
10
70.8689822710556
20
24.3682022705434
30
0
41
1
10
71.0635253068923
20
24.3663112740362
30
0
0
SPLINE
5
1D0
100
AcDbEntity
8
1
62
256
6
ByLayer
370
25
48
1
60
0
100
AcDbSpline
70
4
71
2
72
6
73
3
40
0
40
0
40
0
40
1
40
1
40
1
41
1
10
71.0635253068922
20
24.3663112740339
30
0
41
1
10
71.3597532682924
20
24.3626882353997
30
0
41
1
10
71.6469105119842
20
24.2972957934065
30
0
0
SPLINE
5
1D1
100
AcDbEntity
8
1
62
256
6
ByLayer
370
25
48
1
60
0
100
AcDbSpline
70
4
71
3
72
13
73
9
40
0
40
0
40
0
40
0
40
0.192268897971865
40
0.384537902824613
40
0.576804054546211
40
0.769070555982174
40
0.961398680475787
40
1
40
1
40
1
40
1
41
1
10
71.0307680374231
20
18.759319702049
30
0
41
1
10
71.1886919311463
20
18.7579147854434
30
0
41
1
10
71.499614794761
20
18.7810748687925
30
0
41
1
10
71.957560435806
20
18.8941231558598
30
0
41
1
10
72.3880523673375
20
19.0842816275955
30
0
41
1
10
72.7816815961404
20
19.3430984888562
30
0
41
1
10
73.03332703635
20
19.580915876415
30
0
41
1
10
73.1570142053255
20
19.7223546838817
30
0
41
1
10
73.1773270478327
20
19.7463743831433
30
0
0
SPLINE
5
1D2
100
AcDbEntity
8
1
62
256
6
ByLayer
370
25
48
1
60
0
100
AcDbSpline
70
4
71
2
72
6
73
3
40
0
40
0
40
0
40
1
40
1
40
1
41
1
10
70.071405163213
20
18.9423462627693
30
0
41
1
10
70.5355039277157
20
18.7656170068136
30
0
41
1
10
71.0307680374232
20
18.759319702049
30
0
0
SPLINE
5
1D3
100
AcDbEntity
8
1
62
256
6
ByLayer
370
25
48
1
60
0
100
AcDbSpline
70
4
71
2
72
6
73
3
40
0
40
0
40
0
40
1
40
1
40
1
41
1
10
69.9773760344934
20
18.6899768231957
30
0
41
1
10
70.0243547551238
20
18.8161502539194
30
0
41
1
10
70.0714052791185
20
18.9423465785221
30
0
0
SPLINE
5
1D4
100
AcDbEntity
8
1
62
256
6
ByLayer
370
25
48
1
60
0
100
AcDbSpline
70
4
71
2
72
6
73
3
40
0
40
0
40
0
40
1
40
1
40
1
41
1
10
79.9856485125053
20
19.771627467847
30
0
41
1
10
79.7360292543493
20
19.9220063447685
30
0
41
1
10
79.5155170015143
20
20.1150960148467
30
0
0
SPLINE
5
1D5
100
AcDbEntity
8
1
62
256
6
ByLayer
370
25
48
1
60
0
100
AcDbSpline
70
4
71
2
72
6
73
3
40
0
40
0
40
0
40
1
40
1
40
1
41
1
10
79.620550493783
20
20.2318662360707
30
0
41
1
10
79.56577179716
20
20.176255877805
30
0
41
1
10
79.5155712397465
20
20.1151307955576
30
0
0
SPLINE
5
1D6
100
AcDbEntity
8
1
62
256
6
ByLayer
370
25
48
1
60
0
100
AcDbSpline
70
4
71
3
72
10
73
6
40
0
40
0
40
0
40
0
40
0.258245997025265
40
0.516515175482174
40
1
40
1
40
1
40
1
41
1
10
80.0650599634462
20
19.9348209969058
30
0
41
1
10
80.0590888376557
20
19.9211298252172
30
0
41
1
10
80.0466806570666
20
19.8935192890429
30
0
41
1
10
80.0206277673081
20
19.8386660546895
30
0
41
1
10
79.9998687423383
20
19.7981477961196
30
0
41
1
10
79.9856485091746
20
19.7716274616439
30
0
0
SPLINE
5
1D7
100
AcDbEntity
8
1
62
256
6
ByLayer
370
25
48
1
60
0
100
AcDbSpline
70
4
71
2
72
6
73
3
40
0
40
0
40
0
40
1
40
1
40
1
41
1
10
78.5243918848863
20
20.441277767983
30
0
41
1
10
78.4775710242137
20
20.3617825797723
30
0
41
1
10
78.4311197097777
20
20.2741701391164
30
0
0
SPLINE
5
1D8
100
AcDbEntity
8
1
62
256
6
ByLayer
370
25
48
1
60
0
100
AcDbSpline
70
4
71
3
72
11
73
7
40
0
40
0
40
0
40
0
40
0.16617154013155
40
0.330826838798585
40
0.498314964911721
40
1
40
1
40
1
40
1
41
1
10
78.202506373466
20
17.6699603098894
30
0
41
1
10
78.2752379276605
20
17.8053978751004
30
0
41
1
10
78.4200353517334
20
18.0750383045799
30
0
41
1
10
78.6381242169722
20
18.4811984171449
30
0
41
1
10
79.0030722716295
20
19.1608126856031
30
0
41
1
10
79.2959463940867
20
19.706228880801
30
0
41
1
10
79.5155169071967
20
20.1151321821962
30
0
0
SPLINE
5
1D9
100
AcDbEntity
8
1
62
256
6
ByLayer
370
25
48
1
60
0
100
AcDbSpline
70
4
71
1
72
4
73
2
40
0
40
0
40
1
40
1
41
1
10
79.9856479377177
20
19.7716265119144
30
0
41
1
10
78.7032261616993
20
17.3835247395835
30
0
0
SPLINE
5
1DA
100
AcDbEntity
8
1
62
256
6
ByLayer
370
25
48
1
60
0
100
AcDbSpline
70
4
71
3
72
27
73
23
40
0
40
0
40
0
40
0
40
0.435628308107875
40
0.590195819780143
40
0.751418334154033
40
0.9207856464175
40
0.920808674345437
40
0.920811083114444
40
0.920815289606708
40
0.920824849836987
40
0.920843970383225
40
0.920882211818599
40
0.920958696060501
40
0.921111670025246
40
0.921417639851348
40
0.922029666873558
40
0.923254068699721
40
0.925704250425556
40
0.930610030076368
40
0.940442612681217
40
0.960188575569329
40
1
40
1
40
1
40
1
41
1
10
79.0482432931682
20
20.2001052882223
30
0
41
1
10
78.9567082589965
20
20.1891510681632
30
0
41
1
10
78.8332134994851
20
20.1861181230871
30
0
41
1
10
78.6761368911824
20
20.1995432307841
30
0
41
1
10
78.5760058996536
20
20.2193119025651
30
0
41
1
10
78.5096802373386
20
20.2409750454825
30
0
41
1
10
78.4766626793902
20
20.2541262576264
30
0
41
1
10
78.4766533849338
20
20.2541299498725
30
0
41
1
10
78.4766440883656
20
20.2541336368398
30
0
41
1
10
78.476634789029
20
20.2541373168321
30
0
41
1
10
78.4766254897407
20
20.2541409969461
30
0
41
1
10
78.4765993700669
20
20.254151334153
30
0
41
1
10
78.4765471303489
20
20.2541720114627
30
0
41
1
10
78.4764426493174
20
20.2542133773733
30
0
41
1
10
78.4762336810075
20
20.2542961545291
30
0
41
1
10
78.4758157197338
20
20.2544618897527
30
0
41
1
10
78.4749797016151
20
20.2547940818841
30
0
41
1
10
78.4733073059125
20
20.2554613355315
30
0
41
1
10
78.4699612272698
20
20.2568072126296
30
0
41
1
10
78.4632648223671
20
20.2595435719303
30
0
41
1
10
78.4498568335876
20
20.2651925520627
30
0
41
1
10
78.4384673968803
20
20.2702692511188
30
0
41
1
10
78.4309066962088
20
20.2737668298569
30
0
0
SPLINE
5
1DB
100
AcDbEntity
8
1
62
256
6
ByLayer
370
25
48
1
60
0
100
AcDbSpline
70
4
71
3
72
11
73
7
40
0
40
0
40
0
40
0
40
0.115773020652427
40
0.232215373164191
40
0.473429816966476
40
1
40
1
40
1
40
1
41
1
10
79.5155621600278
20
20.115142697934
30
0
41
1
10
79.5027005371897
20
20.1290039204702
30
0
41
1
10
79.4746016863292
20
20.1534778667749
30
0
41
1
10
79.4061610014739
20
20.1903287157706
30
0
41
1
10
79.2612661026201
20
20.216750604954
30
0
41
1
10
79.1367515635534
20
20.2169728678742
30
0
41
1
10
79.0482432931682
20
20.2001052882223
30
0
0
SPLINE
5
1DC
100
AcDbEntity
8
1
62
256
6
ByLayer
370
25
48
1
60
0
100
AcDbSpline
70
4
71
3
72
15
73
11
40
0
40
0
40
0
40
0
40
0.148027523402865
40
0.299218302123129
40
0.3709677583164
40
0.466989349298874
40
0.647538675083696
40
0.830202577365584
40
0.927564903365724
40
1
40
1
40
1
40
1
41
1
10
76.2780470063592
20
16.9160231357771
30
0
41
1
10
76.3871735425439
20
16.9160401422508
30
0
41
1
10
76.6074217169863
20
16.918120836475
30
0
41
1
10
76.8800424906566
20
16.9095252259633
30
0
41
1
10
77.113392107272
20
16.9260901243812
30
0
41
1
10
77.3652879130696
20
16.9700729017652
30
0
41
1
10
77.6822906502772
20
17.0971579847227
30
0
41
1
10
77.9462897348113
20
17.3160606504786
30
0
41
1
10
78.1074847881986
20
17.5193628492047
30
0
41
1
10
78.1754330376876
20
17.6239049124156
30
0
41
1
10
78.2025057223642
20
17.6699590976101
30
0
0
SPLINE
5
1DD
100
AcDbEntity
8
1
62
256
6
ByLayer
370
25
48
1
60
0
100
AcDbSpline
70
4
71
2
72
6
73
3
40
0
40
0
40
0
40
1
40
1
40
1
41
1
10
76.2781083335612
20
16.9159253199731
30
0
41
1
10
75.2337361816416
20
16.9147766272037
30
0
41
1
10
74.1934497958183
20
16.9159406240681
30
0
0
SPLINE
5
1DE
100
AcDbEntity
8
1
62
256
6
ByLayer
370
25
48
1
60
0
100
AcDbSpline
70
4
71
1
72
4
73
2
40
0
40
0
40
1
40
1
41
1
10
74.1934483828206
20
16.9159401193245
30
0
41
1
10
74.1094009523786
20
16.9161264406103
30
0
0
SPLINE
5
1DF
100
AcDbEntity
8
1
62
256
6
ByLayer
370
25
48
1
60
0
100
AcDbSpline
70
4
71
2
72
6
73
3
40
0
40
0
40
0
40
1
40
1
40
1
41
1
10
77.9276334782264
20
22.4454470779156
30
0
41
1
10
77.9342471134612
20
22.5078693619199
30
0
41
1
10
77.9348005600616
20
22.5858037583047
30
0
0
SPLINE
5
1E0
100
AcDbEntity
8
1
62
256
6
ByLayer
370
25
48
1
60
0
100
AcDbSpline
70
4
71
3
72
19
73
15
40
0
40
0
40
0
40
0
40
0.0162709888389292
40
0.0333108341163385
40
0.0730019514477196
40
0.182576407016521
40
0.330333452624392
40
0.499979793742805
40
0.66962613486052
40
0.817383180467836
40
0.926957636037902
40
0.966491494955848
40
0.983578442130808
40
1
40
1
40
1
40
1
41
1
10
77.9348005660694
20
22.5858037603277
30
0
41
1
10
77.9420688166904
20
22.5858493534493
30
0
41
1
10
77.9564709607948
20
22.5875833708746
30
0
41
1
10
77.986454057482
20
22.5996592011096
30
0
41
1
10
78.0421636156712
20
22.6487921573441
30
0
41
1
10
78.0992955325445
20
22.7696728730457
30
0
41
1
10
78.1421935862556
20
22.9526026188032
30
0
41
1
10
78.1580831138629
20
23.1673563343059
30
0
41
1
10
78.1446862765053
20
23.3823983848436
30
0
41
1
10
78.1040144970654
20
23.5663947620341
30
0
41
1
10
78.0481490677163
20
23.6882608653358
30
0
41
1
10
77.9933224839794
20
23.7389570160509
30
0
41
1
10
77.9634283880134
20
23.7516533646797
30
0
41
1
10
77.9489648471275
20
23.7537167018368
30
0
41
1
10
77.9416297904976
20
23.7539185744965
30
0
0
SPLINE
5
1E1
100
AcDbEntity
8
1
62
256
6
ByLayer
370
25
48
1
60
0
100
AcDbSpline
70
4
71
2
72
6
73
3
40
0
40
0
40
0
40
1
40
1
40
1
41
1
10
77.9360809217498
20
23.8899803292601
30
0
41
1
10
77.9419872087628
20
23.8317722677647
30
0
41
1
10
77.9416297885973
20
23.7539185738577
30
0
0
SPLINE
5
1E2
100
AcDbEntity
8
1
62
256
6
ByLayer
370
25
48
1
60
0
100
AcDbSpline
70
4
71
3
72
11
73
7
40
0
40
0
40
0
40
0
40
0.249999606962578
40
0.499999399850222
40
0.749999514092293
40
1
40
1
40
1
40
1
41
1
10
76.2922898116606
20
19.6124703382247
30
0
41
1
10
76.2689011646337
20
19.6213958026479
30
0
41
1
10
76.2230728098806
20
19.6383368645256
30
0
41
1
10
76.155233250902
20
19.66170654115
30
0
41
1
10
76.0941282215961
20
19.6809712271291
30
0
41
1
10
76.0611238940244
20
19.6900954836342
30
0
41
1
10
76.0462845973338
20
19.6938097442549
30
0
0
SPLINE
5
1E3
100
AcDbEntity
8
1
62
256
6
ByLayer
370
25
48
1
60
0
100
AcDbSpline
70
4
71
3
72
11
73
7
40
0
40
0
40
0
40
0
40
0.250006025313015
40
0.500009218413679
40
0.750007483681617
40
1
40
1
40
1
40
1
41
1
10
65.9514292634344
20
23.5635692906502
30
0
41
1
10
65.9748439601277
20
23.5545032507728
30
0
41
1
10
66.0192003024459
20
23.5367725693111
30
0
41
1
10
66.0801260171765
20
23.5106244611512
30
0
41
1
10
66.1300126980689
20
23.4871929725926
30
0
41
1
10
66.1533561007428
20
23.4746334093037
30
0
41
1
10
66.162762182623
20
23.4690147873132
30
0
0
SPLINE
5
1E4
100
AcDbEntity
8
1
62
256
6
ByLayer
370
25
48
1
60
0
100
AcDbSpline
70
4
71
3
72
19
73
15
40
0
40
0
40
0
40
0
40
0.0162709888366353
40
0.0333108341126331
40
0.0730019514441174
40
0.182576407014175
40
0.330333452621483
40
0.499979793739188
40
0.669626134857596
40
0.817383180465459
40
0.92695763603425
40
0.966491494952039
40
0.983578442128422
40
1
40
1
40
1
40
1
41
1
10
77.9416297904877
20
23.7539185744966
30
0
41
1
10
77.9343615398676
20
23.7538729813749
30
0
41
1
10
77.9199593957648
20
23.7521389639493
30
0
41
1
10
77.8899762990801
20
23.7400631337125
30
0
41
1
10
77.8342667408949
20
23.6909301774736
30
0
41
1
10
77.7771348240226
20
23.5700494617726
30
0
41
1
10
77.7342367703112
20
23.3871197160146
30
0
41
1
10
77.718347242704
20
23.1723660005124
30
0
41
1
10
77.7317440800617
20
22.9573239499743
30
0
41
1
10
77.7724158595014
20
22.7733275727842
30
0
41
1
10
77.8282812888512
20
22.6514614694821
30
0
41
1
10
77.8831078725923
20
22.600765318771
30
0
41
1
10
77.9130019685608
20
22.5880689701442
30
0
41
1
10
77.9274655094483
20
22.586005632987
30
0
41
1
10
77.9348005660793
20
22.5858037603276
30
0
0
SPLINE
5
1E5
100
AcDbEntity
8
1
62
256
6
ByLayer
370
25
48
1
60
0
100
AcDbSpline
70
4
71
2
72
6
73
3
40
0
40
0
40
0
40
1
40
1
40
1
41
1
10
79.0412676126028
20
20.3836297641358
30
0
41
1
10
79.0458068873895
20
20.2942113214812
30
0
41
1
10
79.0482416648953
20
20.2001685800272
30
0
0
SPLINE
5
1E6
100
AcDbEntity
8
1
62
256
6
ByLayer
370
25
48
1
60
0
100
AcDbSpline
70
4
71
1
72
4
73
2
40
0
40
0
40
1
40
1
41
1
10
74.3321793729561
20
16.8306339820339
30
0
41
1
10
74.4419364452219
20
16.8210720519697
30
0
0
SPLINE
5
1E7
100
AcDbEntity
8
1
62
256
6
ByLayer
370
25
48
1
60
0
100
AcDbSpline
70
4
71
2
72
6
73
3
40
0
40
0
40
0
40
1
40
1
40
1
41
1
10
73.6378730817023
20
16.8534910494729
30
0
41
1
10
74.0422863781808
20
16.8583397834498
30
0
41
1
10
74.4419429651821
20
16.8211042460736
30
0
0
SPLINE
5
1E8
100
AcDbEntity
8
1
62
256
6
ByLayer
370
25
48
1
60
0
100
AcDbSpline
70
4
71
3
72
11
73
7
40
0
40
0
40
0
40
0
40
0.266444477389697
40
0.531097369955728
40
0.783518603716398
40
1
40
1
40
1
40
1
41
1
10
72.1151916399132
20
16.7648849406563
30
0
41
1
10
72.2431126492004
20
16.8066436918944
30
0
41
1
10
72.5031328303823
20
16.8705437597097
30
0
41
1
10
72.91070402578
20
16.909896550504
30
0
41
1
10
73.2890492398986
20
16.891352717816
30
0
41
1
10
73.5280438354789
20
16.8681573680005
30
0
41
1
10
73.6378471343676
20
16.8534823840159
30
0
0
SPLINE
5
1E9
100
AcDbEntity
8
1
62
256
6
ByLayer
370
25
48
1
60
0
100
AcDbSpline
70
4
71
3
72
11
73
7
40
0
40
0
40
0
40
0
40
0.249993332827339
40
0.499996743845518
40
0.750000003201507
40
1
40
1
40
1
40
1
41
1
10
65.96439271316
20
16.9249069047185
30
0
41
1
10
65.9752069170798
20
17.0018596576129
30
0
41
1
10
65.9942434741646
20
17.1697404071856
30
0
41
1
10
66.015482868348
20
17.4688811301108
30
0
41
1
10
66.0280222721118
20
17.7991423357664
30
0
41
1
10
66.0302319994768
20
18.027198365953
30
0
41
1
10
66.0298285610459
20
18.1442680901733
30
0
0
SPLINE
5
1EA
100
AcDbEntity
8
1
62
256
6
ByLayer
370
25
48
1
60
0
100
AcDbSpline
70
4
71
2
72
6
73
3
40
0
40
0
40
0
40
1
40
1
40
1
41
1
10
66.4340022737325
20
23.322537886241
30
0
41
1
10
67.4131094467609
20
22.948341563417
30
0
41
1
10
68.3937985781009
20
22.5757610684854
30
0
0
SPLINE
5
1EB
100
AcDbEntity
8
1
62
256
6
ByLayer
370
25
48
1
60
0
100
AcDbSpline
70
4
71
1
72
4
73
2
40
0
40
0
40
1
40
1
41
1
10
76.2522440520289
20
16.2861365172176
30
0
41
1
10
76.2780968163226
20
16.9159243767035
30
0
0
SPLINE
5
1EC
100
AcDbEntity
8
1
62
256
6
ByLayer
370
25
48
1
60
0
100
AcDbSpline
70
4
71
3
72
10
73
6
40
0
40
0
40
0
40
0
40
0.325034551193422
40
0.659531940046155
40
1
40
1
40
1
40
1
41
1
10
77.9832500721172
20
16.4908463169954
30
0
41
1
10
77.9130076405043
20
16.4495851127415
30
0
41
1
10
77.7661708727169
20
16.3788274696335
30
0
41
1
10
77.5261127000337
20
16.3103151963512
30
0
41
1
10
77.3606077589249
20
16.2931508516559
30
0
41
1
10
77.2755176874398
20
16.2916980763056
30
0
0
SPLINE
5
1ED
100
AcDbEntity
8
1
62
256
6
ByLayer
370
25
48
1
60
0
100
AcDbSpline
70
4
71
2
72
6
73
3
40
0
40
0
40
0
40
1
40
1
40
1
41
1
10
78.5377284190959
20
17.0732276186978
30
0
41
1
10
78.3407695564502
20
16.7046149672991
30
0
41
1
10
77.9832500721172
20
16.4908463169954
30
0
0
SPLINE
5
1EE
100
AcDbEntity
8
1
62
256
6
ByLayer
370
25
48
1
60
0
100
AcDbSpline
70
4
71
1
72
4
73
2
40
0
40
0
40
1
40
1
41
1
10
78.703226161704
20
17.3835247395914
30
0
41
1
10
78.5377284193617
20
17.0732276185506
30
0
0
SPLINE
5
1EF
100
AcDbEntity
8
1
62
256
6
ByLayer
370
25
48
1
60
0
100
AcDbSpline
70
4
71
3
72
10
73
6
40
0
40
0
40
0
40
0
40
0.307414144422962
40
0.642515280506498
40
1
40
1
40
1
40
1
41
1
10
77.2755176645874
20
16.2917031391808
30
0
41
1
10
77.1709774918403
20
16.2919096270607
30
0
41
1
10
76.9522716768227
20
16.2918133624743
30
0
41
1
10
76.6107703216351
20
16.2886279962376
30
0
41
1
10
76.374353182641
20
16.2870273687451
30
0
41
1
10
76.2522704641317
20
16.2861130367893
30
0
0
SPLINE
5
1F0
100
AcDbEntity
8
1
62
256
6
ByLayer
370
25
48
1
60
0
100
AcDbSpline
70
4
71
3
72
15
73
11
40
0
40
0
40
0
40
0
40
0.249794093845511
40
0.499703537498283
40
0.587214609985735
40
0.674745409329447
40
0.770691502505208
40
0.892159094472907
40
0.970498072622959
40
1
40
1
40
1
40
1
41
1
10
72.259318203267
20
16.7393850403154
30
0
41
1
10
72.3658778874738
20
16.7720398338657
30
0
41
1
10
72.5827823680273
20
16.822316546503
30
0
41
1
10
72.8523185844723
20
16.8414955257198
30
0
41
1
10
73.0459367786971
20
16.8425129486136
30
0
41
1
10
73.1694132717407
20
16.8414914152986
30
0
41
1
10
73.3080800882188
20
16.8377251287572
30
0
41
1
10
73.4422521722034
20
16.8323842045274
30
0
41
1
10
73.5460180051223
20
16.8272529758599
30
0
41
1
10
73.5947558184153
20
16.8247275670687
30
0
41
1
10
73.608084184936
20
16.8240239124705
30
0
0
SPLINE
5
1F1
100
AcDbEntity
8
1
62
256
6
ByLayer
370
25
48
1
60
0
100
AcDbSpline
70
4
71
2
72
6
73
3
40
0
40
0
40
0
40
1
40
1
40
1
41
1
10
75.0202579562255
20
16.3867388777479
30
0
41
1
10
74.3148521978688
20
16.6068446291672
30
0
41
1
10
73.6080812268264
20
16.8240006019494
30
0
0
SPLINE
5
1F2
100
AcDbEntity
8
1
62
256
6
ByLayer
370
25
48
1
60
0
100
AcDbSpline
70
4
71
3
72
11
73
7
40
0
40
0
40
0
40
0
40
0.278329363296325
40
0.524738982006968
40
0.775060958483781
40
1
40
1
40
1
40
1
41
1
10
75.5161959276658
20
16.3892169143867
30
0
41
1
10
75.4064743292881
20
16.4674145906989
30
0
41
1
10
75.192584459625
20
16.6015694521261
30
0
41
1
10
74.8564367511425
20
16.7647766457151
30
0
41
1
10
74.5274052816287
20
16.8803823566629
30
0
41
1
10
74.3021194416599
20
16.9103185058231
30
0
41
1
10
74.1934497200853
20
16.9159383592596
30
0
0
SPLINE
5
1F3
100
AcDbEntity
8
1
62
256
6
ByLayer
370
25
48
1
60
0
100
AcDbSpline
70
4
71
1
72
4
73
2
40
0
40
0
40
1
40
1
41
1
10
76.2522426823185
20
16.2860187983844
30
0
41
1
10
76.1164274995269
20
16.285087012098
30
0
0
SPLINE
5
1F4
100
AcDbEntity
8
1
62
256
6
ByLayer
370
25
48
1
60
0
100
AcDbSpline
70
4
71
1
72
4
73
2
40
0
40
0
40
1
40
1
41
1
10
74.4419397800181
20
16.821105041367
30
0
41
1
10
74.1934926378788
20
16.9160582200435
30
0
0
SPLINE
5
1F5
100
AcDbEntity
8
1
62
256
6
ByLayer
370
25
48
1
60
0
100
AcDbSpline
70
4
71
3
72
18
73
14
40
0
40
0
40
0
40
0
40
0.204661343899701
40
0.261831887910948
40
0.319303922302761
40
0.341425825110718
40
0.356298624988874
40
0.371305515699029
40
0.384031641383464
40
0.40483804280339
40
0.456349665416254
40
0.642522104769056
40
1
40
1
40
1
40
1
41
1
10
73.6080818528865
20
16.8240025073671
30
0
41
1
10
73.601463426906
20
16.8257009327303
30
0
41
1
10
73.5934372893751
20
16.8287817093493
30
0
41
1
10
73.5841570157813
20
16.8336064908811
30
0
41
1
10
73.5804662400342
20
16.8362381948403
30
0
41
1
10
73.5786076195372
20
16.8387142187936
30
0
41
1
10
73.5780527697718
20
16.8403237296973
30
0
41
1
10
73.578137178316
20
16.8417326543077
30
0
41
1
10
73.5788206739316
20
16.8431749598925
30
0
41
1
10
73.5807960818633
20
16.8451955652474
30
0
41
1
10
73.5885748115194
20
16.8489837254315
30
0
41
1
10
73.6081908323048
20
16.8521317572404
30
0
41
1
10
73.6259013713405
20
16.8539317369764
30
0
41
1
10
73.6378731625978
20
16.8534844039649
30
0
0
SPLINE
5
1F6
100
AcDbEntity
8
1
62
256
6
ByLayer
370
25
48
1
60
0
100
AcDbSpline
70
4
71
3
72
11
73
7
40
0
40
0
40
0
40
0
40
0.261500736047953
40
0.521491341246707
40
0.775377129482073
40
1
40
1
40
1
40
1
41
1
10
69.9208894864012
20
26.4151056866694
30
0
41
1
10
69.8212934790769
20
26.3850482575657
30
0
41
1
10
69.6144150327218
20
26.3396264011071
30
0
41
1
10
69.2726027688766
20
26.3237765860002
30
0
41
1
10
68.9423538640346
20
26.3328325330492
30
0
41
1
10
68.7267213964225
20
26.3422304809265
30
0
41
1
10
68.6250449352077
20
26.3482634578301
30
0
0
SPLINE
5
1F7
100
AcDbEntity
8
1
62
256
6
ByLayer
370
25
48
1
60
0
100
AcDbSpline
70
4
71
1
72
4
73
2
40
0
40
0
40
1
40
1
41
1
10
66.851902530703
20
26.9026678984764
30
0
41
1
10
68.6250415412441
20
26.3482887766327
30
0
0
SPLINE
5
1F8
100
AcDbEntity
8
1
62
256
6
ByLayer
370
25
48
1
60
0
100
AcDbSpline
70
4
71
3
72
12
73
8
40
0
40
0
40
0
40
0
40
0.173069520369265
40
0.33684160748131
40
0.500038912727152
40
0.745843059705397
40
1
40
1
40
1
40
1
41
1
10
66.8519716736826
20
26.9026760310527
30
0
41
1
10
66.9590452217127
20
26.9008324204059
30
0
41
1
10
67.1667161587325
20
26.8988885295572
30
0
41
1
10
67.4737045055984
20
26.899980774793
30
0
41
1
10
67.8212039175162
20
26.9082815154571
30
0
41
1
10
68.2126347556493
20
26.9316522539839
30
0
41
1
10
68.4906164803026
20
26.9606266777863
30
0
41
1
10
68.6281072193835
20
26.9784032654865
30
0
0
SPLINE
5
1F9
100
AcDbEntity
8
1
62
256
6
ByLayer
370
25
48
1
60
0
100
AcDbSpline
70
4
71
3
72
18
73
14
40
0
40
0
40
0
40
0
40
0.204674344106548
40
0.261848518790376
40
0.319324202987656
40
0.341447510945476
40
0.356321255441691
40
0.37132909929319
40
0.384056033141967
40
0.404863755603582
40
0.456378648556513
40
0.642562907780535
40
1
40
1
40
1
40
1
41
1
10
68.6250465360712
20
26.3482851997052
30
0
41
1
10
68.6316058495402
20
26.3465669036237
30
0
41
1
10
68.6396329173359
20
26.3434864397506
30
0
41
1
10
68.649004173647
20
26.338692242218
30
0
41
1
10
68.6527817336303
20
26.3360897109353
30
0
41
1
10
68.6547651230747
20
26.3336556282383
30
0
41
1
10
68.6554183628493
20
26.3320791912475
30
0
41
1
10
68.6554350402099
20
26.3307042467732
30
0
41
1
10
68.654870546302
20
26.3293019437472
30
0
41
1
10
68.6530880919596
20
26.3273461999498
30
0
41
1
10
68.6457748584262
20
26.3237145169232
30
0
41
1
10
68.6268743887942
20
26.3208066465617
30
0
41
1
10
68.6097255862611
20
26.319194910984
30
0
41
1
10
68.5980117682648
20
26.3197279131671
30
0
0
SPLINE
5
1FA
100
AcDbEntity
8
1
62
256
6
ByLayer
370
25
48
1
60
0
100
AcDbSpline
70
4
71
1
72
4
73
2
40
0
40
0
40
1
40
1
41
1
10
67.8490784077101
20
26.3514207537697
30
0
41
1
10
68.0876591461091
20
26.2602429469007
30
0
0
SPLINE
5
1FB
100
AcDbEntity
8
1
62
256
6
ByLayer
370
25
48
1
60
0
100
AcDbSpline
70
4
71
1
72
4
73
2
40
0
40
0
40
1
40
1
41
1
10
68.0516200012347
20
26.2603344572116
30
0
41
1
10
68.0877209649455
20
26.2602102336825
30
0
0
SPLINE
5
1FC
100
AcDbEntity
8
1
62
256
6
ByLayer
370
25
48
1
60
0
100
AcDbSpline
70
4
71
3
72
11
73
7
40
0
40
0
40
0
40
0
40
0.365740899833164
40
0.583332872012182
40
0.804395136667707
40
1
40
1
40
1
40
1
41
1
10
66.5796359096332
20
26.897703674176
30
0
41
1
10
66.7370739056924
20
26.7731629147513
30
0
41
1
10
67.0012402613472
20
26.5987186979881
30
0
41
1
10
67.3936587164526
20
26.4078505219147
30
0
41
1
10
67.7210468077567
20
26.2944912013631
30
0
41
1
10
67.9446342037682
20
26.2655613183893
30
0
41
1
10
68.0516801931283
20
26.2603078686054
30
0
0
SPLINE
5
1FD
100
AcDbEntity
8
1
62
256
6
ByLayer
370
25
48
1
60
0
100
AcDbSpline
70
4
71
2
72
6
73
3
40
0
40
0
40
0
40
1
40
1
40
1
41
1
10
66.8518731013793
20
26.9026777309533
30
0
41
1
10
66.7163283497132
20
26.8992869059378
30
0
41
1
10
66.5796478257581
20
26.8977244193683
30
0
0
SPLINE
5
1FE
100
AcDbEntity
8
1
62
256
6
ByLayer
370
25
48
1
60
0
100
AcDbSpline
70
4
71
3
72
19
73
15
40
0
40
0
40
0
40
0
40
0.594376115289187
40
0.889866333278429
40
0.963597929541066
40
0.972810615120429
40
0.977416637456555
40
0.979719569997292
40
0.979791535803588
40
0.979827640309444
40
0.979846316097759
40
0.97985583638129
40
0.985504352658842
40
1
40
1
40
1
40
1
41
1
10
62.2063718277984
20
20.8844768588476
30
0
41
1
10
62.392591285092
20
20.9165203883718
30
0
41
1
10
62.6734992422882
20
20.94019392519
30
0
41
1
10
62.9852575329868
20
20.9330546694742
30
0
41
1
10
63.1062140537018
20
20.9205822391903
30
0
41
1
10
63.134118264713
20
20.9172078235258
30
0
41
1
10
63.1392537831142
20
20.9165707400395
30
0
41
1
10
63.1414769482292
20
20.9162915247474
30
0
41
1
10
63.1422446887633
20
20.9161946770872
30
0
41
1
10
63.1422850489109
20
20.9161895866519
30
0
41
1
10
63.1423055238332
20
20.9161870011891
30
0
41
1
10
63.1441134475961
20
20.9159606390982
30
0
41
1
10
63.1505317237495
20
20.9151584955574
30
0
41
1
10
63.1569462937366
20
20.9143651465127
30
0
41
1
10
63.1615618011447
20
20.9137982632691
30
0
0
SPLINE
5
1FF
100
AcDbEntity
8
1
62
256
6
ByLayer
370
25
48
1
60
0
100
AcDbSpline
70
4
71
2
72
6
73
3
40
0
40
0
40
0
40
1
40
1
40
1
41
1
10
65.9941090254698
20
26.2695021807364
30
0
41
1
10
67.018091160979
20
26.263760164652
30
0
41
1
10
68.0516801930589
20
26.2603078710927
30
0
0
SPLINE
5
200
100
AcDbEntity
8
1
62
256
6
ByLayer
370
25
48
1
60
0
100
AcDbSpline
70
4
71
1
72
4
73
2
40
0
40
0
40
1
40
1
41
1
10
65.9957245211889
20
26.8911397316455
30
0
41
1
10
65.9941203334586
20
26.2695030536666
30
0
0
SPLINE
5
201
100
AcDbEntity
8
1
62
256
6
ByLayer
370
25
48
1
60
0
100
AcDbSpline
70
4
71
3
72
11
73
7
40
0
40
0
40
0
40
0
40
0.338439570947875
40
0.500003358542209
40
0.749763246918249
40
1
40
1
40
1
40
1
41
1
10
65.995721363472
20
26.8912559285798
30
0
41
1
10
66.0617992903626
20
26.8916376576714
30
0
41
1
10
66.1593619275186
20
26.8922991712659
30
0
41
1
10
66.3056903687398
20
26.8931523499203
30
0
41
1
10
66.4343418589015
20
26.8948592571561
30
0
41
1
10
66.5312421810977
20
26.8966630867727
30
0
41
1
10
66.5796475571756
20
26.8977248200999
30
0
0
SPLINE
5
202
100
AcDbEntity
8
1
62
256
6
ByLayer
370
25
48
1
60
0
100
AcDbSpline
70
4
71
3
72
27
73
23
40
0
40
0
40
0
40
0
40
0.435513750555717
40
0.590159308352798
40
0.751471579933493
40
0.920873792116394
40
0.920896698240552
40
0.920899105254609
40
0.920903307985974
40
0.920912859668362
40
0.920931963117181
40
0.92097017035103
40
0.921046586163003
40
0.921199423160886
40
0.921505118625051
40
0.922116595212354
40
0.923339889338442
40
0.925787828450014
40
0.930689014808374
40
0.940511983947876
40
0.960237041404065
40
1
40
1
40
1
40
1
41
1
10
63.2231508397687
20
22.9869095108296
30
0
41
1
10
63.3099338802179
20
22.9960437901284
30
0
41
1
10
63.4271820017606
20
22.9966335699595
30
0
41
1
10
63.5759813598227
20
22.9798642541355
30
0
41
1
10
63.6717364240673
20
22.9582791681311
30
0
41
1
10
63.7362036665009
20
22.9357994127491
30
0
41
1
10
63.7687225871215
20
22.9223996670184
30
0
41
1
10
63.768731836892
20
22.9223958642015
30
0
41
1
10
63.7687410885428
20
22.9223920659287
30
0
41
1
10
63.7687503429666
20
22.9223882744061
30
0
41
1
10
63.7687595973463
20
22.9223844827761
30
0
41
1
10
63.7687852876498
20
22.9223739566737
30
0
41
1
10
63.7688366691258
20
22.9223529017761
30
0
41
1
10
63.7689394356307
20
22.9223107814824
30
0
41
1
10
63.769144982744
20
22.9222264987447
30
0
41
1
10
63.7695561330401
20
22.9220577650836
30
0
41
1
10
63.7703786549597
20
22.9217196269898
30
0
41
1
10
63.7720245616658
20
22.9210406849695
30
0
41
1
10
63.7753196807162
20
22.9196722455677
30
0
41
1
10
63.7819222443824
20
22.9168940084776
30
0
41
1
10
63.7951751149737
20
22.9111743113038
30
0
41
1
10
63.8064901217967
20
22.9060583234729
30
0
41
1
10
63.8140272658953
20
22.9025442921825
30
0
0
SPLINE
5
203
100
AcDbEntity
8
1
62
256
6
ByLayer
370
25
48
1
60
0
100
AcDbSpline
70
4
71
3
72
11
73
7
40
0
40
0
40
0
40
0
40
0.11542937843236
40
0.231537466538027
40
0.472415256526353
40
1
40
1
40
1
40
1
41
1
10
62.7626282603724
20
23.0746656044211
30
0
41
1
10
62.7761289996594
20
23.0610145959839
30
0
41
1
10
62.8052429486725
20
23.0368707477783
30
0
41
1
10
62.8747607915257
20
23.0002877076044
30
0
41
1
10
63.0186184741626
20
22.9733629000079
30
0
41
1
10
63.1391330431726
20
22.9716062933518
30
0
41
1
10
63.2231508397687
20
22.9869095108296
30
0
0
SPLINE
5
204
100
AcDbEntity
8
1
62
256
6
ByLayer
370
25
48
1
60
0
100
AcDbSpline
70
4
71
3
72
11
73
7
40
0
40
0
40
0
40
0
40
0.166176033392612
40
0.330818509854452
40
0.498302720314977
40
1
40
1
40
1
40
1
41
1
10
64.0741280766679
20
25.5169520000921
30
0
41
1
10
64.0014808764102
20
25.3816712196273
30
0
41
1
10
63.8568589145427
20
25.112356980671
30
0
41
1
10
63.6390343669277
20
24.7066879981415
30
0
41
1
10
63.2745206512248
20
24.0278821980662
30
0
41
1
10
62.981990580053
20
23.4831053491606
30
0
41
1
10
62.7626755230334
20
23.0746765377483
30
0
0
SPLINE
5
205
100
AcDbEntity
8
1
62
256
6
ByLayer
370
25
48
1
60
0
100
AcDbSpline
70
4
71
3
72
15
73
11
40
0
40
0
40
0
40
0
40
0.148033963960667
40
0.299230643805246
40
0.370978072757185
40
0.466997370138556
40
0.647543192722627
40
0.830202748509912
40
0.92756297675169
40
1
40
1
40
1
40
1
41
1
10
65.9939426410047
20
26.2692711696334
30
0
41
1
10
65.8863059254268
20
26.2697507605598
30
0
41
1
10
65.6683663603523
20
26.2684382682805
30
0
41
1
10
65.3966981422159
20
26.277336461724
30
0
41
1
10
65.1632346224277
20
26.2607298864759
30
0
41
1
10
64.9113953145233
20
26.2167628123124
30
0
41
1
10
64.5943936774517
20
26.0896798774557
30
0
41
1
10
64.3304159822448
20
25.8707956849856
30
0
41
1
10
64.1692281219789
20
25.6675056528581
30
0
41
1
10
64.1012818662248
20
25.5629690877749
30
0
41
1
10
64.074209154852
20
25.5169159985446
30
0
0
SPLINE
5
206
100
AcDbEntity
8
1
62
256
6
ByLayer
370
25
48
1
60
0
100
AcDbSpline
70
4
71
1
72
4
73
2
40
0
40
0
40
1
40
1
41
1
10
68.0876569430516
20
26.2602297339419
30
0
41
1
10
68.1355398517468
20
26.2601314612447
30
0
0
SPLINE
5
207
100
AcDbEntity
8
1
62
256
6
ByLayer
370
25
48
1
60
0
100
AcDbSpline
70
4
71
3
72
10
73
6
40
0
40
0
40
0
40
0
40
0.36622024278254
40
0.743164862669045
40
1
40
1
40
1
40
1
41
1
10
62.1945307916218
20
23.2430380296085
30
0
41
1
10
62.168572153626
20
23.1628389866675
30
0
41
1
10
62.1084255839895
20
22.9976920471404
30
0
41
1
10
62.0052917821198
20
22.7650172419264
30
0
41
1
10
61.9308282829944
20
22.618165349869
30
0
41
1
10
61.8989804961373
20
22.5583716165739
30
0
0
SPLINE
5
208
100
AcDbEntity
8
1
62
256
6
ByLayer
370
25
48
1
60
0
100
AcDbSpline
70
4
71
1
72
4
73
2
40
0
40
0
40
1
40
1
41
1
10
62.1945248782395
20
23.243040521066
30
0
41
1
10
62.6598975211183
20
22.955750632232
30
0
0
SPLINE
5
209
100
AcDbEntity
8
1
62
256
6
ByLayer
370
25
48
1
60
0
100
AcDbSpline
70
4
71
3
72
10
73
6
40
0
40
0
40
0
40
0
40
0.261798199575651
40
0.517637008615498
40
1
40
1
40
1
40
1
41
1
10
62.6600305667911
20
22.9556338522984
30
0
41
1
10
62.7046308008767
20
22.9236597456856
30
0
41
1
10
62.796427952487
20
22.8706521286036
30
0
41
1
10
62.9950288709525
20
22.8143883589016
30
0
41
1
10
63.1402592664806
20
22.7987366860211
30
0
41
1
10
63.2371801996274
20
22.8020539105681
30
0
0
SPLINE
5
20A
100
AcDbEntity
8
1
62
256
6
ByLayer
370
25
48
1
60
0
100
AcDbSpline
70
4
71
3
72
17
73
13
40
0
40
0
40
0
40
0
40
0.508209933925605
40
0.943803685298936
40
0.944539060521266
40
0.944906529097873
40
0.944998373413837
40
0.945046580714293
40
0.945083043447471
40
0.945101328582781
40
0.972890034123265
40
1
40
1
40
1
40
1
41
1
10
63.2371801996274
20
22.8020539105681
30
0
41
1
10
63.3217091334039
20
22.8063883580056
30
0
41
1
10
63.4769039977151
20
22.7957445988371
30
0
41
1
10
63.6366700565011
20
22.7792323257449
30
0
41
1
10
63.7062295283544
20
22.7507960486571
30
0
41
1
10
63.7064197676684
20
22.7507180788994
30
0
41
1
10
63.7065005793352
20
22.7506849404841
30
0
41
1
10
63.7065286811859
20
22.7506734001281
30
0
41
1
10
63.7065450783768
20
22.7506666914233
30
0
41
1
10
63.7109842577987
20
22.7488695472002
30
0
41
1
10
63.7196883893284
20
22.7451372940031
30
0
41
1
10
63.7282497169575
20
22.7410383502239
30
0
41
1
10
63.7324464803544
20
22.7389242942942
30
0
0
SPLINE
5
20B
100
AcDbEntity
8
1
62
256
6
ByLayer
370
25
48
1
60
0
100
AcDbSpline
70
4
71
3
72
18
73
14
40
0
40
0
40
0
40
0
40
0.128439307360336
40
0.259359650132882
40
0.324357954713356
40
0.388948505619692
40
0.45337042329787
40
0.517705329781626
40
0.582288649350885
40
0.647229420794935
40
0.778153047160327
40
0.911377387619546
40
1
40
1
40
1
40
1
41
1
10
63.7421735333854
20
22.7337196938037
30
0
41
1
10
63.849764411716
20
22.6785968978868
30
0
41
1
10
64.0403973363177
20
22.5425076967359
30
0
41
1
10
64.2295479349787
20
22.3039728044777
30
0
41
1
10
64.3190502703074
20
22.0813562677155
30
0
41
1
10
64.3501465473067
20
21.9048817643875
30
0
41
1
10
64.3408208330813
20
21.7265353875954
30
0
41
1
10
64.2895896084925
20
21.5556728818735
30
0
41
1
10
64.198647681214
20
21.4022731154393
30
0
41
1
10
64.0334176305682
20
21.230189494037
30
0
41
1
10
63.7613475576385
20
21.088426774678
30
0
41
1
10
63.4374635013088
20
21.0488247088713
30
0
41
1
10
63.2381633460167
20
21.0708560078397
30
0
41
1
10
63.1579650378483
20
21.0878901114859
30
0
0
SPLINE
5
20C
100
AcDbEntity
8
1
62
256
6
ByLayer
370
25
48
1
60
0
100
AcDbSpline
70
4
71
1
72
4
73
2
40
0
40
0
40
1
40
1
41
1
10
63.1579650378483
20
21.0878901114859
30
0
41
1
10
63.0293744305259
20
21.1176348004041
30
0
0
SPLINE
5
20D
100
AcDbEntity
8
1
62
256
6
ByLayer
370
25
48
1
60
0
100
AcDbSpline
70
4
71
2
72
6
73
3
40
0
40
0
40
0
40
1
40
1
40
1
41
1
10
62.7095537464356
20
21.1341395809132
30
0
41
1
10
62.8698425965123
20
21.1327306763593
30
0
41
1
10
63.0293760819835
20
21.1176517001759
30
0
0
SPLINE
5
20E
100
AcDbEntity
8
1
62
256
6
ByLayer
370
25
48
1
60
0
100
AcDbSpline
70
4
71
2
72
6
73
3
40
0
40
0
40
0
40
1
40
1
40
1
41
1
10
62.0578250964491
20
21.1004221333147
30
0
41
1
10
62.3777310041182
20
21.1350622492564
30
0
41
1
10
62.7095537424005
20
21.1341396227659
30
0
0
SPLINE
5
20F
100
AcDbEntity
8
1
62
256
6
ByLayer
370
25
48
1
60
0
100
AcDbSpline
70
4
71
2
72
6
73
3
40
0
40
0
40
0
40
1
40
1
40
1
41
1
10
61.7542116353386
20
22.212489093901
30
0
41
1
10
61.6060889565777
20
21.7640462016361
30
0
41
1
10
61.4242547921521
20
21.4130004037276
30
0
0
SPLINE
5
210
100
AcDbEntity
8
1
62
256
6
ByLayer
370
25
48
1
60
0
100
AcDbSpline
70
4
71
3
72
10
73
6
40
0
40
0
40
0
40
0
40
0.250591184603192
40
0.50005985654269
40
1
40
1
40
1
40
1
41
1
10
61.8989801830091
20
22.5583710491433
30
0
41
1
10
61.8847330303639
20
22.5305503816946
30
0
41
1
10
61.8573874227513
20
22.4744623729181
30
0
41
1
10
61.8071158532671
20
22.3596184269091
30
0
41
1
10
61.7741153646949
20
22.2718969648872
30
0
41
1
10
61.7542116353386
20
22.212489093901
30
0
0
SPLINE
5
211
100
AcDbEntity
8
1
62
256
6
ByLayer
370
25
48
1
60
0
100
AcDbSpline
70
4
71
1
72
4
73
2
40
0
40
0
40
1
40
1
41
1
10
63.547074133837
20
25.7945353198938
30
0
41
1
10
63.7111261241985
20
26.104346450065
30
0
0
SPLINE
5
212
100
AcDbEntity
8
1
62
256
6
ByLayer
370
25
48
1
60
0
100
AcDbSpline
70
4
71
2
72
6
73
3
40
0
40
0
40
0
40
1
40
1
40
1
41
1
10
63.7111261244778
20
26.1043464499224
30
0
41
1
10
63.9048170475312
20
26.4718605803956
30
0
41
1
10
64.2620718135534
20
26.6855402453935
30
0
0
SPLINE
5
213
100
AcDbEntity
8
1
62
256
6
ByLayer
370
25
48
1
60
0
100
AcDbSpline
70
4
71
3
72
10
73
6
40
0
40
0
40
0
40
0
40
0.325034472058375
40
0.659531779499594
40
1
40
1
40
1
40
1
41
1
10
64.2620718135533
20
26.6855402453935
30
0
41
1
10
64.3322728021486
20
26.7267875185629
30
0
41
1
10
64.4792179068037
20
26.7975815792329
30
0
41
1
10
64.7200437481708
20
26.8663519019188
30
0
41
1
10
64.8864603936101
20
26.8838226920749
30
0
41
1
10
64.9721124721448
20
26.8854643561759
30
0
0
SPLINE
5
214
100
AcDbEntity
8
1
62
256
6
ByLayer
370
25
48
1
60
0
100
AcDbSpline
70
4
71
3
72
10
73
6
40
0
40
0
40
0
40
0
40
0.307414134666965
40
0.642515280128223
40
1
40
1
40
1
40
1
41
1
10
64.9721126286137
20
26.885459333907
30
0
41
1
10
65.0773058002247
20
26.8854723603193
30
0
41
1
10
65.296965782506
20
26.8858893833781
30
0
41
1
10
65.637792946431
20
26.8888481396413
30
0
41
1
10
65.8739245652643
20
26.8903528023072
30
0
41
1
10
65.9957524417958
20
26.8911814760646
30
0
0
SPLINE
5
215
100
AcDbEntity
8
1
62
256
6
ByLayer
370
25
48
1
60
0
100
AcDbSpline
70
4
71
1
72
4
73
2
40
0
40
0
40
1
40
1
41
1
10
62.2672799404493
20
23.411324858266
30
0
41
1
10
62.7626727569889
20
23.0747118382704
30
0
0
SPLINE
5
216
100
AcDbEntity
8
1
62
256
6
ByLayer
370
25
48
1
60
0
100
AcDbSpline
70
4
71
1
72
4
73
2
40
0
40
0
40
1
40
1
41
1
10
62.2672805506284
20
23.4113258697943
30
0
41
1
10
63.5470741338424
20
25.7945353199018
30
0
0
SPLINE
5
217
100
AcDbEntity
8
1
62
256
6
ByLayer
370
25
48
1
60
0
100
AcDbSpline
70
4
71
2
72
6
73
3
40
0
40
0
40
0
40
1
40
1
40
1
41
1
10
63.7323860536486
20
22.7389547872936
30
0
41
1
10
63.7674716210046
20
22.8146142372863
30
0
41
1
10
63.813912787184
20
22.9023274966883
30
0
0
SPLINE
5
218
100
AcDbEntity
8
1
62
256
6
ByLayer
370
25
48
1
60
0
100
AcDbSpline
70
4
71
3
72
57
73
53
40
0
40
0
40
0
40
0
40
0.0013818801435877
40
0.0090870332906162
40
0.0174258302347224
40
0.0225721340177622
40
0.0253905468653593
40
0.0261207343034663
40
0.0261469185282483
40
0.0261706291931503
40
0.0262174334106772
40
0.0266663814150165
40
0.0270076933752119
40
0.027618234952979
40
0.028711861601121
40
0.0306755624669313
40
0.146363795576192
40
0.302287779466644
40
0.501678393804974
40
0.750241157785274
40
0.809060324760712
40
0.840979507449612
40
0.857570119597078
40
0.866023639043936
40
0.870290009802174
40
0.872433105179465
40
0.873507131274388
40
0.874044764036846
40
0.874313735361037
40
0.874448259760634
40
0.874515531645046
40
0.874582809985941
40
0.876609151671547
40
0.892526100453
40
0.936759145186415
40
0.967797016925123
40
0.978248585551774
40
0.98140387787182
40
0.982488344620721
40
0.983274689639806
40
0.985139772947638
40
0.987124577915463
40
0.992050452882777
40
0.997033361560561
40
0.997888779821195
40
0.998003674825514
40
0.998083982558809
40
0.998141219219714
40
0.998201891237667
40
0.998289439164264
40
0.99877658416688
40
1
40
1
40
1
40
1
41
1
10
63.1458707678361
20
20.9352735480658
30
0
41
1
10
63.145810893102
20
20.9353587182039
30
0
41
1
10
63.1454401618307
20
20.935928213911
30
0
41
1
10
63.1452643285411
20
20.937269793978
30
0
41
1
10
63.1450524483175
20
20.9388258876204
30
0
41
1
10
63.1449407947191
20
20.9400336785591
30
0
41
1
10
63.1449111271763
20
20.940697492694
30
0
41
1
10
63.1448769474705
20
20.9409500452809
30
0
41
1
10
63.1448818238067
20
20.9410145059349
30
0
41
1
10
63.1448713500067
20
20.9410177494269
30
0
41
1
10
63.1448354842695
20
20.941026323683
30
0
41
1
10
63.1447894036321
20
20.9410758015735
30
0
41
1
10
63.1447036869444
20
20.9411333195912
30
0
41
1
10
63.1445815719107
20
20.9412260184255
30
0
41
1
10
63.1443612513447
20
20.941387618979
30
0
41
1
10
63.1372725466898
20
20.9467083397424
30
0
41
1
10
63.1229562752324
20
20.9615013653807
30
0
41
1
10
63.1021755246946
20
20.989735039094
30
0
41
1
10
63.0783098805543
20
21.0274557846922
30
0
41
1
10
63.0600830014015
20
21.059469983233
30
0
41
1
10
63.0486798105496
20
21.0807642865996
30
0
41
1
10
63.045134967636
20
21.0874770017037
30
0
41
1
10
63.043266527723
20
21.0910298999129
30
0
41
1
10
63.0423083396685
20
21.0928552590583
30
0
41
1
10
63.0418232258319
20
21.0937801160556
30
0
41
1
10
63.0415791629717
20
21.0942455839388
30
0
41
1
10
63.0414567549074
20
21.0944790770451
30
0
41
1
10
63.0413954563811
20
21.0945960131653
30
0
41
1
10
63.04136478393
20
21.0946545288018
30
0
41
1
10
63.0413494412845
20
21.0946837982352
30
0
41
1
10
63.0413406730184
20
21.0947005277934
30
0
41
1
10
63.0412702319127
20
21.0948348672708
30
0
41
1
10
63.0406960562369
20
21.0959601035402
30
0
41
1
10
63.0387246498078
20
21.0998439137432
30
0
41
1
10
63.035894360789
20
21.1055177679442
30
0
41
1
10
63.033021034498
20
21.1107626357345
30
0
41
1
10
63.0321731035194
20
21.1136979302728
30
0
41
1
10
63.0320158537972
20
21.1146830470184
30
0
41
1
10
63.0320199698923
20
21.1150246320907
30
0
41
1
10
63.0320900900732
20
21.1152717615165
30
0
41
1
10
63.03230374571
20
21.1155317231105
30
0
41
1
10
63.0328310824184
20
21.1158922421214
30
0
41
1
10
63.0337275067679
20
21.1161059271181
30
0
41
1
10
63.0345247237449
20
21.1160665085656
30
0
41
1
10
63.0349762099927
20
21.1160647053759
30
0
41
1
10
63.035051677709
20
21.1160849573816
30
0
41
1
10
63.0350686970197
20
21.1160930525521
30
0
41
1
10
63.035076966792
20
21.1161056682012
30
0
41
1
10
63.0350713105121
20
21.1161198432254
30
0
41
1
10
63.0350376722558
20
21.1161502578453
30
0
41
1
10
63.0349126619416
20
21.1162016149283
30
0
41
1
10
63.0347977567643
20
21.1162474387171
30
0
41
1
10
63.0347076034034
20
21.1162678586332
30
0
0
SPLINE
5
219
100
AcDbEntity
8
1
62
256
6
ByLayer
370
25
48
1
60
0
100
AcDbSpline
70
4
71
2
72
6
73
3
40
0
40
0
40
0
40
1
40
1
40
1
41
1
10
64.8993783591383
20
20.0040586738043
30
0
41
1
10
64.9767538271286
20
20.0031400619623
30
0
41
1
10
65.0304107979715
20
20.0003442610616
30
0
0
SPLINE
5
21A
100
AcDbEntity
8
1
62
256
6
ByLayer
370
25
48
1
60
0
100
AcDbSpline
70
4
71
3
72
13
73
9
40
0
40
0
40
0
40
0
40
0.0534848202386311
40
0.109775861735217
40
0.243518807595746
40
0.359211738299637
40
0.495110822446364
40
1
40
1
40
1
40
1
41
1
10
64.8993784763492
20
20.0040587134731
30
0
41
1
10
64.8991873113233
20
20.0124278726232
30
0
41
1
10
64.8968080307976
20
20.028954344263
30
0
41
1
10
64.8811418736209
20
20.0633265465352
30
0
41
1
10
64.8474987073479
20
20.0971774269013
30
0
41
1
10
64.7983208291039
20
20.1292402881727
30
0
41
1
10
64.6935842649021
20
20.1777345607174
30
0
41
1
10
64.6000686177377
20
20.2029205285883
30
0
41
1
10
64.522009158893
20
20.2112388284452
30
0
0
SPLINE
5
21B
100
AcDbEntity
8
1
62
256
6
ByLayer
370
25
48
1
60
0
100
AcDbSpline
70
4
71
3
72
10
73
6
40
0
40
0
40
0
40
0
40
0.241466349592011
40
0.500242055694948
40
1
40
1
40
1
40
1
41
1
10
64.6352987939569
20
20.3274943394791
30
0
41
1
10
64.6278986176749
20
20.3194916419051
30
0
41
1
10
64.6116446942795
20
20.3021642022614
30
0
41
1
10
64.5745000301812
20
20.2635654602775
30
0
41
1
10
64.5437722727943
20
20.2326373584486
30
0
41
1
10
64.5221104116992
20
20.2112235199292
30
0
0
SPLINE
5
21C
100
AcDbEntity
8
1
62
256
6
ByLayer
370
25
48
1
60
0
100
AcDbSpline
70
4
71
2
72
6
73
3
40
0
40
0
40
0
40
1
40
1
40
1
41
1
10
64.6315272810314
20
19.682260408755
30
0
41
1
10
64.5843662556961
20
19.7395358594483
30
0
41
1
10
64.5198004772076
20
19.8055524927616
30
0
0
SPLINE
5
21D
100
AcDbEntity
8
1
62
256
6
ByLayer
370
25
48
1
60
0
100
AcDbSpline
70
4
71
3
72
14
73
10
40
0
40
0
40
0
40
0
40
0.268561937259585
40
0.505293872095686
40
0.639854421229277
40
0.756631486430889
40
0.889937624921765
40
0.946265855441368
40
1
40
1
40
1
40
1
41
1
10
64.5196183480905
20
19.8055293135068
30
0
41
1
10
64.5602988674676
20
19.8101174616096
30
0
41
1
10
64.6354921576654
20
19.8238100160236
30
0
41
1
10
64.7288777648213
20
19.8510800854016
30
0
41
1
10
64.7966668938848
20
19.8811800173221
30
0
41
1
10
64.8462215262861
20
19.9119923362116
30
0
41
1
10
64.8805030707816
20
19.9450617714324
30
0
41
1
10
64.8965242929987
20
19.9791175591386
30
0
41
1
10
64.8990967191118
20
19.9956463740148
30
0
41
1
10
64.8993784763492
20
20.0040587134731
30
0
0
SPLINE
5
21E
100
AcDbEntity
8
1
62
256
6
ByLayer
370
25
48
1
60
0
100
AcDbSpline
70
4
71
3
72
11
73
7
40
0
40
0
40
0
40
0
40
0.6301755300144
40
0.844003586884512
40
0.926183278274211
40
1
40
1
40
1
40
1
41
1
10
64.5220699044442
20
20.2112296529541
30
0
41
1
10
64.5196846062631
20
20.315124592067
30
0
41
1
10
64.4812774449156
20
20.4340695105615
30
0
41
1
10
64.4049718246968
20
20.5565484285324
30
0
41
1
10
64.3575303441367
20
20.5893311637312
30
0
41
1
10
64.3345196608489
20
20.5940955137687
30
0
41
1
10
64.3228997664262
20
20.5947438284447
30
0
0
SPLINE
5
21F
100
AcDbEntity
8
1
62
256
6
ByLayer
370
25
48
1
60
0
100
AcDbSpline
70
4
71
2
72
6
73
3
40
0
40
0
40
0
40
1
40
1
40
1
41
1
10
64.3228795892967
20
20.5947440136329
30
0
41
1
10
64.32321741915
20
20.6728369938944
30
0
41
1
10
64.3172624435566
20
20.7311251200278
30
0
0
SPLINE
5
220
100
AcDbEntity
8
1
62
256
6
ByLayer
370
25
48
1
60
0
100
AcDbSpline
70
4
71
2
72
6
73
3
40
0
40
0
40
0
40
1
40
1
40
1
41
1
10
63.237176202095
20
22.8020800731599
30
0
41
1
10
63.2237849875256
20
22.8903334215723
30
0
41
1
10
63.2231511958392
20
22.9868466459226
30
0
0
SPLINE
5
221
100
AcDbEntity
8
1
62
256
6
ByLayer
370
25
48
1
60
0
100
AcDbSpline
70
4
71
3
72
13
73
9
40
0
40
0
40
0
40
0
40
0.053484757025386
40
0.109775767233635
40
0.24351888306646
40
0.359211886986341
40
0.495110979971933
40
1
40
1
40
1
40
1
41
1
10
64.316070542008
20
19.4266290142758
30
0
41
1
10
64.324378789815
20
19.4267758800695
30
0
41
1
10
64.3407740502876
20
19.4290822099023
30
0
41
1
10
64.3748148526615
20
19.4446744555387
30
0
41
1
10
64.4082398221313
20
19.4783770054401
30
0
41
1
10
64.4398047155661
20
19.5277366569328
30
0
41
1
10
64.4873800005654
20
19.632968226723
30
0
41
1
10
64.5118750160481
20
19.7270246441837
30
0
41
1
10
64.5197074642949
20
19.8056047929459
30
0
0
SPLINE
5
222
100
AcDbEntity
8
1
62
256
6
ByLayer
370
25
48
1
60
0
100
AcDbSpline
70
4
71
3
72
14
73
10
40
0
40
0
40
0
40
0
40
0.268555291641283
40
0.505287785060496
40
0.639850619033995
40
0.756627460485584
40
0.889937285374128
40
0.946266020493802
40
1
40
1
40
1
40
1
41
1
10
64.1168897648205
20
19.8102243144827
30
0
41
1
10
64.1216668439874
20
19.7692250130796
30
0
41
1
10
64.1356712787869
20
19.6934130332958
30
0
41
1
10
64.1632557929928
20
19.599202582313
30
0
41
1
10
64.1935099517479
20
19.5307574327031
30
0
41
1
10
64.2243724271329
20
19.480674689861
30
0
41
1
10
64.257392442364
20
19.4459636102985
30
0
41
1
10
64.2912923204286
20
19.4296398584757
30
0
41
1
10
64.3077169047934
20
19.4269586610806
30
0
41
1
10
64.316070542008
20
19.4266290142758
30
0
0
SPLINE
5
223
100
AcDbEntity
8
1
62
256
6
ByLayer
370
25
48
1
60
0
100
AcDbSpline
70
4
71
3
72
13
73
9
40
0
40
0
40
0
40
0
40
0.0534854284212128
40
0.109776770981397
40
0.243518081689408
40
0.359210308233937
40
0.495109307386607
40
1
40
1
40
1
40
1
41
1
10
63.7395918320851
20
20.0173141292574
30
0
41
1
10
63.7397829622496
20
20.0089456285831
30
0
41
1
10
63.7421619148779
20
19.9924204337509
30
0
41
1
10
63.7578256379334
20
19.9580509378444
30
0
41
1
10
63.791464095176
20
19.9242017284484
30
0
41
1
10
63.8406362329756
20
19.8921399816556
30
0
41
1
10
63.9453621852893
20
19.843646347191
30
0
41
1
10
64.0388691390664
20
19.8184596302607
30
0
41
1
10
64.1169219047309
20
19.8101398712637
30
0
0
SPLINE
5
224
100
AcDbEntity
8
1
62
256
6
ByLayer
370
25
48
1
60
0
100
AcDbSpline
70
4
71
3
72
14
73
10
40
0
40
0
40
0
40
0
40
0.268563667681946
40
0.505294977675606
40
0.63985539376368
40
0.756632015237014
40
0.88993692597901
40
0.946265384785252
40
1
40
1
40
1
40
1
41
1
10
64.1193232941572
20
20.2158399130269
30
0
41
1
10
64.0786451941945
20
20.2112511398337
30
0
41
1
10
64.00345683126
20
20.1975577241091
30
0
41
1
10
63.9100776013862
20
20.1702872826389
30
0
41
1
10
63.8422936907104
20
20.1401876360725
30
0
41
1
10
63.7927432524147
20
20.1093760358285
30
0
41
1
10
63.7584651584682
20
20.0763077347206
30
0
41
1
10
63.7424457350489
20
20.0422538815893
30
0
41
1
10
63.7398735584947
20
20.0257259903755
30
0
41
1
10
63.739591832095
20
20.0173141292573
30
0
0
SPLINE
5
225
100
AcDbEntity
8
1
62
256
6
ByLayer
370
25
48
1
60
0
100
AcDbSpline
70
4
71
3
72
13
73
9
40
0
40
0
40
0
40
0
40
0.0534850556399267
40
0.109775643397948
40
0.243514563978099
40
0.35920714565118
40
0.495104311414778
40
1
40
1
40
1
40
1
41
1
10
64.3228997664263
20
20.5947438284547
30
0
41
1
10
64.3145917772734
20
20.5945968985336
30
0
41
1
10
64.2981970969231
20
20.5922905946743
30
0
41
1
10
64.2641578186828
20
20.5766997963106
30
0
41
1
10
64.2307337270667
20
20.5429997614897
30
0
41
1
10
64.1991695054298
20
20.4936432015928
30
0
41
1
10
64.1515936194498
20
20.3884154886503
30
0
41
1
10
64.1270979820507
20
20.2943618984365
30
0
41
1
10
64.1192649542891
20
20.2157833329162
30
0
0
SPLINE
5
226
100
AcDbEntity
8
1
62
256
6
ByLayer
370
25
48
1
60
0
100
AcDbSpline
70
4
71
2
72
6
73
3
40
0
40
0
40
0
40
1
40
1
40
1
41
1
10
64.316070419144
20
19.4266289730677
30
0
41
1
10
64.3155154808224
20
19.3485522454721
30
0
41
1
10
64.3088814020518
20
19.2860692343564
30
0
0
SPLINE
5
227
100
AcDbEntity
8
1
62
256
6
ByLayer
370
25
48
1
60
0
100
AcDbSpline
70
4
71
2
72
6
73
3
40
0
40
0
40
0
40
1
40
1
40
1
41
1
10
63.9946962144552
20
20.3347900161305
30
0
41
1
10
64.0544039212069
20
20.2819407656765
30
0
41
1
10
64.1192725451934
20
20.2158364647518
30
0
0
SPLINE
5
228
100
AcDbEntity
8
1
62
256
6
ByLayer
370
25
48
1
60
0
100
AcDbSpline
70
4
71
2
72
6
73
3
40
0
40
0
40
0
40
1
40
1
40
1
41
1
10
63.9908608647622
20
19.689553093348
30
0
41
1
10
64.0516991408029
20
19.745083109615
30
0
41
1
10
64.1169003130604
20
19.8101428760174
30
0
0
SPLINE
5
229
100
AcDbEntity
8
1
62
256
6
ByLayer
370
25
48
1
60
0
100
AcDbSpline
70
4
71
2
72
6
73
3
40
0
40
0
40
0
40
1
40
1
40
1
41
1
10
63.7395917033277
20
20.017314086248
30
0
41
1
10
63.6620075872875
20
20.0181665174994
30
0
41
1
10
63.59578616096
20
20.0167402642204
30
0
0
SPLINE
5
22A
100
AcDbEntity
8
1
62
256
6
ByLayer
370
25
48
1
60
0
100
AcDbSpline
70
4
71
1
72
4
73
2
40
0
40
0
40
1
40
1
41
1
10
62.6598975211183
20
22.955750632232
30
0
41
1
10
62.7626168393458
20
23.0746765803948
30
0
0
SPLINE
5
22B
100
AcDbEntity
8
1
62
256
6
ByLayer
370
25
48
1
60
0
100
AcDbSpline
70
4
71
3
72
10
73
6
40
0
40
0
40
0
40
0
40
0.259492976424361
40
0.519008279522404
40
1
40
1
40
1
40
1
41
1
10
62.1945308135205
20
23.2430380429396
30
0
41
1
10
62.1990111193308
20
23.2569213340626
30
0
41
1
10
62.2089268228327
20
23.2850809170936
30
0
41
1
10
62.2318847048926
20
23.341370206318
30
0
41
1
10
62.2524053549611
20
23.383543244193
30
0
41
1
10
62.2672798686664
20
23.4113248438986
30
0
0
SPLINE
5
22C
100
AcDbEntity
8
1
62
256
6
ByLayer
370
25
48
1
60
0
100
AcDbSpline
70
4
71
3
72
10
73
6
40
0
40
0
40
0
40
0
40
0.237800827581842
40
0.626895052145115
40
1
40
1
40
1
40
1
41
1
10
80.318276041676
20
-13.3113060681165
30
0
41
1
10
80.3529308103031
20
-13.388707611276
30
0
41
1
10
80.431240356334
20
-13.594907536594
30
0
41
1
10
80.5067653314801
20
-13.9337030397575
30
0
41
1
10
80.5053034833959
20
-14.1990948548185
30
0
41
1
10
80.4915172639326
20
-14.3308842227702
30
0
0
SPLINE
5
22D
100
AcDbEntity
8
1
62
256
6
ByLayer
370
25
48
1
60
0
100
AcDbSpline
70
4
71
2
72
6
73
3
40
0
40
0
40
0
40
1
40
1
40
1
41
1
10
80.4915172639368
20
-14.3308842227707
30
0
41
1
10
80.480330105357
20
-14.4421395513746
30
0
41
1
10
80.4199880807603
20
-14.5547347796429
30
0
0
SPLINE
5
22E
100
AcDbEntity
8
1
62
256
6
ByLayer
370
25
48
1
60
0
100
AcDbSpline
70
4
71
2
72
6
73
3
40
0
40
0
40
0
40
1
40
1
40
1
41
1
10
79.8652055279461
20
-14.0735062829449
30
0
41
1
10
79.8633316044875
20
-14.0866242604649
30
0
41
1
10
79.8620618401833
20
-14.0998117645477
30
0
0
SPLINE
5
22F
100
AcDbEntity
8
1
62
256
6
ByLayer
370
25
48
1
60
0
100
AcDbSpline
70
4
71
3
72
11
73
7
40
0
40
0
40
0
40
0
40
0.270363930059716
40
0.540212249799698
40
0.806433180977757
40
1
40
1
40
1
40
1
41
1
10
79.8652117670657
20
-14.0735064340794
30
0
41
1
10
79.8693610825843
20
-14.0482932294325
30
0
41
1
10
79.8784729056154
20
-13.9991545305118
30
0
41
1
10
79.8974430674911
20
-13.9263350291307
30
0
41
1
10
79.9115594575945
20
-13.8694538993576
30
0
41
1
10
79.9141026964191
20
-13.8445980704613
30
0
41
1
10
79.9143533277442
20
-13.8356836239043
30
0
0
SPLINE
5
230
100
AcDbEntity
8
1
62
256
6
ByLayer
370
25
48
1
60
0
100
AcDbSpline
70
4
71
2
72
6
73
3
40
0
40
0
40
0
40
1
40
1
40
1
41
1
10
79.9090949222414
20
-13.7506274312075
30
0
41
1
10
79.9056622906551
20
-13.728374902061
30
0
41
1
10
79.8933472253231
20
-13.7299909985043
30
0
0
SPLINE
5
231
100
AcDbEntity
8
1
62
256
6
ByLayer
370
25
48
1
60
0
100
AcDbSpline
70
4
71
2
72
6
73
3
40
0
40
0
40
0
40
1
40
1
40
1
41
1
10
79.8485572299732
20
-13.8088883384435
30
0
41
1
10
79.8465098952261
20
-13.8194697312397
30
0
41
1
10
79.845066047878
20
-13.8300977588417
30
0
0
SPLINE
5
232
100
AcDbEntity
8
1
62
256
6
ByLayer
370
25
48
1
60
0
100
AcDbSpline
70
4
71
1
72
4
73
2
40
0
40
0
40
1
40
1
41
1
10
79.6693091609922
20
-13.7335302626618
30
0
41
1
10
79.6826513445745
20
-13.6886036365245
30
0
0
SPLINE
5
233
100
AcDbEntity
8
1
62
256
6
ByLayer
370
25
48
1
60
0
100
AcDbSpline
70
4
71
2
72
6
73
3
40
0
40
0
40
0
40
1
40
1
40
1
41
1
10
79.6826513445745
20
-13.6886036365245
30
0
41
1
10
79.6919955929615
20
-13.6533511775574
30
0
41
1
10
79.6966323465503
20
-13.6171414395403
30
0
0
SPLINE
5
234
100
AcDbEntity
8
1
62
256
6
ByLayer
370
25
48
1
60
0
100
AcDbSpline
70
4
71
3
72
11
73
7
40
0
40
0
40
0
40
0
40
0.342338239255264
40
0.612507482348654
40
0.920432505733386
40
1
40
1
40
1
40
1
41
1
10
79.8423938872708
20
-13.8457143097956
30
0
41
1
10
79.8321551479643
20
-13.8741739421654
30
0
41
1
10
79.8072811128861
20
-13.9224956267607
30
0
41
1
10
79.7474031647075
20
-13.9848084801787
30
0
41
1
10
79.7001873267919
20
-14.0296919443508
30
0
41
1
10
79.6733211181364
20
-14.052751992268
30
0
41
1
10
79.6677941410038
20
-14.0574102522867
30
0
0
SPLINE
5
235
100
AcDbEntity
8
1
62
256
6
ByLayer
370
25
48
1
60
0
100
AcDbSpline
70
4
71
2
72
6
73
3
40
0
40
0
40
0
40
1
40
1
40
1
41
1
10
80.9432638469787
20
-11.3808352422088
30
0
41
1
10
80.9948518295416
20
-11.5164310040548
30
0
41
1
10
81.0054463722866
20
-11.660349155665
30
0
0
SPLINE
5
236
100
AcDbEntity
8
1
62
256
6
ByLayer
370
25
48
1
60
0
100
AcDbSpline
70
4
71
3
72
11
73
7
40
0
40
0
40
0
40
0
40
0.124239774656638
40
0.48845346342394
40
0.894084622385528
40
1
40
1
40
1
40
1
41
1
10
79.8933472253231
20
-13.7299909985043
30
0
41
1
10
79.8914355324526
20
-13.7302388589767
30
0
41
1
10
79.8838521933454
20
-13.7327399319648
30
0
41
1
10
79.8681341140166
20
-13.7488549120477
30
0
41
1
10
79.8547877912562
20
-13.7804593427219
30
0
41
1
10
79.8495675059305
20
-13.8038183446284
30
0
41
1
10
79.8485633128546
20
-13.8088883437379
30
0
0
SPLINE
5
237
100
AcDbEntity
8
1
62
256
6
ByLayer
370
25
48
1
60
0
100
AcDbSpline
70
4
71
3
72
12
73
8
40
0
40
0
40
0
40
0
40
0.123779220721139
40
0.249702833044489
40
0.50064623275833
40
0.780403258642008
40
1
40
1
40
1
40
1
41
1
10
79.6657911191709
20
-14.5559746944473
30
0
41
1
10
79.6698112118981
20
-14.5434676296133
30
0
41
1
10
79.6810302487123
20
-14.5153494932147
30
0
41
1
10
79.7225690474572
20
-14.4394595550864
30
0
41
1
10
79.7765492450923
20
-14.3475658728935
30
0
41
1
10
79.8323628169756
20
-14.2349821066479
30
0
41
1
10
79.8529170444285
20
-14.155204652227
30
0
41
1
10
79.8596442915957
20
-14.1191909729325
30
0
0
SPLINE
5
238
100
AcDbEntity
8
1
62
256
6
ByLayer
370
25
48
1
60
0
100
AcDbSpline
70
4
71
3
72
11
73
7
40
0
40
0
40
0
40
0
40
0.35408103536549
40
0.759781672381212
40
0.962678122793338
40
1
40
1
40
1
40
1
41
1
10
79.7366078282753
20
-14.509884653677
30
0
41
1
10
79.7262869397941
20
-14.5283479889575
30
0
41
1
10
79.7025746747305
20
-14.5671319559181
30
0
41
1
10
79.6638729288171
20
-14.6141660962423
30
0
41
1
10
79.6400461400334
20
-14.6443422962086
30
0
41
1
10
79.63702393427
20
-14.645744277853
30
0
41
1
10
79.6366342667277
20
-14.6458313451607
30
0
0
SPLINE
5
239
100
AcDbEntity
8
1
62
256
6
ByLayer
370
25
48
1
60
0
100
AcDbSpline
70
4
71
3
72
10
73
6
40
0
40
0
40
0
40
0
40
0.16107638947877
40
0.710698419365531
40
1
40
1
40
1
40
1
41
1
10
79.7352107950139
20
-14.5127149780009
30
0
41
1
10
79.7457399043182
20
-14.4915072058925
30
0
41
1
10
79.789434667411
20
-14.398268614368
30
0
41
1
10
79.8332047143092
20
-14.2699184777321
30
0
41
1
10
79.8536722385323
20
-14.1633104867806
30
0
41
1
10
79.8587371281766
20
-14.1267561232366
30
0
0
SPLINE
5
23A
100
AcDbEntity
8
1
62
256
6
ByLayer
370
25
48
1
60
0
100
AcDbSpline
70
4
71
3
72
12
73
8
40
0
40
0
40
0
40
0
40
0.187341039536533
40
0.450253464270983
40
0.713170178016471
40
0.978785405675954
40
1
40
1
40
1
40
1
41
1
10
80.4199880807603
20
-14.5547347796429
30
0
41
1
10
80.3973896731402
20
-14.5964024752499
30
0
41
1
10
80.3318078889119
20
-14.6954751201819
30
0
41
1
10
80.182724352013
20
-14.8499931153997
30
0
41
1
10
79.9668018099473
20
-15.0124769488728
30
0
41
1
10
79.7827411589784
20
-15.1155000234943
30
0
41
1
10
79.6804285651203
20
-15.1661254954603
30
0
41
1
10
79.6728180766397
20
-15.1698536630455
30
0
0
SPLINE
5
23B
100
AcDbEntity
8
1
62
256
6
ByLayer
370
25
48
1
60
0
100
AcDbSpline
70
4
71
1
72
4
73
2
40
0
40
0
40
1
40
1
41
1
10
80.4197298899923
20
-14.5562492640343
30
0
41
1
10
80.7527699055603
20
-12.8611669251156
30
0
0
SPLINE
5
23C
100
AcDbEntity
8
1
62
256
6
ByLayer
370
25
48
1
60
0
100
AcDbSpline
70
4
71
1
72
4
73
2
40
0
40
0
40
1
40
1
41
1
10
81.005446372227
20
-11.6603491556778
30
0
41
1
10
80.9958975337055
20
-11.7686256905513
30
0
0
SPLINE
5
23D
100
AcDbEntity
8
1
62
256
6
ByLayer
370
25
48
1
60
0
100
AcDbSpline
70
4
71
2
72
6
73
3
40
0
40
0
40
0
40
1
40
1
40
1
41
1
10
80.9958975337055
20
-11.7686256905513
30
0
41
1
10
80.9797425991738
20
-11.8314144574735
30
0
41
1
10
80.941837981499
20
-11.897136086796
30
0
0
SPLINE
5
23E
100
AcDbEntity
8
1
62
256
6
ByLayer
370
25
48
1
60
0
100
AcDbSpline
70
4
71
2
72
6
73
3
40
0
40
0
40
0
40
1
40
1
40
1
41
1
10
77.9324289076773
20
-13.7416959957543
30
0
41
1
10
73.2770090497861
20
-13.0349123690438
30
0
41
1
10
68.6281073316348
20
-12.2096563909939
30
0
0
SPLINE
5
23F
100
AcDbEntity
8
1
62
256
6
ByLayer
370
25
48
1
60
0
100
AcDbSpline
70
4
71
3
72
12
73
8
40
0
40
0
40
0
40
0
40
0.173069520369265
40
0.336841607481311
40
0.500038912727152
40
0.745843059705397
40
1
40
1
40
1
40
1
41
1
10
66.8519716736827
20
-11.75368072443
30
0
41
1
10
66.9590452217127
20
-11.7592753846049
30
0
41
1
10
67.1667161587325
20
-11.7757817791011
30
0
41
1
10
67.4737045055984
20
-11.8140881503885
30
0
41
1
10
67.8212039175162
20
-11.8815654804156
30
0
41
1
10
68.2126347556493
20
-12.0048771782145
30
0
41
1
10
68.4906164803026
20
-12.1341222367363
30
0
41
1
10
68.6281072193835
20
-12.2096566337444
30
0
0
SPLINE
5
240
100
AcDbEntity
8
1
62
256
6
ByLayer
370
25
48
1
60
0
100
AcDbSpline
70
4
71
2
72
6
73
3
40
0
40
0
40
0
40
1
40
1
40
1
41
1
10
66.8518731013793
20
-11.7536755823045
30
0
41
1
10
66.7163283497132
20
-11.7279368001131
30
0
41
1
10
66.5796478257581
20
-11.7084181928896
30
0
0
SPLINE
5
241
100
AcDbEntity
8
1
62
256
6
ByLayer
370
25
48
1
60
0
100
AcDbSpline
70
4
71
3
72
11
73
7
40
0
40
0
40
0
40
0
40
0.338439570947875
40
0.500003358542209
40
0.749763246918249
40
1
40
1
40
1
40
1
41
1
10
65.995721363472
20
-11.6274607748382
30
0
41
1
10
66.0617992903626
20
-11.6352833029306
30
0
41
1
10
66.1593619275186
20
-11.6472508325845
30
0
41
1
10
66.3056903687398
20
-11.6649671613244
30
0
41
1
10
66.4343418589015
20
-11.6838184067428
30
0
41
1
10
66.5312421810977
20
-11.6998507476075
30
0
41
1
10
66.5796475571756
20
-11.7084194699459
30
0
0
SPLINE
5
242
100
AcDbEntity
8
1
62
256
6
ByLayer
370
25
48
1
60
0
100
AcDbSpline
70
4
71
3
72
10
73
6
40
0
40
0
40
0
40
0
40
0.307414134666965
40
0.642515280128223
40
1
40
1
40
1
40
1
41
1
10
64.9721126286137
20
-11.5120175327772
30
0
41
1
10
65.0773058002247
20
-11.5214372456932
30
0
41
1
10
65.296965782506
20
-11.5427266391515
30
0
41
1
10
65.637792946431
20
-11.5844228837805
30
0
41
1
10
65.8739245652643
20
-11.6123925402624
30
0
41
1
10
65.9957524417958
20
-11.6272214883529
30
0
0
SPLINE
5
243
100
AcDbEntity
8
1
62
256
6
ByLayer
370
25
48
1
60
0
100
AcDbSpline
70
4
71
2
72
6
73
3
40
0
40
0
40
0
40
1
40
1
40
1
41
1
10
65.5089979244218
20
-9.05652489344313
30
0
41
1
10
65.237411617945
20
-10.2836467015331
30
0
41
1
10
64.9720967313096
20
-11.5120140293995
30
0
0
SPLINE
5
244
100
AcDbEntity
8
1
62
256
6
ByLayer
370
25
48
1
60
0
100
AcDbSpline
70
4
71
2
72
6
73
3
40
0
40
0
40
0
40
1
40
1
40
1
41
1
10
65.8047598582164
20
-9.0903562947743
30
0
41
1
10
65.6568849509091
20
-9.07348611398869
30
0
41
1
10
65.5090120031064
20
-9.05652777374434
30
0
0
SPLINE
5
245
100
AcDbEntity
8
1
62
256
6
ByLayer
370
25
48
1
60
0
100
AcDbSpline
70
4
71
2
72
6
73
3
40
0
40
0
40
0
40
1
40
1
40
1
41
1
10
65.8047596530288
20
-9.09035625208939
30
0
41
1
10
65.9987870526964
20
-9.10948078121219
30
0
41
1
10
66.1925469743361
20
-9.13075613796948
30
0
0
SPLINE
5
246
100
AcDbEntity
8
1
62
256
6
ByLayer
370
25
48
1
60
0
100
AcDbSpline
70
4
71
2
72
6
73
3
40
0
40
0
40
0
40
1
40
1
40
1
41
1
10
69.4276633237415
20
-9.49041048527217
30
0
41
1
10
67.8096854572043
20
-9.31883790039923
30
0
41
1
10
66.1925469743361
20
-9.13075613796948
30
0
0
SPLINE
5
247
100
AcDbEntity
8
1
62
256
6
ByLayer
370
25
48
1
60
0
100
AcDbSpline
70
4
71
2
72
6
73
3
40
0
40
0
40
0
40
1
40
1
40
1
41
1
10
71.4489423564829
20
-9.70208144766898
30
0
41
1
10
70.4383261488747
20
-9.59831229953661
30
0
41
1
10
69.4276633237415
20
-9.49041048527232
30
0
0
SPLINE
5
248
100
AcDbEntity
8
1
62
256
6
ByLayer
370
25
48
1
60
0
100
AcDbSpline
70
4
71
3
72
10
73
6
40
0
40
0
40
0
40
0
40
0.178259836699507
40
0.891321974509126
40
1
40
1
40
1
40
1
41
1
10
71.4489423564829
20
-9.70208144766898
30
0
41
1
10
71.7459242028062
20
-9.73273325241991
30
0
41
1
10
73.2309953615924
20
-9.88308420961234
30
0
41
1
10
74.8968553731922
20
-10.0465423321238
30
0
41
1
10
76.267214121654
20
-10.1579651508131
30
0
41
1
10
76.4484607552926
20
-10.1724546159292
30
0
0
SPLINE
5
249
100
AcDbEntity
8
1
62
256
6
ByLayer
370
25
48
1
60
0
100
AcDbSpline
70
4
71
2
72
6
73
3
40
0
40
0
40
0
40
1
40
1
40
1
41
1
10
77.2277769099082
20
-10.2616930510399
30
0
41
1
10
76.8389590676851
20
-10.21125670884
30
0
41
1
10
76.4484605287242
20
-10.1724545980682
30
0
0
SPLINE
5
24A
100
AcDbEntity
8
1
62
256
6
ByLayer
370
25
48
1
60
0
100
AcDbSpline
70
4
71
2
72
6
73
3
40
0
40
0
40
0
40
1
40
1
40
1
41
1
10
78.3058889925764
20
-10.358619318384
30
0
41
1
10
77.7668718621189
20
-10.3107477843028
30
0
41
1
10
77.227782758255
20
-10.2616935673277
30
0
0
SPLINE
5
24B
100
AcDbEntity
8
1
62
256
6
ByLayer
370
25
48
1
60
0
100
AcDbSpline
70
4
71
1
72
4
73
2
40
0
40
0
40
1
40
1
41
1
10
77.9324289182643
20
-13.741695970304
30
0
41
1
10
78.3058921925607
20
-10.3585907250218
30
0
0
SPLINE
5
24C
100
AcDbEntity
8
1
62
256
6
ByLayer
370
25
48
1
60
0
100
AcDbSpline
70
4
71
3
72
13
73
9
40
0
40
0
40
0
40
0
40
0.162188865039837
40
0.329081218221593
40
0.4912700833182
40
0.658162436454601
40
0.826443826480548
40
1
40
1
40
1
40
1
41
1
10
65.5090112943271
20
-9.05652767793503
30
0
41
1
10
65.4259014308946
20
-9.04521204220747
30
0
41
1
10
65.2606361411203
20
-9.0153368610767
30
0
41
1
10
65.0208685875142
20
-8.94896357280837
30
0
41
1
10
64.7955485968393
20
-8.86245113432005
30
0
41
1
10
64.5920278004617
20
-8.75849787838183
30
0
41
1
10
64.4130886606481
20
-8.63700659291494
30
0
41
1
10
64.3177041671463
20
-8.5484841865873
30
0
41
1
10
64.2752725485641
20
-8.50146673843729
30
0
0
SPLINE
5
24D
100
AcDbEntity
8
1
62
256
6
ByLayer
370
25
48
1
60
0
100
AcDbSpline
70
4
71
3
72
10
73
6
40
0
40
0
40
0
40
0
40
0.325034472058377
40
0.659531779499594
40
1
40
1
40
1
40
1
41
1
10
64.2620718135534
20
-11.3338415244433
30
0
41
1
10
64.3322728021486
20
-11.363927643464
30
0
41
1
10
64.4792179068037
20
-11.4178803616079
30
0
41
1
10
64.7200437481708
20
-11.4788828566508
30
0
41
1
10
64.8864603936101
20
-11.5035786111859
30
0
41
1
10
64.9721124721448
20
-11.5120206672411
30
0
0
SPLINE
5
24E
100
AcDbEntity
8
1
62
256
6
ByLayer
370
25
48
1
60
0
100
AcDbSpline
70
4
71
2
72
6
73
3
40
0
40
0
40
0
40
1
40
1
40
1
41
1
10
63.7111261244778
20
-10.9483393812672
30
0
41
1
10
63.9048170475313
20
-11.1785209732377
30
0
41
1
10
64.2620718135534
20
-11.3338415244433
30
0
0
SPLINE
5
24F
100
AcDbEntity
8
1
62
256
6
ByLayer
370
25
48
1
60
0
100
AcDbSpline
70
4
71
1
72
4
73
2
40
0
40
0
40
1
40
1
41
1
10
63.547074133837
20
-10.7587216243375
30
0
41
1
10
63.7111261241985
20
-10.9483393813594
30
0
0
SPLINE
5
250
100
AcDbEntity
8
1
62
256
6
ByLayer
370
25
48
1
60
0
100
AcDbSpline
70
4
71
1
72
4
73
2
40
0
40
0
40
1
40
1
41
1
10
62.9417654728108
20
-10.0860100176524
30
0
41
1
10
63.5470741338424
20
-10.75872162434
30
0
0
SPLINE
5
251
100
AcDbEntity
8
1
62
256
6
ByLayer
370
25
48
1
60
0
100
AcDbSpline
70
4
71
2
72
6
73
3
40
0
40
0
40
0
40
1
40
1
40
1
41
1
10
64.4344996978392
20
-8.39796714435118
30
0
41
1
10
64.561042829316
20
-8.35469762078028
30
0
41
1
10
64.6309385507673
20
-8.23790769900361
30
0
0
SPLINE
5
252
100
AcDbEntity
8
1
62
256
6
ByLayer
370
25
48
1
60
0
100
AcDbSpline
70
4
71
2
72
6
73
3
40
0
40
0
40
0
40
1
40
1
40
1
41
1
10
64.8269105737655
20
-8.21436235606984
30
0
41
1
10
64.7681246052654
20
-8.27047229515029
30
0
41
1
10
64.6952989791829
20
-8.26132756781963
30
0
0
SPLINE
5
253
100
AcDbEntity
8
1
62
256
6
ByLayer
370
25
48
1
60
0
100
AcDbSpline
70
4
71
2
72
6
73
3
40
0
40
0
40
0
40
1
40
1
40
1
41
1
10
64.8269169119968
20
-8.21436425644448
30
0
41
1
10
64.8346472021764
20
-8.20565082420913
30
0
41
1
10
64.8418010842583
20
-8.19668508338428
30
0
0
SPLINE
5
254
100
AcDbEntity
8
1
62
256
6
ByLayer
370
25
48
1
60
0
100
AcDbSpline
70
4
71
2
72
6
73
3
40
0
40
0
40
0
40
1
40
1
40
1
41
1
10
65.8132587568604
20
-8.67914364567686
30
0
41
1
10
65.8177829186492
20
-8.66715862185955
30
0
41
1
10
65.8198084871494
20
-8.65462793193846
30
0
0
SPLINE
5
255
100
AcDbEntity
8
1
62
256
6
ByLayer
370
25
48
1
60
0
100
AcDbSpline
70
4
71
3
72
11
73
7
40
0
40
0
40
0
40
0
40
0.117037863066833
40
0.240476600305136
40
0.493435152195005
40
1
40
1
40
1
40
1
41
1
10
65.813218671589
20
-8.67913977397151
30
0
41
1
10
65.8091911322163
20
-8.699927062587
30
0
41
1
10
65.8107244496081
20
-8.73846766134083
30
0
41
1
10
65.8721550358673
20
-8.80060158387696
30
0
41
1
10
66.0055232117302
20
-8.85906026982164
30
0
41
1
10
66.1260542143409
20
-8.88924894022454
30
0
41
1
10
66.2129027740513
20
-8.89250610415033
30
0
0
SPLINE
5
256
100
AcDbEntity
8
1
62
256
6
ByLayer
370
25
48
1
60
0
100
AcDbSpline
70
4
71
2
72
6
73
3
40
0
40
0
40
0
40
1
40
1
40
1
41
1
10
66.1925469740874
20
-9.13075614635997
30
0
41
1
10
66.1977864323988
20
-9.02362385109772
30
0
41
1
10
66.2129027741095
20
-8.89250610362264
30
0
0
SPLINE
5
257
100
AcDbEntity
8
1
62
256
6
ByLayer
370
25
48
1
60
0
100
AcDbSpline
70
4
71
1
72
4
73
2
40
0
40
0
40
1
40
1
41
1
10
65.4566671489809
20
-8.09297038107985
30
0
41
1
10
65.3590479742594
20
-8.06722062462062
30
0
0
SPLINE
5
258
100
AcDbEntity
8
1
62
256
6
ByLayer
370
25
48
1
60
0
100
AcDbSpline
70
4
71
2
72
6
73
3
40
0
40
0
40
0
40
1
40
1
40
1
41
1
10
65.7868671408557
20
-8.21489037229348
30
0
41
1
10
65.6118272496045
20
-8.16379094910509
30
0
41
1
10
65.4566696239168
20
-8.09296987031042
30
0
0
SPLINE
5
259
100
AcDbEntity
8
1
62
256
6
ByLayer
370
25
48
1
60
0
100
AcDbSpline
70
4
71
3
72
16
73
12
40
0
40
0
40
0
40
0
40
0.0896878427725563
40
0.159694494760657
40
0.285477645946452
40
0.579467351643162
40
0.628233867143347
40
0.649268868142693
40
0.668584170998131
40
0.757396817869006
40
1
40
1
40
1
40
1
41
1
10
65.8250417720017
20
-8.63663425244898
30
0
41
1
10
65.8210896236729
20
-8.6200105338567
30
0
41
1
10
65.8159192425518
20
-8.59009242642485
30
0
41
1
10
65.804945663313
20
-8.53517994928752
30
0
41
1
10
65.8354300343024
20
-8.44082910244948
30
0
41
1
10
65.901082606922
20
-8.37380492660409
30
0
41
1
10
65.9488643390993
20
-8.32410814810254
30
0
41
1
10
65.9597927535375
20
-8.30921264663329
30
0
41
1
10
65.9526497625771
20
-8.2832209478354
30
0
41
1
10
65.8868850081732
20
-8.25069337228901
30
0
41
1
10
65.8353385791817
20
-8.22225615592252
30
0
41
1
10
65.7868749359958
20
-8.2148916243193
30
0
0
SPLINE
5
25A
100
AcDbEntity
8
1
62
256
6
ByLayer
370
25
48
1
60
0
100
AcDbSpline
70
4
71
3
72
16
73
12
40
0
40
0
40
0
40
0
40
0.1184594054937
40
0.236930045182619
40
0.35532644002635
40
0.473724766324804
40
0.593338304567599
40
0.712940234176223
40
0.831579620431595
40
0.950204067922081
40
1
40
1
40
1
40
1
41
1
10
80.4915172639368
20
-9.47858884136637
30
0
41
1
10
80.4858148102986
20
-9.54421779269768
30
0
41
1
10
80.4546058082354
20
-9.67072106787432
30
0
41
1
10
80.3474999214713
20
-9.84865981982171
30
0
41
1
10
80.1828344073761
20
-10.0072942803761
30
0
41
1
10
79.9665002632011
20
-10.1441193739967
30
0
41
1
10
79.702029895084
20
-10.2539276989681
30
0
41
1
10
79.3985348872366
20
-10.333974380114
30
0
41
1
10
79.0644478595703
20
-10.3801656165872
30
0
41
1
10
78.7784453172456
20
-10.3899882860137
30
0
41
1
10
78.6076780924904
20
-10.383719375523
30
0
41
1
10
78.5567763202828
20
-10.3808375042488
30
0
0
SPLINE
5
25B
100
AcDbEntity
8
1
62
256
6
ByLayer
370
25
48
1
60
0
100
AcDbSpline
70
4
71
3
72
16
73
12
40
0
40
0
40
0
40
0
40
0.105088447026572
40
0.21016974274524
40
0.318207382430425
40
0.42623445329902
40
0.532402152941446
40
0.638559256674212
40
0.74252327796733
40
0.846482338170363
40
1
40
1
40
1
40
1
41
1
10
81.0054463722269
20
-12.0198066226219
30
0
41
1
10
81.0095375891305
20
-12.1388678546928
30
0
41
1
10
80.9899069828137
20
-12.3699401010522
30
0
41
1
10
80.8759789372128
20
-12.7030645575267
30
0
41
1
10
80.6747897499844
20
-13.008041449054
30
0
41
1
10
80.3934588402416
20
-13.2754502005104
30
0
41
1
10
80.0398228524777
20
-13.4928526364188
30
0
41
1
10
79.6304477020683
20
-13.65546546678
30
0
41
1
10
79.1745418108762
20
-13.7581422054529
30
0
41
1
10
78.6082391307731
20
-13.8080610470878
30
0
41
1
10
78.1896274942542
20
-13.7803753298426
30
0
41
1
10
77.9324289223021
20
-13.7416957130234
30
0
0
SPLINE
5
25C
100
AcDbEntity
8
1
62
256
6
ByLayer
370
25
48
1
60
0
100
AcDbSpline
70
4
71
3
72
50
73
46
40
0
40
0
40
0
40
0
40
0.174062673811757
40
0.328559541690126
40
0.36601263253592
40
0.398860813261679
40
0.427104135177993
40
0.45074267003116
40
0.481162743686295
40
0.490029327206953
40
0.491609479570489
40
0.493577881233367
40
0.496776262252726
40
0.500042525919077
40
0.500626180948112
40
0.500682199560577
40
0.500726018352382
40
0.500744818698028
40
0.500762638714532
40
0.500780539447568
40
0.500799568445447
40
0.500844169842287
40
0.500901208557018
40
0.501060118698434
40
0.502364774518325
40
0.508320736145464
40
0.5135692399465
40
0.52078152845669
40
0.52995800111195
40
0.541098846100111
40
0.552375466573568
40
0.56706052247325
40
0.585154045010116
40
0.606656050656543
40
0.62623574308694
40
0.649137061452201
40
0.675360008897476
40
0.704904587609152
40
0.737770799213078
40
0.773870996201999
40
0.813013060424587
40
0.855196992403841
40
0.900422792651894
40
0.948690461679022
40
1
40
1
40
1
40
1
41
1
10
78.5567745058662
20
-10.3808374001627
30
0
41
1
10
78.4950758967706
20
-10.7096703392923
30
0
41
1
10
78.3783308089087
20
-11.3303258079937
30
0
41
1
10
78.2478862606001
20
-12.0216648578517
30
0
41
1
10
78.1674002776287
20
-12.446211017275
30
0
41
1
10
78.131926367979
20
-12.632287069478
30
0
41
1
10
78.1012394476926
20
-12.7922474868043
30
0
41
1
10
78.0711536499105
20
-12.9475751427029
30
0
41
1
10
78.0478435459401
20
-13.0662875871577
30
0
41
1
10
78.0321227955741
20
-13.1432746959744
30
0
41
1
10
78.027184876063
20
-13.166638974705
30
0
41
1
10
78.0245008173233
20
-13.179322728413
30
0
41
1
10
78.0207210884067
20
-13.1951823325768
30
0
41
1
10
78.0172347596421
20
-13.2080796233484
30
0
41
1
10
78.0145145324361
20
-13.2153685878983
30
0
41
1
10
78.0135611125803
20
-13.2163118889442
30
0
41
1
10
78.0133557631032
20
-13.2164314929923
30
0
41
1
10
78.0132004802139
20
-13.2164666857488
30
0
41
1
10
78.0130926428773
20
-13.2164652760834
30
0
41
1
10
78.0129887116356
20
-13.2164372382037
30
0
41
1
10
78.0128492426171
20
-13.216361104472
30
0
41
1
10
78.0126864456697
20
-13.2161903909203
30
0
41
1
10
78.0124376810248
20
-13.2157566418552
30
0
41
1
10
78.0116178843404
20
-13.2129488129971
30
0
41
1
10
78.0115914247241
20
-13.1986027726161
30
0
41
1
10
78.0129269076652
20
-13.1747708794972
30
0
41
1
10
78.0158674343706
20
-13.1395346835532
30
0
41
1
10
78.0196247201915
20
-13.0982184921034
30
0
41
1
10
78.0247087748773
20
-13.0456489591764
30
0
41
1
10
78.0307375309567
20
-12.9853418172638
30
0
41
1
10
78.0380295562014
20
-12.9145339407443
30
0
41
1
10
78.0468416726148
20
-12.8304709635786
30
0
41
1
10
78.0578097010684
20
-12.7269055852226
30
0
41
1
10
78.0698521985579
20
-12.6140087800442
30
0
41
1
10
78.0829424880422
20
-12.4919453693493
30
0
41
1
10
78.0970546170967
20
-12.3608804149171
30
0
41
1
10
78.1132588011955
20
-12.2108095743815
30
0
41
1
10
78.1315558519241
20
-12.0417329166017
30
0
41
1
10
78.1519295852506
20
-11.8538178010606
30
0
41
1
10
78.174312958088
20
-11.6475970995208
30
0
41
1
10
78.1986399063535
20
-11.4236037657955
30
0
41
1
10
78.2248732356309
20
-11.1822044944635
30
0
41
1
10
78.2530121439941
20
-10.9233992123
30
0
41
1
10
78.2830570761464
20
-10.6471879542992
30
0
41
1
10
78.3037257347891
20
-10.4572454136717
30
0
41
1
10
78.3143779575584
20
-10.3593731660224
30
0
0
SPLINE
5
25D
100
AcDbEntity
8
1
62
256
6
ByLayer
370
25
48
1
60
0
100
AcDbSpline
70
4
71
3
72
24
73
20
40
0
40
0
40
0
40
0
40
0.0119031503547268
40
0.0238401798564498
40
0.0387831112347697
40
0.10133812403024
40
0.152373889864194
40
0.203469367503894
40
0.275184429143574
40
0.472106106166434
40
0.528033405732758
40
0.584012152859764
40
0.589681861334842
40
0.59537533063299
40
0.602245287161876
40
0.614195372691541
40
0.652973130128398
40
0.834604657952006
40
1
40
1
40
1
40
1
41
1
10
77.0700279611231
20
-9.81423230668836
30
0
41
1
10
77.0693999344833
20
-9.81159366584364
30
0
41
1
10
77.069083849276
20
-9.80641165844627
30
0
41
1
10
77.0718084555103
20
-9.7977234781211
30
0
41
1
10
77.0851849834599
20
-9.78163835886951
30
0
41
1
10
77.1076897867309
20
-9.76149420079774
30
0
41
1
10
77.1226050567256
20
-9.725098139535
30
0
41
1
10
77.1246479306682
20
-9.68423523938734
30
0
41
1
10
77.1019293318134
20
-9.61229142452362
30
0
41
1
10
77.0513783371086
20
-9.55397721088273
30
0
41
1
10
77.0089560174429
20
-9.49775718183639
30
0
41
1
10
76.986093277356
20
-9.47911409599317
30
0
41
1
10
76.9829341234647
20
-9.46354229084775
30
0
41
1
10
76.9838258693351
20
-9.45931747996948
30
0
41
1
10
76.9868883796301
20
-9.45450821870918
30
0
41
1
10
76.9973317938545
20
-9.44627859621845
30
0
41
1
10
77.0478291010948
20
-9.42884086116417
30
0
41
1
10
77.1352616142493
20
-9.4208050820107
30
0
41
1
10
77.2128385752121
20
-9.41535669446453
30
0
41
1
10
77.250049638932
20
-9.41533725796005
30
0
0
SPLINE
5
25E
100
AcDbEntity
8
1
62
256
6
ByLayer
370
25
48
1
60
0
100
AcDbSpline
70
4
71
2
72
6
73
3
40
0
40
0
40
0
40
1
40
1
40
1
41
1
10
76.448460529026
20
-10.1724545929384
30
0
41
1
10
76.4550581865154
20
-10.0743927179417
30
0
41
1
10
76.4673387356281
20
-9.96636376141753
30
0
0
SPLINE
5
25F
100
AcDbEntity
8
1
62
256
6
ByLayer
370
25
48
1
60
0
100
AcDbSpline
70
4
71
3
72
12
73
8
40
0
40
0
40
0
40
0
40
0.0572464911012847
40
0.116268749604156
40
0.241300126945333
40
0.494251404639104
40
1
40
1
40
1
40
1
41
1
10
77.0721072310743
20
-9.85818499279891
30
0
41
1
10
77.0727419847746
20
-9.87164156660522
30
0
41
1
10
77.0683483420537
20
-9.89585171291802
30
0
41
1
10
77.0251727817
20
-9.93226779168094
30
0
41
1
10
76.9353661542297
20
-9.96432824595421
30
0
41
1
10
76.7430497521085
20
-9.985314528548
30
0
41
1
10
76.5786956788299
20
-9.98303866732401
30
0
41
1
10
76.4673387356244
20
-9.96636376144801
30
0
0
SPLINE
5
260
100
AcDbEntity
8
1
62
256
6
ByLayer
370
25
48
1
60
0
100
AcDbSpline
70
4
71
2
72
6
73
3
40
0
40
0
40
0
40
1
40
1
40
1
41
1
10
77.0720515049957
20
-9.8581788309522
30
0
41
1
10
77.0698424440902
20
-9.84559458296495
30
0
41
1
10
77.071221450615
20
-9.83289029678358
30
0
0
SPLINE
5
261
100
AcDbEntity
8
1
62
256
6
ByLayer
370
25
48
1
60
0
100
AcDbSpline
70
4
71
3
72
12
73
8
40
0
40
0
40
0
40
0
40
0.0219661873229112
40
0.332715026694316
40
0.660301787841445
40
0.895476501001758
40
1
40
1
40
1
40
1
41
1
10
65.3590479742594
20
-8.06722062462062
30
0
41
1
10
65.3550562833069
20
-8.06683205175815
30
0
41
1
10
65.2946155330109
20
-8.0615373982744
30
0
41
1
10
65.172728855908
20
-8.08628822576547
30
0
41
1
10
65.0199326738116
20
-8.11657403469851
30
0
41
1
10
64.9112934863491
20
-8.14745766912974
30
0
41
1
10
64.8661584448625
20
-8.17460426644138
30
0
41
1
10
64.8529358091159
20
-8.18368850357218
30
0
0
SPLINE
5
262
100
AcDbEntity
8
1
62
256
6
ByLayer
370
25
48
1
60
0
100
AcDbSpline
70
4
71
3
72
12
73
8
40
0
40
0
40
0
40
0
40
0.0528597853023352
40
0.51735222616469
40
0.824382168692525
40
0.96979602923019
40
1
40
1
40
1
40
1
41
1
10
77.8977539839984
20
-9.38029091707733
30
0
41
1
10
77.9104926657441
20
-9.38181507903296
30
0
41
1
10
78.0346383274923
20
-9.39823001551662
30
0
41
1
10
78.225860601769
20
-9.4674953037455
30
0
41
1
10
78.4217040182775
20
-9.54678404677388
30
0
41
1
10
78.5192895507037
20
-9.58712658954806
30
0
41
1
10
78.5448981005281
20
-9.61328535155432
30
0
41
1
10
78.5491318454783
20
-9.61796743511822
30
0
0
SPLINE
5
263
100
AcDbEntity
8
1
62
256
6
ByLayer
370
25
48
1
60
0
100
AcDbSpline
70
4
71
1
72
4
73
2
40
0
40
0
40
1
40
1
41
1
10
77.7515624159648
20
-9.38051380949451
30
0
41
1
10
77.8977539839984
20
-9.38029091707734
30
0
0
SPLINE
5
264
100
AcDbEntity
8
1
62
256
6
ByLayer
370
25
48
1
60
0
100
AcDbSpline
70
4
71
2
72
6
73
3
40
0
40
0
40
0
40
1
40
1
40
1
41
1
10
78.5567781433865
20
-10.3808377320386
30
0
41
1
10
78.4355751986993
20
-10.3701349390631
30
0
41
1
10
78.3143683300913
20
-10.3593723179379
30
0
0
SPLINE
5
265
100
AcDbEntity
8
1
62
256
6
ByLayer
370
25
48
1
60
0
100
AcDbSpline
70
4
71
3
72
10
73
6
40
0
40
0
40
0
40
0
40
0.349085802842955
40
0.69960714365523
40
1
40
1
40
1
40
1
41
1
10
64.5140613078537
20
-8.11181279309523
30
0
41
1
10
64.5035963126211
20
-8.10027814441393
30
0
41
1
10
64.4872871149188
20
-8.07305406909175
30
0
41
1
10
64.4772888584546
20
-8.01914104474928
30
0
41
1
10
64.4789280083348
20
-7.98083131942154
30
0
41
1
10
64.4814133380533
20
-7.96202912179051
30
0
0
SPLINE
5
266
100
AcDbEntity
8
1
62
256
6
ByLayer
370
25
48
1
60
0
100
AcDbSpline
70
4
71
1
72
4
73
2
40
0
40
0
40
1
40
1
41
1
10
64.6128719979889
20
-8.22162588352807
30
0
41
1
10
64.6309385388529
20
-8.23790771662404
30
0
0
SPLINE
5
267
100
AcDbEntity
8
1
62
256
6
ByLayer
370
25
48
1
60
0
100
AcDbSpline
70
4
71
2
72
6
73
3
40
0
40
0
40
0
40
1
40
1
40
1
41
1
10
64.6952989791829
20
-8.26132756781963
30
0
41
1
10
64.6604357218277
20
-8.257676710068
30
0
41
1
10
64.6309385407891
20
-8.23790771803328
30
0
0
SPLINE
5
268
100
AcDbEntity
8
1
62
256
6
ByLayer
370
25
48
1
60
0
100
AcDbSpline
70
4
71
2
72
6
73
3
40
0
40
0
40
0
40
1
40
1
40
1
41
1
10
78.7389924411975
20
-9.73199974071602
30
0
41
1
10
78.8070054226458
20
-9.73922522480524
30
0
41
1
10
78.8728729800121
20
-9.71494968101076
30
0
0
SPLINE
5
269
100
AcDbEntity
8
1
62
256
6
ByLayer
370
25
48
1
60
0
100
AcDbSpline
70
4
71
2
72
6
73
3
40
0
40
0
40
0
40
1
40
1
40
1
41
1
10
78.5733157473267
20
-9.65389600892293
30
0
41
1
10
78.6400047191158
20
-9.72639858524067
30
0
41
1
10
78.7389924411975
20
-9.73199974071602
30
0
0
SPLINE
5
26A
100
AcDbEntity
8
1
62
256
6
ByLayer
370
25
48
1
60
0
100
AcDbSpline
70
4
71
2
72
6
73
3
40
0
40
0
40
0
40
1
40
1
40
1
41
1
10
79.0481499443806
20
-9.63384114111233
30
0
41
1
10
78.9639002741423
20
-9.67650689260358
30
0
41
1
10
78.8728793707431
20
-9.71495209897148
30
0
0
SPLINE
5
26B
100
AcDbEntity
8
1
62
256
6
ByLayer
370
25
48
1
60
0
100
AcDbSpline
70
4
71
3
72
12
73
8
40
0
40
0
40
0
40
0
40
0.263853101906817
40
0.471504858999367
40
0.68001740255129
40
0.870706487159897
40
1
40
1
40
1
40
1
41
1
10
79.0481496999854
20
-9.63384105982888
30
0
41
1
10
79.0658315539857
20
-9.62548159748479
30
0
41
1
10
79.0934491667018
20
-9.60391195306112
30
0
41
1
10
79.12480874025
20
-9.55513769507361
30
0
41
1
10
79.1415214292841
20
-9.49917844569151
30
0
41
1
10
79.1469853471017
20
-9.44655984944079
30
0
41
1
10
79.1470742289775
20
-9.41651450407509
30
0
41
1
10
79.1465118298007
20
-9.40444479590539
30
0
0
SPLINE
5
26C
100
AcDbEntity
8
1
62
256
6
ByLayer
370
25
48
1
60
0
100
AcDbSpline
70
4
71
2
72
6
73
3
40
0
40
0
40
0
40
1
40
1
40
1
41
1
10
79.1465042086243
20
-9.40444459619019
30
0
41
1
10
79.1460140695799
20
-9.39184046456846
30
0
41
1
10
79.146318633787
20
-9.37922355267926
30
0
0
SPLINE
5
26D
100
AcDbEntity
8
1
62
256
6
ByLayer
370
25
48
1
60
0
100
AcDbSpline
70
4
71
2
72
6
73
3
40
0
40
0
40
0
40
1
40
1
40
1
41
1
10
79.5561510633446
20
-9.08585493013388
30
0
41
1
10
79.5528189930806
20
-9.07596421728775
30
0
41
1
10
79.5501169542803
20
-9.06598516788248
30
0
0
SPLINE
5
26E
100
AcDbEntity
8
1
62
256
6
ByLayer
370
25
48
1
60
0
100
AcDbSpline
70
4
71
3
72
10
73
6
40
0
40
0
40
0
40
0
40
0.422932235702005
40
0.842662946202848
40
1
40
1
40
1
40
1
41
1
10
79.5561565803865
20
-9.08585469588832
30
0
41
1
10
79.5633071276717
20
-9.10391118288803
30
0
41
1
10
79.5801448431859
20
-9.13283768636389
30
0
41
1
10
79.6092939625649
20
-9.15025252944824
30
0
41
1
10
79.6261223779363
20
-9.15390825192575
30
0
41
1
10
79.6308243532574
20
-9.1544206093983
30
0
0
SPLINE
5
26F
100
AcDbEntity
8
1
62
256
6
ByLayer
370
25
48
1
60
0
100
AcDbSpline
70
4
71
3
72
12
73
8
40
0
40
0
40
0
40
0
40
0.213053726172882
40
0.426266412127649
40
0.638662715292425
40
0.868581408789568
40
1
40
1
40
1
40
1
41
1
10
79.7517769457355
20
-9.03655506311171
30
0
41
1
10
79.7576829490225
20
-9.02674414669366
30
0
41
1
10
79.7667819689405
20
-9.00307181709788
30
0
41
1
10
79.7714569133858
20
-8.95297325481841
30
0
41
1
10
79.7695710392032
20
-8.89427540206636
30
0
41
1
10
79.764961448804
20
-8.84081693319837
30
0
41
1
10
79.7621828143247
20
-8.8092140385562
30
0
41
1
10
79.7611039761644
20
-8.79783182852408
30
0
0
SPLINE
5
270
100
AcDbEntity
8
1
62
256
6
ByLayer
370
25
48
1
60
0
100
AcDbSpline
70
4
71
2
72
6
73
3
40
0
40
0
40
0
40
1
40
1
40
1
41
1
10
79.7610959672741
20
-8.79783185490717
30
0
41
1
10
79.7599749394049
20
-8.78516779187091
30
0
41
1
10
79.7594902877524
20
-8.77246209621627
30
0
0
SPLINE
5
271
100
AcDbEntity
8
1
62
256
6
ByLayer
370
25
48
1
60
0
100
AcDbSpline
70
4
71
2
72
6
73
3
40
0
40
0
40
0
40
1
40
1
40
1
41
1
10
79.8652055279461
20
-8.44724593238809
30
0
41
1
10
79.8633316044875
20
-8.437482563514
30
0
41
1
10
79.8620618401833
20
-8.42767885876514
30
0
0
SPLINE
5
272
100
AcDbEntity
8
1
62
256
6
ByLayer
370
25
48
1
60
0
100
AcDbSpline
70
4
71
3
72
10
73
6
40
0
40
0
40
0
40
0
40
0.455634319110454
40
0.91039969924334
40
1
40
1
40
1
40
1
41
1
10
79.8652117670657
20
-8.44724593625853
30
0
41
1
10
79.8693610825843
20
-8.46568569824713
30
0
41
1
10
79.8784065657187
20
-8.4945012229681
30
0
41
1
10
79.8925832732176
20
-8.50976149340256
30
0
41
1
10
79.8991556922544
20
-8.51153149509857
30
0
41
1
10
79.9002376076772
20
-8.51166054650299
30
0
0
SPLINE
5
273
100
AcDbEntity
8
1
62
256
6
ByLayer
370
25
48
1
60
0
100
AcDbSpline
70
4
71
3
72
12
73
8
40
0
40
0
40
0
40
0
40
0.212723127156992
40
0.424609556878168
40
0.663904594156991
40
0.930411664865104
40
1
40
1
40
1
40
1
41
1
10
79.9090949359262
20
-8.38205354039125
30
0
41
1
10
79.9075984847004
20
-8.37044238270091
30
0
41
1
10
79.9027175744593
20
-8.34400740756352
30
0
41
1
10
79.8871738337588
20
-8.29004483488978
30
0
41
1
10
79.868188106834
20
-8.22569366425414
30
0
41
1
10
79.8547838858068
20
-8.17181233982995
30
0
41
1
10
79.8495675059304
20
-8.14213556364297
30
0
41
1
10
79.8485633128545
20
-8.13601710815819
30
0
0
SPLINE
5
274
100
AcDbEntity
8
1
62
256
6
ByLayer
370
25
48
1
60
0
100
AcDbSpline
70
4
71
2
72
6
73
3
40
0
40
0
40
0
40
1
40
1
40
1
41
1
10
79.8485572299732
20
-8.13601733347019
30
0
41
1
10
79.8465098952261
20
-8.12327283175008
30
0
41
1
10
79.845066047878
20
-8.11045012254367
30
0
0
SPLINE
5
275
100
AcDbEntity
8
1
62
256
6
ByLayer
370
25
48
1
60
0
100
AcDbSpline
70
4
71
1
72
4
73
2
40
0
40
0
40
1
40
1
41
1
10
78.57331574735
20
-9.65389600889644
30
0
41
1
10
78.5595290561761
20
-9.63322311577659
30
0
0
SPLINE
5
276
100
AcDbEntity
8
1
62
256
6
ByLayer
370
25
48
1
60
0
100
AcDbSpline
70
4
71
3
72
15
73
11
40
0
40
0
40
0
40
0
40
0.112425674262107
40
0.452263857508747
40
0.718663145697976
40
0.789640689460837
40
0.836831225837904
40
0.88405741012626
40
0.931794677633094
40
1
40
1
40
1
40
1
41
1
10
79.1460591564368
20
-9.36065422473304
30
0
41
1
10
79.1474155882248
20
-9.34376457515649
30
0
41
1
10
79.1500195673676
20
-9.27599501894357
30
0
41
1
10
79.1313700765126
20
-9.16638061913205
30
0
41
1
10
79.0984149841318
20
-9.06959707777764
30
0
41
1
10
79.0791223669739
20
-9.01394934174342
30
0
41
1
10
79.0773454541794
20
-8.98878480715472
30
0
41
1
10
79.0813990741795
20
-8.96923254087029
30
0
41
1
10
79.0911178530591
20
-8.95135787134559
30
0
41
1
10
79.100177693659
20
-8.94257162084567
30
0
41
1
10
79.106478886892
20
-8.93876259663243
30
0
0
SPLINE
5
277
100
AcDbEntity
8
1
62
256
6
ByLayer
370
25
48
1
60
0
100
AcDbSpline
70
4
71
2
72
6
73
3
40
0
40
0
40
0
40
1
40
1
40
1
41
1
10
80.2493197155451
20
-8.07157037492843
30
0
41
1
10
80.390291907696
20
-8.4155240599962
30
0
41
1
10
80.4546571465567
20
-8.75763837037261
30
0
0
SPLINE
5
278
100
AcDbEntity
8
1
62
256
6
ByLayer
370
25
48
1
60
0
100
AcDbSpline
70
4
71
3
72
10
73
6
40
0
40
0
40
0
40
0
40
0.497018893459532
40
0.748335066284172
40
1
40
1
40
1
40
1
41
1
10
80.1745698660312
20
-7.93947390066005
30
0
41
1
10
80.1912418686239
20
-7.96105459090205
30
0
41
1
10
80.2131524640956
20
-7.99377311845672
30
0
41
1
10
80.2346755920381
20
-8.03810044438077
30
0
41
1
10
80.2446739177815
20
-8.06039709962146
30
0
41
1
10
80.2493197155507
20
-8.07157037492874
30
0
0
SPLINE
5
279
100
AcDbEntity
8
1
62
256
6
ByLayer
370
25
48
1
60
0
100
AcDbSpline
70
4
71
2
72
6
73
3
40
0
40
0
40
0
40
1
40
1
40
1
41
1
10
79.2145207026973
20
-8.86273606553418
30
0
41
1
10
79.1629773262609
20
-8.90191363683663
30
0
41
1
10
79.1064853198091
20
-8.93876469306697
30
0
0
SPLINE
5
27A
100
AcDbEntity
8
1
62
256
6
ByLayer
370
25
48
1
60
0
100
AcDbSpline
70
4
71
1
72
4
73
2
40
0
40
0
40
1
40
1
41
1
10
79.258575142655
20
-8.85182377568482
30
0
41
1
10
79.2342362015455
20
-8.853292614971
30
0
0
SPLINE
5
27B
100
AcDbEntity
8
1
62
256
6
ByLayer
370
25
48
1
60
0
100
AcDbSpline
70
4
71
1
72
4
73
2
40
0
40
0
40
1
40
1
41
1
10
79.2342362015455
20
-8.85329261497101
30
0
41
1
10
79.2145201867527
20
-8.86273586160153
30
0
0
SPLINE
5
27C
100
AcDbEntity
8
1
62
256
6
ByLayer
370
25
48
1
60
0
100
AcDbSpline
70
4
71
3
72
12
73
8
40
0
40
0
40
0
40
0
40
0.101607393600085
40
0.533352357271298
40
0.827107925582497
40
0.962789840753436
40
1
40
1
40
1
40
1
41
1
10
79.54555189518
20
-9.05134334476093
30
0
41
1
10
79.5400329715835
20
-9.04173913643767
30
0
41
1
10
79.5085038197297
20
-8.99286142190345
30
0
41
1
10
79.4249915506348
20
-8.94014432578733
30
0
41
1
10
79.3326449109402
20
-8.88446243802015
30
0
41
1
10
79.281265914975
20
-8.85551333391954
30
0
41
1
10
79.2625894654094
20
-8.85231343358139
30
0
41
1
10
79.258575142655
20
-8.85182377568482
30
0
0
SPLINE
5
27D
100
AcDbEntity
8
1
62
256
6
ByLayer
370
25
48
1
60
0
100
AcDbSpline
70
4
71
2
72
6
73
3
40
0
40
0
40
0
40
1
40
1
40
1
41
1
10
79.6308243532574
20
-9.1544206093983
30
0
41
1
10
79.663262225469
20
-9.15854771083959
30
0
41
1
10
79.6875705403459
20
-9.1292968438847
30
0
0
SPLINE
5
27E
100
AcDbEntity
8
1
62
256
6
ByLayer
370
25
48
1
60
0
100
AcDbSpline
70
4
71
3
72
12
73
8
40
0
40
0
40
0
40
0
40
0.279148494460733
40
0.4993279925806
40
0.75051169608409
40
0.876132109739629
40
1
40
1
40
1
40
1
41
1
10
79.7582055095524
20
-8.75378583682228
30
0
41
1
10
79.7550842709428
20
-8.71034281484444
30
0
41
1
10
79.742855564458
20
-8.63451482658212
30
0
41
1
10
79.7019600558227
20
-8.52413991897763
30
0
41
1
10
79.6639292548309
20
-8.44262558583207
30
0
41
1
10
79.6340844642337
20
-8.36501060031639
30
0
41
1
10
79.6354791987683
20
-8.33637229208796
30
0
41
1
10
79.63889441648
20
-8.32354743469207
30
0
0
SPLINE
5
27F
100
AcDbEntity
8
1
62
256
6
ByLayer
370
25
48
1
60
0
100
AcDbSpline
70
4
71
2
72
6
73
3
40
0
40
0
40
0
40
1
40
1
40
1
41
1
10
80.9150262971027
20
-11.2217387920016
30
0
41
1
10
80.9921400839803
20
-11.6234860638194
30
0
41
1
10
81.0054463722269
20
-12.0198066226216
30
0
0
SPLINE
5
280
100
AcDbEntity
8
1
62
256
6
ByLayer
370
25
48
1
60
0
100
AcDbSpline
70
4
71
2
72
6
73
3
40
0
40
0
40
0
40
1
40
1
40
1
41
1
10
80.4546571465567
20
-8.75763837037261
30
0
41
1
10
80.5252699170827
20
-9.12266820874568
30
0
41
1
10
80.4915172639326
20
-9.47858884136469
30
0
0
SPLINE
5
281
100
AcDbEntity
8
1
62
256
6
ByLayer
370
25
48
1
60
0
100
AcDbSpline
70
4
71
2
72
6
73
3
40
0
40
0
40
0
40
1
40
1
40
1
41
1
10
80.914975704145
20
-11.2214619479651
30
0
41
1
10
80.683689892705
20
-9.99600390057431
30
0
41
1
10
80.4550888970042
20
-8.75993967933701
30
0
0
SPLINE
5
282
100
AcDbEntity
8
1
62
256
6
ByLayer
370
25
48
1
60
0
100
AcDbSpline
70
4
71
3
72
12
73
8
40
0
40
0
40
0
40
0
40
0.0061547915052998
40
0.148982468848114
40
0.433612668572688
40
0.750924453789704
40
1
40
1
40
1
40
1
41
1
10
79.6822180090575
20
-8.22521001423024
30
0
41
1
10
79.6825653228715
20
-8.22524903020797
30
0
41
1
10
79.6910218859558
20
-8.22635232952774
30
0
41
1
10
79.7224105925557
20
-8.25050518672838
30
0
41
1
10
79.7766105251765
20
-8.29704104340061
30
0
41
1
10
79.8323486673828
20
-8.35051014946952
30
0
41
1
10
79.8529170444285
20
-8.39345275282192
30
0
41
1
10
79.8596442915957
20
-8.41326193742782
30
0
0
SPLINE
5
283
100
AcDbEntity
8
1
62
256
6
ByLayer
370
25
48
1
60
0
100
AcDbSpline
70
4
71
1
72
4
73
2
40
0
40
0
40
1
40
1
41
1
10
79.6657911191709
20
-8.2390201043004
30
0
41
1
10
79.6822180090574
20
-8.22521001423024
30
0
0
SPLINE
5
284
100
AcDbEntity
8
1
62
256
6
ByLayer
370
25
48
1
60
0
100
AcDbSpline
70
4
71
1
72
4
73
2
40
0
40
0
40
1
40
1
41
1
10
79.910835479057
20
-8.50430156252745
30
0
41
1
10
79.9143533277755
20
-8.48206942887538
30
0
0
SPLINE
5
285
100
AcDbEntity
8
1
62
256
6
ByLayer
370
25
48
1
60
0
100
AcDbSpline
70
4
71
3
72
11
73
7
40
0
40
0
40
0
40
0
40
0.347356128178751
40
0.621486568513109
40
0.933926361007346
40
1
40
1
40
1
40
1
41
1
10
79.8423927106774
20
-8.0916283516073
30
0
41
1
10
79.8321545257273
20
-8.04586435768636
30
0
41
1
10
79.8072908499787
20
-7.96663204355031
30
0
41
1
10
79.7473753824828
20
-7.85579296502543
30
0
41
1
10
79.7013042483836
20
-7.78137988303387
30
0
41
1
10
79.6752915466287
20
-7.73757743425269
30
0
41
1
10
79.6707408860816
20
-7.72993616390232
30
0
0
SPLINE
5
286
100
AcDbEntity
8
1
62
256
6
ByLayer
370
25
48
1
60
0
100
AcDbSpline
70
4
71
1
72
4
73
2
40
0
40
0
40
1
40
1
41
1
10
79.6694678494923
20
-7.63709622200135
30
0
41
1
10
79.6817953195691
20
-7.65716167823881
30
0
0
SPLINE
5
287
100
AcDbEntity
8
1
62
256
6
ByLayer
370
25
48
1
60
0
100
AcDbSpline
70
4
71
3
72
10
73
6
40
0
40
0
40
0
40
0
40
0.149754746654987
40
0.693794174421011
40
1
40
1
40
1
40
1
41
1
10
79.8352737192224
20
-8.05763818306942
30
0
41
1
10
79.8306819608953
20
-8.03755773730193
30
0
41
1
10
79.807203809951
20
-7.94445196259055
30
0
41
1
10
79.7588164906767
20
-7.80981635328215
30
0
41
1
10
79.7020959674232
20
-7.69472628864961
30
0
41
1
10
79.6796694343596
20
-7.65320609656885
30
0
0
SPLINE
5
288
100
AcDbEntity
8
1
62
256
6
ByLayer
370
25
48
1
60
0
100
AcDbSpline
70
4
71
1
72
4
73
2
40
0
40
0
40
1
40
1
41
1
10
69.9879641797688
20
1.4727384236844
30
0
41
1
10
69.942129901339
20
1.10813129777249
30
0
0
SPLINE
5
289
100
AcDbEntity
8
1
62
256
6
ByLayer
370
25
48
1
60
0
100
AcDbSpline
70
4
71
3
72
26
73
22
40
0
40
0
40
0
40
0
40
0.0157648549475356
40
0.0955147215887264
40
0.175165765890133
40
0.233768921792842
40
0.292273035337932
40
0.332542597588391
40
0.372758649857077
40
0.405236429434012
40
0.437684197680323
40
0.470347471705534
40
0.503002089604999
40
0.561071022712205
40
0.621429370529408
40
0.667666233827422
40
0.713974672012589
40
0.781258218589914
40
0.848660179555193
40
0.942641955495964
40
1
40
1
40
1
40
1
41
1
10
74.9540428180923
20
0.934426633283281
30
0
41
1
10
74.9594026046381
20
0.986686624637286
30
0
41
1
10
74.9882030775977
20
1.303401590352
30
0
41
1
10
75.0044140567567
20
1.88764163404823
30
0
41
1
10
74.9293686866085
20
2.61067250381233
30
0
41
1
10
74.7699305163333
20
3.24509596084973
30
0
41
1
10
74.5673408711822
20
3.72833451320498
30
0
41
1
10
74.3225295594214
20
4.11982697717085
30
0
41
1
10
74.0765825183222
20
4.40471339367424
30
0
41
1
10
73.8065092394401
20
4.62805869107437
30
0
41
1
10
73.525100054046
20
4.79313305118309
30
0
41
1
10
73.2168310018485
20
4.90414124600787
30
0
41
1
10
72.8087908604715
20
4.97149708985665
30
0
41
1
10
72.2986349664712
20
4.9193150340369
30
0
41
1
10
71.7905189266146
20
4.70029389464165
30
0
41
1
10
71.3800969062009
20
4.40118785775333
30
0
41
1
10
71.0074572140414
20
4.02489132971092
30
0
41
1
10
70.6618926698568
20
3.53317327084551
30
0
41
1
10
70.3279219253284
20
2.85225204770691
30
0
41
1
10
70.1109745652045
20
2.15558648499274
30
0
41
1
10
70.0156010290983
20
1.6623084749953
30
0
41
1
10
69.9879641797688
20
1.4727384236844
30
0
0
SPLINE
5
28A
100
AcDbEntity
8
1
62
256
6
ByLayer
370
25
48
1
60
0
100
AcDbSpline
70
4
71
2
72
6
73
3
40
0
40
0
40
0
40
1
40
1
40
1
41
1
10
69.1289761166302
20
8.46547690857271
30
0
41
1
10
67.9613443873283
20
8.40097848034713
30
0
41
1
10
66.7978609952037
20
8.53280031491808
30
0
0
SPLINE
5
28B
100
AcDbEntity
8
1
62
256
6
ByLayer
370
25
48
1
60
0
100
AcDbSpline
70
4
71
1
72
4
73
2
40
0
40
0
40
1
40
1
41
1
10
66.7978609952037
20
-7.19370120446041
30
0
41
1
10
76.0674955721617
20
-7.8735609141909
30
0
0
SPLINE
5
28C
100
AcDbEntity
8
1
62
256
6
ByLayer
370
25
48
1
60
0
100
AcDbSpline
70
4
71
3
72
16
73
12
40
0
40
0
40
0
40
0
40
0.106861036368295
40
0.213720571292163
40
0.323810034863768
40
0.433898904193624
40
0.540770932576485
40
0.647644630255349
40
0.757689352369282
40
0.867739373535104
40
1
40
1
40
1
40
1
41
1
10
66.7978609952037
20
8.53280031491808
30
0
41
1
10
66.4462701721803
20
8.59539283982081
30
0
41
1
10
65.7526782080946
20
8.74766501600181
30
0
41
1
10
64.7271130352289
20
9.06152207824449
30
0
41
1
10
63.728772133514
20
9.4604743407119
30
0
41
1
10
62.7752013278222
20
9.93691658982357
30
0
41
1
10
61.8830934870277
20
10.4792535927039
30
0
41
1
10
61.047848704962
20
11.0829896539076
30
0
41
1
10
60.2689022738428
20
11.7478579933444
30
0
41
1
10
59.5033636553931
20
12.5146823785199
30
0
41
1
10
59.0358007336114
20
13.0681291359491
30
0
41
1
10
58.7978609952034
20
13.3791129447014
30
0
0
SPLINE
5
28D
100
AcDbEntity
8
1
62
256
6
ByLayer
370
25
48
1
60
0
100
AcDbSpline
70
4
71
1
72
4
73
2
40
0
40
0
40
1
40
1
41
1
10
64.931468036136
20
-7.82165629666561
30
0
41
1
10
66.7978609952037
20
-7.19370120446041
30
0
0
SPLINE
5
28E
100
AcDbEntity
8
1
62
256
6
ByLayer
370
25
48
1
60
0
100
AcDbSpline
70
4
71
3
72
17
73
13
40
0
40
0
40
0
40
0
40
0.0525625754744189
40
0.166628941430562
40
0.28068321251927
40
0.393180189149824
40
0.50566061207595
40
0.615178162187438
40
0.724687026039986
40
0.831469722870797
40
0.93825936777648
40
1
40
1
40
1
40
1
41
1
10
62.7943129805268
20
-9.38793550758714
30
0
41
1
10
62.800952932432
20
-9.33846422056218
30
0
41
1
10
62.8284321182974
20
-9.18326073559864
30
0
41
1
10
62.9101542834777
20
-8.92779003661385
30
0
41
1
10
63.063703132424
20
-8.63878046805942
30
0
41
1
10
63.2685777398388
20
-8.3814387039411
30
0
41
1
10
63.5143876279999
20
-8.16437700282032
30
0
41
1
10
63.7955924486301
20
-7.99453959882282
30
0
41
1
10
64.099151956232
20
-7.87524559281823
30
0
41
1
10
64.4186538963867
20
-7.80984318270841
30
0
41
1
10
64.6986424075347
20
-7.7983853147696
30
0
41
1
10
64.868964595804
20
-7.81328448141349
30
0
41
1
10
64.931468036136
20
-7.82165629666561
30
0
0
SPLINE
5
28F
100
AcDbEntity
8
1
62
256
6
ByLayer
370
25
48
1
60
0
100
AcDbSpline
70
4
71
1
72
4
73
2
40
0
40
0
40
1
40
1
41
1
10
79.6176047510032
20
-8.23063496153357
30
0
41
1
10
79.6124427121421
20
-8.20962525980075
30
0
0
SPLINE
5
290
100
AcDbEntity
8
1
62
256
6
ByLayer
370
25
48
1
60
0
100
AcDbSpline
70
4
71
3
72
13
73
9
40
0
40
0
40
0
40
0
40
0.145872939781387
40
0.343617169732553
40
0.544172094954169
40
0.75123319058403
40
0.965323530943782
40
1
40
1
40
1
40
1
41
1
10
79.5652856679993
20
-8.32555158764277
30
0
41
1
10
79.5661270617095
20
-8.31503834020676
30
0
41
1
10
79.5686156463267
20
-8.29114199033883
30
0
41
1
10
79.5748129331881
20
-8.2548937594933
30
0
41
1
10
79.5833230900635
20
-8.22243321043063
30
0
41
1
10
79.5926219167504
20
-8.20012981643664
30
0
41
1
10
79.5990835500588
20
-8.19369220509902
30
0
41
1
10
79.6022567936787
20
-8.19354531841677
30
0
41
1
10
79.6026944030063
20
-8.19358872514325
30
0
0
SPLINE
5
291
100
AcDbEntity
8
1
62
256
6
ByLayer
370
25
48
1
60
0
100
AcDbSpline
70
4
71
1
72
4
73
2
40
0
40
0
40
1
40
1
41
1
10
79.5224404729778
20
-8.81124660065937
30
0
41
1
10
79.5652856679993
20
-8.32555158764276
30
0
0
SPLINE
5
292
100
AcDbEntity
8
1
62
256
6
ByLayer
370
25
48
1
60
0
100
AcDbSpline
70
4
71
3
72
11
73
7
40
0
40
0
40
0
40
0
40
0.155998373789604
40
0.453578139992446
40
0.754313797264696
40
1
40
1
40
1
40
1
41
1
10
79.5224404729778
20
-8.81124660065937
30
0
41
1
10
79.521610909663
20
-8.81962429263025
30
0
41
1
10
79.5186813655944
20
-8.84344580267628
30
0
41
1
10
79.5110923282119
20
-8.88203988447868
30
0
41
1
10
79.4993905478382
20
-8.91784177258403
30
0
41
1
10
79.4907916137464
20
-8.93460572056421
30
0
41
1
10
79.4866556737226
20
-8.94099356793173
30
0
0
SPLINE
5
293
100
AcDbEntity
8
1
62
256
6
ByLayer
370
25
48
1
60
0
100
AcDbSpline
70
4
71
3
72
10
73
6
40
0
40
0
40
0
40
0
40
0.09082034368955
40
0.755173656483033
40
1
40
1
40
1
40
1
41
1
10
79.1479601292715
20
-8.83195762607722
30
0
41
1
10
79.1471658123132
20
-8.83095220104895
30
0
41
1
10
79.1404401755801
20
-8.82293117353427
30
0
41
1
10
79.129793441315
20
-8.81611090918545
30
0
41
1
10
79.1191667703114
20
-8.813913339967
30
0
41
1
10
79.1162071879543
20
-8.81361668347921
30
0
0
SPLINE
5
294
100
AcDbEntity
8
1
62
256
6
ByLayer
370
25
48
1
60
0
100
AcDbSpline
70
4
71
2
72
6
73
3
40
0
40
0
40
0
40
1
40
1
40
1
41
1
10
78.8795243382626
20
-9.41489317703191
30
0
41
1
10
78.945751763658
20
-9.17747720163089
30
0
41
1
10
79.0020164006757
20
-8.93753888589885
30
0
0
SPLINE
5
295
100
AcDbEntity
8
1
62
256
6
ByLayer
370
25
48
1
60
0
100
AcDbSpline
70
4
71
3
72
11
73
7
40
0
40
0
40
0
40
0
40
0.178161416094555
40
0.404988691429321
40
0.74237353898498
40
1
40
1
40
1
40
1
41
1
10
78.8795243382626
20
-9.41489317703191
30
0
41
1
10
78.8764553109485
20
-9.42551792787789
30
0
41
1
10
78.8681401383642
20
-9.44844575068754
30
0
41
1
10
78.8462727291005
20
-9.48626902229916
30
0
41
1
10
78.8163426568042
20
-9.51781193307788
30
0
41
1
10
78.7934625144176
20
-9.53310653495484
30
0
41
1
10
78.78311472041
20
-9.53829143571443
30
0
0
SPLINE
5
296
100
AcDbEntity
8
1
62
256
6
ByLayer
370
25
48
1
60
0
100
AcDbSpline
70
4
71
1
72
4
73
2
40
0
40
0
40
1
40
1
41
1
10
78.564889492087
20
-9.63955887060152
30
0
41
1
10
78.78311472041
20
-9.53829143571443
30
0
0
SPLINE
5
297
100
AcDbEntity
8
1
62
256
6
ByLayer
370
25
48
1
60
0
100
AcDbSpline
70
4
71
2
72
6
73
3
40
0
40
0
40
0
40
1
40
1
40
1
41
1
10
77.6601408540316
20
-9.35229439386065
30
0
41
1
10
77.7333864664082
20
-9.33986278234146
30
0
41
1
10
77.8009625981048
20
-9.34685627859351
30
0
0
SPLINE
5
298
100
AcDbEntity
8
1
62
256
6
ByLayer
370
25
48
1
60
0
100
AcDbSpline
70
4
71
3
72
13
73
9
40
0
40
0
40
0
40
0
40
0.215855894104499
40
0.431380596491156
40
0.651115997647742
40
0.762739584832278
40
0.874002368129979
40
1
40
1
40
1
40
1
41
1
10
77.6601408540316
20
-9.35229439386061
30
0
41
1
10
77.5981706212757
20
-9.21008773547131
30
0
41
1
10
77.4552109754803
20
-8.93437550894275
30
0
41
1
10
77.1899836670236
20
-8.53732472336766
30
0
41
1
10
76.9044263279314
20
-8.23652054532616
30
0
41
1
10
76.6209457443082
20
-8.03948531780922
30
0
41
1
10
76.3651805722662
20
-7.91963435220287
30
0
41
1
10
76.1742552639625
20
-7.88247200628755
30
0
41
1
10
76.0674955721617
20
-7.8735609141909
30
0
0
SPLINE
5
299
100
AcDbEntity
8
1
62
256
6
ByLayer
370
25
48
1
60
0
100
AcDbSpline
70
4
71
3
72
17
73
13
40
0
40
0
40
0
40
0
40
0.0753887586045365
40
0.150820371735819
40
0.225816339606059
40
0.300867844084366
40
0.403364784682614
40
0.505993749975365
40
0.645216351099675
40
0.784643178496669
40
0.892305732663233
40
1
40
1
40
1
40
1
41
1
10
76.0674955721618
20
8.84702692324364
30
0
41
1
10
76.2460503254962
20
8.85692188258396
30
0
41
1
10
76.5948665906518
20
8.88692664238804
30
0
41
1
10
77.0989513004636
20
8.96394085266532
30
0
41
1
10
77.5633746762489
20
9.06828988792221
30
0
41
1
10
78.0344228075101
20
9.20953777057004
30
0
41
1
10
78.484177671119
20
9.39242932715696
30
0
41
1
10
78.9335701240006
20
9.64164414586299
30
0
41
1
10
79.2998190114225
20
9.93932170435524
30
0
41
1
10
79.5342603212607
20
10.2527444873847
30
0
41
1
10
79.6490432692819
20
10.54409711954
30
0
41
1
10
79.6720003546787
20
10.7204685646702
30
0
41
1
10
79.6712589307375
20
10.8087416346359
30
0
0
SPLINE
5
29A
100
AcDbEntity
8
1
62
256
6
ByLayer
370
25
48
1
60
0
100
AcDbSpline
70
4
71
3
72
17
73
13
40
0
40
0
40
0
40
0
40
0.097550090413248
40
0.195115883544445
40
0.296254666382918
40
0.397411593482853
40
0.494728295369556
40
0.592056816982557
40
0.691456658946058
40
0.790864928326088
40
0.89520842053495
40
1
40
1
40
1
40
1
41
1
10
58.7978609952035
20
13.3791129447013
30
0
41
1
10
58.5606945694678
20
13.6697040965031
30
0
41
1
10
58.118474681827
20
14.2570011963683
30
0
41
1
10
57.545806236464
20
15.174632423126
30
0
41
1
10
57.0644722199747
20
16.1070139540797
30
0
41
1
10
56.6758471600854
20
17.0295991421113
30
0
41
1
10
56.3745302278157
20
17.9188350214459
30
0
41
1
10
56.1470553554795
20
18.7736197476511
30
0
41
1
10
55.9837354950985
20
19.5971005860347
30
0
41
1
10
55.8768225713174
20
20.3960962359127
30
0
41
1
10
55.8242776777133
20
21.1587450757395
30
0
41
1
10
55.8218647464389
20
21.6372229775709
30
0
41
1
10
55.8294888419894
20
21.8675935001682
30
0
0
SPLINE
5
29B
100
AcDbEntity
8
1
62
256
6
ByLayer
370
25
48
1
60
0
100
AcDbSpline
70
4
71
3
72
21
73
17
40
0
40
0
40
0
40
0
40
0.0622934083895224
40
0.124585557898261
40
0.218789243764413
40
0.313405272233479
40
0.408024035218133
40
0.502231466270701
40
0.57229858491496
40
0.642562033801464
40
0.712742494991818
40
0.782696106581061
40
0.836309626930494
40
0.890060829891302
40
0.943623696791546
40
1
40
1
40
1
40
1
41
1
10
55.8294888419894
20
21.8675935001682
30
0
41
1
10
56.0242273576305
20
21.6870677086919
30
0
41
1
10
56.4345276608773
20
21.3241210333575
30
0
41
1
10
57.2264664079922
20
20.6751913520162
30
0
41
1
10
58.2459218423152
20
19.9348405823746
30
0
41
1
10
59.5348263444184
20
19.1358188287395
30
0
41
1
10
60.9475497865755
20
18.4034119433825
30
0
41
1
10
62.3467920496929
20
17.8175702224184
30
0
41
1
10
63.6787458264097
20
17.3906651553001
30
0
41
1
10
64.9140041078706
20
17.0896891646992
30
0
41
1
10
66.1971459097585
20
16.8559213801179
30
0
41
1
10
67.4230383948359
20
16.6968218546419
30
0
41
1
10
68.5856400114897
20
16.5837530885467
30
0
41
1
10
69.6682531219075
20
16.502276553877
30
0
41
1
10
70.7864023402209
20
16.4453767525568
30
0
41
1
10
71.5345899355136
20
16.4269800728527
30
0
41
1
10
71.9187678235441
20
16.4225902363664
30
0
0
SPLINE
5
29C
100
AcDbEntity
8
1
62
256
6
ByLayer
370
25
48
1
60
0
100
AcDbSpline
70
4
71
3
72
11
73
7
40
0
40
0
40
0
40
0
40
0.252902109707148
40
0.505799691747395
40
0.75245532341347
40
1
40
1
40
1
40
1
41
1
10
51.0983518655474
20
-12.5142583773026
30
0
41
1
10
51.0951941008478
20
-12.4568121398894
30
0
41
1
10
51.0930075430214
20
-12.341762395653
30
0
41
1
10
51.1021426023358
20
-12.1698415798063
30
0
41
1
10
51.1230567873286
20
-11.9992625943494
30
0
41
1
10
51.1444015131778
20
-11.8870124468553
30
0
41
1
10
51.156997480119
20
-11.8308910421556
30
0
0
SPLINE
5
29D
100
AcDbEntity
8
1
62
256
6
ByLayer
370
25
48
1
60
0
100
AcDbSpline
70
4
71
3
72
18
73
14
40
0
40
0
40
0
40
0
40
0.0293882185092402
40
0.121985860374101
40
0.214887126109473
40
0.307512058567299
40
0.412734160033635
40
0.51833249470701
40
0.624033877947603
40
0.729396976975626
40
0.819566545995534
40
0.909837487832334
40
1
40
1
40
1
40
1
41
1
10
55.8294888419894
20
-22.3923438727367
30
0
41
1
10
55.727659726345
20
-22.3396165967974
30
0
41
1
10
55.3133265710713
20
-22.1144468763163
30
0
41
1
10
54.6438639698378
20
-21.6708489276072
30
0
41
1
10
53.8989984483849
20
-21.0080871404291
30
0
41
1
10
53.2559016989806
20
-20.2223147872923
30
0
41
1
10
52.7133318564124
20
-19.3047881270043
30
0
41
1
10
52.2445559814864
20
-18.2584074077879
30
0
41
1
10
51.8648361227493
20
-17.1291921756475
30
0
41
1
10
51.5677848428821
20
-15.9830351600945
30
0
41
1
10
51.3407237668396
20
-14.8351877203776
30
0
41
1
10
51.1851925265574
20
-13.6996095753846
30
0
41
1
10
51.1207309901245
20
-12.9141597881482
30
0
41
1
10
51.0983518655474
20
-12.5142583773026
30
0
0
SPLINE
5
29E
100
AcDbEntity
8
1
62
256
6
ByLayer
370
25
48
1
60
0
100
AcDbSpline
70
4
71
3
72
17
73
13
40
0
40
0
40
0
40
0
40
0.0975500904132461
40
0.195115883544442
40
0.296254666382912
40
0.397411593482845
40
0.494728295369546
40
0.592056816982545
40
0.691456658946044
40
0.790864928326072
40
0.895208420534941
40
1
40
1
40
1
40
1
41
1
10
58.7978609952035
20
-25.5493427619194
30
0
41
1
10
58.5606945694678
20
-25.5407236633275
30
0
41
1
10
58.118474681827
20
-25.506892713755
30
0
41
1
10
57.5458062364641
20
-25.4080748102386
30
0
41
1
10
57.0644722199748
20
-25.2500617859616
30
0
41
1
10
56.6758471600854
20
-25.0317855438366
30
0
41
1
10
56.3745302278158
20
-24.7546458795286
30
0
41
1
10
56.1470553554795
20
-24.4197967576081
30
0
41
1
10
55.9837354950985
20
-24.0217226731318
30
0
41
1
10
55.8768225713174
20
-23.5532615574763
30
0
41
1
10
55.8242776777133
20
-23.0138021832132
30
0
41
1
10
55.8218647464388
20
-22.6068302960879
30
0
41
1
10
55.8294888419894
20
-22.3923438727367
30
0
0
SPLINE
5
29F
100
AcDbEntity
8
1
62
256
6
ByLayer
370
25
48
1
60
0
100
AcDbSpline
70
4
71
3
72
16
73
12
40
0
40
0
40
0
40
0
40
0.047550752430039
40
0.128553066803428
40
0.20879396188836
40
0.289105898664759
40
0.409473436828122
40
0.529992323491848
40
0.680726876380689
40
0.831531215821289
40
1
40
1
40
1
40
1
41
1
10
51.2001665665264
20
25.5278804146323
30
0
41
1
10
51.2243406258286
20
25.5237259394426
30
0
41
1
10
51.3006168268733
20
25.5118789757387
30
0
41
1
10
51.4760230055246
20
25.4892956494089
30
0
41
1
10
51.7403394002521
20
25.4607207449243
30
0
41
1
10
52.1018225432278
20
25.4267918494533
30
0
41
1
10
52.5762354994533
20
25.3897423551424
30
0
41
1
10
53.2123989454941
20
25.3508737912305
30
0
41
1
10
53.944807478584
20
25.3207054834255
30
0
41
1
10
54.7923037390267
20
25.3040653199403
30
0
41
1
10
55.3682476724148
20
25.3070667672121
30
0
41
1
10
55.6742467124687
20
25.3124449931566
30
0
0
SPLINE
5
2A0
100
AcDbEntity
8
1
62
256
6
ByLayer
370
25
48
1
60
0
100
AcDbSpline
70
4
71
3
72
18
73
14
40
0
40
0
40
0
40
0
40
0.0299890405939917
40
0.124479778095522
40
0.219280346850526
40
0.313798932882583
40
0.421172228452306
40
0.528929449060396
40
0.636791824993382
40
0.744309000723781
40
0.836322025086996
40
0.928438494765208
40
1
40
1
40
1
40
1
41
1
10
55.8294888419891
20
21.8675935001684
30
0
41
1
10
55.7276597263449
20
21.9244050356906
30
0
41
1
10
55.3133265709705
20
22.1605854480216
30
0
41
1
10
54.6438639710374
20
22.5842451529304
30
0
41
1
10
53.8989984440613
20
23.1250088639954
30
0
41
1
10
53.2559017159407
20
23.6663451831721
30
0
41
1
10
52.7133317833582
20
24.17677322318
30
0
41
1
10
52.2445562541656
20
24.6340733770492
30
0
41
1
10
51.8648351058013
20
25.0098163884877
30
0
41
1
10
51.5677883940234
20
25.2804439588004
30
0
41
1
10
51.3407126159195
20
25.4545239576207
30
0
41
1
10
51.1967455813054
20
25.5416152545471
30
0
41
1
10
51.135467139663
20
25.5587004627528
30
0
41
1
10
51.114611652012
20
25.5588741600381
30
0
0
SPLINE
5
2A1
100
AcDbEntity
8
1
62
256
6
ByLayer
370
25
48
1
60
0
100
AcDbSpline
70
4
71
3
72
13
73
9
40
0
40
0
40
0
40
0
40
0.180344959810666
40
0.360885909633155
40
0.53972978002508
40
0.718731990762631
40
0.987011605189889
40
1
40
1
40
1
40
1
41
1
10
51.1575314675236
20
-11.8309517999656
30
0
41
1
10
51.1877139621964
20
-11.7022487893206
30
0
41
1
10
51.2722057724565
20
-11.4532253808035
30
0
41
1
10
51.4761155211428
20
-11.1018061473204
30
0
41
1
10
51.7403477294801
20
-10.7855198014708
30
0
41
1
10
52.1016744466767
20
-10.4586037591191
30
0
41
1
10
52.4073802943302
20
-10.2584312995025
30
0
41
1
10
52.6029197522247
20
-10.1502527445395
30
0
41
1
10
52.6119749340106
20
-10.1452887733372
30
0
0
SPLINE
5
2A2
100
AcDbEntity
8
1
62
256
6
ByLayer
370
25
48
1
60
0
100
AcDbSpline
70
4
71
3
72
13
73
9
40
0
40
0
40
0
40
0
40
0.0811068003230283
40
0.542059695793683
40
0.698217929308278
40
0.855466894270575
40
0.966212236972838
40
1
40
1
40
1
40
1
41
1
10
11.8943375672974
20
23.6665017920809
30
0
41
1
10
11.8894428381777
20
23.6728293617709
30
0
41
1
10
11.8534346287606
20
23.7145200781299
30
0
41
1
10
11.7877522749416
20
23.7663890526222
30
0
41
1
10
11.6656255980129
20
23.8124861135428
30
0
41
1
10
11.5793223070755
20
23.8319383085953
30
0
41
1
10
11.5056611588718
20
23.8385548003314
30
0
41
1
10
11.4698010058117
20
23.8391220894067
30
0
41
1
10
11.4613248654052
20
23.8391299750504
30
0
0
SPLINE
5
2A3
100
AcDbEntity
8
1
62
256
6
ByLayer
370
25
48
1
60
0
100
AcDbSpline
70
4
71
3
72
12
73
8
40
0
40
0
40
0
40
0
40
0.077706524341176
40
0.182768991260481
40
0.35550970527428
40
0.661119206188128
40
1
40
1
40
1
40
1
41
1
10
8.5386751345948
20
23.8391299750504
30
0
41
1
10
8.51889061425138
20
23.8390510092636
30
0
41
1
10
8.47384249247803
20
23.8374170803539
30
0
41
1
10
8.39097933474599
20
23.8265956452496
30
0
41
1
10
8.28079022698231
20
23.7967264721262
30
0
41
1
10
8.17813160018113
20
23.7411879478121
30
0
41
1
10
8.12412228713196
20
23.6935586164053
30
0
41
1
10
8.1056624327026
20
23.6665017920809
30
0
0
SPLINE
5
2A4
100
AcDbEntity
8
1
62
256
6
ByLayer
370
25
48
1
60
0
100
AcDbSpline
70
4
71
3
72
13
73
9
40
0
40
0
40
0
40
0
40
0.0811068003230406
40
0.542059695793727
40
0.698217929308311
40
0.855466894270597
40
0.966212236972875
40
1
40
1
40
1
40
1
41
1
10
8.1056624327026
20
8.05584836782774
30
0
41
1
10
8.11055716182229
20
8.037251714098
30
0
41
1
10
8.14656537123945
20
7.91434257650656
30
0
41
1
10
8.21224772505843
20
7.75704006565196
30
0
41
1
10
8.33437440198707
20
7.61365769814302
30
0
41
1
10
8.42067769292451
20
7.55243803205593
30
0
41
1
10
8.49433884112821
20
7.53148602816115
30
0
41
1
10
8.53019899418831
20
7.52969262189674
30
0
41
1
10
8.5386751345948
20
7.52966679426498
30
0
0
SPLINE
5
2A5
100
AcDbEntity
8
1
62
256
6
ByLayer
370
25
48
1
60
0
100
AcDbSpline
70
4
71
3
72
12
73
8
40
0
40
0
40
0
40
0
40
0.0777065243411912
40
0.182768991260512
40
0.355509705274328
40
0.661119206188188
40
1
40
1
40
1
40
1
41
1
10
11.4613248654052
20
7.52966679426499
30
0
41
1
10
11.4811093857486
20
7.52992453895395
30
0
41
1
10
11.526157507522
20
7.53508753718821
30
0
41
1
10
11.609020665254
20
7.56930040674384
30
0
41
1
10
11.7192097730177
20
7.66302821977539
30
0
41
1
10
11.8218683998189
20
7.83415197314226
30
0
41
1
10
11.875877712868
20
7.97612018956256
30
0
41
1
10
11.8943375672974
20
8.05584836782772
30
0
0
SPLINE
5
2A6
100
AcDbEntity
8
1
62
256
6
ByLayer
370
25
48
1
60
0
100
AcDbSpline
70
4
71
3
72
13
73
9
40
0
40
0
40
0
40
0
40
0.0811068003230052
40
0.542059695793584
40
0.698217929308206
40
0.855466894270537
40
0.966212236972803
40
1
40
1
40
1
40
1
41
1
10
11.8943375672974
20
-8.05584836782772
30
0
41
1
10
11.8894428381777
20
-8.03725171409798
30
0
41
1
10
11.8534346287606
20
-7.91434257650657
30
0
41
1
10
11.7877522749416
20
-7.757040065652
30
0
41
1
10
11.665625598013
20
-7.61365769814306
30
0
41
1
10
11.5793223070755
20
-7.55243803205595
30
0
41
1
10
11.5056611588718
20
-7.5314860281611
30
0
41
1
10
11.4698010058117
20
-7.52969262189673
30
0
41
1
10
11.4613248654052
20
-7.52966679426498
30
0
0
SPLINE
5
2A7
100
AcDbEntity
8
1
62
256
6
ByLayer
370
25
48
1
60
0
100
AcDbSpline
70
4
71
3
72
12
73
8
40
0
40
0
40
0
40
0
40
0.0777065243411573
40
0.182768991260458
40
0.35550970527427
40
0.661119206188072
40
1
40
1
40
1
40
1
41
1
10
8.5386751345948
20
-7.52966679426496
30
0
41
1
10
8.51889061425139
20
-7.52992453895393
30
0
41
1
10
8.47384249247805
20
-7.53508753718822
30
0
41
1
10
8.39097933474599
20
-7.56930040674383
30
0
41
1
10
8.28079022698232
20
-7.66302821977534
30
0
41
1
10
8.17813160018114
20
-7.83415197314225
30
0
41
1
10
8.12412228713196
20
-7.97612018956255
30
0
41
1
10
8.1056624327026
20
-8.05584836782773
30
0
0
SPLINE
5
2A8
100
AcDbEntity
8
1
62
256
6
ByLayer
370
25
48
1
60
0
100
AcDbSpline
70
4
71
3
72
13
73
9
40
0
40
0
40
0
40
0
40
0.081106800323033
40
0.542059695793719
40
0.698217929308317
40
0.855466894270595
40
0.966212236972875
40
1
40
1
40
1
40
1
41
1
10
8.1056624327026
20
-23.6665017920809
30
0
41
1
10
8.1105571618223
20
-23.6728293617709
30
0
41
1
10
8.14656537123944
20
-23.7145200781298
30
0
41
1
10
8.21224772505842
20
-23.7663890526222
30
0
41
1
10
8.33437440198708
20
-23.8124861135428
30
0
41
1
10
8.42067769292452
20
-23.8319383085953
30
0
41
1
10
8.49433884112821
20
-23.8385548003314
30
0
41
1
10
8.53019899418831
20
-23.8391220894067
30
0
41
1
10
8.5386751345948
20
-23.8391299750503
30
0
0
SPLINE
5
2A9
100
AcDbEntity
8
1
62
256
6
ByLayer
370
25
48
1
60
0
100
AcDbSpline
70
4
71
3
72
12
73
8
40
0
40
0
40
0
40
0
40
0.0777065243411904
40
0.182768991260512
40
0.35550970527433
40
0.66111920618818
40
1
40
1
40
1
40
1
41
1
10
11.4613248654052
20
-23.8391299750504
30
0
41
1
10
11.4811093857486
20
-23.8390510092636
30
0
41
1
10
11.526157507522
20
-23.8374170803539
30
0
41
1
10
11.609020665254
20
-23.8265956452496
30
0
41
1
10
11.7192097730177
20
-23.7967264721262
30
0
41
1
10
11.8218683998189
20
-23.7411879478122
30
0
41
1
10
11.875877712868
20
-23.6935586164053
30
0
41
1
10
11.8943375672974
20
-23.6665017920809
30
0
0
SPLINE
5
2AA
100
AcDbEntity
8
1
62
256
6
ByLayer
370
25
48
1
60
0
100
AcDbSpline
70
4
71
3
72
16
73
12
40
0
40
0
40
0
40
0
40
0.17379017989072
40
0.347607850022426
40
0.52127771625605
40
0.625479573439477
40
0.72959582805458
40
0.816457813287705
40
0.903045610593724
40
0.951601946626634
40
1
40
1
40
1
40
1
41
1
10
76.1330590506658
20
16.3736967040565
30
0
41
1
10
76.1116246510586
20
16.1626619820448
30
0
41
1
10
76.0916487636203
20
15.7413385040017
30
0
41
1
10
76.1196609906374
20
15.1110357033016
30
0
41
1
10
76.2219714741324
20
14.568316940836
30
0
41
1
10
76.3803284112115
20
14.113931240757
30
0
41
1
10
76.5828257104158
20
13.7695003257246
30
0
41
1
10
76.8652331926537
20
13.4563611635833
30
0
41
1
10
77.1976717406794
20
13.2228369987708
30
0
41
1
10
77.5649116230887
20
13.0511064307293
30
0
41
1
10
77.8065667678608
20
12.9771185214181
30
0
41
1
10
77.9380225381066
20
12.9436344819754
30
0
0
SPLINE
5
2AB
100
AcDbEntity
8
1
62
256
6
ByLayer
370
25
48
1
60
0
100
AcDbSpline
70
4
71
1
72
4
73
2
40
0
40
0
40
1
40
1
41
1
10
77.9380225381066
20
12.9436344819754
30
0
41
1
10
78.0933825210116
20
12.906208214866
30
0
0
SPLINE
5
2AC
100
AcDbEntity
8
1
62
256
6
ByLayer
370
25
48
1
60
0
100
AcDbSpline
70
4
71
2
72
6
73
3
40
0
40
0
40
0
40
1
40
1
40
1
41
1
10
78.0933825210116
20
12.906208214866
30
0
41
1
10
78.7107999826514
20
12.1669190009275
30
0
41
1
10
79.5127449520328
20
11.4546775695711
30
0
0
SPLINE
5
2AD
100
AcDbEntity
8
1
62
256
6
ByLayer
370
25
48
1
60
0
100
AcDbSpline
70
4
71
2
72
6
73
3
40
0
40
0
40
0
40
1
40
1
40
1
41
1
10
79.6668784289935
20
11.2109731434945
30
0
41
1
10
79.6402579483073
20
11.3387357529799
30
0
41
1
10
79.5127449520328
20
11.4546775695711
30
0
0
SPLINE
5
2AE
100
AcDbEntity
8
1
62
256
6
ByLayer
370
25
48
1
60
0
100
AcDbSpline
70
4
71
1
72
4
73
2
40
0
40
0
40
1
40
1
41
1
10
79.6712589307375
20
10.8087416346359
30
0
41
1
10
79.6668784289935
20
11.2109731434945
30
0
0
SPLINE
5
2AF
100
AcDbEntity
8
1
62
256
6
ByLayer
370
25
48
1
60
0
100
AcDbSpline
70
4
71
1
72
4
73
2
40
0
40
0
40
1
40
1
41
1
10
71.918767823544
20
16.4225902363664
30
0
41
1
10
76.1330590506658
20
16.3736967040565
30
0
0
SPLINE
5
2B0
100
AcDbEntity
8
1
62
256
6
ByLayer
370
25
48
1
60
0
100
AcDbSpline
70
4
71
2
72
6
73
3
40
0
40
0
40
0
40
1
40
1
40
1
41
1
10
77.8009625981048
20
-9.34685627859351
30
0
41
1
10
77.851198996398
20
-9.35046598784938
30
0
41
1
10
77.892794325562
20
-9.37148863356869
30
0
0
SPLINE
5
2B1
100
AcDbEntity
8
1
62
256
6
ByLayer
370
25
48
1
60
0
100
AcDbSpline
70
4
71
3
72
11
73
7
40
0
40
0
40
0
40
0
40
0.196178962174759
40
0.453969655380871
40
0.711879699613071
40
1
40
1
40
1
40
1
41
1
10
52.6119749340106
20
-10.1452887733372
30
0
41
1
10
52.7924455841657
20
-10.0482106021956
30
0
41
1
10
53.2213758295799
20
-9.85115361691655
30
0
41
1
10
53.945137351205
20
-9.64350467704103
30
0
41
1
10
54.7921975901755
20
-9.5346159988134
30
0
41
1
10
55.3682476724148
20
-9.55399035883258
30
0
41
1
10
55.6742467124687
20
-9.58993277937443
30
0
0
SPLINE
5
2B2
100
AcDbEntity
8
1
62
256
6
ByLayer
370
25
48
1
60
0
100
AcDbSpline
70
4
71
2
72
6
73
3
40
0
40
0
40
0
40
1
40
1
40
1
41
1
10
53.8683530826164
20
-10.3541873610819
30
0
41
1
10
53.9301860746103
20
-9.95062556424968
30
0
41
1
10
54.102121920396
20
-9.63323568681446
30
0
0
SPLINE
5
2B3
100
AcDbEntity
8
1
62
256
6
ByLayer
370
25
48
1
60
0
100
AcDbSpline
70
4
71
2
72
6
73
3
40
0
40
0
40
0
40
1
40
1
40
1
41
1
10
53.8702196849591
20
-10.355246192087
30
0
41
1
10
52.502164003062
20
-11.0866024274495
30
0
41
1
10
51.1571047832557
20
-11.8308325723992
30
0
0
SPLINE
5
2B4
100
AcDbEntity
8
1
62
256
6
ByLayer
370
25
48
1
60
0
100
AcDbSpline
70
4
71
3
72
12
73
8
40
0
40
0
40
0
40
0
40
0.163220489097241
40
0.428218340755681
40
0.695282351415074
40
0.873002559496616
40
1
40
1
40
1
40
1
41
1
10
79.1162071879543
20
-8.81361668347921
30
0
41
1
10
79.1097285629945
20
-8.81298991776774
30
0
41
1
10
79.092436994709
20
-8.81462356232129
30
0
41
1
10
79.0618390408674
20
-8.8314913741237
30
0
41
1
10
79.0316099328947
20
-8.86590641859144
30
0
41
1
10
79.0115797706495
20
-8.90462220049112
30
0
41
1
10
79.0044814532882
20
-8.92750064101957
30
0
41
1
10
79.0020164006757
20
-8.93753888589884
30
0
0
SPLINE
5
2B5
100
AcDbEntity
8
1
62
256
6
ByLayer
370
25
48
1
60
0
100
AcDbSpline
70
4
71
2
72
6
73
3
40
0
40
0
40
0
40
1
40
1
40
1
41
1
10
55.5740598537823
20
-9.57594672784536
30
0
41
1
10
54.6574719059974
20
-9.9239606939695
30
0
41
1
10
53.8702196849591
20
-10.355246192087
30
0
0
SPLINE
5
2B6
100
AcDbEntity
8
1
62
256
6
ByLayer
370
25
48
1
60
0
100
AcDbSpline
70
4
71
3
72
14
73
10
40
0
40
0
40
0
40
0
40
0.154001744084188
40
0.30800333058393
40
0.462012944013635
40
0.615980621152997
40
0.769889258118042
40
0.971540743778784
40
1
40
1
40
1
40
1
41
1
10
51.0983518655474
20
-12.5142583773026
30
0
41
1
10
51.384556580456
20
-12.3583046123777
30
0
41
1
10
51.9567223493677
20
-12.0462678562965
30
0
41
1
10
52.8163671617553
20
-11.5789371273458
30
0
41
1
10
53.6709956868776
20
-11.1090115764703
30
0
41
1
10
54.5528971228114
20
-10.6539875653976
30
0
41
1
10
55.6188867423996
20
-10.2090248045559
30
0
41
1
10
56.4959233346129
20
-9.92597453783139
30
0
41
1
10
57.0429841780633
20
-9.77569084819553
30
0
41
1
10
57.1110221141271
20
-9.75740675798385
30
0
0
SPLINE
5
2B7
100
AcDbEntity
8
1
62
256
6
ByLayer
370
25
48
1
60
0
100
AcDbSpline
70
4
71
3
72
18
73
14
40
0
40
0
40
0
40
0
40
0.078014318359808
40
0.156027060136655
40
0.274004812997348
40
0.392498970850618
40
0.510996553325774
40
0.628978996540918
40
0.71672886674046
40
0.804724614801208
40
0.892616431664183
40
0.980224149174459
40
1
40
1
40
1
40
1
41
1
10
55.8294888419894
20
-22.3923438727367
30
0
41
1
10
56.0242273576305
20
-22.0136115322841
30
0
41
1
10
56.4345276561214
20
-21.2686535623936
30
0
41
1
10
57.226466428292
20
-20.0003793080228
30
0
41
1
10
58.2459217227963
20
-18.6193486127907
30
0
41
1
10
59.5348267864837
20
-17.1745571471336
30
0
41
1
10
60.9475481416273
20
-15.8498777191723
30
0
41
1
10
62.3467974971849
20
-14.7659276425463
30
0
41
1
10
63.6787311793013
20
-13.8746857069264
30
0
41
1
10
64.9140594589401
20
-13.1410259112126
30
0
41
1
10
66.1969397643505
20
-12.4991861941826
30
0
41
1
10
67.1842395714216
20
-12.103171462452
30
0
41
1
10
67.7396560353252
20
-11.9216738755457
30
0
41
1
10
67.8423627886448
20
-11.8893350099177
30
0
0
SPLINE
5
2B8
100
AcDbEntity
8
1
62
256
6
ByLayer
370
25
48
1
60
0
100
AcDbSpline
70
4
71
2
72
6
73
3
40
0
40
0
40
0
40
1
40
1
40
1
41
1
10
79.6026944030063
20
-8.19358872514325
30
0
41
1
10
79.6085814603854
20
-8.19430869362996
30
0
41
1
10
79.6124427121421
20
-8.20962525980075
30
0
0
SPLINE
5
2B9
100
AcDbEntity
8
SK1
62
256
6
ByLayer
370
25
48
1
60
0
100
AcDbSpline
70
4
71
3
72
17
73
13
40
0
40
0
40
0
40
0
40
0.465457938185465
40
0.669662180343733
40
0.79744232045594
40
0.861490138022537
40
0.88864759499035
40
0.916097053354005
40
0.934210258087868
40
0.95230600004312
40
0.979295292777518
40
1
40
1
40
1
40
1
41
1
10
-0.200000000000034
20
-5.88142397393345
30
0
41
1
10
-0.196064780878196
20
-5.75474600051132
30
0
41
1
10
-0.206550484850163
20
-5.57211638253502
30
0
41
1
10
-0.237471186174824
20
-5.35217005221442
30
0
41
1
10
-0.267090677467069
20
-5.24425320648203
30
0
41
1
10
-0.29508069341867
20
-5.18770607233035
30
0
41
1
10
-0.317143976463854
20
-5.16155884609183
30
0
41
1
10
-0.334765012251021
20
-5.14943870550171
30
0
41
1
10
-0.352612345144743
20
-5.14558056513737
30
0
41
1
10
-0.370127193634112
20
-5.14797939356445
30
0
41
1
10
-0.386105770350306
20
-5.15659845326695
30
0
41
1
10
-0.39601661655769
20
-5.16464018010361
30
0
41
1
10
-0.400000000000136
20
-5.16866679574308
30
0
0
SPLINE
5
2BA
100
AcDbEntity
8
SK1
62
256
6
ByLayer
370
25
48
1
60
0
100
AcDbSpline
70
4
71
3
72
16
73
12
40
0
40
0
40
0
40
0
40
0.0439503849783768
40
0.0882962095955638
40
0.119823748748122
40
0.151333080321379
40
0.197785752387286
40
0.285208338526169
40
0.432294100650388
40
0.580085301698444
40
1
40
1
40
1
40
1
41
1
10
-0.400000000000039
20
-5.1686667957453
30
0
41
1
10
-0.42026055215972
20
-5.18959123991626
30
0
41
1
10
-0.465532793809275
20
-5.22459689576231
30
0
41
1
10
-0.540325064014481
20
-5.25975746385927
30
0
41
1
10
-0.615566278393633
20
-5.26603853608321
30
0
41
1
10
-0.689853412389386
20
-5.24890814810325
30
0
41
1
10
-0.785804329696833
20
-5.19137211714252
30
0
41
1
10
-0.905339112737079
20
-5.05378758708953
30
0
41
1
10
-1.02152968139791
20
-4.84183055168637
30
0
41
1
10
-1.17561394769116
20
-4.42035003265082
30
0
41
1
10
-1.2655640978545
20
-4.07230605007292
30
0
41
1
10
-1.30710678118702
20
-3.80474664113025
30
0
0
SPLINE
5
2BB
100
AcDbEntity
8
SK1
62
256
6
ByLayer
370
25
48
1
60
0
100
AcDbSpline
70
4
71
3
72
16
73
12
40
0
40
0
40
0
40
0
40
0.372124531177943
40
0.561571320797554
40
0.748869885614983
40
0.830967385467184
40
0.86553012364261
40
0.900349814941384
40
0.931634701330949
40
0.981486978632264
40
1
40
1
40
1
40
1
41
1
10
-1.30710678118701
20
3.80474436172493
30
0
41
1
10
-1.26821189869449
20
4.04098610213183
30
0
41
1
10
-1.18152602722842
20
4.38630469670148
30
0
41
1
10
-1.03339858703194
20
4.83220099793744
30
0
41
1
10
-0.890488440269619
20
5.08648729357211
30
0
41
1
10
-0.74328152765564
20
5.22451293678305
30
0
41
1
10
-0.646159444128317
20
5.26221688674227
30
0
41
1
10
-0.575058645794367
20
5.26547029973197
30
0
41
1
10
-0.497807956019543
20
5.24357212737882
30
0
41
1
10
-0.441827799751159
20
5.20639957695943
30
0
41
1
10
-0.408594172094394
20
5.17709249232172
30
0
41
1
10
-0.399999999999984
20
5.16866682996435
30
0
0
SPLINE
5
2BC
100
AcDbEntity
8
SK1
62
256
6
ByLayer
370
25
48
1
60
0
100
AcDbSpline
70
4
71
3
72
17
73
13
40
0
40
0
40
0
40
0
40
0.0303514220253465
40
0.053615508725257
40
0.0719362364152861
40
0.0902747582477901
40
0.115197940679854
40
0.159565658929381
40
0.298138202990216
40
0.587610881222861
40
0.878287013647141
40
1
40
1
40
1
40
1
41
1
10
-0.400000000000039
20
5.16866682996299
30
0
41
1
10
-0.394167575628453
20
5.16254689062886
30
0
41
1
10
-0.382671289712275
20
5.15403748188181
30
0
41
1
10
-0.364264031241562
20
5.14642716889604
30
0
41
1
10
-0.347332913984101
20
5.14606544583302
30
0
41
1
10
-0.330541138979934
20
5.15183291494149
30
0
41
1
10
-0.310401603395106
20
5.16756125175962
30
0
41
1
10
-0.276165558567079
20
5.21722886754096
30
0
41
1
10
-0.236739282710431
20
5.34658114116595
30
0
41
1
10
-0.207575999148887
20
5.54435821740501
30
0
41
1
10
-0.201433990875367
20
5.73654934889332
30
0
41
1
10
-0.199982261339102
20
5.84846084555221
30
0
41
1
10
-0.200000000000034
20
5.88142452370541
30
0
0
SPLINE
5
2BD
100
AcDbEntity
8
SK1
62
256
6
ByLayer
370
25
48
1
60
0
100
AcDbSpline
70
4
71
3
72
14
73
10
40
0
40
0
40
0
40
0
40
0.108230741991732
40
0.25788613922537
40
0.407877148924213
40
0.557883790046168
40
0.707499442909482
40
0.853747819163724
40
1
40
1
40
1
40
1
41
1
10
-2.19993687455732
20
-17.5201003686153
30
0
41
1
10
-2.19994433830606
20
-17.5193316104062
30
0
41
1
10
-2.19996020762689
20
-17.4918660662694
30
0
41
1
10
-2.19997701567939
20
-17.3468668597862
30
0
41
1
10
-2.19998867376763
20
-17.0742128962913
30
0
41
1
10
-2.19999522991315
20
-16.6966882324975
30
0
41
1
10
-2.19999855691416
20
-16.226385153191
30
0
41
1
10
-2.19999983139445
20
-15.6711409551741
30
0
41
1
10
-2.20000008308686
20
-15.2494996361883
30
0
41
1
10
-2.20000000000002
20
-15.0247808648854
30
0
0
SPLINE
5
2BE
100
AcDbEntity
8
SK1
62
256
6
ByLayer
370
25
48
1
60
0
100
AcDbSpline
70
4
71
2
72
6
73
3
40
0
40
0
40
0
40
1
40
1
40
1
41
1
10
-2.19491564779943
20
17.5202265212435
30
0
41
1
10
-2.59745782389971
20
17.5101132606481
30
0
41
1
10
-2.99999999999999
20
17.5000000000527
30
0
0
SPLINE
5
2BF
100
AcDbEntity
8
SK1
62
256
6
ByLayer
370
25
48
1
60
0
100
AcDbSpline
70
4
71
2
72
6
73
3
40
0
40
0
40
0
40
1
40
1
40
1
41
1
10
-3
20
-17.5000000000204
30
0
41
1
10
-2.59745782389972
20
-17.5101132606158
30
0
41
1
10
-2.19491564779943
20
-17.5202265212112
30
0
0
SPLINE
5
2C0
100
AcDbEntity
8
SK1
62
256
6
ByLayer
370
25
48
1
60
0
100
AcDbSpline
70
4
71
3
72
27
73
23
40
0
40
0
40
0
40
0
40
0.0715173669145178
40
0.143024555890653
40
0.190008578287365
40
0.236988382172639
40
0.283900712079353
40
0.330972290989709
40
0.378029369865807
40
0.413492531659222
40
0.448946362918375
40
0.490578692153933
40
0.532345782223165
40
0.573993921865017
40
0.605473911731012
40
0.636959045977846
40
0.699837226104164
40
0.762686552880957
40
0.825701394046137
40
0.888728526800971
40
0.944362584496666
40
1
40
1
40
1
40
1
41
1
10
-2.20000000000002
20
-10.241691511816
30
0
41
1
10
-2.2000001242397
20
-9.84670599021766
30
0
41
1
10
-2.19999978893535
20
-9.02909713428944
30
0
41
1
10
-2.19999827332971
20
-7.8686924956604
30
0
41
1
10
-2.1999951406274
20
-6.80596674803578
30
0
41
1
10
-2.19999077711139
20
-5.86574723444748
30
0
41
1
10
-2.19998424908464
20
-4.88997692879406
30
0
41
1
10
-2.19997486211742
20
-3.87928434916335
30
0
41
1
10
-2.19996384113128
20
-2.91977154566894
30
0
41
1
10
-2.19995234042818
20
-2.02410128634757
30
0
41
1
10
-2.19994172516783
20
-1.15402352705055
30
0
41
1
10
-2.19993660164032
20
-0.221658050319478
30
0
41
1
10
-2.19993923649562
20
0.761657453675236
30
0
41
1
10
-2.19994759755309
20
1.65680272291423
30
0
41
1
10
-2.19995789913405
20
2.45710878277711
30
0
41
1
10
-2.19996970611653
20
3.40285524159927
30
0
41
1
10
-2.19998173906039
20
4.54958099482556
30
0
41
1
10
-2.19999104005455
20
5.86443550590502
30
0
41
1
10
-2.1999964057717
20
7.1176262496911
30
0
41
1
10
-2.19999892115618
20
8.26144064576074
30
0
41
1
10
-2.19999987293541
20
9.30318720974615
30
0
41
1
10
-2.20000005368288
20
9.9344541356538
30
0
41
1
10
-2.20000000000002
20
10.2416919827183
30
0
0
SPLINE
5
2C1
100
AcDbEntity
8
SK1
62
256
6
ByLayer
370
25
48
1
60
0
100
AcDbSpline
70
4
71
3
72
16
73
12
40
0
40
0
40
0
40
0
40
0.0670511557636573
40
0.272992493073596
40
0.47894948566015
40
0.581972018836067
40
0.684991229873761
40
0.788046767745567
40
0.891096264382309
40
0.994214331066373
40
1
40
1
40
1
40
1
41
1
10
-2.20000000000002
20
15.0247809138928
30
0
41
1
10
-2.20000001405655
20
15.1276730497688
30
0
41
1
10
-2.19999991152658
20
15.5348041014462
30
0
41
1
10
-2.19999911695921
20
16.1677834678116
30
0
41
1
10
-2.19999527946819
20
16.7055825236714
30
0
41
1
10
-2.19998879407816
20
17.0426809653135
30
0
41
1
10
-2.19998161639419
20
17.2464302614583
30
0
41
1
10
-2.19997151044168
20
17.3983136157233
30
0
41
1
10
-2.19995761744402
20
17.4943837360227
30
0
41
1
10
-2.19994490109457
20
17.5197387194071
30
0
41
1
10
-2.19993728801179
20
17.5201138695262
30
0
41
1
10
-2.19993688080125
20
17.5201003703231
30
0
0
SPLINE
5
2C2
100
AcDbEntity
8
SK1
62
256
6
ByLayer
370
25
48
1
60
0
100
AcDbSpline
70
4
71
3
72
12
73
8
40
0
40
0
40
0
40
0
40
0.5
40
0.75
40
0.875
40
0.9375
40
1
40
1
40
1
40
1
41
1
10
-28.5004731679065
20
16.8593393543733
30
0
41
1
10
-28.4997849581956
20
11.2395596117176
30
0
41
1
10
-28.4998107940737
20
2.8098854235544
30
0
41
1
10
-28.5017248072974
20
-7.02471804095897
30
0
41
1
10
-28.4985957088202
20
-11.9420420781156
30
0
41
1
10
-28.5042280860797
20
-14.7519018639868
30
0
41
1
10
-28.4929633315809
20
-16.1569070246331
30
0
41
1
10
-28.5004731679065
20
-16.8593393543423
30
0
0
SPLINE
5
2C3
100
AcDbEntity
8
SK1
62
256
6
ByLayer
370
25
48
1
60
0
100
AcDbSpline
70
4
71
2
72
6
73
3
40
0
40
0
40
0
40
1
40
1
40
1
41
1
10
-3
20
17.5000000000527
30
0
41
1
10
-15.7502365839532
20
17.1796696772131
30
0
41
1
10
-28.5004731679065
20
16.8593393543735
30
0
0
SPLINE
5
2C4
100
AcDbEntity
8
SK1
62
256
6
ByLayer
370
25
48
1
60
0
100
AcDbSpline
70
4
71
2
72
6
73
3
40
0
40
0
40
0
40
1
40
1
40
1
41
1
10
-28.5004731679065
20
-16.8593393543424
30
0
41
1
10
-15.7502365839533
20
-17.1796696771814
30
0
41
1
10
-3
20
-17.5000000000204
30
0
0
SPLINE
5
2C5
100
AcDbEntity
8
SK1
62
256
6
ByLayer
370
25
48
1
60
0
100
AcDbSpline
70
4
71
3
72
13
73
9
40
0
40
0
40
0
40
0
40
0.239468143101222
40
0.36837571755761
40
0.500016413682695
40
0.631654380071076
40
0.760554427529347
40
1
40
1
40
1
40
1
41
1
10
-2
20
17.3251501409626
30
0
41
1
10
-2.02607195862896
20
17.3254032171872
30
0
41
1
10
-2.06363514911808
20
17.3325204701499
30
0
41
1
10
-2.11047805080222
20
17.3567460306058
30
0
41
1
10
-2.14242236455522
20
17.3827213492791
30
0
41
1
10
-2.16840047419733
20
17.414662371353
30
0
41
1
10
-2.19262861856613
20
17.4615002450208
30
0
41
1
10
-2.19974657466873
20
17.4990601036781
30
0
41
1
10
-2.20000000000002
20
17.5251299249899
30
0
0
SPLINE
5
2C6
100
AcDbEntity
8
SK1
62
256
6
ByLayer
370
25
48
1
60
0
100
AcDbSpline
70
4
71
3
72
13
73
9
40
0
40
0
40
0
40
0
40
0.2394455757246
40
0.36834562484797
40
0.499983592440102
40
0.631624288954873
40
0.760531862675067
40
1
40
1
40
1
40
1
41
1
10
-2.20000000000001
20
-17.5251299251292
30
0
41
1
10
-2.19974657467478
20
-17.4990601038703
30
0
41
1
10
-2.19262861856451
20
-17.4615002452731
30
0
41
1
10
-2.16840047423859
20
-17.4146623717452
30
0
41
1
10
-2.14242236464556
20
-17.38272134974
30
0
41
1
10
-2.1104780509437
20
-17.3567460311215
30
0
41
1
10
-2.06363514965127
20
-17.3325204707743
30
0
41
1
10
-2.02607195888456
20
-17.3254032177991
30
0
41
1
10
-2
20
-17.3251501414068
30
0
0
SPLINE
5
2C7
100
AcDbEntity
8
SK1
62
256
6
ByLayer
370
25
48
1
60
0
100
AcDbSpline
70
4
71
3
72
17
73
13
40
0
40
0
40
0
40
0
40
0.101854521685601
40
0.203685964845255
40
0.308040954546775
40
0.412349663913903
40
0.498666025452813
40
0.584982126784634
40
0.674145874139384
40
0.763334615762835
40
0.881258065308808
40
1
40
1
40
1
40
1
41
1
10
-1.30710678118655
20
3.80474436172135
30
0
41
1
10
-1.35281755127334
20
3.56030061780326
30
0
41
1
10
-1.43826333358931
20
3.06526260984334
30
0
41
1
10
-1.55257923660683
20
2.29745296588045
30
0
41
1
10
-1.64299988564258
20
1.50514875319077
30
0
41
1
10
-1.69766104128279
20
0.737795072796459
30
0
41
1
10
-1.71418515558774
20
0.0105179038249941
30
0
41
1
10
-1.69951446448486
20
-0.67710039177965
30
0
41
1
10
-1.65396204649844
20
-1.36632286246377
30
0
41
1
10
-1.57494701093416
20
-2.12609613595415
30
0
41
1
10
-1.45876140770197
20
-2.94330913525
30
0
41
1
10
-1.36066373595656
20
-3.51970854208545
30
0
41
1
10
-1.30710678118665
20
-3.80474664113296
30
0
0
SPLINE
5
2C8
100
AcDbEntity
8
SK1
62
256
6
ByLayer
370
25
48
1
60
0
100
AcDbSpline
70
4
71
2
72
6
73
3
40
0
40
0
40
0
40
1
40
1
40
1
41
1
10
-0.400000000000025
20
17.3251501409626
30
0
41
1
10
-1.20000000000001
20
17.3251501409626
30
0
41
1
10
-2
20
17.3251501409626
30
0
0
SPLINE
5
2C9
100
AcDbEntity
8
SK1
62
256
6
ByLayer
370
25
48
1
60
0
100
AcDbSpline
70
4
71
2
72
6
73
3
40
0
40
0
40
0
40
1
40
1
40
1
41
1
10
-2
20
-17.3251501414068
30
0
41
1
10
-1.20000000000001
20
-17.3251501414068
30
0
41
1
10
-0.400000000000012
20
-17.3251501414068
30
0
0
SPLINE
5
2CA
100
AcDbEntity
8
SK1
62
256
6
ByLayer
370
25
48
1
60
0
100
AcDbSpline
70
4
71
2
72
6
73
3
40
0
40
0
40
0
40
1
40
1
40
1
41
1
10
-28.5004773352935
20
16.8592293968326
30
0
41
1
10
-29.250238453672
20
16.4008765423131
30
0
41
1
10
-30
20
15.9425237179733
30
0
0
SPLINE
5
2CB
100
AcDbEntity
8
SK1
62
256
6
ByLayer
370
25
48
1
60
0
100
AcDbSpline
70
4
71
2
72
6
73
3
40
0
40
0
40
0
40
1
40
1
40
1
41
1
10
-30
20
-15.9425237313586
30
0
41
1
10
-29.2502384561807
20
-16.4008765554995
30
0
41
1
10
-28.500477340427
20
-16.8592294097972
30
0
0
SPLINE
5
2CC
100
AcDbEntity
8
SK1
62
256
6
ByLayer
370
25
48
1
60
0
100
AcDbSpline
70
4
71
3
72
11
73
7
40
0
40
0
40
0
40
0
40
0.245755776091205
40
0.501794537036421
40
0.756953610983899
40
1
40
1
40
1
40
1
41
1
10
-0.20000000000002
20
17.5191717726071
30
0
41
1
10
-0.199994602664151
20
17.4938437678842
30
0
41
1
10
-0.209350181607987
20
17.4456220488571
30
0
41
1
10
-0.254178141974797
20
17.3766353741799
30
0
41
1
10
-0.324420880622417
20
17.3327593262069
30
0
41
1
10
-0.373991100278116
20
17.3239682002408
30
0
41
1
10
-0.400000000000012
20
17.3241473857775
30
0
0
SPLINE
5
2CD
100
AcDbEntity
8
SK1
62
256
6
ByLayer
370
25
48
1
60
0
100
AcDbSpline
70
4
71
3
72
11
73
7
40
0
40
0
40
0
40
0
40
0.243046929002239
40
0.498204696880398
40
0.754242534660508
40
1
40
1
40
1
40
1
41
1
10
-0.400000000000012
20
-17.3241468844192
30
0
41
1
10
-0.373991171845902
20
-17.3239675168206
30
0
41
1
10
-0.324421190500191
20
-17.3327583433491
30
0
41
1
10
-0.254178048115926
20
-17.3766339847246
30
0
41
1
10
-0.20935004950149
20
-17.4456204553844
30
0
41
1
10
-0.199994504476008
20
-17.4938413272716
30
0
41
1
10
-0.20000000000002
20
-17.5191689464699
30
0
0
SPLINE
5
2CE
100
AcDbEntity
8
1
62
256
6
ByLayer
370
25
48
1
60
0
100
AcDbSpline
70
4
71
2
72
6
73
3
40
0
40
0
40
0
40
1
40
1
40
1
41
1
10
69.1289761166302
20
-25.8060396542319
30
0
41
1
10
67.9613443873282
20
-25.8251663411806
30
0
41
1
10
66.7978609952037
20
-25.8845396486258
30
0
0
SPLINE
5
2CF
100
AcDbEntity
8
1
62
256
6
ByLayer
370
25
48
1
60
0
100
AcDbSpline
70
4
71
3
72
16
73
12
40
0
40
0
40
0
40
0
40
0.116680641521208
40
0.233359643628229
40
0.353565376894648
40
0.473770461313641
40
0.590463104920497
40
0.707157571217224
40
0.827314451672917
40
0.947477118117543
40
1
40
1
40
1
40
1
41
1
10
66.7978609952037
20
-25.8845396486258
30
0
41
1
10
66.4462701721803
20
-25.8645838726255
30
0
41
1
10
65.7526782136915
20
-25.8294045961219
30
0
41
1
10
64.7271130153862
20
-25.7917317837601
30
0
41
1
10
63.7287722096925
20
-25.7657414575091
30
0
41
1
10
62.7752010474085
20
-25.7472888534483
30
0
41
1
10
61.8830944994739
20
-25.7314145996296
30
0
41
1
10
61.0478448752627
20
-25.712167074248
30
0
41
1
10
60.2689170407422
20
-25.6832176046177
30
0
41
1
10
59.6861659973445
20
-25.6466869506017
30
0
41
1
10
59.367725273928
20
-25.6172717865135
30
0
41
1
10
59.2731485863847
20
-25.6076899316045
30
0
0
SPLINE
5
2D0
100
AcDbEntity
8
1
62
256
6
ByLayer
370
25
48
1
60
0
100
AcDbSpline
70
4
71
3
72
16
73
12
40
0
40
0
40
0
40
0
40
0.163122074073275
40
0.396781193308129
40
0.512118616114749
40
0.627398799913377
40
0.743801123595421
40
0.859859838505292
40
0.912697471721575
40
0.965458911216401
40
1
40
1
40
1
40
1
41
1
10
76.1131641911483
20
-13.45223062834
30
0
41
1
10
76.1117049098714
20
-13.7298739517211
30
0
41
1
10
76.1322801004912
20
-14.4049521867199
30
0
41
1
10
76.2306116949978
20
-15.2771161606398
30
0
41
1
10
76.3855188950826
20
-16.0648483256918
30
0
41
1
10
76.5630466565478
20
-16.6492994028644
30
0
41
1
10
76.8184123854447
20
-17.2254288440138
30
0
41
1
10
77.1296388892295
20
-17.6794699854716
30
0
41
1
10
77.4502982971695
20
-18.0050444927969
30
0
41
1
10
77.692078972814
20
-18.1946451848637
30
0
41
1
10
77.8658337366102
20
-18.2976641349876
30
0
41
1
10
77.9380225381066
20
-18.3364573072438
30
0
0
SPLINE
5
2D1
100
AcDbEntity
8
1
62
256
6
ByLayer
370
25
48
1
60
0
100
AcDbSpline
70
4
71
1
72
4
73
2
40
0
40
0
40
1
40
1
41
1
10
77.9380225381066
20
-18.3364573072438
30
0
41
1
10
78.0933825210116
20
-18.4180671461184
30
0
0
SPLINE
5
2D2
100
AcDbEntity
8
1
62
256
6
ByLayer
370
25
48
1
60
0
100
AcDbSpline
70
4
71
2
72
6
73
3
40
0
40
0
40
0
40
1
40
1
40
1
41
1
10
78.0933825210116
20
-18.4180671461184
30
0
41
1
10
78.7107999826514
20
-19.8247571709229
30
0
41
1
10
79.5127449520328
20
-21.1973327119687
30
0
0
SPLINE
5
2D3
100
AcDbEntity
8
1
62
256
6
ByLayer
370
25
48
1
60
0
100
AcDbSpline
70
4
71
2
72
6
73
3
40
0
40
0
40
0
40
1
40
1
40
1
41
1
10
79.6668784289935
20
-21.6569056505973
30
0
41
1
10
79.6398124518949
20
-21.4215471622131
30
0
41
1
10
79.5127449520328
20
-21.1973327119687
30
0
0
SPLINE
5
2D4
100
AcDbEntity
8
1
62
256
6
ByLayer
370
25
48
1
60
0
100
AcDbSpline
70
4
71
1
72
4
73
2
40
0
40
0
40
1
40
1
41
1
10
79.6712589307375
20
-22.3944810483257
30
0
41
1
10
79.6690249768632
20
-22.0228330992344
30
0
0
SPLINE
5
2D5
100
AcDbEntity
8
1
62
256
6
ByLayer
370
25
48
1
60
0
100
AcDbSpline
70
4
71
3
72
17
73
13
40
0
40
0
40
0
40
0
40
0.0753887586045572
40
0.150820371735835
40
0.225816339606073
40
0.300867844084379
40
0.403364784682623
40
0.505993749975371
40
0.645216351099679
40
0.78464317849667
40
0.892305732663233
40
1
40
1
40
1
40
1
41
1
10
76.0674955721612
20
-25.688003158182
30
0
41
1
10
76.2460503254956
20
-25.6848259445574
30
0
41
1
10
76.5948665906514
20
-25.6590550368323
30
0
41
1
10
77.0989513004637
20
-25.5601328276935
30
0
41
1
10
77.5633746762488
20
-25.4077888667812
30
0
41
1
10
78.0344228075101
20
-25.1883718161864
30
0
41
1
10
78.484177671119
20
-24.8908465731159
30
0
41
1
10
78.9335701240006
20
-24.4717339392791
30
0
41
1
10
79.2998190114225
20
-23.9568337124223
30
0
41
1
10
79.5342603212608
20
-23.4020336588383
30
0
41
1
10
79.6490432692818
20
-22.8776594465227
30
0
41
1
10
79.6720003546789
20
-22.5563297173803
30
0
41
1
10
79.6712589307375
20
-22.3944810483257
30
0
0
SPLINE
5
2D6
100
AcDbEntity
8
1
62
256
6
ByLayer
370
25
48
1
60
0
100
AcDbSpline
70
4
71
1
72
4
73
2
40
0
40
0
40
1
40
1
41
1
10
79.6668784289935
20
-13.7140357359908
30
0
41
1
10
79.6587038065711
20
-13.6316195021948
30
0
0
SPLINE
5
2D7
100
AcDbEntity
8
1
62
256
6
ByLayer
370
25
48
1
60
0
100
AcDbSpline
70
4
71
1
72
4
73
2
40
0
40
0
40
1
40
1
41
1
10
59.2731485863847
20
-25.6076899316045
30
0
41
1
10
58.7978609952036
20
-25.5493427619194
30
0
0
SPLINE
5
2D8
100
AcDbEntity
8
1
62
256
6
ByLayer
370
25
48
1
60
0
100
AcDbSpline
70
4
71
1
72
4
73
2
40
0
40
0
40
1
40
1
41
1
10
79.6690249768632
20
-22.0228330992344
30
0
41
1
10
79.6668784289935
20
-21.6569056505973
30
0
0
SPLINE
5
2D9
100
AcDbEntity
8
1
62
256
6
ByLayer
370
25
48
1
60
0
100
AcDbSpline
70
4
71
1
72
4
73
2
40
0
40
0
40
1
40
1
41
1
10
79.6678965437896
20
-13.9708066981166
30
0
41
1
10
79.6668784289935
20
-13.7140357359909
30
0
0
SPLINE
5
2DA
100
AcDbEntity
8
1
62
256
6
ByLayer
370
25
48
1
60
0
100
AcDbSpline
70
4
71
3
72
11
73
7
40
0
40
0
40
0
40
0
40
0.0126520450398981
40
0.488875224107004
40
0.961888404539351
40
1
40
1
40
1
40
1
41
1
10
79.6678965437896
20
-13.9708066981166
30
0
41
1
10
79.6678981034514
20
-13.9711981322653
30
0
41
1
10
79.6679586244187
20
-13.9863098828053
30
0
41
1
10
79.6681015568402
20
-14.0160187969172
30
0
41
1
10
79.6682779579147
20
-14.0424884159613
30
0
41
1
10
79.6683710214354
20
-14.0541299105002
30
0
41
1
10
79.6683779877912
20
-14.0549889985744
30
0
0
SPLINE
5
2DB
100
AcDbEntity
8
1
62
256
6
ByLayer
370
25
48
1
60
0
100
AcDbSpline
70
4
71
3
72
10
73
6
40
0
40
0
40
0
40
0
40
0.382354277830823
40
0.795825891311936
40
1
40
1
40
1
40
1
41
1
10
79.6683779877912
20
-14.0549889985744
30
0
41
1
10
79.6684597433283
20
-14.0649920972006
30
0
41
1
10
79.668623258639
20
-14.0819158482424
30
0
41
1
10
79.668823554036
20
-14.0937452940795
30
0
41
1
10
79.6689276549789
20
-14.0954702858723
30
0
41
1
10
79.6689606751929
20
-14.0954769662199
30
0
0
SPLINE
5
2DC
100
AcDbEntity
8
1
62
256
6
ByLayer
370
25
48
1
60
0
100
AcDbSpline
70
4
71
3
72
12
73
8
40
0
40
0
40
0
40
0
40
0.0230051805237896
40
0.269636546799396
40
0.524865417753205
40
0.77011867124778
40
1
40
1
40
1
40
1
41
1
10
54.5347940254379
20
22.6699492323236
30
0
41
1
10
54.5467310149182
20
22.6787618316821
30
0
41
1
10
54.6879268070015
20
22.7832347769064
30
0
41
1
10
54.9972836551694
20
23.0175015990491
30
0
41
1
10
55.5004008997767
20
23.4111663767182
30
0
41
1
10
56.0293831740776
20
23.8359306075518
30
0
41
1
10
56.3722213197926
20
24.1173753880091
30
0
41
1
10
56.53972373126
20
24.2563000047965
30
0
0
SPLINE
5
2DD
100
AcDbEntity
8
1
62
256
6
ByLayer
370
25
48
1
60
0
100
AcDbSpline
70
4
71
3
72
11
73
7
40
0
40
0
40
0
40
0
40
0.274820443465758
40
0.554361659029119
40
0.776482693769656
40
1
40
1
40
1
40
1
41
1
10
56.53972373126
20
24.2563000047965
30
0
41
1
10
56.8347119566098
20
23.8965048410064
30
0
41
1
10
57.4616618878468
20
23.2041537767532
30
0
41
1
10
58.4343634527137
20
22.3246241203146
30
0
41
1
10
59.4116160098017
20
21.5900358198667
30
0
41
1
10
60.044949473545
20
21.1892714047179
30
0
41
1
10
60.3712572753776
20
21.0007323299817
30
0
0
SPLINE
5
2DE
100
AcDbEntity
8
1
62
256
6
ByLayer
370
25
48
1
60
0
100
AcDbSpline
70
4
71
3
72
10
73
6
40
0
40
0
40
0
40
0
40
0.340148561968647
40
0.691599769913042
40
1
40
1
40
1
40
1
41
1
10
60.3712572753776
20
21.0007323299817
30
0
41
1
10
60.3157447565732
20
20.8980252562574
30
0
41
1
10
60.1899074839676
20
20.6997833747396
30
0
41
1
10
59.9644138358651
20
20.4408019489921
30
0
41
1
10
59.7983342235999
20
20.2937878717731
30
0
41
1
10
59.7161672789393
20
20.2298015704823
30
0
0
SPLINE
5
2DF
100
AcDbEntity
8
1
62
256
6
ByLayer
370
25
48
1
60
0
100
AcDbSpline
70
4
71
3
72
11
73
7
40
0
40
0
40
0
40
0
40
0.264553410808144
40
0.512804131326793
40
0.761251060830745
40
1
40
1
40
1
40
1
41
1
10
59.0923439226027
20
19.4250205532447
30
0
41
1
10
59.1186382945951
20
19.5036884302759
30
0
41
1
10
59.1853679989246
20
19.6526439061783
30
0
41
1
10
59.3347505326187
20
19.8649688624516
30
0
41
1
10
59.5119019321644
20
20.0579420136273
30
0
41
1
10
59.646036139433
20
20.1748739648563
30
0
41
1
10
59.7161672789393
20
20.2298015704823
30
0
0
SPLINE
5
2E0
100
AcDbEntity
8
1
62
256
6
ByLayer
370
25
48
1
60
0
100
AcDbSpline
70
4
71
2
72
6
73
3
40
0
40
0
40
0
40
1
40
1
40
1
41
1
10
55.6742467124687
20
25.3124449931566
30
0
41
1
10
56.1069852218644
20
24.7843724989765
30
0
41
1
10
56.53972373126
20
24.2563000047965
30
0
0
SPLINE
5
2E1
100
AcDbEntity
8
1
62
256
6
ByLayer
370
25
48
1
60
0
100
AcDbSpline
70
4
71
3
72
10
73
6
40
0
40
0
40
0
40
0
40
0.170498549081135
40
0.61229203171352
40
1
40
1
40
1
40
1
41
1
10
59.8500213006304
20
18.9908076865482
30
0
41
1
10
59.8717677930409
20
19.0365069244762
30
0
41
1
10
59.9563060439502
20
19.2046655411537
30
0
41
1
10
60.1294618480027
20
19.5292547035838
30
0
41
1
10
60.3197619697903
20
19.784302426496
30
0
41
1
10
60.4183535507209
20
19.9057489618743
30
0
0
SPLINE
5
2E2
100
AcDbEntity
8
1
62
256
6
ByLayer
370
25
48
1
60
0
100
AcDbSpline
70
4
71
1
72
4
73
2
40
0
40
0
40
1
40
1
41
1
10
60.7919472740868
20
20.2649591643957
30
0
41
1
10
60.4183535507209
20
19.9057489618743
30
0
0
SPLINE
5
2E3
100
AcDbEntity
8
1
62
256
6
ByLayer
370
25
48
1
60
0
100
AcDbSpline
70
4
71
1
72
4
73
2
40
0
40
0
40
1
40
1
41
1
10
79.6712589307375
20
11.5857394136897
30
0
41
1
10
79.669840979964
20
11.2227873827517
30
0
0
SPLINE
5
2E4
100
AcDbEntity
8
1
62
256
6
ByLayer
370
25
48
1
60
0
100
AcDbSpline
70
4
71
1
72
4
73
2
40
0
40
0
40
1
40
1
41
1
10
79.669840979964
20
11.2227873827517
30
0
41
1
10
79.6690249768632
20
11.0114171141366
30
0
0
SPLINE
5
2E5
100
AcDbEntity
8
1
62
256
6
ByLayer
370
25
48
1
60
0
100
AcDbSpline
70
4
71
3
72
11
73
7
40
0
40
0
40
0
40
0
40
0.429340736179323
40
0.680990908058335
40
0.932606192356597
40
1
40
1
40
1
40
1
41
1
10
62.7943129805268
20
25.6631227588581
30
0
41
1
10
62.819811384701
20
25.6348093346105
30
0
41
1
10
62.9014419573427
20
25.5942510534641
30
0
41
1
10
63.1056859609633
20
25.5466714020133
30
0
41
1
10
63.2674634312777
20
25.5236492315488
30
0
41
1
10
63.3695154203837
20
25.5135577105893
30
0
41
1
10
63.3916213548851
20
25.5115375792643
30
0
0
SPLINE
5
2E6
100
AcDbEntity
8
1
62
256
6
ByLayer
370
25
48
1
60
0
100
AcDbSpline
70
4
71
2
72
6
73
3
40
0
40
0
40
0
40
1
40
1
40
1
41
1
10
79.6690538511579
20
-14.0935864479966
30
0
41
1
10
79.669156432301
20
-14.0888720363747
30
0
41
1
10
79.6692034771735
20
-14.0747525465559
30
0
0
SPLINE
5
2E7
100
AcDbEntity
8
1
62
256
6
ByLayer
370
25
48
1
60
0
100
AcDbSpline
70
4
71
2
72
6
73
3
40
0
40
0
40
0
40
1
40
1
40
1
41
0.50059616150477
10
70.6899221532146
20
22.7592556574268
30
0
41
0.49940383849523
10
70.7724781128881
20
22.7644534961731
30
0
41
0.50059616150477
10
70.8550207448711
20
22.7581537382025
30
0
0
SPLINE
5
2E8
100
AcDbEntity
8
1
62
256
6
ByLayer
370
25
48
1
60
0
100
AcDbSpline
70
4
71
2
72
6
73
3
40
0
40
0
40
0
40
1
40
1
40
1
41
0.51939544074399
10
71.3997741451439
20
20.201135532432
30
0
41
0.48060455925601
10
71.4831128458465
20
20.1155487833597
30
0
41
0.51939544074399
10
71.6017964136958
20
20.1131545449117
30
0
0
SPLINE
5
2E9
100
AcDbEntity
8
1
62
256
6
ByLayer
370
25
48
1
60
0
100
AcDbSpline
70
4
71
2
72
6
73
3
40
0
40
0
40
0
40
1
40
1
40
1
41
0.50059616150477
10
70.8522329248912
20
20.3531436712273
30
0
41
0.49940383849523
10
70.7696769652177
20
20.347945832481
30
0
41
0.50059616150477
10
70.6871343332346
20
20.3542455904516
30
0
0
SPLINE
5
2EA
100
AcDbEntity
8
1
62
256
6
ByLayer
370
25
48
1
60
0
100
AcDbSpline
70
4
71
2
72
6
73
3
40
0
40
0
40
0
40
1
40
1
40
1
41
0.501335939335859
10
70.8334863707109
20
20.4034419636187
30
0
41
0.498664060664141
10
70.7634629330103
20
20.3952907431653
30
0
41
0.501335939335859
10
70.6966666179794
20
20.3728370999014
30
0
0
SPLINE
5
2EB
100
AcDbEntity
8
1
62
256
6
ByLayer
370
25
48
1
60
0
100
AcDbSpline
70
4
71
2
72
6
73
3
40
0
40
0
40
0
40
1
40
1
40
1
41
0.50059616150477
10
70.9985849623676
20
20.4023400443944
30
0
41
0.49940383849523
10
70.916029002694
20
20.397142205648
30
0
41
0.50059616150477
10
70.8334863707109
20
20.4034419636187
30
0
0
SPLINE
5
2EC
100
AcDbEntity
8
1
62
256
6
ByLayer
370
25
48
1
60
0
100
AcDbSpline
70
4
71
2
72
6
73
3
40
0
40
0
40
0
40
1
40
1
40
1
41
0.500087744771095
10
79.9090949218086
20
-13.7506274275993
30
0
41
0.499912255228905
10
79.9141590720665
20
-13.7928469195275
30
0
41
0.500087744771095
10
79.9143533277764
20
-13.8356836309804
30
0
0
SPLINE
5
2ED
100
AcDbEntity
8
1
62
256
6
ByLayer
370
25
48
1
60
0
100
AcDbSpline
70
4
71
2
72
6
73
3
40
0
40
0
40
0
40
1
40
1
40
1
41
0.500029386592585
10
79.6868156089728
20
-7.67856828884695
30
0
41
0.499970613407415
10
79.7126154227743
20
-7.7084167599523
30
0
41
0.500029386592585
10
79.7368696855687
20
-7.73851378635836
30
0
0
SPLINE
5
2EE
100
AcDbEntity
8
1
62
256
6
ByLayer
370
25
48
1
60
0
100
AcDbSpline
70
4
71
2
72
6
73
3
40
0
40
0
40
0
40
1
40
1
40
1
41
0.500098769958566
10
79.7517769457356
20
-9.03655506311171
30
0
41
0.499901230041434
10
79.7222629535257
20
-9.08369377953049
30
0
41
0.500098769958566
10
79.687570540428
20
-9.1292968438821
30
0
0
SPLINE
5
2EF
100
AcDbEntity
8
1
62
256
6
ByLayer
370
25
48
1
60
0
100
AcDbSpline
70
4
71
2
72
6
73
3
40
0
40
0
40
0
40
1
40
1
40
1
41
0.500087744771095
10
79.9090949218086
20
-8.38205340035338
30
0
41
0.499912255228905
10
79.9141590720665
20
-8.43228646207789
30
0
41
0.500087744771095
10
79.9143533277763
20
-8.48206942908312
30
0
0
SPLINE
5
2F0
100
AcDbEntity
8
1
62
256
6
ByLayer
370
25
48
1
60
0
100
AcDbSpline
70
4
71
2
72
6
73
3
40
0
40
0
40
0
40
1
40
1
40
1
41
0.500082721406025
10
79.6657908305951
20
-8.23902118386133
30
0
41
0.499917278593975
10
79.6544210702763
20
-8.28169582913415
30
0
41
0.500082721406025
10
79.6388944227707
20
-8.32354743213409
30
0
0
SPLINE
5
2F1
100
AcDbEntity
8
1
62
256
6
ByLayer
370
25
48
1
60
0
100
AcDbSpline
70
4
71
2
72
6
73
3
40
0
40
0
40
0
40
1
40
1
40
1
41
0.502764697479836
10
67.2894366609565
20
-8.26626097856035
30
0
41
0.497235302520164
10
67.1803998291507
20
-8.22508560572597
30
0
41
0.502764697479836
10
67.061731123723
20
-8.21265846702399
30
0
0
SPLINE
5
2F2
100
AcDbEntity
8
1
62
256
6
ByLayer
370
25
48
1
60
0
100
AcDbSpline
70
4
71
2
72
6
73
3
40
0
40
0
40
0
40
1
40
1
40
1
41
0.500000179957592
10
77.9380225381066
20
16.4956195978779
30
0
41
0.499999820042408
10
77.9380225381066
20
16.4846801254374
30
0
41
0.500000179957592
10
77.9380225381066
20
16.4736931883402
30
0
0
SPLINE
5
2F3
100
AcDbEntity
8
1
62
256
6
ByLayer
370
25
48
1
60
0
100
AcDbSpline
70
4
71
2
72
6
73
3
40
0
40
0
40
0
40
1
40
1
40
1
41
0.500005217564379
10
62.6212559411097
20
25.1752631566251
30
0
41
0.499994782435621
10
62.6232333185929
20
25.1312554327418
30
0
41
0.500005217564379
10
62.625173215338
20
25.0867545011396
30
0
0
LINE
5
73
100
AcDbEntity
8
1
62
256
6
ByLayer
370
25
48
1
60
0
100
AcDbLine
10
71.403022
20
23.003196
30
0
11
71.236287
21
22.947148
31
0
39
0
210
0
220
0
230
1
0
LINE
5
74
100
AcDbEntity
8
1
62
256
6
ByLayer
370
25
48
1
60
0
100
AcDbLine
10
70.077853
20
24.092512
30
0
11
69.935191
21
24.044556
31
0
39
0
210
0
220
0
230
1
0
LINE
5
75
100
AcDbEntity
8
1
62
256
6
ByLayer
370
25
48
1
60
0
100
AcDbLine
10
71.608001
20
19.068191
30
0
11
71.750663
21
19.116147
31
0
39
0
210
0
220
0
230
1
0
LINE
5
76
100
AcDbEntity
8
1
62
256
6
ByLayer
370
25
48
1
60
0
100
AcDbLine
10
72.209533
20
21.26296
30
0
11
72.160319
21
21.246417
31
0
39
0
210
0
220
0
230
1
0
LINE
5
77
100
AcDbEntity
8
1
62
256
6
ByLayer
370
25
48
1
60
0
100
AcDbLine
10
71.399774
20
20.201136
30
0
11
71.233039
21
20.145087
31
0
39
0
210
0
220
0
230
1
0
LINE
5
78
100
AcDbEntity
8
1
62
256
6
ByLayer
370
25
48
1
60
0
100
AcDbLine
10
70.9877
20
22.787367
30
0
11
71.138193
21
22.837955
31
0
39
0
210
0
220
0
230
1
0
LINE
5
79
100
AcDbEntity
8
1
62
256
6
ByLayer
370
25
48
1
60
0
100
AcDbLine
10
69.948983
20
22.732328
30
0
11
69.782028
21
22.676205
31
0
39
0
210
0
220
0
230
1
0
LINE
5
7A
100
AcDbEntity
8
1
62
256
6
ByLayer
370
25
48
1
60
0
100
AcDbLine
10
70.852233
20
20.353144
30
0
11
70.998585
21
20.40234
31
0
39
0
210
0
220
0
230
1
0
LINE
5
7B
100
AcDbEntity
8
1
62
256
6
ByLayer
370
25
48
1
60
0
100
AcDbLine
10
69.946386
20
20.491409
30
0
11
69.77943
21
20.435287
31
0
39
0
210
0
220
0
230
1
0
LINE
5
7C
100
AcDbEntity
8
1
62
256
6
ByLayer
370
25
48
1
60
0
100
AcDbLine
10
70.696667
20
20.372837
30
0
11
70.546174
21
20.322249
31
0
39
0
210
0
220
0
230
1
0
LINE
5
7D
100
AcDbEntity
8
1
62
256
6
ByLayer
370
25
48
1
60
0
100
AcDbLine
10
70.833486
20
20.403442
30
0
11
70.687134
21
20.354246
31
0
39
0
210
0
220
0
230
1
0
LINE
5
7E
100
AcDbEntity
8
1
62
256
6
ByLayer
370
25
48
1
60
0
100
AcDbLine
10
69.34563
20
21.853811
30
0
11
69.510085
21
21.909093
31
0
39
0
210
0
220
0
230
1
0
LINE
5
7F
100
AcDbEntity
8
1
62
256
6
ByLayer
370
25
48
1
60
0
100
AcDbLine
10
69.468042
20
21.333493
30
0
11
69.301086
21
21.27737
31
0
39
0
210
0
220
0
230
1
0
LINE
5
80
100
AcDbEntity
8
1
62
256
6
ByLayer
370
25
48
1
60
0
100
AcDbLine
10
76.124076
20
26.198753
30
0
11
70.063759
21
26.389156
31
0
39
0
210
0
220
0
230
1
0
LINE
5
81
100
AcDbEntity
8
1
62
256
6
ByLayer
370
25
48
1
60
0
100
AcDbLine
10
65.964391
20
16.924907
30
0
11
72.115163
21
16.764933
31
0
39
0
210
0
220
0
230
1
0
LINE
5
82
100
AcDbEntity
8
1
62
256
6
ByLayer
370
25
48
1
60
0
100
AcDbLine
10
66.162771
20
23.469066
30
0
11
66.328523
21
23.369615
31
0
39
0
210
0
220
0
230
1
0
LINE
5
83
100
AcDbEntity
8
1
62
256
6
ByLayer
370
25
48
1
60
0
100
AcDbLine
10
78.202495
20
17.669967
30
0
11
78.703226
21
17.383525
31
0
39
0
210
0
220
0
230
1
0
LINE
5
84
100
AcDbEntity
8
1
62
256
6
ByLayer
370
25
48
1
60
0
100
AcDbLine
10
64.07414
20
25.516946
30
0
11
63.547074
21
25.794535
31
0
39
0
210
0
220
0
230
1
0
LINE
5
85
100
AcDbEntity
8
1
62
256
6
ByLayer
370
25
48
1
60
0
100
AcDbLine
10
81.005446
20
-11.660349
30
0
11
80.985644
21
-11.763246
31
0
39
0
210
0
220
0
230
1
0
LINE
5
86
100
AcDbEntity
8
1
62
256
6
ByLayer
370
25
48
1
60
0
100
AcDbLine
10
80.782857
20
-12.81699
30
0
11
80.491517
21
-14.330884
31
0
39
0
210
0
220
0
230
1
0
LINE
5
87
100
AcDbEntity
8
1
62
256
6
ByLayer
370
25
48
1
60
0
100
AcDbLine
10
79.909095
20
-13.750627
30
0
11
79.867556
21
-13.755452
31
0
39
0
210
0
220
0
230
1
0
LINE
5
88
100
AcDbEntity
8
1
62
256
6
ByLayer
370
25
48
1
60
0
100
AcDbLine
10
79.914353
20
-13.835684
30
0
11
79.843342
21
-13.843932
31
0
39
0
210
0
220
0
230
1
0
LINE
5
89
100
AcDbEntity
8
1
62
256
6
ByLayer
370
25
48
1
60
0
100
AcDbLine
10
79.843342
20
-13.843932
30
0
11
79.842719
21
-13.844004
31
0
39
0
210
0
220
0
230
1
0
LINE
5
8A
100
AcDbEntity
8
1
62
256
6
ByLayer
370
25
48
1
60
0
100
AcDbLine
10
79.859643
20
-14.119191
30
0
11
79.671259
21
-14.141072
31
0
39
0
210
0
220
0
230
1
0
LINE
5
8B
100
AcDbEntity
8
1
62
256
6
ByLayer
370
25
48
1
60
0
100
AcDbLine
10
79.865209
20
-14.073506
30
0
11
79.671259
21
-14.096033
31
0
39
0
210
0
220
0
230
1
0
LINE
5
8C
100
AcDbEntity
8
1
62
256
6
ByLayer
370
25
48
1
60
0
100
AcDbLine
10
73.13372
20
-3.504329
30
0
11
72.856938
21
-3.255408
31
0
39
0
210
0
220
0
230
1
0
LINE
5
8D
100
AcDbEntity
8
1
62
256
6
ByLayer
370
25
48
1
60
0
100
AcDbLine
10
70.781654
20
-2.940833
30
0
11
70.443537
21
-3.096547
31
0
39
0
210
0
220
0
230
1
0
LINE
5
8E
100
AcDbEntity
8
1
62
256
6
ByLayer
370
25
48
1
60
0
100
AcDbLine
10
63.711126
20
-10.948339
30
0
11
64.275273
21
-8.501467
31
0
39
0
210
0
220
0
230
1
0
LINE
5
8F
100
AcDbEntity
8
1
62
256
6
ByLayer
370
25
48
1
60
0
100
AcDbLine
10
64.4345
20
-8.397967
30
0
11
64.227477
21
-8.167892
31
0
39
0
210
0
220
0
230
1
0
LINE
5
90
100
AcDbEntity
8
1
62
256
6
ByLayer
370
25
48
1
60
0
100
AcDbLine
10
64.111385
20
-8.31933
30
0
11
64.275273
21
-8.501467
31
0
39
0
210
0
220
0
230
1
0
LINE
5
91
100
AcDbEntity
8
1
62
256
6
ByLayer
370
25
48
1
60
0
100
AcDbLine
10
81.005446
20
-12.019807
30
0
11
80.491517
21
-9.478589
31
0
39
0
210
0
220
0
230
1
0
LINE
5
92
100
AcDbEntity
8
1
62
256
6
ByLayer
370
25
48
1
60
0
100
AcDbLine
10
77.070041
20
-9.814225
30
0
11
65.825048
21
-8.636635
31
0
39
0
210
0
220
0
230
1
0
LINE
5
93
100
AcDbEntity
8
1
62
256
6
ByLayer
370
25
48
1
60
0
100
AcDbLine
10
77.250047
20
-9.41533
30
0
11
65.78687
21
-8.214891
31
0
39
0
210
0
220
0
230
1
0
LINE
5
94
100
AcDbEntity
8
1
62
256
6
ByLayer
370
25
48
1
60
0
100
AcDbLine
10
76.467339
20
-9.966364
30
0
11
66.212903
21
-8.892506
31
0
39
0
210
0
220
0
230
1
0
LINE
5
95
100
AcDbEntity
8
1
62
256
6
ByLayer
370
25
48
1
60
0
100
AcDbLine
10
77.072079
20
-9.858182
30
0
11
65.813231
21
-8.679141
31
0
39
0
210
0
220
0
230
1
0
LINE
5
96
100
AcDbEntity
8
1
62
256
6
ByLayer
370
25
48
1
60
0
100
AcDbLine
10
77.681549
20
-9.373175
30
0
11
65.456668
21
-8.09297
31
0
39
0
210
0
220
0
230
1
0
LINE
5
97
100
AcDbEntity
8
1
62
256
6
ByLayer
370
25
48
1
60
0
100
AcDbLine
10
67.456832
20
-8.286902
30
0
11
67.419715
21
-8.283015
31
0
39
0
210
0
220
0
230
1
0
LINE
5
98
100
AcDbEntity
8
1
62
256
6
ByLayer
370
25
48
1
60
0
100
AcDbLine
10
67.419715
20
-8.283015
30
0
11
65.359106
21
-8.067226
31
0
39
0
210
0
220
0
230
1
0
LINE
5
99
100
AcDbEntity
8
1
62
256
6
ByLayer
370
25
48
1
60
0
100
AcDbLine
10
64.612872
20
-8.221626
30
0
11
64.514061
21
-8.111813
31
0
39
0
210
0
220
0
230
1
0
LINE
5
9A
100
AcDbEntity
8
1
62
256
6
ByLayer
370
25
48
1
60
0
100
AcDbLine
10
78.872876
20
-9.714951
30
0
11
78.616873
21
-9.688143
31
0
39
0
210
0
220
0
230
1
0
LINE
5
9B
100
AcDbEntity
8
1
62
256
6
ByLayer
370
25
48
1
60
0
100
AcDbLine
10
64.788543
20
-8.240022
30
0
11
64.612872
21
-8.221626
31
0
39
0
210
0
220
0
230
1
0
LINE
5
9C
100
AcDbEntity
8
1
62
256
6
ByLayer
370
25
48
1
60
0
100
AcDbLine
10
79.146057
20
-9.360654
30
0
11
78.900838
21
-9.334975
31
0
39
0
210
0
220
0
230
1
0
LINE
5
9D
100
AcDbEntity
8
1
62
256
6
ByLayer
370
25
48
1
60
0
100
AcDbLine
10
65.932261
20
-7.976889
30
0
11
65.547137
21
-7.936558
31
0
39
0
210
0
220
0
230
1
0
LINE
5
9E
100
AcDbEntity
8
1
62
256
6
ByLayer
370
25
48
1
60
0
100
AcDbLine
10
65.512375
20
-7.932918
30
0
11
64.708904
21
-7.848777
31
0
39
0
210
0
220
0
230
1
0
LINE
5
9F
100
AcDbEntity
8
1
62
256
6
ByLayer
370
25
48
1
60
0
100
AcDbLine
10
79.106482
20
-8.938764
30
0
11
79.004965
21
-8.928133
31
0
39
0
210
0
220
0
230
1
0
LINE
5
A0
100
AcDbEntity
8
1
62
256
6
ByLayer
370
25
48
1
60
0
100
AcDbLine
10
80.17457
20
-7.939474
30
0
11
79.671259
21
-7.38012
31
0
39
0
210
0
220
0
230
1
0
LINE
5
A1
100
AcDbEntity
8
1
62
256
6
ByLayer
370
25
48
1
60
0
100
AcDbLine
10
79.04815
20
-9.633841
30
0
11
78.661677
21
-9.593369
31
0
39
0
210
0
220
0
230
1
0
LINE
5
A2
100
AcDbEntity
8
1
62
256
6
ByLayer
370
25
48
1
60
0
100
AcDbLine
10
64.911554
20
-8.153439
30
0
11
64.514061
21
-8.111813
31
0
39
0
210
0
220
0
230
1
0
LINE
5
A3
100
AcDbEntity
8
1
62
256
6
ByLayer
370
25
48
1
60
0
100
AcDbLine
10
79.146508
20
-9.404445
30
0
11
78.889489
21
-9.37753
31
0
39
0
210
0
220
0
230
1
0
LINE
5
A4
100
AcDbEntity
8
1
62
256
6
ByLayer
370
25
48
1
60
0
100
AcDbLine
10
66.174237
20
-8.045972
30
0
11
64.626975
21
-7.883941
31
0
39
0
210
0
220
0
230
1
0
LINE
5
A5
100
AcDbEntity
8
1
62
256
6
ByLayer
370
25
48
1
60
0
100
AcDbLine
10
79.21452
20
-8.862736
30
0
11
79.052585
21
-8.845778
31
0
39
0
210
0
220
0
230
1
0
LINE
5
A6
100
AcDbEntity
8
1
62
256
6
ByLayer
370
25
48
1
60
0
100
AcDbLine
10
79.68756
20
-9.129293
30
0
11
79.575077
21
-9.117514
31
0
39
0
210
0
220
0
230
1
0
LINE
5
A7
100
AcDbEntity
8
1
62
256
6
ByLayer
370
25
48
1
60
0
100
AcDbLine
10
79.751765
20
-9.036551
30
0
11
79.511617
21
-9.011402
31
0
39
0
210
0
220
0
230
1
0
LINE
5
A8
100
AcDbEntity
8
1
62
256
6
ByLayer
370
25
48
1
60
0
100
AcDbLine
10
79.758204
20
-8.753786
30
0
11
79.529621
21
-8.729848
31
0
39
0
210
0
220
0
230
1
0
LINE
5
A9
100
AcDbEntity
8
1
62
256
6
ByLayer
370
25
48
1
60
0
100
AcDbLine
10
79.638882
20
-8.323544
30
0
11
79.56642
21
-8.315956
31
0
39
0
210
0
220
0
230
1
0
LINE
5
AA
100
AcDbEntity
8
1
62
256
6
ByLayer
370
25
48
1
60
0
100
AcDbLine
10
79.7611
20
-8.797832
30
0
11
79.525797
21
-8.773191
31
0
39
0
210
0
220
0
230
1
0
LINE
5
AB
100
AcDbEntity
8
1
62
256
6
ByLayer
370
25
48
1
60
0
100
AcDbLine
10
79.66578
20
-8.239019
30
0
11
79.581839
21
-8.230229
31
0
39
0
210
0
220
0
230
1
0
LINE
5
AC
100
AcDbEntity
8
1
62
256
6
ByLayer
370
25
48
1
60
0
100
AcDbLine
10
79.914353
20
-8.482069
30
0
11
79.87521
21
-8.47797
31
0
39
0
210
0
220
0
230
1
0
LINE
5
AD
100
AcDbEntity
8
1
62
256
6
ByLayer
370
25
48
1
60
0
100
AcDbLine
10
79.909095
20
-8.382053
30
0
11
79.840492
21
-8.374869
31
0
39
0
210
0
220
0
230
1
0
LINE
5
AE
100
AcDbEntity
8
1
62
256
6
ByLayer
370
25
48
1
60
0
100
AcDbLine
10
79.842393
20
-8.091628
30
0
11
79.671259
21
-8.073707
31
0
39
0
210
0
220
0
230
1
0
LINE
5
AF
100
AcDbEntity
8
1
62
256
6
ByLayer
370
25
48
1
60
0
100
AcDbLine
10
79.84856
20
-8.136017
30
0
11
79.671259
21
-8.117451
31
0
39
0
210
0
220
0
230
1
0
LINE
5
B0
100
AcDbEntity
8
1
62
256
6
ByLayer
370
25
48
1
60
0
100
AcDbLine
10
74.954043
20
0.934427
30
0
11
74.199873
21
-4.040912
31
0
39
0
210
0
220
0
230
1
0
LINE
5
B1
100
AcDbEntity
8
1
62
256
6
ByLayer
370
25
48
1
60
0
100
AcDbLine
10
74.217735
20
-5.684424
30
0
11
74.199873
21
-4.040912
31
0
39
0
210
0
220
0
230
1
0
LINE
5
B2
100
AcDbEntity
8
1
62
256
6
ByLayer
370
25
48
1
60
0
100
AcDbLine
10
69.128976
20
8.465477
30
0
11
71.918768
21
16.42259
31
0
39
0
210
0
220
0
230
1
0
LINE
5
B3
100
AcDbEntity
8
1
62
256
6
ByLayer
370
25
48
1
60
0
100
AcDbLine
10
21
20
-25.558874
30
0
11
58.797861
21
-25.558874
31
0
39
0
210
0
220
0
230
1
0
LINE
5
B4
100
AcDbEntity
8
1
62
256
6
ByLayer
370
25
48
1
60
0
100
AcDbLine
10
51.119831
20
25.558874
30
0
11
21
21
25.558874
31
0
39
0
210
0
220
0
230
1
0
LINE
5
B5
100
AcDbEntity
8
1
62
256
6
ByLayer
370
25
48
1
60
0
100
AcDbLine
10
21
20
25.558874
30
0
11
20
21
25
31
0
39
0
210
0
220
0
230
1
0
LINE
5
B6
100
AcDbEntity
8
1
62
256
6
ByLayer
370
25
48
1
60
0
100
AcDbLine
10
20
20
-25
30
0
11
21
21
-25.558874
31
0
39
0
210
0
220
0
230
1
0
LINE
5
B7
100
AcDbEntity
8
1
62
256
6
ByLayer
370
25
48
1
60
0
100
AcDbLine
10
67.289437
20
-8.266261
30
0
11
77.660141
21
-9.352294
31
0
39
0
210
0
220
0
230
1
0
LINE
5
B8
100
AcDbEntity
8
1
62
256
6
ByLayer
370
25
48
1
60
0
100
AcDbLine
10
66.38915
20
-8.142225
30
0
11
67.061731
21
-8.212658
31
0
39
0
210
0
220
0
230
1
0
LINE
5
B9
100
AcDbEntity
8
1
62
256
6
ByLayer
370
25
48
1
60
0
100
AcDbLine
10
0.3
20
25
30
0
11
0
21
24.7
31
0
39
0
210
0
220
0
230
1
0
LINE
5
BA
100
AcDbEntity
8
1
62
256
6
ByLayer
370
25
48
1
60
0
100
AcDbLine
10
0
20
-24.7
30
0
11
0.3
21
-25
31
0
39
0
210
0
220
0
230
1
0
LINE
5
BB
100
AcDbEntity
8
1
62
256
6
ByLayer
370
25
48
1
60
0
100
AcDbLine
10
20
20
25
30
0
11
0.3
21
25
31
0
39
0
210
0
220
0
230
1
0
LINE
5
BC
100
AcDbEntity
8
1
62
256
6
ByLayer
370
25
48
1
60
0
100
AcDbLine
10
0.3
20
-25
30
0
11
20
21
-25
31
0
39
0
210
0
220
0
230
1
0
LINE
5
BD
100
AcDbEntity
8
1
62
256
6
ByLayer
370
25
48
1
60
0
100
AcDbLine
10
8.538675
20
23.83913
30
0
11
11.461325
21
23.83913
31
0
39
0
210
0
220
0
230
1
0
LINE
5
BE
100
AcDbEntity
8
1
62
256
6
ByLayer
370
25
48
1
60
0
100
AcDbLine
10
11.461325
20
7.529667
30
0
11
8.538675
21
7.529667
31
0
39
0
210
0
220
0
230
1
0
LINE
5
BF
100
AcDbEntity
8
1
62
256
6
ByLayer
370
25
48
1
60
0
100
AcDbLine
10
8.538675
20
-7.529667
30
0
11
11.461325
21
-7.529667
31
0
39
0
210
0
220
0
230
1
0
LINE
5
C0
100
AcDbEntity
8
1
62
256
6
ByLayer
370
25
48
1
60
0
100
AcDbLine
10
11.461325
20
-23.83913
30
0
11
8.538675
21
-23.83913
31
0
39
0
210
0
220
0
230
1
0
LINE
5
C1
100
AcDbEntity
8
1
62
256
6
ByLayer
370
25
48
1
60
0
100
AcDbLine
10
77.695594
20
-9.350838
30
0
11
77.892794
21
-9.371489
31
0
39
0
210
0
220
0
230
1
0
LINE
5
C2
100
AcDbEntity
8
1
62
256
6
ByLayer
370
25
48
1
60
0
100
AcDbLine
10
63.982899
20
-8.768656
30
0
11
63.386706
21
-9.920624
31
0
39
0
210
0
220
0
230
1
0
LINE
5
C3
100
AcDbEntity
8
1
62
256
6
ByLayer
370
25
48
1
60
0
100
AcDbLine
10
8.105662
20
8.055848
30
0
11
8.105662
21
23.666502
31
0
39
0
210
0
220
0
230
1
0
LINE
5
C4
100
AcDbEntity
8
1
62
256
6
ByLayer
370
25
48
1
60
0
100
AcDbLine
10
8.538675
20
7.529667
30
0
11
8.538675
21
23.83913
31
0
39
0
210
0
220
0
230
1
0
LINE
5
C5
100
AcDbEntity
8
1
62
256
6
ByLayer
370
25
48
1
60
0
100
AcDbLine
10
11.461325
20
-23.83913
30
0
11
11.461325
21
-7.529667
31
0
39
0
210
0
220
0
230
1
0
LINE
5
C6
100
AcDbEntity
8
1
62
256
6
ByLayer
370
25
48
1
60
0
100
AcDbLine
10
11.894338
20
-23.666502
30
0
11
11.894338
21
-8.055848
31
0
39
0
210
0
220
0
230
1
0
LINE
5
C7
100
AcDbEntity
8
1
62
256
6
ByLayer
370
25
48
1
60
0
100
AcDbLine
10
11.461325
20
7.529667
30
0
11
11.461325
21
23.83913
31
0
39
0
210
0
220
0
230
1
0
LINE
5
C8
100
AcDbEntity
8
1
62
256
6
ByLayer
370
25
48
1
60
0
100
AcDbLine
10
11.894338
20
8.055848
30
0
11
11.894338
21
23.666502
31
0
39
0
210
0
220
0
230
1
0
LINE
5
C9
100
AcDbEntity
8
1
62
256
6
ByLayer
370
25
48
1
60
0
100
AcDbLine
10
8.105662
20
-23.666502
30
0
11
8.105662
21
-8.055848
31
0
39
0
210
0
220
0
230
1
0
LINE
5
CA
100
AcDbEntity
8
1
62
256
6
ByLayer
370
25
48
1
60
0
100
AcDbLine
10
8.538675
20
-23.83913
30
0
11
8.538675
21
-7.529667
31
0
39
0
210
0
220
0
230
1
0
LINE
5
CB
100
AcDbEntity
8
1
62
256
6
ByLayer
370
25
48
1
60
0
100
AcDbLine
10
79.079692
20
-8.824809
30
0
11
79.14796
21
-8.831958
31
0
39
0
210
0
220
0
230
1
0
LINE
5
CC
100
AcDbEntity
8
1
62
256
6
ByLayer
370
25
48
1
60
0
100
AcDbLine
10
69.128976
20
-25.80604
30
0
11
71.670595
21
-12.732529
31
0
39
0
210
0
220
0
230
1
0
LINE
5
CD
100
AcDbEntity
8
1
62
256
6
ByLayer
370
25
48
1
60
0
100
AcDbLine
10
58.797861
20
-25.558874
30
0
11
59.284677
21
-25.608875
31
0
39
0
210
0
220
0
230
1
0
LINE
5
CE
100
AcDbEntity
8
1
62
256
6
ByLayer
370
25
48
1
60
0
100
AcDbLine
10
59.916771
20
20.139025
30
0
11
59.716167
21
20.229802
31
0
39
0
210
0
220
0
230
1
0
LINE
5
CF
100
AcDbEntity
8
1
62
256
6
ByLayer
370
25
48
1
60
0
100
AcDbLine
10
62.624295
20
25.818365
30
0
11
62.620619
21
25.189448
31
0
39
0
210
0
220
0
230
1
0
LINE
5
D0
100
AcDbEntity
8
1
62
256
6
ByLayer
370
25
48
1
60
0
100
AcDbLine
10
62.620619
20
25.189448
30
0
11
60.371257
21
21.000732
31
0
39
0
210
0
220
0
230
1
0
LINE
5
D1
100
AcDbEntity
8
1
62
256
6
ByLayer
370
25
48
1
60
0
100
AcDbLine
10
62.79127
20
25.142588
30
0
11
62.794313
21
25.663123
31
0
39
0
210
0
220
0
230
1
0
LINE
5
D2
100
AcDbEntity
8
1
62
256
6
ByLayer
370
25
48
1
60
0
100
AcDbLine
10
62.625173
20
25.086755
30
0
11
62.79127
21
25.142588
31
0
39
0
210
0
220
0
230
1
0
LINE
5
D3
100
AcDbEntity
8
1
62
256
6
ByLayer
370
25
48
1
60
0
100
AcDbLine
10
62.620619
20
25.189448
30
0
11
62.621256
21
25.175263
31
0
39
0
210
0
220
0
230
1
0
LINE
5
D4
100
AcDbEntity
8
1
62
256
6
ByLayer
370
25
48
1
60
0
100
AcDbLine
10
62.621256
20
25.175263
30
0
11
59.916771
21
20.139025
31
0
39
0
210
0
220
0
230
1
0
LINE
5
D5
100
AcDbEntity
8
1
62
256
6
ByLayer
370
25
48
1
60
0
100
AcDbLine
10
60.791947
20
20.264959
30
0
11
61.406849
21
21.410017
31
0
39
0
210
0
220
0
230
1
0
LINE
5
D6
100
AcDbEntity
8
1
62
256
6
ByLayer
370
25
48
1
60
0
100
AcDbLine
10
61.406849
20
21.410017
30
0
11
61.524871
21
21.629796
31
0
39
0
210
0
220
0
230
1
0
LINE
5
D7
100
AcDbEntity
8
1
62
256
6
ByLayer
370
25
48
1
60
0
100
AcDbLine
10
78.524542
20
20.441664
30
0
11
78.51471
21
20.446681
31
0
39
0
210
0
220
0
230
1
0
LINE
5
D8
100
AcDbEntity
8
1
62
256
6
ByLayer
370
25
48
1
60
0
100
AcDbLine
10
79.086608
20
22.254117
30
0
11
79.08437
21
22.262366
31
0
39
0
210
0
220
0
230
1
0
LINE
5
D9
100
AcDbEntity
8
1
62
256
6
ByLayer
370
25
48
1
60
0
100
AcDbLine
10
63.156824
20
20.914376
30
0
11
63.145872
21
20.935268
31
0
39
0
210
0
220
0
230
1
0
LINE
5
DA
100
AcDbEntity
8
1
62
256
6
ByLayer
370
25
48
1
60
0
100
AcDbLine
10
75.645627
20
19.765071
30
0
11
75.652535
21
19.782776
31
0
39
0
210
0
220
0
230
1
0
LINE
5
DB
100
AcDbEntity
8
1
62
256
6
ByLayer
370
25
48
1
60
0
100
AcDbLine
10
75.652535
20
19.782776
30
0
11
75.659149
21
19.800269
31
0
39
0
210
0
220
0
230
1
0
LINE
5
DC
100
AcDbEntity
8
1
62
256
6
ByLayer
370
25
48
1
60
0
100
AcDbLine
10
63.73236
20
22.738718
30
0
11
63.742174
21
22.73372
31
0
39
0
210
0
220
0
230
1
0
LINE
5
DD
100
AcDbEntity
8
1
62
256
6
ByLayer
370
25
48
1
60
0
100
AcDbLine
10
79.845066
20
-13.830098
30
0
11
79.842392
21
-13.845715
31
0
39
0
210
0
220
0
230
1
0
LINE
5
DE
100
AcDbEntity
8
1
62
256
6
ByLayer
370
25
48
1
60
0
100
AcDbLine
10
79.862062
20
-14.099812
30
0
11
79.859642
21
-14.119191
31
0
39
0
210
0
220
0
230
1
0
LINE
5
DF
100
AcDbEntity
8
1
62
256
6
ByLayer
370
25
48
1
60
0
100
AcDbLine
10
64.841801
20
-8.196685
30
0
11
64.852931
21
-8.183687
31
0
39
0
210
0
220
0
230
1
0
LINE
5
E0
100
AcDbEntity
8
1
62
256
6
ByLayer
370
25
48
1
60
0
100
AcDbLine
10
65.825061
20
-8.636638
30
0
11
65.819809
21
-8.654628
31
0
39
0
210
0
220
0
230
1
0
LINE
5
E1
100
AcDbEntity
8
1
62
256
6
ByLayer
370
25
48
1
60
0
100
AcDbLine
10
78.314373
20
-10.359373
30
0
11
78.305893
21
-10.358343
31
0
39
0
210
0
220
0
230
1
0
LINE
5
E2
100
AcDbEntity
8
1
62
256
6
ByLayer
370
25
48
1
60
0
100
AcDbLine
10
77.071221
20
-9.83289
30
0
11
77.07007
21
-9.814228
31
0
39
0
210
0
220
0
230
1
0
LINE
5
E3
100
AcDbEntity
8
1
62
256
6
ByLayer
370
25
48
1
60
0
100
AcDbLine
10
78.559529
20
-9.633223
30
0
11
78.549124
21
-9.61797
31
0
39
0
210
0
220
0
230
1
0
LINE
5
E4
100
AcDbEntity
8
1
62
256
6
ByLayer
370
25
48
1
60
0
100
AcDbLine
10
79.146319
20
-9.379224
30
0
11
79.146055
21
-9.360654
31
0
39
0
210
0
220
0
230
1
0
LINE
5
E5
100
AcDbEntity
8
1
62
256
6
ByLayer
370
25
48
1
60
0
100
AcDbLine
10
79.550117
20
-9.065985
30
0
11
79.545552
21
-9.051343
31
0
39
0
210
0
220
0
230
1
0
LINE
5
E6
100
AcDbEntity
8
1
62
256
6
ByLayer
370
25
48
1
60
0
100
AcDbLine
10
79.75949
20
-8.772462
30
0
11
79.758203
21
-8.753786
31
0
39
0
210
0
220
0
230
1
0
LINE
5
E7
100
AcDbEntity
8
1
62
256
6
ByLayer
370
25
48
1
60
0
100
AcDbLine
10
79.862062
20
-8.427679
30
0
11
79.859642
21
-8.413262
31
0
39
0
210
0
220
0
230
1
0
LINE
5
E8
100
AcDbEntity
8
1
62
256
6
ByLayer
370
25
48
1
60
0
100
AcDbLine
10
79.845066
20
-8.11045
30
0
11
79.842392
21
-8.091628
31
0
39
0
210
0
220
0
230
1
0
LINE
5
E9
100
AcDbEntity
8
SK1
62
256
6
ByLayer
370
25
48
1
60
0
100
AcDbLine
10
-3
20
-17.5
30
0
11
-3
21
17.5
31
0
39
0
210
0
220
0
230
1
0
LINE
5
EB
100
AcDbEntity
8
SK1
62
256
6
ByLayer
370
25
48
1
60
0
100
AcDbLine
10
-2.2
20
10.241692
30
0
11
-2.2
21
15.024781
31
0
39
0
210
0
220
0
230
1
0
LINE
5
EC
100
AcDbEntity
8
SK1
62
256
6
ByLayer
370
25
48
1
60
0
100
AcDbLine
10
-2.2
20
-15.024781
30
0
11
-2.2
21
-10.241692
31
0
39
0
210
0
220
0
230
1
0
LINE
5
ED
100
AcDbEntity
8
SK1
62
256
6
ByLayer
370
25
48
1
60
0
100
AcDbLine
10
-2
20
17.32515
30
0
11
-2
21
-17.32515
31
0
39
0
210
0
220
0
230
1
0
LINE
5
EE
100
AcDbEntity
8
SK1
62
256
6
ByLayer
370
25
48
1
60
0
100
AcDbLine
10
-0.4
20
-5.168667
30
0
11
-0.4
21
-17.324079
31
0
39
0
210
0
220
0
230
1
0
LINE
5
EF
100
AcDbEntity
8
SK1
62
256
6
ByLayer
370
25
48
1
60
0
100
AcDbLine
10
-30
20
-15.942757
30
0
11
-30
21
15.942754
31
0
39
0
210
0
220
0
230
1
0
LINE
5
F0
100
AcDbEntity
8
SK1
62
256
6
ByLayer
370
25
48
1
60
0
100
AcDbLine
10
-0.4
20
17.32408
30
0
11
-0.4
21
5.168667
31
0
39
0
210
0
220
0
230
1
0
LINE
5
F1
100
AcDbEntity
8
1
62
256
6
ByLayer
370
25
48
1
60
0
100
AcDbLine
10
76.067496
20
-7.873561
30
0
11
76.067496
21
8.847027
31
0
39
0
210
0
220
0
230
1
0
LINE
5
F2
100
AcDbEntity
8
1
62
256
6
ByLayer
370
25
48
1
60
0
100
AcDbLine
10
66.797861
20
-7.193701
30
0
11
66.797861
21
8.5328
31
0
39
0
210
0
220
0
230
1
0
LINE
5
F3
100
AcDbEntity
8
1
62
256
6
ByLayer
370
25
48
1
60
0
100
AcDbLine
10
58.797861
20
-9.964698
30
0
11
58.797861
21
13.379113
31
0
39
0
210
0
220
0
230
1
0
LINE
5
F4
100
AcDbEntity
8
1
62
256
6
ByLayer
370
25
48
1
60
0
100
AcDbLine
10
79.671259
20
-8.224066
30
0
11
79.671259
21
10.808742
31
0
39
0
210
0
220
0
230
1
0
LINE
5
F5
100
AcDbEntity
8
1
62
256
6
ByLayer
370
25
48
1
60
0
100
AcDbLine
10
58.797861
20
-25.558874
30
0
11
58.797861
21
-25.549343
31
0
39
0
210
0
220
0
230
1
0
LINE
5
F6
100
AcDbEntity
8
1
62
256
6
ByLayer
370
25
48
1
60
0
100
AcDbLine
10
21
20
-25.558874
30
0
11
21
21
25.558874
31
0
39
0
210
0
220
0
230
1
0
LINE
5
F7
100
AcDbEntity
8
1
62
256
6
ByLayer
370
25
48
1
60
0
100
AcDbLine
10
20
20
25
30
0
11
20
21
0
31
0
39
0
210
0
220
0
230
1
0
LINE
5
F8
100
AcDbEntity
8
1
62
256
6
ByLayer
370
25
48
1
60
0
100
AcDbLine
10
20
20
0
30
0
11
20
21
-25
31
0
39
0
210
0
220
0
230
1
0
LINE
5
F9
100
AcDbEntity
8
1
62
256
6
ByLayer
370
25
48
1
60
0
100
AcDbLine
10
0.3
20
25
30
0
11
0.3
21
-25
31
0
39
0
210
0
220
0
230
1
0
LINE
5
FA
100
AcDbEntity
8
1
62
256
6
ByLayer
370
25
48
1
60
0
100
AcDbLine
10
0
20
-24.7
30
0
11
0
21
24.7
31
0
39
0
210
0
220
0
230
1
0
LINE
5
FB
100
AcDbEntity
8
SK1
62
256
6
ByLayer
370
25
48
1
60
0
100
AcDbLine
10
-0.2
20
17.833485
30
0
11
-0.2
21
5.881425
31
0
39
0
210
0
220
0
230
1
0
LINE
5
FC
100
AcDbEntity
8
SK1
62
256
6
ByLayer
370
25
48
1
60
0
100
AcDbLine
10
-1.307107
20
3.804744
30
0
11
-1.307107
21
-3.804747
31
0
39
0
210
0
220
0
230
1
0
LINE
5
FD
100
AcDbEntity
8
SK1
62
256
6
ByLayer
370
25
48
1
60
0
100
AcDbLine
10
-0.2
20
-5.881424
30
0
11
-0.2
21
-17.833485
31
0
39
0
210
0
220
0
230
1
0
LINE
5
FE
100
AcDbEntity
8
1
62
256
6
ByLayer
370
25
48
1
60
0
100
AcDbLine
10
77.938023
20
-13.742315
30
0
11
77.938023
21
-18.33736
31
0
39
0
210
0
220
0
230
1
0
LINE
5
FF
100
AcDbEntity
8
1
62
256
6
ByLayer
370
25
48
1
60
0
100
AcDbLine
10
78.093383
20
-13.752847
30
0
11
78.093383
21
-18.42788
31
0
39
0
210
0
220
0
230
1
0
LINE
5
100
100
AcDbEntity
8
1
62
256
6
ByLayer
370
25
48
1
60
0
100
AcDbLine
10
79.512745
20
-13.682719
30
0
11
79.512745
21
-21.220366
31
0
39
0
210
0
220
0
230
1
0
LINE
5
101
100
AcDbEntity
8
1
62
256
6
ByLayer
370
25
48
1
60
0
100
AcDbLine
10
79.666878
20
-13.714036
30
0
11
79.666878
21
-21.661409
31
0
39
0
210
0
220
0
230
1
0
LINE
5
102
100
AcDbEntity
8
1
62
256
6
ByLayer
370
25
48
1
60
0
100
AcDbLine
10
79.671259
20
-14.060065
30
0
11
79.671259
21
-21.596707
31
0
39
0
210
0
220
0
230
1
0
LINE
5
103
100
AcDbEntity
8
1
62
256
6
ByLayer
370
25
48
1
60
0
100
AcDbLine
10
79.671259
20
-21.596707
30
0
11
79.671259
21
-21.9168
31
0
39
0
210
0
220
0
230
1
0
LINE
5
104
100
AcDbEntity
8
1
62
256
6
ByLayer
370
25
48
1
60
0
100
AcDbLine
10
79.671259
20
-21.9168
30
0
11
79.671259
21
-22.394481
31
0
39
0
210
0
220
0
230
1
0
LINE
5
105
100
AcDbEntity
8
1
62
256
6
ByLayer
370
25
48
1
60
0
100
AcDbLine
10
77.938023
20
16.473693
30
0
11
77.938023
21
12.944091
31
0
39
0
210
0
220
0
230
1
0
LINE
5
106
100
AcDbEntity
8
1
62
256
6
ByLayer
370
25
48
1
60
0
100
AcDbLine
10
79.671259
20
19.19916
30
0
11
79.671259
21
11.585739
31
0
39
0
210
0
220
0
230
1
0
LINE
5
107
100
AcDbEntity
8
1
62
256
6
ByLayer
370
25
48
1
60
0
100
AcDbLine
10
79.666878
20
19.19682
30
0
11
79.666878
21
11.214724
31
0
39
0
210
0
220
0
230
1
0
LINE
5
108
100
AcDbEntity
8
1
62
256
6
ByLayer
370
25
48
1
60
0
100
AcDbLine
10
79.512745
20
18.907515
30
0
11
79.512745
21
11.467433
31
0
39
0
210
0
220
0
230
1
0
LINE
5
109
100
AcDbEntity
8
1
62
256
6
ByLayer
370
25
48
1
60
0
100
AcDbLine
10
78.093383
20
16.58105
30
0
11
78.093383
21
12.911429
31
0
39
0
210
0
220
0
230
1
0
LINE
5
10A
100
AcDbEntity
8
81
62
256
6
ByLayer
370
25
48
1
60
0
100
AcDbLine
10
81.005446
20
26.860895
30
0
11
84.988232
21
26.860895
31
0
39
0
210
0
220
0
230
1
0
LINE
5
10B
100
AcDbEntity
8
80
62
256
6
ByLayer
370
25
48
1
60
0
100
AcDbLine
10
0
20
0
30
0
11
-5.253765
21
0
31
0
39
0
210
0
220
0
230
1
0
LINE
5
10C
100
AcDbEntity
8
4
62
256
6
ByLayer
370
25
48
0.05
60
0
100
AcDbLine
10
0
20
0
30
0
11
81.0054
21
0
31
0
39
0
210
0
220
0
230
1
0
LINE
5
10E
100
AcDbEntity
8
SK4
62
256
6
ByLayer
370
25
48
0.05
60
0
100
AcDbLine
10
-38
20
0
30
0
11
88.724421
21
0
31
0
39
0
210
0
220
0
230
1
0
MTEXT
5
2F4
100
AcDbEntity
8
SK6
62
256
6
ByLayer
370
25
48
1
60
0
100
AcDbMText
10
1.558282
20
-49.574501
30
0
210
0
220
0
230
1
1
\W0.7221;R790-054C5S1-16M
40
4.0005
41
0
44
1.084337
50
0
71
7
72
5
7
iso_b_vert
0
DIMENSION
5
306
100
AcDbEntity
8
2
62
256
6
ByLayer
370
13
48
1
60
0
100
AcDbDimension
2
DimnDraft3D1
10
26.860895
20
-98.769263
30
0
11
-0.139105
21
-98.769263
31
0
70
32
71
5
72
1
41
1
210
0
220
0
230
1
3
Standard
100
AcDbAlignedDimension
13
-27.139105
23
-82.592946
33
0
14
26.860895
24
-82.592946
34
0
50
0
100
AcDbRotatedDimension
1001
ACAD
1000
DSTYLE
1002
{
1070
   279
1070
     0
1070
   173
1070
     1
1070
   340
1005
2F5
1070
   271
1070
     2
1070
   272
1070
     3
1070
    77
1070
     1
1070
    73
1070
     0
1070
   171
1070
     3
1070
   274
1070
     4
1070
   177
1070
     7
1070
   176
1070
     7
1070
   178
1070
     7
1070
    48
1040
-0.005
1070
    41
1041
3.175
1070
   147
1041
1.75006
1070
    42
1041
1.5875
1070
    44
1041
3.175
1070
   140
1041
3.50012
1070
   343
1005
0
1070
   344
1005
0
1002
}
0
DIMENSION
5
316
100
AcDbEntity
8
SK2
62
256
6
ByLayer
370
13
48
1
60
0
100
AcDbDimension
2
DimnDraft3D2
10
-33.765556
20
68.628104
30
0
11
-33.765556
21
74.816775
31
0
70
32
71
5
72
1
41
1
210
0
220
0
230
1
3
Standard
100
AcDbAlignedDimension
13
-28.448395
23
81.005446
33
0
14
-28.565903
24
68.628104
34
0
50
90
100
AcDbRotatedDimension
1001
ACAD
1000
DSTYLE
1002
{
1070
    74
1070
     0
1070
   279
1070
     0
1070
   173
1070
     1
1070
   340
1005
2F5
1070
   271
1070
     2
1070
   272
1070
     3
1070
    77
1070
     1
1070
    73
1070
     0
1070
   171
1070
     3
1070
   274
1070
     4
1070
   177
1070
     7
1070
   176
1070
     7
1070
   178
1070
     7
1070
    48
1040
-0.005
1070
    41
1041
3.175
1070
   147
1041
1.75006
1070
    42
1041
1.5875
1070
    44
1041
3.175
1070
   140
1041
3.50012
1070
   343
1005
0
1070
   344
1005
0
1002
}
0
DIMENSION
5
324
100
AcDbEntity
8
SK2
62
256
6
ByLayer
370
13
48
1
60
0
100
AcDbDimension
2
DimnDraft3D3
10
-46.663987
20
21
30
0
11
-46.663987
21
51.002723
31
0
70
32
71
5
72
1
41
1
210
0
220
0
230
1
3
Standard
100
AcDbAlignedDimension
13
-28.448395
23
81.005446
33
0
14
-27.146374
24
21
34
0
50
90
100
AcDbRotatedDimension
1001
ACAD
1000
DSTYLE
1002
{
1070
    74
1070
     0
1070
   279
1070
     0
1070
   173
1070
     1
1070
   340
1005
2F5
1070
   271
1070
     2
1070
   272
1070
     3
1070
    77
1070
     1
1070
    73
1070
     0
1070
   171
1070
     3
1070
   274
1070
     4
1070
   177
1070
     7
1070
   176
1070
     7
1070
   178
1070
     7
1070
    48
1040
-0.005
1070
    41
1041
3.175
1070
   147
1041
1.75006
1070
    42
1041
1.5875
1070
    44
1041
3.175
1070
   140
1041
3.50012
1070
   343
1005
0
1070
   344
1005
0
1002
}
0
DIMENSION
5
332
100
AcDbEntity
8
2
62
256
6
ByLayer
370
13
48
1
60
0
100
AcDbDimension
2
DimnDraft3D4
10
-59.820387
20
81.005446
30
0
11
-59.820387
21
40.502723
31
0
70
32
71
5
72
1
41
1
210
0
220
0
230
1
3
Standard
100
AcDbAlignedDimension
13
-26.2875
23
0
33
0
14
-28.448395
24
81.005446
34
0
50
90
100
AcDbRotatedDimension
1001
ACAD
1000
DSTYLE
1002
{
1070
    74
1070
     0
1070
   279
1070
     0
1070
   173
1070
     1
1070
   340
1005
2F5
1070
   271
1070
     2
1070
   272
1070
     3
1070
    77
1070
     1
1070
    73
1070
     0
1070
   171
1070
     3
1070
   274
1070
     4
1070
   177
1070
     7
1070
   176
1070
     7
1070
   178
1070
     7
1070
    48
1040
-0.005
1070
    41
1041
3.175
1070
   147
1041
1.75006
1070
    42
1041
1.5875
1070
    44
1041
3.175
1070
   140
1041
3.50012
1070
   343
1005
0
1070
   344
1005
0
1002
}
0
DIMENSION
5
340
100
AcDbEntity
8
SK2
62
256
6
ByLayer
370
13
48
1
60
0
100
AcDbDimension
2
DimnDraft3D5
10
25
20
42.142058
30
0
11
0
21
42.142058
31
0
70
32
71
5
72
1
41
1
210
0
220
0
230
1
3
Standard
100
AcDbAlignedDimension
13
-25
23
1.2875
33
0
14
25
24
1.2875
34
0
50
0
100
AcDbRotatedDimension
1001
ACAD
1000
DSTYLE
1002
{
1070
   279
1070
     0
1070
   173
1070
     1
1070
   340
1005
2F5
1070
   271
1070
     2
1070
   272
1070
     3
1070
    77
1070
     1
1070
    73
1070
     0
1070
   171
1070
     3
1070
   274
1070
     4
1070
   177
1070
     7
1070
   176
1070
     7
1070
   178
1070
     7
1070
    48
1040
-0.005
1070
    41
1041
3.175
1070
   147
1041
1.75006
1070
    42
1041
1.5875
1070
    44
1041
3.175
1070
   140
1041
3.50012
1070
   343
1005
0
1070
   344
1005
0
1002
}
0
ENDSEC
0
SECTION
2
OBJECTS
0
DICTIONARY
5
3ab
330
0
100
AcDbDictionary
280
0
281
1
3
ACAD_GROUP
350
3ac
3
ACAD_MLINESTYLE
350
3ad
0
DICTIONARY
5
3ac
330
0
100
AcDbDictionary
280
0
281
1
0
DICTIONARY
5
3ad
330
0
100
AcDbDictionary
280
0
281
1
3
Standard
350
18
0
MLINESTYLE
5
18
330
3ad
100
AcDbMlineStyle
2
Standard
70
0
3

62
256
51
90
52
90
71
2
49
-0.5
62
256
6
ByLayer
49
0.5
62
256
6
ByLayer
0
RASTERVARIABLES
5
399
330

100
AcDbRasterVariables
90
0
70
1
71
1
72
1
0
ENDSEC
0
EOF
