0
SECTION
2
HEADER
9
$ACADVER
1
AC1015
9
$DWGCODEPAGE
3
ANSI_1252
9
$HANDSEED
5
3db
9
$ANGBASE
50
0
9
$ANGDIR
70
0
9
$ATTMODE
70
1
9
$AUNITS
70
0
9
$AUPREC
70
0
9
$CECOLOR
62
256
9
$CELTSCALE
40
1
9
$CELTYPE
6
ByLayer
9
$CELWEIGHT
370
18
9
$CLAYER
8
0
9
$CMLJUST
70
0
9
$CMLSCALE
40
1
9
$CMLSTYLE
2
Standard
9
$DIMSTYLE
2
Standard
9
$TEXTSIZE
40
0.2
9
$TEXTSTYLE
7
Standard
9
$LUNITS
70
2
9
$LUPREC
70
4
9
$EXTNAMES
290
1
9
$INSUNITS
70
4
9
$LTSCALE
40
1
9
$LWDISPLAY
290
1
9
$PDMODE
70
0
9
$PDSIZE
40
0
9
$PLINEGEN
70
0
0
ENDSEC
0
SECTION
2
CLASSES
0
CLASS
1
RASTERVARIABLES
2
AcDbRasterVariables
3
ISM
90
0
280
0
281
0
0
ENDSEC
0
SECTION
2
TABLES
0
TABLE
2
VPORT
5
3d1
100
AcDbSymbolTable
0
VPORT
5
1
100
AcDbSymbolTableRecord
100
AcDbViewportTableRecord
2
*Active
70
0
10
0
20
0
11
1
21
1
12
-1
22
1
13
0
23
0
14
0.5
24
0.5
15
10
25
10
16
0
26
0
36
1
17
0
27
0
37
0
0
ENDTAB
0
TABLE
2
LTYPE
5
3d2
100
AcDbSymbolTable
0
LTYPE
5
14
100
AcDbSymbolTableRecord
100
AcDbLinetypeTableRecord
70
0
2
ByBlock
3

72
65
73
0
40
0
0
LTYPE
5
15
100
AcDbSymbolTableRecord
100
AcDbLinetypeTableRecord
70
0
2
ByLayer
3

72
65
73
0
40
0
0
LTYPE
5
16
100
AcDbSymbolTableRecord
100
AcDbLinetypeTableRecord
70
0
2
CONTINUOUS
3
Solid line
72
65
73
0
40
0
0
LTYPE
5
6A
100
AcDbSymbolTableRecord
100
AcDbLinetypeTableRecord
70
0
2
CENTER
3
____ _ ____ _ ____ _ ____
72
65
73
4
40
47.5
49
22
74
0
49
-8.5
74
0
49
8.5
74
0
49
-8.5
74
0
0
LTYPE
5
6B
100
AcDbSymbolTableRecord
100
AcDbLinetypeTableRecord
70
0
2
DASHED
3
__ __ __ __ __ __ __ __ __
72
65
73
2
40
25.72
49
12.86
74
0
49
-12.86
74
0
0
ENDTAB
0
TABLE
2
LAYER
5
3d3
100
AcDbSymbolTable
0
LAYER
5
10
100
AcDbSymbolTableRecord
100
AcDbLayerTableRecord
2
0
70
0
62
7
6
CONTINUOUS
290
1
370
-3
390
0
0
LAYER
5
6D
100
AcDbSymbolTableRecord
100
AcDbLayerTableRecord
2
81
70
0
62
-3
6
CONTINUOUS
290
1
370
-3
390
0
0
LAYER
5
6F
100
AcDbSymbolTableRecord
100
AcDbLayerTableRecord
2
1
70
0
62
4
6
CONTINUOUS
290
1
370
-3
390
0
0
LAYER
5
71
100
AcDbSymbolTableRecord
100
AcDbLayerTableRecord
2
80
70
0
62
-6
6
CONTINUOUS
290
1
370
-3
390
0
0
LAYER
5
12B
100
AcDbSymbolTableRecord
100
AcDbLayerTableRecord
2
4
70
0
62
-2
6
CENTER
290
1
370
-3
390
0
0
LAYER
5
31D
100
AcDbSymbolTableRecord
100
AcDbLayerTableRecord
2
2
70
0
62
7
6
CONTINUOUS
290
1
370
-3
390
0
0
LAYER
5
3bd
100
AcDbSymbolTableRecord
100
AcDbLayerTableRecord
2
SK1
70
0
62
4
6
CONTINUOUS
290
1
370
-3
390
0
0
LAYER
5
3be
100
AcDbSymbolTableRecord
100
AcDbLayerTableRecord
2
SK4
70
0
62
2
6
CENTER
290
1
370
-3
390
0
0
LAYER
5
3bf
100
AcDbSymbolTableRecord
100
AcDbLayerTableRecord
2
SK6
70
0
62
5
6
CONTINUOUS
290
1
370
-3
390
0
0
LAYER
5
3c0
100
AcDbSymbolTableRecord
100
AcDbLayerTableRecord
2
SK2
70
0
62
7
6
CONTINUOUS
290
1
370
-3
390
0
0
ENDTAB
0
TABLE
2
STYLE
5
3d4
100
AcDbSymbolTable
0
STYLE
5
11
100
AcDbSymbolTableRecord
100
AcDbTextStyleTableRecord
2
Standard
3
txt
70
0
71
0
40
0
41
1
42
0
50
0
0
STYLE
5
318
100
AcDbSymbolTableRecord
100
AcDbTextStyleTableRecord
2
iso_b_vert
3
simplex.shx
70
0
71
0
40
0
41
1
42
0
50
0
0
STYLE
5
319
100
AcDbSymbolTableRecord
100
AcDbTextStyleTableRecord
2
DWGDirectTextStyle
3
simplex
70
0
71
0
40
0
41
1
42
0
50
0
0
ENDTAB
0
TABLE
2
DIMSTYLE
5
3d5
100
AcDbSymbolTable
100
AcDbDimStyleTable
0
DIMSTYLE
105
27
100
AcDbSymbolTableRecord
100
AcDbDimStyleTableRecord
2
Standard
70
0
3
<>
41
0.18
42
0.0625
44
0.18
140
0.18
147
0.09
73
0
74
0
77
1
271
2
275
0
278
52
280
0
340
11
0
ENDTAB
0
TABLE
2
VIEW
5
3d6
100
AcDbSymbolTable
0
ENDTAB
0
TABLE
2
UCS
5
3d7
100
AcDbSymbolTable
0
ENDTAB
0
TABLE
2
APPID
5
3d8
100
AcDbSymbolTable
0
APPID
5
12
100
AcDbSymbolTableRecord
100
AcDbRegAppTableRecord
2
ACAD
70
0
0
ENDTAB
0
TABLE
2
BLOCK_RECORD
5
3d9
100
AcDbSymbolTable
0
BLOCK_RECORD
5
1F
100
AcDbSymbolTableRecord
100
AcDbBlockTableRecord
2
*Model_Space
340
0
70
0
0
BLOCK_RECORD
5
1B
100
AcDbSymbolTableRecord
100
AcDbBlockTableRecord
2
*Paper_Space
340
0
70
0
0
BLOCK_RECORD
5
23
100
AcDbSymbolTableRecord
100
AcDbBlockTableRecord
2
*Paper_Space0
340
0
70
0
0
BLOCK_RECORD
5
31B
100
AcDbSymbolTableRecord
100
AcDbBlockTableRecord
2
DimnDraft3D1
340
0
70
0
0
BLOCK_RECORD
5
32A
100
AcDbSymbolTableRecord
100
AcDbBlockTableRecord
2
DimnDraft3D2
340
0
70
0
0
BLOCK_RECORD
5
339
100
AcDbSymbolTableRecord
100
AcDbBlockTableRecord
2
DimnDraft3D3
340
0
70
0
0
BLOCK_RECORD
5
348
100
AcDbSymbolTableRecord
100
AcDbBlockTableRecord
2
DimnDraft3D4
340
0
70
0
0
BLOCK_RECORD
5
356
100
AcDbSymbolTableRecord
100
AcDbBlockTableRecord
2
DimnDraft3D5
340
0
70
0
0
ENDTAB
0
ENDSEC
0
SECTION
2
BLOCKS
0
BLOCK
5
20
100
AcDbEntity
8
0
100
AcDbBlockBegin
2
*Model_Space
70
0
10
0
20
0
30
0
3
*Model_Space
0
ENDBLK
5
21
100
AcDbEntity
8
0
100
AcDbBlockEnd
0
BLOCK
5
1C
100
AcDbEntity
8
0
100
AcDbBlockBegin
2
*Paper_Space
70
0
10
0
20
0
30
0
3
*Paper_Space
0
ENDBLK
5
1D
100
AcDbEntity
8
0
100
AcDbBlockEnd
0
BLOCK
5
24
100
AcDbEntity
8
0
100
AcDbBlockBegin
2
*Paper_Space0
70
0
10
0
20
0
30
0
3
*Paper_Space0
0
ENDBLK
5
25
100
AcDbEntity
8
0
100
AcDbBlockEnd
0
BLOCK
5
327
100
AcDbEntity
8
0
100
AcDbBlockBegin
2
DimnDraft3D1
70
0
10
0
20
0
30
0
3
DimnDraft3D1
0
MTEXT
5
31C
100
AcDbEntity
8
2
62
256
6
ByLayer
370
18
48
1
60
0
100
AcDbMText
10
125.296804
20
-5.331183
30
0
210
0
220
0
230
1
1
\W1.2949;%%c50
40
3.50012
41
0
44
1.084337
50
90
71
7
72
5
7
iso_b_vert
0
LINE
5
31E
100
AcDbEntity
8
2
62
256
6
ByLayer
370
13
48
1
60
0
100
AcDbLine
10
105.592947
20
-25.136268
30
0
11
130.221864
21
-25.136268
31
0
39
0
210
0
220
0
230
1
0
LINE
5
31F
100
AcDbEntity
8
2
62
256
6
ByLayer
370
13
48
1
60
0
100
AcDbLine
10
105.592947
20
24.863732
30
0
11
130.221864
21
24.863732
31
0
39
0
210
0
220
0
230
1
0
LINE
5
320
100
AcDbEntity
8
2
62
256
6
ByLayer
370
13
48
1
60
0
100
AcDbLine
10
127.046864
20
-25.136268
30
0
11
127.046864
21
24.863732
31
0
39
0
210
0
220
0
230
1
0
LINE
5
321
100
AcDbEntity
8
2
62
256
6
ByLayer
370
13
48
1
60
0
100
AcDbLine
10
127.046864
20
-25.136268
30
0
11
126.628867
21
-21.96127
31
0
39
0
210
0
220
0
230
1
0
LINE
5
322
100
AcDbEntity
8
2
62
256
6
ByLayer
370
13
48
1
60
0
100
AcDbLine
10
127.046864
20
-25.136268
30
0
11
127.46486
21
-21.961267
31
0
39
0
210
0
220
0
230
1
0
LINE
5
323
100
AcDbEntity
8
2
62
256
6
ByLayer
370
13
48
1
60
0
100
AcDbLine
10
126.628867
20
-21.96127
30
0
11
127.46486
21
-21.961267
31
0
39
0
210
0
220
0
230
1
0
LINE
5
324
100
AcDbEntity
8
2
62
256
6
ByLayer
370
13
48
1
60
0
100
AcDbLine
10
127.046864
20
24.863732
30
0
11
127.46486
21
21.688733
31
0
39
0
210
0
220
0
230
1
0
LINE
5
325
100
AcDbEntity
8
2
62
256
6
ByLayer
370
13
48
1
60
0
100
AcDbLine
10
127.046864
20
24.863732
30
0
11
126.628867
21
21.68873
31
0
39
0
210
0
220
0
230
1
0
LINE
5
326
100
AcDbEntity
8
2
62
256
6
ByLayer
370
13
48
1
60
0
100
AcDbLine
10
127.46486
20
21.688733
30
0
11
126.628867
21
21.68873
31
0
39
0
210
0
220
0
230
1
0
ENDBLK
5
328
100
AcDbEntity
8
0
100
AcDbBlockEnd
0
BLOCK
5
336
100
AcDbEntity
8
0
100
AcDbBlockBegin
2
DimnDraft3D2
70
0
10
0
20
0
30
0
3
DimnDraft3D2
0
MTEXT
5
32B
100
AcDbEntity
8
SK2
62
256
6
ByLayer
370
18
48
1
60
0
100
AcDbMText
10
-49.001638
20
-5.194915
30
0
210
0
220
0
230
1
1
\W1.2949;%%c63
40
3.50012
41
0
44
1.084337
50
90
71
7
72
5
7
iso_b_vert
0
LINE
5
32D
100
AcDbEntity
8
SK2
62
256
6
ByLayer
370
13
48
1
60
0
100
AcDbLine
10
-1.5875
20
-31.47
30
0
11
-50.426578
21
-31.47
31
0
39
0
210
0
220
0
230
1
0
LINE
5
32E
100
AcDbEntity
8
SK2
62
256
6
ByLayer
370
13
48
1
60
0
100
AcDbLine
10
-1.5875
20
31.47
30
0
11
-50.426578
21
31.47
31
0
39
0
210
0
220
0
230
1
0
LINE
5
32F
100
AcDbEntity
8
SK2
62
256
6
ByLayer
370
13
48
1
60
0
100
AcDbLine
10
-47.251578
20
-31.47
30
0
11
-47.251578
21
31.47
31
0
39
0
210
0
220
0
230
1
0
LINE
5
330
100
AcDbEntity
8
SK2
62
256
6
ByLayer
370
13
48
1
60
0
100
AcDbLine
10
-47.251578
20
-31.47
30
0
11
-47.669574
21
-28.295002
31
0
39
0
210
0
220
0
230
1
0
LINE
5
331
100
AcDbEntity
8
SK2
62
256
6
ByLayer
370
13
48
1
60
0
100
AcDbLine
10
-47.251578
20
-31.47
30
0
11
-46.833581
21
-28.294998
31
0
39
0
210
0
220
0
230
1
0
LINE
5
332
100
AcDbEntity
8
SK2
62
256
6
ByLayer
370
13
48
1
60
0
100
AcDbLine
10
-47.669574
20
-28.295002
30
0
11
-46.833581
21
-28.294998
31
0
39
0
210
0
220
0
230
1
0
LINE
5
333
100
AcDbEntity
8
SK2
62
256
6
ByLayer
370
13
48
1
60
0
100
AcDbLine
10
-47.251578
20
31.47
30
0
11
-46.833581
21
28.295002
31
0
39
0
210
0
220
0
230
1
0
LINE
5
334
100
AcDbEntity
8
SK2
62
256
6
ByLayer
370
13
48
1
60
0
100
AcDbLine
10
-47.251578
20
31.47
30
0
11
-47.669574
21
28.294998
31
0
39
0
210
0
220
0
230
1
0
LINE
5
335
100
AcDbEntity
8
SK2
62
256
6
ByLayer
370
13
48
1
60
0
100
AcDbLine
10
-46.833581
20
28.295002
30
0
11
-47.669574
21
28.294998
31
0
39
0
210
0
220
0
230
1
0
ENDBLK
5
337
100
AcDbEntity
8
0
100
AcDbBlockEnd
0
BLOCK
5
345
100
AcDbEntity
8
0
100
AcDbBlockBegin
2
DimnDraft3D3
70
0
10
0
20
0
30
0
3
DimnDraft3D3
0
MTEXT
5
33A
100
AcDbEntity
8
SK2
62
256
6
ByLayer
370
18
48
1
60
0
100
AcDbMText
10
97.084545
20
33.320716
30
0
210
0
220
0
230
1
1
\W0.5144;12
40
3.50012
41
0
44
1.084337
50
0
71
7
72
5
7
iso_b_vert
0
LINE
5
33B
100
AcDbEntity
8
SK2
62
256
6
ByLayer
370
13
48
1
60
0
100
AcDbLine
10
104.005447
20
26.451232
30
0
11
104.005447
21
35.620686
31
0
39
0
210
0
220
0
230
1
0
LINE
5
33C
100
AcDbEntity
8
SK2
62
256
6
ByLayer
370
13
48
1
60
0
100
AcDbLine
10
91.628167
20
26.561154
30
0
11
91.628167
21
35.620686
31
0
39
0
210
0
220
0
230
1
0
LINE
5
33D
100
AcDbEntity
8
SK2
62
256
6
ByLayer
370
13
48
1
60
0
100
AcDbLine
10
112.755747
20
32.445686
30
0
11
104.005447
21
32.445686
31
0
39
0
210
0
220
0
230
1
0
LINE
5
33E
100
AcDbEntity
8
SK2
62
256
6
ByLayer
370
13
48
1
60
0
100
AcDbLine
10
82.877867
20
32.445686
30
0
11
91.628167
21
32.445686
31
0
39
0
210
0
220
0
230
1
0
LINE
5
33F
100
AcDbEntity
8
SK2
62
256
6
ByLayer
370
13
48
1
60
0
100
AcDbLine
10
104.005447
20
32.445686
30
0
11
107.180446
21
32.863682
31
0
39
0
210
0
220
0
230
1
0
LINE
5
340
100
AcDbEntity
8
SK2
62
256
6
ByLayer
370
13
48
1
60
0
100
AcDbLine
10
104.005447
20
32.445686
30
0
11
107.180449
21
32.027689
31
0
39
0
210
0
220
0
230
1
0
LINE
5
341
100
AcDbEntity
8
SK2
62
256
6
ByLayer
370
13
48
1
60
0
100
AcDbLine
10
107.180446
20
32.863682
30
0
11
107.180449
21
32.027689
31
0
39
0
210
0
220
0
230
1
0
LINE
5
342
100
AcDbEntity
8
SK2
62
256
6
ByLayer
370
13
48
1
60
0
100
AcDbLine
10
91.628167
20
32.445686
30
0
11
88.453169
21
32.027689
31
0
39
0
210
0
220
0
230
1
0
LINE
5
343
100
AcDbEntity
8
SK2
62
256
6
ByLayer
370
13
48
1
60
0
100
AcDbLine
10
91.628167
20
32.445686
30
0
11
88.453166
21
32.863682
31
0
39
0
210
0
220
0
230
1
0
LINE
5
344
100
AcDbEntity
8
SK2
62
256
6
ByLayer
370
13
48
1
60
0
100
AcDbLine
10
88.453169
20
32.027689
30
0
11
88.453166
21
32.863682
31
0
39
0
210
0
220
0
230
1
0
ENDBLK
5
346
100
AcDbEntity
8
0
100
AcDbBlockEnd
0
BLOCK
5
353
100
AcDbEntity
8
0
100
AcDbBlockBegin
2
DimnDraft3D4
70
0
10
0
20
0
30
0
3
DimnDraft3D4
0
MTEXT
5
349
100
AcDbEntity
8
2
62
256
6
ByLayer
370
18
48
1
60
0
100
AcDbMText
10
65.295027
20
45.163759
30
0
210
0
220
0
230
1
1
\W0.6563;75
40
3.50012
41
0
44
1.084337
50
0
71
7
72
5
7
iso_b_vert
0
LINE
5
34A
100
AcDbEntity
8
2
62
256
6
ByLayer
370
13
48
1
60
0
100
AcDbLine
10
104.005447
20
26.451232
30
0
11
104.005447
21
47.463729
31
0
39
0
210
0
220
0
230
1
0
LINE
5
34B
100
AcDbEntity
8
2
62
256
6
ByLayer
370
13
48
1
60
0
100
AcDbLine
10
28.924161
20
25.163339
30
0
11
28.924161
21
47.463729
31
0
39
0
210
0
220
0
230
1
0
LINE
5
34C
100
AcDbEntity
8
2
62
256
6
ByLayer
370
13
48
1
60
0
100
AcDbLine
10
104.005447
20
44.288729
30
0
11
28.924161
21
44.288729
31
0
39
0
210
0
220
0
230
1
0
LINE
5
34D
100
AcDbEntity
8
2
62
256
6
ByLayer
370
13
48
1
60
0
100
AcDbLine
10
104.005447
20
44.288729
30
0
11
100.830449
21
43.870732
31
0
39
0
210
0
220
0
230
1
0
LINE
5
34E
100
AcDbEntity
8
2
62
256
6
ByLayer
370
13
48
1
60
0
100
AcDbLine
10
104.005447
20
44.288729
30
0
11
100.830446
21
44.706726
31
0
39
0
210
0
220
0
230
1
0
LINE
5
34F
100
AcDbEntity
8
2
62
256
6
ByLayer
370
13
48
1
60
0
100
AcDbLine
10
100.830449
20
43.870732
30
0
11
100.830446
21
44.706726
31
0
39
0
210
0
220
0
230
1
0
LINE
5
350
100
AcDbEntity
8
2
62
256
6
ByLayer
370
13
48
1
60
0
100
AcDbLine
10
28.924161
20
44.288729
30
0
11
32.099159
21
44.706726
31
0
39
0
210
0
220
0
230
1
0
LINE
5
351
100
AcDbEntity
8
2
62
256
6
ByLayer
370
13
48
1
60
0
100
AcDbLine
10
28.924161
20
44.288729
30
0
11
32.099163
21
43.870732
31
0
39
0
210
0
220
0
230
1
0
LINE
5
352
100
AcDbEntity
8
2
62
256
6
ByLayer
370
13
48
1
60
0
100
AcDbLine
10
32.099159
20
44.706726
30
0
11
32.099163
21
43.870732
31
0
39
0
210
0
220
0
230
1
0
ENDBLK
5
354
100
AcDbEntity
8
0
100
AcDbBlockEnd
0
BLOCK
5
361
100
AcDbEntity
8
0
100
AcDbBlockBegin
2
DimnDraft3D5
70
0
10
0
20
0
30
0
3
DimnDraft3D5
0
MTEXT
5
357
100
AcDbEntity
8
2
62
256
6
ByLayer
370
18
48
1
60
0
100
AcDbMText
10
49.801332
20
56.502843
30
0
210
0
220
0
230
1
1
\W0.6336;104
40
3.50012
41
0
44
1.084337
50
0
71
7
72
5
7
iso_b_vert
0
LINE
5
358
100
AcDbEntity
8
2
62
256
6
ByLayer
370
13
48
1
60
0
100
AcDbLine
10
0
20
33.0575
30
0
11
0
21
58.802813
31
0
39
0
210
0
220
0
230
1
0
LINE
5
359
100
AcDbEntity
8
2
62
256
6
ByLayer
370
13
48
1
60
0
100
AcDbLine
10
104.005447
20
26.451232
30
0
11
104.005447
21
58.802813
31
0
39
0
210
0
220
0
230
1
0
LINE
5
35A
100
AcDbEntity
8
2
62
256
6
ByLayer
370
13
48
1
60
0
100
AcDbLine
10
0
20
55.627813
30
0
11
104.005447
21
55.627813
31
0
39
0
210
0
220
0
230
1
0
LINE
5
35B
100
AcDbEntity
8
2
62
256
6
ByLayer
370
13
48
1
60
0
100
AcDbLine
10
0
20
55.627813
30
0
11
3.174998
21
56.04581
31
0
39
0
210
0
220
0
230
1
0
LINE
5
35C
100
AcDbEntity
8
2
62
256
6
ByLayer
370
13
48
1
60
0
100
AcDbLine
10
0
20
55.627813
30
0
11
3.175002
21
55.209816
31
0
39
0
210
0
220
0
230
1
0
LINE
5
35D
100
AcDbEntity
8
2
62
256
6
ByLayer
370
13
48
1
60
0
100
AcDbLine
10
3.174998
20
56.04581
30
0
11
3.175002
21
55.209816
31
0
39
0
210
0
220
0
230
1
0
LINE
5
35E
100
AcDbEntity
8
2
62
256
6
ByLayer
370
13
48
1
60
0
100
AcDbLine
10
104.005447
20
55.627813
30
0
11
100.830449
21
55.209816
31
0
39
0
210
0
220
0
230
1
0
LINE
5
35F
100
AcDbEntity
8
2
62
256
6
ByLayer
370
13
48
1
60
0
100
AcDbLine
10
104.005447
20
55.627813
30
0
11
100.830446
21
56.04581
31
0
39
0
210
0
220
0
230
1
0
LINE
5
360
100
AcDbEntity
8
2
62
256
6
ByLayer
370
13
48
1
60
0
100
AcDbLine
10
100.830449
20
55.209816
30
0
11
100.830446
21
56.04581
31
0
39
0
210
0
220
0
230
1
0
ENDBLK
5
362
100
AcDbEntity
8
0
100
AcDbBlockEnd
0
ENDSEC
0
SECTION
2
ENTITIES
0
ARC
5
130
100
AcDbEntity
8
1
62
256
6
ByLayer
370
25
48
1
60
0
100
AcDbCircle
39
0
10
19.1625
20
28.225
30
0
40
0.749999999999989
210
0
220
0
230
1
100
AcDbArc
50
270
51
0
0
ARC
5
131
100
AcDbEntity
8
1
62
256
6
ByLayer
370
25
48
1
60
0
100
AcDbCircle
39
0
10
16.8375
20
28.225
30
0
40
0.749999999999989
210
0
220
0
230
1
100
AcDbArc
50
180
51
270
0
ARC
5
132
100
AcDbEntity
8
1
62
256
6
ByLayer
370
25
48
1
60
0
100
AcDbCircle
39
0
10
19.1625
20
-28.225
30
0
40
0.749999999999989
210
0
220
0
230
1
100
AcDbArc
50
0
51
90
0
ARC
5
133
100
AcDbEntity
8
1
62
256
6
ByLayer
370
25
48
1
60
0
100
AcDbCircle
39
0
10
16.8375
20
-28.225
30
0
40
0.749999999999989
210
0
220
0
230
1
100
AcDbArc
50
90
51
180
0
ARC
5
134
100
AcDbEntity
8
1
62
256
6
ByLayer
370
25
48
1
60
0
100
AcDbCircle
39
0
10
28.924161
20
26.5
30
0
40
2.92416100000001
210
0
220
0
230
1
100
AcDbArc
50
180
51
270
0
ARC
5
135
100
AcDbEntity
8
1
62
256
6
ByLayer
370
25
48
1
60
0
100
AcDbCircle
39
0
10
28.924161
20
-26.5
30
0
40
2.92416100000001
210
0
220
0
230
1
100
AcDbArc
50
90
51
180
0
ARC
5
136
100
AcDbEntity
8
SK1
62
256
6
ByLayer
370
25
48
1
60
0
100
AcDbCircle
39
0
10
-0.475
20
24.61997
30
0
40
0.599999999999384
210
0
220
0
230
1
100
AcDbArc
50
270
51
322.341538
0
ARC
5
137
100
AcDbEntity
8
SK1
62
256
6
ByLayer
370
25
48
1
60
0
100
AcDbCircle
39
0
10
-0.475
20
-24.61997
30
0
40
0.59999999999937
210
0
220
0
230
1
100
AcDbArc
50
37.658462
51
90
0
ARC
5
138
100
AcDbEntity
8
SK1
62
256
6
ByLayer
370
25
48
1
60
0
100
AcDbCircle
39
0
10
1.049598
20
24.61997
30
0
40
0.6
210
0
220
0
230
-1
100
AcDbArc
50
270
51
285
0
ARC
5
139
100
AcDbEntity
8
SK1
62
256
6
ByLayer
370
25
48
1
60
0
100
AcDbCircle
39
0
10
1.049598
20
-24.61997
30
0
40
0.6
210
0
220
0
230
-1
100
AcDbArc
50
75
51
90
0
ARC
5
13A
100
AcDbEntity
8
SK1
62
256
6
ByLayer
370
25
48
1
60
0
100
AcDbCircle
39
0
10
-27.2
20
4.87
30
0
40
1.4
210
0
220
0
230
1
100
AcDbArc
50
0
51
90
0
ARC
5
13B
100
AcDbEntity
8
SK1
62
256
6
ByLayer
370
25
48
1
60
0
100
AcDbCircle
39
0
10
-27.2
20
-4.87
30
0
40
1.39999999999989
210
0
220
0
230
1
100
AcDbArc
50
270
51
0
0
ARC
5
13C
100
AcDbEntity
8
SK1
62
256
6
ByLayer
370
25
48
1
60
0
100
AcDbCircle
39
0
10
-30.7
20
-21.583501
30
0
40
1.2000000000001
210
0
220
0
230
1
100
AcDbArc
50
180
51
267.137595
0
ARC
5
13D
100
AcDbEntity
8
SK1
62
256
6
ByLayer
370
25
48
1
60
0
100
AcDbCircle
39
0
10
-30.7
20
21.583501
30
0
40
1.2000000000001
210
0
220
0
230
1
100
AcDbArc
50
92.862405
51
180
0
ELLIPSE
5
13E
100
AcDbEntity
8
1
62
256
6
ByLayer
370
25
48
1
60
0
100
AcDbEllipse
10
89.180743
20
-7.077098
30
0
11
1.97749334784207
21
-0.299199029479414
31
0
210
0
220
0
230
1
40
0.529715
41
-2.56703170703561
42
-1.68142800554126
0
ELLIPSE
5
13F
100
AcDbEntity
8
1
62
256
6
ByLayer
370
25
48
1
60
0
100
AcDbEllipse
10
89.223194
20
-6.796531
30
0
11
1.70821604958505
21
-0.258456790628263
31
0
210
0
220
0
230
1
40
0.529715
41
-2.42819036444855
42
-1.7283585961929
0
ELLIPSE
5
140
100
AcDbEntity
8
1
62
256
6
ByLayer
370
25
48
1
60
0
100
AcDbEllipse
10
99.512759
20
-6.666036
30
0
11
3.17376431795405
21
-0.480197419393139
31
0
210
0
220
0
230
1
40
0.529715
41
-1.25709611994066
42
-1.09115018748591
0
ELLIPSE
5
141
100
AcDbEntity
8
1
62
256
6
ByLayer
370
25
48
1
60
0
100
AcDbEllipse
10
99.425208
20
-7.244692
30
0
11
3.65836269350743
21
-0.553518204537268
31
0
210
0
220
0
230
1
40
0.529715
41
-1.27033142791089
42
0.521153635353923
0
ELLIPSE
5
142
100
AcDbEntity
8
1
62
256
6
ByLayer
370
25
48
1
60
0
100
AcDbEllipse
10
99.467658
20
-6.964125
30
0
11
3.38908539523959
21
-0.512775965683535
31
0
210
0
220
0
230
1
40
0.529715
41
-1.31232059603312
42
-0.828060727058284
0
ELLIPSE
5
143
100
AcDbEntity
8
1
62
256
6
ByLayer
370
25
48
1
60
0
100
AcDbEllipse
10
99.467658
20
-6.964125
30
0
11
3.38908539328424
21
-0.512775964694433
31
0
210
0
220
0
230
1
40
0.529715
41
-0.583460521188756
42
-0.355556753743266
0
ELLIPSE
5
144
100
AcDbEntity
8
1
62
256
6
ByLayer
370
25
48
1
60
0
100
AcDbEllipse
10
99.467658
20
-6.964125
30
0
11
3.3890853941028
21
-0.512775965438453
31
0
210
0
220
0
230
1
40
0.529715
41
-0.172784873205994
42
0.023279550702385
0
ELLIPSE
5
145
100
AcDbEntity
8
1
62
256
6
ByLayer
370
25
48
1
60
0
100
AcDbEllipse
10
93.771614
20
19.553555
30
0
11
0.778985501257448
21
-2.50675219932796
31
0
210
0
220
0
230
1
40
0.991133
41
3.14159265358979
42
-1.87480272742568
0
ELLIPSE
5
146
100
AcDbEntity
8
1
62
256
6
ByLayer
370
25
48
1
60
0
100
AcDbEllipse
10
93.736664
20
19.542695
30
0
11
0.534161486560834
21
-1.7189157938291
31
0
210
0
220
0
230
1
40
0.991133
41
0
42
6.28318530717959
0
ELLIPSE
5
147
100
AcDbEntity
8
1
62
256
6
ByLayer
370
25
48
1
60
0
100
AcDbEllipse
10
93.736664
20
19.542695
30
0
11
0.49751207343725
21
-1.60097907131469
31
0
210
0
220
0
230
1
40
0.991133
41
-0.830395723889692
42
0.222382922669242
0
ELLIPSE
5
148
100
AcDbEntity
8
1
62
256
6
ByLayer
370
25
48
1
60
0
100
AcDbEllipse
10
93.736664
20
19.542695
30
0
11
0.497512073578989
21
-1.60097907127273
31
0
210
0
220
0
230
1
40
0.991133
41
0.222382922581999
42
1.26678992609594
0
ELLIPSE
5
149
100
AcDbEntity
8
1
62
256
6
ByLayer
370
25
48
1
60
0
100
AcDbEllipse
10
93.736664
20
19.542695
30
0
11
0.497512073487706
21
-1.60097907129679
31
0
210
0
220
0
230
1
40
0.991133
41
1.2667899261524
42
2.31119692966835
0
ELLIPSE
5
14A
100
AcDbEntity
8
1
62
256
6
ByLayer
370
25
48
1
60
0
100
AcDbEllipse
10
93.736664
20
19.542695
30
0
11
0.497512073454214
21
-1.60097907130865
31
0
210
0
220
0
230
1
40
0.991133
41
2.31119692968929
42
-2.91920973093112
0
ELLIPSE
5
14B
100
AcDbEntity
8
1
62
256
6
ByLayer
370
25
48
1
60
0
100
AcDbEllipse
10
93.736664
20
19.542695
30
0
11
0.497512073613601
21
-1.60097907126321
31
0
210
0
220
0
230
1
40
0.991133
41
-2.91920973102912
42
-1.8748027275156
0
ELLIPSE
5
14C
100
AcDbEntity
8
1
62
256
6
ByLayer
370
25
48
1
60
0
100
AcDbEllipse
10
93.736664
20
19.542695
30
0
11
0.497512073449285
21
-1.60097907130998
31
0
210
0
220
0
230
1
40
0.991133
41
-1.87480272741274
42
-0.830395723897549
0
ELLIPSE
5
14D
100
AcDbEntity
8
1
62
256
6
ByLayer
370
25
48
1
60
0
100
AcDbEllipse
10
93.914305
20
19.597898
30
0
11
0.778985501236139
21
-2.50675219933361
31
0
210
0
220
0
230
1
40
0.991133
41
0
42
3.14159265358979
0
ELLIPSE
5
14E
100
AcDbEntity
8
1
62
256
6
ByLayer
370
25
48
1
60
0
100
AcDbEllipse
10
93.771614
20
19.553555
30
0
11
0.778985501240722
21
-2.50675219933214
31
0
210
0
220
0
230
1
40
0.991133
41
-1.87480272741894
42
0
0
ELLIPSE
5
14F
100
AcDbEntity
8
1
62
256
6
ByLayer
370
25
48
1
60
0
100
AcDbEllipse
10
93.771614
20
19.553555
30
0
11
0.778985501235502
21
-2.5067521993338
31
0
210
0
220
0
230
1
40
0.991133
41
0
42
3.14159265358979
0
ELLIPSE
5
150
100
AcDbEntity
8
1
62
256
6
ByLayer
370
25
48
1
60
0
100
AcDbEllipse
10
93.917812
20
21.481952
30
0
11
0.203574877103246
21
-0.655097908214987
31
0
210
0
220
0
230
1
40
0.991133
41
8.15567216382829E-10
42
0.48725493513181
0
ELLIPSE
5
151
100
AcDbEntity
8
1
62
256
6
ByLayer
370
25
48
1
60
0
100
AcDbEllipse
10
93.227719
20
20.798645
30
0
11
0.0866528634804222
21
-0.278846339857675
31
0
210
0
220
0
230
1
40
0.991133
41
-2.83649061435986
42
-1.61301558593129
0
ELLIPSE
5
152
100
AcDbEntity
8
1
62
256
6
ByLayer
370
25
48
1
60
0
100
AcDbEllipse
10
93.917143
20
17.715815
30
0
11
0.20357487762147
21
-0.655097908104664
31
0
210
0
220
0
230
1
40
0.991133
41
2.04632491810084
42
2.71597221180453
0
ELLIPSE
5
153
100
AcDbEntity
8
1
62
256
6
ByLayer
370
25
48
1
60
0
100
AcDbEllipse
10
93.227294
20
18.406388
30
0
11
0.0866528633829576
21
-0.27884633988534
31
0
210
0
220
0
230
1
40
0.991133
41
-2.13658986930735
42
-0.306720423215243
0
ELLIPSE
5
154
100
AcDbEntity
8
1
62
256
6
ByLayer
370
25
48
1
60
0
100
AcDbEllipse
10
92.290631
20
20.550665
30
0
11
0.203574877841282
21
-0.65509790804394
31
0
210
0
220
0
230
1
40
0.991133
41
0
42
0.744586424134274
0
ELLIPSE
5
155
100
AcDbEntity
8
1
62
256
6
ByLayer
370
25
48
1
60
0
100
AcDbEllipse
10
92.290631
20
20.550665
30
0
11
0.203574877734623
21
-0.655097908070805
31
0
210
0
220
0
230
1
40
0.991133
41
0.744586424298725
42
1.52857706791671
0
ELLIPSE
5
156
100
AcDbEntity
8
1
62
256
6
ByLayer
370
25
48
1
60
0
100
AcDbEllipse
10
92.544168
20
19.606114
30
0
11
0.08665286337551
21
-0.278846339887851
31
0
210
0
220
0
230
1
40
0.991133
41
-2.69522373714368
42
-0.568608582038483
0
ELLIPSE
5
157
100
AcDbEntity
8
1
62
256
6
ByLayer
370
25
48
1
60
0
100
AcDbEllipse
10
92.290296
20
18.664235
30
0
11
0.203574877549594
21
-0.655097908128457
31
0
210
0
220
0
230
1
40
0.991133
41
1.78899342809577
42
2.57298407171432
0
ELLIPSE
5
158
100
AcDbEntity
8
1
62
256
6
ByLayer
370
25
48
1
60
0
100
AcDbEllipse
10
92.290296
20
18.664235
30
0
11
0.203574877584784
21
-0.655097908112495
31
0
210
0
220
0
230
1
40
0.991133
41
1.00500278441707
42
1.78899342804026
0
ELLIPSE
5
159
100
AcDbEntity
8
1
62
256
6
ByLayer
370
25
48
1
60
0
100
AcDbEllipse
10
93.917478
20
19.598883
30
0
11
0.3580365754788
21
-1.15215105811268
31
0
210
0
220
0
230
1
40
0.991133
41
0.903796564233538
42
1.5140110828157
0
ELLIPSE
5
15A
100
AcDbEntity
8
1
62
256
6
ByLayer
370
25
48
1
60
0
100
AcDbEllipse
10
93.917478
20
19.598883
30
0
11
0.358036574065937
21
-1.15215105851585
31
0
210
0
220
0
230
1
40
0.991133
41
2.09792877894484
42
2.74347579162655
0
ELLIPSE
5
15B
100
AcDbEntity
8
1
62
256
6
ByLayer
370
25
48
1
60
0
100
AcDbEllipse
10
93.917478
20
19.598883
30
0
11
0.358036574149392
21
-1.15215105848146
31
0
210
0
220
0
230
1
40
0.991133
41
-0.234973767179449
42
0.453333641632901
0
ELLIPSE
5
15C
100
AcDbEntity
8
1
62
256
6
ByLayer
370
25
48
1
60
0
100
AcDbEllipse
10
93.917478
20
19.598883
30
0
11
0.358036574169937
21
-1.15215105848053
31
0
210
0
220
0
230
1
40
0.991133
41
-1.35259922564418
42
-0.373039034019091
0
ELLIPSE
5
15D
100
AcDbEntity
8
1
62
256
6
ByLayer
370
25
48
1
60
0
100
AcDbEllipse
10
93.917478
20
19.598883
30
0
11
0.358036574084146
21
-1.15215105850353
31
0
210
0
220
0
230
1
40
0.991133
41
-2.39700622908731
42
-1.35259922556946
0
ELLIPSE
5
15E
100
AcDbEntity
8
1
62
256
6
ByLayer
370
25
48
1
60
0
100
AcDbEllipse
10
93.917478
20
19.598883
30
0
11
0.358036574603557
21
-1.15215105836814
31
0
210
0
220
0
230
1
40
0.991133
41
3.08504307607548
42
-2.3970062295344
0
ELLIPSE
5
15F
100
AcDbEntity
8
1
62
256
6
ByLayer
370
25
48
1
60
0
100
AcDbEllipse
10
94.208952
20
19.609668
30
0
11
0.806309371039787
21
-2.59467960051194
31
0
210
0
220
0
230
1
40
0.991133
41
-0.184656311994286
42
0.520982624042133
0
ELLIPSE
5
160
100
AcDbEntity
8
1
62
256
6
ByLayer
370
25
48
1
60
0
100
AcDbEllipse
10
94.208952
20
19.609668
30
0
11
0.806309331427014
21
-2.59467961493277
31
0
210
0
220
0
230
1
40
0.991133
41
-0.461561184313548
42
-0.309720191144564
0
ELLIPSE
5
161
100
AcDbEntity
8
1
62
256
6
ByLayer
370
25
48
1
60
0
100
AcDbEllipse
10
94.208952
20
19.609668
30
0
11
0.806309309706473
21
-2.59467962434621
31
0
210
0
220
0
230
1
40
0.991133
41
-0.309720182409752
42
-0.184656287898334
0
ELLIPSE
5
162
100
AcDbEntity
8
1
62
256
6
ByLayer
370
25
48
1
60
0
100
AcDbEllipse
10
94.208952
20
19.609668
30
0
11
0.806309371154266
21
-2.59467960046073
31
0
210
0
220
0
230
1
40
0.991133
41
2.59286168357995
42
-3.03343413498159
0
ELLIPSE
5
163
100
AcDbEntity
8
1
62
256
6
ByLayer
370
25
48
1
60
0
100
AcDbEllipse
10
94.254398
20
19.623791
30
0
11
0.750007889850209
21
-2.41350310682276
31
0
210
0
220
0
230
1
40
0.991133
41
-0.000213966455781951
42
2.69505915964291
0
ELLIPSE
5
164
100
AcDbEntity
8
1
62
256
6
ByLayer
370
25
48
1
60
0
100
AcDbEllipse
10
94.751758
20
-2.545553
30
0
11
1.33480800979261
21
-0.201959344898449
31
0
210
0
220
0
230
1
40
0.529715
41
2.46705821970055
42
-3.06143770356529
0
ELLIPSE
5
165
100
AcDbEntity
8
1
62
256
6
ByLayer
370
25
48
1
60
0
100
AcDbEllipse
10
94.751758
20
-2.545553
30
0
11
1.33480800979333
21
-0.201959344898742
31
0
210
0
220
0
230
1
40
0.529715
41
0.674534433889159
42
2.46705821970069
0
ELLIPSE
5
166
100
AcDbEntity
8
1
62
256
6
ByLayer
370
25
48
1
60
0
100
AcDbEllipse
10
94.701003
20
-2.881006
30
0
11
1.73030667934207
21
-0.261799150785507
31
0
210
0
220
0
230
1
40
0.529715
41
2.46705821969483
42
3.07291582002481
0
ELLIPSE
5
167
100
AcDbEntity
8
1
62
256
6
ByLayer
370
25
48
1
60
0
100
AcDbEllipse
10
94.751758
20
-2.545553
30
0
11
1.3348080097932
21
-0.201959344898697
31
0
210
0
220
0
230
1
40
0.529715
41
-3.06143770356526
42
0.674534433889005
0
ELLIPSE
5
168
100
AcDbEntity
8
1
62
256
6
ByLayer
370
25
48
1
60
0
100
AcDbEllipse
10
94.701003
20
-2.881006
30
0
11
1.7303066793087
21
-0.261799150798831
31
0
210
0
220
0
230
1
40
0.529715
41
0.068676851957602
42
0.674534433903027
0
ELLIPSE
5
169
100
AcDbEntity
8
1
62
256
6
ByLayer
370
25
48
1
60
0
100
AcDbEllipse
10
94.720328
20
-2.781944
30
0
11
2.47186668480223
21
-0.373998786849454
31
0
210
0
220
0
230
1
40
0.529715
41
0.0858687560105241
42
2.76249236809054
0
ELLIPSE
5
16A
100
AcDbEntity
8
1
62
256
6
ByLayer
370
25
48
1
60
0
100
AcDbEllipse
10
94.720036
20
-2.755211
30
0
11
1.7303066793618
21
-0.261799150794503
31
0
210
0
220
0
230
1
40
0.529715
41
3.14159265358979
42
-1.48492757078457
0
ELLIPSE
5
16B
100
AcDbEntity
8
1
62
256
6
ByLayer
370
25
48
1
60
0
100
AcDbEllipse
10
87.777235
20
-8.501754
30
0
11
-1.99988049207629
21
-0.0218636175449595
31
0
210
0
220
0
230
1
40
0.845051
41
-1.96258202408597
42
-1.71684901971617
0
ELLIPSE
5
16C
100
AcDbEntity
8
1
62
256
6
ByLayer
370
25
48
1
60
0
100
AcDbEllipse
10
94.720036
20
-2.755211
30
0
11
1.73030667936066
21
-0.261799150793908
31
0
210
0
220
0
230
1
40
0.529715
41
-1.48492757078507
42
-4.79059990318584E-16
0
ELLIPSE
5
16D
100
AcDbEntity
8
1
62
256
6
ByLayer
370
25
48
1
60
0
100
AcDbEllipse
10
94.720036
20
-2.755211
30
0
11
1.73030667936091
21
-0.261799150794081
31
0
210
0
220
0
230
1
40
0.529715
41
1.60471957119231
42
3.14159265358979
0
ELLIPSE
5
16E
100
AcDbEntity
8
1
62
256
6
ByLayer
370
25
48
1
60
0
100
AcDbEllipse
10
94.720036
20
-2.755211
30
0
11
1.73030667936123
21
-0.261799150794763
31
0
210
0
220
0
230
1
40
0.529715
41
0
42
1.53687308597982
0
ELLIPSE
5
16F
100
AcDbEntity
8
1
62
256
6
ByLayer
370
25
48
1
60
0
100
AcDbEllipse
10
85.458908
20
16.346517
30
0
11
0.94219313289104
21
-2.31565802751837
31
0
210
0
220
0
230
1
40
0.976045
41
-2.95614216887101
42
-2.17699830492523
0
ELLIPSE
5
170
100
AcDbEntity
8
1
62
256
6
ByLayer
370
25
48
1
60
0
100
AcDbEllipse
10
83.612821
20
17.6218
30
0
11
-0.621174674473109
21
-1.36533586483112
31
0
210
0
220
0
230
1
40
0.566057
41
-1.6865001134634
42
-0.965943920137854
0
ELLIPSE
5
171
100
AcDbEntity
8
1
62
256
6
ByLayer
370
25
48
1
60
0
100
AcDbEllipse
10
84.888782
20
16.692499
30
0
11
3.74456880250688
21
-2.01015031411827
31
0
210
0
220
0
230
1
40
0.09517
41
2.02480898520528
42
2.17564586743969
0
ELLIPSE
5
172
100
AcDbEntity
8
1
62
256
6
ByLayer
370
25
48
1
60
0
100
AcDbEllipse
10
87.775189
20
23.107842
30
0
11
1.99996577853177
21
-0.0116997652254609
31
0
210
0
220
0
230
1
40
0.040498
41
2.46983753619113
42
3.01459769290059
0
ELLIPSE
5
173
100
AcDbEntity
8
1
62
256
6
ByLayer
370
25
48
1
60
0
100
AcDbEllipse
10
83.731675
20
17.351583
30
0
11
-0.663744097677004
21
-1.1406623753112
31
0
210
0
220
0
230
1
40
0.337931
41
-2.82902185609478
42
-2.62153526324109
0
ELLIPSE
5
174
100
AcDbEntity
8
1
62
256
6
ByLayer
370
25
48
1
60
0
100
AcDbEllipse
10
99.425208
20
-13.082176
30
0
11
-3.66196212784601
21
-0.529181796227284
31
0
210
0
220
0
230
1
40
0.461419
41
2.66640270373978
42
-3.09355615720401
0
ELLIPSE
5
175
100
AcDbEntity
8
1
62
256
6
ByLayer
370
25
48
1
60
0
100
AcDbEllipse
10
99.467658
20
-13.375934
30
0
11
-3.39241988521694
21
-0.490230861009621
31
0
210
0
220
0
230
1
40
0.461419
41
-3.09316518721242
42
-2.95075188648039
0
ELLIPSE
5
176
100
AcDbEntity
8
1
62
256
6
ByLayer
370
25
48
1
60
0
100
AcDbEllipse
10
85.067241
20
0.257828
30
0
11
-2.52365959472657
21
-23.9102452686642
31
0
210
0
220
0
230
1
40
0.07253
41
1.15171907587388
42
1.20850627374989
0
ELLIPSE
5
177
100
AcDbEntity
8
1
62
256
6
ByLayer
370
25
48
1
60
0
100
AcDbEllipse
10
587.594748
20
-51.270868
30
0
11
590.411829885359
21
-63.9593093227958
31
0
210
0
220
0
230
1
40
0.040249
41
-2.5952282828149
42
-2.58279281632697
0
ELLIPSE
5
178
100
AcDbEntity
8
1
62
256
6
ByLayer
370
25
48
1
60
0
100
AcDbEllipse
10
90.912164
20
-0.080484
30
0
11
-2.57117624673953
21
-24.3616843362867
31
0
210
0
220
0
230
1
40
0.072533
41
1.41448501334643
42
1.65289549969925
0
ELLIPSE
5
179
100
AcDbEntity
8
1
62
256
6
ByLayer
370
25
48
1
60
0
100
AcDbEllipse
10
120.486736
20
4.873548
30
0
11
183.169656289235
21
-19.8964639961225
31
0
210
0
220
0
230
1
40
0.065445
41
-1.71841629357992
42
-1.69106477442625
0
ELLIPSE
5
17A
100
AcDbEntity
8
1
62
256
6
ByLayer
370
25
48
1
60
0
100
AcDbEllipse
10
95.953077
20
-0.07996
30
0
11
-2.55443433974756
21
-24.2030561381456
31
0
210
0
220
0
230
1
40
0.072533
41
1.38890327975804
42
1.64606717657823
0
ELLIPSE
5
17B
100
AcDbEntity
8
1
62
256
6
ByLayer
370
25
48
1
60
0
100
AcDbEllipse
10
-8714.391018
20
-264.459137
30
0
11
-8953.36175968941
21
-282.95753273954
31
0
210
0
220
0
230
1
40
0.004126
41
2.96024363039307
42
2.96445015869937
0
ELLIPSE
5
17C
100
AcDbEntity
8
1
62
256
6
ByLayer
370
25
48
1
60
0
100
AcDbEllipse
10
88.582752
20
-7.989951
30
0
11
1.41232405808901
21
-0.0655145698893158
31
0
210
0
220
0
230
1
40
0.74811
41
0.998078924445282
42
1.64721888112065
0
ELLIPSE
5
17D
100
AcDbEntity
8
1
62
256
6
ByLayer
370
25
48
1
60
0
100
AcDbEllipse
10
113.533716
20
-3.7E-05
30
0
11
184.300572704969
21
-0.952758876318726
31
0
210
0
220
0
230
1
40
0.127816
41
1.74451501074503
42
1.76178381830138
0
ELLIPSE
5
17E
100
AcDbEntity
8
1
62
256
6
ByLayer
370
25
48
1
60
0
100
AcDbEllipse
10
113.533688
20
6E-06
30
0
11
184.295572550808
21
-20.0243768922731
31
0
210
0
220
0
230
1
40
0.06752
41
-1.75378680840717
42
-1.73651799350862
0
ELLIPSE
5
17F
100
AcDbEntity
8
1
62
256
6
ByLayer
370
25
48
1
60
0
100
AcDbEllipse
10
88.229144
20
-12.281259
30
0
11
4.80190179770602
21
-0.222749537859791
31
0
210
0
220
0
230
1
40
0.74811
41
1.99900225661111
42
2.16274011854065
0
ELLIPSE
5
180
100
AcDbEntity
8
1
62
256
6
ByLayer
370
25
48
1
60
0
100
AcDbEllipse
10
88.396115
20
-7.783444
30
0
11
1.41232405809417
21
-0.0655145698861434
31
0
210
0
220
0
230
1
40
0.74811
41
2.00127987673389
42
-3.09572726169818
0
ELLIPSE
5
181
100
AcDbEntity
8
1
62
256
6
ByLayer
370
25
48
1
60
0
100
AcDbEllipse
10
-8711.517084
20
216.334889
30
0
11
8950.48735222648
21
-231.481984224498
31
0
210
0
220
0
230
1
40
0.007663
41
-0.181049373070075
42
-0.176842158494093
0
ELLIPSE
5
182
100
AcDbEntity
8
1
62
256
6
ByLayer
370
25
48
1
60
0
100
AcDbEllipse
10
87.549141
20
17.196989
30
0
11
-4.72002991969759
21
-0.426541242130367
31
0
210
0
220
0
230
1
40
0.459347
41
-0.79876941450487
42
-0.692766651951738
0
ELLIPSE
5
183
100
AcDbEntity
8
1
62
256
6
ByLayer
370
25
48
1
60
0
100
AcDbEllipse
10
85.06724
20
0.027068
30
0
11
-0.267919320306623
21
-23.9095476725503
31
0
210
0
220
0
230
1
40
0.127579
41
2.98941679883771
42
3.04620399469738
0
ELLIPSE
5
184
100
AcDbEntity
8
1
62
256
6
ByLayer
370
25
48
1
60
0
100
AcDbEllipse
10
587.596403
20
-2.41072
30
0
11
590.419072594326
21
-3.01992414197362
31
0
210
0
220
0
230
1
40
0.076189
41
2.58754337588645
42
2.59997882195673
0
ELLIPSE
5
185
100
AcDbEntity
8
1
62
256
6
ByLayer
370
25
48
1
60
0
100
AcDbEllipse
10
88.229144
20
22.915025
30
0
11
4.80479219697591
21
-0.0335223892734117
31
0
210
0
220
0
230
1
40
0.035885
41
2.01551960786765
42
2.14378451633718
0
POINT
5
6C
100
AcDbEntity
8
81
62
256
6
ByLayer
370
25
48
1
60
0
100
AcDbPoint
10
104.005447
20
24.863732
30
0
39
0
210
0
220
0
230
1
50
360
0
POINT
5
6E
100
AcDbEntity
8
1
62
256
6
ByLayer
370
25
48
1
60
1
100
AcDbPoint
10
-24.863732
20
-104.005447
30
0
39
0
210
0
220
0
230
1
50
360
0
POINT
5
70
100
AcDbEntity
8
80
62
256
6
ByLayer
370
25
48
1
60
0
100
AcDbPoint
10
0
20
0
30
0
39
0
210
0
220
0
230
1
50
360
0
POINT
5
72
100
AcDbEntity
8
1
62
256
6
ByLayer
370
25
48
1
60
1
100
AcDbPoint
10
104.005447
20
-25.136268
30
0
39
0
210
0
220
0
230
1
50
360
0
SPLINE
5
186
100
AcDbEntity
8
1
62
256
6
ByLayer
370
25
48
1
60
0
100
AcDbSpline
70
4
71
2
72
6
73
3
40
0
40
0
40
0
40
1
40
1
40
1
41
1
10
100.932445522668
20
-12.7423237423693
30
0
41
1
10
96.2770491803245
20
-12.0337433832932
30
0
41
1
10
91.6281709447961
20
-11.2071240683066
30
0
0
SPLINE
5
187
100
AcDbEntity
8
1
62
256
6
ByLayer
370
25
48
1
60
0
100
AcDbSpline
70
4
71
3
72
12
73
8
40
0
40
0
40
0
40
0
40
0.173069520369267
40
0.336841607481314
40
0.500038912727156
40
0.745843059705402
40
1
40
1
40
1
40
1
41
1
10
89.8520475182043
20
-10.7505453592808
30
0
41
1
10
89.9591208587439
20
-10.7561595011138
30
0
41
1
10
90.1667912559687
20
-10.7727081276138
30
0
41
1
10
90.4737784661654
20
-10.8110880370713
30
0
41
1
10
90.8212760078644
20
-10.878667175792
30
0
41
1
10
91.2127035980865
20
-11.0021293580025
30
0
41
1
10
91.490682011299
20
-11.1315127328548
30
0
41
1
10
91.6281708325404
20
-11.2071243109628
30
0
0
SPLINE
5
188
100
AcDbEntity
8
1
62
256
6
ByLayer
370
25
48
1
60
0
100
AcDbSpline
70
4
71
2
72
6
73
3
40
0
40
0
40
0
40
1
40
1
40
1
41
1
10
89.8519489460918
20
-10.750540199226
30
0
41
1
10
89.7164049031618
20
-10.7247633636218
30
0
41
1
10
89.5797249375582
20
-10.7052114456811
30
0
0
SPLINE
5
189
100
AcDbEntity
8
1
62
256
6
ByLayer
370
25
48
1
60
0
100
AcDbSpline
70
4
71
3
72
11
73
7
40
0
40
0
40
0
40
0
40
0.338439570947865
40
0.50000335854222
40
0.74976324691822
40
1
40
1
40
1
40
1
41
1
10
88.9958007914087
20
-10.6241154789724
30
0
41
1
10
89.0618784894635
20
-10.6319524979158
30
0
41
1
10
89.1594407781336
20
-10.6439418362021
30
0
41
1
10
89.3057687008574
20
-10.6616909597054
30
0
41
1
10
89.4344196558542
20
-10.6805735692936
30
0
41
1
10
89.5313195302036
20
-10.6966310161405
30
0
41
1
10
89.5797246689454
20
-10.7052127236155
30
0
0
SPLINE
5
18A
100
AcDbEntity
8
1
62
256
6
ByLayer
370
25
48
1
60
0
100
AcDbSpline
70
4
71
3
72
10
73
6
40
0
40
0
40
0
40
0
40
0.307414134666978
40
0.642515280128215
40
1
40
1
40
1
40
1
41
1
10
87.9721954303037
20
-10.508458027102
30
0
41
1
10
88.0773883171027
20
-10.5178973732382
30
0
41
1
10
88.2970476637114
20
-10.5392293274832
30
0
41
1
10
88.6378736270059
20
-10.5809991259716
30
0
41
1
10
88.8740044305235
20
-10.609020068995
30
0
41
1
10
88.9958318754325
20
-10.6238760251994
30
0
0
SPLINE
5
18B
100
AcDbEntity
8
1
62
256
6
ByLayer
370
25
48
1
60
0
100
AcDbSpline
70
4
71
2
72
6
73
3
40
0
40
0
40
0
40
1
40
1
40
1
41
1
10
88.5091390938304
20
-8.0512755164286
30
0
41
1
10
88.2375236211357
20
-9.27924125928487
30
0
41
1
10
87.9721795330922
20
-10.508454519288
30
0
0
SPLINE
5
18C
100
AcDbEntity
8
1
62
256
6
ByLayer
370
25
48
1
60
0
100
AcDbSpline
70
4
71
2
72
6
73
3
40
0
40
0
40
0
40
1
40
1
40
1
41
1
10
88.8049000438948
20
-8.08516871048503
30
0
41
1
10
88.6570256287827
20
-8.06826740957421
30
0
41
1
10
88.5091531724385
20
-8.05127840045984
30
0
0
SPLINE
5
18D
100
AcDbEntity
8
1
62
256
6
ByLayer
370
25
48
1
60
0
100
AcDbSpline
70
4
71
2
72
6
73
3
40
0
40
0
40
0
40
1
40
1
40
1
41
1
10
88.8048998387077
20
-8.08516866785526
30
0
41
1
10
88.9989266645222
20
-8.1043318744007
30
0
41
1
10
89.1926859561908
20
-8.12564829578892
30
0
0
SPLINE
5
18E
100
AcDbEntity
8
1
62
256
6
ByLayer
370
25
48
1
60
0
100
AcDbSpline
70
4
71
2
72
6
73
3
40
0
40
0
40
0
40
1
40
1
40
1
41
1
10
92.4277913411904
20
-8.48605298503172
30
0
41
1
10
90.8098189299128
20
-8.31408032117495
30
0
41
1
10
89.1926859561908
20
-8.12564829578892
30
0
0
SPLINE
5
18F
100
AcDbEntity
8
1
62
256
6
ByLayer
370
25
48
1
60
0
100
AcDbSpline
70
4
71
2
72
6
73
3
40
0
40
0
40
0
40
1
40
1
40
1
41
1
10
94.4490634898555
20
-8.6982458597495
30
0
41
1
10
93.4384507412557
20
-8.59420523353531
30
0
41
1
10
92.4277913411904
20
-8.48605298503186
30
0
0
SPLINE
5
190
100
AcDbEntity
8
1
62
256
6
ByLayer
370
25
48
1
60
0
100
AcDbSpline
70
4
71
3
72
10
73
6
40
0
40
0
40
0
40
0
40
0.178259836699505
40
0.891321974509128
40
1
40
1
40
1
40
1
41
1
10
94.4490634898555
20
-8.6982458597495
30
0
41
1
10
94.7460443159241
20
-8.72897755607278
30
0
41
1
10
96.2311103998631
20
-8.87973368347762
30
0
41
1
10
97.8969646016349
20
-9.04368623733179
30
0
41
1
10
99.2673189399196
20
-9.15553212972962
30
0
41
1
10
99.4485649929901
20
-9.17007795035508
30
0
0
SPLINE
5
191
100
AcDbEntity
8
1
62
256
6
ByLayer
370
25
48
1
60
0
100
AcDbSpline
70
4
71
2
72
6
73
3
40
0
40
0
40
0
40
1
40
1
40
1
41
1
10
100.227877985384
20
-9.25958198879088
30
0
41
1
10
99.8390618726533
20
-9.20900700489732
30
0
41
1
10
99.4485647664224
20
-9.17007793242384
30
0
0
SPLINE
5
192
100
AcDbEntity
8
1
62
256
6
ByLayer
370
25
48
1
60
0
100
AcDbSpline
70
4
71
2
72
6
73
3
40
0
40
0
40
0
40
1
40
1
40
1
41
1
10
101.305986264247
20
-9.35686812313757
30
0
41
1
10
100.766971040413
20
-9.30881366863081
30
0
41
1
10
100.22788383371
20
-9.25958250707928
30
0
0
SPLINE
5
193
100
AcDbEntity
8
1
62
256
6
ByLayer
370
25
48
1
60
0
100
AcDbSpline
70
4
71
1
72
4
73
2
40
0
40
0
40
1
40
1
41
1
10
100.932445533258
20
-12.7423237166162
30
0
41
1
10
101.305989464913
20
-9.35683950971961
30
0
0
SPLINE
5
194
100
AcDbEntity
8
1
62
256
6
ByLayer
370
25
48
1
60
0
100
AcDbSpline
70
4
71
3
72
13
73
9
40
0
40
0
40
0
40
0
40
0.162188865039839
40
0.329081218221595
40
0.491270083318209
40
0.658162436454609
40
0.826443826480554
40
1
40
1
40
1
40
1
41
1
10
88.5091524636615
20
-8.05127830457763
30
0
41
1
10
88.426042861705
20
-8.03995453432675
30
0
41
1
10
88.2607780309651
20
-8.01010079171388
30
0
41
1
10
88.0210109530767
20
-7.94387608415142
30
0
41
1
10
87.7956912100476
20
-7.85762640458486
30
0
41
1
10
87.5921704241362
20
-7.75404214694038
30
0
41
1
10
87.4132310449229
20
-7.63302879982456
30
0
41
1
10
87.3178462275215
20
-7.54488236534651
30
0
41
1
10
87.2754144017527
20
-7.49807113124984
30
0
0
SPLINE
5
195
100
AcDbEntity
8
1
62
256
6
ByLayer
370
25
48
1
60
0
100
AcDbSpline
70
4
71
3
72
10
73
6
40
0
40
0
40
0
40
0
40
0.32503447205838
40
0.659531779499591
40
1
40
1
40
1
40
1
41
1
10
87.2621558696048
20
-10.3306836574564
30
0
41
1
10
87.3323568014194
20
-10.3606729281645
30
0
41
1
10
87.4793017385604
20
-10.4144642713241
30
0
41
1
10
87.7201271571674
20
-10.4753279997363
30
0
41
1
10
87.8865434168232
20
-10.5000077709056
30
0
41
1
10
87.9721952738438
20
-10.5084611486128
30
0
0
SPLINE
5
196
100
AcDbEntity
8
1
62
256
6
ByLayer
370
25
48
1
60
0
100
AcDbSpline
70
4
71
2
72
6
73
3
40
0
40
0
40
0
40
1
40
1
40
1
41
1
10
86.7112098176641
20
-9.94662662351175
30
0
41
1
10
86.9049013814119
20
-10.1758659592793
30
0
41
1
10
87.2621558696048
20
-10.3306836574564
30
0
0
SPLINE
5
197
100
AcDbEntity
8
1
62
256
6
ByLayer
370
25
48
1
60
0
100
AcDbSpline
70
4
71
1
72
4
73
2
40
0
40
0
40
1
40
1
41
1
10
86.5471571530742
20
-9.75781142045317
30
0
41
1
10
86.7112098173847
20
-9.94662662360363
30
0
0
SPLINE
5
198
100
AcDbEntity
8
1
62
256
6
ByLayer
370
25
48
1
60
0
100
AcDbSpline
70
4
71
1
72
4
73
2
40
0
40
0
40
1
40
1
41
1
10
85.9407754650221
20
-9.08686768292035
30
0
41
1
10
86.5471571530796
20
-9.75781142045565
30
0
0
SPLINE
5
199
100
AcDbEntity
8
1
62
256
6
ByLayer
370
25
48
1
60
0
100
AcDbSpline
70
4
71
2
72
6
73
3
40
0
40
0
40
0
40
1
40
1
40
1
41
1
10
87.4346400159827
20
-7.39522566047358
30
0
41
1
10
87.5611830769043
20
-7.35212748343314
30
0
41
1
10
87.6310818355158
20
-7.23521085616039
30
0
0
SPLINE
5
19A
100
AcDbEntity
8
1
62
256
6
ByLayer
370
25
48
1
60
0
100
AcDbSpline
70
4
71
3
72
10
73
6
40
0
40
0
40
0
40
0
40
0.448168075902904
40
0.999043132936405
40
1
40
1
40
1
40
1
41
1
10
87.8270580816286
20
-7.21099049261111
30
0
41
1
10
87.8094195134413
20
-7.22788058179484
30
0
41
1
10
87.7687956380387
20
-7.25603249720978
30
0
41
1
10
87.7198653059847
20
-7.26094129867404
30
0
41
1
10
87.6949379641118
20
-7.25833666133663
30
0
41
1
10
87.6948947398653
20
-7.25833212629144
30
0
0
SPLINE
5
19B
100
AcDbEntity
8
1
62
256
6
ByLayer
370
25
48
1
60
0
100
AcDbSpline
70
4
71
2
72
6
73
3
40
0
40
0
40
0
40
1
40
1
40
1
41
1
10
87.827064419792
20
-7.21099239854331
30
0
41
1
10
87.8347950404775
20
-7.20225076862097
30
0
41
1
10
87.8419492622211
20
-7.19325607268549
30
0
0
SPLINE
5
19C
100
AcDbEntity
8
1
62
256
6
ByLayer
370
25
48
1
60
0
100
AcDbSpline
70
4
71
2
72
6
73
3
40
0
40
0
40
0
40
1
40
1
40
1
41
1
10
88.8134058915988
20
-7.67418251321184
30
0
41
1
10
88.817930369992
20
-7.66218354241848
30
0
41
1
10
88.8199562711749
20
-7.64963791579762
30
0
0
SPLINE
5
19D
100
AcDbEntity
8
1
62
256
6
ByLayer
370
25
48
1
60
0
100
AcDbSpline
70
4
71
3
72
11
73
7
40
0
40
0
40
0
40
0
40
0.117037863066837
40
0.240476600305123
40
0.493435152195009
40
1
40
1
40
1
40
1
41
1
10
88.8133658064552
20
-7.67417863155176
30
0
41
1
10
88.8093377450751
20
-7.69498528047597
30
0
41
1
10
88.8108701308342
20
-7.733555406891
30
0
41
1
10
88.8722994927017
20
-7.79568790416303
30
0
41
1
10
89.0056666340095
20
-7.85412551657145
30
0
41
1
10
89.1261969697093
20
-7.88432832645752
30
0
41
1
10
89.213045382114
20
-7.8876021146289
30
0
0
SPLINE
5
19E
100
AcDbEntity
8
1
62
256
6
ByLayer
370
25
48
1
60
0
100
AcDbSpline
70
4
71
2
72
6
73
3
40
0
40
0
40
0
40
1
40
1
40
1
41
1
10
89.1926859559421
20
-8.12564830415164
30
0
41
1
10
89.1979260924732
20
-8.01877985058785
30
0
41
1
10
89.2130453821722
20
-7.88760211410108
30
0
0
SPLINE
5
19F
100
AcDbEntity
8
1
62
256
6
ByLayer
370
25
48
1
60
0
100
AcDbSpline
70
4
71
1
72
4
73
2
40
0
40
0
40
1
40
1
41
1
10
88.4568238096453
20
-7.08839340323903
30
0
41
1
10
88.3597664275002
20
-7.0628502296396
30
0
0
SPLINE
5
1A0
100
AcDbEntity
8
1
62
256
6
ByLayer
370
25
48
1
60
0
100
AcDbSpline
70
4
71
2
72
6
73
3
40
0
40
0
40
0
40
1
40
1
40
1
41
1
10
88.7870233984419
20
-7.20995312739932
30
0
41
1
10
88.6119838326396
20
-7.15897566252375
30
0
41
1
10
88.4568262845664
20
-7.08839289703605
30
0
0
SPLINE
5
1A1
100
AcDbEntity
8
1
62
256
6
ByLayer
370
25
48
1
60
0
100
AcDbSpline
70
4
71
3
72
16
73
12
40
0
40
0
40
0
40
0
40
0.0896878427725573
40
0.159694494760657
40
0.285477645946462
40
0.579467351643166
40
0.628233867143361
40
0.649268868142712
40
0.668584170998151
40
0.757396817869032
40
1
40
1
40
1
40
1
41
1
10
88.8251900323192
20
-7.6316230925725
30
0
41
1
10
88.8212382812723
20
-7.6149873969646
30
0
41
1
10
88.8160685897172
20
-7.58505237275982
30
0
41
1
10
88.8050961688558
20
-7.53012821883602
30
0
41
1
10
88.8355824924195
20
-7.43576511978839
30
0
41
1
10
88.9012363474414
20
-7.36875204462635
30
0
41
1
10
88.94901903418
20
-7.31906281148224
30
0
41
1
10
88.9599477303571
20
-7.30417029433821
30
0
41
1
10
88.9528051960801
20
-7.27818959968224
30
0
41
1
10
88.8870409233208
20
-7.24569092043956
30
0
41
1
10
88.8354948579739
20
-7.21728947310658
30
0
41
1
10
88.7870311935591
20
-7.20995437921536
30
0
0
SPLINE
5
1A2
100
AcDbEntity
8
1
62
256
6
ByLayer
370
25
48
1
60
0
100
AcDbSpline
70
4
71
3
72
16
73
12
40
0
40
0
40
0
40
0
40
0.118459405493701
40
0.23693004518262
40
0.355326440026348
40
0.473724766324805
40
0.593338304567606
40
0.712940234176226
40
0.831579620431595
40
0.950204067922083
40
1
40
1
40
1
40
1
41
1
10
103.491597931149
20
-8.48305857054618
30
0
41
1
10
103.485896044021
20
-8.54834822918071
30
0
41
1
10
103.454688220283
20
-8.67418147974062
30
0
41
1
10
103.347584260895
20
-8.85112769384934
30
0
41
1
10
103.182920760537
20
-9.00882247811871
30
0
41
1
10
102.966588670604
20
-9.14477820341845
30
0
41
1
10
102.702120339131
20
-9.25381683011098
30
0
41
1
10
102.398627288739
20
-9.33321470462394
30
0
41
1
10
102.064542069507
20
-9.37890559059395
30
0
41
1
10
101.778540829813
20
-9.38845152787529
30
0
41
1
10
101.607774282601
20
-9.38207928032004
30
0
41
1
10
101.556872703982
20
-9.37917177526893
30
0
0
SPLINE
5
1A3
100
AcDbEntity
8
1
62
256
6
ByLayer
370
25
48
1
60
0
100
AcDbSpline
70
4
71
3
72
16
73
12
40
0
40
0
40
0
40
0
40
0.105088447026571
40
0.210169742745241
40
0.318207382430425
40
0.426234453299019
40
0.532402152941443
40
0.63855925667421
40
0.742523277967328
40
0.84648233817036
40
1
40
1
40
1
40
1
41
1
10
104.005447464732
20
-11.0295137065343
30
0
41
1
10
104.00953866097
20
-11.1481493233592
30
0
41
1
10
103.989908153812
20
-11.3783698038381
30
0
41
1
10
103.875980683687
20
-11.7101863789498
30
0
41
1
10
103.674792512709
20
-12.0138754516911
30
0
41
1
10
103.39346302403
20
-12.2800570716328
30
0
41
1
10
103.03982882256
20
-12.49634524154
30
0
41
1
10
102.630455739994
20
-12.6579893887855
30
0
41
1
10
102.174552151682
20
-12.75987018613
30
0
41
1
10
101.608252332098
20
-12.8090803166042
30
0
41
1
10
101.189642810079
20
-12.781103669642
30
0
41
1
10
100.932445537293
20
-12.7423234606718
30
0
0
SPLINE
5
1A4
100
AcDbEntity
8
1
62
256
6
ByLayer
370
25
48
1
60
0
100
AcDbSpline
70
4
71
3
72
50
73
46
40
0
40
0
40
0
40
0
40
0.174062673811756
40
0.328559541690125
40
0.366012632535921
40
0.398860813261679
40
0.427104135177993
40
0.45074267003116
40
0.481162743686294
40
0.490029327206953
40
0.491609479570489
40
0.493577881233366
40
0.496776262252726
40
0.500042525919078
40
0.500626180948112
40
0.500682199560575
40
0.500726018352384
40
0.500744818698026
40
0.500762638714532
40
0.500780539447568
40
0.500799568445449
40
0.500844169842289
40
0.500901208557019
40
0.501060118698435
40
0.502364774518326
40
0.508320736145465
40
0.513569239946501
40
0.520781528456691
40
0.52995800111195
40
0.541098846100112
40
0.552375466573568
40
0.567060522473251
40
0.585154045010117
40
0.606656050656544
40
0.626235743086941
40
0.649137061452201
40
0.675360008897477
40
0.704904587609152
40
0.737770799213078
40
0.773870996202
40
0.813013060424587
40
0.855196992403842
40
0.900422792651894
40
0.948690461679023
40
1
40
1
40
1
40
1
41
1
10
101.556870889573
20
-9.37917167027606
30
0
41
1
10
101.495164476771
20
-9.70822881095887
30
0
41
1
10
101.378404660134
20
-10.3293073842572
30
0
41
1
10
101.247943706045
20
-11.0211176460699
30
0
41
1
10
101.167447648876
20
-11.4459530807647
30
0
41
1
10
101.131969324033
20
-11.6321558682655
30
0
41
1
10
101.101278608485
20
-11.7922251824664
30
0
41
1
10
101.071189125757
20
-11.9476585035787
30
0
41
1
10
101.047876205929
20
-12.0664516189799
30
0
41
1
10
101.032153630278
20
-12.143490878938
30
0
41
1
10
101.027215157059
20
-12.1668709388195
30
0
41
1
10
101.024530797733
20
-12.1795632587058
30
0
41
1
10
101.020750693564
20
-12.1954334574818
30
0
41
1
10
101.01726406022
20
-12.2083392505965
30
0
41
1
10
101.014543661935
20
-12.2156328141997
30
0
41
1
10
101.013590220787
20
-12.2165765451567
30
0
41
1
10
101.013384868729
20
-12.2166961805021
30
0
41
1
10
101.013229585215
20
-12.2167313563976
30
0
41
1
10
101.013121748064
20
-12.2167299160617
30
0
41
1
10
101.013017817641
20
-12.2167018290524
30
0
41
1
10
101.012878350646
20
-12.2166256011449
30
0
41
1
10
101.012715558025
20
-12.2164547176294
30
0
41
1
10
101.012466804139
20
-12.216020582031
30
0
41
1
10
101.011647075989
20
-12.2132104682544
30
0
41
1
10
101.01162096067
20
-12.1988538973936
30
0
41
1
10
101.012957013617
20
-12.1750048899403
30
0
41
1
10
101.015898381735
20
-12.1397436553738
30
0
41
1
10
101.019656653717
20
-12.0983981899096
30
0
41
1
10
101.024741962739
20
-12.0457914929443
30
0
41
1
10
101.030772157501
20
-11.9854417708616
30
0
41
1
10
101.038065871632
20
-11.9145839587535
30
0
41
1
10
101.046879992869
20
-11.8304617407596
30
0
41
1
10
101.057850491104
20
-11.7268234085101
30
0
41
1
10
101.069895680784
20
-11.6138470998764
30
0
41
1
10
101.082988880952
20
-11.491697749737
30
0
41
1
10
101.097104135258
20
-11.3605405338203
30
0
41
1
10
101.113311897741
20
-11.2103640654252
30
0
41
1
10
101.131612979982
20
-11.0411684136978
30
0
41
1
10
101.151991193957
20
-10.8531210564505
30
0
41
1
10
101.174379483885
20
-10.6467552379157
30
0
41
1
10
101.198711772989
20
-10.4226042847071
30
0
41
1
10
101.224950858104
20
-10.1810351501798
30
0
41
1
10
101.253095937307
20
-9.92204776085516
30
0
41
1
10
101.2831474553
20
-9.64564215189669
30
0
41
1
10
101.303820642825
20
-9.45556596388476
30
0
41
1
10
101.314475199201
20
-9.35762485199119
30
0
0
SPLINE
5
1A5
100
AcDbEntity
8
1
62
256
6
ByLayer
370
25
48
1
60
0
100
AcDbSpline
70
4
71
3
72
24
73
20
40
0
40
0
40
0
40
0
40
0.0119031503547244
40
0.0238401798564496
40
0.0387831112347598
40
0.101338124030231
40
0.152373889864197
40
0.203469367503892
40
0.27518442914357
40
0.472106106166424
40
0.528033405732742
40
0.584012152859765
40
0.589681861334843
40
0.595375330632994
40
0.602245287161877
40
0.614195372691545
40
0.652973130128408
40
0.834604657951997
40
1
40
1
40
1
40
1
41
1
10
100.070137923009
20
-8.81212471436917
30
0
41
1
10
100.069509967068
20
-8.80948279082967
30
0
41
1
10
100.069194016078
20
-8.80429519152835
30
0
41
1
10
100.07191883058
20
-8.79560073235799
30
0
41
1
10
100.085295703748
20
-8.7795114552497
30
0
41
1
10
100.107800896521
20
-8.75936995151126
30
0
41
1
10
100.12271692213
20
-8.7229687919145
30
0
41
1
10
100.12476065155
20
-8.68209858589215
30
0
41
1
10
100.102043581454
20
-8.61013729793614
30
0
41
1
10
100.051493855381
20
-8.55180294711597
30
0
41
1
10
100.009072724306
20
-8.49556986679261
30
0
41
1
10
99.9862104082488
20
-8.47691687297278
30
0
41
1
10
99.9830515533447
20
-8.46134709135006
30
0
41
1
10
99.9839433742679
20
-8.4571239614173
30
0
41
1
10
99.9870059628778
20
-8.4523179423198
30
0
41
1
10
99.997449492828
20
-8.44409727901271
30
0
41
1
10
100.04794694257
20
-8.42669766962843
30
0
41
1
10
100.13537926131
20
-8.41872777882352
30
0
41
1
10
100.212955970581
20
-8.41334611103403
30
0
41
1
10
100.250166855249
20
-8.41335987081706
30
0
0
SPLINE
5
1A6
100
AcDbEntity
8
1
62
256
6
ByLayer
370
25
48
1
60
0
100
AcDbSpline
70
4
71
2
72
6
73
3
40
0
40
0
40
0
40
1
40
1
40
1
41
1
10
99.4485647667242
20
-9.17007792730438
30
0
41
1
10
99.4551634834476
20
-9.07217829046447
30
0
41
1
10
99.4674464191099
20
-8.96410755987228
30
0
0
SPLINE
5
1A7
100
AcDbEntity
8
1
62
256
6
ByLayer
370
25
48
1
60
0
100
AcDbSpline
70
4
71
3
72
12
73
8
40
0
40
0
40
0
40
0
40
0.0572464911012839
40
0.116268749604139
40
0.241300126945338
40
0.494251404639127
40
1
40
1
40
1
40
1
41
1
10
100.072216020393
20
-8.85613099708766
30
0
41
1
10
100.072850424879
20
-8.86960221110734
30
0
41
1
10
100.068456181071
20
-8.89383366806003
30
0
41
1
10
100.025279905498
20
-8.93024690407852
30
0
41
1
10
99.9354728590686
20
-8.9622657120993
30
0
41
1
10
99.7431565835204
20
-8.98314957888054
30
0
41
1
10
99.5788028611856
20
-8.98081517867077
30
0
41
1
10
99.4674464191061
20
-8.96410755990278
30
0
0
SPLINE
5
1A8
100
AcDbEntity
8
1
62
256
6
ByLayer
370
25
48
1
60
0
100
AcDbSpline
70
4
71
2
72
6
73
3
40
0
40
0
40
0
40
1
40
1
40
1
41
1
10
100.072160294513
20
-8.85612482045622
30
0
41
1
10
100.069951570322
20
-8.84352501537798
30
0
41
1
10
100.071330914553
20
-8.83080549708482
30
0
0
SPLINE
5
1A9
100
AcDbEntity
8
1
62
256
6
ByLayer
370
25
48
1
60
0
100
AcDbSpline
70
4
71
3
72
12
73
8
40
0
40
0
40
0
40
0
40
0.022975167508955
40
0.333403425508123
40
0.660652234585565
40
0.895584331772116
40
1
40
1
40
1
40
1
41
1
10
88.3597664275002
20
-7.0628502296396
30
0
41
1
10
88.3555874095507
20
-7.06244362445694
30
0
41
1
10
88.294964604888
20
-7.05716500116703
30
0
41
1
10
88.1728821117206
20
-7.08213069052307
30
0
41
1
10
88.0200853154081
20
-7.11267238622065
30
0
41
1
10
87.9114438881237
20
-7.14380106406246
30
0
41
1
10
87.8663075458796
20
-7.1710884272775
30
0
41
1
10
87.8530844798424
20
-7.18021746361194
30
0
0
SPLINE
5
1AA
100
AcDbEntity
8
1
62
256
6
ByLayer
370
25
48
1
60
0
100
AcDbSpline
70
4
71
3
72
12
73
8
40
0
40
0
40
0
40
0
40
0.0539425631480929
40
0.517903992744454
40
0.824582936323456
40
0.969830558637659
40
1
40
1
40
1
40
1
41
1
10
100.897040001702
20
-8.37901220961173
30
0
41
1
10
100.910056637426
20
-8.38057629402705
30
0
41
1
10
101.034485951108
20
-8.39713062216974
30
0
41
1
10
101.225969484632
20
-8.46681273824845
30
0
41
1
10
101.421809487834
20
-8.54648498558346
30
0
41
1
10
101.51939280016
20
-8.5870809158606
30
0
41
1
10
101.545000308569
20
-8.613334358207
30
0
41
1
10
101.549233869829
20
-8.61803286320785
30
0
0
SPLINE
5
1AB
100
AcDbEntity
8
1
62
256
6
ByLayer
370
25
48
1
60
0
100
AcDbSpline
70
4
71
1
72
4
73
2
40
0
40
0
40
1
40
1
41
1
10
100.751677202699
20
-8.3791114527115
30
0
41
1
10
100.897040001702
20
-8.37901220961173
30
0
0
SPLINE
5
1AC
100
AcDbEntity
8
1
62
256
6
ByLayer
370
25
48
1
60
0
100
AcDbSpline
70
4
71
2
72
6
73
3
40
0
40
0
40
0
40
1
40
1
40
1
41
1
10
101.55687452708
20
-9.37917200334137
30
0
41
1
10
101.435672011623
20
-9.36842776501016
30
0
41
1
10
101.314465571768
20
-9.35762400060404
30
0
0
SPLINE
5
1AD
100
AcDbEntity
8
1
62
256
6
ByLayer
370
25
48
1
60
0
100
AcDbSpline
70
4
71
3
72
10
73
6
40
0
40
0
40
0
40
0
40
0.345208098489304
40
0.691835788748522
40
1
40
1
40
1
40
1
41
1
10
87.514203971787
20
-7.10968071610077
30
0
41
1
10
87.5037389189335
20
-7.09819788473706
30
0
41
1
10
87.487427679587
20
-7.07106699339411
30
0
41
1
10
87.477326657656
20
-7.01664453302863
30
0
41
1
10
87.4791175519768
20
-6.97767048321186
30
0
41
1
10
87.4818179184263
20
-6.95812212466543
30
0
0
SPLINE
5
1AE
100
AcDbEntity
8
1
62
256
6
ByLayer
370
25
48
1
60
0
100
AcDbSpline
70
4
71
1
72
4
73
2
40
0
40
0
40
1
40
1
41
1
10
87.6130151470695
20
-7.21901194553201
30
0
41
1
10
87.631081823601
20
-7.23521087379695
30
0
0
SPLINE
5
1AF
100
AcDbEntity
8
1
62
256
6
ByLayer
370
25
48
1
60
0
100
AcDbSpline
70
4
71
1
72
4
73
2
40
0
40
0
40
1
40
1
41
1
10
87.6948947398653
20
-7.25833212629144
30
0
41
1
10
87.6310818255372
20
-7.23521087519776
30
0
0
SPLINE
5
1B0
100
AcDbEntity
8
1
62
256
6
ByLayer
370
25
48
1
60
0
100
AcDbSpline
70
4
71
2
72
6
73
3
40
0
40
0
40
0
40
1
40
1
40
1
41
1
10
101.739899701521
20
-8.73277327174136
30
0
41
1
10
101.807503606963
20
-8.73996803451798
30
0
41
1
10
101.872967562335
20
-8.71601781300689
30
0
0
SPLINE
5
1B1
100
AcDbEntity
8
1
62
256
6
ByLayer
370
25
48
1
60
0
100
AcDbSpline
70
4
71
2
72
6
73
3
40
0
40
0
40
0
40
1
40
1
40
1
41
1
10
101.573416437933
20
-8.65407356768232
30
0
41
1
10
101.640410819151
20
-8.72713208252377
30
0
41
1
10
101.739899701521
20
-8.73277327174136
30
0
0
SPLINE
5
1B2
100
AcDbEntity
8
1
62
256
6
ByLayer
370
25
48
1
60
0
100
AcDbSpline
70
4
71
2
72
6
73
3
40
0
40
0
40
0
40
1
40
1
40
1
41
1
10
102.048243108082
20
-8.63546189713908
30
0
41
1
10
101.963994150124
20
-8.67784325119392
30
0
41
1
10
101.872973953059
20
-8.71602022369753
30
0
0
SPLINE
5
1B3
100
AcDbEntity
8
1
62
256
6
ByLayer
370
25
48
1
60
0
100
AcDbSpline
70
4
71
3
72
12
73
8
40
0
40
0
40
0
40
0
40
0.263853101906794
40
0.471504858999366
40
0.68001740255128
40
0.870706487159899
40
1
40
1
40
1
40
1
41
1
10
102.048242863687
20
-8.63546181607661
30
0
41
1
10
102.065924550124
20
-8.62716316459781
30
0
41
1
10
102.093542067245
20
-8.60568915868176
30
0
41
1
10
102.124901970435
20
-8.55703182251729
30
0
41
1
10
102.141615470888
20
-8.50112797821382
30
0
41
1
10
102.147080461087
20
-8.44850531309656
30
0
41
1
10
102.147170088522
20
-8.41843348690573
30
0
41
1
10
102.14660801127
20
-8.40634907375775
30
0
0
SPLINE
5
1B4
100
AcDbEntity
8
1
62
256
6
ByLayer
370
25
48
1
60
0
100
AcDbSpline
70
4
71
2
72
6
73
3
40
0
40
0
40
0
40
1
40
1
40
1
41
1
10
102.146600390103
20
-8.40634887280059
30
0
41
1
10
102.146110587246
20
-8.39372938541858
30
0
41
1
10
102.146415487492
20
-8.38109720649723
30
0
0
SPLINE
5
1B5
100
AcDbEntity
8
1
62
256
6
ByLayer
370
25
48
1
60
0
100
AcDbSpline
70
4
71
2
72
6
73
3
40
0
40
0
40
0
40
1
40
1
40
1
41
1
10
102.556242863419
20
-8.08970893819797
30
0
41
1
10
102.552911162042
20
-8.07978711160479
30
0
41
1
10
102.550209495766
20
-8.06977662185979
30
0
0
SPLINE
5
1B6
100
AcDbEntity
8
1
62
256
6
ByLayer
370
25
48
1
60
0
100
AcDbSpline
70
4
71
3
72
10
73
6
40
0
40
0
40
0
40
0
40
0.421166957882853
40
0.839145753417871
40
1
40
1
40
1
40
1
41
1
10
102.556248380472
20
-8.08970870280234
30
0
41
1
10
102.563398237111
20
-8.10782512440717
30
0
41
1
10
102.580234348465
20
-8.1368773540302
30
0
41
1
10
102.609505530884
20
-8.15453797256585
30
0
41
1
10
102.626454071973
20
-8.15827307423365
30
0
41
1
10
102.631283261656
20
-8.15880083222934
30
0
0
SPLINE
5
1B7
100
AcDbEntity
8
1
62
256
6
ByLayer
370
25
48
1
60
0
100
AcDbSpline
70
4
71
3
72
12
73
8
40
0
40
0
40
0
40
0
40
0.213053726172874
40
0.426266412127645
40
0.638662715292426
40
0.868581408789578
40
1
40
1
40
1
40
1
41
1
10
102.751862170183
20
-8.04178013249379
30
0
41
1
10
102.757768067357
20
-8.03202391293602
30
0
41
1
10
102.766867033606
20
-8.00844685395159
30
0
41
1
10
102.771542385783
20
-7.95845533460624
30
0
41
1
10
102.769657391614
20
-7.89980998770763
30
0
41
1
10
102.765048900579
20
-7.84634539817903
30
0
41
1
10
102.762271055915
20
-7.81471357877682
30
0
41
1
10
102.761192521599
20
-7.80331744397883
30
0
0
SPLINE
5
1B8
100
AcDbEntity
8
1
62
256
6
ByLayer
370
25
48
1
60
0
100
AcDbSpline
70
4
71
2
72
6
73
3
40
0
40
0
40
0
40
1
40
1
40
1
41
1
10
102.761184512713
20
-7.80331746934342
30
0
41
1
10
102.760063823016
20
-7.79063789509003
30
0
41
1
10
102.759579510254
20
-7.77791672117623
30
0
0
SPLINE
5
1B9
100
AcDbEntity
8
1
62
256
6
ByLayer
370
25
48
1
60
0
100
AcDbSpline
70
4
71
2
72
6
73
3
40
0
40
0
40
0
40
1
40
1
40
1
41
1
10
102.86529073258
20
-7.45460238578929
30
0
41
1
10
102.863417173992
20
-7.44480819928353
30
0
41
1
10
102.862147776384
20
-7.43497350441246
30
0
0
SPLINE
5
1BA
100
AcDbEntity
8
1
62
256
6
ByLayer
370
25
48
1
60
0
100
AcDbSpline
70
4
71
3
72
10
73
6
40
0
40
0
40
0
40
0
40
0.453824479268257
40
0.906783471099641
40
1
40
1
40
1
40
1
41
1
10
102.865296971702
20
-7.45460238921131
30
0
41
1
10
102.869445589041
20
-7.47310200613449
30
0
41
1
10
102.878489179476
20
-7.50204694908889
30
0
41
1
10
102.892723146317
20
-7.51754303300393
30
0
41
1
10
102.899332726607
20
-7.51937346279541
30
0
41
1
10
102.900460757299
20
-7.51950889196006
30
0
0
SPLINE
5
1BB
100
AcDbEntity
8
1
62
256
6
ByLayer
370
25
48
1
60
0
100
AcDbSpline
70
4
71
3
72
12
73
8
40
0
40
0
40
0
40
0
40
0.212723127156998
40
0.424609556878178
40
0.663904594156992
40
0.930411664865101
40
1
40
1
40
1
40
1
41
1
10
102.909174081697
20
-7.3907418880696
30
0
41
1
10
102.907677551973
20
-7.37918677841635
30
0
41
1
10
102.902796639383
20
-7.35284747759288
30
0
41
1
10
102.887253416287
20
-7.29898560929768
30
0
41
1
10
102.868268711081
20
-7.23468136403369
30
0
41
1
10
102.854865659806
20
-7.18078253780159
30
0
41
1
10
102.849650047185
20
-7.1510739215431
30
0
41
1
10
102.848646017557
20
-7.14494795109009
30
0
0
SPLINE
5
1BC
100
AcDbEntity
8
1
62
256
6
ByLayer
370
25
48
1
60
0
100
AcDbSpline
70
4
71
2
72
6
73
3
40
0
40
0
40
0
40
1
40
1
40
1
41
1
10
102.848639934674
20
-7.14494817587754
30
0
41
1
10
102.846592940812
20
-7.13218794385679
30
0
41
1
10
102.845149436063
20
-7.11934948862096
30
0
0
SPLINE
5
1BD
100
AcDbEntity
8
1
62
256
6
ByLayer
370
25
48
1
60
0
100
AcDbSpline
70
4
71
1
72
4
73
2
40
0
40
0
40
1
40
1
41
1
10
101.573416437956
20
-8.65407356765587
30
0
41
1
10
101.55963051427
20
-8.6333361463403
30
0
0
SPLINE
5
1BE
100
AcDbEntity
8
1
62
256
6
ByLayer
370
25
48
1
60
0
100
AcDbSpline
70
4
71
2
72
6
73
3
40
0
40
0
40
0
40
1
40
1
40
1
41
1
10
103.249389793884
20
-7.08302540727522
30
0
41
1
10
103.391107589896
20
-7.42713064966304
30
0
41
1
10
103.455398823444
20
-7.76931775939718
30
0
0
SPLINE
5
1BF
100
AcDbEntity
8
1
62
256
6
ByLayer
370
25
48
1
60
0
100
AcDbSpline
70
4
71
3
72
10
73
6
40
0
40
0
40
0
40
0
40
0.497018893459546
40
0.748335066284179
40
1
40
1
40
1
40
1
41
1
10
103.17463917238
20
-6.95154352748676
30
0
41
1
10
103.191311282045
20
-6.97302734514364
30
0
41
1
10
103.213222054224
20
-7.00559633689198
30
0
41
1
10
103.234745456428
20
-7.04971460335592
30
0
41
1
10
103.244743923661
20
-7.07190544568618
30
0
41
1
10
103.24938979389
20
-7.08302540727553
30
0
0
SPLINE
5
1C0
100
AcDbEntity
8
1
62
256
6
ByLayer
370
25
48
1
60
0
100
AcDbSpline
70
4
71
3
72
15
73
11
40
0
40
0
40
0
40
0
40
0.112425674262102
40
0.452263857508739
40
0.718663145697972
40
0.789640689460829
40
0.836831225837894
40
0.884057410126252
40
0.931794677633098
40
1
40
1
40
1
40
1
41
1
10
102.146156505153
20
-8.36250531600152
30
0
41
1
10
102.147513326212
20
-8.34560620316913
30
0
41
1
10
102.150118847918
20
-8.27780212513977
30
0
41
1
10
102.131471609341
20
-8.16817534012552
30
0
41
1
10
102.098518533525
20
-8.07137548391581
30
0
41
1
10
102.079227099638
20
-8.01571405492333
30
0
41
1
10
102.077450600126
20
-7.99056549790899
30
0
41
1
10
102.081504442536
20
-7.97104360625558
30
0
41
1
10
102.09122331058
20
-7.95321747384758
30
0
41
1
10
102.10028310935
20
-7.94447066023058
30
0
41
1
10
102.106584237644
20
-7.94068724550277
30
0
0
SPLINE
5
1C1
100
AcDbEntity
8
1
62
256
6
ByLayer
370
25
48
1
60
0
100
AcDbSpline
70
4
71
2
72
6
73
3
40
0
40
0
40
0
40
1
40
1
40
1
41
1
10
102.214624963965
20
-7.86513413834264
30
0
41
1
10
102.163082131308
20
-7.90407102171776
30
0
41
1
10
102.106590670551
20
-7.94068933634077
30
0
0
SPLINE
5
1C2
100
AcDbEntity
8
1
62
256
6
ByLayer
370
25
48
1
60
0
100
AcDbSpline
70
4
71
1
72
4
73
2
40
0
40
0
40
1
40
1
41
1
10
102.258392274323
20
-7.85437588503066
30
0
41
1
10
102.234340169996
20
-7.85577810381348
30
0
0
SPLINE
5
1C3
100
AcDbEntity
8
1
62
256
6
ByLayer
370
25
48
1
60
0
100
AcDbSpline
70
4
71
1
72
4
73
2
40
0
40
0
40
1
40
1
41
1
10
102.234340169996
20
-7.85577810381348
30
0
41
1
10
102.214624448021
20
-7.86513393504153
30
0
0
SPLINE
5
1C4
100
AcDbEntity
8
1
62
256
6
ByLayer
370
25
48
1
60
0
100
AcDbSpline
70
4
71
3
72
12
73
8
40
0
40
0
40
0
40
0
40
0.101517209080134
40
0.532878965280807
40
0.826373802517531
40
0.961935289361818
40
1
40
1
40
1
40
1
41
1
10
102.545644982942
20
-8.05508871203043
30
0
41
1
10
102.540126484887
20
-8.04544206587698
30
0
41
1
10
102.50859955384
20
-7.9963437708426
30
0
41
1
10
102.425089713599
20
-7.94329576754162
30
0
41
1
10
102.33274704581
20
-7.88730604236824
30
0
41
1
10
102.28127013469
20
-7.85813009997886
30
0
41
1
10
102.262501418994
20
-7.85487965552915
30
0
41
1
10
102.258392274323
20
-7.85437588503066
30
0
0
SPLINE
5
1C5
100
AcDbEntity
8
1
62
256
6
ByLayer
370
25
48
1
60
0
100
AcDbSpline
70
4
71
2
72
6
73
3
40
0
40
0
40
0
40
1
40
1
40
1
41
1
10
102.631283261656
20
-8.15880083222933
30
0
41
1
10
102.663500650068
20
-8.16290439889855
30
0
41
1
10
102.687656805145
20
-8.13399795952742
30
0
0
SPLINE
5
1C6
100
AcDbEntity
8
1
62
256
6
ByLayer
370
25
48
1
60
0
100
AcDbSpline
70
4
71
3
72
12
73
8
40
0
40
0
40
0
40
0
40
0.279148494460735
40
0.49932799258059
40
0.750511696084103
40
0.876132109739638
40
1
40
1
40
1
40
1
41
1
10
102.758295230545
20
-7.75921763502385
30
0
41
1
10
102.755174961149
20
-7.71575593860616
30
0
41
1
10
102.742947925685
20
-7.63989896440921
30
0
41
1
10
102.702054735676
20
-7.52950197116236
30
0
41
1
10
102.664025694229
20
-7.44796263639382
30
0
41
1
10
102.634182426173
20
-7.37035161552716
30
0
41
1
10
102.63557725453
20
-7.34179965889395
30
0
41
1
10
102.638992411094
20
-7.32903218649128
30
0
0
SPLINE
5
1C7
100
AcDbEntity
8
1
62
256
6
ByLayer
370
25
48
1
60
0
100
AcDbSpline
70
4
71
2
72
6
73
3
40
0
40
0
40
0
40
1
40
1
40
1
41
1
10
103.916211787081
20
-10.2404222951932
30
0
41
1
10
103.992246440917
20
-10.6376641626041
30
0
41
1
10
104.005447464732
20
-11.0295137065339
30
0
0
SPLINE
5
1C8
100
AcDbEntity
8
1
62
256
6
ByLayer
370
25
48
1
60
0
100
AcDbSpline
70
4
71
2
72
6
73
3
40
0
40
0
40
0
40
1
40
1
40
1
41
1
10
103.455398823444
20
-7.76931775939718
30
0
41
1
10
103.525202672037
20
-8.13072367975376
30
0
41
1
10
103.491597931145
20
-8.48305857054451
30
0
0
SPLINE
5
1C9
100
AcDbEntity
8
1
62
256
6
ByLayer
370
25
48
1
60
0
100
AcDbSpline
70
4
71
2
72
6
73
3
40
0
40
0
40
0
40
1
40
1
40
1
41
1
10
103.916149486865
20
-10.2400835559427
30
0
41
1
10
103.684599547279
20
-9.01093208706951
30
0
41
1
10
103.455844405663
20
-7.77169562848905
30
0
0
SPLINE
5
1CA
100
AcDbEntity
8
1
62
256
6
ByLayer
370
25
48
1
60
0
100
AcDbSpline
70
4
71
3
72
12
73
8
40
0
40
0
40
0
40
0
40
0.0069234687399481
40
0.149640677789401
40
0.434050733820619
40
0.751117098177832
40
1
40
1
40
1
40
1
41
1
10
102.682183912695
20
-7.23131063787616
30
0
41
1
10
102.682574010681
20
-7.23135497256434
30
0
41
1
10
102.691061583156
20
-7.23249314669433
30
0
41
1
10
102.722505587496
20
-7.25685495614174
30
0
41
1
10
102.776702708952
20
-7.30365298506398
30
0
41
1
10
102.832438169052
20
-7.35744276382195
30
0
41
1
10
102.853004454398
20
-7.40060410001147
30
0
41
1
10
102.859730766759
20
-7.42051105091114
30
0
0
SPLINE
5
1CB
100
AcDbEntity
8
1
62
256
6
ByLayer
370
25
48
1
60
0
100
AcDbSpline
70
4
71
1
72
4
73
2
40
0
40
0
40
1
40
1
41
1
10
102.665888300638
20
-7.24495734388918
30
0
41
1
10
102.682183912695
20
-7.23131063787616
30
0
0
SPLINE
5
1CC
100
AcDbEntity
8
1
62
256
6
ByLayer
370
25
48
1
60
0
100
AcDbSpline
70
4
71
1
72
4
73
2
40
0
40
0
40
1
40
1
41
1
10
102.910915873898
20
-7.51232309355123
30
0
41
1
10
102.914433277312
20
-7.49025176096038
30
0
0
SPLINE
5
1CD
100
AcDbEntity
8
1
62
256
6
ByLayer
370
25
48
1
60
0
100
AcDbSpline
70
4
71
3
72
11
73
7
40
0
40
0
40
0
40
0
40
0.347331209802783
40
0.621441984771191
40
0.933859363691632
40
1
40
1
40
1
40
1
41
1
10
102.842476602085
20
-7.10050453228359
30
0
41
1
10
102.832239443838
20
-7.05471969544789
30
0
41
1
10
102.807377479066
20
-6.97545494036442
30
0
41
1
10
102.74746454302
20
-6.86458856398082
30
0
41
1
10
102.701389443044
20
-6.79014425134924
30
0
41
1
10
102.67537338077
20
-6.74632883024144
30
0
41
1
10
102.670818055863
20
-6.73867857689628
30
0
0
SPLINE
5
1CE
100
AcDbEntity
8
1
62
256
6
ByLayer
370
25
48
1
60
0
100
AcDbSpline
70
4
71
3
72
10
73
6
40
0
40
0
40
0
40
0
40
0.157120111160793
40
0.726049534075324
40
1
40
1
40
1
40
1
41
1
10
102.835576109277
20
-7.06752128305847
30
0
41
1
10
102.830990398009
20
-7.04747309429304
30
0
41
1
10
102.807590709447
20
-6.95474989566539
30
0
41
1
10
102.761462859548
20
-6.82658281502477
30
0
41
1
10
102.708622671645
20
-6.71797923965211
30
0
41
1
10
102.68998933224
20
-6.68262592792039
30
0
0
SPLINE
5
1CF
100
AcDbEntity
8
1
62
256
6
ByLayer
370
25
48
1
60
0
100
AcDbSpline
70
4
71
1
72
4
73
2
40
0
40
0
40
1
40
1
41
1
10
102.68998933224
20
-6.68262592792039
30
0
41
1
10
102.679318311285
20
-6.66268936266595
30
0
0
SPLINE
5
1D0
100
AcDbEntity
8
1
62
256
6
ByLayer
370
25
48
1
60
0
100
AcDbSpline
70
4
71
3
72
12
73
8
40
0
40
0
40
0
40
0
40
0.0633880296714155
40
0.286000988160515
40
0.511590094520439
40
0.751639968867302
40
1
40
1
40
1
40
1
41
1
10
95.3996132813896
20
19.5339386711587
30
0
41
1
10
95.3996076326731
20
19.542418292164
30
0
41
1
10
95.3981132910181
20
19.5803318919797
30
0
41
1
10
95.3827691793283
20
19.6478781345016
30
0
41
1
10
95.339344061524
20
19.7260489270689
30
0
41
1
10
95.2758229714989
20
19.7873757209855
30
0
41
1
10
95.2266923415216
20
19.8123958740046
30
0
41
1
10
95.1995951540806
20
19.8209749973914
30
0
0
SPLINE
5
1D1
100
AcDbEntity
8
1
62
256
6
ByLayer
370
25
48
1
60
0
100
AcDbSpline
70
4
71
3
72
13
73
9
40
0
40
0
40
0
40
0
40
0.212275563556791
40
0.386387565009907
40
0.561520404343326
40
0.714816161336364
40
0.917450739141723
40
1
40
1
40
1
40
1
41
1
10
94.7204290444687
20
20.6625009294273
30
0
41
1
10
94.7058681709541
20
20.5936216528288
30
0
41
1
10
94.7004106696065
20
20.4654316117455
30
0
41
1
10
94.7458598979821
20
20.2638017152858
30
0
41
1
10
94.8356865966122
20
20.0914926264155
30
0
41
1
10
94.9654524634002
20
19.9441711649196
30
0
41
1
10
95.0908345068732
20
19.8619285066106
30
0
41
1
10
95.174830839203
20
19.8288392172164
30
0
41
1
10
95.1995951540806
20
19.8209749973914
30
0
0
SPLINE
5
1D2
100
AcDbEntity
8
1
62
256
6
ByLayer
370
25
48
1
60
0
100
AcDbSpline
70
4
71
3
72
11
73
7
40
0
40
0
40
0
40
0
40
0.284186472106433
40
0.569985996508075
40
0.828961317192122
40
1
40
1
40
1
40
1
41
1
10
94.7204290444687
20
20.6625009294273
30
0
41
1
10
94.7272956606893
20
20.695580037006
30
0
41
1
10
94.7288801408745
20
20.7617208767679
30
0
41
1
10
94.6966852366814
20
20.8637301442876
30
0
41
1
10
94.637812611893
20
20.9407623535571
30
0
41
1
10
94.5923616310465
20
20.9747176645374
30
0
41
1
10
94.572411558079
20
20.9866952147176
30
0
0
SPLINE
5
1D3
100
AcDbEntity
8
1
62
256
6
ByLayer
370
25
48
1
60
0
100
AcDbSpline
70
4
71
3
72
11
73
7
40
0
40
0
40
0
40
0
40
0.284186181053562
40
0.569985742254247
40
0.828961092406604
40
1
40
1
40
1
40
1
41
1
10
95.1994951047896
20
19.2577462319424
30
0
41
1
10
95.230849399677
20
19.2658922177211
30
0
41
1
10
95.2875000344522
20
19.2932724679455
30
0
41
1
10
95.3576696871519
20
19.3672643965098
30
0
41
1
10
95.3934233197662
20
19.4545100604081
30
0
41
1
10
95.3994448301004
20
19.5106047316963
30
0
41
1
10
95.3996132813896
20
19.5339386711587
30
0
0
SPLINE
5
1D4
100
AcDbEntity
8
1
62
256
6
ByLayer
370
25
48
1
60
0
100
AcDbSpline
70
4
71
3
72
12
73
8
40
0
40
0
40
0
40
0
40
0.0573009716925513
40
0.280031064926625
40
0.505395285878051
40
0.744943740650586
40
1
40
1
40
1
40
1
41
1
10
94.5718969843577
20
18.089895859649
30
0
41
1
10
94.5784686827123
20
18.0937140476583
30
0
41
1
10
94.6096892780705
20
18.1134487239693
30
0
41
1
10
94.6598733369392
20
18.1604929312306
30
0
41
1
10
94.7062088287555
20
18.2398227634712
30
0
41
1
10
94.7285369890101
20
18.3308332642854
30
0
41
1
10
94.7261193713011
20
18.3905038021592
30
0
41
1
10
94.7200309224326
20
18.4212678293891
30
0
0
SPLINE
5
1D5
100
AcDbEntity
8
1
62
256
6
ByLayer
370
25
48
1
60
0
100
AcDbSpline
70
4
71
1
72
4
73
2
40
0
40
0
40
1
40
1
41
1
10
95.1994951047896
20
19.2577462319424
30
0
41
1
10
95.1764268135606
20
19.2511344587076
30
0
0
SPLINE
5
1D6
100
AcDbEntity
8
1
62
256
6
ByLayer
370
25
48
1
60
0
100
AcDbSpline
70
4
71
2
72
6
73
3
40
0
40
0
40
0
40
1
40
1
40
1
41
1
10
94.3457400351815
20
21.015759560357
30
0
41
1
10
94.2796034406482
20
20.9946245073275
30
0
41
1
10
94.2349244961096
20
20.9457377960592
30
0
0
SPLINE
5
1D7
100
AcDbEntity
8
1
62
256
6
ByLayer
370
25
48
1
60
0
100
AcDbSpline
70
4
71
3
72
11
73
7
40
0
40
0
40
0
40
0
40
0.102111754667636
40
0.460717702624247
40
0.824117929211735
40
1
40
1
40
1
40
1
41
1
10
94.572411558079
20
20.9866952147176
30
0
41
1
10
94.5651307595808
20
20.990987383053
30
0
41
1
10
94.5319140601534
20
21.0088251606839
30
0
41
1
10
94.4671461758038
20
21.0290355838133
30
0
41
1
10
94.3967797288791
20
21.0286051816882
30
0
41
1
10
94.3581169512508
20
21.0196601622049
30
0
41
1
10
94.3457400351815
20
21.015759560357
30
0
0
SPLINE
5
1D8
100
AcDbEntity
8
1
62
256
6
ByLayer
370
25
48
1
60
0
100
AcDbSpline
70
4
71
1
72
4
73
2
40
0
40
0
40
1
40
1
41
1
10
93.8538581032942
20
20.7556336062747
30
0
41
1
10
93.9734750518594
20
20.7808913179021
30
0
0
SPLINE
5
1D9
100
AcDbEntity
8
1
62
256
6
ByLayer
370
25
48
1
60
0
100
AcDbSpline
70
4
71
3
72
10
73
6
40
0
40
0
40
0
40
0
40
0.494848865875545
40
0.898966292198769
40
1
40
1
40
1
40
1
41
1
10
93.266989915893
20
20.9508343159288
30
0
41
1
10
93.3228647580411
20
20.8992289806759
30
0
41
1
10
93.4358399206069
20
20.8237649169327
30
0
41
1
10
93.5914555368679
20
20.7710699054866
30
0
41
1
10
93.6723734104401
20
20.7585384875789
30
0
41
1
10
93.6887599597044
20
20.7565029067281
30
0
0
SPLINE
5
1DA
100
AcDbEntity
8
1
62
256
6
ByLayer
370
25
48
1
60
0
100
AcDbSpline
70
4
71
3
72
11
73
7
40
0
40
0
40
0
40
0
40
0.336746446913418
40
0.675659568224208
40
0.982635328591994
40
1
40
1
40
1
40
1
41
1
10
93.266989915893
20
20.9508343159288
30
0
41
1
10
93.2402718201844
20
20.9753388509404
30
0
41
1
10
93.1811378178849
20
21.0133883709231
30
0
41
1
10
93.0735794674874
20
21.0406712617771
30
0
41
1
10
92.9975647840403
20
21.0325123890492
30
0
41
1
10
92.962650299406
20
21.0220461907928
30
0
41
1
10
92.960783189174
20
21.0214672148318
30
0
0
SPLINE
5
1DB
100
AcDbEntity
8
1
62
256
6
ByLayer
370
25
48
1
60
0
100
AcDbSpline
70
4
71
3
72
13
73
9
40
0
40
0
40
0
40
0
40
0.191588987301956
40
0.370273371124116
40
0.550005401780263
40
0.707326869644393
40
0.915282825284865
40
1
40
1
40
1
40
1
41
1
10
95.1764268135606
20
19.2511344587076
30
0
41
1
10
95.1195481674844
20
19.2342344151385
30
0
41
1
10
95.0162449465506
20
19.1839133204102
30
0
41
1
10
94.8747785627025
20
19.0578534542112
30
0
41
1
10
94.7726106298838
20
18.8947934997535
30
0
41
1
10
94.7107459675515
20
18.7030312579304
30
0
41
1
10
94.7018472566197
20
18.5444806571656
30
0
41
1
10
94.7146495466626
20
18.4486529108617
30
0
41
1
10
94.7200309224329
20
18.4212678293887
30
0
0
SPLINE
5
1DC
100
AcDbEntity
8
1
62
256
6
ByLayer
370
25
48
1
60
0
100
AcDbSpline
70
4
71
1
72
4
73
2
40
0
40
0
40
1
40
1
41
1
10
94.5134192326712
20
18.0641938360377
30
0
41
1
10
94.5718969843577
20
18.089895859649
30
0
0
SPLINE
5
1DD
100
AcDbEntity
8
1
62
256
6
ByLayer
370
25
48
1
60
0
100
AcDbSpline
70
4
71
3
72
11
73
7
40
0
40
0
40
0
40
0
40
0.336746446913411
40
0.675659568224208
40
0.98263532859201
40
1
40
1
40
1
40
1
41
1
10
94.2344266814287
20
18.1432836730178
30
0
41
1
10
94.2565397505881
20
18.1173481034924
30
0
41
1
10
94.3074578470361
20
18.0767454505995
30
0
41
1
10
94.4054267134101
20
18.0464825807031
30
0
41
1
10
94.4777044159303
20
18.0534801683382
30
0
41
1
10
94.5116043087707
20
18.0636310772344
30
0
41
1
10
94.5134192326712
20
18.0641938360377
30
0
0
SPLINE
5
1DE
100
AcDbEntity
8
1
62
256
6
ByLayer
370
25
48
1
60
0
100
AcDbSpline
70
4
71
3
72
11
73
7
40
0
40
0
40
0
40
0
40
0.102111754667684
40
0.460717702624295
40
0.82411792921183
40
1
40
1
40
1
40
1
41
1
10
92.9009166359027
20
18.0986941655693
30
0
41
1
10
92.9081980551064
20
18.0944021901212
30
0
41
1
10
92.9416115308355
20
18.076625561688
30
0
41
1
10
93.0083613876433
20
18.0570310461897
30
0
41
1
10
93.0834188373789
20
18.0589192003722
30
0
41
1
10
93.1257340780294
20
18.0689992405962
30
0
41
1
10
93.1394039055125
20
18.0733016209869
30
0
0
SPLINE
5
1DF
100
AcDbEntity
8
1
62
256
6
ByLayer
370
25
48
1
60
0
100
AcDbSpline
70
4
71
1
72
4
73
2
40
0
40
0
40
1
40
1
41
1
10
93.6883326851221
20
18.351155161896
30
0
41
1
10
93.5626710403798
20
18.3240190313795
30
0
0
SPLINE
5
1E0
100
AcDbEntity
8
1
62
256
6
ByLayer
370
25
48
1
60
0
100
AcDbSpline
70
4
71
3
72
10
73
6
40
0
40
0
40
0
40
0
40
0.494848865875514
40
0.898966292198747
40
1
40
1
40
1
40
1
41
1
10
94.2344266814287
20
18.1432836730178
30
0
41
1
10
94.1887262529724
20
18.1980507570672
30
0
41
1
10
94.0908624002177
20
18.2782107342121
30
0
41
1
10
93.9474251486796
20
18.3346902320348
30
0
41
1
10
93.8693465054607
20
18.3481039546556
30
0
41
1
10
93.8534308287118
20
18.3502858614425
30
0
0
SPLINE
5
1E1
100
AcDbEntity
8
1
62
256
6
ByLayer
370
25
48
1
60
0
100
AcDbSpline
70
4
71
3
72
10
73
6
40
0
40
0
40
0
40
0
40
0.214308446639758
40
0.785537360721261
40
1
40
1
40
1
40
1
41
1
10
93.9734750518594
20
20.7808913179021
30
0
41
1
10
93.9962240765395
20
20.7881357797401
30
0
41
1
10
94.0763716927534
20
20.8181494402582
30
0
41
1
10
94.1644479739168
20
20.8754647861501
30
0
41
1
10
94.2205271185764
20
20.9299778851651
30
0
41
1
10
94.2349244961098
20
20.9457377960594
30
0
0
SPLINE
5
1E2
100
AcDbEntity
8
1
62
256
6
ByLayer
370
25
48
1
60
0
100
AcDbSpline
70
4
71
1
72
4
73
2
40
0
40
0
40
1
40
1
41
1
10
92.960783189174
20
21.0214672148318
30
0
41
1
10
92.901431209624
20
20.9954935206379
30
0
0
SPLINE
5
1E3
100
AcDbEntity
8
1
62
256
6
ByLayer
370
25
48
1
60
0
100
AcDbSpline
70
4
71
3
72
12
73
8
40
0
40
0
40
0
40
0
40
0.0573009716925325
40
0.280031064926627
40
0.505395285878043
40
0.744943740650575
40
1
40
1
40
1
40
1
41
1
10
92.901431209624
20
20.9954935206379
30
0
41
1
10
92.8948599690853
20
20.9916754748972
30
0
41
1
10
92.8638129435661
20
20.9719947362622
30
0
41
1
10
92.81553089736
20
20.9255415887345
30
0
41
1
10
92.7748609310791
20
20.8479723462524
30
0
41
1
10
92.7612076790079
20
20.759657615567
30
0
41
1
10
92.7707789838954
20
20.7022101209576
30
0
41
1
10
92.7809443200929
20
20.6727130063968
30
0
0
SPLINE
5
1E4
100
AcDbEntity
8
1
62
256
6
ByLayer
370
25
48
1
60
0
100
AcDbSpline
70
4
71
1
72
4
73
2
40
0
40
0
40
1
40
1
41
1
10
92.3014801377359
20
19.8362346038435
30
0
41
1
10
92.3279302933167
20
19.8438973079593
30
0
0
SPLINE
5
1E5
100
AcDbEntity
8
1
62
256
6
ByLayer
370
25
48
1
60
0
100
AcDbSpline
70
4
71
3
72
11
73
7
40
0
40
0
40
0
40
0
40
0.284186181053559
40
0.569985742254244
40
0.828961092406586
40
1
40
1
40
1
40
1
41
1
10
92.3014801377359
20
19.8362346038435
30
0
41
1
10
92.2655528719423
20
19.8266675449989
30
0
41
1
10
92.2007598199241
20
19.7967569988086
30
0
41
1
10
92.1211340054413
20
19.7198265217399
30
0
41
1
10
92.0807091632149
20
19.6311292566175
30
0
41
1
10
92.0738992084381
20
19.5747895723641
30
0
41
1
10
92.0737149125921
20
19.5514507091282
30
0
0
SPLINE
5
1E6
100
AcDbEntity
8
1
62
256
6
ByLayer
370
25
48
1
60
0
100
AcDbSpline
70
4
71
3
72
11
73
7
40
0
40
0
40
0
40
0
40
0.284186472106442
40
0.569985996508094
40
0.828961317192161
40
1
40
1
40
1
40
1
41
1
10
92.7805461980568
20
18.4314799063586
30
0
41
1
10
92.7691066059782
20
18.3969797241751
30
0
41
1
10
92.7593797057454
20
18.3283085875759
30
0
41
1
10
92.78211844893
20
18.2233607717925
30
0
41
1
10
92.8363198695314
20
18.1448769629847
30
0
41
1
10
92.880982407423
20
18.1106766395015
30
0
41
1
10
92.9009166359027
20
18.0986941655693
30
0
0
SPLINE
5
1E7
100
AcDbEntity
8
1
62
256
6
ByLayer
370
25
48
1
60
0
100
AcDbSpline
70
4
71
3
72
12
73
8
40
0
40
0
40
0
40
0
40
0.0633880296714017
40
0.286000988160525
40
0.511590094520441
40
0.751639968867305
40
1
40
1
40
1
40
1
41
1
10
92.0737149125921
20
19.5514507091282
30
0
41
1
10
92.0737211820079
20
19.5429712810082
30
0
41
1
10
92.0754115864182
20
19.5051186086523
30
0
41
1
10
92.092747897496
20
19.43819145183
30
0
41
1
10
92.1419202947106
20
19.3618066544373
30
0
41
1
10
92.2141070240136
20
19.3031727502919
30
0
41
1
10
92.2703176335055
20
19.2803527355203
30
0
41
1
10
92.3013800884449
20
19.2730058383945
30
0
0
SPLINE
5
1E8
100
AcDbEntity
8
1
62
256
6
ByLayer
370
25
48
1
60
0
100
AcDbSpline
70
4
71
3
72
13
73
9
40
0
40
0
40
0
40
0
40
0.212275563556792
40
0.38638756500991
40
0.561520404343327
40
0.714816161336363
40
0.917450739141737
40
1
40
1
40
1
40
1
41
1
10
92.7805461980568
20
18.4314799063586
30
0
41
1
10
92.8051818603643
20
18.5034899728293
30
0
41
1
10
92.8256148605362
20
18.6363337233861
30
0
41
1
10
92.7956979584963
20
18.8427903661908
30
0
41
1
10
92.7077930745076
20
19.0156966683565
30
0
41
1
10
92.5675906276867
20
19.1597749115837
30
0
41
1
10
92.4258851370481
20
19.236944978882
30
0
41
1
10
92.3298414715894
20
19.2662905006081
30
0
41
1
10
92.3013800884449
20
19.2730058383945
30
0
0
SPLINE
5
1E9
100
AcDbEntity
8
1
62
256
6
ByLayer
370
25
48
1
60
0
100
AcDbSpline
70
4
71
2
72
6
73
3
40
0
40
0
40
0
40
1
40
1
40
1
41
1
10
93.1394039055125
20
18.0733016209869
30
0
41
1
10
93.212478393482
20
18.0965926583205
30
0
41
1
10
93.2664921012121
20
18.1483801928873
30
0
0
SPLINE
5
1EA
100
AcDbEntity
8
1
62
256
6
ByLayer
370
25
48
1
60
0
100
AcDbSpline
70
4
71
3
72
10
73
6
40
0
40
0
40
0
40
0
40
0.214308446639661
40
0.785537360721122
40
1
40
1
40
1
40
1
41
1
10
93.5626710403798
20
18.3240190313795
30
0
41
1
10
93.5382087464664
20
18.3162421627513
30
0
41
1
10
93.4512137216532
20
18.2841006365345
30
0
41
1
10
93.3507216118445
20
18.2229270111912
30
0
41
1
10
93.2839421863283
20
18.1650887475873
30
0
41
1
10
93.2664921012119
20
18.1483801928872
30
0
0
SPLINE
5
1EB
100
AcDbEntity
8
1
62
256
6
ByLayer
370
25
48
1
60
0
100
AcDbSpline
70
4
71
3
72
13
73
9
40
0
40
0
40
0
40
0
40
0.191588987301969
40
0.370273371124118
40
0.55000540178027
40
0.707326869644396
40
0.915282825284867
40
1
40
1
40
1
40
1
41
1
10
92.3279302933167
20
19.8438973079593
30
0
41
1
10
92.3934122716582
20
19.8634708790908
30
0
41
1
10
92.5105118499111
20
19.9180792593052
30
0
41
1
10
92.6667731286984
20
20.0487367114375
30
0
41
1
10
92.7708704593521
20
20.212396235705
30
0
41
1
10
92.8222966285455
20
20.4009146647524
30
0
41
1
10
92.8148724551947
20
20.5543928494252
30
0
41
1
10
92.790022767877
20
20.6464768081273
30
0
41
1
10
92.7809443200925
20
20.6727130063972
30
0
0
SPLINE
5
1EC
100
AcDbEntity
8
1
62
256
6
ByLayer
370
25
48
1
60
0
100
AcDbSpline
70
4
71
1
72
4
73
2
40
0
40
0
40
1
40
1
41
1
10
103.777929897891
20
19.7480568871289
30
0
41
1
10
103.141502588965
20
20.0595130140768
30
0
0
SPLINE
5
1ED
100
AcDbEntity
8
1
62
256
6
ByLayer
370
25
48
1
60
0
100
AcDbSpline
70
4
71
3
72
12
73
8
40
0
40
0
40
0
40
0
40
0.457102257519232
40
0.632905789324847
40
0.769711591295198
40
0.906559047551919
40
1
40
1
40
1
40
1
41
1
10
103.141503157634
20
20.0595144884956
30
0
41
1
10
103.095504720334
20
20.0741654072166
30
0
41
1
10
103.043875813799
20
20.106765854009
30
0
41
1
10
102.993512304527
20
20.1652912403004
30
0
41
1
10
102.978146986889
20
20.2073764617634
30
0
41
1
10
102.978372683667
20
20.2434739435222
30
0
41
1
10
102.983405792546
20
20.2647520468617
30
0
41
1
10
102.986367040867
20
20.2733004779973
30
0
0
SPLINE
5
1EE
100
AcDbEntity
8
1
62
256
6
ByLayer
370
25
48
1
60
0
100
AcDbSpline
70
4
71
3
72
20
73
16
40
0
40
0
40
0
40
0
40
0.0611243976463131
40
0.124886491868956
40
0.185969251881782
40
0.249875018560566
40
0.31175095628489
40
0.374933120445343
40
0.437799180461011
40
0.50000579250706
40
0.624824560774323
40
0.685592766158942
40
0.749926446397677
40
0.87494975909549
40
1
40
1
40
1
40
1
41
1
10
102.986365647453
20
20.2733009804286
30
0
41
1
10
103.024781164749
20
20.3937026847651
30
0
41
1
10
103.079091178528
20
20.6426440515096
30
0
41
1
10
103.081463249417
20
21.0292204024808
30
0
41
1
10
103.019045586921
20
21.4169003821829
30
0
41
1
10
102.90013250525
20
21.7894469672022
30
0
41
1
10
102.733567468921
20
22.1492402268447
30
0
41
1
10
102.526960732684
20
22.4863837024364
30
0
41
1
10
102.284117353964
20
22.8002599107986
30
0
41
1
10
101.916615359117
20
23.1781939365797
30
0
41
1
10
101.488931612498
20
23.4863275612409
30
0
41
1
10
101.019803689047
20
23.7224695928161
30
0
41
1
10
100.53226766508
20
23.916086592666
30
0
41
1
10
99.896486910941
20
24.0895514258358
30
0
41
1
10
99.3837084146123
20
24.1721568392017
30
0
41
1
10
99.1241004481137
20
24.1981135628476
30
0
0
SPLINE
5
1EF
100
AcDbEntity
8
1
62
256
6
ByLayer
370
25
48
1
60
0
100
AcDbSpline
70
4
71
3
72
10
73
6
40
0
40
0
40
0
40
0
40
0.230950333434741
40
0.612410561907508
40
1
40
1
40
1
40
1
41
1
10
92.9209479617095
20
24.4107777938051
30
0
41
1
10
92.9314694308188
20
24.4064569559921
30
0
41
1
10
92.9596761212025
20
24.3964568431051
30
0
41
1
10
93.0079462179246
20
24.3883082214742
30
0
41
1
10
93.0449832982442
20
24.3852369469027
30
0
41
1
10
93.0638148688853
20
24.3848969375306
30
0
0
SPLINE
5
1F0
100
AcDbEntity
8
1
62
256
6
ByLayer
370
25
48
1
60
0
100
AcDbSpline
70
4
71
1
72
4
73
2
40
0
40
0
40
1
40
1
41
1
10
91.6281672052721
20
24.9736543968554
30
0
41
1
10
92.9209414507029
20
24.4107774701099
30
0
0
SPLINE
5
1F1
100
AcDbEntity
8
1
62
256
6
ByLayer
370
25
48
1
60
0
100
AcDbSpline
70
4
71
2
72
6
73
3
40
0
40
0
40
0
40
1
40
1
40
1
41
1
10
100.932445522668
20
24.9487247307669
30
0
41
1
10
96.2770491803245
20
25.0486530276678
30
0
41
1
10
91.6281709447961
20
24.9736541052981
30
0
0
SPLINE
5
1F2
100
AcDbEntity
8
1
62
256
6
ByLayer
370
25
48
1
60
0
100
AcDbSpline
70
4
71
3
72
16
73
12
40
0
40
0
40
0
40
0
40
0.105088447026572
40
0.210169742745241
40
0.318207382430425
40
0.426234453299018
40
0.532402152941443
40
0.63855925667421
40
0.742523277967328
40
0.84648233817036
40
1
40
1
40
1
40
1
41
1
10
104.005447464732
20
21.6808188617351
30
0
41
1
10
104.00953866097
20
21.8540232952684
30
0
41
1
10
103.989908153812
20
22.1968919646086
30
0
41
1
10
103.875980683687
20
22.7120458208728
30
0
41
1
10
103.674792512709
20
23.2072727794906
30
0
41
1
10
103.39346302403
20
23.6670551382827
30
0
41
1
10
103.039828822559
20
24.0712853667075
30
0
41
1
10
102.630455739994
20
24.4089295512507
30
0
41
1
10
102.174552151682
20
24.6702146294156
30
0
41
1
10
101.608252332098
20
24.8812006423723
30
0
41
1
10
101.189642810079
20
24.9426649171033
30
0
41
1
10
100.932445537293
20
24.9487243135345
30
0
0
SPLINE
5
1F3
100
AcDbEntity
8
1
62
256
6
ByLayer
370
25
48
1
60
0
100
AcDbSpline
70
4
71
3
72
10
73
6
40
0
40
0
40
0
40
0
40
0.358607685041845
40
0.678728527759996
40
1
40
1
40
1
40
1
41
1
10
103.777958265864
20
19.7481165294771
30
0
41
1
10
103.826582040059
20
19.975494257731
30
0
41
1
10
103.904072830047
20
20.4083380191903
30
0
41
1
10
103.978389796515
20
21.0543419691638
30
0
41
1
10
104.000600415724
20
21.4711854881155
30
0
41
1
10
104.005447464732
20
21.680818861735
30
0
0
SPLINE
5
1F4
100
AcDbEntity
8
1
62
256
6
ByLayer
370
25
48
1
60
0
100
AcDbSpline
70
4
71
3
72
18
73
14
40
0
40
0
40
0
40
0
40
0.0146406175501577
40
0.0214316346382874
40
0.0214381396089662
40
0.0214449700249197
40
0.0214647579782459
40
0.0214840158177206
40
0.0220656215784785
40
0.0267185826471639
40
0.101192630755291
40
0.399642268722677
40
1
40
1
40
1
40
1
41
1
10
102.082196759686
20
20.2606637135428
30
0
41
1
10
102.086814130689
20
20.2600767850982
30
0
41
1
10
102.093569424425
20
20.2592098236389
30
0
41
1
10
102.100321191685
20
20.2583312860757
30
0
41
1
10
102.102463589843
20
20.2580512662238
30
0
41
1
10
102.102474018977
20
20.2580499037096
30
0
41
1
10
102.102488463374
20
20.258048007255
30
0
41
1
10
102.102683877686
20
20.258022298588
30
0
41
1
10
102.10433806044
20
20.2578049949468
30
0
41
1
10
102.129434076094
20
20.2545351863183
30
0
41
1
10
102.248232713769
20
20.2409465407404
30
0
41
1
10
102.55334155642
20
20.2296846649961
30
0
41
1
10
102.816796758479
20
20.2467821074045
30
0
41
1
10
102.986362666124
20
20.2732953032589
30
0
0
SPLINE
5
1F5
100
AcDbEntity
8
1
62
256
6
ByLayer
370
25
48
1
60
0
100
AcDbSpline
70
4
71
3
72
15
73
11
40
0
40
0
40
0
40
0
40
0.12499446915017
40
0.250006096857978
40
0.374996576056434
40
0.499984072444544
40
0.624981869331196
40
0.7499824308838
40
0.874965937009906
40
1
40
1
40
1
40
1
41
1
10
102.081091580507
20
20.2606259754184
30
0
41
1
10
102.071783492375
20
20.4461841832866
30
0
41
1
10
102.020427604603
20
20.808563890195
30
0
41
1
10
101.841446326338
20
21.3337605135805
30
0
41
1
10
101.571714806001
20
21.8167969522434
30
0
41
1
10
101.212658073518
20
22.2380584233353
30
0
41
1
10
100.778956869438
20
22.5800626506485
30
0
41
1
10
100.290341002625
20
22.8347681384269
30
0
41
1
10
99.7611010308427
20
22.9905798148369
30
0
41
1
10
99.3996623172355
20
23.0266851364853
30
0
41
1
10
99.2152164562047
20
23.027943075108
30
0
0
SPLINE
5
1F6
100
AcDbEntity
8
1
62
256
6
ByLayer
370
25
48
1
60
0
100
AcDbSpline
70
4
71
3
72
11
73
7
40
0
40
0
40
0
40
0
40
0.249993332868947
40
0.49999674390408
40
0.750000003301492
40
1
40
1
40
1
40
1
41
1
10
99.1241001809756
20
24.1981135814826
30
0
41
1
10
99.1364879167045
20
24.1286560738633
30
0
41
1
10
99.1589891855351
20
23.9741899567234
30
0
41
1
10
99.1864909715607
20
23.6907769167939
30
0
41
1
10
99.20602060603
20
23.3708463649129
30
0
41
1
10
99.2131024424695
20
23.1457663618828
30
0
41
1
10
99.2152108015449
20
23.029232970969
30
0
0
SPLINE
5
1F7
100
AcDbEntity
8
1
62
256
6
ByLayer
370
25
48
1
60
0
100
AcDbSpline
70
4
71
3
72
10
73
6
40
0
40
0
40
0
40
0
40
0.364121501396817
40
0.738906366009247
40
1
40
1
40
1
40
1
41
1
10
103.065062662529
20
17.9327329568387
30
0
41
1
10
103.101613900943
20
18.0163413103208
30
0
41
1
10
103.179419061976
20
18.1871996495909
30
0
41
1
10
103.29669007142
20
18.425695879195
30
0
41
1
10
103.374563519649
20
18.5748410341648
30
0
41
1
10
103.407298623383
20
18.6360628395678
30
0
0
SPLINE
5
1F8
100
AcDbEntity
8
1
62
256
6
ByLayer
370
25
48
1
60
0
100
AcDbSpline
70
4
71
2
72
6
73
3
40
0
40
0
40
0
40
1
40
1
40
1
41
1
10
103.065068398294
20
17.9327306842776
30
0
41
1
10
102.832444452008
20
18.0640710764715
30
0
41
1
10
102.620558272229
20
18.2293536982406
30
0
0
SPLINE
5
1F9
100
AcDbEntity
8
1
62
256
6
ByLayer
370
25
48
1
60
0
100
AcDbSpline
70
4
71
3
72
10
73
6
40
0
40
0
40
0
40
0
40
0.261497126224434
40
0.517168901950931
40
1
40
1
40
1
40
1
41
1
10
102.620432103161
20
18.2294746438317
30
0
41
1
10
102.578175063123
20
18.2619762448794
30
0
41
1
10
102.489647516264
20
18.3156430287864
30
0
41
1
10
102.291198223754
20
18.3713163601518
30
0
41
1
10
102.142417764136
20
18.3856619321163
30
0
41
1
10
102.041277481874
20
18.3809654791483
30
0
0
SPLINE
5
1FA
100
AcDbEntity
8
1
62
256
6
ByLayer
370
25
48
1
60
0
100
AcDbSpline
70
4
71
3
72
18
73
14
40
0
40
0
40
0
40
0
40
0.508029648920804
40
0.943972226258529
40
0.944707724704227
40
0.944891506904102
40
0.944983494890594
40
0.945017184366427
40
0.945037862352387
40
0.94503948419034
40
0.945041767244495
40
0.972881767378979
40
1
40
1
40
1
40
1
41
1
10
102.041277481874
20
18.3809654791483
30
0
41
1
10
101.952065162106
20
18.3752994296957
30
0
41
1
10
101.789799917762
20
18.3840915593193
30
0
41
1
10
101.621477143816
20
18.398440508039
30
0
41
1
10
101.550794654933
20
18.4268323339349
30
0
41
1
10
101.550631109882
20
18.4268982206289
30
0
41
1
10
101.550581051268
20
18.4269183552933
30
0
41
1
10
101.550560156898
20
18.4269268112886
30
0
41
1
10
101.550550868859
20
18.4269305195169
30
0
41
1
10
101.550541576455
20
18.4269342169666
30
0
41
1
10
101.546031970571
20
18.42872538735
30
0
41
1
10
101.537201980944
20
18.4324560473311
30
0
41
1
10
101.528568352561
20
18.4365758204413
30
0
41
1
10
101.524352330414
20
18.4387027409002
30
0
0
SPLINE
5
1FB
100
AcDbEntity
8
1
62
256
6
ByLayer
370
25
48
1
60
0
100
AcDbSpline
70
4
71
3
72
26
73
22
40
0
40
0
40
0
40
0
40
0.132796777562808
40
0.26774904351646
40
0.334640459326534
40
0.401061589263368
40
0.467267105009316
40
0.533349977632154
40
0.599703760673262
40
0.666432710931422
40
0.801038608471921
40
0.937824449408209
40
0.972372417500369
40
0.989708110208737
40
0.998396667930037
40
0.999483855206788
40
0.999755692523017
40
0.999891617298097
40
0.999959581218599
40
0.999993580592825
40
1
40
1
40
1
40
1
41
1
10
101.514719804302
20
18.4440772541495
30
0
41
1
10
101.403624007058
20
18.5010377304275
30
0
41
1
10
101.208314935873
20
18.6418595212765
30
0
41
1
10
101.016471297915
20
18.8899185768798
30
0
41
1
10
100.930377213944
20
19.1204238981218
30
0
41
1
10
100.904759338487
20
19.3020341905132
30
0
41
1
10
100.92233954996
20
19.4838320687379
30
0
41
1
10
100.984213595234
20
19.655397772197
30
0
41
1
10
101.086450859651
20
19.8064716977811
30
0
41
1
10
101.26647984056
20
19.971708160344
30
0
41
1
10
101.554123614532
20
20.0988117144276
30
0
41
1
10
101.835121634389
20
20.1171843154221
30
0
41
1
10
102.004851720664
20
20.0977980038979
30
0
41
1
10
102.058950863611
20
20.0886902881035
30
0
41
1
10
102.083046679091
20
20.0839845177918
30
0
41
1
10
102.091959433655
20
20.0821539522985
30
0
41
1
10
102.093285172759
20
20.0818798009277
30
0
41
1
10
102.093707018434
20
20.0817923888928
30
0
41
1
10
102.093917953902
20
20.0817486361544
30
0
41
1
10
102.094014056138
20
20.0817286918351
30
0
41
1
10
102.094047843834
20
20.081721678736
30
0
41
1
10
102.09405763615
20
20.0817196463593
30
0
0
SPLINE
5
1FC
100
AcDbEntity
8
1
62
256
6
ByLayer
370
25
48
1
60
0
100
AcDbSpline
70
4
71
3
72
11
73
7
40
0
40
0
40
0
40
0
40
0.0001688317996312
40
0.0003329287302736
40
0.0926814011788468
40
1
40
1
40
1
40
1
41
1
10
102.094050931888
20
20.0817210520168
30
0
41
1
10
102.094060716482
20
20.0817189827829
30
0
41
1
10
102.094070492345
20
20.0817168726911
30
0
41
1
10
102.095958557046
20
20.08130142205
30
0
41
1
10
102.116374535449
20
20.0767997072774
30
0
41
1
10
102.136758766763
20
20.0721713114953
30
0
41
1
10
102.155236787297
20
20.0678677162045
30
0
0
SPLINE
5
1FD
100
AcDbEntity
8
1
62
256
6
ByLayer
370
25
48
1
60
0
100
AcDbSpline
70
4
71
2
72
6
73
3
40
0
40
0
40
0
40
1
40
1
40
1
41
1
10
102.155235607484
20
20.0678518087867
30
0
41
1
10
102.347023745612
20
20.044567260714
30
0
41
1
10
102.534495844275
20
20.0403261295419
30
0
0
SPLINE
5
1FE
100
AcDbEntity
8
1
62
256
6
ByLayer
370
25
48
1
60
0
100
AcDbSpline
70
4
71
2
72
6
73
3
40
0
40
0
40
0
40
1
40
1
40
1
41
1
10
102.534495841647
20
20.0403261441699
30
0
41
1
10
102.852526800007
20
20.0348513083807
30
0
41
1
10
103.141493045581
20
20.0595158102919
30
0
0
SPLINE
5
1FF
100
AcDbEntity
8
1
62
256
6
ByLayer
370
25
48
1
60
0
100
AcDbSpline
70
4
71
3
72
10
73
6
40
0
40
0
40
0
40
0
40
0.25059118715485
40
0.500059856560437
40
1
40
1
40
1
40
1
41
1
10
103.407298932609
20
18.6360633978677
30
0
41
1
10
103.421635258854
20
18.6639224739892
30
0
41
1
10
103.448793097438
20
18.7199683830936
30
0
41
1
10
103.497235994644
20
18.8342563199202
30
0
41
1
10
103.527212964179
20
18.921024331858
30
0
41
1
10
103.544366311577
20
18.9795580239235
30
0
0
SPLINE
5
200
100
AcDbEntity
8
1
62
256
6
ByLayer
370
25
48
1
60
0
100
AcDbSpline
70
4
71
2
72
6
73
3
40
0
40
0
40
0
40
1
40
1
40
1
41
1
10
103.544366311577
20
18.9795580239235
30
0
41
1
10
103.671218114814
20
19.4212363448046
30
0
41
1
10
103.777961160821
20
19.7480979974279
30
0
0
SPLINE
5
201
100
AcDbEntity
8
1
62
256
6
ByLayer
370
25
48
1
60
0
100
AcDbSpline
70
4
71
3
72
31
73
27
40
0
40
0
40
0
40
0
40
0.0312319321279725
40
0.0624366128453777
40
0.0930303652256878
40
0.124925100310725
40
0.15553558107205
40
0.187539086095973
40
0.218166531107022
40
0.250040239121111
40
0.312475989154059
40
0.374954659181113
40
0.437445057604305
40
0.499937615380918
40
0.562440803694699
40
0.624933723612467
40
0.687481425224815
40
0.750005321062912
40
0.781863458905328
40
0.812511511631337
40
0.8444575755171
40
0.874942721950229
40
0.906195114052864
40
0.937479571021541
40
0.969026511961465
40
1
40
1
40
1
40
1
41
1
10
88.9514595785311
20
21.5562500616875
30
0
41
1
10
88.8984390663673
20
21.411702792029
30
0
41
1
10
88.8195304474346
20
21.1186318127699
30
0
41
1
10
88.7850474513584
20
20.662602783601
30
0
41
1
10
88.825938998058
20
20.2053719087231
30
0
41
1
10
88.9343019665181
20
19.762006000084
30
0
41
1
10
89.100836346587
20
19.3303494534377
30
0
41
1
10
89.3122425571993
20
18.9260319419277
30
0
41
1
10
89.5655934931976
20
18.539738118432
30
0
41
1
10
89.9441426873678
20
18.0610858542292
30
0
41
1
10
90.4878055001788
20
17.5195458129487
30
0
41
1
10
91.2163295078427
20
16.9660346373269
30
0
41
1
10
92.0045847761602
20
16.5033712844036
30
0
41
1
10
92.8385312017275
20
16.1316853162685
30
0
41
1
10
93.7071919614708
20
15.8533629503347
30
0
41
1
10
94.6011284896584
20
15.6734837263956
30
0
41
1
10
95.5098185903224
20
15.6026688026285
30
0
41
1
10
96.2717288803767
20
15.6456457618386
30
0
41
1
10
96.8683422488153
20
15.7523992646404
30
0
41
1
10
97.3100175889831
20
15.8733222440523
30
0
41
1
10
97.7314632676409
20
16.0354495395029
30
0
41
1
10
98.1342311637248
20
16.2465764553282
30
0
41
1
10
98.5041056272435
20
16.5068121513173
30
0
41
1
10
98.8354480003013
20
16.8229275679489
30
0
41
1
10
99.1082747625623
20
17.1922240393976
30
0
41
1
10
99.2396797094652
20
17.4656974387421
30
0
41
1
10
99.2934121310601
20
17.6085938744862
30
0
0
SPLINE
5
202
100
AcDbEntity
8
1
62
256
6
ByLayer
370
25
48
1
60
0
100
AcDbSpline
70
4
71
3
72
30
73
26
40
0
40
0
40
0
40
0
40
0.0309420495260173
40
0.0624617548683693
40
0.0930262400908239
40
0.12494489309648
40
0.165935325570224
40
0.207713816138057
40
0.24985921953182
40
0.312351870186686
40
0.374864510525233
40
0.437358677471761
40
0.4998695861628
40
0.56237572889239
40
0.624873736957113
40
0.687343086829744
40
0.749762932339615
40
0.781682431766506
40
0.8122931997174
40
0.844369457732456
40
0.874984452941195
40
0.906929687973191
40
0.937514123446397
40
0.969155584587232
40
1
40
1
40
1
40
1
41
1
10
99.2923326367214
20
17.6090185497367
30
0
41
1
10
99.3407454933387
20
17.7527013654782
30
0
41
1
10
99.412090889831
20
18.0461146133687
30
0
41
1
10
99.43630924724
20
18.5001740933643
30
0
41
1
10
99.3865155584265
20
18.955323911764
30
0
41
1
10
99.2596586211524
20
19.4433023101719
30
0
41
1
10
99.04186661486
20
19.9583056866801
30
0
41
1
10
98.7292599873204
20
20.4798700821987
30
0
41
1
10
98.2929212588897
20
21.0421681090085
30
0
41
1
10
97.7154588772813
20
21.6146460732355
30
0
41
1
10
96.9912969913004
20
22.165906973485
30
0
41
1
10
96.2078916751107
20
22.6269662772272
30
0
41
1
10
95.3795671378236
20
22.9986107566859
30
0
41
1
10
94.5165808203376
20
23.2779504863669
30
0
41
1
10
93.6286857336491
20
23.4594447096959
30
0
41
1
10
92.7263722808533
20
23.5337805392892
30
0
41
1
10
91.9692720865058
20
23.4937860793169
30
0
41
1
10
91.3759988302703
20
23.390399861093
30
0
41
1
10
90.9355747078056
20
23.2720957346173
30
0
41
1
10
90.5147939725196
20
23.1124496865467
30
0
41
1
10
90.1093541724484
20
22.9022675719811
30
0
41
1
10
89.7398427481521
20
22.6447818167419
30
0
41
1
10
89.4099523794419
20
22.3305386469556
30
0
41
1
10
89.1380674196514
20
21.9683913309575
30
0
41
1
10
89.0057301433583
20
21.6974730771042
30
0
41
1
10
88.9515160979143
20
21.556400316948
30
0
0
SPLINE
5
203
100
AcDbEntity
8
1
62
256
6
ByLayer
370
25
48
1
60
0
100
AcDbSpline
70
4
71
3
72
12
73
8
40
0
40
0
40
0
40
0
40
0.132637544788691
40
0.264348896666534
40
0.45544401429485
40
0.776938143159315
40
1
40
1
40
1
40
1
41
1
10
87.3089353455271
20
17.2776459877926
30
0
41
1
10
87.3341087305786
20
17.2777530499212
30
0
41
1
10
87.3816532219922
20
17.2849929270715
30
0
41
1
10
87.4569395395003
20
17.3247006269964
30
0
41
1
10
87.5395741917355
20
17.4117812685717
30
0
41
1
10
87.5953518236775
20
17.5377023368848
30
0
41
1
10
87.6233194832499
20
17.6332766055611
30
0
41
1
10
87.6314808305564
20
17.6739729069294
30
0
0
SPLINE
5
204
100
AcDbEntity
8
1
62
256
6
ByLayer
370
25
48
1
60
0
100
AcDbSpline
70
4
71
3
72
12
73
8
40
0
40
0
40
0
40
0
40
0.444883731379368
40
0.624184670565724
40
0.804934674593599
40
0.937047312582531
40
1
40
1
40
1
40
1
41
1
10
87.6314948354463
20
17.6741032808994
30
0
41
1
10
87.7156881644824
20
17.6863001532007
30
0
41
1
10
87.8219812635856
20
17.7248016504958
30
0
41
1
10
87.9465811489928
20
17.8063360472984
30
0
41
1
10
88.0042437599358
20
17.8782061646093
30
0
41
1
10
88.0278086441737
20
17.9448081789251
30
0
41
1
10
88.0304746514027
20
17.980544152843
30
0
41
1
10
88.0304625306951
20
17.9923090602518
30
0
0
SPLINE
5
205
100
AcDbEntity
8
1
62
256
6
ByLayer
370
25
48
1
60
0
100
AcDbSpline
70
4
71
3
72
12
73
8
40
0
40
0
40
0
40
0
40
0.132674221184182
40
0.264421396076548
40
0.455550302253267
40
0.777172165009398
40
1
40
1
40
1
40
1
41
1
10
88.030462637425
20
17.9923157502437
30
0
41
1
10
88.030228669957
20
18.0176817381571
30
0
41
1
10
88.022797517684
20
18.0656241630562
30
0
41
1
10
87.9829816428524
20
18.1416763281879
30
0
41
1
10
87.8960827260614
20
18.2253669921577
30
0
41
1
10
87.7708092526557
20
18.2821667039859
30
0
41
1
10
87.6758114299265
20
18.3108111038349
30
0
41
1
10
87.6354163200287
20
18.319230946354
30
0
0
SPLINE
5
206
100
AcDbEntity
8
1
62
256
6
ByLayer
370
25
48
1
60
0
100
AcDbSpline
70
4
71
3
72
12
73
8
40
0
40
0
40
0
40
0
40
0.444602957711094
40
0.623955173048361
40
0.804757542659832
40
0.936891439164504
40
1
40
1
40
1
40
1
41
1
10
87.6352799326258
20
18.3192528126483
30
0
41
1
10
87.6227495015833
20
18.4040674033183
30
0
41
1
10
87.5840184239566
20
18.5113059149279
30
0
41
1
10
87.502509889969
20
18.6372353136335
30
0
41
1
10
87.4308786180813
20
18.6957305650728
30
0
41
1
10
87.3646114993771
20
18.719845709529
30
0
41
1
10
87.3290911998519
20
18.7227211492522
30
0
41
1
10
87.3173826995483
20
18.7227686450264
30
0
0
SPLINE
5
207
100
AcDbEntity
8
1
62
256
6
ByLayer
370
25
48
1
60
0
100
AcDbSpline
70
4
71
3
72
12
73
8
40
0
40
0
40
0
40
0
40
0.132653675601824
40
0.264380545624111
40
0.455482256528474
40
0.777071681368229
40
1
40
1
40
1
40
1
41
1
10
87.3173759603969
20
18.7227692343346
30
0
41
1
10
87.2921955574464
20
18.7226608785401
30
0
41
1
10
87.2446393361217
20
18.7154153717727
30
0
41
1
10
87.1693415834548
20
18.6756861951814
30
0
41
1
10
87.0866979611359
20
18.5885608838597
30
0
41
1
10
87.0309347887422
20
18.4626185703386
30
0
41
1
10
87.0029750290199
20
18.3670339259862
30
0
41
1
10
86.9948189287036
20
18.3263564761781
30
0
0
SPLINE
5
208
100
AcDbEntity
8
1
62
256
6
ByLayer
370
25
48
1
60
0
100
AcDbSpline
70
4
71
3
72
12
73
8
40
0
40
0
40
0
40
0
40
0.444885375473506
40
0.624191903459102
40
0.804947411300827
40
0.937069626015153
40
1
40
1
40
1
40
1
41
1
10
86.9947831889159
20
18.3263211064455
30
0
41
1
10
86.9105939146556
20
18.3141245605012
30
0
41
1
10
86.8043063534105
20
18.2756233810417
30
0
41
1
10
86.6797141419782
20
18.1940879072756
30
0
41
1
10
86.6220561327844
20
18.1222158023468
30
0
41
1
10
86.5984961284276
20
18.0556178089769
30
0
41
1
10
86.5958309600204
20
18.0198861254872
30
0
41
1
10
86.5958428828805
20
18.0081261553937
30
0
0
SPLINE
5
209
100
AcDbEntity
8
1
62
256
6
ByLayer
370
25
48
1
60
0
100
AcDbSpline
70
4
71
3
72
12
73
8
40
0
40
0
40
0
40
0
40
0.13266194245402
40
0.264396954018941
40
0.455501419698451
40
0.77705938191509
40
1
40
1
40
1
40
1
41
1
10
86.5958427386989
20
18.0081201552422
30
0
41
1
10
86.5960758973748
20
17.9827533320306
30
0
41
1
10
86.6035057446143
20
17.9348090811867
30
0
41
1
10
86.6433196946137
20
17.858754151916
30
0
41
1
10
86.730212880611
20
17.7750626208719
30
0
41
1
10
86.8555047817116
20
17.7182504592569
30
0
41
1
10
86.9505230387831
20
17.6896011969193
30
0
41
1
10
86.9909446318559
20
17.6811786782634
30
0
0
SPLINE
5
20A
100
AcDbEntity
8
1
62
256
6
ByLayer
370
25
48
1
60
0
100
AcDbSpline
70
4
71
3
72
12
73
8
40
0
40
0
40
0
40
0
40
0.444893739014729
40
0.624205161278184
40
0.804965403856628
40
0.93709760138789
40
1
40
1
40
1
40
1
41
1
10
86.9910475125295
20
17.6810732830028
30
0
41
1
10
87.0035828925544
20
17.5962080802179
30
0
41
1
10
87.0423432445511
20
17.4889533829884
30
0
41
1
10
87.1239185201234
20
17.3630481595524
30
0
41
1
10
87.1955595998163
20
17.3046141796828
30
0
41
1
10
87.2617840734738
20
17.2805550002929
30
0
41
1
10
87.2972618715086
20
17.2776930138719
30
0
41
1
10
87.3089294899457
20
17.277646120468
30
0
0
SPLINE
5
20B
100
AcDbEntity
8
1
62
256
6
ByLayer
370
25
48
1
60
0
100
AcDbSpline
70
4
71
3
72
18
73
14
40
0
40
0
40
0
40
0
40
0.0418380391861407
40
0.0833836680363077
40
0.143663537697671
40
0.245127770699398
40
0.461094413630228
40
0.708038645966862
40
0.790737746989041
40
0.873912594665221
40
0.925947017020829
40
0.978333683734995
40
1
40
1
40
1
40
1
41
1
10
100.936099054943
20
21.8877553789376
30
0
41
1
10
100.910936597353
20
21.8876473537727
30
0
41
1
10
100.863417194767
20
21.880403992121
30
0
41
1
10
100.788158551481
20
21.8407129308283
30
0
41
1
10
100.705647386841
20
21.7535227597337
30
0
41
1
10
100.614120660495
20
21.5496213554683
30
0
41
1
10
100.566718923012
20
21.2202611156019
30
0
41
1
10
100.587572297546
20
20.897161362913
30
0
41
1
10
100.659714270059
20
20.6662602797192
30
0
41
1
10
100.721278489638
20
20.5522316779571
30
0
41
1
10
100.802526179401
20
20.4767684509839
30
0
41
1
10
100.872256842059
20
20.4468663559489
30
0
41
1
10
100.914871037452
20
20.4431204268802
30
0
41
1
10
100.927645671193
20
20.4430246548644
30
0
0
SPLINE
5
20C
100
AcDbEntity
8
1
62
256
6
ByLayer
370
25
48
1
60
0
100
AcDbSpline
70
4
71
3
72
18
73
14
40
0
40
0
40
0
40
0
40
0.0418401921026141
40
0.0833879650941768
40
0.14366952984808
40
0.245132984888614
40
0.461097325175437
40
0.708040015378182
40
0.790740770836629
40
0.873917232032925
40
0.925949187249164
40
0.978333408666209
40
1
40
1
40
1
40
1
41
1
10
100.927660006593
20
20.4430243873597
30
0
41
1
10
100.952823570448
20
20.4431328522839
30
0
41
1
10
101.000344970396
20
20.4503773321162
30
0
41
1
10
101.075605697561
20
20.4900707603007
30
0
41
1
10
101.158116551512
20
20.5772626666543
30
0
41
1
10
101.249638732666
20
20.7811636521091
30
0
41
1
10
101.297033198546
20
21.1105199997104
30
0
41
1
10
101.276175159393
20
21.433615358671
30
0
41
1
10
101.204033657754
20
21.6645157799415
30
0
41
1
10
101.142471404017
20
21.7785447940151
30
0
41
1
10
101.061228077755
20
21.8540085213999
30
0
41
1
10
100.991501532539
20
21.8839118372615
30
0
41
1
10
100.948888997333
20
21.8876590075831
30
0
41
1
10
100.936114275284
20
21.8877551423314
30
0
0
SPLINE
5
20D
100
AcDbEntity
8
1
62
256
6
ByLayer
370
25
48
1
60
0
100
AcDbSpline
70
4
71
3
72
22
73
18
40
0
40
0
40
0
40
0
40
0.0633553670770551
40
0.124377739664959
40
0.187684799025797
40
0.249349056734936
40
0.312790305629976
40
0.374782612053026
40
0.438058744204679
40
0.50066381521374
40
0.563014816762807
40
0.626411506278928
40
0.688208084844235
40
0.75162876084663
40
0.813048265852779
40
0.876330318080508
40
1
40
1
40
1
40
1
41
1
10
101.431132777818
20
18.2716824511541
30
0
41
1
10
101.371831255665
20
18.3036446543008
30
0
41
1
10
101.260896033845
20
18.3737122517178
30
0
41
1
10
101.107758809286
20
18.5013476116265
30
0
41
1
10
100.976099298167
20
18.6488730158143
30
0
41
1
10
100.86817733038
20
18.8179392040506
30
0
41
1
10
100.790821349907
20
19.001920281768
30
0
41
1
10
100.749961626542
20
19.1991065019012
30
0
41
1
10
100.748511725708
20
19.3997057865593
30
0
41
1
10
100.790689769542
20
19.5960074979793
30
0
41
1
10
100.873423112126
20
19.778699770488
30
0
41
1
10
100.993533218552
20
19.9376772484
30
0
41
1
10
101.143231450176
20
20.0700104194606
30
0
41
1
10
101.314156173438
20
20.1689367936228
30
0
41
1
10
101.500676032022
20
20.2369787618148
30
0
41
1
10
101.759261268626
20
20.2840716073257
30
0
41
1
10
101.95510481515
20
20.27651643513
30
0
41
1
10
102.086589679029
20
20.2521225826845
30
0
0
SPLINE
5
20E
100
AcDbEntity
8
1
62
256
6
ByLayer
370
25
48
1
60
0
100
AcDbSpline
70
4
71
3
72
46
73
42
40
0
40
0
40
0
40
0
40
0.114803666256273
40
0.229383674407671
40
0.259911765720205
40
0.290577585133783
40
0.321460622368295
40
0.35222499503227
40
0.37851233606026
40
0.381205582310426
40
0.385039003392913
40
0.394788390018847
40
0.404507524382558
40
0.404509667683789
40
0.404511810978236
40
0.404516097546776
40
0.404524670602443
40
0.404541816388139
40
0.404576106657007
40
0.404644681984892
40
0.404781811803336
40
0.405055988107341
40
0.405604007515473
40
0.406698714587703
40
0.408882810235828
40
0.413229795965765
40
0.421839501934136
40
0.43872646116561
40
0.473327235837406
40
0.543731848604194
40
0.612009810950375
40
0.682893358090986
40
0.765626005818463
40
0.852849085122107
40
0.873130605415627
40
0.893655470282618
40
0.914429271010748
40
0.935546980715031
40
0.956863712001974
40
0.969082270494343
40
1
40
1
40
1
40
1
41
1
10
101.431021138748
20
18.271485261873
30
0
41
1
10
101.350493152766
20
18.0318075529988
30
0
41
1
10
101.1561131551
20
17.5717178718193
30
0
41
1
10
100.861697937327
20
17.0833943109551
30
0
41
1
10
100.628762076635
20
16.7795463861675
30
0
41
1
10
100.49854907638
20
16.6270287641038
30
0
41
1
10
100.360494410714
20
16.4810096105426
30
0
41
1
10
100.222347306972
20
16.3486016807997
30
0
41
1
10
100.124392271092
20
16.2631935391209
30
0
41
1
10
100.069648620721
20
16.2174494764764
30
0
41
1
10
100.042370731833
20
16.1948881412676
30
0
41
1
10
100.000526731952
20
16.1662635989341
30
0
41
1
10
99.9675207009789
20
16.1397390829075
30
0
41
1
10
99.9506380599456
20
16.1270254402741
30
0
41
1
10
99.9506231744784
20
16.1270142306258
30
0
41
1
10
99.9505971250156
20
16.1269946140326
30
0
41
1
10
99.9505450264965
20
16.126955381856
30
0
41
1
10
99.9504408310344
20
16.1268769216085
30
0
41
1
10
99.9502324464504
20
16.1267200174886
30
0
41
1
10
99.949815702617
20
16.1264062747775
30
0
41
1
10
99.9489823162982
20
16.1257790514118
30
0
41
1
10
99.9473159489883
20
16.1245256526224
30
0
41
1
10
99.9439848351486
20
16.1220230446222
30
0
41
1
10
99.9373290874761
20
16.1170345668902
30
0
41
1
10
99.9240434717529
20
16.1071244323814
30
0
41
1
10
99.8975755774552
20
16.0875700526073
30
0
41
1
10
99.8450495713507
20
16.0495171330724
30
0
41
1
10
99.7378456710683
20
15.9749014177854
30
0
41
1
10
99.5141623422239
20
15.8328996171169
30
0
41
1
10
99.1804104422784
20
15.6572320682874
30
0
41
1
10
98.757247843956
20
15.4879921312968
30
0
41
1
10
98.2946631237532
20
15.351025575498
30
0
41
1
10
97.7811138693989
20
15.2483959180335
30
0
41
1
10
97.3699693227315
20
15.2024857388282
30
0
41
1
10
97.092427102044
20
15.1843504430348
30
0
41
1
10
96.9587894508235
20
15.1778743301402
30
0
41
1
10
96.8232398214032
20
15.1735387722233
30
0
41
1
10
96.6859079213317
20
15.1713468705397
30
0
41
1
10
96.5671389778535
20
15.171260744139
30
0
41
1
10
96.4270802208399
20
15.1729511263071
30
0
41
1
10
96.3333428210176
20
15.1738845141753
30
0
41
1
10
96.2661574035906
20
15.1746492071896
30
0
0
SPLINE
5
20F
100
AcDbEntity
8
1
62
256
6
ByLayer
370
25
48
1
60
0
100
AcDbSpline
70
4
71
3
72
12
73
8
40
0
40
0
40
0
40
0
40
0.162699598902244
40
0.317227735677587
40
0.498791704867685
40
0.799282272837511
40
1
40
1
40
1
40
1
41
1
10
97.1094181758971
20
14.911401341983
30
0
41
1
10
97.06144421421
20
14.9168893518518
30
0
41
1
10
96.969255852086
20
14.9328853125746
30
0
41
1
10
96.8318582452703
20
14.9871826109667
30
0
41
1
10
96.6526209706607
20
15.0425920052993
30
0
41
1
10
96.461218201067
20
15.1052791299399
30
0
41
1
10
96.3218283197421
20
15.1544781214837
30
0
41
1
10
96.2661574694385
20
15.1746491823667
30
0
0
SPLINE
5
210
100
AcDbEntity
8
1
62
256
6
ByLayer
370
25
48
1
60
0
100
AcDbSpline
70
4
71
1
72
4
73
2
40
0
40
0
40
1
40
1
41
1
10
97.1094094659275
20
14.9114010592717
30
0
41
1
10
97.3322681151181
20
14.8263112525195
30
0
0
SPLINE
5
211
100
AcDbEntity
8
1
62
256
6
ByLayer
370
25
48
1
60
0
100
AcDbSpline
70
4
71
3
72
15
73
11
40
0
40
0
40
0
40
0
40
0.0082928740374581
40
0.0488556672279081
40
0.129248235323095
40
0.209817220412556
40
0.42331838144854
40
0.636955709922835
40
0.850597611976601
40
1
40
1
40
1
40
1
41
1
10
89.0291304963297
20
16.1328362216865
30
0
41
1
10
89.0465035488758
20
16.1168611754412
30
0
41
1
10
89.1513300691516
20
16.0268302784335
30
0
41
1
10
89.4993675678551
20
15.8938542585236
30
0
41
1
10
90.0417423185039
20
15.7388544711243
30
0
41
1
10
91.0798578470538
20
15.5421287874832
30
0
41
1
10
92.4897300955704
20
15.3156727737887
30
0
41
1
10
94.2816144620143
20
15.1096811795493
30
0
41
1
10
95.8963340769984
20
14.9541731300825
30
0
41
1
10
96.9134850674355
20
14.8622652804332
30
0
41
1
10
97.3322057325959
20
14.8260841299967
30
0
0
SPLINE
5
212
100
AcDbEntity
8
1
62
256
6
ByLayer
370
25
48
1
60
0
100
AcDbSpline
70
4
71
3
72
15
73
11
40
0
40
0
40
0
40
0
40
0.124994444633312
40
0.250006077340718
40
0.374996561545364
40
0.499984060673795
40
0.624981858166767
40
0.749982424499078
40
0.874965934126523
40
1
40
1
40
1
40
1
41
1
10
86.1639404812005
20
18.9051954652213
30
0
41
1
10
86.1732351642797
20
18.7196277646518
30
0
41
1
10
86.224568430123
20
18.3572279902629
30
0
41
1
10
86.4035305863315
20
17.8319972938096
30
0
41
1
10
86.6732511409947
20
17.3489253330879
30
0
41
1
10
87.0323072387316
20
16.9276291048601
30
0
41
1
10
87.466018272759
20
16.5855953988433
30
0
41
1
10
87.9546514464838
20
16.330867376656
30
0
41
1
10
88.4839141706267
20
16.1750412194001
30
0
41
1
10
88.8453693148628
20
16.1389327498832
30
0
41
1
10
89.0298239054662
20
16.1376747695337
30
0
0
SPLINE
5
213
100
AcDbEntity
8
1
62
256
6
ByLayer
370
25
48
1
60
0
100
AcDbSpline
70
4
71
3
72
22
73
18
40
0
40
0
40
0
40
0
40
0.0635049931214204
40
0.124657924056919
40
0.1880783099952
40
0.249835510251289
40
0.313343323682146
40
0.375383095852873
40
0.43867791402442
40
0.501274825102345
40
0.563585162891562
40
0.626943332131354
40
0.688652986896401
40
0.752016167932117
40
0.813333838598581
40
0.876532232777267
40
1
40
1
40
1
40
1
41
1
10
86.8140078221986
20
20.8941921656534
30
0
41
1
10
86.8733726483064
20
20.8619332722032
30
0
41
1
10
86.984365283848
20
20.7912751897236
30
0
41
1
10
87.1374233206065
20
20.6627231337238
30
0
41
1
10
87.2687844085709
20
20.5143074077079
30
0
41
1
10
87.3761447796521
20
20.3444097164446
30
0
41
1
10
87.4526703680289
20
20.1597206785066
30
0
41
1
10
87.4923602035409
20
19.9620379373172
30
0
41
1
10
87.4923707867822
20
19.761259438012
30
0
41
1
10
87.4484601142291
20
19.5652586980393
30
0
41
1
10
87.3638848020487
20
19.3834042931677
30
0
41
1
10
87.2420279740757
20
19.2258610287997
30
0
41
1
10
87.0907773891989
20
19.0954564982257
30
0
41
1
10
86.9186977796134
20
18.9988838802414
30
0
41
1
10
86.7314106618571
20
18.9334557302928
30
0
41
1
10
86.4724527434752
20
18.8900337112008
30
0
41
1
10
86.2769235891917
20
18.9003532535711
30
0
41
1
10
86.1459286912074
20
18.9265963277778
30
0
0
SPLINE
5
214
100
AcDbEntity
8
1
62
256
6
ByLayer
370
25
48
1
60
0
100
AcDbSpline
70
4
71
3
72
46
73
42
40
0
40
0
40
0
40
0
40
0.114803184122114
40
0.229383019219653
40
0.259911174791972
40
0.290577045588307
40
0.321460115972721
40
0.352221882785777
40
0.378503948965452
40
0.381194551886726
40
0.385026878759119
40
0.394777222691501
40
0.404499614942304
40
0.40450176206309
40
0.404503909172838
40
0.404508203359239
40
0.404516791599635
40
0.404533967550809
40
0.404568317334716
40
0.404637008428993
40
0.404774356725297
40
0.405048917764007
40
0.405597497746818
40
0.406692490305334
40
0.408873813618473
40
0.413201876502163
40
0.421720189500708
40
0.438209985972686
40
0.473296874673181
40
0.543731828768194
40
0.61200983118345
40
0.682893343488756
40
0.76562614852273
40
0.852849288304546
40
0.873130804937445
40
0.893655658380498
40
0.914429439554863
40
0.935547123701982
40
0.956863819020084
40
0.969082083125623
40
1
40
1
40
1
40
1
41
1
10
86.8140752499694
20
20.8942953098727
30
0
41
1
10
86.8946078431399
20
21.1339633760391
30
0
41
1
10
87.0889959642532
20
21.5940338131755
30
0
41
1
10
87.383416400651
20
22.0823354518846
30
0
41
1
10
87.6163562504117
20
22.3861675483862
30
0
41
1
10
87.7465707240228
20
22.5386774266133
30
0
41
1
10
87.8846221797733
20
22.6846848512514
30
0
41
1
10
88.0227569883474
20
22.8170736757449
30
0
41
1
10
88.1206932992172
20
22.9024632830362
30
0
41
1
10
88.1754210973485
20
22.9481928845378
30
0
41
1
10
88.2026946435663
20
22.9707485105845
30
0
41
1
10
88.2445432433064
20
22.9993759588236
30
0
41
1
10
88.2775552843206
20
23.025905943549
30
0
41
1
10
88.2944433244552
20
23.0386233031115
30
0
41
1
10
88.2944582361645
20
23.0386345322175
30
0
41
1
10
88.2944843314185
20
23.038654182769
30
0
41
1
10
88.2945365210408
20
23.0386934825315
30
0
41
1
10
88.2946408967931
20
23.0387720766271
30
0
41
1
10
88.2948496342919
20
23.0389292431495
30
0
41
1
10
88.2952670532923
20
23.0392434894913
30
0
41
1
10
88.2961016672831
20
23.0398716354326
30
0
41
1
10
88.2977699992254
20
23.0411265406839
30
0
41
1
10
88.3011030786718
20
23.0436308077276
30
0
41
1
10
88.3077548998688
20
23.0486171901624
30
0
41
1
10
88.321001168987
20
23.0585015540614
30
0
41
1
10
88.3472643261719
20
23.0779180575406
30
0
41
1
10
88.3988714079885
20
23.115356918918
30
0
41
1
10
88.5060206716667
20
23.1900364877458
30
0
41
1
10
88.7299262994162
20
23.3321675207962
30
0
41
1
10
89.0646307260089
20
23.5084055735284
30
0
41
1
10
89.4878567248983
20
23.6776432571391
30
0
41
1
10
89.9504283084099
20
23.8146056193046
30
0
41
1
10
90.4639663811114
20
23.9172272267828
30
0
41
1
10
90.8751006879756
20
23.9631347171016
30
0
41
1
10
91.1526358965656
20
23.9812686543891
30
0
41
1
10
91.2862700287706
20
23.9877442525141
30
0
41
1
10
91.4218160365148
20
23.9920794114544
30
0
41
1
10
91.5591442090214
20
23.9942710461598
30
0
41
1
10
91.6779093045518
20
23.9943570172142
30
0
41
1
10
91.8179641245455
20
23.9926666695199
30
0
41
1
10
91.9116988650449
20
23.9917332968714
30
0
41
1
10
91.9788829502796
20
23.9909686274423
30
0
0
SPLINE
5
215
100
AcDbEntity
8
1
62
256
6
ByLayer
370
25
48
1
60
0
100
AcDbSpline
70
4
71
3
72
12
73
8
40
0
40
0
40
0
40
0
40
0.162699595744394
40
0.317227655972832
40
0.498791712821822
40
0.799281969184984
40
1
40
1
40
1
40
1
41
1
10
91.135622177973
20
24.2542164926489
30
0
41
1
10
91.1835961373659
20
24.2487284840834
30
0
41
1
10
91.2757844738095
20
24.232732529427
30
0
41
1
10
91.4131820826955
20
24.1784352434919
30
0
41
1
10
91.5924192710408
20
24.1230258888841
30
0
41
1
10
91.783822056699
20
24.0603387563979
30
0
41
1
10
91.9232119286229
20
24.0111397582225
30
0
41
1
10
91.9788828595378
20
23.9909686616495
30
0
0
SPLINE
5
216
100
AcDbEntity
8
1
62
256
6
ByLayer
370
25
48
1
60
0
100
AcDbSpline
70
4
71
1
72
4
73
2
40
0
40
0
40
1
40
1
41
1
10
91.1356083312212
20
24.2542097696091
30
0
41
1
10
90.9127434592194
20
24.3392978277315
30
0
0
SPLINE
5
217
100
AcDbEntity
8
1
62
256
6
ByLayer
370
25
48
1
60
0
100
AcDbSpline
70
4
71
3
72
15
73
11
40
0
40
0
40
0
40
0
40
0.0085704606435152
40
0.0492184200798564
40
0.129779553924051
40
0.210517231617534
40
0.424467350200594
40
0.638553738982481
40
0.852644698976093
40
1
40
1
40
1
40
1
41
1
10
99.2143845122848
20
23.0313028285078
30
0
41
1
10
99.1964993897538
20
23.0478978693832
30
0
41
1
10
99.0911903984399
20
23.1389305367089
30
0
41
1
10
98.7414990583757
20
23.27211627809
30
0
41
1
10
98.1981467610526
20
23.4274426135383
30
0
41
1
10
97.1578708426491
20
23.6243419799451
30
0
41
1
10
95.7451894265998
20
23.8511005304634
30
0
41
1
10
93.9496912942595
20
24.0573099390118
30
0
41
1
10
92.3383435919636
20
24.2123348686249
30
0
41
1
10
91.3257704645356
20
24.3037904775058
30
0
41
1
10
90.9128305652907
20
24.3394824584595
30
0
0
SPLINE
5
218
100
AcDbEntity
8
1
62
256
6
ByLayer
370
25
48
1
60
0
100
AcDbSpline
70
4
71
1
72
4
73
2
40
0
40
0
40
1
40
1
41
1
10
90.9128247464261
20
24.3396000036488
30
0
41
1
10
90.8490669410715
20
24.3452083031947
30
0
0
SPLINE
5
219
100
AcDbEntity
8
1
62
256
6
ByLayer
370
25
48
1
60
0
100
AcDbSpline
70
4
71
1
72
4
73
2
40
0
40
0
40
1
40
1
41
1
10
91.5980787053768
20
24.314121828658
30
0
41
1
10
90.8498733062721
20
24.3451006195804
30
0
0
SPLINE
5
21A
100
AcDbEntity
8
1
62
256
6
ByLayer
370
25
48
1
60
0
100
AcDbSpline
70
4
71
3
72
11
73
7
40
0
40
0
40
0
40
0
40
0.266444432222614
40
0.531096760197312
40
0.783518908723979
40
1
40
1
40
1
40
1
41
1
10
93.0637292634956
20
24.3848995675888
30
0
41
1
10
92.9503150813571
20
24.3477829289254
30
0
41
1
10
92.7137226705819
20
24.2913563109264
30
0
41
1
10
92.3231858929638
20
24.2573438004159
30
0
41
1
10
91.948615614165
20
24.2769437318531
30
0
41
1
10
91.7090886937424
20
24.2998656713077
30
0
41
1
10
91.5981055439969
20
24.3141124540798
30
0
0
SPLINE
5
21B
100
AcDbEntity
8
1
62
256
6
ByLayer
370
25
48
1
60
0
100
AcDbSpline
70
4
71
3
72
19
73
15
40
0
40
0
40
0
40
0
40
0.499648048172143
40
0.750080653284012
40
0.875349722241782
40
0.937986710379361
40
0.969050879294792
40
0.976715075250244
40
0.977620319182643
40
0.978399687964524
40
0.979117178211122
40
0.979853133543173
40
0.983778802059011
40
1
40
1
40
1
40
1
41
1
10
102.08654246775
20
20.2521064143897
30
0
41
1
10
102.099729381944
20
20.2202539522925
30
0
41
1
10
102.118260460595
20
20.173181340106
30
0
41
1
10
102.13682392121
20
20.1188256041734
30
0
41
1
10
102.146198979443
20
20.0924797013865
30
0
41
1
10
102.15051748873
20
20.0796580956942
30
0
41
1
10
102.152562688806
20
20.0735958043418
30
0
41
1
10
102.152218886582
20
20.0712864624005
30
0
41
1
10
102.151988449032
20
20.0707998726827
30
0
41
1
10
102.151976819856
20
20.0706585859673
30
0
41
1
10
102.152012414977
20
20.0705246836093
30
0
41
1
10
102.152228189812
20
20.0702448187819
30
0
41
1
10
102.153412854493
20
20.0694495900763
30
0
41
1
10
102.154387767779
20
20.0685434895587
30
0
41
1
10
102.155234514591
20
20.0678669728786
30
0
0
SPLINE
5
21C
100
AcDbEntity
8
1
62
256
6
ByLayer
370
25
48
1
60
0
100
AcDbSpline
70
4
71
1
72
4
73
2
40
0
40
0
40
1
40
1
41
1
10
84.4243631251348
20
19.4042770060848
30
0
41
1
10
85.057882193754
20
19.0919128142767
30
0
0
SPLINE
5
21D
100
AcDbEntity
8
1
62
256
6
ByLayer
370
25
48
1
60
0
100
AcDbSpline
70
4
71
3
72
12
73
8
40
0
40
0
40
0
40
0
40
0.18140127638917
40
0.317057477821379
40
0.452302811876378
40
0.681927555000406
40
1
40
1
40
1
40
1
41
1
10
85.2064344578011
20
18.876073647535
30
0
41
1
10
85.2134332842111
20
18.8935686455889
30
0
41
1
10
85.2190952700998
20
18.9237489932047
30
0
41
1
10
85.2110573192223
20
18.968374950978
30
0
41
1
10
85.186078880778
20
19.011155463985
30
0
41
1
10
85.1344056881673
20
19.0552991871879
30
0
41
1
10
85.0880666598856
20
19.0809985635548
30
0
41
1
10
85.0578815285933
20
19.0919112604258
30
0
0
SPLINE
5
21E
100
AcDbEntity
8
1
62
256
6
ByLayer
370
25
48
1
60
0
100
AcDbSpline
70
4
71
3
72
19
73
15
40
0
40
0
40
0
40
0
40
0.0765003419692162
40
0.156301887377403
40
0.23274999359609
40
0.312731224825775
40
0.390172040561337
40
0.469247638500642
40
0.547927628889179
40
0.625782286823161
40
0.781999163252136
40
0.858053584830021
40
0.938570374473936
40
1
40
1
40
1
40
1
41
1
10
85.2064326009034
20
18.8760772860565
30
0
41
1
10
85.1622684718356
20
18.753888841847
30
0
41
1
10
85.0964808432931
20
18.5013801745273
30
0
41
1
10
85.0776173002609
20
18.1096786507852
30
0
41
1
10
85.1245492325173
20
17.7171864936361
30
0
41
1
10
85.2295384592351
20
17.3403134396495
30
0
41
1
10
85.3834967521175
20
16.9766031658032
30
0
41
1
10
85.5791108937599
20
16.636044173404
30
0
41
1
10
85.8125424451867
20
16.3192442741647
30
0
41
1
10
86.1699239717545
20
15.9381640197234
30
0
41
1
10
86.5914820391832
20
15.628140431875
30
0
41
1
10
87.0580902994581
20
15.3911864069177
30
0
41
1
10
87.3976535635716
20
15.2564558617669
30
0
41
1
10
87.6237022973174
20
15.1835952118753
30
0
41
1
10
87.7226945005465
20
15.1550572152427
30
0
0
SPLINE
5
21F
100
AcDbEntity
8
1
62
256
6
ByLayer
370
25
48
1
60
0
100
AcDbSpline
70
4
71
3
72
10
73
6
40
0
40
0
40
0
40
0
40
0.230852532368112
40
0.61235893321136
40
1
40
1
40
1
40
1
41
1
10
95.259318680758
20
14.7347112967467
30
0
41
1
10
95.2488101099379
20
14.7390360931179
30
0
41
1
10
95.2205611091611
20
14.7490294587414
30
0
41
1
10
95.1718320972668
20
14.7570430769717
30
0
41
1
10
95.1343030536287
20
14.7599668811278
30
0
41
1
10
95.1151691675864
20
14.7602145951902
30
0
0
SPLINE
5
220
100
AcDbEntity
8
1
62
256
6
ByLayer
370
25
48
1
60
0
100
AcDbSpline
70
4
71
2
72
6
73
3
40
0
40
0
40
0
40
1
40
1
40
1
41
1
10
95.970234100315
20
14.42286425733
30
0
41
1
10
95.6145091211999
20
14.5781859535777
30
0
41
1
10
95.2593253106428
20
14.7347116575669
30
0
0
SPLINE
5
221
100
AcDbEntity
8
1
62
256
6
ByLayer
370
25
48
1
60
0
100
AcDbSpline
70
4
71
3
72
10
73
6
40
0
40
0
40
0
40
0
40
0.462254167034672
40
0.924476877491232
40
1
40
1
40
1
40
1
41
1
10
84.1108828878264
20
17.4448017143474
30
0
41
1
10
84.0993530023785
20
17.2692856717626
30
0
41
1
10
84.1046583017643
20
16.9221187913196
30
0
41
1
10
84.1718735640529
20
16.5491699203739
30
0
41
1
10
84.2271391465485
20
16.3548270830876
30
0
41
1
10
84.2352790000468
20
16.3276060300096
30
0
0
SPLINE
5
222
100
AcDbEntity
8
1
62
256
6
ByLayer
370
25
48
1
60
0
100
AcDbSpline
70
4
71
3
72
10
73
6
40
0
40
0
40
0
40
0
40
0.358607686898899
40
0.678728528699232
40
1
40
1
40
1
40
1
41
1
10
84.4243317517068
20
19.4042164235419
30
0
41
1
10
84.365239783503
20
19.1735856527017
30
0
41
1
10
84.2680663116136
20
18.7346254029474
30
0
41
1
10
84.1650453767578
20
18.0797015574834
30
0
41
1
10
84.1247314560128
20
17.6572323523406
30
0
41
1
10
84.1108828878865
20
17.4448017143373
30
0
0
SPLINE
5
223
100
AcDbEntity
8
1
62
256
6
ByLayer
370
25
48
1
60
0
100
AcDbSpline
70
4
71
3
72
28
73
24
40
0
40
0
40
0
40
0
40
0.0302036092268996
40
0.0606375772553373
40
0.0912645469027499
40
0.122118436706668
40
0.163564130027958
40
0.205219464465283
40
0.247087940552634
40
0.310054986422565
40
0.373216607607805
40
0.436476422419101
40
0.499776494745369
40
0.563088564721928
40
0.626356380066703
40
0.689548176656157
40
0.752565852090524
40
0.815296010907553
40
0.877522143472293
40
0.908427929586172
40
0.93917198010632
40
0.969659678091927
40
1
40
1
40
1
40
1
41
1
10
89.3285792798356
20
21.3643195028096
30
0
41
1
10
89.3767551749945
20
21.4882534062888
30
0
41
1
10
89.4942011605992
20
21.7228648597603
30
0
41
1
10
89.7406061926839
20
22.0361177842665
30
0
41
1
10
90.0381172556072
20
22.3019090655558
30
0
41
1
10
90.4124766467516
20
22.5446732217217
30
0
41
1
10
90.8626980640784
20
22.7482324824101
30
0
41
1
10
91.3820080674543
20
22.8999636994716
30
0
41
1
10
92.0072916876553
20
23.0034815719093
30
0
41
1
10
92.7350668805205
20
23.0306945202325
30
0
41
1
10
93.5522660278884
20
22.9551885093037
30
0
41
1
10
94.3572194570392
20
22.7861023404011
30
0
41
1
10
95.1405662695839
20
22.5313456109521
30
0
41
1
10
95.8936626995727
20
22.1957521398044
30
0
41
1
10
96.6074374206989
20
21.7821417977064
30
0
41
1
10
97.2692877802558
20
21.2900284213058
30
0
41
1
10
97.863979108541
20
20.7197895474221
30
0
41
1
10
98.3665330239773
20
20.0701878362447
30
0
41
1
10
98.6792728365579
20
19.461001650698
30
0
41
1
10
98.8331189033895
20
18.9420987717876
30
0
41
1
10
98.8913801492342
20
18.5436466943593
30
0
41
1
10
98.8810066604797
20
18.1419124796461
30
0
41
1
10
98.8225389169396
20
17.8847344398906
30
0
41
1
10
98.7810857685115
20
17.7577471760523
30
0
0
SPLINE
5
224
100
AcDbEntity
8
1
62
256
6
ByLayer
370
25
48
1
60
0
100
AcDbSpline
70
4
71
3
72
11
73
7
40
0
40
0
40
0
40
0
40
0.252082496348773
40
0.50223108133684
40
0.750135086948664
40
1
40
1
40
1
40
1
41
1
10
98.782026450455
20
17.7577161696547
30
0
41
1
10
98.7744966504513
20
17.7596477637788
30
0
41
1
10
98.7578488304695
20
17.7643306310426
30
0
41
1
10
98.7273185435531
20
17.7740338371707
30
0
41
1
10
98.6935581039162
20
17.7857158454619
30
0
41
1
10
98.6708176581907
20
17.7941287316165
30
0
41
1
10
98.6591719562562
20
17.7985709252425
30
0
0
SPLINE
5
225
100
AcDbEntity
8
1
62
256
6
ByLayer
370
25
48
1
60
0
100
AcDbSpline
70
4
71
2
72
6
73
3
40
0
40
0
40
0
40
1
40
1
40
1
41
1
10
98.6577694012698
20
17.7989994136492
30
0
41
1
10
98.7588642475388
20
18.1078089570509
30
0
41
1
10
98.7528312585841
20
18.4333659567454
30
0
0
SPLINE
5
226
100
AcDbEntity
8
1
62
256
6
ByLayer
370
25
48
1
60
0
100
AcDbSpline
70
4
71
2
72
6
73
3
40
0
40
0
40
0
40
1
40
1
40
1
41
1
10
98.7528310692586
20
18.433379782699
30
0
41
1
10
98.7484915844738
20
18.6598551953381
30
0
41
1
10
98.7018452922885
20
18.8816614166979
30
0
0
SPLINE
5
227
100
AcDbEntity
8
1
62
256
6
ByLayer
370
25
48
1
60
0
100
AcDbSpline
70
4
71
3
72
11
73
7
40
0
40
0
40
0
40
0
40
0.248265745804631
40
0.498069534308586
40
0.748763215325573
40
1
40
1
40
1
40
1
41
1
10
98.7018424963292
20
18.8816748202507
30
0
41
1
10
98.6477087048094
20
19.1147534177807
30
0
41
1
10
98.4979171725479
20
19.5621450677459
30
0
41
1
10
98.1290053812618
20
20.1763560146125
30
0
41
1
10
97.6725334178366
20
20.7263134671012
30
0
41
1
10
97.3269255911967
20
21.0519134418366
30
0
41
1
10
97.1423025066237
20
21.2042111798461
30
0
0
SPLINE
5
228
100
AcDbEntity
8
1
62
256
6
ByLayer
370
25
48
1
60
0
100
AcDbSpline
70
4
71
2
72
6
73
3
40
0
40
0
40
0
40
1
40
1
40
1
41
1
10
97.1422982728421
20
21.2042147458848
30
0
41
1
10
96.8288440649887
20
21.4648850029315
30
0
41
1
10
96.4874000767516
20
21.6868930862848
30
0
0
SPLINE
5
229
100
AcDbEntity
8
1
62
256
6
ByLayer
370
25
48
1
60
0
100
AcDbSpline
70
4
71
2
72
6
73
3
40
0
40
0
40
0
40
1
40
1
40
1
41
1
10
96.487398090752
20
21.6868943590969
30
0
41
1
10
95.8303408594659
20
22.1116840965634
30
0
41
1
10
95.1018148228482
20
22.3931193438169
30
0
0
SPLINE
5
22A
100
AcDbEntity
8
1
62
256
6
ByLayer
370
25
48
1
60
0
100
AcDbSpline
70
4
71
3
72
12
73
8
40
0
40
0
40
0
40
0
40
0.166192739939038
40
0.332650128103298
40
0.499380021226222
40
0.749629019696137
40
1
40
1
40
1
40
1
41
1
10
91.3419106695072
20
22.7522033576297
30
0
41
1
10
91.549363921663
20
22.8007335010452
30
0
41
1
10
91.9669861925364
20
22.8727025705629
30
0
41
1
10
92.6055306593876
20
22.9003267239385
30
0
41
1
10
93.3495718177263
20
22.8553033515384
30
0
41
1
10
94.1919796677491
20
22.7023621244382
30
0
41
1
10
94.8014183557558
20
22.5099325668
30
0
41
1
10
95.1018101881803
20
22.3931211378604
30
0
0
SPLINE
5
22B
100
AcDbEntity
8
1
62
256
6
ByLayer
370
25
48
1
60
0
100
AcDbSpline
70
4
71
2
72
6
73
3
40
0
40
0
40
0
40
1
40
1
40
1
41
1
10
91.0975141997035
20
22.684870424633
30
0
41
1
10
91.2186380494214
20
22.7224247522311
30
0
41
1
10
91.3419090901245
20
22.7522029760743
30
0
0
SPLINE
5
22C
100
AcDbEntity
8
1
62
256
6
ByLayer
370
25
48
1
60
0
100
AcDbSpline
70
4
71
3
72
11
73
7
40
0
40
0
40
0
40
0
40
0.247465767873238
40
0.49667780851294
40
0.747660290705196
40
1
40
1
40
1
40
1
41
1
10
89.4340336181077
20
21.3174330429819
30
0
41
1
10
89.5049465231842
20
21.492938740083
30
0
41
1
10
89.6848834493035
20
21.8135558280605
30
0
41
1
10
90.0904230430637
20
22.2048082315051
30
0
41
1
10
90.5712751195693
20
22.4932685726205
30
0
41
1
10
90.9164307624812
20
22.6310037200024
30
0
41
1
10
91.0975129995314
20
22.6848700523609
30
0
0
SPLINE
5
22D
100
AcDbEntity
8
1
62
256
6
ByLayer
370
25
48
1
60
0
100
AcDbSpline
70
4
71
3
72
11
73
7
40
0
40
0
40
0
40
0
40
0.25201781898232
40
0.502221086829343
40
0.750133104260314
40
1
40
1
40
1
40
1
41
1
10
89.3286219928999
20
21.3643139439501
30
0
41
1
10
89.3333830453348
20
21.3615144821405
30
0
41
1
10
89.3451360632447
20
21.3552683637784
30
0
41
1
10
89.3700118894703
20
21.3436598759303
30
0
41
1
10
89.4003354896005
20
21.3307012633874
30
0
41
1
10
89.4223512668345
20
21.3219108653821
30
0
41
1
10
89.4340185932975
20
21.3173933308071
30
0
0
SPLINE
5
22E
100
AcDbEntity
8
1
62
256
6
ByLayer
370
25
48
1
60
0
100
AcDbSpline
70
4
71
2
72
6
73
3
40
0
40
0
40
0
40
1
40
1
40
1
41
1
10
98.6586730237689
20
17.7987987086292
30
0
41
1
10
97.6563616140274
20
18.1817554658921
30
0
41
1
10
96.6549557315451
20
18.5646310420576
30
0
0
SPLINE
5
22F
100
AcDbEntity
8
1
62
256
6
ByLayer
370
25
48
1
60
0
100
AcDbSpline
70
4
71
3
72
16
73
12
40
0
40
0
40
0
40
0
40
0.107450599074295
40
0.214901004748252
40
0.322352464331349
40
0.429803887558208
40
0.537240483531304
40
0.644676792431722
40
0.752077626619429
40
0.859478601704996
40
1
40
1
40
1
40
1
41
1
10
96.6549498333416
20
18.5646154614402
30
0
41
1
10
96.7099302678442
20
18.7135285731426
30
0
41
1
10
96.7939849862166
20
19.0157520126105
30
0
41
1
10
96.844092967555
20
19.4884061223253
30
0
41
1
10
96.8129945347354
20
19.9620036656469
30
0
41
1
10
96.7049806128711
20
20.4246999104128
30
0
41
1
10
96.5199509678475
20
20.862224913877
30
0
41
1
10
96.2661165578789
20
21.2635321514556
30
0
41
1
10
95.9484107135587
20
21.6153157077209
30
0
41
1
10
95.5384616559023
20
21.94071723196
30
0
41
1
10
95.2173074308043
20
22.1057945959124
30
0
41
1
10
95.0227442743982
20
22.1805819800614
30
0
0
SPLINE
5
230
100
AcDbEntity
8
1
62
256
6
ByLayer
370
25
48
1
60
0
100
AcDbSpline
70
4
71
2
72
6
73
3
40
0
40
0
40
0
40
1
40
1
40
1
41
1
10
95.1018157122248
20
22.3931428224393
30
0
41
1
10
95.062253081459
20
22.2868536552302
30
0
41
1
10
95.0227441566408
20
22.1805816610395
30
0
0
SPLINE
5
231
100
AcDbEntity
8
1
62
256
6
ByLayer
370
25
48
1
60
0
100
AcDbSpline
70
4
71
3
72
29
73
25
40
0
40
0
40
0
40
0
40
0.0303069911214212
40
0.060808121922375
40
0.0914676739709173
40
0.122324052155401
40
0.153382574072637
40
0.184584026438851
40
0.247214750840694
40
0.310146355001872
40
0.373279482365398
40
0.436517884020757
40
0.499799378138889
40
0.563091221629925
40
0.626336231927955
40
0.689495325756545
40
0.752470414293291
40
0.794323866804157
40
0.836003513988286
40
0.877432054496156
40
0.908335035392691
40
0.939067734798508
40
0.969591961803698
40
1
40
1
40
1
40
1
41
1
10
89.1628218483721
20
21.4623697777063
30
0
41
1
10
89.2135471806613
20
21.5935745446271
30
0
41
1
10
89.3365061852988
20
21.8426558160949
30
0
41
1
10
89.5918006956746
20
22.1779130837094
30
0
41
1
10
89.9003933070743
20
22.4651570317222
30
0
41
1
10
90.2506883633869
20
22.7035000695027
30
0
41
1
10
90.6307484676332
20
22.8947792414377
30
0
41
1
10
91.1654635594034
20
23.0926881980184
30
0
41
1
10
91.8691874676226
20
23.2384453640634
30
0
41
1
10
92.7313029095491
20
23.2797997713899
30
0
41
1
10
93.5942593833668
20
23.2062284612165
30
0
41
1
10
94.4443570031219
20
23.0311396810411
30
0
41
1
10
95.2713624318805
20
22.7632791625771
30
0
41
1
10
96.065627597113
20
22.4080166360041
30
0
41
1
10
96.817070246878
20
21.9684220439935
30
0
41
1
10
97.5116695908311
20
21.4441584017137
30
0
41
1
10
98.0643338783046
20
20.9028249142844
30
0
41
1
10
98.4821520167355
20
20.3736921639276
30
0
41
1
10
98.7835369701027
20
19.8830616756212
30
0
41
1
10
98.9949085587034
20
19.4009847135267
30
0
41
1
10
99.1197332358265
20
18.942299156833
30
0
41
1
10
99.1722627434035
20
18.5204405785747
30
0
41
1
10
99.1535962746558
20
18.0965323125405
30
0
41
1
10
99.089536852867
20
17.8251044435152
30
0
41
1
10
99.0451004739368
20
17.6911304272194
30
0
0
SPLINE
5
232
100
AcDbEntity
8
1
62
256
6
ByLayer
370
25
48
1
60
0
100
AcDbSpline
70
4
71
1
72
4
73
2
40
0
40
0
40
1
40
1
41
1
10
99.0458977009451
20
17.6907767143481
30
0
41
1
10
98.7825005353739
20
17.7576008605346
30
0
0
SPLINE
5
233
100
AcDbEntity
8
1
62
256
6
ByLayer
370
25
48
1
60
0
100
AcDbSpline
70
4
71
3
72
12
73
8
40
0
40
0
40
0
40
0
40
0.252178968207665
40
0.503175353480889
40
0.752159520477648
40
0.876356953690835
40
1
40
1
40
1
40
1
41
1
10
89.915538831132
20
18.9602141388224
30
0
41
1
10
89.7935666437976
20
19.1339402121933
30
0
41
1
10
89.5862310045025
20
19.4959973330527
30
0
41
1
10
89.3646168543005
20
20.0869408094631
30
0
41
1
10
89.3010263158163
20
20.6090753694697
30
0
41
1
10
89.3433290976599
20
21.022241568771
30
0
41
1
10
89.3983821113183
20
21.2201359485016
30
0
41
1
10
89.4340336182424
20
21.3174330433324
30
0
0
SPLINE
5
234
100
AcDbEntity
8
1
62
256
6
ByLayer
370
25
48
1
60
0
100
AcDbSpline
70
4
71
3
72
12
73
8
40
0
40
0
40
0
40
0
40
0.250369910501462
40
0.50061865464486
40
0.667350117313389
40
0.833808526623578
40
1
40
1
40
1
40
1
41
1
10
92.9773907310842
20
16.6857314366153
30
0
41
1
10
92.6744833876439
20
16.8008918462073
30
0
41
1
10
92.0893958386087
20
17.0681976434826
30
0
41
1
10
91.3553335984657
20
17.5231611439249
30
0
41
1
10
90.7665807712501
20
17.9929580190094
30
0
41
1
10
90.3051811843349
20
18.4461336002604
30
0
41
1
10
90.0391948621586
20
18.7831561881209
30
0
41
1
10
89.9155438795619
20
18.9602067969607
30
0
0
SPLINE
5
235
100
AcDbEntity
8
1
62
256
6
ByLayer
370
25
48
1
60
0
100
AcDbSpline
70
4
71
2
72
6
73
3
40
0
40
0
40
0
40
1
40
1
40
1
41
1
10
92.9773987236078
20
16.6857283841991
30
0
41
1
10
93.6968779589062
20
16.4103852166697
30
0
41
1
10
94.4559013589364
20
16.2861892288857
30
0
0
SPLINE
5
236
100
AcDbEntity
8
1
62
256
6
ByLayer
370
25
48
1
60
0
100
AcDbSpline
70
4
71
3
72
13
73
9
40
0
40
0
40
0
40
0
40
0.251078778479756
40
0.501631794140942
40
0.626755567161852
40
0.751610256057962
40
0.87603856312703
40
1
40
1
40
1
40
1
41
1
10
94.4559040171219
20
16.2861887992106
30
0
41
1
10
94.7586999137619
20
16.2354853250254
30
0
41
1
10
95.3629543240993
20
16.1806507674434
30
0
41
1
10
96.1259207171605
20
16.217521291742
30
0
41
1
10
96.722510565074
20
16.3290420343783
30
0
41
1
10
97.157820010117
20
16.4581183730132
30
0
41
1
10
97.574787190883
20
16.6377406416921
30
0
41
1
10
97.8292770584319
20
16.7976569161308
30
0
41
1
10
97.951530265358
20
16.8869734364966
30
0
0
SPLINE
5
237
100
AcDbEntity
8
1
62
256
6
ByLayer
370
25
48
1
60
0
100
AcDbSpline
70
4
71
2
72
6
73
3
40
0
40
0
40
0
40
1
40
1
40
1
41
1
10
97.9515374808189
20
16.8869788316191
30
0
41
1
10
98.4030605827809
20
17.2138310838981
30
0
41
1
10
98.6300731245284
20
17.7253048092307
30
0
0
SPLINE
5
238
100
AcDbEntity
8
1
62
256
6
ByLayer
370
25
48
1
60
0
100
AcDbSpline
70
4
71
2
72
6
73
3
40
0
40
0
40
0
40
1
40
1
40
1
41
1
10
98.6302088560569
20
17.7256271231355
30
0
41
1
10
98.6381369218769
20
17.7443718098578
30
0
41
1
10
98.6456261725313
20
17.7633005817035
30
0
0
SPLINE
5
239
100
AcDbEntity
8
1
62
256
6
ByLayer
370
25
48
1
60
0
100
AcDbSpline
70
4
71
1
72
4
73
2
40
0
40
0
40
1
40
1
41
1
10
98.7823801894565
20
17.7572780598167
30
0
41
1
10
98.7531400377291
20
17.6834292091627
30
0
0
SPLINE
5
23A
100
AcDbEntity
8
1
62
256
6
ByLayer
370
25
48
1
60
0
100
AcDbSpline
70
4
71
3
72
28
73
24
40
0
40
0
40
0
40
0
40
0.0317493857094072
40
0.0634034164477774
40
0.0949465426906188
40
0.126392666218047
40
0.168143687743797
40
0.209809901357944
40
0.25137250848698
40
0.313586482496889
40
0.375747110985257
40
0.437858574486639
40
0.499945113631576
40
0.562044333461499
40
0.624148024920424
40
0.686327801168764
40
0.748563641531793
40
0.810921694961613
40
0.873452225625595
40
0.904887155424416
40
0.936478399883009
40
0.968201876040479
40
1
40
1
40
1
40
1
41
1
10
89.3286147853794
20
21.3642947828619
30
0
41
1
10
89.280893026118
20
21.2327073195634
30
0
41
1
10
89.2127224309954
20
20.9665125268784
30
0
41
1
10
89.1955544468128
20
20.5498863190831
30
0
41
1
10
89.2515148773965
20
20.1399409410541
30
0
41
1
10
89.3813814040313
20
19.7009575781217
30
0
41
1
10
89.5925008465097
20
19.2451880183253
30
0
41
1
10
89.8870948054593
20
18.786074994248
30
0
41
1
10
90.288260597065
20
18.2952545296382
30
0
41
1
10
90.8113033181235
20
17.7950510124717
30
0
41
1
10
91.463423305088
20
17.3118336768634
30
0
41
1
10
92.163982753931
20
16.9051229465479
30
0
41
1
10
92.9022022662253
20
16.5744393320719
30
0
41
1
10
93.6697305777205
20
16.3215023150238
30
0
41
1
10
94.4593103207296
20
16.1499691560014
30
0
41
1
10
95.2633520908539
20
16.0680614380227
30
0
41
1
10
96.0725131475353
20
16.0863168256957
30
0
41
1
10
96.8721439869217
20
16.2228411235974
30
0
41
1
10
97.510882728541
20
16.4581897342668
30
0
41
1
10
97.9774815476643
20
16.7378036266074
30
0
41
1
10
98.2955977781689
20
16.9980932133984
30
0
41
1
10
98.5659031714466
20
17.3134755767606
30
0
41
1
10
98.6978176847126
20
17.5544539146005
30
0
41
1
10
98.7529865334482
20
17.6831818657716
30
0
0
SPLINE
5
23B
100
AcDbEntity
8
1
62
256
6
ByLayer
370
25
48
1
60
0
100
AcDbSpline
70
4
71
2
72
6
73
3
40
0
40
0
40
0
40
1
40
1
40
1
41
1
10
99.0462880409215
20
17.6906931174885
30
0
41
1
10
99.0378564298496
20
17.6680327040252
30
0
41
1
10
99.0289204938505
20
17.645571451996
30
0
0
SPLINE
5
23C
100
AcDbEntity
8
1
62
256
6
ByLayer
370
25
48
1
60
0
100
AcDbSpline
70
4
71
2
72
6
73
3
40
0
40
0
40
0
40
1
40
1
40
1
41
1
10
99.0289204938505
20
17.645571451996
30
0
41
1
10
99.0227023279228
20
17.6299414148613
30
0
41
1
10
99.0162425855325
20
17.6144121418806
30
0
0
SPLINE
5
23D
100
AcDbEntity
8
1
62
256
6
ByLayer
370
25
48
1
60
0
100
AcDbSpline
70
4
71
3
72
29
73
25
40
0
40
0
40
0
40
0
40
0.0321034229737119
40
0.0640531263887662
40
0.0958313503932098
40
0.127443797899927
40
0.169305529936447
40
0.210994261336654
40
0.252492227783898
40
0.314519888607039
40
0.376425913935291
40
0.438242985340138
40
0.500016808888652
40
0.56180211389972
40
0.623606041287106
40
0.685522857230177
40
0.747557764123524
40
0.789061066400418
40
0.830715375935437
40
0.872552529159105
40
0.904133469522188
40
0.935916174881387
40
0.967901820896369
40
1
40
1
40
1
40
1
41
1
10
89.1627946762685
20
21.462322267898
30
0
41
1
10
89.111659733759
20
21.3221204221379
30
0
41
1
10
89.0375388848302
20
21.0385910341725
30
0
41
1
10
89.0130649076624
20
20.5953181277273
30
0
41
1
10
89.0649665475614
20
20.1584638174283
30
0
41
1
10
89.1941724144122
20
19.6903616710163
30
0
41
1
10
89.4098401216731
20
19.2043717644821
30
0
41
1
10
89.7142372374101
20
18.715096884512
30
0
41
1
10
90.1313022118341
20
18.1930292335815
30
0
41
1
10
90.6774610939112
20
17.6619516685315
30
0
41
1
10
91.3604614896557
20
17.1501031048994
30
0
41
1
10
92.0953474638813
20
16.72052494446
30
0
41
1
10
92.8705261609462
20
16.3725096615827
30
0
41
1
10
93.6770594208462
20
16.107799556341
30
0
41
1
10
94.5072747992241
20
15.9303511348981
30
0
41
1
10
95.3530421203756
20
15.8492539180605
30
0
41
1
10
96.1097483908545
20
15.8728993204084
30
0
41
1
10
96.7646765197619
20
15.9763861532491
30
0
41
1
10
97.3146198460926
20
16.1304675255714
30
0
41
1
10
97.7973821868145
20
16.3408793368244
30
0
41
1
10
98.2052857598203
20
16.5961887275538
30
0
41
1
10
98.5378924049643
20
16.8791455348185
30
0
41
1
10
98.8196840585357
20
17.2193433567601
30
0
41
1
10
98.9581755517682
20
17.4771018829327
30
0
41
1
10
99.016243273048
20
17.6144118027604
30
0
0
SPLINE
5
23E
100
AcDbEntity
8
1
62
256
6
ByLayer
370
25
48
1
60
0
100
AcDbSpline
70
4
71
1
72
4
73
2
40
0
40
0
40
1
40
1
41
1
10
94.721943956145
20
22.2763405373195
30
0
41
1
10
95.0227442769608
20
22.180581979415
30
0
0
SPLINE
5
23F
100
AcDbEntity
8
1
62
256
6
ByLayer
370
25
48
1
60
0
100
AcDbSpline
70
4
71
2
72
6
73
3
40
0
40
0
40
0
40
1
40
1
40
1
41
1
10
96.1434726425739
20
17.7039677256704
30
0
41
1
10
96.4760590431097
20
18.0863723339454
30
0
41
1
10
96.6549502384678
20
18.5646158822292
30
0
0
SPLINE
5
240
100
AcDbEntity
8
1
62
256
6
ByLayer
370
25
48
1
60
0
100
AcDbSpline
70
4
71
3
72
10
73
6
40
0
40
0
40
0
40
0
40
0.384842587901367
40
0.769684741294154
40
1
40
1
40
1
40
1
41
1
10
93.071419782011
20
16.9381811104946
30
0
41
1
10
92.9236675361532
20
16.9950328821168
30
0
41
1
10
92.6420561825527
20
17.131003671152
30
0
41
1
10
92.3065326409178
20
17.368899047348
30
0
41
1
10
92.1235309730186
20
17.5403692436128
30
0
41
1
10
92.0578377770044
20
17.6083586671372
30
0
0
SPLINE
5
241
100
AcDbEntity
8
1
62
256
6
ByLayer
370
25
48
1
60
0
100
AcDbSpline
70
4
71
3
72
12
73
8
40
0
40
0
40
0
40
0
40
0.0899528888524856
40
0.305330769535299
40
0.520649285783072
40
0.735967234884235
40
1
40
1
40
1
40
1
41
1
10
92.0954998637164
20
21.5672485385124
30
0
41
1
10
92.1422124793361
20
21.6131912893086
30
0
41
1
10
92.3054547615754
20
21.7629266948381
30
0
41
1
10
92.6135843663197
20
21.9855662510604
30
0
41
1
10
93.0367563037817
20
22.1908297989107
30
0
41
1
10
93.5235992092324
20
22.3329901044303
30
0
41
1
10
93.8690181386937
20
22.3650896219033
30
0
41
1
10
94.063560506654
20
22.3632788783648
30
0
0
SPLINE
5
242
100
AcDbEntity
8
1
62
256
6
ByLayer
370
25
48
1
60
0
100
AcDbSpline
70
4
71
2
72
6
73
3
40
0
40
0
40
0
40
1
40
1
40
1
41
1
10
94.063560506654
20
22.3632788783626
30
0
41
1
10
94.3988252293086
20
22.3592801929762
30
0
41
1
10
94.721943956145
20
22.2763405373195
30
0
0
SPLINE
5
243
100
AcDbEntity
8
1
62
256
6
ByLayer
370
25
48
1
60
0
100
AcDbSpline
70
4
71
3
72
13
73
9
40
0
40
0
40
0
40
0
40
0.196457946147931
40
0.392916001505393
40
0.589371141569275
40
0.785826638966894
40
0.982345102031196
40
1
40
1
40
1
40
1
41
1
10
94.030778466339
20
16.755520570594
30
0
41
1
10
94.1887018300821
20
16.754179382894
30
0
41
1
10
94.4996196020171
20
16.7774715330193
30
0
41
1
10
94.9575829998766
20
16.8907014999121
30
0
41
1
10
95.3880056152502
20
17.0811159687937
30
0
41
1
10
95.7818910374503
20
17.339900132739
30
0
41
1
10
96.0201909637453
20
17.5664403615909
30
0
41
1
10
96.1341487736063
20
17.6934259197878
30
0
41
1
10
96.1434726425739
20
17.7039677256704
30
0
0
SPLINE
5
244
100
AcDbEntity
8
1
62
256
6
ByLayer
370
25
48
1
60
0
100
AcDbSpline
70
4
71
2
72
6
73
3
40
0
40
0
40
0
40
1
40
1
40
1
41
1
10
93.0714196074306
20
16.9381807775799
30
0
41
1
10
93.5355160383481
20
16.7616168771722
30
0
41
1
10
94.0307784663391
20
16.755520570594
30
0
0
SPLINE
5
245
100
AcDbEntity
8
1
62
256
6
ByLayer
370
25
48
1
60
0
100
AcDbSpline
70
4
71
2
72
6
73
3
40
0
40
0
40
0
40
1
40
1
40
1
41
1
10
92.9773896586256
20
16.6857408648749
30
0
41
1
10
93.0243687818753
20
16.8119504429595
30
0
41
1
10
93.0714197233365
20
16.9381810935002
30
0
0
SPLINE
5
246
100
AcDbEntity
8
1
62
256
6
ByLayer
370
25
48
1
60
0
100
AcDbSpline
70
4
71
2
72
6
73
3
40
0
40
0
40
0
40
1
40
1
40
1
41
1
10
102.985649647622
20
17.7696202521613
30
0
41
1
10
102.736033279615
20
17.9197457335151
30
0
41
1
10
102.515523982966
20
18.1126028619736
30
0
0
SPLINE
5
247
100
AcDbEntity
8
1
62
256
6
ByLayer
370
25
48
1
60
0
100
AcDbSpline
70
4
71
2
72
6
73
3
40
0
40
0
40
0
40
1
40
1
40
1
41
1
10
102.620558272229
20
18.2293536982406
30
0
41
1
10
102.565778812443
20
18.1738000521037
30
0
41
1
10
102.515578221021
20
18.1126376879922
30
0
0
SPLINE
5
248
100
AcDbEntity
8
1
62
256
6
ByLayer
370
25
48
1
60
0
100
AcDbSpline
70
4
71
3
72
10
73
6
40
0
40
0
40
0
40
0
40
0.258245997025284
40
0.516515175482192
40
1
40
1
40
1
40
1
41
1
10
103.065062649866
20
17.9327329464497
30
0
41
1
10
103.059091299724
20
17.9190602061861
30
0
41
1
10
103.046682716637
20
17.8914806637893
30
0
41
1
10
103.020629218323
20
17.8366653743303
30
0
41
1
10
102.999869950286
20
17.7961496134638
30
0
41
1
10
102.985649644292
20
17.7696202459561
30
0
0
SPLINE
5
249
100
AcDbEntity
8
1
62
256
6
ByLayer
370
25
48
1
60
0
100
AcDbSpline
70
4
71
2
72
6
73
3
40
0
40
0
40
0
40
1
40
1
40
1
41
1
10
101.524401575443
20
18.4386778372651
30
0
41
1
10
101.477579289213
20
18.3593049387576
30
0
41
1
10
101.431127729253
20
18.2716632625761
30
0
0
SPLINE
5
24A
100
AcDbEntity
8
1
62
256
6
ByLayer
370
25
48
1
60
0
100
AcDbSpline
70
4
71
3
72
11
73
7
40
0
40
0
40
0
40
0
40
0.166171540131548
40
0.330826838798585
40
0.49831496491172
40
1
40
1
40
1
40
1
41
1
10
101.202506907865
20
15.6666012085459
30
0
41
1
10
101.275238819173
20
15.8020867381782
30
0
41
1
10
101.420036954225
20
16.0718226585454
30
0
41
1
10
101.638126890494
20
16.4781265992652
30
0
41
1
10
102.003076737081
20
17.1579815539587
30
0
41
1
10
102.295952297739
20
17.7035908955524
30
0
41
1
10
102.515523889095
20
18.112638998705
30
0
0
SPLINE
5
24B
100
AcDbEntity
8
1
62
256
6
ByLayer
370
25
48
1
60
0
100
AcDbSpline
70
4
71
1
72
4
73
2
40
0
40
0
40
1
40
1
41
1
10
102.985649072841
20
17.7696192948544
30
0
41
1
10
101.703221000169
20
15.3806717705912
30
0
0
SPLINE
5
24C
100
AcDbEntity
8
1
62
256
6
ByLayer
370
25
48
1
60
0
100
AcDbSpline
70
4
71
3
72
27
73
23
40
0
40
0
40
0
40
0
40
0.435628308107873
40
0.59019581978014
40
0.751418334154056
40
0.920785646417488
40
0.92080867434544
40
0.920811083114468
40
0.920815289606728
40
0.920824849836968
40
0.920843970383238
40
0.920882211818615
40
0.920958696060501
40
0.921111670025236
40
0.921417639851344
40
0.922029666873559
40
0.923254068699737
40
0.925704250425553
40
0.930610030076376
40
0.940442612681224
40
0.960188575569343
40
1
40
1
40
1
40
1
41
1
10
102.048251620397
20
18.1975063232394
30
0
41
1
10
101.956716352023
20
18.1865740960434
30
0
41
1
10
101.8332213476
20
18.1835700553426
30
0
41
1
10
101.676144474447
20
18.1970379731909
30
0
41
1
10
101.576013457808
20
18.2168237968665
30
0
41
1
10
101.509687927991
20
18.2384857582603
30
0
41
1
10
101.476670493824
20
18.2516310888926
30
0
41
1
10
101.476661198809
20
18.2516347797317
30
0
41
1
10
101.476651901685
20
18.2516384652983
30
0
41
1
10
101.476642601796
20
18.2516421438936
30
0
41
1
10
101.476633301955
20
18.2516458226105
30
0
41
1
10
101.476607182376
20
18.25165615524
30
0
41
1
10
101.476554942849
20
18.2516768233883
30
0
41
1
10
101.476450462199
20
18.2517181709501
30
0
41
1
10
101.476241494653
20
18.2518009113041
30
0
41
1
10
101.475823534912
20
18.2519665725078
30
0
41
1
10
101.474987519875
20
18.252298614934
30
0
41
1
10
101.473315130407
20
18.2529655625147
30
0
41
1
10
101.469969064512
20
18.2543108008545
30
0
41
1
10
101.463272686208
20
18.2570457764238
30
0
41
1
10
101.449864755057
20
18.2626915615874
30
0
41
1
10
101.438475374602
20
18.2677648336749
30
0
41
1
10
101.430914714601
20
18.2712598129136
30
0
0
SPLINE
5
24D
100
AcDbEntity
8
1
62
256
6
ByLayer
370
25
48
1
60
0
100
AcDbSpline
70
4
71
3
72
11
73
7
40
0
40
0
40
0
40
0
40
0.115773020652409
40
0.232215373164167
40
0.473429816966481
40
1
40
1
40
1
40
1
41
1
10
102.515569141657
20
18.1126495547346
30
0
41
1
10
102.502707708368
20
18.1264968712974
30
0
41
1
10
102.474609199009
20
18.1509454500921
30
0
41
1
10
102.406169062482
20
18.1877540257969
30
0
41
1
10
102.261274673385
20
18.2141317097483
30
0
41
1
10
102.136760145424
20
18.2143534386302
30
0
41
1
10
102.048251620396
20
18.1975063232394
30
0
0
SPLINE
5
24E
100
AcDbEntity
8
1
62
256
6
ByLayer
370
25
48
1
60
0
100
AcDbSpline
70
4
71
3
72
15
73
11
40
0
40
0
40
0
40
0
40
0.148027523402867
40
0.299218302123132
40
0.370967758316399
40
0.466989349298881
40
0.647538675083699
40
0.830202577365586
40
0.927564903365726
40
1
40
1
40
1
40
1
41
1
10
99.2780501669394
20
14.911834636118
30
0
41
1
10
99.3871764923304
20
14.9118771276045
30
0
41
1
10
99.6074241775845
20
14.9140185418625
30
0
41
1
10
99.8800440972483
20
14.9055211970513
30
0
41
1
10
100.113392991619
20
14.9221854703679
30
0
41
1
10
100.365288151625
20
14.9662767969504
30
0
41
1
10
100.682290387225
20
15.0935090161154
30
0
41
1
10
100.946289558188
20
15.3125491056641
30
0
41
1
10
101.10748497299
20
15.5159446193693
30
0
41
1
10
101.17543345851
20
15.6205285414016
30
0
41
1
10
101.20250625676
20
15.6665999958371
30
0
0
SPLINE
5
24F
100
AcDbEntity
8
1
62
256
6
ByLayer
370
25
48
1
60
0
100
AcDbSpline
70
4
71
2
72
6
73
3
40
0
40
0
40
0
40
1
40
1
40
1
41
1
10
99.278111517443
20
14.9117338706115
30
0
41
1
10
98.233740728132
20
14.9104216013088
30
0
41
1
10
97.1934571281049
20
14.9112475231372
30
0
0
SPLINE
5
250
100
AcDbEntity
8
1
62
256
6
ByLayer
370
25
48
1
60
0
100
AcDbSpline
70
4
71
1
72
4
73
2
40
0
40
0
40
1
40
1
41
1
10
97.1934557148181
20
14.9112470538271
30
0
41
1
10
97.1094085700538
20
14.9113986269082
30
0
0
SPLINE
5
251
100
AcDbEntity
8
1
62
256
6
ByLayer
370
25
48
1
60
0
100
AcDbSpline
70
4
71
2
72
6
73
3
40
0
40
0
40
0
40
1
40
1
40
1
41
1
10
100.927652831014
20
20.4430246041549
30
0
41
1
10
100.934268026217
20
20.5052965274975
30
0
41
1
10
100.934821837287
20
20.5832390857807
30
0
0
SPLINE
5
252
100
AcDbEntity
8
1
62
256
6
ByLayer
370
25
48
1
60
0
100
AcDbSpline
70
4
71
3
72
19
73
15
40
0
40
0
40
0
40
0
40
0.0162709888389265
40
0.0333108341163426
40
0.0730019514477281
40
0.182576407016529
40
0.330333452624396
40
0.499979793742806
40
0.669626134860516
40
0.817383180467829
40
0.926957636037889
40
0.966491494955846
40
0.983578442130804
40
1
40
1
40
1
40
1
41
1
10
100.934821843296
20
20.5832390876512
30
0
41
1
10
100.942090069734
20
20.5832876633606
30
0
41
1
10
100.956492173214
20
20.5850278114849
30
0
41
1
10
100.986475222902
20
20.5971175414277
30
0
41
1
10
101.042184812249
20
20.6462799075753
30
0
41
1
10
101.099317073947
20
20.7672002475749
30
0
41
1
10
101.142215795632
20
20.9501721185141
30
0
41
1
10
101.158106223074
20
21.1649611710326
30
0
41
1
10
101.144710385088
20
21.3800266040505
30
0
41
1
10
101.10403955874
20
21.5640310264064
30
0
41
1
10
101.048174857704
20
21.6858906120369
30
0
41
1
10
100.99334868292
20
21.7365711161678
30
0
41
1
10
100.963454743601
20
21.7492569271211
30
0
41
1
10
100.948991260399
20
21.7513146182191
30
0
41
1
10
100.941656229275
20
21.7515135141543
30
0
0
SPLINE
5
253
100
AcDbEntity
8
1
62
256
6
ByLayer
370
25
48
1
60
0
100
AcDbSpline
70
4
71
2
72
6
73
3
40
0
40
0
40
0
40
1
40
1
40
1
41
1
10
100.936106657944
20
21.8877551827705
30
0
41
1
10
100.942013971465
20
21.829380330863
30
0
41
1
10
100.941656227374
20
21.7515135135636
30
0
0
SPLINE
5
254
100
AcDbEntity
8
1
62
256
6
ByLayer
370
25
48
1
60
0
100
AcDbSpline
70
4
71
3
72
11
73
7
40
0
40
0
40
0
40
0
40
0.249999606962599
40
0.499999399850208
40
0.749999514092279
40
1
40
1
40
1
40
1
41
1
10
99.2923020701696
20
17.6089987541281
30
0
41
1
10
99.2689135358234
20
17.6179165072471
30
0
41
1
10
99.2230852405338
20
17.6348620420615
30
0
41
1
10
99.1552452664827
20
17.6582994085907
30
0
41
1
10
99.0941393375547
20
17.677688883811
30
0
41
1
10
99.0611341467576
20
17.68692634295
30
0
41
1
10
99.0462943476218
20
17.6907053787539
30
0
0
SPLINE
5
255
100
AcDbEntity
8
1
62
256
6
ByLayer
370
25
48
1
60
0
100
AcDbSpline
70
4
71
3
72
11
73
7
40
0
40
0
40
0
40
0
40
0.25000602531303
40
0.500009218413682
40
0.750007483681594
40
1
40
1
40
1
40
1
41
1
10
88.9514937526054
20
21.5563933730339
30
0
41
1
10
88.9749083277455
20
21.5473360458378
30
0
41
1
10
89.0192642769675
20
21.5296416322382
30
0
41
1
10
89.0801889264897
20
21.5036070928477
30
0
41
1
10
89.1300741434438
20
21.4803404153806
30
0
41
1
10
89.153416394034
20
21.4679146604072
30
0
41
1
10
89.1628218483721
20
21.4623697777063
30
0
0
SPLINE
5
256
100
AcDbEntity
8
1
62
256
6
ByLayer
370
25
48
1
60
0
100
AcDbSpline
70
4
71
2
72
6
73
3
40
0
40
0
40
0
40
1
40
1
40
1
41
1
10
102.041277481874
20
18.3809654791483
30
0
41
1
10
102.045815448829
20
18.2916476985328
30
0
41
1
10
102.048249992276
20
18.1975696394291
30
0
0
SPLINE
5
257
100
AcDbEntity
8
1
62
256
6
ByLayer
370
25
48
1
60
0
100
AcDbSpline
70
4
71
3
72
19
73
15
40
0
40
0
40
0
40
0
40
0.0162709888366329
40
0.0333108341126393
40
0.0730019514441095
40
0.18257640701417
40
0.330333452621482
40
0.49997979373919
40
0.669626134857601
40
0.817383180465464
40
0.92695763603426
40
0.966491494952037
40
0.983578442128429
40
1
40
1
40
1
40
1
41
1
10
100.941656229265
20
21.7515135141544
30
0
41
1
10
100.934388002828
20
21.7514649384449
30
0
41
1
10
100.91998589935
20
21.7497247903204
30
0
41
1
10
100.890002849664
20
21.7376350603756
30
0
41
1
10
100.834293260322
20
21.6884726942237
30
0
41
1
10
100.777160998624
20
21.5675523542247
30
0
41
1
10
100.734262276939
20
21.3845804832851
30
0
41
1
10
100.718371849498
20
21.169791430767
30
0
41
1
10
100.731767687483
20
20.9547259977486
30
0
41
1
10
100.772438513832
20
20.7707215753932
30
0
41
1
10
100.828303214868
20
20.6488619897623
30
0
41
1
10
100.883129389657
20
20.5981814856355
30
0
41
1
10
100.913023328977
20
20.585495674684
30
0
41
1
10
100.927486812181
20
20.5834379835862
30
0
41
1
10
100.934821843306
20
20.5832390876511
30
0
0
SPLINE
5
258
100
AcDbEntity
8
1
62
256
6
ByLayer
370
25
48
1
60
0
100
AcDbSpline
70
4
71
1
72
4
73
2
40
0
40
0
40
1
40
1
41
1
10
97.3321858632622
20
14.8259859829453
30
0
41
1
10
97.4419425218833
20
14.8164680829919
30
0
0
SPLINE
5
259
100
AcDbEntity
8
1
62
256
6
ByLayer
370
25
48
1
60
0
100
AcDbSpline
70
4
71
2
72
6
73
3
40
0
40
0
40
0
40
1
40
1
40
1
41
1
10
96.6378810593174
20
14.848678516401
30
0
41
1
10
97.0422940333102
20
14.8535682221839
30
0
41
1
10
97.441949042799
20
14.8165001808532
30
0
0
SPLINE
5
25A
100
AcDbEntity
8
1
62
256
6
ByLayer
370
25
48
1
60
0
100
AcDbSpline
70
4
71
3
72
11
73
7
40
0
40
0
40
0
40
0
40
0.266444477389707
40
0.531097369955741
40
0.783518603716398
40
1
40
1
40
1
40
1
41
1
10
95.1151984016048
20
14.7601706937296
30
0
41
1
10
95.2431206782908
20
14.8018004872884
30
0
41
1
10
95.5031427107065
20
14.8655137728633
30
0
41
1
10
95.9107144851124
20
14.9048195745581
30
0
41
1
10
96.2890587374371
20
14.8863799597511
30
0
41
1
10
96.5280523705402
20
14.8632865039521
30
0
41
1
10
96.6378551118798
20
14.8486698578986
30
0
0
SPLINE
5
25B
100
AcDbEntity
8
1
62
256
6
ByLayer
370
25
48
1
60
0
100
AcDbSpline
70
4
71
3
72
11
73
7
40
0
40
0
40
0
40
0
40
0.249993332827339
40
0.49999674384552
40
0.750000003201511
40
1
40
1
40
1
40
1
41
1
10
88.9644113887873
20
14.9188621653355
30
0
41
1
10
88.9752283159766
20
14.9955305561092
30
0
41
1
10
88.9942698832169
20
15.1629061279696
30
0
41
1
10
89.0155156134935
20
15.4614673239605
30
0
41
1
10
89.0280597832008
20
15.7913645512757
30
0
41
1
10
89.0302714837598
20
16.0193323029019
30
0
41
1
10
89.0298687440081
20
16.1363955915803
30
0
0
SPLINE
5
25C
100
AcDbEntity
8
1
62
256
6
ByLayer
370
25
48
1
60
0
100
AcDbSpline
70
4
71
2
72
6
73
3
40
0
40
0
40
0
40
1
40
1
40
1
41
1
10
89.4340483468986
20
21.3174727692707
30
0
41
1
10
90.4130321510951
20
20.9436694160226
30
0
41
1
10
91.3935978798589
20
20.5714519870876
30
0
0
SPLINE
5
25D
100
AcDbEntity
8
1
62
256
6
ByLayer
370
25
48
1
60
0
100
AcDbSpline
70
4
71
1
72
4
73
2
40
0
40
0
40
1
40
1
41
1
10
99.2522420001491
20
14.2821625743488
30
0
41
1
10
99.278100000217
20
14.9117329251966
30
0
0
SPLINE
5
25E
100
AcDbEntity
8
1
62
256
6
ByLayer
370
25
48
1
60
0
100
AcDbSpline
70
4
71
3
72
10
73
6
40
0
40
0
40
0
40
0
40
0.325034551193418
40
0.659531940046164
40
1
40
1
40
1
40
1
41
1
10
100.983242845296
20
14.4876428548691
30
0
41
1
10
100.913000461902
20
14.4463478803645
30
0
41
1
10
100.76616388401
20
14.375519209447
30
0
41
1
10
100.526106292665
20
14.3068895339649
30
0
41
1
10
100.360601925674
20
14.2896433540481
30
0
41
1
10
100.275512191793
20
14.2881482926352
30
0
0
SPLINE
5
25F
100
AcDbEntity
8
1
62
256
6
ByLayer
370
25
48
1
60
0
100
AcDbSpline
70
4
71
2
72
6
73
3
40
0
40
0
40
0
40
1
40
1
40
1
41
1
10
101.537722284943
20
15.07028385976
30
0
41
1
10
101.340762106487
20
14.7015831998152
30
0
41
1
10
100.983242845296
20
14.4876428548691
30
0
0
SPLINE
5
260
100
AcDbEntity
8
1
62
256
6
ByLayer
370
25
48
1
60
0
100
AcDbSpline
70
4
71
1
72
4
73
2
40
0
40
0
40
1
40
1
41
1
10
101.703221000174
20
15.380671770599
30
0
41
1
10
101.537722285208
20
15.0702838596131
30
0
0
SPLINE
5
261
100
AcDbEntity
8
1
62
256
6
ByLayer
370
25
48
1
60
0
100
AcDbSpline
70
4
71
3
72
10
73
6
40
0
40
0
40
0
40
0
40
0.307414144422959
40
0.642515280506511
40
1
40
1
40
1
40
1
41
1
10
100.275512168977
20
14.2881533544852
30
0
41
1
10
100.170972415948
20
14.2883086396452
30
0
41
1
10
99.9522674337299
20
14.28811049577
30
0
41
1
10
99.6107671399064
20
14.2847935433436
30
0
41
1
10
99.3743507572513
20
14.2830995651353
30
0
41
1
10
99.252268417722
20
14.2821384010598
30
0
0
SPLINE
5
262
100
AcDbEntity
8
1
62
256
6
ByLayer
370
25
48
1
60
0
100
AcDbSpline
70
4
71
3
72
15
73
11
40
0
40
0
40
0
40
0
40
0.249794093845513
40
0.499703537498285
40
0.587214609985738
40
0.674745409329458
40
0.770691502505222
40
0.892159094472915
40
0.970498072622964
40
1
40
1
40
1
40
1
41
1
10
95.2593244967753
20
14.7347104900302
30
0
41
1
10
95.3658851800001
20
14.7672634234641
30
0
41
1
10
95.5827911541597
20
14.8173885239267
30
0
41
1
10
95.8523277507288
20
14.836532095189
30
0
41
1
10
96.0459458239005
20
14.8375641184126
30
0
41
1
10
96.1694221518647
20
14.8365616260806
30
0
41
1
10
96.3080886829459
20
14.8328273050475
30
0
41
1
10
96.4422603974993
20
14.8275276907439
30
0
41
1
10
96.5460258874025
20
14.8224348155216
30
0
41
1
10
96.5947635269388
20
14.8199289065121
30
0
41
1
10
96.6080918449336
20
14.8192307004048
30
0
0
SPLINE
5
263
100
AcDbEntity
8
1
62
256
6
ByLayer
370
25
48
1
60
0
100
AcDbSpline
70
4
71
2
72
6
73
3
40
0
40
0
40
0
40
1
40
1
40
1
41
1
10
97.9606141700866
20
14.4009180082217
30
0
41
1
10
97.2849887986007
20
14.6114427030702
30
0
41
1
10
96.6080888867866
20
14.8192073785909
30
0
0
SPLINE
5
264
100
AcDbEntity
8
1
62
256
6
ByLayer
370
25
48
1
60
0
100
AcDbSpline
70
4
71
3
72
11
73
7
40
0
40
0
40
0
40
0
40
0.261469256542163
40
0.513635646091769
40
0.769805796280609
40
1
40
1
40
1
40
1
41
1
10
98.4891724423101
20
14.4039492195593
30
0
41
1
10
98.3878578663622
20
14.4747328779194
30
0
41
1
10
98.1826773707844
20
14.6020767126187
30
0
41
1
10
97.8564432905069
20
14.7603536403338
30
0
41
1
10
97.5274106237245
20
14.875837748959
30
0
41
1
10
97.3021263363818
20
14.9056750920885
30
0
41
1
10
97.193457052346
20
14.9112452599848
30
0
0
SPLINE
5
265
100
AcDbEntity
8
1
62
256
6
ByLayer
370
25
48
1
60
0
100
AcDbSpline
70
4
71
1
72
4
73
2
40
0
40
0
40
1
40
1
41
1
10
99.252240629449
20
14.2820448975246
30
0
41
1
10
99.1466163620121
20
14.2812782136824
30
0
0
SPLINE
5
266
100
AcDbEntity
8
1
62
256
6
ByLayer
370
25
48
1
60
0
100
AcDbSpline
70
4
71
1
72
4
73
2
40
0
40
0
40
1
40
1
41
1
10
97.4419458568118
20
14.8165010785389
30
0
41
1
10
97.1934999702406
20
14.911365189933
30
0
0
SPLINE
5
267
100
AcDbEntity
8
1
62
256
6
ByLayer
370
25
48
1
60
0
100
AcDbSpline
70
4
71
3
72
18
73
14
40
0
40
0
40
0
40
0
40
0.204661343899736
40
0.261831887910972
40
0.319303922302667
40
0.341425825110644
40
0.356298624988839
40
0.371305515698972
40
0.384031641383444
40
0.404838042803537
40
0.456349665416153
40
0.642522104769026
40
1
40
1
40
1
40
1
41
1
10
96.608089512869
20
14.8192092825525
30
0
41
1
10
96.601471110471
20
14.8209059877237
30
0
41
1
10
96.5934450136388
20
14.8239838791
30
0
41
1
10
96.5841648020776
20
14.8288043348588
30
0
41
1
10
96.5804740594389
20
14.8314337617528
30
0
41
1
10
96.578615469171
20
14.833907748293
30
0
41
1
10
96.5780606386655
20
14.8355159794825
30
0
41
1
10
96.5781450637155
20
14.8369238244783
30
0
41
1
10
96.5788285758423
20
14.8383650692729
30
0
41
1
10
96.5808040062251
20
14.8403842670523
30
0
41
1
10
96.5885827751123
20
14.8441701195509
30
0
41
1
10
96.6081988184252
20
14.8473174072451
30
0
41
1
10
96.6259093643676
20
14.8491176646133
30
0
41
1
10
96.6378811401394
20
14.8486718754378
30
0
0
SPLINE
5
268
100
AcDbEntity
8
1
62
256
6
ByLayer
370
25
48
1
60
0
100
AcDbSpline
70
4
71
3
72
11
73
7
40
0
40
0
40
0
40
0
40
0.261500736047958
40
0.52149134124671
40
0.775377129482079
40
1
40
1
40
1
40
1
41
1
10
92.9209465695178
20
24.4107724354766
30
0
41
1
10
92.8213520278851
20
24.3805137045383
30
0
41
1
10
92.6144761412536
20
24.3347453028473
30
0
41
1
10
92.2726664361039
20
24.3185700215751
30
0
41
1
10
91.9424192781486
20
24.327417881688
30
0
41
1
10
91.7267876973218
20
24.3367137423173
30
0
41
1
10
91.6251115852899
20
24.34270820744
30
0
0
SPLINE
5
269
100
AcDbEntity
8
1
62
256
6
ByLayer
370
25
48
1
60
0
100
AcDbSpline
70
4
71
1
72
4
73
2
40
0
40
0
40
1
40
1
41
1
10
89.8519783752662
20
24.8963638568838
30
0
41
1
10
91.6251081914886
20
24.3427335234813
30
0
0
SPLINE
5
26A
100
AcDbEntity
8
1
62
256
6
ByLayer
370
25
48
1
60
0
100
AcDbSpline
70
4
71
3
72
12
73
8
40
0
40
0
40
0
40
0
40
0.173069520369267
40
0.336841607481314
40
0.500038912727156
40
0.745843059705402
40
1
40
1
40
1
40
1
41
1
10
89.8520475182043
20
24.8963719997759
30
0
41
1
10
89.9591208587439
20
24.8945522055064
30
0
41
1
10
90.1667912559687
20
24.8926726145713
30
0
41
1
10
90.4737784661654
20
24.8939045221574
30
0
41
1
10
90.8212760078643
20
24.902440370989
30
0
41
1
10
91.2127035980865
20
24.9262267002623
30
0
41
1
10
91.490682011299
20
24.9556290296224
30
0
41
1
10
91.6281708325404
20
24.9736542515505
30
0
0
SPLINE
5
26B
100
AcDbEntity
8
1
62
256
6
ByLayer
370
25
48
1
60
0
100
AcDbSpline
70
4
71
3
72
18
73
14
40
0
40
0
40
0
40
0
40
0.2046743441067
40
0.261848518790453
40
0.319324202987772
40
0.341447510945578
40
0.356321255441803
40
0.371329099293281
40
0.384056033142067
40
0.404863755603686
40
0.456378648556512
40
0.642562907780509
40
1
40
1
40
1
40
1
41
1
10
91.6251131862961
20
24.3427299465058
30
0
41
1
10
91.6316724639707
20
24.3410148680439
30
0
41
1
10
91.63969949126
20
24.3379372658462
30
0
41
1
10
91.6490707043343
20
24.3331450893241
30
0
41
1
10
91.6528482491379
20
24.3305426367001
30
0
41
1
10
91.6548316341287
20
24.3281074307887
30
0
41
1
10
91.6554848749697
20
24.3265297811124
30
0
41
1
10
91.6555015567076
20
24.325153355561
30
0
41
1
10
91.6549370708727
20
24.3237490987935
30
0
41
1
10
91.6531546339409
20
24.3217898747037
30
0
41
1
10
91.645841457342
20
24.3181487075008
30
0
41
1
10
91.6269411125769
20
24.3152235078941
30
0
41
1
10
91.6097924187583
20
24.3135973172123
30
0
41
1
10
91.5980786690917
20
24.3141222955507
30
0
0
SPLINE
5
26C
100
AcDbEntity
8
1
62
256
6
ByLayer
370
25
48
1
60
0
100
AcDbSpline
70
4
71
1
72
4
73
2
40
0
40
0
40
1
40
1
41
1
10
90.8491489023338
20
24.345396357218
30
0
41
1
10
91.0877284363739
20
24.2543039169728
30
0
0
SPLINE
5
26D
100
AcDbEntity
8
1
62
256
6
ByLayer
370
25
48
1
60
0
100
AcDbSpline
70
4
71
1
72
4
73
2
40
0
40
0
40
1
40
1
41
1
10
91.0516894132042
20
24.2543806333881
30
0
41
1
10
91.087790255139
20
24.2542711898769
30
0
0
SPLINE
5
26E
100
AcDbEntity
8
1
62
256
6
ByLayer
370
25
48
1
60
0
100
AcDbSpline
70
4
71
3
72
11
73
7
40
0
40
0
40
0
40
0
40
0.365740899833161
40
0.583332872012175
40
0.804395136667703
40
1
40
1
40
1
40
1
41
1
10
89.5797130214312
20
24.8912409810005
30
0
41
1
10
89.7371499620307
20
24.7667448202895
30
0
41
1
10
90.0013146766584
20
24.5923829518465
30
0
41
1
10
90.3937307860392
20
24.4016723680769
30
0
41
1
10
90.7211173627277
20
24.28842114748
30
0
41
1
10
90.9447039514206
20
24.2595701313391
30
0
41
1
10
91.0517496047772
20
24.25435406595
30
0
0
SPLINE
5
26F
100
AcDbEntity
8
1
62
256
6
ByLayer
370
25
48
1
60
0
100
AcDbSpline
70
4
71
2
72
6
73
3
40
0
40
0
40
0
40
1
40
1
40
1
41
1
10
89.8519489460918
20
24.8963736777774
30
0
41
1
10
89.7164049031618
20
24.8928936102002
30
0
41
1
10
89.5797249375582
20
24.8912617400458
30
0
0
SPLINE
5
270
100
AcDbEntity
8
1
62
256
6
ByLayer
370
25
48
1
60
0
100
AcDbSpline
70
4
71
3
72
19
73
15
40
0
40
0
40
0
40
0
40
0.594376115289183
40
0.889866333278437
40
0.963597929541077
40
0.972810615120429
40
0.977416637456566
40
0.979719569997317
40
0.979791535803596
40
0.979827640309453
40
0.979846316097766
40
0.979855836381317
40
0.985504352658858
40
1
40
1
40
1
40
1
41
1
10
85.2064315529171
20
18.8760803738318
30
0
41
1
10
85.3926524704211
20
18.9079641333601
30
0
41
1
10
85.6735617292055
20
18.9314912803294
30
0
41
1
10
85.9853200182443
20
18.9243456291103
30
0
41
1
10
86.1062762933711
20
18.9118943888455
30
0
41
1
10
86.134180434986
20
18.9085260979731
30
0
41
1
10
86.1393159402195
20
18.9078901797393
30
0
41
1
10
86.1415390995489
20
18.9076114770771
30
0
41
1
10
86.1423068380746
20
18.9075148074489
30
0
41
1
10
86.1423471981167
20
18.9075097263715
30
0
41
1
10
86.1423676729853
20
18.9075071456621
30
0
41
1
10
86.1441755920572
20
18.90728119974
30
0
41
1
10
86.1505938513673
20
18.9064805550811
30
0
41
1
10
86.157008403986
20
18.9056887775687
30
0
41
1
10
86.1616238986067
20
18.9051230634884
30
0
0
SPLINE
5
271
100
AcDbEntity
8
1
62
256
6
ByLayer
370
25
48
1
60
0
100
AcDbSpline
70
4
71
2
72
6
73
3
40
0
40
0
40
0
40
1
40
1
40
1
41
1
10
88.9941882270841
20
24.2623549565171
30
0
41
1
10
90.0181647649588
20
24.2572958174056
30
0
41
1
10
91.0517496047078
20
24.2543540684397
30
0
0
SPLINE
5
272
100
AcDbEntity
8
1
62
256
6
ByLayer
370
25
48
1
60
0
100
AcDbSpline
70
4
71
1
72
4
73
2
40
0
40
0
40
1
40
1
41
1
10
88.9958039490712
20
24.8843892673135
30
0
41
1
10
88.994199535017
20
24.2623558368931
30
0
0
SPLINE
5
273
100
AcDbEntity
8
1
62
256
6
ByLayer
370
25
48
1
60
0
100
AcDbSpline
70
4
71
3
72
11
73
7
40
0
40
0
40
0
40
0
40
0.338439570947866
40
0.500003358542221
40
0.74976324691822
40
1
40
1
40
1
40
1
41
1
10
88.9958007914087
20
24.8845055369269
30
0
41
1
10
89.0618784894635
20
24.8849154700022
30
0
41
1
10
89.1594407781336
20
24.8856200061602
30
0
41
1
10
89.3057687008574
20
24.8865371002477
30
0
41
1
10
89.4344196558542
20
24.8883106658222
30
0
41
1
10
89.5313195302036
20
24.8901705936773
30
0
41
1
10
89.5797246689454
20
24.8912621448072
30
0
0
SPLINE
5
274
100
AcDbEntity
8
1
62
256
6
ByLayer
370
25
48
1
60
0
100
AcDbSpline
70
4
71
3
72
27
73
23
40
0
40
0
40
0
40
0
40
0.435513750555713
40
0.590159308352798
40
0.75147157993351
40
0.920873792116435
40
0.920896698240563
40
0.920899105254611
40
0.920903307985978
40
0.920912859668375
40
0.920931963117196
40
0.920970170351039
40
0.921046586163033
40
0.921199423160888
40
0.921505118625066
40
0.922116595212377
40
0.923339889338448
40
0.925787828450022
40
0.93068901480839
40
0.940511983947875
40
0.960237041404076
40
1
40
1
40
1
40
1
41
1
10
86.2232246317562
20
20.9782038317218
30
0
41
1
10
86.3100069285124
20
20.9874358718158
30
0
41
1
10
86.427254012997
20
20.9881536953637
30
0
41
1
10
86.5760519450973
20
20.9715485011218
30
0
41
1
10
86.6718061433133
20
20.950055262114
30
0
41
1
10
86.73627288346
20
20.9276219458506
30
0
41
1
10
86.7687915808059
20
20.9142395848459
30
0
41
1
10
86.7688008323089
20
20.9142357862462
30
0
41
1
10
86.7688100856924
20
20.9142319921965
30
0
41
1
10
86.7688193418543
20
20.9142282049191
30
0
41
1
10
86.7688285979719
20
20.9142244175338
30
0
41
1
10
86.7688542881044
20
20.9142139052576
30
0
41
1
10
86.7689056692384
20
20.9141928780055
30
0
41
1
10
86.7690084350592
20
20.9141508129759
30
0
41
1
10
86.7692139808053
20
20.9140666406592
30
0
41
1
10
86.7696251283692
20
20.9138981274103
30
0
41
1
10
86.7704476448348
20
20.913560428421
30
0
41
1
10
86.7720935406737
20
20.9128823577202
30
0
41
1
10
86.7753886381548
20
20.9115156333132
30
0
41
1
10
86.7819911593488
20
20.908740715442
30
0
41
1
10
86.7952439476996
20
20.9030272104052
30
0
41
1
10
86.8065588893776
20
20.8979157232031
30
0
41
1
10
86.814095992374
20
20.8944043336808
30
0
0
SPLINE
5
275
100
AcDbEntity
8
1
62
256
6
ByLayer
370
25
48
1
60
0
100
AcDbSpline
70
4
71
3
72
11
73
7
40
0
40
0
40
0
40
0
40
0.1154293784324
40
0.231537466538025
40
0.472415256526324
40
1
40
1
40
1
40
1
41
1
10
85.7627045846643
20
21.0657091727745
30
0
41
1
10
85.7762053024714
20
21.0520514193116
30
0
41
1
10
85.8053191846335
20
21.0278991828022
30
0
41
1
10
85.8748367875069
20
20.9913204484816
30
0
41
1
10
86.0186937763839
20
20.9644622704669
30
0
41
1
10
86.1392075264346
20
20.9628051074342
30
0
41
1
10
86.2232246317562
20
20.9782038317218
30
0
0
SPLINE
5
276
100
AcDbEntity
8
1
62
256
6
ByLayer
370
25
48
1
60
0
100
AcDbSpline
70
4
71
3
72
11
73
7
40
0
40
0
40
0
40
0
40
0.166176033392612
40
0.330818509854454
40
0.498302720314975
40
1
40
1
40
1
40
1
41
1
10
87.0742108402807
20
23.5088605348063
30
0
41
1
10
87.0015632833602
20
23.3735318407537
30
0
41
1
10
86.8569406114439
20
23.1041222178526
30
0
41
1
10
86.6391149942276
20
22.6983095644753
30
0
41
1
10
86.2745994887567
20
22.0192633607364
30
0
41
1
10
85.9820679812395
20
21.4742935708829
30
0
41
1
10
85.7627518473818
20
21.0657201063288
30
0
0
SPLINE
5
277
100
AcDbEntity
8
1
62
256
6
ByLayer
370
25
48
1
60
0
100
AcDbSpline
70
4
71
3
72
15
73
11
40
0
40
0
40
0
40
0
40
0.148033963960666
40
0.299230643805242
40
0.37097807275719
40
0.466997370138552
40
0.647543192722629
40
0.830202748509916
40
0.927562976751687
40
1
40
1
40
1
40
1
41
1
10
88.9940218184847
20
24.2621267740385
30
0
41
1
10
88.8863856214397
20
24.2625431420152
30
0
41
1
10
88.6684470223008
20
24.2611114655566
30
0
41
1
10
88.3967798539708
20
24.2698873732706
30
0
41
1
10
88.1633170309322
20
24.2531845491069
30
0
41
1
10
87.9114783769758
20
24.2091079271591
30
0
41
1
10
87.5944772373613
20
24.0818783710452
30
0
41
1
10
87.3304994569394
20
23.8628566170895
30
0
41
1
10
87.1693112351092
20
23.6594732968296
30
0
41
1
10
87.1013647433587
20
23.554894872346
30
0
41
1
10
87.074291918416
20
23.5088245142527
30
0
0
SPLINE
5
278
100
AcDbEntity
8
1
62
256
6
ByLayer
370
25
48
1
60
0
100
AcDbSpline
70
4
71
1
72
4
73
2
40
0
40
0
40
1
40
1
41
1
10
91.0877262332623
20
24.2542907016827
30
0
41
1
10
91.135608984624
20
24.2542115602934
30
0
0
SPLINE
5
279
100
AcDbEntity
8
1
62
256
6
ByLayer
370
25
48
1
60
0
100
AcDbSpline
70
4
71
3
72
10
73
6
40
0
40
0
40
0
40
0
40
0.366220242782534
40
0.743164862669047
40
1
40
1
40
1
40
1
41
1
10
85.1946081699563
20
21.234069393428
30
0
41
1
10
85.1686503751974
20
21.1537113815496
30
0
41
1
10
85.1085051294141
20
20.9882881629646
30
0
41
1
10
85.0053720588134
20
20.7553644809691
30
0
41
1
10
84.9309084435372
20
20.6084270262474
30
0
41
1
10
84.8990605151626
20
20.5486101189046
30
0
0
SPLINE
5
27A
100
AcDbEntity
8
1
62
256
6
ByLayer
370
25
48
1
60
0
100
AcDbSpline
70
4
71
1
72
4
73
2
40
0
40
0
40
1
40
1
41
1
10
85.1946022565861
20
21.2340718851214
30
0
41
1
10
85.6599743137865
20
20.9466555739405
30
0
0
SPLINE
5
27B
100
AcDbEntity
8
1
62
256
6
ByLayer
370
25
48
1
60
0
100
AcDbSpline
70
4
71
3
72
10
73
6
40
0
40
0
40
0
40
0
40
0.261798199575634
40
0.51763700861548
40
1
40
1
40
1
40
1
41
1
10
85.6601073593572
20
20.9465387261092
30
0
41
1
10
85.7047075113737
20
20.9145526778336
30
0
41
1
10
85.7965043941803
20
20.8615415864073
30
0
41
1
10
85.9951043075477
20
20.8053626110154
30
0
41
1
10
86.1403337007244
20
20.7898234374466
30
0
41
1
10
86.23725384014
20
20.7932405820344
30
0
0
SPLINE
5
27C
100
AcDbEntity
8
1
62
256
6
ByLayer
370
25
48
1
60
0
100
AcDbSpline
70
4
71
3
72
17
73
13
40
0
40
0
40
0
40
0
40
0.508209933925588
40
0.943803685298939
40
0.944539060521266
40
0.944906529097863
40
0.944998373413833
40
0.945046580714291
40
0.94508304344748
40
0.945101328582769
40
0.97289003412324
40
1
40
1
40
1
40
1
41
1
10
86.23725384014
20
20.7932405820344
30
0
41
1
10
86.3217820368474
20
20.7976687036367
30
0
41
1
10
86.4769756253306
20
20.7871746403328
30
0
41
1
10
86.6367402164266
20
20.7708317653572
30
0
41
1
10
86.7062992150897
20
20.7424342085078
30
0
41
1
10
86.7064894531114
20
20.7423563443084
30
0
41
1
10
86.7065702642291
20
20.7423232507093
30
0
41
1
10
86.7065983658891
20
20.7423117259045
30
0
41
1
10
86.7066147629685
20
20.7423050263264
30
0
41
1
10
86.7110539119706
20
20.7405103929221
30
0
41
1
10
86.7197579855324
20
20.736782712039
30
0
41
1
10
86.7283192594617
20
20.7326875632596
30
0
41
1
10
86.7325159973569
20
20.7305751943212
30
0
0
SPLINE
5
27D
100
AcDbEntity
8
1
62
256
6
ByLayer
370
25
48
1
60
0
100
AcDbSpline
70
4
71
3
72
18
73
14
40
0
40
0
40
0
40
0
40
0.128439307360334
40
0.259359650132882
40
0.324357954713353
40
0.388948505619691
40
0.453370423297868
40
0.517705329781625
40
0.582288649350882
40
0.647229420794935
40
0.778153047160324
40
0.911377387619551
40
1
40
1
40
1
40
1
41
1
10
86.7422429937158
20
20.7253739944696
30
0
41
1
10
86.8498332372842
20
20.670291462745
30
0
41
1
10
87.0404648508284
20
20.5342704047986
30
0
41
1
10
87.2296136268174
20
20.2957969532443
30
0
41
1
10
87.3191145845725
20
20.0731982235116
30
0
41
1
10
87.3502099201924
20
19.8967194187595
30
0
41
1
10
87.3408834110519
20
19.7183495663877
30
0
41
1
10
87.2896515865015
20
19.5474448134912
30
0
41
1
10
87.198709291006
20
19.3939862833304
30
0
41
1
10
87.0334790633516
20
19.2218078886236
30
0
41
1
10
86.7614093423682
20
19.0799062696595
30
0
41
1
10
86.4375262601287
20
19.0401584333609
30
0
41
1
10
86.2382268838351
20
19.0621095209148
30
0
41
1
10
86.1580289223252
20
19.0791128233698
30
0
0
SPLINE
5
27E
100
AcDbEntity
8
1
62
256
6
ByLayer
370
25
48
1
60
0
100
AcDbSpline
70
4
71
1
72
4
73
2
40
0
40
0
40
1
40
1
41
1
10
86.1580289223252
20
19.0791128233698
30
0
41
1
10
86.0294388966652
20
19.10880659223
30
0
0
SPLINE
5
27F
100
AcDbEntity
8
1
62
256
6
ByLayer
370
25
48
1
60
0
100
AcDbSpline
70
4
71
2
72
6
73
3
40
0
40
0
40
0
40
1
40
1
40
1
41
1
10
85.7096183331042
20
19.1253095073071
30
0
41
1
10
85.8699073595388
20
19.1238769379446
30
0
41
1
10
86.0294405483786
20
19.1088234718938
30
0
0
SPLINE
5
280
100
AcDbEntity
8
1
62
256
6
ByLayer
370
25
48
1
60
0
100
AcDbSpline
70
4
71
2
72
6
73
3
40
0
40
0
40
0
40
1
40
1
40
1
41
1
10
85.0578869639423
20
19.0919089989921
30
0
41
1
10
85.377795220071
20
19.1262804991596
30
0
41
1
10
85.7096183290699
20
19.1253095490876
30
0
0
SPLINE
5
281
100
AcDbEntity
8
1
62
256
6
ByLayer
370
25
48
1
60
0
100
AcDbSpline
70
4
71
2
72
6
73
3
40
0
40
0
40
0
40
1
40
1
40
1
41
1
10
84.7542898022548
20
20.2027211738204
30
0
41
1
10
84.6061634132334
20
19.7544316627221
30
0
41
1
10
84.424320475134
20
19.4042323550294
30
0
0
SPLINE
5
282
100
AcDbEntity
8
1
62
256
6
ByLayer
370
25
48
1
60
0
100
AcDbSpline
70
4
71
3
72
10
73
6
40
0
40
0
40
0
40
0
40
0.250591184603177
40
0.500059856542692
40
1
40
1
40
1
40
1
41
1
10
84.8990602020331
20
20.5486095512527
30
0
41
1
10
84.8848129829965
20
20.520778165889
30
0
41
1
10
84.8574671986094
20
20.4646738517415
30
0
41
1
10
84.8071950974666
20
20.349817480785
30
0
41
1
10
84.774194015154
20
20.2621097107711
30
0
41
1
10
84.7542898022548
20
20.2027211738204
30
0
0
SPLINE
5
283
100
AcDbEntity
8
1
62
256
6
ByLayer
370
25
48
1
60
0
100
AcDbSpline
70
4
71
1
72
4
73
2
40
0
40
0
40
1
40
1
41
1
10
86.5471571530742
20
23.7866048148668
30
0
41
1
10
86.7112098173847
20
24.0965433585422
30
0
0
SPLINE
5
284
100
AcDbEntity
8
1
62
256
6
ByLayer
370
25
48
1
60
0
100
AcDbSpline
70
4
71
2
72
6
73
3
40
0
40
0
40
0
40
1
40
1
40
1
41
1
10
86.7112098176641
20
24.0965433583995
30
0
41
1
10
86.9049013814119
20
24.4642282803441
30
0
41
1
10
87.2621558696048
20
24.6780863457864
30
0
0
SPLINE
5
285
100
AcDbEntity
8
1
62
256
6
ByLayer
370
25
48
1
60
0
100
AcDbSpline
70
4
71
3
72
10
73
6
40
0
40
0
40
0
40
0
40
0.325034472058383
40
0.659531779499591
40
1
40
1
40
1
40
1
41
1
10
87.2621558696048
20
24.6780863457864
30
0
41
1
10
87.3323568014194
20
24.719368439037
30
0
41
1
10
87.4793017385604
20
24.7902307831488
30
0
41
1
10
87.7201271571674
20
24.8590990630969
30
0
41
1
10
87.8865434168233
20
24.876628594894
30
0
41
1
10
87.9721952738438
20
24.8782983099924
30
0
0
SPLINE
5
286
100
AcDbEntity
8
1
62
256
6
ByLayer
370
25
48
1
60
0
100
AcDbSpline
70
4
71
3
72
10
73
6
40
0
40
0
40
0
40
0
40
0.307414134666977
40
0.642515280128215
40
1
40
1
40
1
40
1
41
1
10
87.9721954303037
20
24.8782932854158
30
0
41
1
10
88.0773883171027
20
24.8783409723122
30
0
41
1
10
88.2970476637114
20
24.8788357028252
30
0
41
1
10
88.637873627006
20
24.8819431221963
30
0
41
1
10
88.8740044305236
20
24.8835483673161
30
0
41
1
10
88.9958318754325
20
24.8844303282458
30
0
0
SPLINE
5
287
100
AcDbEntity
8
1
62
256
6
ByLayer
370
25
48
1
60
0
100
AcDbSpline
70
4
71
1
72
4
73
2
40
0
40
0
40
1
40
1
41
1
10
85.2673566761679
20
21.4025503041486
30
0
41
1
10
85.7627490812163
20
21.0657554459574
30
0
0
SPLINE
5
288
100
AcDbEntity
8
1
62
256
6
ByLayer
370
25
48
1
60
0
100
AcDbSpline
70
4
71
1
72
4
73
2
40
0
40
0
40
1
40
1
41
1
10
85.2673572863577
20
21.402551315041
30
0
41
1
10
86.5471571530796
20
23.7866048148749
30
0
0
SPLINE
5
289
100
AcDbEntity
8
1
62
256
6
ByLayer
370
25
48
1
60
0
100
AcDbSpline
70
4
71
2
72
6
73
3
40
0
40
0
40
0
40
1
40
1
40
1
41
1
10
86.7324555710178
20
20.7306056631105
30
0
41
1
10
86.7675401245975
20
20.8064420264138
30
0
41
1
10
86.8139815130872
20
20.8941874618924
30
0
0
SPLINE
5
28A
100
AcDbEntity
8
1
62
256
6
ByLayer
370
25
48
1
60
0
100
AcDbSpline
70
4
71
3
72
57
73
53
40
0
40
0
40
0
40
0
40
0.0013818801436439
40
0.0090870332906626
40
0.0174258302347617
40
0.0225721340178068
40
0.0253905468654014
40
0.0261207343035003
40
0.0261469185282999
40
0.0261706291931484
40
0.0262174334106863
40
0.0266663814150171
40
0.0270076933751916
40
0.0276182349530193
40
0.0287118616011967
40
0.0306755624669319
40
0.146363795576217
40
0.302287779466636
40
0.50167839380496
40
0.750241157785229
40
0.80906032476067
40
0.840979507449586
40
0.857570119597018
40
0.866023639043898
40
0.870290009802149
40
0.8724331051794
40
0.873507131274321
40
0.87404476403682
40
0.874313735360988
40
0.874448259760575
40
0.874515531645001
40
0.874582809985867
40
0.876609151671516
40
0.892526100452941
40
0.936759145186332
40
0.967797016925059
40
0.9782485855517
40
0.981403877871771
40
0.982488344620643
40
0.983274689639725
40
0.98513977294758
40
0.987124577915416
40
0.992050452882712
40
0.997033361560466
40
0.997888779821083
40
0.998003674825428
40
0.998083982558742
40
0.998141219219653
40
0.998201891237615
40
0.998289439164236
40
0.998776584166846
40
1
40
1
40
1
40
1
41
1
10
86.1459330078018
20
18.9265954803613
30
0
41
1
10
86.1458731336729
20
18.9266806341616
30
0
41
1
10
86.1455024063976
20
18.9272500267277
30
0
41
1
10
86.1453265812512
20
18.928591517107
30
0
41
1
10
86.1451147106778
20
18.9301474813635
30
0
41
1
10
86.1450030645784
20
18.9313551705979
30
0
41
1
10
86.1449734011365
20
18.9320189310838
30
0
41
1
10
86.1449392230404
20
18.9322714573562
30
0
41
1
10
86.1449440997621
20
18.9323359143102
30
0
41
1
10
86.1449336260016
20
18.9323391552004
30
0
41
1
10
86.1448977603841
20
18.9323477207048
30
0
41
1
10
86.1448516801365
20
18.9323971844347
30
0
41
1
10
86.1447659639622
20
18.9324546787179
30
0
41
1
10
86.1446438497261
20
18.9325473429027
30
0
41
1
10
86.1444235305649
20
18.9327088813014
30
0
41
1
10
86.1373348718867
20
18.9380275893286
30
0
41
1
10
86.1230187218372
20
18.9528157830869
30
0
41
1
10
86.1022382249934
20
18.98103748015
30
0
41
1
10
86.0783729824773
20
19.0187344486989
30
0
41
1
10
86.0601465243708
20
19.0507185372272
30
0
41
1
10
86.0487436560701
20
19.0719875524309
30
0
41
1
10
86.0451989189476
20
19.0786917869194
30
0
41
1
10
86.0433305362161
20
19.0822400494441
30
0
41
1
10
86.042372377858
20
19.0840629875456
30
0
41
1
10
86.0418872791499
20
19.0849866076787
30
0
41
1
10
86.0416432239247
20
19.085451450474
30
0
41
1
10
86.0415208196956
20
19.0856846293637
30
0
41
1
10
86.0414595230913
20
19.0858014079564
30
0
41
1
10
86.0414288516023
20
19.085859844724
30
0
41
1
10
86.0414135094383
20
19.085889074697
30
0
41
1
10
86.0414047414472
20
19.0859057816978
30
0
41
1
10
86.0413343025514
20
19.0860399400219
30
0
41
1
10
86.040760145394
20
19.0871636573238
30
0
41
1
10
86.0387888033789
20
19.0910421641311
30
0
41
1
10
86.0359586109429
20
19.0967079628165
30
0
41
1
10
86.0330853767899
20
19.101945032336
30
0
41
1
10
86.0322374982302
20
19.1048758527073
30
0
41
1
10
86.0320802662018
20
19.1058594546277
30
0
41
1
10
86.0320843884372
20
19.1062005134753
30
0
41
1
10
86.0321545130562
20
19.1064472623664
30
0
41
1
10
86.0323681733499
20
19.1067068243198
30
0
41
1
10
86.0328955164972
20
19.1070667902432
30
0
41
1
10
86.033791944597
20
19.1072801523244
30
0
41
1
10
86.034589160756
20
19.1072408036955
30
0
41
1
10
86.0350406469098
20
19.1072390083472
30
0
41
1
10
86.0351161149825
20
19.1072592296996
30
0
41
1
10
86.0351331344374
20
19.1072673124697
30
0
41
1
10
86.035141404437
20
19.1072799085881
30
0
41
1
10
86.0351357484143
20
19.1072940614982
30
0
41
1
10
86.0351021107133
20
19.1073244284248
30
0
41
1
10
86.0349771013423
20
19.1073757041964
30
0
41
1
10
86.0348621970286
20
19.1074214553985
30
0
41
1
10
86.0347720440341
20
19.107441842524
30
0
0
SPLINE
5
28B
100
AcDbEntity
8
1
62
256
6
ByLayer
370
25
48
1
60
0
100
AcDbSpline
70
4
71
2
72
6
73
3
40
0
40
0
40
0
40
1
40
1
40
1
41
1
10
87.89943191257
20
17.9958091987208
30
0
41
1
10
87.9768070963283
20
17.9949246927435
30
0
41
1
10
88.0304625658245
20
17.9923124099111
30
0
0
SPLINE
5
28C
100
AcDbEntity
8
1
62
256
6
ByLayer
370
25
48
1
60
0
100
AcDbSpline
70
4
71
3
72
13
73
9
40
0
40
0
40
0
40
0
40
0.0534848202386257
40
0.109775861735213
40
0.243518807595748
40
0.359211738299623
40
0.495110822446384
40
1
40
1
40
1
40
1
41
1
10
87.8994320298051
20
17.9958092354205
30
0
41
1
10
87.8992409025656
20
18.0041794398181
30
0
41
1
10
87.8968617033723
20
18.0207071557294
30
0
41
1
10
87.8811957513115
20
18.0550775568126
30
0
41
1
10
87.8475528481547
20
18.0889192041257
30
0
41
1
10
87.7983752772116
20
18.1209662305908
30
0
41
1
10
87.6936392796421
20
18.169424122006
30
0
41
1
10
87.6001240580132
20
18.1945751748309
30
0
41
1
10
87.5220648979833
20
18.2028626247726
30
0
0
SPLINE
5
28D
100
AcDbEntity
8
1
62
256
6
ByLayer
370
25
48
1
60
0
100
AcDbSpline
70
4
71
3
72
10
73
6
40
0
40
0
40
0
40
0
40
0.241466349592028
40
0.500242055694995
40
1
40
1
40
1
40
1
41
1
10
87.6353533371673
20
18.3193448831631
30
0
41
1
10
87.6279533695658
20
18.3113109433687
30
0
41
1
10
87.6116998216599
20
18.2939253037169
30
0
41
1
10
87.5745556657822
20
18.2552375230965
30
0
41
1
10
87.543828038843
20
18.2242723210592
30
0
41
1
10
87.5221661503569
20
18.2028473587646
30
0
0
SPLINE
5
28E
100
AcDbEntity
8
1
62
256
6
ByLayer
370
25
48
1
60
0
100
AcDbSpline
70
4
71
2
72
6
73
3
40
0
40
0
40
0
40
1
40
1
40
1
41
1
10
87.63157897312
20
17.6740227902072
30
0
41
1
10
87.5844197120262
20
17.731119390863
30
0
41
1
10
87.5198544231182
20
17.79712092568
30
0
0
SPLINE
5
28F
100
AcDbEntity
8
1
62
256
6
ByLayer
370
25
48
1
60
0
100
AcDbSpline
70
4
71
3
72
14
73
10
40
0
40
0
40
0
40
0
40
0.268561937259582
40
0.505293872095693
40
0.639854421229293
40
0.756631486430899
40
0.889937624921752
40
0.946265855441366
40
1
40
1
40
1
40
1
41
1
10
87.519672294535
20
17.7970976655612
30
0
41
1
10
87.5603526977894
20
17.8017030889436
30
0
41
1
10
87.6355457964797
20
17.8154282744164
30
0
41
1
10
87.7289312113528
20
17.8427402476411
30
0
41
1
10
87.7967202465716
20
17.8728719811335
30
0
41
1
10
87.846274849468
20
17.903708729907
30
0
41
1
10
87.8805564257189
20
17.936796643444
30
0
41
1
10
87.8965777453339
20
17.9708635639817
30
0
41
1
10
87.8991502361764
20
17.9873956512485
30
0
41
1
10
87.8994320298051
20
17.9958092354205
30
0
0
SPLINE
5
290
100
AcDbEntity
8
1
62
256
6
ByLayer
370
25
48
1
60
0
100
AcDbSpline
70
4
71
3
72
11
73
7
40
0
40
0
40
0
40
0
40
0.630175530014425
40
0.84400358688453
40
0.926183278274199
40
1
40
1
40
1
40
1
41
1
10
87.5221256432901
20
18.2028534729261
30
0
41
1
10
87.5197408142304
20
18.3067613827818
30
0
41
1
10
87.481334309657
20
18.4257065408906
30
0
41
1
10
87.4050294890499
20
18.5481706528675
30
0
41
1
10
87.3575883131598
20
18.5809383609838
30
0
41
1
10
87.3345777282204
20
18.5856939273702
30
0
41
1
10
87.3229578756607
20
18.5863375705443
30
0
0
SPLINE
5
291
100
AcDbEntity
8
1
62
256
6
ByLayer
370
25
48
1
60
0
100
AcDbSpline
70
4
71
2
72
6
73
3
40
0
40
0
40
0
40
1
40
1
40
1
41
1
10
87.3229376985741
20
18.5863377506759
30
0
41
1
10
87.3232758532494
20
18.6644439070202
30
0
41
1
10
87.3173198446104
20
18.7228996872693
30
0
0
SPLINE
5
292
100
AcDbEntity
8
1
62
256
6
ByLayer
370
25
48
1
60
0
100
AcDbSpline
70
4
71
2
72
6
73
3
40
0
40
0
40
0
40
1
40
1
40
1
41
1
10
86.2372498424646
20
20.7932667802164
30
0
41
1
10
86.2238581531425
20
20.8816392348858
30
0
41
1
10
86.2232249874144
20
20.9781409748679
30
0
0
SPLINE
5
293
100
AcDbEntity
8
1
62
256
6
ByLayer
370
25
48
1
60
0
100
AcDbSpline
70
4
71
3
72
13
73
9
40
0
40
0
40
0
40
0
40
0.053484757025371
40
0.109775767233644
40
0.243518883066445
40
0.359211886986329
40
0.495110979971931
40
1
40
1
40
1
40
1
41
1
10
87.3161234896917
20
17.4180631440411
30
0
41
1
10
87.3244317102757
20
17.418213431914
30
0
41
1
10
87.3408269259772
20
17.4205267854904
30
0
41
1
10
87.3748676833448
20
17.4361350645988
30
0
41
1
10
87.4082926902538
20
17.4698558270287
30
0
41
1
10
87.4398576968597
20
17.5192350312339
30
0
41
1
10
87.4874332892913
20
17.6245002108782
30
0
41
1
10
87.5119286400435
20
17.7185792862181
30
0
41
1
10
87.5197614107753
20
17.7971731916277
30
0
0
SPLINE
5
294
100
AcDbEntity
8
1
62
256
6
ByLayer
370
25
48
1
60
0
100
AcDbSpline
70
4
71
3
72
14
73
10
40
0
40
0
40
0
40
0
40
0.268555291641275
40
0.505287785060494
40
0.63985061903398
40
0.756627460485584
40
0.889937285374128
40
0.946266020493783
40
1
40
1
40
1
40
1
41
1
10
87.1169450832887
20
17.8016283729095
30
0
41
1
10
87.1217219644602
20
17.7606255237738
30
0
41
1
10
87.1357260157962
20
17.6848091015199
30
0
41
1
10
87.163310019318
20
17.5905972993952
30
0
41
1
10
87.1935637727868
20
17.5221553508151
30
0
41
1
10
87.2244259223428
20
17.4720785232124
30
0
41
1
10
87.2574456727303
20
17.4373763060334
30
0
41
1
10
87.2913453646082
20
17.4210642453518
30
0
41
1
10
87.3077698819672
20
17.4183894141494
30
0
41
1
10
87.3161234896917
20
17.4180631440411
30
0
0
SPLINE
5
295
100
AcDbEntity
8
1
62
256
6
ByLayer
370
25
48
1
60
0
100
AcDbSpline
70
4
71
3
72
13
73
9
40
0
40
0
40
0
40
0
40
0.053485428421217
40
0.109776770981401
40
0.243518081689421
40
0.359210308233946
40
0.495109307386638
40
1
40
1
40
1
40
1
41
1
10
86.7396493355474
20
18.0085914791749
30
0
41
1
10
86.7398404279286
20
18.0002219333273
30
0
41
1
10
86.7422192992313
20
17.9836954942607
30
0
41
1
10
86.757882817191
20
17.9493277989097
30
0
41
1
10
86.7915210113405
20
17.9154878208626
30
0
41
1
10
86.8406928418635
20
17.883441906675
30
0
41
1
10
86.9454182275833
20
17.8349846490797
30
0
41
1
10
87.0389247558508
20
17.8098328435348
30
0
41
1
10
87.1169772227164
20
17.8015439315161
30
0
0
SPLINE
5
296
100
AcDbEntity
8
1
62
256
6
ByLayer
370
25
48
1
60
0
100
AcDbSpline
70
4
71
3
72
14
73
10
40
0
40
0
40
0
40
0
40
0.26856366768196
40
0.505294977675619
40
0.639855393763687
40
0.756632015237017
40
0.889936925979024
40
0.946265384785249
40
1
40
1
40
1
40
1
41
1
10
87.1193804047112
20
18.2072994206127
30
0
41
1
10
87.0787024208602
20
18.2026933730468
30
0
41
1
10
87.0035142494128
20
18.1889673281656
30
0
41
1
10
86.9101352117987
20
18.1616549854103
30
0
41
1
10
86.8423513949514
20
18.1315235394474
30
0
41
1
10
86.7928009861497
20
18.1006875111334
30
0
41
1
10
86.7585228604414
20
18.0676007332745
30
0
41
1
10
86.7425033396266
20
18.0335357483081
30
0
41
1
10
86.7399310983464
20
18.0170045849299
30
0
41
1
10
86.7396493355573
20
18.0085914791748
30
0
0
SPLINE
5
297
100
AcDbEntity
8
1
62
256
6
ByLayer
370
25
48
1
60
0
100
AcDbSpline
70
4
71
3
72
13
73
9
40
0
40
0
40
0
40
0
40
0.0534850556399254
40
0.109775643397924
40
0.243514563978062
40
0.35920714565116
40
0.495104311414768
40
1
40
1
40
1
40
1
41
1
10
87.3229578756608
20
18.5863375705543
30
0
41
1
10
87.3146499137297
20
18.5861872186514
30
0
41
1
10
87.2982552781488
20
18.5838738912896
30
0
41
1
10
87.264216044916
20
18.5682670602723
30
0
41
1
10
87.2307919158689
20
18.53454881362
30
0
41
1
10
87.1992275810724
20
18.4851727017008
30
0
41
1
10
87.1516513876793
20
18.3799113791759
30
0
41
1
10
87.1271554150253
20
18.2858351312076
30
0
41
1
10
87.1193220647876
20
18.2072428090152
30
0
0
SPLINE
5
298
100
AcDbEntity
8
1
62
256
6
ByLayer
370
25
48
1
60
0
100
AcDbSpline
70
4
71
2
72
6
73
3
40
0
40
0
40
0
40
1
40
1
40
1
41
1
10
87.3161233668024
20
17.4180631059386
30
0
41
1
10
87.3155680632462
20
17.3399782138121
30
0
41
1
10
87.3089324201104
20
17.2776460658994
30
0
0
SPLINE
5
299
100
AcDbEntity
8
1
62
256
6
ByLayer
370
25
48
1
60
0
100
AcDbSpline
70
4
71
2
72
6
73
3
40
0
40
0
40
0
40
1
40
1
40
1
41
1
10
86.9947529400288
20
18.3263791140696
30
0
41
1
10
87.0544615629204
20
18.273380090715
30
0
41
1
10
87.1193296558758
20
18.207295954363
30
0
0
SPLINE
5
29A
100
AcDbEntity
8
1
62
256
6
ByLayer
370
25
48
1
60
0
100
AcDbSpline
70
4
71
2
72
6
73
3
40
0
40
0
40
0
40
1
40
1
40
1
41
1
10
86.9909147379557
20
17.6810541830347
30
0
41
1
10
87.0517544089944
20
17.7364492373408
30
0
41
1
10
87.1169556311053
20
17.8015469310949
30
0
0
SPLINE
5
29B
100
AcDbEntity
8
1
62
256
6
ByLayer
370
25
48
1
60
0
100
AcDbSpline
70
4
71
2
72
6
73
3
40
0
40
0
40
0
40
1
40
1
40
1
41
1
10
86.7396492067635
20
18.0085914394273
30
0
41
1
10
86.6620653342417
20
18.0094147572467
30
0
41
1
10
86.5958428145083
20
18.0081231556634
30
0
0
SPLINE
5
29C
100
AcDbEntity
8
1
62
256
6
ByLayer
370
25
48
1
60
0
100
AcDbSpline
70
4
71
1
72
4
73
2
40
0
40
0
40
1
40
1
41
1
10
85.6599743137865
20
20.9466555739405
30
0
41
1
10
85.7626931634543
20
21.0657201790035
30
0
0
SPLINE
5
29D
100
AcDbEntity
8
1
62
256
6
ByLayer
370
25
48
1
60
0
100
AcDbSpline
70
4
71
3
72
10
73
6
40
0
40
0
40
0
40
0
40
0.259492976424384
40
0.519008279522366
40
1
40
1
40
1
40
1
41
1
10
85.1946081918559
20
21.2340694066514
30
0
41
1
10
85.1990883508667
20
21.2479803192592
30
0
41
1
10
85.209003807674
20
21.2761896061936
30
0
41
1
10
85.2319613899914
20
21.3325543103183
30
0
41
1
10
85.2524820201637
20
21.3747585125472
30
0
41
1
10
85.2673566043849
20
21.4025502897821
30
0
0
SPLINE
5
29E
100
AcDbEntity
8
1
62
256
6
ByLayer
370
25
48
1
60
0
100
AcDbSpline
70
4
71
3
72
17
73
13
40
0
40
0
40
0
40
0
40
0.100567234530989
40
0.206761207640201
40
0.312857168959441
40
0.418958532200433
40
0.526171978117162
40
0.633384498820098
40
0.741233251577767
40
0.849075627708318
40
0.924538182043306
40
1
40
1
40
1
40
1
41
1
10
2.02250000000444
20
31.4699999999993
30
0
41
1
10
2.02311079129539
20
31.469736797316
30
0
41
1
10
2.06595912319246
20
31.4630417257556
30
0
41
1
10
2.26101370259483
20
31.4328247452913
30
0
41
1
10
2.59303545712707
20
31.3839856307914
30
0
41
1
10
3.0457968794979
20
31.3230771920447
30
0
41
1
10
3.61271088111681
20
31.2560265903734
30
0
41
1
10
4.27663563605817
20
31.1902562363738
30
0
41
1
10
5.0215160369291
20
31.1337889714832
30
0
41
1
10
5.74381372477322
20
31.0965366390529
30
0
41
1
10
6.40980748990459
20
31.0776768192207
30
0
41
1
10
6.80219005489565
20
31.0739505921536
30
0
41
1
10
6.99999999999998
20
31.0738699512951
30
0
0
SPLINE
5
29F
100
AcDbEntity
8
1
62
256
6
ByLayer
370
25
48
1
60
0
100
AcDbSpline
70
4
71
1
72
4
73
2
40
0
40
0
40
1
40
1
41
1
10
7.29453241448413
20
31.0752657767102
30
0
41
1
10
6.83293094577969
20
31.0743190724894
30
0
0
SPLINE
5
2A0
100
AcDbEntity
8
1
62
256
6
ByLayer
370
25
48
1
60
0
100
AcDbSpline
70
4
71
3
72
17
73
13
40
0
40
0
40
0
40
0
40
0.106465852628138
40
0.212935564419501
40
0.319359916774783
40
0.425789692907009
40
0.533060120654351
40
0.640329225180955
40
0.748176352749397
40
0.856017246489768
40
0.962957051859966
40
1
40
1
40
1
40
1
41
1
10
6.99999999999998
20
31.0738699512951
30
0
41
1
10
7.28049228685348
20
31.0741834041736
30
0
41
1
10
7.83238986332477
20
31.0815440029866
30
0
41
1
10
8.6440317105644
20
31.1139012389086
30
0
41
1
10
9.40591664599541
20
31.1642096465029
30
0
41
1
10
10.103697755321
20
31.2261503558017
30
0
41
1
10
10.7140966474066
20
31.2934382204896
30
0
41
1
10
11.2244278734514
20
31.3586608531462
30
0
41
1
10
11.6134303000643
20
31.4138499495859
30
0
41
1
10
11.873597514258
20
31.4536334632404
30
0
41
1
10
11.9655983672219
20
31.4679867994973
30
0
41
1
10
11.9772566389739
20
31.4699211318015
30
0
41
1
10
11.9774999999895
20
31.4699999999984
30
0
0
SPLINE
5
2A1
100
AcDbEntity
8
1
62
256
6
ByLayer
370
25
48
1
60
0
100
AcDbSpline
70
4
71
3
72
17
73
13
40
0
40
0
40
0
40
0
40
0.0695687863803536
40
0.170565467608791
40
0.271592652324983
40
0.375056506318536
40
0.478576774931722
40
0.593413391949224
40
0.708332282344391
40
0.805439549613957
40
0.902795757181035
40
1
40
1
40
1
40
1
41
1
10
12.9675
20
-19.85
30
0
41
1
10
12.7243624264833
20
-19.8501573196273
30
0
41
1
10
12.1335605796904
20
-19.8765416691296
30
0
41
1
10
11.2034857340498
20
-20.0245404007684
30
0
41
1
10
10.2076227859587
20
-20.316128620036
30
0
41
1
10
9.27857431592667
20
-20.7264417306755
30
0
41
1
10
8.40267284861223
20
-21.2499191353468
30
0
41
1
10
7.6133064603695
20
-21.8722019637572
30
0
41
1
10
6.9600151266651
20
-22.5339033028181
30
0
41
1
10
6.44582670998127
20
-23.1834152932736
30
0
41
1
10
6.04423474438013
20
-23.804214561692
30
0
41
1
10
5.82551374969494
20
-24.2149345929455
30
0
41
1
10
5.7290379845841
20
-24.4200409500066
30
0
0
SPLINE
5
2A2
100
AcDbEntity
8
1
62
256
6
ByLayer
370
25
48
1
60
0
100
AcDbSpline
70
4
71
3
72
36
73
32
40
0
40
0
40
0
40
0
40
0.0320149812905009
40
0.0665339007888506
40
0.101162711108355
40
0.135686258145456
40
0.170571099267014
40
0.205562569109441
40
0.240450871267522
40
0.2763764875013
40
0.312414653761172
40
0.348337218671083
40
0.384391743046675
40
0.42056523527146
40
0.456614403348267
40
0.491705301599468
40
0.526911854024496
40
0.562003356813574
40
0.596550799626554
40
0.631206651190374
40
0.6657588551463
40
0.700944343746083
40
0.736237622115546
40
0.771425205174427
40
0.807514774248034
40
0.843718927539906
40
0.879803827415411
40
0.91567039634138
40
0.951656407141734
40
0.987518340198751
40
1
40
1
40
1
40
1
41
1
10
12.9675
20
8.0175
30
0
41
1
10
12.6965971292941
20
8.01749601090301
30
0
41
1
10
12.1372291043383
20
7.98935019675488
30
0
41
1
10
11.2934789444278
20
7.85627641704899
30
0
41
1
10
10.4506646314659
20
7.62801720916705
30
0
41
1
10
9.63540191068211
20
7.31015898243611
30
0
41
1
10
8.85940813747625
20
6.90287600375942
30
0
41
1
10
8.13057229240517
20
6.41324754933093
30
0
41
1
10
7.45271437586087
20
5.84267479670806
30
0
41
1
10
6.83767325360298
20
5.19279014242022
30
0
41
1
10
6.29311365177958
20
4.47132186753735
30
0
41
1
10
5.83083767831423
20
3.69175035497053
30
0
41
1
10
5.4605203914395
20
2.86137667551425
30
0
41
1
10
5.18459312574122
20
1.99232005102092
30
0
41
1
10
5.00895447869685
20
1.10424639410952
30
0
41
1
10
4.93717660107858
20
0.209208832511326
30
0
41
1
10
4.96330445985071
20
-0.680253560493449
30
0
41
1
10
5.0857237535674
20
-1.55662606845241
30
0
41
1
10
5.30434650143997
20
-2.40798387593298
30
0
41
1
10
5.61090388653951
20
-3.22523810065556
30
0
41
1
10
6.0050643374505
20
-4.00840850496736
30
0
41
1
10
6.48632456416544
20
-4.74598410771675
30
0
41
1
10
7.04771500650744
20
-5.43007857126702
30
0
41
1
10
7.68542292559435
20
-6.05417824413213
30
0
41
1
10
8.39645403090832
20
-6.60664216518749
30
0
41
1
10
9.1719501547857
20
-7.08071229941932
30
0
41
1
10
9.99537450281587
20
-7.46514354606764
30
0
41
1
10
10.8577949474602
20
-7.75169035501531
30
0
41
1
10
11.7461170669641
20
-7.94037363191484
30
0
41
1
10
12.455117927232
20
-8.00955291870038
30
0
41
1
10
12.8622188811543
20
-8.01751686137219
30
0
41
1
10
12.9675
20
-8.0175
30
0
0
SPLINE
5
2A3
100
AcDbEntity
8
1
62
256
6
ByLayer
370
25
48
1
60
0
100
AcDbSpline
70
4
71
3
72
12
73
8
40
0
40
0
40
0
40
0
40
0.319774123168512
40
0.637018389788304
40
0.800365263899924
40
0.937065104077814
40
1
40
1
40
1
40
1
41
1
10
19.562519871019
20
8.0175
30
0
41
1
10
19.5377945219928
20
7.95785512734306
30
0
41
1
10
19.4776965569779
20
7.84693261029071
30
0
41
1
10
19.3811954841896
20
7.71736455436132
30
0
41
1
10
19.2837956412604
20
7.64057356432219
30
0
41
1
10
19.2147170636813
20
7.61372737275265
30
0
41
1
10
19.1752161583345
20
7.61035286826873
30
0
41
1
10
19.1625
20
7.61023159962955
30
0
0
SPLINE
5
2A4
100
AcDbEntity
8
1
62
256
6
ByLayer
370
25
48
1
60
0
100
AcDbSpline
70
4
71
3
72
11
73
7
40
0
40
0
40
0
40
0
40
0.140029982875546
40
0.314873415710913
40
0.632546614633401
40
1
40
1
40
1
40
1
41
1
10
16.8375
20
7.61023159962955
30
0
41
1
10
16.8085524530513
20
7.61154835762906
30
0
41
1
10
16.7471599046477
20
7.62291047489783
30
0
41
1
10
16.639291651935
20
7.69454869542944
30
0
41
1
10
16.5329559880204
20
7.83104592618532
30
0
41
1
10
16.4659012763548
20
7.94869946454573
30
0
41
1
10
16.4374801289847
20
8.01750000000249
30
0
0
SPLINE
5
2A5
100
AcDbEntity
8
1
62
256
6
ByLayer
370
25
48
1
60
0
100
AcDbSpline
70
4
71
3
72
11
73
7
40
0
40
0
40
0
40
0
40
0.140029982875565
40
0.314873415710927
40
0.632546614633404
40
1
40
1
40
1
40
1
41
1
10
19.1625
20
-7.61023159962955
30
0
41
1
10
19.1914475469487
20
-7.61154835762906
30
0
41
1
10
19.2528400953523
20
-7.62291047489783
30
0
41
1
10
19.360708348065
20
-7.69454869542944
30
0
41
1
10
19.4670440119797
20
-7.83104592618532
30
0
41
1
10
19.5340987236453
20
-7.94869946454573
30
0
41
1
10
19.5625198710153
20
-8.01750000000249
30
0
0
SPLINE
5
2A6
100
AcDbEntity
8
1
62
256
6
ByLayer
370
25
48
1
60
0
100
AcDbSpline
70
4
71
1
72
4
73
2
40
0
40
0
40
1
40
1
41
1
10
19.8967571619195
20
-19.85
30
0
41
1
10
19.9125
20
-20.0655955555772
30
0
0
SPLINE
5
2A7
100
AcDbEntity
8
1
62
256
6
ByLayer
370
25
48
1
60
0
100
AcDbSpline
70
4
71
1
72
4
73
2
40
0
40
0
40
1
40
1
41
1
10
16.0875
20
-20.0655955555772
30
0
41
1
10
16.1032428380805
20
-19.85
30
0
0
SPLINE
5
2A8
100
AcDbEntity
8
1
62
256
6
ByLayer
370
25
48
1
60
0
100
AcDbSpline
70
4
71
3
72
12
73
8
40
0
40
0
40
0
40
0
40
0.31977412316854
40
0.637018389788315
40
0.800365263899925
40
0.937065104077815
40
1
40
1
40
1
40
1
41
1
10
16.437480128981
20
-8.0175
30
0
41
1
10
16.4622054780072
20
-7.95785512734307
30
0
41
1
10
16.5223034430221
20
-7.84693261029072
30
0
41
1
10
16.6188045158104
20
-7.71736455436133
30
0
41
1
10
16.7162043587396
20
-7.64057356432218
30
0
41
1
10
16.7852829363187
20
-7.61372737275265
30
0
41
1
10
16.8247838416655
20
-7.61035286826873
30
0
41
1
10
16.8375
20
-7.61023159962956
30
0
0
SPLINE
5
2A9
100
AcDbEntity
8
1
62
256
6
ByLayer
370
25
48
1
60
0
100
AcDbSpline
70
4
71
1
72
4
73
2
40
0
40
0
40
1
40
1
41
1
10
92.9279455288027
20
2.08295477616342
30
0
41
1
10
92.8840813040037
20
1.73147782586809
30
0
0
SPLINE
5
2AA
100
AcDbEntity
8
1
62
256
6
ByLayer
370
25
48
1
60
0
100
AcDbSpline
70
4
71
3
72
26
73
22
40
0
40
0
40
0
40
0
40
0.0640502605708793
40
0.132924579070485
40
0.201717607317823
40
0.255726238871229
40
0.309646601986435
40
0.348328189139002
40
0.386964519026805
40
0.419535144236832
40
0.452083738326656
40
0.484760743569414
40
0.517438754779581
40
0.57837037061679
40
0.643930463585989
40
0.694572143891491
40
0.745290314873648
40
0.817950807348868
40
0.890732434515633
40
0.963507516014306
40
1
40
1
40
1
40
1
41
1
10
97.8957077662537
20
1.55534944584794
30
0
41
1
10
97.917502404807
20
1.76335646107738
30
0
41
1
10
97.9399047450956
20
2.19415455464432
30
0
41
1
10
97.9081593205301
20
2.84925056109009
30
0
41
1
10
97.795553469969
20
3.46116802578381
30
0
41
1
10
97.6107017470937
20
4.00266767456082
30
0
41
1
10
97.3886797222909
20
4.42326893824843
30
0
41
1
10
97.1301279022299
20
4.76091668622825
30
0
41
1
10
96.8711196985294
20
5.00724033993906
30
0
41
1
10
96.5902058061958
20
5.19532018066644
30
0
41
1
10
96.2994604941198
20
5.32825311525709
30
0
41
1
10
95.9886123769639
20
5.40740484621332
30
0
41
1
10
95.5763186996898
20
5.43929733938105
30
0
41
1
10
95.0575591032342
20
5.3474928136859
30
0
41
1
10
94.5409122020979
20
5.08389503792615
30
0
41
1
10
94.1257472070893
20
4.73873378080395
30
0
41
1
10
93.7572795266754
20
4.31506684960556
30
0
41
1
10
93.427075524808
20
3.77323538265438
30
0
41
1
10
93.158886751179
20
3.12023262696266
30
0
41
1
10
93.0076857054886
20
2.54897723426411
30
0
41
1
10
92.9453887125948
20
2.20031745549714
30
0
41
1
10
92.9279455288027
20
2.08295477616342
30
0
0
SPLINE
5
2AB
100
AcDbEntity
8
1
62
256
6
ByLayer
370
25
48
1
60
0
100
AcDbSpline
70
4
71
3
72
17
73
13
40
0
40
0
40
0
40
0
40
0.106598653122512
40
0.21319514787343
40
0.322930588243306
40
0.432664095847929
40
0.539291107922602
40
0.645918260910663
40
0.755764807536013
40
0.865615122904946
40
0.932718530896222
40
1
40
1
40
1
40
1
41
1
10
89.7979985706823
20
7.28809263288341
30
0
41
1
10
89.4459001323801
20
7.35556285142503
30
0
41
1
10
88.7514326583212
20
7.51738791564962
30
0
41
1
10
87.7252655252123
20
7.84496145911916
30
0
41
1
10
86.7268892765821
20
8.25710361389036
30
0
41
1
10
85.7735714289898
20
8.74636495560812
30
0
41
1
10
84.8819478827091
20
9.30141135819381
30
0
41
1
10
84.0475640557637
20
9.91801718758599
30
0
41
1
10
83.2706005396755
20
10.5962280311668
30
0
41
1
10
82.6494081865394
20
11.2321095126207
30
0
41
1
10
82.1651379385386
20
11.7948896693609
30
0
41
1
10
81.9173649822172
20
12.1111170892328
30
0
41
1
10
81.7979985706821
20
12.2712808005594
30
0
0
SPLINE
5
2AC
100
AcDbEntity
8
1
62
256
6
ByLayer
370
25
48
1
60
0
100
AcDbSpline
70
4
71
1
72
4
73
2
40
0
40
0
40
1
40
1
41
1
10
88.0500064270405
20
-6.8265646084645
30
0
41
1
10
89.7979985706823
20
-6.26425419624118
30
0
0
SPLINE
5
2AD
100
AcDbEntity
8
1
62
256
6
ByLayer
370
25
48
1
60
0
100
AcDbSpline
70
4
71
3
72
17
73
13
40
0
40
0
40
0
40
0
40
0.0343380538952738
40
0.144448954048634
40
0.254548275496704
40
0.363292445191021
40
0.47201865627114
40
0.577720156463385
40
0.683410446720769
40
0.785996337902511
40
0.888587680841948
40
1
40
1
40
1
40
1
41
1
10
85.7944629209587
20
-8.38751955134741
30
0
41
1
10
85.7989585524388
20
-8.35378583878065
30
0
41
1
10
85.8218093801057
20
-8.21279644830121
30
0
41
1
10
85.892228379278
20
-7.96873939951773
30
0
41
1
10
86.0383051295181
20
-7.67295552099511
30
0
41
1
10
86.2368543936206
20
-7.4075785832894
30
0
41
1
10
86.4776936415339
20
-7.18180518402412
30
0
41
1
10
86.7553195913174
20
-7.0029944541659
30
0
41
1
10
87.0562506618574
20
-6.87511191550969
30
0
41
1
10
87.3740252438385
20
-6.80151585894004
30
0
41
1
10
87.708447191785
20
-6.7799346335388
30
0
41
1
10
87.932829317449
20
-6.80379434734772
30
0
41
1
10
88.0500064270405
20
-6.8265646084645
30
0
0
SPLINE
5
2AE
100
AcDbEntity
8
1
62
256
6
ByLayer
370
25
48
1
60
0
100
AcDbSpline
70
4
71
2
72
6
73
3
40
0
40
0
40
0
40
1
40
1
40
1
41
1
10
92.3576751843364
20
7.19496877701303
30
0
41
1
10
91.0744015008635
20
7.12475071693137
30
0
41
1
10
89.7979985706823
20
7.28809263288341
30
0
0
SPLINE
5
2AF
100
AcDbEntity
8
1
62
256
6
ByLayer
370
25
48
1
60
0
100
AcDbSpline
70
4
71
1
72
4
73
2
40
0
40
0
40
1
40
1
41
1
10
89.7979985706823
20
-6.26425419624118
30
0
41
1
10
99.0676015770981
20
-6.94830184429554
30
0
0
SPLINE
5
2B0
100
AcDbEntity
8
SK1
62
256
6
ByLayer
370
25
48
1
60
0
100
AcDbSpline
70
4
71
1
72
4
73
2
40
0
40
0
40
1
40
1
41
1
10
-30.75
20
-8.88646658436391
30
0
41
1
10
-28.4469019657058
20
-9.15000000000001
30
0
0
SPLINE
5
2B1
100
AcDbEntity
8
SK1
62
256
6
ByLayer
370
25
48
1
60
0
100
AcDbSpline
70
4
71
2
72
6
73
3
40
0
40
0
40
0
40
1
40
1
40
1
41
1
10
-27.2
20
-9.30491805454911
30
0
41
1
10
-27.8235173897148
20
-9.22799415786017
30
0
41
1
10
-28.4469019657058
20
-9.15000000000001
30
0
0
SPLINE
5
2B2
100
AcDbEntity
8
SK1
62
256
6
ByLayer
370
25
48
1
60
0
100
AcDbSpline
70
4
71
3
72
10
73
6
40
0
40
0
40
0
40
0
40
0.412116333897936
40
0.828366374219503
40
1
40
1
40
1
40
1
41
1
10
-26.6912014142926
20
-9.15000000000001
30
0
41
1
10
-26.7496727551487
20
-9.19769874812193
30
0
41
1
10
-26.8758336927565
20
-9.27095321367631
30
0
41
1
10
-27.0601418240514
20
-9.31432225853431
30
0
41
1
10
-27.168047259739
20
-9.30875713324589
30
0
41
1
10
-27.2
20
-9.30491805454911
30
0
0
SPLINE
5
2B3
100
AcDbEntity
8
SK1
62
256
6
ByLayer
370
25
48
1
60
0
100
AcDbSpline
70
4
71
3
72
13
73
9
40
0
40
0
40
0
40
0
40
0.0144633528242098
40
0.223903088585517
40
0.433551097235053
40
0.646939161508602
40
0.859991022612551
40
1
40
1
40
1
40
1
41
1
10
-25.8
20
-7.14766794054519
30
0
41
1
10
-25.8000034342856
20
-7.15864819971621
30
0
41
1
10
-25.8011164234889
20
-7.3284842836432
30
0
41
1
10
-25.8374317098182
20
-7.65571416559306
30
0
41
1
10
-25.9701764862986
20
-8.11308064468522
30
0
41
1
10
-26.1732972130469
20
-8.54434944301557
30
0
41
1
10
-26.4154438050299
20
-8.89713694145389
30
0
41
1
10
-26.6085941119111
20
-9.08138521151255
30
0
41
1
10
-26.6912014142926
20
-9.15000000000001
30
0
0
SPLINE
5
2B4
100
AcDbEntity
8
SK1
62
256
6
ByLayer
370
25
48
1
60
0
100
AcDbSpline
70
4
71
3
72
12
73
8
40
0
40
0
40
0
40
0
40
0.146971680623777
40
0.298463575993084
40
0.528545204461131
40
0.765334405862513
40
1
40
1
40
1
40
1
41
1
10
-26.6912014142873
20
9.15
30
0
41
1
10
-26.6042831110327
20
9.07815559263554
30
0
41
1
10
-26.4417001304679
20
8.92166648129454
30
0
41
1
10
-26.2094074058096
20
8.59854565630122
30
0
41
1
10
-25.99622969855
20
8.18685760587954
30
0
41
1
10
-25.8382701456518
20
7.68113647810667
30
0
41
1
10
-25.8018871373018
20
7.32788174670406
30
0
41
1
10
-25.8
20
7.14766794054513
30
0
0
SPLINE
5
2B5
100
AcDbEntity
8
SK1
62
256
6
ByLayer
370
25
48
1
60
0
100
AcDbSpline
70
4
71
3
72
10
73
6
40
0
40
0
40
0
40
0
40
0.35355236860881
40
0.706367755368189
40
1
40
1
40
1
40
1
41
1
10
-27.2
20
9.30491805454911
30
0
41
1
10
-27.1324938588774
20
9.31212472748159
30
0
41
1
10
-27.0030037311812
20
9.30861156420339
30
0
41
1
10
-26.8287347477126
20
9.24415210484046
30
0
41
1
10
-26.7323940699504
20
9.18296271767466
30
0
41
1
10
-26.6912014142873
20
9.15
30
0
0
SPLINE
5
2B6
100
AcDbEntity
8
SK1
62
256
6
ByLayer
370
25
48
1
60
0
100
AcDbSpline
70
4
71
2
72
6
73
3
40
0
40
0
40
0
40
1
40
1
40
1
41
1
10
-28.4469019657059
20
9.15
30
0
41
1
10
-27.8235173897148
20
9.22799415786017
30
0
41
1
10
-27.2
20
9.30491805454911
30
0
0
SPLINE
5
2B7
100
AcDbEntity
8
SK1
62
256
6
ByLayer
370
25
48
1
60
0
100
AcDbSpline
70
4
71
1
72
4
73
2
40
0
40
0
40
1
40
1
41
1
10
-28.4469019657059
20
9.15
30
0
41
1
10
-30.75
20
8.88646658436392
30
0
0
SPLINE
5
2B8
100
AcDbEntity
8
SK1
62
256
6
ByLayer
370
25
48
1
60
0
100
AcDbSpline
70
2053
71
3
72
45
73
41
40
0
40
0
40
0
40
0
40
0.0270382928804452
40
0.0540759109494559
40
0.0811255732317371
40
0.108173228592677
40
0.134973784163224
40
0.161773830388544
40
0.188273025857766
40
0.21477330365694
40
0.241351972825022
40
0.267931283974955
40
0.294734013514548
40
0.321536145524951
40
0.348343397502423
40
0.375150184367995
40
0.401813506361231
40
0.4284774109763
40
0.455151540436145
40
0.481826126602378
40
0.508644522662411
40
0.535462066281679
40
0.562250786349719
40
0.589038516504446
40
0.615594424506266
40
0.6421511536054
40
0.668662758960948
40
0.695176213127564
40
0.722011189347354
40
0.748846487577306
40
0.775977652687744
40
0.803106628568128
40
0.830042268130042
40
0.856975841437987
40
0.883413855707897
40
0.909852545857172
40
0.936119572763106
40
0.962388902008174
40
0.981194261628085
40
1
40
1
40
1
40
1
41
1
10
-6.41444892448236
20
2.71579220847063
30
0
41
1
10
-6.56909563341851
20
2.86271957660075
30
0
41
1
10
-6.89789240134398
20
3.12624782078949
30
0
41
1
10
-7.4550232087159
20
3.43708464427627
30
0
41
1
10
-8.05695238874913
20
3.64731082556451
30
0
41
1
10
-8.68506779021017
20
3.75514474569979
30
0
41
1
10
-9.32135076149049
20
3.7533108789901
30
0
41
1
10
-9.94506976242179
20
3.6475766148065
30
0
41
1
10
-10.5394490216083
20
3.43775612886923
30
0
41
1
10
-11.0900762194068
20
3.13499262913259
30
0
41
1
10
-11.5816119624119
20
2.74299791995231
30
0
41
1
10
-12.0041041747229
20
2.27449058105887
30
0
41
1
10
-12.3415273740379
20
1.73926059028441
30
0
41
1
10
-12.5871526321715
20
1.15398646265062
30
0
41
1
10
-12.728911863827
20
0.534953415668093
30
0
41
1
10
-12.7668531890566
20
-0.0980481814032595
30
0
41
1
10
-12.6960880991
20
-0.727012803998013
30
0
41
1
10
-12.5237001889094
20
-1.33470108268027
30
0
41
1
10
-12.2503366275046
20
-1.90392781373536
30
0
41
1
10
-11.8869197927945
20
-2.42161625076647
30
0
41
1
10
-11.4395434329854
20
-2.87047174227911
30
0
41
1
10
-10.9234821938521
20
-3.24031064881497
30
0
41
1
10
-10.3515946508989
20
-3.51623764204897
30
0
41
1
10
-9.74399575580429
20
-3.6938644432237
30
0
41
1
10
-9.11719302401869
20
-3.76491341587129
30
0
41
1
10
-8.49012413497102
20
-3.73310049517024
30
0
41
1
10
-7.87895950713975
20
-3.59591184860342
30
0
41
1
10
-7.29714049847426
20
-3.36104809933987
30
0
41
1
10
-6.76201301355255
20
-3.03006691341858
30
0
41
1
10
-6.28479569196796
20
-2.61286372618519
30
0
41
1
10
-5.88425613912622
20
-2.11779055257303
30
0
41
1
10
-5.57033253798372
20
-1.56153304536219
30
0
41
1
10
-5.35710688854849
20
-0.959700632426029
30
0
41
1
10
-5.24686782260191
20
-0.335261201020405
30
0
41
1
10
-5.24498050207205
20
0.295200291398228
30
0
41
1
10
-5.34449731727426
20
0.91207484656522
30
0
41
1
10
-5.54572816593771
20
1.50114884367704
30
0
41
1
10
-5.81026612939984
20
1.99602198243705
30
0
41
1
10
-6.10716940203809
20
2.39951991873261
30
0
41
1
10
-6.30743803606661
20
2.61412287257365
30
0
41
1
10
-6.41444892448236
20
2.71579220847063
30
0
0
SPLINE
5
2B9
100
AcDbEntity
8
1
62
256
6
ByLayer
370
25
48
1
60
0
100
AcDbSpline
70
4
71
1
72
4
73
2
40
0
40
0
40
1
40
1
41
1
10
102.616450985527
20
-7.23646978677907
30
0
41
1
10
102.611201547977
20
-7.21547920377195
30
0
0
SPLINE
5
2BA
100
AcDbEntity
8
1
62
256
6
ByLayer
370
25
48
1
60
0
100
AcDbSpline
70
4
71
3
72
13
73
9
40
0
40
0
40
0
40
0
40
0.143316533405702
40
0.341251221612248
40
0.541877945727865
40
0.7490800272075
40
0.963519295305484
40
1
40
1
40
1
40
1
41
1
10
102.56368656609
20
-7.33073912508538
30
0
41
1
10
102.5644901279
20
-7.32043289553077
30
0
41
1
10
102.566908296967
20
-7.29673765553384
30
0
41
1
10
102.573016004813
20
-7.26067640354305
30
0
41
1
10
102.581527276734
20
-7.22820374496132
30
0
41
1
10
102.590891711356
20
-7.20585432972358
30
0
41
1
10
102.597466456138
20
-7.19933182353195
30
0
41
1
10
102.600716098388
20
-7.19916757297747
30
0
41
1
10
102.601183537006
20
-7.19921406795034
30
0
0
SPLINE
5
2BB
100
AcDbEntity
8
1
62
256
6
ByLayer
370
25
48
1
60
0
100
AcDbSpline
70
4
71
1
72
4
73
2
40
0
40
0
40
1
40
1
41
1
10
102.521883744582
20
-7.81660582742324
30
0
41
1
10
102.56368656609
20
-7.33073912508536
30
0
0
SPLINE
5
2BC
100
AcDbEntity
8
1
62
256
6
ByLayer
370
25
48
1
60
0
100
AcDbSpline
70
4
71
3
72
11
73
7
40
0
40
0
40
0
40
0
40
0.15504275789587
40
0.452548278515186
40
0.753001999732394
40
1
40
1
40
1
40
1
41
1
10
102.521883744582
20
-7.81660582742324
30
0
41
1
10
102.521078743104
20
-7.82493274138253
30
0
41
1
10
102.518211694121
20
-7.8487008208162
30
0
41
1
10
102.510717165559
20
-7.88721422042137
30
0
41
1
10
102.499058509877
20
-7.92301485278348
30
0
41
1
10
102.490455598821
20
-7.93975382847159
30
0
41
1
10
102.486297248719
20
-7.94614020956643
30
0
0
SPLINE
5
2BD
100
AcDbEntity
8
1
62
256
6
ByLayer
370
25
48
1
60
0
100
AcDbSpline
70
4
71
3
72
10
73
6
40
0
40
0
40
0
40
0
40
0.0680936273467168
40
0.725837044267493
40
1
40
1
40
1
40
1
41
1
10
102.144894207258
20
-7.83407668100891
30
0
41
1
10
102.14428520187
20
-7.83331180141689
30
0
41
1
10
102.137705122721
20
-7.82540667044275
30
0
41
1
10
102.126931128299
20
-7.81822036464446
30
0
41
1
10
102.115877400348
20
-7.81579915332546
30
0
41
1
10
102.112500816172
20
-7.81546253360923
30
0
0
SPLINE
5
2BE
100
AcDbEntity
8
1
62
256
6
ByLayer
370
25
48
1
60
0
100
AcDbSpline
70
4
71
2
72
6
73
3
40
0
40
0
40
0
40
1
40
1
40
1
41
1
10
101.878883396229
20
-8.41665409986797
30
0
41
1
10
101.943715644816
20
-8.17904355720123
30
0
41
1
10
101.998581612112
20
-7.93896484406293
30
0
0
SPLINE
5
2BF
100
AcDbEntity
8
1
62
256
6
ByLayer
370
25
48
1
60
0
100
AcDbSpline
70
4
71
3
72
11
73
7
40
0
40
0
40
0
40
0
40
0.179464320584778
40
0.405695963606963
40
0.741856721394258
40
1
40
1
40
1
40
1
41
1
10
101.878883396229
20
-8.41665409986797
30
0
41
1
10
101.875853470516
20
-8.42736545759452
30
0
41
1
10
101.86764001569
20
-8.45033560637419
30
0
41
1
10
101.8459343798
20
-8.48809546756471
30
0
41
1
10
101.816162932972
20
-8.51950582692453
30
0
41
1
10
101.793357687841
20
-8.53470620660773
30
0
41
1
10
101.783001556982
20
-8.53985868612706
30
0
0
SPLINE
5
2C0
100
AcDbEntity
8
1
62
256
6
ByLayer
370
25
48
1
60
0
100
AcDbSpline
70
4
71
1
72
4
73
2
40
0
40
0
40
1
40
1
41
1
10
101.565364889074
20
-8.64022780247686
30
0
41
1
10
101.783001556982
20
-8.53985868612706
30
0
0
SPLINE
5
2C1
100
AcDbEntity
8
1
62
256
6
ByLayer
370
25
48
1
60
0
100
AcDbSpline
70
4
71
1
72
4
73
2
40
0
40
0
40
1
40
1
41
1
10
100.649848811948
20
-8.34942455140939
30
0
41
1
10
100.791533320233
20
-8.34433796035711
30
0
0
SPLINE
5
2C2
100
AcDbEntity
8
1
62
256
6
ByLayer
370
25
48
1
60
0
100
AcDbSpline
70
4
71
3
72
13
73
9
40
0
40
0
40
0
40
0
40
0.195427727323498
40
0.390642639041384
40
0.624499780645925
40
0.743266134848793
40
0.861661440356308
40
1
40
1
40
1
40
1
41
1
10
100.649848811948
20
-8.34942455140956
30
0
41
1
10
100.592530427988
20
-8.22578235359862
30
0
41
1
10
100.462983947394
20
-7.98539852499103
30
0
41
1
10
100.213939002535
20
-7.61822516083954
30
0
41
1
10
99.9379930124419
20
-7.32564412604409
30
0
41
1
10
99.6466549077473
20
-7.12209857496913
30
0
41
1
10
99.3808372373834
20
-6.99658639684178
30
0
41
1
10
99.1810884897963
20
-6.9575488542237
30
0
41
1
10
99.0676015770981
20
-6.94830184429554
30
0
0
SPLINE
5
2C3
100
AcDbEntity
8
1
62
256
6
ByLayer
370
25
48
1
60
0
100
AcDbSpline
70
4
71
3
72
17
73
13
40
0
40
0
40
0
40
0
40
0.0777318425845804
40
0.155503102965716
40
0.232867972037766
40
0.310286234703768
40
0.413683911484291
40
0.517205223707001
40
0.654520595165648
40
0.792025466545643
40
0.895998214638323
40
1
40
1
40
1
40
1
41
1
10
99.0676015770975
20
7.56009904585102
30
0
41
1
10
99.2484827369691
20
7.56991194713299
30
0
41
1
10
99.6020130042213
20
7.59974397087102
30
0
41
1
10
100.113556993494
20
7.67639275463027
30
0
41
1
10
100.585496212463
20
7.78056871870395
30
0
41
1
10
101.060153418071
20
7.92073111533769
30
0
41
1
10
101.510305633009
20
8.1011185912749
30
0
41
1
10
101.953717805968
20
8.34350787184859
30
0
41
1
10
102.312593923416
20
8.63105615774821
30
0
41
1
10
102.539737311428
20
8.93037561884689
30
0
41
1
10
102.649955527681
20
9.20670130223692
30
0
41
1
10
102.671933319503
20
9.37258841023331
30
0
41
1
10
102.67133645597
20
9.45561115429626
30
0
0
SPLINE
5
2C4
100
AcDbEntity
8
1
62
256
6
ByLayer
370
25
48
1
60
0
100
AcDbSpline
70
4
71
3
72
16
73
12
40
0
40
0
40
0
40
0
40
0.109415206131792
40
0.218845536611271
40
0.332266684554807
40
0.445706491395709
40
0.554883919647018
40
0.664073963396065
40
0.775696620078759
40
0.887328479596717
40
1
40
1
40
1
40
1
41
1
10
81.7979985706821
20
12.2712808005594
30
0
41
1
10
81.573111859197
20
12.5558039937988
30
0
41
1
10
81.1540597777647
20
13.1296870429006
30
0
41
1
10
80.6121942706898
20
14.0226959861977
30
0
41
1
10
80.1579913820193
20
14.9268381903754
30
0
41
1
10
79.7927902363857
20
15.8184709469225
30
0
41
1
10
79.5115776590273
20
16.6749109605764
30
0
41
1
10
79.3015956334383
20
17.4954528284893
30
0
41
1
10
79.1537409419725
20
18.2826150546171
30
0
41
1
10
79.062868873177
20
19.0330074825803
30
0
41
1
10
79.0356608428349
20
19.4997719475461
30
0
41
1
10
79.030924766997
20
19.7259277763184
30
0
0
SPLINE
5
2C5
100
AcDbEntity
8
1
62
256
6
ByLayer
370
25
48
1
60
0
100
AcDbSpline
70
4
71
3
72
21
73
17
40
0
40
0
40
0
40
0
40
0.0528462255271718
40
0.105691906903547
40
0.201928745842771
40
0.298586826777989
40
0.39524770124654
40
0.491488366202745
40
0.563067709939718
40
0.634847621220604
40
0.706542753721606
40
0.77800614063511
40
0.832776775938744
40
0.887688065391671
40
0.942406954016963
40
1
40
1
40
1
40
1
41
1
10
79.0309247669971
20
19.7259277763184
30
0
41
1
10
79.198407698697
20
19.5740810978226
30
0
41
1
10
79.5477767604259
20
19.2693761829273
30
0
41
1
10
80.2690003125947
20
18.680213773235
30
0
41
1
10
81.2456615546482
20
17.96735724482
30
0
41
1
10
82.5345731564662
20
17.164426664999
30
0
41
1
10
83.9473269237196
20
16.4284261004474
30
0
41
1
10
85.3465884970381
20
15.8396191148985
30
0
41
1
10
86.6785606786227
20
15.4101717537868
30
0
41
1
10
87.9138348679686
20
15.1070073044074
30
0
41
1
10
89.1969912632435
20
14.8712695855664
30
0
41
1
10
90.4228953682844
20
14.7106165696666
30
0
41
1
10
91.5855049225387
20
14.5964823091084
30
0
41
1
10
92.6681223664078
20
14.5144080208225
30
0
41
1
10
93.7862729624226
20
14.4572927404519
30
0
41
1
10
94.5344591812728
20
14.4390496281966
30
0
41
1
10
94.9186357768835
20
14.4348145489208
30
0
0
SPLINE
5
2C6
100
AcDbEntity
8
1
62
256
6
ByLayer
370
25
48
1
60
0
100
AcDbSpline
70
4
71
3
72
11
73
7
40
0
40
0
40
0
40
0
40
0.252899803345492
40
0.505795141893568
40
0.752444189862692
40
1
40
1
40
1
40
1
41
1
10
74.0838786115416
20
-11.5251135711911
30
0
41
1
10
74.0805955562786
20
-11.4676419428066
30
0
41
1
10
74.0781934252934
20
-11.3525176515386
30
0
41
1
10
74.0871101166532
20
-11.1804100015808
30
0
41
1
10
74.1079133033716
20
-11.0095854473953
30
0
41
1
10
74.1292500121271
20
-10.8971469409159
30
0
41
1
10
74.1418592127402
20
-10.8409218426165
30
0
0
SPLINE
5
2C7
100
AcDbEntity
8
1
62
256
6
ByLayer
370
25
48
1
60
0
100
AcDbSpline
70
4
71
3
72
18
73
14
40
0
40
0
40
0
40
0
40
0.0477947603241767
40
0.140303937758378
40
0.2331244377406
40
0.325653202144536
40
0.426625957317427
40
0.527962384817467
40
0.629384004853923
40
0.730473331799081
40
0.820280344742361
40
0.910201999433615
40
1
40
1
40
1
40
1
41
1
10
79.030924766997
20
-21.0446884524075
30
0
41
1
10
78.8604544425873
20
-20.9679926881086
30
0
41
1
10
78.3753997979376
20
-20.7309633198533
30
0
41
1
10
77.6431522117669
20
-20.2789372576337
30
0
41
1
10
76.8914389688443
20
-19.649417443144
30
0
41
1
10
76.2504814890989
20
-18.9060799892335
30
0
41
1
10
75.7137644332725
20
-18.0434094752303
30
0
41
1
10
75.2506427383911
20
-17.0675651571218
30
0
41
1
10
74.871520476145
20
-16.0102157715548
30
0
41
1
10
74.5695185676268
20
-14.9208205678585
30
0
41
1
10
74.3357820688562
20
-13.8115940520803
30
0
41
1
10
74.1735903051903
20
-12.694825039189
30
0
41
1
10
74.1068713115517
20
-11.9201043267268
30
0
41
1
10
74.0838786115416
20
-11.5251135711911
30
0
0
SPLINE
5
2C8
100
AcDbEntity
8
1
62
256
6
ByLayer
370
25
48
1
60
0
100
AcDbSpline
70
4
71
3
72
16
73
12
40
0
40
0
40
0
40
0
40
0.109415206131791
40
0.218845536611269
40
0.332266684554804
40
0.445706491395704
40
0.554883919647012
40
0.664073963396058
40
0.77569662007875
40
0.887328479596707
40
1
40
1
40
1
40
1
41
1
10
81.7979985706821
20
-23.5691393274454
30
0
41
1
10
81.5731118591971
20
-23.5618742694158
30
0
41
1
10
81.1540597777647
20
-23.5304159383471
30
0
41
1
10
80.6121942706899
20
-23.4341630425935
30
0
41
1
10
80.1579913820193
20
-23.2777613594577
30
0
41
1
10
79.7927902363858
20
-23.0601209743267
30
0
41
1
10
79.5115776590273
20
-22.7826926388275
30
0
41
1
10
79.3015956334383
20
-22.4466042747552
30
0
41
1
10
79.1537409419725
20
-22.0464509102121
30
0
41
1
10
79.062868873177
20
-21.58105577378
30
0
41
1
10
79.0356608428349
20
-21.2307506639265
30
0
41
1
10
79.030924766997
20
-21.0446884524075
30
0
0
SPLINE
5
2C9
100
AcDbEntity
8
1
62
256
6
ByLayer
370
25
48
1
60
0
100
AcDbSpline
70
4
71
3
72
16
73
12
40
0
40
0
40
0
40
0
40
0.0422084196175463
40
0.123361272714069
40
0.203735862227807
40
0.284182403986482
40
0.405447397211976
40
0.526866308239968
40
0.678786018936534
40
0.830772876862065
40
1
40
1
40
1
40
1
41
1
10
74.1932343381698
20
23.5408900861184
30
0
41
1
10
74.2155566428062
20
23.5368549740748
30
0
41
1
10
74.2899987660872
20
23.5245072367464
30
0
41
1
10
74.460646609182
20
23.5007979124379
30
0
41
1
10
74.7246161561886
20
23.469990603141
30
0
41
1
10
75.0862198783803
20
23.4333233298171
30
0
41
1
10
75.5615643311741
20
23.3931796688461
30
0
41
1
10
76.199924631955
20
23.3509649761506
30
0
41
1
10
76.9349001519389
20
23.3181465189275
30
0
41
1
10
77.7845494522475
20
23.3000305196819
30
0
41
1
10
78.3616416458891
20
23.3032907386343
30
0
41
1
10
78.6677743026656
20
23.3091163386685
30
0
0
SPLINE
5
2CA
100
AcDbEntity
8
1
62
256
6
ByLayer
370
25
48
1
60
0
100
AcDbSpline
70
4
71
3
72
18
73
14
40
0
40
0
40
0
40
0
40
0.0487716688047426
40
0.143171702043063
40
0.237889421155327
40
0.332309441714314
40
0.435346045312538
40
0.538753754575334
40
0.642248397680722
40
0.745403955738189
40
0.837046593171751
40
0.928806215591231
40
1
40
1
40
1
40
1
41
1
10
79.0309247669969
20
19.7259277763186
30
0
41
1
10
78.8604544425872
20
19.8197629476465
30
0
41
1
10
78.3753997977486
20
20.096301467675
30
0
41
1
10
77.6431522131086
20
20.5673537871505
30
0
41
1
10
76.8914389639496
20
21.1220653052461
30
0
41
1
10
76.2504815079677
20
21.6701783978519
30
0
41
1
10
75.7137643555457
20
22.1807504530349
30
0
41
1
10
75.2506430288908
20
22.6343786536044
30
0
41
1
10
74.8715193928299
20
23.0092556919255
30
0
41
1
10
74.5695224057162
20
23.2848347909922
30
0
41
1
10
74.3357695044575
20
23.4657563195129
30
0
41
1
10
74.185686490452
20
23.5575999049156
30
0
41
1
10
74.1221873328353
20
23.5756316283834
30
0
41
1
10
74.1006733028681
20
23.5758388799411
30
0
0
SPLINE
5
2CB
100
AcDbEntity
8
1
62
256
6
ByLayer
370
25
48
1
60
0
100
AcDbSpline
70
4
71
3
72
13
73
9
40
0
40
0
40
0
40
0
40
0.178615362907367
40
0.357429735659743
40
0.534529261563462
40
0.711787328973186
40
0.978985866954921
40
1
40
1
40
1
40
1
41
1
10
74.1423900497088
20
-10.8409823639949
30
0
41
1
10
74.172554460909
20
-10.7123325817057
30
0
41
1
10
74.2569803850098
20
-10.4633755536854
30
0
41
1
10
74.4607654671848
20
-10.111974790587
30
0
41
1
10
74.7246100941665
20
-9.79559459770352
30
0
41
1
10
75.0861104975445
20
-9.46770558776367
30
0
41
1
10
75.3974143035587
20
-9.26268424426959
30
0
41
1
10
75.5996678026666
20
-9.15124334810971
30
0
41
1
10
75.6144823673799
20
-9.14320237195536
30
0
0
SPLINE
5
2CC
100
AcDbEntity
8
1
62
256
6
ByLayer
370
25
48
1
60
0
100
AcDbSpline
70
4
71
3
72
16
73
12
40
0
40
0
40
0
40
0
40
0.153335532598486
40
0.306867096739036
40
0.460119496906436
40
0.613073737144325
40
0.705348089003578
40
0.797516531115691
40
0.862843705763601
40
0.928044529147194
40
1
40
1
40
1
40
1
41
1
10
99.1627380875619
20
14.387304342763
30
0
41
1
10
99.1504276342526
20
14.2300401240308
30
0
41
1
10
99.142240368402
20
13.9159075837901
30
0
41
1
10
99.1672257470359
20
13.4458973040782
30
0
41
1
10
99.2656519801209
20
12.9796394994096
30
0
41
1
10
99.432432173708
20
12.5808330828576
30
0
41
1
10
99.650433249423
20
12.2505758693071
30
0
41
1
10
99.8833684729226
20
12.0146282648924
30
0
41
1
10
100.161986881364
20
11.8166743674421
30
0
41
1
10
100.484999694053
20
11.6504240998082
30
0
41
1
10
100.771026430219
20
11.5600961256206
30
0
41
1
10
100.938022538107
20
11.5177322106802
30
0
0
SPLINE
5
2CD
100
AcDbEntity
8
1
62
256
6
ByLayer
370
25
48
1
60
0
100
AcDbSpline
70
4
71
1
72
4
73
2
40
0
40
0
40
1
40
1
41
1
10
100.938022538107
20
11.5177322106802
30
0
41
1
10
101.093039363849
20
11.4814237863276
30
0
0
SPLINE
5
2CE
100
AcDbEntity
8
1
62
256
6
ByLayer
370
25
48
1
60
0
100
AcDbSpline
70
4
71
2
72
6
73
3
40
0
40
0
40
0
40
1
40
1
40
1
41
1
10
101.093039363849
20
11.4814237863276
30
0
41
1
10
101.707613096659
20
10.7659413790344
30
0
41
1
10
102.512451173279
20
10.0786992812537
30
0
0
SPLINE
5
2CF
100
AcDbEntity
8
1
62
256
6
ByLayer
370
25
48
1
60
0
100
AcDbSpline
70
4
71
2
72
6
73
3
40
0
40
0
40
0
40
1
40
1
40
1
41
1
10
102.666952643427
20
9.8424161526568
30
0
41
1
10
102.640528928059
20
9.96650911971136
30
0
41
1
10
102.512451173279
20
10.0786992812537
30
0
0
SPLINE
5
2D0
100
AcDbEntity
8
1
62
256
6
ByLayer
370
25
48
1
60
0
100
AcDbSpline
70
4
71
1
72
4
73
2
40
0
40
0
40
1
40
1
41
1
10
102.67133645597
20
9.45561115429626
30
0
41
1
10
102.666952643427
20
9.8424161526568
30
0
0
SPLINE
5
2D1
100
AcDbEntity
8
1
62
256
6
ByLayer
370
25
48
1
60
0
100
AcDbSpline
70
4
71
1
72
4
73
2
40
0
40
0
40
1
40
1
41
1
10
94.9186357768834
20
14.4348145489208
30
0
41
1
10
99.1627380875619
20
14.387304342763
30
0
0
SPLINE
5
2D2
100
AcDbEntity
8
1
62
256
6
ByLayer
370
25
48
1
60
0
100
AcDbSpline
70
4
71
3
72
10
73
6
40
0
40
0
40
0
40
0
40
0.0673326920887273
40
0.965983952655917
40
1
40
1
40
1
40
1
41
1
10
100.791533320233
20
-8.34433796035711
30
0
41
1
10
100.793768891673
20
-8.3445672280413
30
0
41
1
10
100.825682937885
20
-8.34821094716579
30
0
41
1
10
100.857963612107
20
-8.3556876228866
30
0
41
1
10
100.884407286006
20
-8.36891346473597
30
0
41
1
10
100.885368807281
20
-8.36940224826339
30
0
0
SPLINE
5
2D3
100
AcDbEntity
8
1
62
256
6
ByLayer
370
25
48
1
60
0
100
AcDbSpline
70
4
71
3
72
11
73
7
40
0
40
0
40
0
40
0
40
0.191283450608778
40
0.450956321847367
40
0.710743966301757
40
1
40
1
40
1
40
1
41
1
10
75.6144823673799
20
-9.14320237195537
30
0
41
1
10
75.79021313797
20
-9.04923482903986
30
0
41
1
10
76.2152928118766
20
-8.85419985858921
30
0
41
1
10
76.93522189918
20
-8.64639513571499
30
0
41
1
10
77.7844462866545
20
-8.53640061391436
30
0
41
1
10
78.3616416458891
20
-8.55592583713764
30
0
41
1
10
78.6677743026656
20
-8.59205007286599
30
0
0
SPLINE
5
2D4
100
AcDbEntity
8
1
62
256
6
ByLayer
370
25
48
1
60
0
100
AcDbSpline
70
4
71
2
72
6
73
3
40
0
40
0
40
0
40
1
40
1
40
1
41
1
10
76.8683745316733
20
-9.36567994729096
30
0
41
1
10
76.9310745002461
20
-8.95575973882416
30
0
41
1
10
77.106838420169
20
-8.63429906565193
30
0
0
SPLINE
5
2D5
100
AcDbEntity
8
1
62
256
6
ByLayer
370
25
48
1
60
0
100
AcDbSpline
70
4
71
2
72
6
73
3
40
0
40
0
40
0
40
1
40
1
40
1
41
1
10
76.8702411347908
20
-9.36673485626943
30
0
41
1
10
75.4945396628357
20
-10.0973496578416
30
0
41
1
10
74.1419658781469
20
-10.8408641009142
30
0
0
SPLINE
5
2D6
100
AcDbEntity
8
1
62
256
6
ByLayer
370
25
48
1
60
0
100
AcDbSpline
70
4
71
3
72
12
73
8
40
0
40
0
40
0
40
0
40
0.153990078359411
40
0.420271140309473
40
0.688900608056151
40
0.867071099169183
40
1
40
1
40
1
40
1
41
1
10
102.112500816172
20
-7.81546253360922
30
0
41
1
10
102.10636531576
20
-7.81486229353043
30
0
41
1
10
102.089352764517
20
-7.81624843822546
30
0
41
1
10
102.059034954263
20
-7.83226569101122
30
0
41
1
10
102.028643408501
20
-7.86622237630727
30
0
41
1
10
102.008299375599
20
-7.90514046829648
30
0
41
1
10
102.001111536562
20
-7.92844511293348
30
0
41
1
10
101.998581612112
20
-7.93896484406293
30
0
0
SPLINE
5
2D7
100
AcDbEntity
8
1
62
256
6
ByLayer
370
25
48
1
60
0
100
AcDbSpline
70
4
71
2
72
6
73
3
40
0
40
0
40
0
40
1
40
1
40
1
41
1
10
78.6102121055208
20
-8.57923918747583
30
0
41
1
10
77.6729526578715
20
-8.92978530261492
30
0
41
1
10
76.8702411347908
20
-9.36673485626943
30
0
0
SPLINE
5
2D8
100
AcDbEntity
8
1
62
256
6
ByLayer
370
25
48
1
60
0
100
AcDbSpline
70
4
71
3
72
14
73
10
40
0
40
0
40
0
40
0
40
0.152851921976578
40
0.305703687481447
40
0.458563039236142
40
0.611382547701269
40
0.764141146521165
40
0.964286386213431
40
1
40
1
40
1
40
1
41
1
10
74.0838786115416
20
-11.5251135711911
30
0
41
1
10
74.3706222224297
20
-11.3698891797727
30
0
41
1
10
74.9438673457785
20
-11.0593126008635
30
0
41
1
10
75.8051209428594
20
-10.5941640375894
30
0
41
1
10
76.6613939431868
20
-10.12644899418
30
0
41
1
10
77.5442637546294
20
-9.67320020165311
30
0
41
1
10
78.6114435557143
20
-9.22997344902662
30
0
41
1
10
79.5070267290367
20
-8.94274817948819
30
0
41
1
10
80.0736168372297
20
-8.78903221648728
30
0
41
1
10
80.1600178236936
20
-8.76624004424673
30
0
0
SPLINE
5
2D9
100
AcDbEntity
8
SK1
62
256
6
ByLayer
370
25
48
1
60
0
100
AcDbSpline
70
4
71
1
72
4
73
2
40
0
40
0
40
1
40
1
41
1
10
-31.8620954509573
20
-9.14999999999984
30
0
41
1
10
-31.9
20
-8.66111674832968
30
0
0
SPLINE
5
2DA
100
AcDbEntity
8
SK1
62
256
6
ByLayer
370
25
48
1
60
0
100
AcDbSpline
70
4
71
1
72
4
73
2
40
0
40
0
40
1
40
1
41
1
10
-30.7599251403303
20
-8.90484115701832
30
0
41
1
10
-30.8913561297336
20
-9.14999999999983
30
0
0
SPLINE
5
2DB
100
AcDbEntity
8
SK1
62
256
6
ByLayer
370
25
48
1
60
0
100
AcDbSpline
70
4
71
2
72
6
73
3
40
0
40
0
40
0
40
1
40
1
40
1
41
1
10
-31.9
20
8.66111674832993
30
0
41
1
10
-31.899986937229
20
8.9019872154649
30
0
41
1
10
-31.8620954509573
20
9.15000000000015
30
0
0
SPLINE
5
2DC
100
AcDbEntity
8
SK1
62
256
6
ByLayer
370
25
48
1
60
0
100
AcDbSpline
70
4
71
1
72
4
73
2
40
0
40
0
40
1
40
1
41
1
10
-30.8913561297337
20
9.15000000000015
30
0
41
1
10
-30.7599251403303
20
8.90484115701856
30
0
0
SPLINE
5
2DD
100
AcDbEntity
8
SK1
62
256
6
ByLayer
370
25
48
1
60
0
100
AcDbSpline
70
4
71
3
72
16
73
12
40
0
40
0
40
0
40
0
40
0.168104207815752
40
0.317045670482106
40
0.466935307453542
40
0.546529436497247
40
0.611371477014682
40
0.68135077736375
40
0.750898934048904
40
0.877870392067026
40
1
40
1
40
1
40
1
41
1
10
-30.8913561297336
20
-9.14999999999983
30
0
41
1
10
-30.9376914092004
20
-9.24018179581886
30
0
41
1
10
-31.0332501264302
20
-9.39871119564706
30
0
41
1
10
-31.1926586911631
20
-9.60877580835663
30
0
41
1
10
-31.345724230336
20
-9.74039111869384
30
0
41
1
10
-31.4811529282425
20
-9.78426318245805
30
0
41
1
10
-31.5823234395408
20
-9.77017205146463
30
0
41
1
10
-31.6692123259223
20
-9.70791609275372
30
0
41
1
10
-31.7564217845767
20
-9.57998629033344
30
0
41
1
10
-31.8210599655393
20
-9.38693264672522
30
0
41
1
10
-31.852747396897
20
-9.23068067746227
30
0
41
1
10
-31.8620954509573
20
-9.14999999999984
30
0
0
SPLINE
5
2DE
100
AcDbEntity
8
SK1
62
256
6
ByLayer
370
25
48
1
60
0
100
AcDbSpline
70
4
71
3
72
16
73
12
40
0
40
0
40
0
40
0
40
0.08944349395181
40
0.195554770195602
40
0.302644008522495
40
0.36935643141687
40
0.388911150749399
40
0.464318761615008
40
0.560492629422037
40
0.729700783755998
40
1
40
1
40
1
40
1
41
1
10
-31.8620954509573
20
9.15000000000015
30
0
41
1
10
-31.8546234849908
20
9.20830551227164
30
0
41
1
10
-31.8320305532549
20
9.3326286940654
30
0
41
1
10
-31.7810175821151
20
9.51918088819693
30
0
41
1
10
-31.7029705338142
20
9.67201346590896
30
0
41
1
10
-31.6252404600667
20
9.74126215584562
30
0
41
1
10
-31.5539627506273
20
9.77558102333323
30
0
41
1
10
-31.4628994380466
20
9.78454861787258
30
0
41
1
10
-31.3086442704556
20
9.71812386554781
30
0
41
1
10
-31.1031982711705
20
9.5089507993321
30
0
41
1
10
-30.9638175469528
20
9.3019422920108
30
0
41
1
10
-30.8913561297337
20
9.15000000000015
30
0
0
SPLINE
5
2DF
100
AcDbEntity
8
1
62
256
6
ByLayer
370
25
48
1
60
0
100
AcDbSpline
70
4
71
3
72
18
73
14
40
0
40
0
40
0
40
0
40
0.0662685661835158
40
0.132536450008117
40
0.253216352251224
40
0.374424487169653
40
0.495636125147129
40
0.616320825172047
40
0.706080508678057
40
0.79609170160457
40
0.885996582904668
40
0.975610857871965
40
1
40
1
40
1
40
1
41
1
10
79.030924766997
20
-21.0446884524075
30
0
41
1
10
79.198407698697
20
-20.7333000623219
30
0
41
1
10
79.547776757278
20
-20.1193680493226
30
0
41
1
10
80.2690003274889
20
-18.977708915838
30
0
41
1
10
81.2456614469694
20
-17.654926627612
30
0
41
1
10
82.5345735524754
20
-16.2104707461366
30
0
41
1
10
83.9473254507606
20
-14.8860852991525
30
0
41
1
10
85.3465933748131
20
-13.8023317048408
30
0
41
1
10
86.6785475633803
20
-12.9110576578947
30
0
41
1
10
87.9138844301457
20
-12.1771559635036
30
0
41
1
10
89.1968066775578
20
-11.5351084879632
30
0
41
1
10
90.2046024147019
20
-11.1303481833505
30
0
41
1
10
90.7816375732344
20
-10.9435780060701
30
0
41
1
10
90.9056990132064
20
-10.9052135803422
30
0
0
SPLINE
5
2E0
100
AcDbEntity
8
1
62
256
6
ByLayer
370
25
48
1
60
0
100
AcDbSpline
70
4
71
2
72
6
73
3
40
0
40
0
40
0
40
1
40
1
40
1
41
1
10
102.601183537006
20
-7.19921406795034
30
0
41
1
10
102.607215406441
20
-7.19994938991564
30
0
41
1
10
102.611201547977
20
-7.21547920377195
30
0
0
SPLINE
5
2E1
100
AcDbEntity
8
1
62
256
6
ByLayer
370
25
48
1
60
0
100
AcDbSpline
70
4
71
2
72
6
73
3
40
0
40
0
40
0
40
1
40
1
40
1
41
1
10
16.0875
20
-21.0560949889959
30
0
41
1
10
15.3768824417158
20
-22.7468453797526
30
0
41
1
10
14.6253876765866
20
-24.4200409500066
30
0
0
SPLINE
5
2E2
100
AcDbEntity
8
1
62
256
6
ByLayer
370
25
48
1
60
0
100
AcDbSpline
70
4
71
2
72
6
73
3
40
0
40
0
40
0
40
1
40
1
40
1
41
1
10
21.3746123234134
20
-24.4200409500066
30
0
41
1
10
20.6231175582843
20
-22.7468453797526
30
0
41
1
10
19.9125
20
-21.0560949889959
30
0
0
SPLINE
5
2E3
100
AcDbEntity
8
1
62
256
6
ByLayer
370
25
48
1
60
0
100
AcDbSpline
70
4
71
2
72
6
73
3
40
0
40
0
40
0
40
1
40
1
40
1
41
1
10
92.3576751843362
20
-23.7136653757143
30
0
41
1
10
91.0744015008633
20
-23.734030234816
30
0
41
1
10
89.7979985706823
20
-23.8081777067989
30
0
0
SPLINE
5
2E4
100
AcDbEntity
8
1
62
256
6
ByLayer
370
25
48
1
60
0
100
AcDbSpline
70
4
71
3
72
17
73
13
40
0
40
0
40
0
40
0
40
0.114107708553376
40
0.228213106694478
40
0.345678565036727
40
0.463141954465273
40
0.577280019640929
40
0.69141823565624
40
0.809002626835321
40
0.926591052236992
40
0.998421379335088
40
1
40
1
40
1
40
1
41
1
10
89.7979985706823
20
-23.8081777067989
30
0
41
1
10
89.4459001323801
20
-23.7911630947475
30
0
41
1
10
88.751432657975
20
-23.7622927556097
30
0
41
1
10
87.725265526439
20
-23.7356254996957
30
0
41
1
10
86.7268892718767
20
-23.7217682533454
30
0
41
1
10
85.7735714463175
20
-23.7160335950375
30
0
41
1
10
84.8819478200819
20
-23.7128553605643
30
0
41
1
10
84.0475642926991
20
-23.7057992617575
30
0
41
1
10
83.2705996255698
20
-23.6880820993154
30
0
41
1
10
82.6494110341261
20
-23.6570074103423
30
0
41
1
10
82.2956159883722
20
-23.6268982137713
30
0
41
1
10
82.1645090449033
20
-23.6134833730103
30
0
41
1
10
82.1616919110702
20
-23.6131940961634
30
0
0
SPLINE
5
2E5
100
AcDbEntity
8
1
62
256
6
ByLayer
370
25
48
1
60
0
100
AcDbSpline
70
4
71
3
72
17
73
13
40
0
40
0
40
0
40
0
40
0.0674343711307885
40
0.283237022902053
40
0.498545836161545
40
0.597060618743746
40
0.695522507079201
40
0.794867010625724
40
0.893980209720662
40
0.94643990415723
40
0.998835079196466
40
1
40
1
40
1
40
1
41
1
10
99.1787617068254
20
-12.4616348125574
30
0
41
1
10
99.1771388606961
20
-12.5555037829155
30
0
41
1
10
99.1799305368326
20
-12.9496903921214
30
0
41
1
10
99.2808533350988
20
-13.6443048573875
30
0
41
1
10
99.4499174298479
20
-14.3783405874505
30
0
41
1
10
99.6547776205687
20
-14.9426151897456
30
0
41
1
10
99.8501779719047
20
-15.3410997999323
30
0
41
1
10
100.104897022293
20
-15.7281735950672
30
0
41
1
10
100.389345005833
20
-16.0355757776092
30
0
41
1
10
100.673968379185
20
-16.2611562893055
30
0
41
1
10
100.844190699577
20
-16.3658764040251
30
0
41
1
10
100.936022475605
20
-16.4139996513264
30
0
41
1
10
100.938022538107
20
-16.4150444221402
30
0
0
SPLINE
5
2E6
100
AcDbEntity
8
1
62
256
6
ByLayer
370
25
48
1
60
0
100
AcDbSpline
70
4
71
1
72
4
73
2
40
0
40
0
40
1
40
1
41
1
10
100.938022538107
20
-16.4150444221402
30
0
41
1
10
101.093039363849
20
-16.4955419972767
30
0
0
SPLINE
5
2E7
100
AcDbEntity
8
1
62
256
6
ByLayer
370
25
48
1
60
0
100
AcDbSpline
70
4
71
2
72
6
73
3
40
0
40
0
40
0
40
1
40
1
40
1
41
1
10
101.093039363849
20
-16.4955419972767
30
0
41
1
10
101.707613096659
20
-17.8755555585934
30
0
41
1
10
102.512451173279
20
-19.2192314523269
30
0
0
SPLINE
5
2E8
100
AcDbEntity
8
1
62
256
6
ByLayer
370
25
48
1
60
0
100
AcDbSpline
70
4
71
2
72
6
73
3
40
0
40
0
40
0
40
1
40
1
40
1
41
1
10
102.666952643427
20
-19.6708756862095
30
0
41
1
10
102.64019464061
20
-19.4392299922397
30
0
41
1
10
102.512451173279
20
-19.2192314523269
30
0
0
SPLINE
5
2E9
100
AcDbEntity
8
1
62
256
6
ByLayer
370
25
48
1
60
0
100
AcDbSpline
70
4
71
1
72
4
73
2
40
0
40
0
40
1
40
1
41
1
10
102.67133645597
20
-20.3892281839623
30
0
41
1
10
102.666992647855
20
-19.6775955179726
30
0
0
SPLINE
5
2EA
100
AcDbEntity
8
1
62
256
6
ByLayer
370
25
48
1
60
0
100
AcDbSpline
70
4
71
3
72
17
73
13
40
0
40
0
40
0
40
0
40
0.0777318425846738
40
0.155503102966051
40
0.232867972038071
40
0.310286234704042
40
0.413683911484524
40
0.517205223707193
40
0.654520595165787
40
0.792025466545728
40
0.895998214638364
40
1
40
1
40
1
40
1
41
1
10
99.0676015770976
20
-23.6030546960602
30
0
41
1
10
99.2484827369693
20
-23.6001286339626
30
0
41
1
10
99.6020130042221
20
-23.5746360736834
30
0
41
1
10
100.113556993493
20
-23.475598601733
30
0
41
1
10
100.585496212463
20
-23.3221180774762
30
0
41
1
10
101.060153418071
20
-23.1020697767514
30
0
41
1
10
101.510305633009
20
-22.8052850325357
30
0
41
1
10
101.953717805968
20
-22.3928437310265
30
0
41
1
10
102.312593923416
20
-21.8894337337311
30
0
41
1
10
102.539737311428
20
-21.3530398834353
30
0
41
1
10
102.649955527681
20
-20.8494439641006
30
0
41
1
10
102.671933319503
20
-20.5433842756505
30
0
41
1
10
102.67133645597
20
-20.3892281839623
30
0
0
SPLINE
5
2EB
100
AcDbEntity
8
1
62
256
6
ByLayer
370
25
48
1
60
0
100
AcDbSpline
70
4
71
1
72
4
73
2
40
0
40
0
40
1
40
1
41
1
10
82.1616919110702
20
-23.6131940961634
30
0
41
1
10
81.7979985706821
20
-23.5691393274454
30
0
0
SPLINE
5
2EC
100
AcDbEntity
8
1
62
256
6
ByLayer
370
25
48
1
60
0
100
AcDbSpline
70
4
71
1
72
4
73
2
40
0
40
0
40
1
40
1
41
1
10
102.666952643427
20
-12.6851574878835
30
0
41
1
10
102.66211133531
20
-12.6327650882435
30
0
0
SPLINE
5
2ED
100
AcDbEntity
8
1
62
256
6
ByLayer
370
25
48
1
60
0
100
AcDbSpline
70
4
71
1
72
4
73
2
40
0
40
0
40
1
40
1
41
1
10
102.668017468103
20
-12.9493527654932
30
0
41
1
10
102.666952643427
20
-12.6851574878836
30
0
0
SPLINE
5
2EE
100
AcDbEntity
8
1
62
256
6
ByLayer
370
25
48
1
60
0
100
AcDbSpline
70
4
71
3
72
11
73
7
40
0
40
0
40
0
40
0
40
0.0092937028921361
40
0.407510428626124
40
0.803048780374938
40
1
40
1
40
1
40
1
41
1
10
102.668017468103
20
-12.9493527654932
30
0
41
1
10
102.668018861514
20
-12.9496966500909
30
0
41
1
10
102.668080181398
20
-12.96476398118
30
0
41
1
10
102.668224489506
20
-12.9944429016166
30
0
41
1
10
102.668437902229
20
-13.0263311022805
30
0
41
1
10
102.668567733132
20
-13.0413755361081
30
0
41
1
10
102.668611735086
20
-13.046016385504
30
0
0
SPLINE
5
2EF
100
AcDbEntity
8
1
62
256
6
ByLayer
370
25
48
1
60
0
100
AcDbSpline
70
4
71
3
72
10
73
6
40
0
40
0
40
0
40
0
40
0.250815787459108
40
0.748006419853756
40
1
40
1
40
1
40
1
41
1
10
102.668611735086
20
-13.046016385504
30
0
41
1
10
102.668655728083
20
-13.0506354896079
30
0
41
1
10
102.668783511902
20
-13.062718998841
30
0
41
1
10
102.668949444523
20
-13.072644707127
30
0
41
1
10
102.669053693661
20
-13.0744347148901
30
0
41
1
10
102.669087228166
20
-13.0744418989212
30
0
0
SPLINE
5
2F0
100
AcDbEntity
8
1
62
256
6
ByLayer
370
25
48
1
60
0
100
AcDbSpline
70
4
71
3
72
12
73
8
40
0
40
0
40
0
40
0
40
0.026738989759864
40
0.272427797840738
40
0.526681253268612
40
0.770997215341757
40
1
40
1
40
1
40
1
41
1
10
77.5289045099364
20
20.6574196463487
30
0
41
1
10
77.5427856650783
20
20.6675997330074
30
0
41
1
10
77.6857365812115
20
20.7727284441482
30
0
41
1
10
77.9973681600184
20
21.0076918003208
30
0
41
1
10
78.5004939137922
20
21.4003748573692
30
0
41
1
10
79.0294826567994
20
21.824677337993
30
0
41
1
10
79.3723220718076
20
22.106144895861
30
0
41
1
10
79.5398245526089
20
22.245154936094
30
0
0
SPLINE
5
2F1
100
AcDbEntity
8
1
62
256
6
ByLayer
370
25
48
1
60
0
100
AcDbSpline
70
4
71
3
72
11
73
7
40
0
40
0
40
0
40
0
40
0.274820443465757
40
0.554361659029118
40
0.776482693769659
40
1
40
1
40
1
40
1
41
1
10
79.5398245526089
20
22.245154936094
30
0
41
1
10
79.8348101913659
20
21.8854322733628
30
0
41
1
10
80.4617549462653
20
21.1932450092446
30
0
41
1
10
81.4344493440136
20
20.3139956156521
30
0
41
1
10
82.4116953620098
20
19.5797088996681
30
0
41
1
10
83.045024922152
20
19.179150043388
30
0
41
1
10
83.371330792401
20
18.9907192861616
30
0
0
SPLINE
5
2F2
100
AcDbEntity
8
1
62
256
6
ByLayer
370
25
48
1
60
0
100
AcDbSpline
70
4
71
3
72
10
73
6
40
0
40
0
40
0
40
0
40
0.340148561968649
40
0.691599769913045
40
1
40
1
40
1
40
1
41
1
10
83.371330792401
20
18.9907192861617
30
0
41
1
10
83.3158179974688
20
18.887976498871
30
0
41
1
10
83.1899799139919
20
18.6897001649949
30
0
41
1
10
82.9644842980171
20
18.4307864622012
30
0
41
1
10
82.798403002493
20
18.2838810776544
30
0
41
1
10
82.7162351782604
20
18.2199603170229
30
0
0
SPLINE
5
2F3
100
AcDbEntity
8
1
62
256
6
ByLayer
370
25
48
1
60
0
100
AcDbSpline
70
4
71
3
72
11
73
7
40
0
40
0
40
0
40
0
40
0.237632043121792
40
0.49497009781766
40
0.752511543820852
40
1
40
1
40
1
40
1
41
1
10
82.1028516716686
20
17.4479282741797
30
0
41
1
10
82.1278465035642
20
17.5155434227383
30
0
41
1
10
82.1924545700147
20
17.6535414356397
30
0
41
1
10
82.3347846391603
20
17.8556307620026
30
0
41
1
10
82.5119749010158
20
18.0482967305666
30
0
41
1
10
82.6461032953536
20
18.1650875301176
30
0
41
1
10
82.7162351782604
20
18.2199603170229
30
0
0
SPLINE
5
2F4
100
AcDbEntity
8
1
62
256
6
ByLayer
370
25
48
1
60
0
100
AcDbSpline
70
4
71
2
72
6
73
3
40
0
40
0
40
0
40
1
40
1
40
1
41
1
10
78.6677743026656
20
23.3091163386685
30
0
41
1
10
79.1037994276373
20
22.7771356373813
30
0
41
1
10
79.5398245526089
20
22.245154936094
30
0
0
SPLINE
5
2F5
100
AcDbEntity
8
1
62
256
6
ByLayer
370
25
48
1
60
0
100
AcDbSpline
70
4
71
3
72
10
73
6
40
0
40
0
40
0
40
0
40
0.138486137734636
40
0.597329469623536
40
1
40
1
40
1
40
1
41
1
10
82.8647070331399
20
17.0103876566309
30
0
41
1
10
82.8822489191377
20
17.0466852243452
30
0
41
1
10
82.9626868589811
20
17.2061049713435
30
0
41
1
10
83.1295808746213
20
17.5179846029815
30
0
41
1
10
83.319839802735
20
17.7729245881316
30
0
41
1
10
83.418432078137
20
17.8943676521426
30
0
0
SPLINE
5
2F6
100
AcDbEntity
8
1
62
256
6
ByLayer
370
25
48
1
60
0
100
AcDbSpline
70
4
71
1
72
4
73
2
40
0
40
0
40
1
40
1
41
1
10
83.7920284755335
20
18.2534904431569
30
0
41
1
10
83.418432078137
20
17.8943676521426
30
0
0
SPLINE
5
2F7
100
AcDbEntity
8
1
62
256
6
ByLayer
370
25
48
1
60
0
100
AcDbSpline
70
4
71
1
72
4
73
2
40
0
40
0
40
1
40
1
41
1
10
102.67133645597
20
10.933617029666
30
0
41
1
10
102.666992647856
20
9.83879778033821
30
0
0
SPLINE
5
2F8
100
AcDbEntity
8
1
62
256
6
ByLayer
370
25
48
1
60
0
100
AcDbSpline
70
4
71
3
72
11
73
7
40
0
40
0
40
0
40
0
40
0.439562167558704
40
0.693929274951538
40
0.948257451833102
40
1
40
1
40
1
40
1
41
1
10
85.7944629209587
20
23.6551253915809
30
0
41
1
10
85.8203591744288
20
23.6237469633191
30
0
41
1
10
85.9034121572006
20
23.5786950606041
30
0
41
1
10
86.1109106209541
20
23.5251299558112
30
0
41
1
10
86.2693780457639
20
23.4996447624158
30
0
41
1
10
86.3664440246632
20
23.4883668939274
30
0
41
1
10
86.3831703982323
20
23.4865278433757
30
0
0
SPLINE
5
2F9
100
AcDbEntity
8
1
62
256
6
ByLayer
370
25
48
1
60
0
100
AcDbSpline
70
4
71
2
72
6
73
3
40
0
40
0
40
0
40
1
40
1
40
1
41
1
10
102.669176975277
20
-13.0726455315598
30
0
41
1
10
102.66927863595
20
-13.0680322792152
30
0
41
1
10
102.669324035677
20
-13.0539457001142
30
0
0
SPLINE
5
2FA
100
AcDbEntity
8
1
62
256
6
ByLayer
370
25
48
1
60
0
100
AcDbSpline
70
4
71
3
72
10
73
6
40
0
40
0
40
0
40
0
40
0.222453453684604
40
0.619382342416671
40
1
40
1
40
1
40
1
41
1
10
103.326836553138
20
-12.3106695941279
30
0
41
1
10
103.357905860193
20
-12.3822480718106
30
0
41
1
10
103.432802824107
20
-12.5834548806884
30
0
41
1
10
103.506842850381
20
-12.9176889497621
30
0
41
1
10
103.505382854954
20
-13.1847288173374
30
0
41
1
10
103.491597931145
20
-13.3173249465949
30
0
0
SPLINE
5
2FB
100
AcDbEntity
8
1
62
256
6
ByLayer
370
25
48
1
60
0
100
AcDbSpline
70
4
71
2
72
6
73
3
40
0
40
0
40
0
40
1
40
1
40
1
41
1
10
103.491597931149
20
-13.3173249465955
30
0
41
1
10
103.480310906241
20
-13.4304612405302
30
0
41
1
10
103.418766932831
20
-13.5449169071121
30
0
0
SPLINE
5
2FC
100
AcDbEntity
8
1
62
256
6
ByLayer
370
25
48
1
60
0
100
AcDbSpline
70
4
71
2
72
6
73
3
40
0
40
0
40
0
40
1
40
1
40
1
41
1
10
102.86529073258
20
-13.0556218675761
30
0
41
1
10
102.863417173992
20
-13.0687278286624
30
0
41
1
10
102.862147776384
20
-13.0819032797091
30
0
0
SPLINE
5
2FD
100
AcDbEntity
8
1
62
256
6
ByLayer
370
25
48
1
60
0
100
AcDbSpline
70
4
71
3
72
11
73
7
40
0
40
0
40
0
40
0
40
0.27036393005972
40
0.540212249799709
40
0.806433180977756
40
1
40
1
40
1
40
1
41
1
10
102.865296971702
20
-13.0556220188483
30
0
41
1
10
102.869445589041
20
-13.0304306767885
30
0
41
1
10
102.87855611941
20
-12.9813079299416
30
0
41
1
10
102.897524576189
20
-12.9084295313768
30
0
41
1
10
102.911639842821
20
-12.8514208374858
30
0
41
1
10
102.914182736049
20
-12.8264524749903
30
0
41
1
10
102.914433277281
20
-12.8174844352889
30
0
0
SPLINE
5
2FE
100
AcDbEntity
8
1
62
256
6
ByLayer
370
25
48
1
60
0
100
AcDbSpline
70
4
71
2
72
6
73
3
40
0
40
0
40
0
40
1
40
1
40
1
41
1
10
102.909174068011
20
-12.7318952276045
30
0
41
1
10
102.905711796679
20
-12.7093434841836
30
0
41
1
10
102.893262540991
20
-12.71097637131
30
0
0
SPLINE
5
2FF
100
AcDbEntity
8
1
62
256
6
ByLayer
370
25
48
1
60
0
100
AcDbSpline
70
4
71
2
72
6
73
3
40
0
40
0
40
0
40
1
40
1
40
1
41
1
10
102.848639934674
20
-12.789345410767
30
0
41
1
10
102.846592940812
20
-12.7998988976889
30
0
41
1
10
102.845149436063
20
-12.810498798338
30
0
0
SPLINE
5
300
100
AcDbEntity
8
1
62
256
6
ByLayer
370
25
48
1
60
0
100
AcDbSpline
70
4
71
2
72
6
73
3
40
0
40
0
40
0
40
1
40
1
40
1
41
1
10
102.669415101035
20
-12.7119218602186
30
0
41
1
10
102.684620740972
20
-12.6672209048131
30
0
41
1
10
102.69291038495
20
-12.6208994444725
30
0
0
SPLINE
5
301
100
AcDbEntity
8
1
62
256
6
ByLayer
370
25
48
1
60
0
100
AcDbSpline
70
4
71
3
72
12
73
8
40
0
40
0
40
0
40
0
40
0.310456705876667
40
0.555465424220369
40
0.834713774112547
40
0.97479701430529
40
1
40
1
40
1
40
1
41
1
10
102.842477778672
20
-12.8260741084463
30
0
41
1
10
102.83224006607
20
-12.8544158075667
30
0
41
1
10
102.807419344569
20
-12.9024590499278
30
0
41
1
10
102.747343988438
20
-12.9647563780429
30
0
41
1
10
102.695405905203
20
-13.013608151969
30
0
41
1
10
102.660556426106
20
-13.043336217072
30
0
41
1
10
102.65017831982
20
-13.0455914826001
30
0
41
1
10
102.648628170653
20
-13.04582001759
30
0
0
SPLINE
5
302
100
AcDbEntity
8
1
62
256
6
ByLayer
370
25
48
1
60
0
100
AcDbSpline
70
4
71
2
72
6
73
3
40
0
40
0
40
0
40
1
40
1
40
1
41
1
10
103.894448441554
20
-10.2582247425394
30
0
41
1
10
103.917746409487
20
-10.3040828917931
30
0
41
1
10
103.936354377549
20
-10.3509871703264
30
0
0
SPLINE
5
303
100
AcDbEntity
8
1
62
256
6
ByLayer
370
25
48
1
60
0
100
AcDbSpline
70
4
71
2
72
6
73
3
40
0
40
0
40
0
40
1
40
1
40
1
41
1
10
103.936354377549
20
-10.3509871703264
30
0
41
1
10
103.99414504577
20
-10.4964148604792
30
0
41
1
10
104.005447464792
20
-10.6513051551872
30
0
0
SPLINE
5
304
100
AcDbEntity
8
1
62
256
6
ByLayer
370
25
48
1
60
0
100
AcDbSpline
70
4
71
3
72
11
73
7
40
0
40
0
40
0
40
0
40
0.121044888745721
40
0.486587275881728
40
0.893698229468948
40
1
40
1
40
1
40
1
41
1
10
102.893262540991
20
-12.71097637131
30
0
41
1
10
102.891403387155
20
-12.7112164913859
30
0
41
1
10
102.88386615169
20
-12.7136533083873
30
0
41
1
10
102.868215554087
20
-12.7295344173494
30
0
41
1
10
102.854869504798
20
-12.7609972412988
30
0
41
1
10
102.849650047185
20
-12.7842888312619
30
0
41
1
10
102.848646017557
20
-12.7893454150731
30
0
0
SPLINE
5
305
100
AcDbEntity
8
1
62
256
6
ByLayer
370
25
48
1
60
0
100
AcDbSpline
70
4
71
3
72
12
73
8
40
0
40
0
40
0
40
0
40
0.123779220721134
40
0.249702833044494
40
0.500646232758326
40
0.780403258642012
40
1
40
1
40
1
40
1
41
1
10
102.665888300638
20
-13.5382163816602
30
0
41
1
10
102.669908226994
20
-13.525649675268
30
0
41
1
10
102.681126783153
20
-13.4974391294919
30
0
41
1
10
102.722663707008
20
-13.4215255700831
30
0
41
1
10
102.776641558575
20
-13.3296328587352
30
0
41
1
10
102.832452288695
20
-13.2170378146811
30
0
41
1
10
102.853004454398
20
-13.1372716660753
30
0
41
1
10
102.859730766759
20
-13.1012647516708
30
0
0
SPLINE
5
306
100
AcDbEntity
8
1
62
256
6
ByLayer
370
25
48
1
60
0
100
AcDbSpline
70
4
71
3
72
12
73
8
40
0
40
0
40
0
40
0
40
0.0062963282726123
40
0.359531573374204
40
0.762507044888331
40
0.964040602673168
40
1
40
1
40
1
40
1
41
1
10
102.737318877999
20
-13.4922527229845
30
0
41
1
10
102.737153964033
20
-13.4925835824705
30
0
41
1
10
102.727704829448
20
-13.5114684188032
30
0
41
1
10
102.702174989051
20
-13.5503403605725
30
0
41
1
10
102.664048204774
20
-13.5972822734028
30
0
41
1
10
102.640182204294
20
-13.6272307485337
30
0
41
1
10
102.637150248609
20
-13.6285975710992
30
0
41
1
10
102.636765823564
20
-13.62868153964
30
0
0
SPLINE
5
307
100
AcDbEntity
8
1
62
256
6
ByLayer
370
25
48
1
60
0
100
AcDbSpline
70
4
71
3
72
10
73
6
40
0
40
0
40
0
40
0
40
0.143042800451871
40
0.719134763727563
40
1
40
1
40
1
40
1
41
1
10
102.73591281177
20
-13.495112434205
30
0
41
1
10
102.744779361613
20
-13.4771549676864
30
0
41
1
10
102.787111922566
20
-13.3871413050926
30
0
41
1
10
102.829779016258
20
-13.2645123848828
30
0
41
1
10
102.850987086587
20
-13.1604537314838
30
0
41
1
10
102.856237247274
20
-13.1265269426006
30
0
0
SPLINE
5
308
100
AcDbEntity
8
1
62
256
6
ByLayer
370
25
48
1
60
0
100
AcDbSpline
70
4
71
3
72
12
73
8
40
0
40
0
40
0
40
0
40
0.184393568257752
40
0.448255851800301
40
0.712122439849383
40
0.978697291093855
40
1
40
1
40
1
40
1
41
1
10
103.418766932831
20
-13.5449169071121
30
0
41
1
10
103.39642035275
20
-13.5860058766117
30
0
41
1
10
103.331136793687
20
-13.684830423396
30
0
41
1
10
103.18281096506
20
-13.8393892536385
30
0
41
1
10
102.966890014242
20
-14.0026951209063
30
0
41
1
10
102.78282747235
20
-14.1062000482683
30
0
41
1
10
102.680510897438
20
-14.1570526211945
30
0
41
1
10
102.672896291808
20
-14.1607993050643
30
0
0
SPLINE
5
309
100
AcDbEntity
8
1
62
256
6
ByLayer
370
25
48
1
60
0
100
AcDbSpline
70
4
71
3
72
10
73
6
40
0
40
0
40
0
40
0
40
0.34604264292542
40
0.771829669362716
40
1
40
1
40
1
40
1
41
1
10
103.417123976854
20
-13.5510926442662
30
0
41
1
10
103.449099317651
20
-13.3703375163307
30
0
41
1
10
103.525110449761
20
-12.9585089001189
30
0
41
1
10
103.639093454008
20
-12.3975997120459
30
0
41
1
10
103.719194838856
20
-12.0192238683324
30
0
41
1
10
103.747965140078
20
-11.8856260828555
30
0
0
SPLINE
5
30A
100
AcDbEntity
8
1
62
256
6
ByLayer
370
25
48
1
60
0
100
AcDbSpline
70
4
71
2
72
6
73
3
40
0
40
0
40
0
40
1
40
1
40
1
41
0.500038029902777
10
102.687211450444
20
-6.69195857612892
30
0
41
0.499961970097223
10
102.716550826785
20
-6.72576657854719
30
0
41
0.500038029902777
10
102.743887796355
20
-6.75989028767723
30
0
0
SPLINE
5
30B
100
AcDbEntity
8
1
62
256
6
ByLayer
370
25
48
1
60
0
100
AcDbSpline
70
4
71
2
72
6
73
3
40
0
40
0
40
0
40
1
40
1
40
1
41
0.500098769958566
10
102.751862170183
20
-8.04178013249379
30
0
41
0.499901230041434
10
102.722348693434
20
-8.08865500702663
30
0
41
0.500098769958566
10
102.687656805228
20
-8.13399795952531
30
0
0
SPLINE
5
30C
100
AcDbEntity
8
1
62
256
6
ByLayer
370
25
48
1
60
0
100
AcDbSpline
70
4
71
2
72
6
73
3
40
0
40
0
40
0
40
1
40
1
40
1
41
0.500087744771095
10
102.909174067578
20
-7.39074174873488
30
0
41
0.499912255228905
10
102.914238611179
20
-7.44072258377797
30
0
41
0.500087744771095
10
102.914433277313
20
-7.49025176116705
30
0
0
SPLINE
5
30D
100
AcDbEntity
8
1
62
256
6
ByLayer
370
25
48
1
60
0
100
AcDbSpline
70
4
71
2
72
6
73
3
40
0
40
0
40
0
40
1
40
1
40
1
41
0.500082721406025
10
102.665888012073
20
-7.24495841771447
30
0
41
0.499917278593975
10
102.654518652845
20
-7.287406369758
30
0
41
0.500082721406025
10
102.638992417385
20
-7.32903218398658
30
0
0
SPLINE
5
30E
100
AcDbEntity
8
1
62
256
6
ByLayer
370
25
48
1
60
0
100
AcDbSpline
70
4
71
2
72
6
73
3
40
0
40
0
40
0
40
1
40
1
40
1
41
0.50059616150477
10
93.6887599597043
20
20.7565029067281
30
0
41
0.49940383849523
10
93.7713100528328
20
20.7618178620258
30
0
41
0.50059616150477
10
93.8538581032959
20
20.7556336062749
30
0
0
SPLINE
5
30F
100
AcDbEntity
8
1
62
256
6
ByLayer
370
25
48
1
60
0
100
AcDbSpline
70
4
71
2
72
6
73
3
40
0
40
0
40
0
40
1
40
1
40
1
41
0.514540450348722
10
94.4011960489391
20
18.1951080692925
30
0
41
0.485459549651278
10
94.4727039752717
20
18.1218350342455
30
0
41
0.514540450348722
10
94.5737664718302
20
18.1094775606412
30
0
0
SPLINE
5
310
100
AcDbEntity
8
1
62
256
6
ByLayer
370
25
48
1
60
0
100
AcDbSpline
70
4
71
2
72
6
73
3
40
0
40
0
40
0
40
1
40
1
40
1
41
0.50059616150477
10
93.8534308287117
20
18.3502858614425
30
0
41
0.49940383849523
10
93.7708807355832
20
18.3449709061448
30
0
41
0.50059616150477
10
93.6883326851201
20
18.3511551618957
30
0
0
SPLINE
5
311
100
AcDbEntity
8
1
62
256
6
ByLayer
370
25
48
1
60
0
100
AcDbSpline
70
4
71
2
72
6
73
3
40
0
40
0
40
0
40
1
40
1
40
1
41
0.501041035603213
10
93.8347149570834
20
18.3966441685585
30
0
41
0.498958964396787
10
93.7729456906949
20
18.3893648065391
30
0
41
0.501041035603213
10
93.7135682891765
20
18.3709129887263
30
0
0
SPLINE
5
312
100
AcDbEntity
8
1
62
256
6
ByLayer
370
25
48
1
60
0
100
AcDbSpline
70
4
71
2
72
6
73
3
40
0
40
0
40
0
40
1
40
1
40
1
41
0.50059616150477
10
93.999813100675
20
18.3957748681053
30
0
41
0.49940383849523
10
93.9172630075465
20
18.3904599128076
30
0
41
0.50059616150477
10
93.8347149570834
20
18.3966441685585
30
0
0
SPLINE
5
313
100
AcDbEntity
8
1
62
256
6
ByLayer
370
25
48
1
60
0
100
AcDbSpline
70
4
71
2
72
6
73
3
40
0
40
0
40
0
40
1
40
1
40
1
41
0.502764697479836
10
90.2895893925692
20
-7.26180610941574
30
0
41
0.497235302520164
10
90.1805538645159
20
-7.22054126594697
30
0
41
0.502764697479836
10
90.0618855632504
20
-7.20808348591351
30
0
0
SPLINE
5
314
100
AcDbEntity
8
1
62
256
6
ByLayer
370
25
48
1
60
0
100
AcDbSpline
70
4
71
2
72
6
73
3
40
0
40
0
40
0
40
1
40
1
40
1
41
0.500000285616134
10
100.938022538107
20
14.4934465024827
30
0
41
0.499999714383866
10
100.938022538107
20
14.4804429125779
30
0
41
0.500000285616134
10
100.938022538107
20
14.467373149179
30
0
0
SPLINE
5
315
100
AcDbEntity
8
1
62
256
6
ByLayer
370
25
48
1
60
0
100
AcDbSpline
70
4
71
2
72
6
73
3
40
0
40
0
40
0
40
1
40
1
40
1
41
0.500087744771095
10
102.909174067578
20
-12.7318952239736
30
0
41
0.499912255228905
10
102.914238611179
20
-12.7743814278935
30
0
41
0.500087744771095
10
102.914433277313
20
-12.8174844424089
30
0
0
SPLINE
5
316
100
AcDbEntity
8
1
62
256
6
ByLayer
370
25
48
1
60
0
100
AcDbSpline
70
4
71
2
72
6
73
3
40
0
40
0
40
0
40
1
40
1
40
1
41
0.500005217562731
10
85.6213405875432
20
23.1667133307833
30
0
41
0.499994782437269
10
85.6233182298058
20
23.1226427712107
30
0
41
0.500005217562731
10
85.625258382041
20
23.0780798162565
30
0
0
LINE
5
73
100
AcDbEntity
8
1
62
256
6
ByLayer
370
25
48
1
60
0
100
AcDbLine
10
86.71121
20
-9.946627
30
0
11
87.275414
21
-7.498071
31
0
39
0
210
0
220
0
230
1
0
LINE
5
74
100
AcDbEntity
8
1
62
256
6
ByLayer
370
25
48
1
60
0
100
AcDbLine
10
87.43464
20
-7.395226
30
0
11
87.226839
21
-7.165301
31
0
39
0
210
0
220
0
230
1
0
LINE
5
75
100
AcDbEntity
8
1
62
256
6
ByLayer
370
25
48
1
60
0
100
AcDbLine
10
87.11133
20
-7.316517
30
0
11
87.275414
21
-7.498071
31
0
39
0
210
0
220
0
230
1
0
LINE
5
76
100
AcDbEntity
8
1
62
256
6
ByLayer
370
25
48
1
60
0
100
AcDbLine
10
104.005447
20
-11.029514
30
0
11
103.491598
21
-8.483059
31
0
39
0
210
0
220
0
230
1
0
LINE
5
77
100
AcDbEntity
8
1
62
256
6
ByLayer
370
25
48
1
60
0
100
AcDbLine
10
100.070151
20
-8.812117
30
0
11
88.825196
21
-7.631624
31
0
39
0
210
0
220
0
230
1
0
LINE
5
78
100
AcDbEntity
8
1
62
256
6
ByLayer
370
25
48
1
60
0
100
AcDbLine
10
100.250164
20
-8.413352
30
0
11
88.787026
21
-7.209954
31
0
39
0
210
0
220
0
230
1
0
LINE
5
79
100
AcDbEntity
8
1
62
256
6
ByLayer
370
25
48
1
60
0
100
AcDbLine
10
99.467446
20
-8.964108
30
0
11
89.213045
21
-7.887602
31
0
39
0
210
0
220
0
230
1
0
LINE
5
7A
100
AcDbEntity
8
1
62
256
6
ByLayer
370
25
48
1
60
0
100
AcDbLine
10
100.072188
20
-8.856128
30
0
11
88.813378
21
-7.67418
31
0
39
0
210
0
220
0
230
1
0
LINE
5
7B
100
AcDbEntity
8
1
62
256
6
ByLayer
370
25
48
1
60
0
100
AcDbLine
10
100.67198
20
-8.370738
30
0
11
88.456825
21
-7.088393
31
0
39
0
210
0
220
0
230
1
0
LINE
5
7C
100
AcDbEntity
8
1
62
256
6
ByLayer
370
25
48
1
60
0
100
AcDbLine
10
87.613015
20
-7.219012
30
0
11
87.514204
21
-7.109681
31
0
39
0
210
0
220
0
230
1
0
LINE
5
7D
100
AcDbEntity
8
1
62
256
6
ByLayer
370
25
48
1
60
0
100
AcDbLine
10
101.872971
20
-8.716019
30
0
11
101.617957
21
-8.689249
31
0
39
0
210
0
220
0
230
1
0
LINE
5
7E
100
AcDbEntity
8
1
62
256
6
ByLayer
370
25
48
1
60
0
100
AcDbLine
10
87.78782
20
-7.237363
30
0
11
87.613015
21
-7.219012
31
0
39
0
210
0
220
0
230
1
0
LINE
5
7F
100
AcDbEntity
8
1
62
256
6
ByLayer
370
25
48
1
60
0
100
AcDbLine
10
103.174639
20
-6.951544
30
0
11
102.671336
21
-6.394656
31
0
39
0
210
0
220
0
230
1
0
LINE
5
80
100
AcDbEntity
8
1
62
256
6
ByLayer
370
25
48
1
60
0
100
AcDbLine
10
102.146154
20
-8.362505
30
0
11
101.899758
21
-8.336639
31
0
39
0
210
0
220
0
230
1
0
LINE
5
81
100
AcDbEntity
8
1
62
256
6
ByLayer
370
25
48
1
60
0
100
AcDbLine
10
88.96312
20
-6.978553
30
0
11
87.704681
21
-6.846442
31
0
39
0
210
0
220
0
230
1
0
LINE
5
82
100
AcDbEntity
8
1
62
256
6
ByLayer
370
25
48
1
60
0
100
AcDbLine
10
102.106587
20
-7.940688
30
0
11
102.001485
21
-7.929655
31
0
39
0
210
0
220
0
230
1
0
LINE
5
83
100
AcDbEntity
8
1
62
256
6
ByLayer
370
25
48
1
60
0
100
AcDbLine
10
102.048243
20
-8.635462
30
0
11
101.661042
21
-8.594814
31
0
39
0
210
0
220
0
230
1
0
LINE
5
84
100
AcDbEntity
8
1
62
256
6
ByLayer
370
25
48
1
60
0
100
AcDbLine
10
87.908042
20
-7.151026
30
0
11
87.514204
21
-7.109681
31
0
39
0
210
0
220
0
230
1
0
LINE
5
85
100
AcDbEntity
8
1
62
256
6
ByLayer
370
25
48
1
60
0
100
AcDbLine
10
102.146604
20
-8.406349
30
0
11
101.888637
21
-8.379268
31
0
39
0
210
0
220
0
230
1
0
LINE
5
86
100
AcDbEntity
8
1
62
256
6
ByLayer
370
25
48
1
60
0
100
AcDbLine
10
89.187635
20
-7.045919
30
0
11
87.623344
21
-6.8817
31
0
39
0
210
0
220
0
230
1
0
LINE
5
87
100
AcDbEntity
8
1
62
256
6
ByLayer
370
25
48
1
60
0
100
AcDbLine
10
102.214625
20
-7.865134
30
0
11
102.048634
21
-7.847708
31
0
39
0
210
0
220
0
230
1
0
LINE
5
88
100
AcDbEntity
8
1
62
256
6
ByLayer
370
25
48
1
60
0
100
AcDbLine
10
102.687647
20
-8.133994
30
0
11
102.575598
21
-8.122231
31
0
39
0
210
0
220
0
230
1
0
LINE
5
89
100
AcDbEntity
8
1
62
256
6
ByLayer
370
25
48
1
60
0
100
AcDbLine
10
102.75185
20
-8.041776
30
0
11
102.514065
21
-8.016814
31
0
39
0
210
0
220
0
230
1
0
LINE
5
8A
100
AcDbEntity
8
1
62
256
6
ByLayer
370
25
48
1
60
0
100
AcDbLine
10
102.758294
20
-7.759217
30
0
11
102.528893
21
-7.735135
31
0
39
0
210
0
220
0
230
1
0
LINE
5
8B
100
AcDbEntity
8
1
62
256
6
ByLayer
370
25
48
1
60
0
100
AcDbLine
10
102.63898
20
-7.329029
30
0
11
102.564833
21
-7.321245
31
0
39
0
210
0
220
0
230
1
0
LINE
5
8C
100
AcDbEntity
8
1
62
256
6
ByLayer
370
25
48
1
60
0
100
AcDbLine
10
102.761189
20
-7.803317
30
0
11
102.525159
21
-7.77854
31
0
39
0
210
0
220
0
230
1
0
LINE
5
8D
100
AcDbEntity
8
1
62
256
6
ByLayer
370
25
48
1
60
0
100
AcDbLine
10
102.665877
20
-7.244956
30
0
11
102.580066
21
-7.235948
31
0
39
0
210
0
220
0
230
1
0
LINE
5
8E
100
AcDbEntity
8
1
62
256
6
ByLayer
370
25
48
1
60
0
100
AcDbLine
10
102.914433
20
-7.490252
30
0
11
102.875521
21
-7.486167
31
0
39
0
210
0
220
0
230
1
0
LINE
5
8F
100
AcDbEntity
8
1
62
256
6
ByLayer
370
25
48
1
60
0
100
AcDbLine
10
102.909174
20
-7.390742
30
0
11
102.841428
21
-7.38363
31
0
39
0
210
0
220
0
230
1
0
LINE
5
90
100
AcDbEntity
8
1
62
256
6
ByLayer
370
25
48
1
60
0
100
AcDbLine
10
102.842477
20
-7.100505
30
0
11
102.671336
21
-7.082538
31
0
39
0
210
0
220
0
230
1
0
LINE
5
91
100
AcDbEntity
8
1
62
256
6
ByLayer
370
25
48
1
60
0
100
AcDbLine
10
102.848643
20
-7.144948
30
0
11
102.671336
21
-7.126335
31
0
39
0
210
0
220
0
230
1
0
LINE
5
92
100
AcDbEntity
8
1
62
256
6
ByLayer
370
25
48
1
60
0
100
AcDbLine
10
94.401694
20
20.997562
30
0
11
94.234924
21
20.945738
31
0
39
0
210
0
220
0
230
1
0
LINE
5
93
100
AcDbEntity
8
1
62
256
6
ByLayer
370
25
48
1
60
0
100
AcDbLine
10
93.13532
20
22.10465
30
0
11
92.992628
21
22.060308
31
0
39
0
210
0
220
0
230
1
0
LINE
5
94
100
AcDbEntity
8
1
62
256
6
ByLayer
370
25
48
1
60
0
100
AcDbLine
10
94.550599
20
17.046803
30
0
11
94.693291
21
17.091145
31
0
39
0
210
0
220
0
230
1
0
LINE
5
95
100
AcDbEntity
8
1
62
256
6
ByLayer
370
25
48
1
60
0
100
AcDbLine
10
95.202761
20
19.259319
30
0
11
95.175306
21
19.250787
31
0
39
0
210
0
220
0
230
1
0
LINE
5
96
100
AcDbEntity
8
1
62
256
6
ByLayer
370
25
48
1
60
0
100
AcDbLine
10
94.401196
20
18.195108
30
0
11
94.234427
21
18.143284
31
0
39
0
210
0
220
0
230
1
0
LINE
5
97
100
AcDbEntity
8
1
62
256
6
ByLayer
370
25
48
1
60
0
100
AcDbLine
10
93.971349
20
20.780229
30
0
11
94.121387
21
20.826854
31
0
39
0
210
0
220
0
230
1
0
LINE
5
98
100
AcDbEntity
8
1
62
256
6
ByLayer
370
25
48
1
60
0
100
AcDbLine
10
92.947934
20
20.724606
30
0
11
92.780944
21
20.672713
31
0
39
0
210
0
220
0
230
1
0
LINE
5
99
100
AcDbEntity
8
1
62
256
6
ByLayer
370
25
48
1
60
0
100
AcDbLine
10
93.853431
20
18.350286
30
0
11
93.999813
21
18.395775
31
0
39
0
210
0
220
0
230
1
0
LINE
5
9A
100
AcDbEntity
8
1
62
256
6
ByLayer
370
25
48
1
60
0
100
AcDbLine
10
92.947536
20
18.483373
30
0
11
92.780546
21
18.43148
31
0
39
0
210
0
220
0
230
1
0
LINE
5
9B
100
AcDbEntity
8
1
62
256
6
ByLayer
370
25
48
1
60
0
100
AcDbLine
10
93.713568
20
18.370913
30
0
11
93.56353
21
18.324288
31
0
39
0
210
0
220
0
230
1
0
LINE
5
9C
100
AcDbEntity
8
1
62
256
6
ByLayer
370
25
48
1
60
0
100
AcDbLine
10
93.834715
20
18.396644
30
0
11
93.688333
21
18.351155
31
0
39
0
210
0
220
0
230
1
0
LINE
5
9D
100
AcDbEntity
8
1
62
256
6
ByLayer
370
25
48
1
60
0
100
AcDbLine
10
92.328764
20
19.844155
30
0
11
92.494206
21
19.895568
31
0
39
0
210
0
220
0
230
1
0
LINE
5
9E
100
AcDbEntity
8
1
62
256
6
ByLayer
370
25
48
1
60
0
100
AcDbLine
10
92.46837
20
19.324899
30
0
11
92.30138
21
19.273006
31
0
39
0
210
0
220
0
230
1
0
LINE
5
9F
100
AcDbEntity
8
1
62
256
6
ByLayer
370
25
48
1
60
0
100
AcDbLine
10
99.124101
20
24.198114
30
0
11
93.063815
21
24.384893
31
0
39
0
210
0
220
0
230
1
0
LINE
5
A0
100
AcDbEntity
8
1
62
256
6
ByLayer
370
25
48
1
60
0
100
AcDbLine
10
89.008741
20
14.917719
30
0
11
95.115169
21
14.760218
31
0
39
0
210
0
220
0
230
1
0
LINE
5
A1
100
AcDbEntity
8
1
62
256
6
ByLayer
370
25
48
1
60
0
100
AcDbLine
10
89.16283
20
21.462421
30
0
11
89.328571
21
21.364285
31
0
39
0
210
0
220
0
230
1
0
LINE
5
A2
100
AcDbEntity
8
1
62
256
6
ByLayer
370
25
48
1
60
0
100
AcDbLine
10
101.202495
20
15.666608
30
0
11
101.703221
21
15.380672
31
0
39
0
210
0
220
0
230
1
0
LINE
5
A3
100
AcDbEntity
8
1
62
256
6
ByLayer
370
25
48
1
60
0
100
AcDbLine
10
87.074223
20
23.508854
30
0
11
86.547157
21
23.786605
31
0
39
0
210
0
220
0
230
1
0
LINE
5
A4
100
AcDbEntity
8
1
62
256
6
ByLayer
370
25
48
1
60
0
100
AcDbLine
10
96.138978
20
-2.513042
30
0
11
95.861053
21
-2.261696
31
0
39
0
210
0
220
0
230
1
0
LINE
5
A5
100
AcDbEntity
8
1
62
256
6
ByLayer
370
25
48
1
60
0
100
AcDbLine
10
93.776089
20
-1.946236
30
0
11
93.436247
21
-2.104113
31
0
39
0
210
0
220
0
230
1
0
LINE
5
A6
100
AcDbEntity
8
1
62
256
6
ByLayer
370
25
48
1
60
0
100
AcDbLine
10
0
20
-31.47
30
0
11
14.625388
21
-31.47
31
0
39
0
210
0
220
0
230
1
0
LINE
5
A7
100
AcDbEntity
8
1
62
256
6
ByLayer
370
25
48
1
60
0
100
AcDbLine
10
2.026024
20
31.47
30
0
11
0
21
31.47
31
0
39
0
210
0
220
0
230
1
0
LINE
5
A8
100
AcDbEntity
8
1
62
256
6
ByLayer
370
25
48
1
60
0
100
AcDbLine
10
14.625388
20
31.47
30
0
11
11.961224
21
31.47
31
0
39
0
210
0
220
0
230
1
0
LINE
5
A9
100
AcDbEntity
8
1
62
256
6
ByLayer
370
25
48
1
60
0
100
AcDbLine
10
5.729038
20
-24.420041
30
0
11
14.625388
21
-24.420041
31
0
39
0
210
0
220
0
230
1
0
LINE
5
AA
100
AcDbEntity
8
1
62
256
6
ByLayer
370
25
48
1
60
0
100
AcDbLine
10
16.0875
20
28.937547
30
0
11
14.625388
21
31.47
31
0
39
0
210
0
220
0
230
1
0
LINE
5
AB
100
AcDbEntity
8
1
62
256
6
ByLayer
370
25
48
1
60
0
100
AcDbLine
10
21.374612
20
31.47
30
0
11
19.9125
21
28.937547
31
0
39
0
210
0
220
0
230
1
0
LINE
5
AC
100
AcDbEntity
8
1
62
256
6
ByLayer
370
25
48
1
60
0
100
AcDbLine
10
26
20
31.47
30
0
11
21.374612
21
31.47
31
0
39
0
210
0
220
0
230
1
0
LINE
5
AD
100
AcDbEntity
8
1
62
256
6
ByLayer
370
25
48
1
60
0
100
AcDbLine
10
19.1625
20
27.475
30
0
11
16.8375
21
27.475
31
0
39
0
210
0
220
0
230
1
0
LINE
5
AE
100
AcDbEntity
8
1
62
256
6
ByLayer
370
25
48
1
60
0
100
AcDbLine
10
16.8375
20
7.610232
30
0
11
19.1625
21
7.610232
31
0
39
0
210
0
220
0
230
1
0
LINE
5
AF
100
AcDbEntity
8
1
62
256
6
ByLayer
370
25
48
1
60
0
100
AcDbLine
10
19.1625
20
-7.610232
30
0
11
16.8375
21
-7.610232
31
0
39
0
210
0
220
0
230
1
0
LINE
5
B0
100
AcDbEntity
8
1
62
256
6
ByLayer
370
25
48
1
60
0
100
AcDbLine
10
16.8375
20
-27.475
30
0
11
19.1625
21
-27.475
31
0
39
0
210
0
220
0
230
1
0
LINE
5
B1
100
AcDbEntity
8
1
62
256
6
ByLayer
370
25
48
1
60
0
100
AcDbLine
10
97.895708
20
1.555349
30
0
11
97.200078
21
-3.042267
31
0
39
0
210
0
220
0
230
1
0
LINE
5
B2
100
AcDbEntity
8
SK1
62
256
6
ByLayer
370
25
48
1
60
0
100
AcDbLine
10
-1.894753
20
24.225262
30
0
11
-30.759925
21
22.782004
31
0
39
0
210
0
220
0
230
1
0
LINE
5
B4
100
AcDbEntity
8
SK1
62
256
6
ByLayer
370
25
48
1
60
0
100
AcDbLine
10
-30.759925
20
-22.782004
30
0
11
-1.894753
21
-24.225262
31
0
39
0
210
0
220
0
230
1
0
LINE
5
B5
100
AcDbEntity
8
SK1
62
256
6
ByLayer
370
25
48
1
60
0
100
AcDbLine
10
-1.894753
20
-24.225262
30
0
11
-1.20489
21
-24.040414
31
0
39
0
210
0
220
0
230
1
0
LINE
5
B6
100
AcDbEntity
8
SK1
62
256
6
ByLayer
370
25
48
1
60
0
100
AcDbLine
10
-1.20489
20
24.040414
30
0
11
-1.894753
21
24.225262
31
0
39
0
210
0
220
0
230
1
0
LINE
5
B7
100
AcDbEntity
8
1
62
256
6
ByLayer
370
25
48
1
60
0
100
AcDbLine
10
97.217549
20
-4.640316
30
0
11
97.200078
21
-3.042267
31
0
39
0
210
0
220
0
230
1
0
LINE
5
B8
100
AcDbEntity
8
1
62
256
6
ByLayer
370
25
48
1
60
0
100
AcDbLine
10
92.357675
20
7.194969
30
0
11
94.918636
21
14.434815
31
0
39
0
210
0
220
0
230
1
0
LINE
5
B9
100
AcDbEntity
8
SK1
62
256
6
ByLayer
370
25
48
1
60
0
100
AcDbLine
10
-0.475
20
24.01997
30
0
11
-1.049598
21
24.01997
31
0
39
0
210
0
220
0
230
1
0
LINE
5
BA
100
AcDbEntity
8
SK1
62
256
6
ByLayer
370
25
48
1
60
0
100
AcDbLine
10
-1.049598
20
-24.01997
30
0
11
-0.475
21
-24.01997
31
0
39
0
210
0
220
0
230
1
0
LINE
5
BB
100
AcDbEntity
8
1
62
256
6
ByLayer
370
25
48
1
60
0
100
AcDbLine
10
90.289589
20
-7.261806
30
0
11
100.649849
21
-8.349425
31
0
39
0
210
0
220
0
230
1
0
LINE
5
BC
100
AcDbEntity
8
1
62
256
6
ByLayer
370
25
48
1
60
0
100
AcDbLine
10
89.389307
20
-7.137476
30
0
11
90.061886
21
-7.208083
31
0
39
0
210
0
220
0
230
1
0
LINE
5
BD
100
AcDbEntity
8
1
62
256
6
ByLayer
370
25
48
1
60
0
100
AcDbLine
10
28.924161
20
-23.575839
30
0
11
81.797999
21
-23.575839
31
0
39
0
210
0
220
0
230
1
0
LINE
5
BE
100
AcDbEntity
8
1
62
256
6
ByLayer
370
25
48
1
60
0
100
AcDbLine
10
74.106203
20
23.575839
30
0
11
28.924161
21
23.575839
31
0
39
0
210
0
220
0
230
1
0
LINE
5
BF
100
AcDbEntity
8
1
62
256
6
ByLayer
370
25
48
1
60
0
100
AcDbLine
10
100.685228
20
-8.348392
30
0
11
100.885369
21
-8.369402
31
0
39
0
210
0
220
0
230
1
0
LINE
5
C0
100
AcDbEntity
8
1
62
256
6
ByLayer
370
25
48
1
60
0
100
AcDbLine
10
86.983029
20
-7.766441
30
0
11
86.3868
21
-8.920758
31
0
39
0
210
0
220
0
230
1
0
LINE
5
C1
100
AcDbEntity
8
1
62
256
6
ByLayer
370
25
48
1
60
0
100
AcDbLine
10
102.075458
20
-7.826787
30
0
11
102.144894
21
-7.834077
31
0
39
0
210
0
220
0
230
1
0
LINE
5
C2
100
AcDbEntity
8
SK1
62
256
6
ByLayer
370
25
48
1
60
0
100
AcDbLine
10
-27.2
20
6.27
30
0
11
-30.75
21
6.27
31
0
39
0
210
0
220
0
230
1
0
LINE
5
C3
100
AcDbEntity
8
SK1
62
256
6
ByLayer
370
25
48
1
60
0
100
AcDbLine
10
-27.2
20
-6.27
30
0
11
-30.75
21
-6.27
31
0
39
0
210
0
220
0
230
1
0
LINE
5
C4
100
AcDbEntity
8
SK1
62
256
6
ByLayer
370
25
48
1
60
0
100
AcDbLine
10
-30.75
20
-6.27
30
0
11
-31.9
21
-7.42
31
0
39
0
210
0
220
0
230
1
0
LINE
5
C5
100
AcDbEntity
8
SK1
62
256
6
ByLayer
370
25
48
1
60
0
100
AcDbLine
10
-30.891356
20
-9.15
30
0
11
-31.862095
21
-9.15
31
0
39
0
210
0
220
0
230
1
0
LINE
5
C6
100
AcDbEntity
8
SK1
62
256
6
ByLayer
370
25
48
1
60
0
100
AcDbLine
10
-30.891356
20
9.15
30
0
11
-31.862095
21
9.15
31
0
39
0
210
0
220
0
230
1
0
LINE
5
C7
100
AcDbEntity
8
SK1
62
256
6
ByLayer
370
25
48
1
60
0
100
AcDbLine
10
-30.75
20
6.27
30
0
11
-31.9
21
7.42
31
0
39
0
210
0
220
0
230
1
0
LINE
5
C8
100
AcDbEntity
8
1
62
256
6
ByLayer
370
25
48
1
60
0
100
AcDbLine
10
21.374612
20
-31.47
30
0
11
26
21
-31.47
31
0
39
0
210
0
220
0
230
1
0
LINE
5
C9
100
AcDbEntity
8
1
62
256
6
ByLayer
370
25
48
1
60
0
100
AcDbLine
10
21.374612
20
-24.420041
30
0
11
26
21
-24.420041
31
0
39
0
210
0
220
0
230
1
0
LINE
5
CA
100
AcDbEntity
8
1
62
256
6
ByLayer
370
25
48
1
60
0
100
AcDbLine
10
19.9125
20
-28.937547
30
0
11
21.374612
21
-31.47
31
0
39
0
210
0
220
0
230
1
0
LINE
5
CB
100
AcDbEntity
8
1
62
256
6
ByLayer
370
25
48
1
60
0
100
AcDbLine
10
14.625388
20
-31.47
30
0
11
16.0875
21
-28.937547
31
0
39
0
210
0
220
0
230
1
0
LINE
5
CC
100
AcDbEntity
8
1
62
256
6
ByLayer
370
25
48
1
60
0
100
AcDbLine
10
92.357675
20
-23.713665
30
0
11
94.678336
21
-11.732275
31
0
39
0
210
0
220
0
230
1
0
LINE
5
CD
100
AcDbEntity
8
1
62
256
6
ByLayer
370
25
48
1
60
0
100
AcDbLine
10
81.797999
20
-23.575839
30
0
11
82.161975
21
-23.613223
31
0
39
0
210
0
220
0
230
1
0
LINE
5
CE
100
AcDbEntity
8
1
62
256
6
ByLayer
370
25
48
1
60
0
100
AcDbLine
10
82.916842
20
18.128692
30
0
11
82.716235
21
18.21996
31
0
39
0
210
0
220
0
230
1
0
LINE
5
CF
100
AcDbEntity
8
1
62
256
6
ByLayer
370
25
48
1
60
0
100
AcDbLine
10
85.791389
20
23.129706
30
0
11
85.794463
21
23.655125
31
0
39
0
210
0
220
0
230
1
0
LINE
5
D0
100
AcDbEntity
8
1
62
256
6
ByLayer
370
25
48
1
60
0
100
AcDbLine
10
85.625258
20
23.07808
30
0
11
85.791389
21
23.129706
31
0
39
0
210
0
220
0
230
1
0
LINE
5
D1
100
AcDbEntity
8
1
62
256
6
ByLayer
370
25
48
1
60
0
100
AcDbLine
10
85.620703
20
23.180918
30
0
11
85.621341
21
23.166713
31
0
39
0
210
0
220
0
230
1
0
LINE
5
D2
100
AcDbEntity
8
1
62
256
6
ByLayer
370
25
48
1
60
0
100
AcDbLine
10
85.624469
20
23.824666
30
0
11
85.620703
21
23.180918
31
0
39
0
210
0
220
0
230
1
0
LINE
5
D3
100
AcDbEntity
8
1
62
256
6
ByLayer
370
25
48
1
60
0
100
AcDbLine
10
85.620703
20
23.180918
30
0
11
83.371331
21
18.990719
31
0
39
0
210
0
220
0
230
1
0
LINE
5
D4
100
AcDbEntity
8
1
62
256
6
ByLayer
370
25
48
1
60
0
100
AcDbLine
10
85.621341
20
23.166713
30
0
11
82.916842
21
18.128692
31
0
39
0
210
0
220
0
230
1
0
LINE
5
D5
100
AcDbEntity
8
1
62
256
6
ByLayer
370
25
48
1
60
0
100
AcDbLine
10
104.005447
20
-10.651305
30
0
11
103.984551
21
-10.759724
31
0
39
0
210
0
220
0
230
1
0
LINE
5
D6
100
AcDbEntity
8
1
62
256
6
ByLayer
370
25
48
1
60
0
100
AcDbLine
10
103.77811
20
-11.830806
30
0
11
103.491598
21
-13.317325
31
0
39
0
210
0
220
0
230
1
0
LINE
5
D7
100
AcDbEntity
8
1
62
256
6
ByLayer
370
25
48
1
60
0
100
AcDbLine
10
102.909174
20
-12.731895
30
0
11
102.867386
21
-12.736743
31
0
39
0
210
0
220
0
230
1
0
LINE
5
D8
100
AcDbEntity
8
1
62
256
6
ByLayer
370
25
48
1
60
0
100
AcDbLine
10
102.914433
20
-12.817484
30
0
11
102.842616
21
-12.825815
31
0
39
0
210
0
220
0
230
1
0
LINE
5
D9
100
AcDbEntity
8
1
62
256
6
ByLayer
370
25
48
1
60
0
100
AcDbLine
10
102.85973
20
-13.101265
30
0
11
102.671336
21
-13.123119
31
0
39
0
210
0
220
0
230
1
0
LINE
5
DA
100
AcDbEntity
8
1
62
256
6
ByLayer
370
25
48
1
60
0
100
AcDbLine
10
102.865294
20
-13.055622
30
0
11
102.671336
21
-13.078121
31
0
39
0
210
0
220
0
230
1
0
LINE
5
DB
100
AcDbEntity
8
1
62
256
6
ByLayer
370
25
48
1
60
0
100
AcDbLine
10
87.841949
20
-7.193256
30
0
11
87.853079
21
-7.180216
31
0
39
0
210
0
220
0
230
1
0
LINE
5
DC
100
AcDbEntity
8
1
62
256
6
ByLayer
370
25
48
1
60
0
100
AcDbLine
10
88.825209
20
-7.631627
30
0
11
88.819956
21
-7.649638
31
0
39
0
210
0
220
0
230
1
0
LINE
5
DD
100
AcDbEntity
8
1
62
256
6
ByLayer
370
25
48
1
60
0
100
AcDbLine
10
101.31447
20
-9.357624
30
0
11
101.30599
21
-9.356593
31
0
39
0
210
0
220
0
230
1
0
LINE
5
DE
100
AcDbEntity
8
1
62
256
6
ByLayer
370
25
48
1
60
0
100
AcDbLine
10
100.071331
20
-8.830805
30
0
11
100.07018
21
-8.81212
31
0
39
0
210
0
220
0
230
1
0
LINE
5
DF
100
AcDbEntity
8
1
62
256
6
ByLayer
370
25
48
1
60
0
100
AcDbLine
10
101.559631
20
-8.633336
30
0
11
101.549226
21
-8.618035
31
0
39
0
210
0
220
0
230
1
0
LINE
5
E0
100
AcDbEntity
8
1
62
256
6
ByLayer
370
25
48
1
60
0
100
AcDbLine
10
102.146415
20
-8.381097
30
0
11
102.146152
21
-8.362505
31
0
39
0
210
0
220
0
230
1
0
LINE
5
E1
100
AcDbEntity
8
1
62
256
6
ByLayer
370
25
48
1
60
0
100
AcDbLine
10
102.550209
20
-8.069777
30
0
11
102.545645
21
-8.055089
31
0
39
0
210
0
220
0
230
1
0
LINE
5
E2
100
AcDbEntity
8
1
62
256
6
ByLayer
370
25
48
1
60
0
100
AcDbLine
10
102.75958
20
-7.777917
30
0
11
102.758292
21
-7.759217
31
0
39
0
210
0
220
0
230
1
0
LINE
5
E3
100
AcDbEntity
8
1
62
256
6
ByLayer
370
25
48
1
60
0
100
AcDbLine
10
102.862148
20
-7.434974
30
0
11
102.859728
21
-7.420511
31
0
39
0
210
0
220
0
230
1
0
LINE
5
E4
100
AcDbEntity
8
1
62
256
6
ByLayer
370
25
48
1
60
0
100
AcDbLine
10
102.845149
20
-7.119349
30
0
11
102.842475
21
-7.100505
31
0
39
0
210
0
220
0
230
1
0
LINE
5
E5
100
AcDbEntity
8
1
62
256
6
ByLayer
370
25
48
1
60
0
100
AcDbLine
10
101.524551
20
18.439064
30
0
11
101.51472
21
18.444077
31
0
39
0
210
0
220
0
230
1
0
LINE
5
E6
100
AcDbEntity
8
1
62
256
6
ByLayer
370
25
48
1
60
0
100
AcDbLine
10
102.086622
20
20.252144
30
0
11
102.084385
21
20.260392
31
0
39
0
210
0
220
0
230
1
0
LINE
5
E7
100
AcDbEntity
8
1
62
256
6
ByLayer
370
25
48
1
60
0
100
AcDbLine
10
86.156886
20
18.9057
30
0
11
86.145934
21
18.92659
31
0
39
0
210
0
220
0
230
1
0
LINE
5
E8
100
AcDbEntity
8
1
62
256
6
ByLayer
370
25
48
1
60
0
100
AcDbLine
10
98.645626
20
17.763301
30
0
11
98.652534
21
17.781011
31
0
39
0
210
0
220
0
230
1
0
LINE
5
E9
100
AcDbEntity
8
1
62
256
6
ByLayer
370
25
48
1
60
0
100
AcDbLine
10
98.652534
20
17.781011
30
0
11
98.659149
21
17.798508
31
0
39
0
210
0
220
0
230
1
0
LINE
5
EA
100
AcDbEntity
8
1
62
256
6
ByLayer
370
25
48
1
60
0
100
AcDbLine
10
86.73243
20
20.730369
30
0
11
86.742243
21
20.725374
31
0
39
0
210
0
220
0
230
1
0
LINE
5
EB
100
AcDbEntity
8
SK1
62
256
6
ByLayer
370
25
48
1
60
0
100
AcDbLine
10
-30.759925
20
-8.904841
30
0
11
-30.75
21
-8.886467
31
0
39
0
210
0
220
0
230
1
0
LINE
5
EC
100
AcDbEntity
8
SK1
62
256
6
ByLayer
370
25
48
1
60
0
100
AcDbLine
10
-30.75
20
8.886467
30
0
11
-30.759925
21
8.904841
31
0
39
0
210
0
220
0
230
1
0
LINE
5
ED
100
AcDbEntity
8
1
62
256
6
ByLayer
370
25
48
1
60
0
100
AcDbLine
10
102.666993
20
-19.677596
30
0
11
102.666953
21
-19.670876
31
0
39
0
210
0
220
0
230
1
0
LINE
5
EE
100
AcDbEntity
8
1
62
256
6
ByLayer
370
25
48
1
60
0
100
AcDbLine
10
102.669356
20
-13.044008
30
0
11
102.669324
21
-13.053946
31
0
39
0
210
0
220
0
230
1
0
LINE
5
EF
100
AcDbEntity
8
1
62
256
6
ByLayer
370
25
48
1
60
0
100
AcDbLine
10
102.845149
20
-12.810499
30
0
11
102.842475
21
-12.826074
31
0
39
0
210
0
220
0
230
1
0
LINE
5
F0
100
AcDbEntity
8
1
62
256
6
ByLayer
370
25
48
1
60
0
100
AcDbLine
10
102.862148
20
-13.081903
30
0
11
102.859728
21
-13.101265
31
0
39
0
210
0
220
0
230
1
0
LINE
5
F1
100
AcDbEntity
8
1
62
256
6
ByLayer
370
25
48
1
60
0
100
AcDbLine
10
0
20
-31.47
30
0
11
0
21
31.47
31
0
39
0
210
0
220
0
230
1
0
LINE
5
F2
100
AcDbEntity
8
1
62
256
6
ByLayer
370
25
48
1
60
0
100
AcDbLine
10
14.625388
20
31.47
30
0
11
14.625388
21
8.0175
31
0
39
0
210
0
220
0
230
1
0
LINE
5
F3
100
AcDbEntity
8
1
62
256
6
ByLayer
370
25
48
1
60
0
100
AcDbLine
10
14.625388
20
-8.0175
30
0
11
14.625388
21
-19.85
31
0
39
0
210
0
220
0
230
1
0
LINE
5
F4
100
AcDbEntity
8
1
62
256
6
ByLayer
370
25
48
1
60
0
100
AcDbLine
10
14.625388
20
-24.420041
30
0
11
14.625388
21
-31.47
31
0
39
0
210
0
220
0
230
1
0
LINE
5
F5
100
AcDbEntity
8
1
62
256
6
ByLayer
370
25
48
1
60
0
100
AcDbLine
10
16.0875
20
28.937547
30
0
11
16.0875
21
8.0175
31
0
39
0
210
0
220
0
230
1
0
LINE
5
F6
100
AcDbEntity
8
1
62
256
6
ByLayer
370
25
48
1
60
0
100
AcDbLine
10
19.9125
20
28.937547
30
0
11
19.9125
21
8.0175
31
0
39
0
210
0
220
0
230
1
0
LINE
5
F7
100
AcDbEntity
8
1
62
256
6
ByLayer
370
25
48
1
60
0
100
AcDbLine
10
21.374612
20
8.0175
30
0
11
21.374612
21
31.47
31
0
39
0
210
0
220
0
230
1
0
LINE
5
F8
100
AcDbEntity
8
1
62
256
6
ByLayer
370
25
48
1
60
0
100
AcDbLine
10
16.0875
20
-8.0175
30
0
11
16.0875
21
-19.85
31
0
39
0
210
0
220
0
230
1
0
LINE
5
F9
100
AcDbEntity
8
1
62
256
6
ByLayer
370
25
48
1
60
0
100
AcDbLine
10
19.9125
20
-8.0175
30
0
11
19.9125
21
-19.85
31
0
39
0
210
0
220
0
230
1
0
LINE
5
FA
100
AcDbEntity
8
1
62
256
6
ByLayer
370
25
48
1
60
0
100
AcDbLine
10
21.374612
20
-19.85
30
0
11
21.374612
21
-8.0175
31
0
39
0
210
0
220
0
230
1
0
LINE
5
FB
100
AcDbEntity
8
1
62
256
6
ByLayer
370
25
48
1
60
0
100
AcDbLine
10
19.1625
20
7.610232
30
0
11
19.1625
21
27.475
31
0
39
0
210
0
220
0
230
1
0
LINE
5
FC
100
AcDbEntity
8
1
62
256
6
ByLayer
370
25
48
1
60
0
100
AcDbLine
10
16.8375
20
27.475
30
0
11
16.8375
21
7.610232
31
0
39
0
210
0
220
0
230
1
0
LINE
5
FD
100
AcDbEntity
8
1
62
256
6
ByLayer
370
25
48
1
60
0
100
AcDbLine
10
19.1625
20
-27.475
30
0
11
19.1625
21
-7.610232
31
0
39
0
210
0
220
0
230
1
0
LINE
5
FE
100
AcDbEntity
8
1
62
256
6
ByLayer
370
25
48
1
60
0
100
AcDbLine
10
16.8375
20
-7.610232
30
0
11
16.8375
21
-27.475
31
0
39
0
210
0
220
0
230
1
0
LINE
5
FF
100
AcDbEntity
8
1
62
256
6
ByLayer
370
25
48
1
60
0
100
AcDbLine
10
28.924161
20
-23.575839
30
0
11
28.924161
21
23.575839
31
0
39
0
210
0
220
0
230
1
0
LINE
5
100
100
AcDbEntity
8
1
62
256
6
ByLayer
370
25
48
1
60
0
100
AcDbLine
10
81.797999
20
-8.969877
30
0
11
81.797999
21
12.271281
31
0
39
0
210
0
220
0
230
1
0
LINE
5
101
100
AcDbEntity
8
1
62
256
6
ByLayer
370
25
48
1
60
0
100
AcDbLine
10
89.797999
20
-6.264254
30
0
11
89.797999
21
7.288093
31
0
39
0
210
0
220
0
230
1
0
LINE
5
102
100
AcDbEntity
8
1
62
256
6
ByLayer
370
25
48
1
60
0
100
AcDbLine
10
99.067602
20
-6.948302
30
0
11
99.067602
21
7.560099
31
0
39
0
210
0
220
0
230
1
0
LINE
5
103
100
AcDbEntity
8
SK1
62
256
6
ByLayer
370
25
48
1
60
0
100
AcDbLine
10
-30.759925
20
-22.782004
30
0
11
-30.759925
21
-8.904841
31
0
39
0
210
0
220
0
230
1
0
LINE
5
104
100
AcDbEntity
8
SK1
62
256
6
ByLayer
370
25
48
1
60
0
100
AcDbLine
10
-1.894753
20
24.225262
30
0
11
-1.894753
21
-24.225262
31
0
39
0
210
0
220
0
230
1
0
LINE
5
105
100
AcDbEntity
8
SK1
62
256
6
ByLayer
370
25
48
1
60
0
100
AcDbLine
10
-30.759925
20
8.904841
30
0
11
-30.759925
21
22.782004
31
0
39
0
210
0
220
0
230
1
0
LINE
5
106
100
AcDbEntity
8
SK1
62
256
6
ByLayer
370
25
48
1
60
0
100
AcDbLine
10
-25.8
20
-7.147668
30
0
11
-25.8
21
7.147668
31
0
39
0
210
0
220
0
230
1
0
LINE
5
107
100
AcDbEntity
8
1
62
256
6
ByLayer
370
25
48
1
60
0
100
AcDbLine
10
102.671336
20
-7.230175
30
0
11
102.671336
21
9.455611
31
0
39
0
210
0
220
0
230
1
0
LINE
5
108
100
AcDbEntity
8
1
62
256
6
ByLayer
370
25
48
1
60
0
100
AcDbLine
10
81.797999
20
-23.575839
30
0
11
81.797999
21
-23.569139
31
0
39
0
210
0
220
0
230
1
0
LINE
5
109
100
AcDbEntity
8
SK1
62
256
6
ByLayer
370
25
48
1
60
0
100
AcDbLine
10
-30.75
20
6.27
30
0
11
-30.75
21
8.886467
31
0
39
0
210
0
220
0
230
1
0
LINE
5
10A
100
AcDbEntity
8
SK1
62
256
6
ByLayer
370
25
48
1
60
0
100
AcDbLine
10
-30.75
20
-8.886467
30
0
11
-30.75
21
-6.27
31
0
39
0
210
0
220
0
230
1
0
LINE
5
10B
100
AcDbEntity
8
1
62
256
6
ByLayer
370
25
48
1
60
0
100
AcDbLine
10
21.374612
20
-31.47
30
0
11
21.374612
21
-24.420041
31
0
39
0
210
0
220
0
230
1
0
LINE
5
10C
100
AcDbEntity
8
1
62
256
6
ByLayer
370
25
48
1
60
0
100
AcDbLine
10
100.938023
20
-12.751164
30
0
11
100.938023
21
-16.439017
31
0
39
0
210
0
220
0
230
1
0
LINE
5
10D
100
AcDbEntity
8
1
62
256
6
ByLayer
370
25
48
1
60
0
100
AcDbLine
10
101.093039
20
-12.760971
30
0
11
101.093039
21
-16.517442
31
0
39
0
210
0
220
0
230
1
0
LINE
5
10E
100
AcDbEntity
8
1
62
256
6
ByLayer
370
25
48
1
60
0
100
AcDbLine
10
102.512451
20
-12.686562
30
0
11
102.512451
21
-19.226863
31
0
39
0
210
0
220
0
230
1
0
LINE
5
10F
100
AcDbEntity
8
1
62
256
6
ByLayer
370
25
48
1
60
0
100
AcDbLine
10
102.666953
20
-12.685157
30
0
11
102.666953
21
-19.670877
31
0
39
0
210
0
220
0
230
1
0
LINE
5
110
100
AcDbEntity
8
1
62
256
6
ByLayer
370
25
48
1
60
0
100
AcDbLine
10
100.938023
20
14.467373
30
0
11
100.938023
21
11.535119
31
0
39
0
210
0
220
0
230
1
0
LINE
5
111
100
AcDbEntity
8
1
62
256
6
ByLayer
370
25
48
1
60
0
100
AcDbLine
10
102.671336
20
17.194223
30
0
11
102.671336
21
10.933617
31
0
39
0
210
0
220
0
230
1
0
LINE
5
112
100
AcDbEntity
8
1
62
256
6
ByLayer
370
25
48
1
60
0
100
AcDbLine
10
102.666953
20
17.192349
30
0
11
102.666953
21
9.82846
31
0
39
0
210
0
220
0
230
1
0
LINE
5
113
100
AcDbEntity
8
1
62
256
6
ByLayer
370
25
48
1
60
0
100
AcDbLine
10
102.512451
20
16.901716
30
0
11
102.512451
21
10.086345
31
0
39
0
210
0
220
0
230
1
0
LINE
5
114
100
AcDbEntity
8
1
62
256
6
ByLayer
370
25
48
1
60
0
100
AcDbLine
10
101.093039
20
14.581004
30
0
11
101.093039
21
11.498095
31
0
39
0
210
0
220
0
230
1
0
LINE
5
115
100
AcDbEntity
8
1
62
256
6
ByLayer
370
25
48
1
60
0
100
AcDbLine
10
90.457122
20
-7.283029
30
0
11
88.359825
21
-7.062855
31
0
39
0
210
0
220
0
230
1
0
LINE
5
116
100
AcDbEntity
8
SK1
62
256
6
ByLayer
370
25
48
1
60
0
100
AcDbLine
10
-26.691201
20
-9.15
30
0
11
-28.446902
21
-9.15
31
0
39
0
210
0
220
0
230
1
0
LINE
5
117
100
AcDbEntity
8
1
62
256
6
ByLayer
370
25
48
1
60
0
100
AcDbLine
10
16.43748
20
8.0175
30
0
11
12.9675
21
8.0175
31
0
39
0
210
0
220
0
230
1
0
LINE
5
118
100
AcDbEntity
8
1
62
256
6
ByLayer
370
25
48
1
60
0
100
AcDbLine
10
16.0875
20
-19.85
30
0
11
12.9675
21
-19.85
31
0
39
0
210
0
220
0
230
1
0
LINE
5
119
100
AcDbEntity
8
1
62
256
6
ByLayer
370
25
48
1
60
0
100
AcDbLine
10
26
20
-19.85
30
0
11
19.9125
21
-19.85
31
0
39
0
210
0
220
0
230
1
0
LINE
5
11A
100
AcDbEntity
8
1
62
256
6
ByLayer
370
25
48
1
60
0
100
AcDbLine
10
16.43748
20
-8.0175
30
0
11
12.9675
21
-8.0175
31
0
39
0
210
0
220
0
230
1
0
LINE
5
11B
100
AcDbEntity
8
1
62
256
6
ByLayer
370
25
48
1
60
0
100
AcDbLine
10
26
20
-8.0175
30
0
11
19.56252
21
-8.0175
31
0
39
0
210
0
220
0
230
1
0
LINE
5
11C
100
AcDbEntity
8
1
62
256
6
ByLayer
370
25
48
1
60
0
100
AcDbLine
10
26
20
8.0175
30
0
11
19.56252
21
8.0175
31
0
39
0
210
0
220
0
230
1
0
LINE
5
11D
100
AcDbEntity
8
SK1
62
256
6
ByLayer
370
25
48
1
60
0
100
AcDbLine
10
-26.691201
20
9.15
30
0
11
-28.446902
21
9.15
31
0
39
0
210
0
220
0
230
1
0
LINE
5
11E
100
AcDbEntity
8
1
62
256
6
ByLayer
370
25
48
1
60
0
100
AcDbLine
10
84.518511
20
19.606805
30
0
11
83.792028
21
18.25349
31
0
39
0
210
0
220
0
230
1
0
LINE
5
11F
100
AcDbEntity
8
1
62
256
6
ByLayer
370
25
48
1
60
0
100
AcDbLine
10
19.9125
20
-20.065596
30
0
11
19.9125
21
-28.937547
31
0
39
0
210
0
220
0
230
1
0
LINE
5
120
100
AcDbEntity
8
1
62
256
6
ByLayer
370
25
48
1
60
0
100
AcDbLine
10
16.0875
20
-20.065596
30
0
11
16.0875
21
-28.937547
31
0
39
0
210
0
220
0
230
1
0
LINE
5
121
100
AcDbEntity
8
SK1
62
256
6
ByLayer
370
25
48
1
60
0
100
AcDbLine
10
-27.2
20
9.304918
30
0
11
-27.2
21
6.27
31
0
39
0
210
0
220
0
230
1
0
LINE
5
122
100
AcDbEntity
8
SK1
62
256
6
ByLayer
370
25
48
1
60
0
100
AcDbLine
10
-27.2
20
-6.27
30
0
11
-27.2
21
-9.304918
31
0
39
0
210
0
220
0
230
1
0
LINE
5
123
100
AcDbEntity
8
1
62
256
6
ByLayer
370
25
48
1
60
0
100
AcDbLine
10
102.671336
20
-13.052343
30
0
11
102.671336
21
-20.389228
31
0
39
0
210
0
220
0
230
1
0
LINE
5
124
100
AcDbEntity
8
1
62
256
6
ByLayer
370
25
48
1
60
0
100
AcDbLine
10
26
20
31.47
30
0
11
26
21
-31.47
31
0
39
0
210
0
220
0
230
1
0
LINE
5
125
100
AcDbEntity
8
SK1
62
256
6
ByLayer
370
25
48
1
60
0
100
AcDbLine
10
-0.475
20
24.01997
30
0
11
-0.475
21
-24.01997
31
0
39
0
210
0
220
0
230
1
0
LINE
5
126
100
AcDbEntity
8
SK1
62
256
6
ByLayer
370
25
48
1
60
0
100
AcDbLine
10
-1.20489
20
24.040414
30
0
11
-1.20489
21
-24.040414
31
0
39
0
210
0
220
0
230
1
0
LINE
5
127
100
AcDbEntity
8
SK1
62
256
6
ByLayer
370
25
48
1
60
0
100
AcDbLine
10
-1.049598
20
24.01997
30
0
11
-1.049598
21
-24.01997
31
0
39
0
210
0
220
0
230
1
0
LINE
5
128
100
AcDbEntity
8
SK1
62
256
6
ByLayer
370
25
48
1
60
0
100
AcDbLine
10
-31.9
20
-7.42
30
0
11
-31.9
21
-21.583501
31
0
39
0
210
0
220
0
230
1
0
LINE
5
129
100
AcDbEntity
8
SK1
62
256
6
ByLayer
370
25
48
1
60
0
100
AcDbLine
10
-31.9
20
21.583501
30
0
11
-31.9
21
7.42
31
0
39
0
210
0
220
0
230
1
0
LINE
5
12A
100
AcDbEntity
8
4
62
256
6
ByLayer
370
13
48
0.05
60
0
100
AcDbLine
10
0
20
0
30
0
11
104.005447
21
0
31
0
39
0
210
0
220
0
230
1
0
LINE
5
12C
100
AcDbEntity
8
SK4
62
256
6
ByLayer
370
13
48
0.05
60
0
100
AcDbLine
10
109.904201
20
0
30
0
11
-37.03
21
0
31
0
39
0
210
0
220
0
230
1
0
LINE
5
12E
100
AcDbEntity
8
80
62
256
6
ByLayer
370
25
48
1
60
0
100
AcDbLine
10
0
20
0
30
0
11
-6.014529
21
0
31
0
39
0
210
0
220
0
230
1
0
LINE
5
12F
100
AcDbEntity
8
81
62
256
6
ByLayer
370
25
48
1
60
0
100
AcDbLine
10
104.005447
20
24.863732
30
0
11
109.983748
21
24.863732
31
0
39
0
210
0
220
0
230
1
0
MTEXT
5
317
100
AcDbEntity
8
SK6
62
256
6
ByLayer
370
25
48
1
60
0
100
AcDbMText
10
12.297948
20
-48.947953
30
0
210
0
220
0
230
1
1
\W0.7416;R790-050HA06S1-16M
40
4.0005
41
0
44
1.084337
50
0
71
7
72
5
7
iso_b_vert
0
DIMENSION
5
329
100
AcDbEntity
8
2
62
256
6
ByLayer
370
13
48
1
60
0
100
AcDbDimension
2
DimnDraft3D1
10
24.863732
20
-127.046864
30
0
11
-0.136268
21
-127.046864
31
0
70
32
71
5
72
1
41
1
210
0
220
0
230
1
3
Standard
100
AcDbAlignedDimension
13
-25.136268
23
-105.592947
33
0
14
24.863732
24
-105.592947
34
0
50
0
100
AcDbRotatedDimension
1001
ACAD
1000
DSTYLE
1002
{
1070
   279
1070
     0
1070
   173
1070
     1
1070
   340
1005
318
1070
   271
1070
     2
1070
   272
1070
     3
1070
    77
1070
     1
1070
    73
1070
     0
1070
   171
1070
     3
1070
   274
1070
     4
1070
   177
1070
     7
1070
   176
1070
     7
1070
   178
1070
     7
1070
    48
1040
-0.005
1070
    41
1041
3.175
1070
   147
1041
1.75006
1070
    42
1041
1.5875
1070
    44
1041
3.175
1070
   140
1041
3.50012
1070
   343
1005
0
1070
   344
1005
0
1002
}
0
DIMENSION
5
338
100
AcDbEntity
8
SK2
62
256
6
ByLayer
370
13
48
1
60
0
100
AcDbDimension
2
DimnDraft3D2
10
31.47
20
47.251578
30
0
11
0
21
47.251578
31
0
70
32
71
5
72
1
41
1
210
0
220
0
230
1
3
Standard
100
AcDbAlignedDimension
13
-31.47
23
1.5875
33
0
14
31.47
24
1.5875
34
0
50
0
100
AcDbRotatedDimension
1001
ACAD
1000
DSTYLE
1002
{
1070
   279
1070
     0
1070
   173
1070
     1
1070
   340
1005
318
1070
   271
1070
     2
1070
   272
1070
     3
1070
    77
1070
     1
1070
    73
1070
     0
1070
   171
1070
     3
1070
   274
1070
     4
1070
   177
1070
     7
1070
   176
1070
     7
1070
   178
1070
     7
1070
    48
1040
-0.005
1070
    41
1041
3.175
1070
   147
1041
1.75006
1070
    42
1041
1.5875
1070
    44
1041
3.175
1070
   140
1041
3.50012
1070
   343
1005
0
1070
   344
1005
0
1002
}
0
DIMENSION
5
347
100
AcDbEntity
8
SK2
62
256
6
ByLayer
370
13
48
1
60
0
100
AcDbDimension
2
DimnDraft3D3
10
-32.445686
20
91.628167
30
0
11
-32.445686
21
97.816807
31
0
70
32
71
5
72
1
41
1
210
0
220
0
230
1
3
Standard
100
AcDbAlignedDimension
13
-26.451232
23
104.005447
33
0
14
-26.561154
24
91.628167
34
0
50
90
100
AcDbRotatedDimension
1001
ACAD
1000
DSTYLE
1002
{
1070
    74
1070
     0
1070
   279
1070
     0
1070
   173
1070
     1
1070
   340
1005
318
1070
   271
1070
     2
1070
   272
1070
     3
1070
    77
1070
     1
1070
    73
1070
     0
1070
   171
1070
     3
1070
   274
1070
     4
1070
   177
1070
     7
1070
   176
1070
     7
1070
   178
1070
     7
1070
    48
1040
-0.005
1070
    41
1041
3.175
1070
   147
1041
1.75006
1070
    42
1041
1.5875
1070
    44
1041
3.175
1070
   140
1041
3.50012
1070
   343
1005
0
1070
   344
1005
0
1002
}
0
DIMENSION
5
355
100
AcDbEntity
8
2
62
256
6
ByLayer
370
13
48
1
60
0
100
AcDbDimension
2
DimnDraft3D4
10
-44.288729
20
28.924161
30
0
11
-44.288729
21
66.464804
31
0
70
32
71
5
72
1
41
1
210
0
220
0
230
1
3
Standard
100
AcDbAlignedDimension
13
-26.451232
23
104.005447
33
0
14
-25.163339
24
28.924161
34
0
50
90
100
AcDbRotatedDimension
1001
ACAD
1000
DSTYLE
1002
{
1070
    74
1070
     0
1070
   279
1070
     0
1070
   173
1070
     1
1070
   340
1005
318
1070
   271
1070
     2
1070
   272
1070
     3
1070
    77
1070
     1
1070
    73
1070
     0
1070
   171
1070
     3
1070
   274
1070
     4
1070
   177
1070
     7
1070
   176
1070
     7
1070
   178
1070
     7
1070
    48
1040
-0.005
1070
    41
1041
3.175
1070
   147
1041
1.75006
1070
    42
1041
1.5875
1070
    44
1041
3.175
1070
   140
1041
3.50012
1070
   343
1005
0
1070
   344
1005
0
1002
}
0
DIMENSION
5
363
100
AcDbEntity
8
2
62
256
6
ByLayer
370
13
48
1
60
0
100
AcDbDimension
2
DimnDraft3D5
10
-55.627813
20
104.005447
30
0
11
-55.627813
21
52.002724
31
0
70
32
71
5
72
1
41
1
210
0
220
0
230
1
3
Standard
100
AcDbAlignedDimension
13
-33.0575
23
0
33
0
14
-26.451232
24
104.005447
34
0
50
90
100
AcDbRotatedDimension
1001
ACAD
1000
DSTYLE
1002
{
1070
    74
1070
     0
1070
   279
1070
     0
1070
   173
1070
     1
1070
   340
1005
318
1070
   271
1070
     2
1070
   272
1070
     3
1070
    77
1070
     1
1070
    73
1070
     0
1070
   171
1070
     3
1070
   274
1070
     4
1070
   177
1070
     7
1070
   176
1070
     7
1070
   178
1070
     7
1070
    48
1040
-0.005
1070
    41
1041
3.175
1070
   147
1041
1.75006
1070
    42
1041
1.5875
1070
    44
1041
3.175
1070
   140
1041
3.50012
1070
   343
1005
0
1070
   344
1005
0
1002
}
0
ENDSEC
0
SECTION
2
OBJECTS
0
DICTIONARY
5
3ce
330
0
100
AcDbDictionary
280
0
281
1
3
ACAD_GROUP
350
3cf
3
ACAD_MLINESTYLE
350
3d0
0
DICTIONARY
5
3cf
330
0
100
AcDbDictionary
280
0
281
1
0
DICTIONARY
5
3d0
330
0
100
AcDbDictionary
280
0
281
1
3
Standard
350
18
0
MLINESTYLE
5
18
330
3d0
100
AcDbMlineStyle
2
Standard
70
0
3

62
256
51
90
52
90
71
2
49
-0.5
62
256
6
ByLayer
49
0.5
62
256
6
ByLayer
0
RASTERVARIABLES
5
3bc
330

100
AcDbRasterVariables
90
0
70
1
71
1
72
1
0
ENDSEC
0
EOF
