0
SECTION
2
HEADER
9
$ACADVER
1
AC1015
9
$DWGCODEPAGE
3
ANSI_1252
9
$HANDSEED
5
3b8
9
$ANGBASE
50
0
9
$ANGDIR
70
0
9
$ATTMODE
70
1
9
$AUNITS
70
0
9
$AUPREC
70
0
9
$CECOLOR
62
256
9
$CELTSCALE
40
1
9
$CELTYPE
6
ByLayer
9
$CELWEIGHT
370
18
9
$CLAYER
8
0
9
$CMLJUST
70
0
9
$CMLSCALE
40
1
9
$CMLSTYLE
2
Standard
9
$DIMSTYLE
2
Standard
9
$TEXTSIZE
40
0.2
9
$TEXTSTYLE
7
Standard
9
$LUNITS
70
2
9
$LUPREC
70
4
9
$EXTNAMES
290
1
9
$INSUNITS
70
4
9
$LTSCALE
40
1
9
$LWDISPLAY
290
1
9
$PDMODE
70
0
9
$PDSIZE
40
0
9
$PLINEGEN
70
0
0
ENDSEC
0
SECTION
2
CLASSES
0
CLASS
1
RASTERVARIABLES
2
AcDbRasterVariables
3
ISM
90
0
280
0
281
0
0
ENDSEC
0
SECTION
2
TABLES
0
TABLE
2
VPORT
5
3ae
100
AcDbSymbolTable
0
VPORT
5
1
100
AcDbSymbolTableRecord
100
AcDbViewportTableRecord
2
*Active
70
0
10
0
20
0
11
1
21
1
12
-1
22
1
13
0
23
0
14
0.5
24
0.5
15
10
25
10
16
0
26
0
36
1
17
0
27
0
37
0
0
ENDTAB
0
TABLE
2
LTYPE
5
3af
100
AcDbSymbolTable
0
LTYPE
5
14
100
AcDbSymbolTableRecord
100
AcDbLinetypeTableRecord
70
0
2
ByBlock
3

72
65
73
0
40
0
0
LTYPE
5
15
100
AcDbSymbolTableRecord
100
AcDbLinetypeTableRecord
70
0
2
ByLayer
3

72
65
73
0
40
0
0
LTYPE
5
16
100
AcDbSymbolTableRecord
100
AcDbLinetypeTableRecord
70
0
2
CONTINUOUS
3
Solid line
72
65
73
0
40
0
0
LTYPE
5
6A
100
AcDbSymbolTableRecord
100
AcDbLinetypeTableRecord
70
0
2
CENTER
3
____ _ ____ _ ____ _ ____
72
65
73
4
40
47.5
49
22
74
0
49
-8.5
74
0
49
8.5
74
0
49
-8.5
74
0
0
LTYPE
5
6B
100
AcDbSymbolTableRecord
100
AcDbLinetypeTableRecord
70
0
2
DASHED
3
__ __ __ __ __ __ __ __ __
72
65
73
2
40
25.72
49
12.86
74
0
49
-12.86
74
0
0
ENDTAB
0
TABLE
2
LAYER
5
3b0
100
AcDbSymbolTable
0
LAYER
5
10
100
AcDbSymbolTableRecord
100
AcDbLayerTableRecord
2
0
70
0
62
7
6
CONTINUOUS
290
1
370
-3
390
0
0
LAYER
5
6D
100
AcDbSymbolTableRecord
100
AcDbLayerTableRecord
2
81
70
0
62
-3
6
CONTINUOUS
290
1
370
-3
390
0
0
LAYER
5
6F
100
AcDbSymbolTableRecord
100
AcDbLayerTableRecord
2
1
70
0
62
4
6
CONTINUOUS
290
1
370
-3
390
0
0
LAYER
5
71
100
AcDbSymbolTableRecord
100
AcDbLayerTableRecord
2
80
70
0
62
-6
6
CONTINUOUS
290
1
370
-3
390
0
0
LAYER
5
122
100
AcDbSymbolTableRecord
100
AcDbLayerTableRecord
2
4
70
0
62
-2
6
CENTER
290
1
370
-3
390
0
0
LAYER
5
309
100
AcDbSymbolTableRecord
100
AcDbLayerTableRecord
2
2
70
0
62
7
6
CONTINUOUS
290
1
370
-3
390
0
0
LAYER
5
39a
100
AcDbSymbolTableRecord
100
AcDbLayerTableRecord
2
SK1
70
0
62
4
6
CONTINUOUS
290
1
370
-3
390
0
0
LAYER
5
39b
100
AcDbSymbolTableRecord
100
AcDbLayerTableRecord
2
SK4
70
0
62
2
6
CENTER
290
1
370
-3
390
0
0
LAYER
5
39c
100
AcDbSymbolTableRecord
100
AcDbLayerTableRecord
2
SK6
70
0
62
5
6
CONTINUOUS
290
1
370
-3
390
0
0
LAYER
5
39d
100
AcDbSymbolTableRecord
100
AcDbLayerTableRecord
2
SK2
70
0
62
7
6
CONTINUOUS
290
1
370
-3
390
0
0
ENDTAB
0
TABLE
2
STYLE
5
3b1
100
AcDbSymbolTable
0
STYLE
5
11
100
AcDbSymbolTableRecord
100
AcDbTextStyleTableRecord
2
Standard
3
txt
70
0
71
0
40
0
41
1
42
0
50
0
0
STYLE
5
2F5
100
AcDbSymbolTableRecord
100
AcDbTextStyleTableRecord
2
iso_b_vert
3
simplex.shx
70
0
71
0
40
0
41
1
42
0
50
0
0
STYLE
5
2F6
100
AcDbSymbolTableRecord
100
AcDbTextStyleTableRecord
2
DWGDirectTextStyle
3
simplex
70
0
71
0
40
0
41
1
42
0
50
0
0
ENDTAB
0
TABLE
2
DIMSTYLE
5
3b2
100
AcDbSymbolTable
100
AcDbDimStyleTable
0
DIMSTYLE
105
27
100
AcDbSymbolTableRecord
100
AcDbDimStyleTableRecord
2
Standard
70
0
3
<>
41
0.18
42
0.0625
44
0.18
140
0.18
147
0.09
73
0
74
0
77
1
271
2
275
0
278
52
280
0
340
11
0
ENDTAB
0
TABLE
2
VIEW
5
3b3
100
AcDbSymbolTable
0
ENDTAB
0
TABLE
2
UCS
5
3b4
100
AcDbSymbolTable
0
ENDTAB
0
TABLE
2
APPID
5
3b5
100
AcDbSymbolTable
0
APPID
5
12
100
AcDbSymbolTableRecord
100
AcDbRegAppTableRecord
2
ACAD
70
0
0
ENDTAB
0
TABLE
2
BLOCK_RECORD
5
3b6
100
AcDbSymbolTable
0
BLOCK_RECORD
5
1F
100
AcDbSymbolTableRecord
100
AcDbBlockTableRecord
2
*Model_Space
340
0
70
0
0
BLOCK_RECORD
5
1B
100
AcDbSymbolTableRecord
100
AcDbBlockTableRecord
2
*Paper_Space
340
0
70
0
0
BLOCK_RECORD
5
23
100
AcDbSymbolTableRecord
100
AcDbBlockTableRecord
2
*Paper_Space0
340
0
70
0
0
BLOCK_RECORD
5
2F8
100
AcDbSymbolTableRecord
100
AcDbBlockTableRecord
2
DimnDraft3D1
340
0
70
0
0
BLOCK_RECORD
5
307
100
AcDbSymbolTableRecord
100
AcDbBlockTableRecord
2
DimnDraft3D2
340
0
70
0
0
BLOCK_RECORD
5
316
100
AcDbSymbolTableRecord
100
AcDbBlockTableRecord
2
DimnDraft3D3
340
0
70
0
0
BLOCK_RECORD
5
325
100
AcDbSymbolTableRecord
100
AcDbBlockTableRecord
2
DimnDraft3D4
340
0
70
0
0
BLOCK_RECORD
5
333
100
AcDbSymbolTableRecord
100
AcDbBlockTableRecord
2
DimnDraft3D5
340
0
70
0
0
ENDTAB
0
ENDSEC
0
SECTION
2
BLOCKS
0
BLOCK
5
20
100
AcDbEntity
8
0
100
AcDbBlockBegin
2
*Model_Space
70
0
10
0
20
0
30
0
3
*Model_Space
0
ENDBLK
5
21
100
AcDbEntity
8
0
100
AcDbBlockEnd
0
BLOCK
5
1C
100
AcDbEntity
8
0
100
AcDbBlockBegin
2
*Paper_Space
70
0
10
0
20
0
30
0
3
*Paper_Space
0
ENDBLK
5
1D
100
AcDbEntity
8
0
100
AcDbBlockEnd
0
BLOCK
5
24
100
AcDbEntity
8
0
100
AcDbBlockBegin
2
*Paper_Space0
70
0
10
0
20
0
30
0
3
*Paper_Space0
0
ENDBLK
5
25
100
AcDbEntity
8
0
100
AcDbBlockEnd
0
BLOCK
5
304
100
AcDbEntity
8
0
100
AcDbBlockBegin
2
DimnDraft3D1
70
0
10
0
20
0
30
0
3
DimnDraft3D1
0
MTEXT
5
2F9
100
AcDbEntity
8
SK2
62
256
6
ByLayer
370
25
48
1
60
0
100
AcDbMText
10
-47.570861
20
-5.937584
30
0
210
0
220
0
230
1
1
\W1.2949;%%c63
40
4.0005
41
0
44
1.084337
50
90
71
7
72
5
7
iso_b_vert
0
LINE
5
2FB
100
AcDbEntity
8
SK2
62
256
6
ByLayer
370
13
48
1
60
0
100
AcDbLine
10
-1.5875
20
-31.47
30
0
11
-48.745611
21
-31.47
31
0
39
0
210
0
220
0
230
1
0
LINE
5
2FC
100
AcDbEntity
8
SK2
62
256
6
ByLayer
370
13
48
1
60
0
100
AcDbLine
10
-1.5875
20
31.47
30
0
11
-48.745611
21
31.47
31
0
39
0
210
0
220
0
230
1
0
LINE
5
2FD
100
AcDbEntity
8
SK2
62
256
6
ByLayer
370
13
48
1
60
0
100
AcDbLine
10
-45.570611
20
-31.47
30
0
11
-45.570611
21
31.47
31
0
39
0
210
0
220
0
230
1
0
LINE
5
2FE
100
AcDbEntity
8
SK2
62
256
6
ByLayer
370
13
48
1
60
0
100
AcDbLine
10
-45.570611
20
-31.47
30
0
11
-45.988607
21
-28.295002
31
0
39
0
210
0
220
0
230
1
0
LINE
5
2FF
100
AcDbEntity
8
SK2
62
256
6
ByLayer
370
13
48
1
60
0
100
AcDbLine
10
-45.570611
20
-31.47
30
0
11
-45.152614
21
-28.294998
31
0
39
0
210
0
220
0
230
1
0
LINE
5
300
100
AcDbEntity
8
SK2
62
256
6
ByLayer
370
13
48
1
60
0
100
AcDbLine
10
-45.988607
20
-28.295002
30
0
11
-45.152614
21
-28.294998
31
0
39
0
210
0
220
0
230
1
0
LINE
5
301
100
AcDbEntity
8
SK2
62
256
6
ByLayer
370
13
48
1
60
0
100
AcDbLine
10
-45.570611
20
31.47
30
0
11
-45.152614
21
28.295002
31
0
39
0
210
0
220
0
230
1
0
LINE
5
302
100
AcDbEntity
8
SK2
62
256
6
ByLayer
370
13
48
1
60
0
100
AcDbLine
10
-45.570611
20
31.47
30
0
11
-45.988607
21
28.294998
31
0
39
0
210
0
220
0
230
1
0
LINE
5
303
100
AcDbEntity
8
SK2
62
256
6
ByLayer
370
13
48
1
60
0
100
AcDbLine
10
-45.152614
20
28.295002
30
0
11
-45.988607
21
28.294998
31
0
39
0
210
0
220
0
230
1
0
ENDBLK
5
305
100
AcDbEntity
8
0
100
AcDbBlockEnd
0
BLOCK
5
313
100
AcDbEntity
8
0
100
AcDbBlockBegin
2
DimnDraft3D2
70
0
10
0
20
0
30
0
3
DimnDraft3D2
0
MTEXT
5
308
100
AcDbEntity
8
2
62
256
6
ByLayer
370
25
48
1
60
0
100
AcDbMText
10
109.46084
20
-6.052161
30
0
210
0
220
0
230
1
1
\W1.2949;%%c32
40
4.0005
41
0
44
1.084337
50
90
71
7
72
5
7
iso_b_vert
0
LINE
5
30A
100
AcDbEntity
8
2
62
256
6
ByLayer
370
13
48
1
60
0
100
AcDbLine
10
93.592959
20
-16.114577
30
0
11
114.63609
21
-16.114577
31
0
39
0
210
0
220
0
230
1
0
LINE
5
30B
100
AcDbEntity
8
2
62
256
6
ByLayer
370
13
48
1
60
0
100
AcDbLine
10
93.592959
20
15.885423
30
0
11
114.63609
21
15.885423
31
0
39
0
210
0
220
0
230
1
0
LINE
5
30C
100
AcDbEntity
8
2
62
256
6
ByLayer
370
13
48
1
60
0
100
AcDbLine
10
111.46109
20
-16.114577
30
0
11
111.46109
21
15.885423
31
0
39
0
210
0
220
0
230
1
0
LINE
5
30D
100
AcDbEntity
8
2
62
256
6
ByLayer
370
13
48
1
60
0
100
AcDbLine
10
111.46109
20
-16.114577
30
0
11
111.043093
21
-12.939578
31
0
39
0
210
0
220
0
230
1
0
LINE
5
30E
100
AcDbEntity
8
2
62
256
6
ByLayer
370
13
48
1
60
0
100
AcDbLine
10
111.46109
20
-16.114577
30
0
11
111.879087
21
-12.939575
31
0
39
0
210
0
220
0
230
1
0
LINE
5
30F
100
AcDbEntity
8
2
62
256
6
ByLayer
370
13
48
1
60
0
100
AcDbLine
10
111.043093
20
-12.939578
30
0
11
111.879087
21
-12.939575
31
0
39
0
210
0
220
0
230
1
0
LINE
5
310
100
AcDbEntity
8
2
62
256
6
ByLayer
370
13
48
1
60
0
100
AcDbLine
10
111.46109
20
15.885423
30
0
11
111.879087
21
12.710425
31
0
39
0
210
0
220
0
230
1
0
LINE
5
311
100
AcDbEntity
8
2
62
256
6
ByLayer
370
13
48
1
60
0
100
AcDbLine
10
111.46109
20
15.885423
30
0
11
111.043093
21
12.710422
31
0
39
0
210
0
220
0
230
1
0
LINE
5
312
100
AcDbEntity
8
2
62
256
6
ByLayer
370
13
48
1
60
0
100
AcDbLine
10
111.879087
20
12.710425
30
0
11
111.043093
21
12.710422
31
0
39
0
210
0
220
0
230
1
0
ENDBLK
5
314
100
AcDbEntity
8
0
100
AcDbBlockEnd
0
BLOCK
5
322
100
AcDbEntity
8
0
100
AcDbBlockBegin
2
DimnDraft3D3
70
0
10
0
20
0
30
0
3
DimnDraft3D3
0
MTEXT
5
317
100
AcDbEntity
8
SK2
62
256
6
ByLayer
370
25
48
1
60
0
100
AcDbMText
10
84.767949
20
25.745804
30
0
210
0
220
0
230
1
1
\W0.5144;12
40
4.0005
41
0
44
1.084337
50
0
71
7
72
5
7
iso_b_vert
0
LINE
5
318
100
AcDbEntity
8
SK2
62
256
6
ByLayer
370
13
48
1
60
0
100
AcDbLine
10
92.005459
20
17.472923
30
0
11
92.005459
21
27.920679
31
0
39
0
210
0
220
0
230
1
0
LINE
5
319
100
AcDbEntity
8
SK2
62
256
6
ByLayer
370
13
48
1
60
0
100
AcDbLine
10
79.204333
20
17.474964
30
0
11
79.204333
21
27.920679
31
0
39
0
210
0
220
0
230
1
0
LINE
5
31A
100
AcDbEntity
8
SK2
62
256
6
ByLayer
370
13
48
1
60
0
100
AcDbLine
10
102.006709
20
24.745679
30
0
11
92.005459
21
24.745679
31
0
39
0
210
0
220
0
230
1
0
LINE
5
31B
100
AcDbEntity
8
SK2
62
256
6
ByLayer
370
13
48
1
60
0
100
AcDbLine
10
69.203083
20
24.745679
30
0
11
79.204333
21
24.745679
31
0
39
0
210
0
220
0
230
1
0
LINE
5
31C
100
AcDbEntity
8
SK2
62
256
6
ByLayer
370
13
48
1
60
0
100
AcDbLine
10
92.005459
20
24.745679
30
0
11
95.180457
21
25.163676
31
0
39
0
210
0
220
0
230
1
0
LINE
5
31D
100
AcDbEntity
8
SK2
62
256
6
ByLayer
370
13
48
1
60
0
100
AcDbLine
10
92.005459
20
24.745679
30
0
11
95.18046
21
24.327682
31
0
39
0
210
0
220
0
230
1
0
LINE
5
31E
100
AcDbEntity
8
SK2
62
256
6
ByLayer
370
13
48
1
60
0
100
AcDbLine
10
95.180457
20
25.163676
30
0
11
95.18046
21
24.327682
31
0
39
0
210
0
220
0
230
1
0
LINE
5
31F
100
AcDbEntity
8
SK2
62
256
6
ByLayer
370
13
48
1
60
0
100
AcDbLine
10
79.204333
20
24.745679
30
0
11
76.029335
21
24.327682
31
0
39
0
210
0
220
0
230
1
0
LINE
5
320
100
AcDbEntity
8
SK2
62
256
6
ByLayer
370
13
48
1
60
0
100
AcDbLine
10
79.204333
20
24.745679
30
0
11
76.029332
21
25.163676
31
0
39
0
210
0
220
0
230
1
0
LINE
5
321
100
AcDbEntity
8
SK2
62
256
6
ByLayer
370
13
48
1
60
0
100
AcDbLine
10
76.029335
20
24.327682
30
0
11
76.029332
21
25.163676
31
0
39
0
210
0
220
0
230
1
0
ENDBLK
5
323
100
AcDbEntity
8
0
100
AcDbBlockEnd
0
BLOCK
5
330
100
AcDbEntity
8
0
100
AcDbBlockBegin
2
DimnDraft3D4
70
0
10
0
20
0
30
0
3
DimnDraft3D4
0
MTEXT
5
326
100
AcDbEntity
8
2
62
256
6
ByLayer
370
25
48
1
60
0
100
AcDbMText
10
60.665783
20
37.693393
30
0
210
0
220
0
230
1
1
\W0.6139;61
40
4.0005
41
0
44
1.084337
50
0
71
7
72
5
7
iso_b_vert
0
LINE
5
327
100
AcDbEntity
8
2
62
256
6
ByLayer
370
13
48
1
60
0
100
AcDbLine
10
31
20
16.293723
30
0
11
31
21
39.868268
31
0
39
0
210
0
220
0
230
1
0
LINE
5
328
100
AcDbEntity
8
2
62
256
6
ByLayer
370
13
48
1
60
0
100
AcDbLine
10
92.005459
20
17.472923
30
0
11
92.005459
21
39.868268
31
0
39
0
210
0
220
0
230
1
0
LINE
5
329
100
AcDbEntity
8
2
62
256
6
ByLayer
370
13
48
1
60
0
100
AcDbLine
10
31
20
36.693268
30
0
11
92.005459
21
36.693268
31
0
39
0
210
0
220
0
230
1
0
LINE
5
32A
100
AcDbEntity
8
2
62
256
6
ByLayer
370
13
48
1
60
0
100
AcDbLine
10
31
20
36.693268
30
0
11
34.174998
21
37.111264
31
0
39
0
210
0
220
0
230
1
0
LINE
5
32B
100
AcDbEntity
8
2
62
256
6
ByLayer
370
13
48
1
60
0
100
AcDbLine
10
31
20
36.693268
30
0
11
34.175002
21
36.275271
31
0
39
0
210
0
220
0
230
1
0
LINE
5
32C
100
AcDbEntity
8
2
62
256
6
ByLayer
370
13
48
1
60
0
100
AcDbLine
10
34.174998
20
37.111264
30
0
11
34.175002
21
36.275271
31
0
39
0
210
0
220
0
230
1
0
LINE
5
32D
100
AcDbEntity
8
2
62
256
6
ByLayer
370
13
48
1
60
0
100
AcDbLine
10
92.005459
20
36.693268
30
0
11
88.83046
21
36.275271
31
0
39
0
210
0
220
0
230
1
0
LINE
5
32E
100
AcDbEntity
8
2
62
256
6
ByLayer
370
13
48
1
60
0
100
AcDbLine
10
92.005459
20
36.693268
30
0
11
88.830457
21
37.111264
31
0
39
0
210
0
220
0
230
1
0
LINE
5
32F
100
AcDbEntity
8
2
62
256
6
ByLayer
370
13
48
1
60
0
100
AcDbLine
10
88.83046
20
36.275271
30
0
11
88.830457
21
37.111264
31
0
39
0
210
0
220
0
230
1
0
ENDBLK
5
331
100
AcDbEntity
8
0
100
AcDbBlockEnd
0
BLOCK
5
33E
100
AcDbEntity
8
0
100
AcDbBlockBegin
2
DimnDraft3D5
70
0
10
0
20
0
30
0
3
DimnDraft3D5
0
MTEXT
5
334
100
AcDbEntity
8
2
62
256
6
ByLayer
370
25
48
1
60
0
100
AcDbMText
10
44.66572
20
49.181459
30
0
210
0
220
0
230
1
1
\W0.6562;92
40
4.0005
41
0
44
1.084337
50
0
71
7
72
5
7
iso_b_vert
0
LINE
5
335
100
AcDbEntity
8
2
62
256
6
ByLayer
370
13
48
1
60
0
100
AcDbLine
10
0
20
33.0575
30
0
11
0
21
51.356334
31
0
39
0
210
0
220
0
230
1
0
LINE
5
336
100
AcDbEntity
8
2
62
256
6
ByLayer
370
13
48
1
60
0
100
AcDbLine
10
92.005459
20
17.472923
30
0
11
92.005459
21
51.356334
31
0
39
0
210
0
220
0
230
1
0
LINE
5
337
100
AcDbEntity
8
2
62
256
6
ByLayer
370
13
48
1
60
0
100
AcDbLine
10
0
20
48.181334
30
0
11
92.005459
21
48.181334
31
0
39
0
210
0
220
0
230
1
0
LINE
5
338
100
AcDbEntity
8
2
62
256
6
ByLayer
370
13
48
1
60
0
100
AcDbLine
10
0
20
48.181334
30
0
11
3.174998
21
48.59933
31
0
39
0
210
0
220
0
230
1
0
LINE
5
339
100
AcDbEntity
8
2
62
256
6
ByLayer
370
13
48
1
60
0
100
AcDbLine
10
0
20
48.181334
30
0
11
3.175002
21
47.763337
31
0
39
0
210
0
220
0
230
1
0
LINE
5
33A
100
AcDbEntity
8
2
62
256
6
ByLayer
370
13
48
1
60
0
100
AcDbLine
10
3.174998
20
48.59933
30
0
11
3.175002
21
47.763337
31
0
39
0
210
0
220
0
230
1
0
LINE
5
33B
100
AcDbEntity
8
2
62
256
6
ByLayer
370
13
48
1
60
0
100
AcDbLine
10
92.005459
20
48.181334
30
0
11
88.83046
21
47.763337
31
0
39
0
210
0
220
0
230
1
0
LINE
5
33C
100
AcDbEntity
8
2
62
256
6
ByLayer
370
13
48
1
60
0
100
AcDbLine
10
92.005459
20
48.181334
30
0
11
88.830457
21
48.59933
31
0
39
0
210
0
220
0
230
1
0
LINE
5
33D
100
AcDbEntity
8
2
62
256
6
ByLayer
370
13
48
1
60
0
100
AcDbLine
10
88.83046
20
47.763337
30
0
11
88.830457
21
48.59933
31
0
39
0
210
0
220
0
230
1
0
ENDBLK
5
33F
100
AcDbEntity
8
0
100
AcDbBlockEnd
0
ENDSEC
0
SECTION
2
ENTITIES
0
ARC
5
127
100
AcDbEntity
8
1
62
256
6
ByLayer
370
25
48
1
60
0
100
AcDbCircle
39
0
10
19.1625
20
28.225
30
0
40
0.749999999999989
210
0
220
0
230
1
100
AcDbArc
50
270
51
0
0
ARC
5
128
100
AcDbEntity
8
1
62
256
6
ByLayer
370
25
48
1
60
0
100
AcDbCircle
39
0
10
16.8375
20
28.225
30
0
40
0.749999999999989
210
0
220
0
230
1
100
AcDbArc
50
180
51
270
0
ARC
5
129
100
AcDbEntity
8
1
62
256
6
ByLayer
370
25
48
1
60
0
100
AcDbCircle
39
0
10
19.1625
20
-28.225
30
0
40
0.749999999999989
210
0
220
0
230
1
100
AcDbArc
50
0
51
90
0
ARC
5
12A
100
AcDbEntity
8
1
62
256
6
ByLayer
370
25
48
1
60
0
100
AcDbCircle
39
0
10
16.8375
20
-28.225
30
0
40
0.749999999999989
210
0
220
0
230
1
100
AcDbArc
50
90
51
180
0
ARC
5
12B
100
AcDbEntity
8
SK1
62
256
6
ByLayer
370
25
48
1
60
0
100
AcDbCircle
39
0
10
-0.475
20
24.61997
30
0
40
0.599999999999384
210
0
220
0
230
1
100
AcDbArc
50
270
51
322.341538
0
ARC
5
12C
100
AcDbEntity
8
SK1
62
256
6
ByLayer
370
25
48
1
60
0
100
AcDbCircle
39
0
10
-0.475
20
-24.61997
30
0
40
0.59999999999937
210
0
220
0
230
1
100
AcDbArc
50
37.658462
51
90
0
ARC
5
12D
100
AcDbEntity
8
SK1
62
256
6
ByLayer
370
25
48
1
60
0
100
AcDbCircle
39
0
10
1.049598
20
24.61997
30
0
40
0.6
210
0
220
0
230
-1
100
AcDbArc
50
270
51
285
0
ARC
5
12E
100
AcDbEntity
8
SK1
62
256
6
ByLayer
370
25
48
1
60
0
100
AcDbCircle
39
0
10
1.049598
20
-24.61997
30
0
40
0.6
210
0
220
0
230
-1
100
AcDbArc
50
75
51
90
0
ARC
5
12F
100
AcDbEntity
8
SK1
62
256
6
ByLayer
370
25
48
1
60
0
100
AcDbCircle
39
0
10
-27.2
20
4.87
30
0
40
1.4
210
0
220
0
230
1
100
AcDbArc
50
0
51
90
0
ARC
5
130
100
AcDbEntity
8
SK1
62
256
6
ByLayer
370
25
48
1
60
0
100
AcDbCircle
39
0
10
-27.2
20
-4.87
30
0
40
1.39999999999989
210
0
220
0
230
1
100
AcDbArc
50
270
51
0
0
ARC
5
131
100
AcDbEntity
8
SK1
62
256
6
ByLayer
370
25
48
1
60
0
100
AcDbCircle
39
0
10
-30.7
20
-21.583501
30
0
40
1.19999999999995
210
0
220
0
230
1
100
AcDbArc
50
180
51
267.137595
0
ARC
5
132
100
AcDbEntity
8
SK1
62
256
6
ByLayer
370
25
48
1
60
0
100
AcDbCircle
39
0
10
-30.7
20
21.583501
30
0
40
1.19999999999999
210
0
220
0
230
1
100
AcDbArc
50
92.862405
51
180
0
ARC
5
133
100
AcDbEntity
8
1
62
256
6
ByLayer
370
25
48
1
60
0
100
AcDbCircle
39
0
10
31
20
19.706223
30
0
40
4.99999999999995
210
0
220
0
230
1
100
AcDbArc
50
180
51
270
0
ARC
5
134
100
AcDbEntity
8
1
62
256
6
ByLayer
370
25
48
1
60
0
100
AcDbCircle
39
0
10
31
20
-19.706223
30
0
40
4.99999999999989
210
0
220
0
230
1
100
AcDbArc
50
90
51
180
0
ARC
5
135
100
AcDbEntity
8
1
62
256
6
ByLayer
370
25
48
1
60
0
100
AcDbCircle
39
0
10
86.972194
20
-11.457382
30
0
40
3.7
210
0
220
0
230
1
100
AcDbArc
50
271.49428
51
285.549861
0
ELLIPSE
5
136
100
AcDbEntity
8
1
62
256
6
ByLayer
370
25
48
1
60
0
100
AcDbEllipse
10
87.4261
20
-8.440274
30
0
11
-3.66077923983379
21
-0.537303784991153
31
0
210
0
220
0
230
1
40
0.483026
41
2.62140265300386
42
3.09985515224394
0
ELLIPSE
5
137
100
AcDbEntity
8
1
62
256
6
ByLayer
370
25
48
1
60
0
100
AcDbEllipse
10
82.722505
20
1.70946
30
0
11
2.47258238794563
21
-0.369237504624137
31
0
210
0
220
0
230
1
40
0.508746
41
0.0817649557065602
42
2.84425753952956
0
ELLIPSE
5
138
100
AcDbEntity
8
1
62
256
6
ByLayer
370
25
48
1
60
0
100
AcDbEllipse
10
82.72221
20
1.735137
30
0
11
1.73080767156158
21
-0.258466253237053
31
0
210
0
220
0
230
1
40
0.508746
41
3.14159265358979
42
-1.48903137108804
0
ELLIPSE
5
139
100
AcDbEntity
8
1
62
256
6
ByLayer
370
25
48
1
60
0
100
AcDbEllipse
10
82.72221
20
1.735137
30
0
11
1.73080767156166
21
-0.258466253236686
31
0
210
0
220
0
230
1
40
0.508746
41
-1.48903137108853
42
-4.98805421116844E-16
0
ELLIPSE
5
13A
100
AcDbEntity
8
1
62
256
6
ByLayer
370
25
48
1
60
0
100
AcDbEllipse
10
82.72221
20
1.735137
30
0
11
1.7308076715614
21
-0.258466253236568
31
0
210
0
220
0
230
1
40
0.508746
41
1.86055331944688
42
3.14159265358979
0
ELLIPSE
5
13B
100
AcDbEntity
8
1
62
256
6
ByLayer
370
25
48
1
60
0
100
AcDbEllipse
10
82.72221
20
1.735137
30
0
11
1.73080767156078
21
-0.258466253237158
31
0
210
0
220
0
230
1
40
0.508746
41
0
42
1.28103932920674
0
ELLIPSE
5
13C
100
AcDbEntity
8
1
62
256
6
ByLayer
370
25
48
1
60
0
100
AcDbEllipse
10
86.972194
20
-11.457382
30
0
11
-0.198518078552467
21
-3.69467054322407
31
0
210
0
220
0
230
1
40
1
41
1.51676325447524
42
1.61835688897339
0
ELLIPSE
5
13D
100
AcDbEntity
8
1
62
256
6
ByLayer
370
25
48
1
60
0
100
AcDbEllipse
10
73.459735
20
7.251857
30
0
11
0.688105044033648
21
-2.40343742364999
31
0
210
0
220
0
230
1
40
0.977723
41
-2.84607569626336
42
-2.46341341649036
0
ELLIPSE
5
13E
100
AcDbEntity
8
1
62
256
6
ByLayer
370
25
48
1
60
0
100
AcDbEllipse
10
72.888501
20
7.70258
30
0
11
3.74649501966112
21
-2.00655794124937
31
0
210
0
220
0
230
1
40
0.07353
41
2.01281866073746
42
2.1636555432969
0
ELLIPSE
5
13F
100
AcDbEntity
8
1
62
256
6
ByLayer
370
25
48
1
60
0
100
AcDbEllipse
10
75.776336
20
14.016274
30
0
11
1.99996529947821
21
-0.0117813605085586
31
0
210
0
220
0
230
1
40
0.015726
41
2.49337230801006
42
3.01418482575279
0
ELLIPSE
5
140
100
AcDbEntity
8
1
62
256
6
ByLayer
370
25
48
1
60
0
100
AcDbEllipse
10
71.732749
20
8.238918
30
0
11
-0.654871046829774
21
-1.14577955405688
31
0
210
0
220
0
230
1
40
0.349776
41
-2.83911984542587
42
-2.64425777962933
0
ELLIPSE
5
141
100
AcDbEntity
8
1
62
256
6
ByLayer
370
25
48
1
60
0
100
AcDbEllipse
10
77.182067
20
-2.580575
30
0
11
1.97806591035663
21
-0.295390003699251
31
0
210
0
220
0
230
1
40
0.508746
41
-2.57113550733938
42
-1.68553180584502
0
ELLIPSE
5
142
100
AcDbEntity
8
1
62
256
6
ByLayer
370
25
48
1
60
0
100
AcDbEllipse
10
77.224607
20
-2.295712
30
0
11
1.70871064567544
21
-0.255166443796927
31
0
210
0
220
0
230
1
40
0.508746
41
-2.43229416475219
42
-1.73246239649692
0
ELLIPSE
5
143
100
AcDbEntity
8
1
62
256
6
ByLayer
370
25
48
1
60
0
100
AcDbEllipse
10
87.513836
20
-2.216964
30
0
11
3.17468324990717
21
-0.474084150792755
31
0
210
0
220
0
230
1
40
0.508746
41
-1.261199919903
42
-1.11491819196792
0
ELLIPSE
5
144
100
AcDbEntity
8
1
62
256
6
ByLayer
370
25
48
1
60
0
100
AcDbEllipse
10
87.4261
20
-2.804481
30
0
11
3.65942193415992
21
-0.54647150684394
31
0
210
0
220
0
230
1
40
0.508746
41
-1.27443522821477
42
0.497236168519553
0
ELLIPSE
5
145
100
AcDbEntity
8
1
62
256
6
ByLayer
370
25
48
1
60
0
100
AcDbEllipse
10
87.468639
20
-2.519618
30
0
11
3.39006666945234
21
-0.506247946929953
31
0
210
0
220
0
230
1
40
0.508746
41
-1.31642439634025
42
-0.832164527363507
0
ELLIPSE
5
146
100
AcDbEntity
8
1
62
256
6
ByLayer
370
25
48
1
60
0
100
AcDbEllipse
10
87.468639
20
-2.519618
30
0
11
3.3900666695572
21
-0.50624794698274
31
0
210
0
220
0
230
1
40
0.508746
41
-0.587564321198058
42
-0.359660553833024
0
ELLIPSE
5
147
100
AcDbEntity
8
1
62
256
6
ByLayer
370
25
48
1
60
0
100
AcDbEllipse
10
87.468639
20
-2.519618
30
0
11
3.39006666684034
21
-0.506247946421446
31
0
210
0
220
0
230
1
40
0.508746
41
-0.176888673557009
42
0.0191757503947326
0
ELLIPSE
5
148
100
AcDbEntity
8
1
62
256
6
ByLayer
370
25
48
1
60
0
100
AcDbEllipse
10
81.771797
20
10.533929
30
0
11
0.304488927739972
21
-2.60728047836823
31
0
210
0
220
0
230
1
40
0.991772
41
3.14159265358979
42
-1.68071063724161
0
ELLIPSE
5
149
100
AcDbEntity
8
1
62
256
6
ByLayer
370
25
48
1
60
0
100
AcDbEllipse
10
81.736774
20
10.529839
30
0
11
0.208792407615314
21
-1.78784947087897
31
0
210
0
220
0
230
1
40
0.991772
41
0
42
6.28318530717959
0
ELLIPSE
5
14A
100
AcDbEntity
8
1
62
256
6
ByLayer
370
25
48
1
60
0
100
AcDbEllipse
10
81.736774
20
10.529839
30
0
11
0.194466928582642
21
-1.66518313217619
31
0
210
0
220
0
230
1
40
0.991772
41
1.46088201630804
42
2.50528901982391
0
ELLIPSE
5
14B
100
AcDbEntity
8
1
62
256
6
ByLayer
370
25
48
1
60
0
100
AcDbEllipse
10
81.736774
20
10.529839
30
0
11
0.194466928528682
21
-1.66518313218291
31
0
210
0
220
0
230
1
40
0.991772
41
-0.63630363373393
42
0.416475012825543
0
ELLIPSE
5
14C
100
AcDbEntity
8
1
62
256
6
ByLayer
370
25
48
1
60
0
100
AcDbEllipse
10
81.736774
20
10.529839
30
0
11
0.194466928642352
21
-1.66518313217251
31
0
210
0
220
0
230
1
40
0.991772
41
0.416475012757935
42
1.46088201627214
0
ELLIPSE
5
14D
100
AcDbEntity
8
1
62
256
6
ByLayer
370
25
48
1
60
0
100
AcDbEllipse
10
81.736774
20
10.529839
30
0
11
0.194466928536672
21
-1.66518313218298
31
0
210
0
220
0
230
1
40
0.991772
41
2.50528901985137
42
-2.72511764076907
0
ELLIPSE
5
14E
100
AcDbEntity
8
1
62
256
6
ByLayer
370
25
48
1
60
0
100
AcDbEllipse
10
81.736774
20
10.529839
30
0
11
0.194466928623104
21
-1.66518313217438
31
0
210
0
220
0
230
1
40
0.991772
41
-2.7251176408203
42
-1.68071063730598
0
ELLIPSE
5
14F
100
AcDbEntity
8
1
62
256
6
ByLayer
370
25
48
1
60
0
100
AcDbEllipse
10
81.736774
20
10.529839
30
0
11
0.194466928636994
21
-1.66518313216845
31
0
210
0
220
0
230
1
40
0.991772
41
-1.68071063731486
42
-0.636303633798138
0
ELLIPSE
5
150
100
AcDbEntity
8
1
62
256
6
ByLayer
370
25
48
1
60
0
100
AcDbEllipse
10
81.914788
20
10.550628
30
0
11
0.304488927772377
21
-2.60728047836516
31
0
210
0
220
0
230
1
40
0.991772
41
0
42
3.14159265358979
0
ELLIPSE
5
151
100
AcDbEntity
8
1
62
256
6
ByLayer
370
25
48
1
60
0
100
AcDbEllipse
10
81.771797
20
10.533929
30
0
11
0.304488927779128
21
-2.60728047836429
31
0
210
0
220
0
230
1
40
0.991772
41
-1.68071063725675
42
0
0
ELLIPSE
5
152
100
AcDbEntity
8
1
62
256
6
ByLayer
370
25
48
1
60
0
100
AcDbEllipse
10
81.771797
20
10.533929
30
0
11
0.304488927772461
21
-2.60728047836515
31
0
210
0
220
0
230
1
40
0.991772
41
0
42
3.14159265358979
0
ELLIPSE
5
153
100
AcDbEntity
8
1
62
256
6
ByLayer
370
25
48
1
60
0
100
AcDbEllipse
10
81.904323
20
12.435324
30
0
11
0.0795731061889298
21
-0.681369298365365
31
0
210
0
220
0
230
1
40
0.991772
41
0.0116997311469168
42
0.681347024857606
0
ELLIPSE
5
154
100
AcDbEntity
8
1
62
256
6
ByLayer
370
25
48
1
60
0
100
AcDbEllipse
10
81.219372
20
11.744174
30
0
11
0.0338707682997942
21
-0.290028914169362
31
0
210
0
220
0
230
1
40
0.991772
41
-2.81052920717531
42
-1.41892349522836
0
ELLIPSE
5
155
100
AcDbEntity
8
1
62
256
6
ByLayer
370
25
48
1
60
0
100
AcDbEllipse
10
81.93161
20
8.666675
30
0
11
0.0795731060124096
21
-0.681369298411963
31
0
210
0
220
0
230
1
40
0.991772
41
2.24041700886948
42
2.91006430256597
0
ELLIPSE
5
156
100
AcDbEntity
8
1
62
256
6
ByLayer
370
25
48
1
60
0
100
AcDbEllipse
10
81.236704
20
9.350321
30
0
11
0.0338707683262507
21
-0.290028914167537
31
0
210
0
220
0
230
1
40
0.991772
41
-1.94249777904632
42
-0.310814193418508
0
ELLIPSE
5
157
100
AcDbEntity
8
1
62
256
6
ByLayer
370
25
48
1
60
0
100
AcDbEllipse
10
80.544741
20
10.543531
30
0
11
0.0338707683453146
21
-0.290028914164939
31
0
210
0
220
0
230
1
40
0.991772
41
-2.98690478262863
42
-0.374516491871613
0
ELLIPSE
5
158
100
AcDbEntity
8
1
62
256
6
ByLayer
370
25
48
1
60
0
100
AcDbEllipse
10
80.284218
20
11.485996
30
0
11
0.0795731063841694
21
-0.681369298351842
31
0
210
0
220
0
230
1
40
0.991772
41
0.938678514683819
42
1.72266915830791
0
ELLIPSE
5
159
100
AcDbEntity
8
1
62
256
6
ByLayer
370
25
48
1
60
0
100
AcDbEllipse
10
80.284218
20
11.485996
30
0
11
0.0795731065200043
21
-0.6813692983402
31
0
210
0
220
0
230
1
40
0.991772
41
0.154687870866958
42
0.938678514486782
0
ELLIPSE
5
15A
100
AcDbEntity
8
1
62
256
6
ByLayer
370
25
48
1
60
0
100
AcDbEllipse
10
80.297886
20
9.598307
30
0
11
0.0795731063960868
21
-0.681369298355017
31
0
210
0
220
0
230
1
40
0.991772
41
1.98308551818509
42
2.76707616180478
0
ELLIPSE
5
15B
100
AcDbEntity
8
1
62
256
6
ByLayer
370
25
48
1
60
0
100
AcDbEllipse
10
80.297886
20
9.598307
30
0
11
0.0795731064395333
21
-0.681369298348632
31
0
210
0
220
0
230
1
40
0.991772
41
1.19909487449986
42
1.98308551812019
0
ELLIPSE
5
15C
100
AcDbEntity
8
1
62
256
6
ByLayer
370
25
48
1
60
0
100
AcDbEllipse
10
81.917967
20
10.551
30
0
11
0.139948911039285
21
-1.19835577033581
31
0
210
0
220
0
230
1
40
0.991772
41
1.13127745869917
42
1.73639786082687
0
ELLIPSE
5
15D
100
AcDbEntity
8
1
62
256
6
ByLayer
370
25
48
1
60
0
100
AcDbEllipse
10
81.917967
20
10.551
30
0
11
0.139948910837229
21
-1.19835577036626
31
0
210
0
220
0
230
1
40
0.991772
41
2.29157195893171
42
2.96264570984875
0
ELLIPSE
5
15E
100
AcDbEntity
8
1
62
256
6
ByLayer
370
25
48
1
60
0
100
AcDbEllipse
10
81.917967
20
10.551
30
0
11
0.139948910940497
21
-1.19835577034445
31
0
210
0
220
0
230
1
40
0.991772
41
-0.0408816770040803
42
0.640851675759869
0
ELLIPSE
5
15F
100
AcDbEntity
8
1
62
256
6
ByLayer
370
25
48
1
60
0
100
AcDbEllipse
10
81.917967
20
10.551
30
0
11
0.139948911103274
21
-1.19835577032607
31
0
210
0
220
0
230
1
40
0.991772
41
-1.1585071355894
42
-0.296521341538245
0
ELLIPSE
5
160
100
AcDbEntity
8
1
62
256
6
ByLayer
370
25
48
1
60
0
100
AcDbEllipse
10
81.917967
20
10.551
30
0
11
0.139948910993144
21
-1.19835577034135
31
0
210
0
220
0
230
1
40
0.991772
41
-2.20291413901204
42
-1.15850713549621
0
ELLIPSE
5
161
100
AcDbEntity
8
1
62
256
6
ByLayer
370
25
48
1
60
0
100
AcDbEllipse
10
81.917967
20
10.551
30
0
11
0.13994891106849
21
-1.19835577033567
31
0
210
0
220
0
230
1
40
0.991772
41
-3.07984112523662
42
-2.20291413907482
0
ELLIPSE
5
162
100
AcDbEntity
8
1
62
256
6
ByLayer
370
25
48
1
60
0
100
AcDbEllipse
10
82.209524
20
10.55413
30
0
11
0.315169249632877
21
-2.69873403195549
31
0
210
0
220
0
230
1
40
0.991772
41
-0.123151411928111
42
0.572500127886413
0
ELLIPSE
5
163
100
AcDbEntity
8
1
62
256
6
ByLayer
370
25
48
1
60
0
100
AcDbEllipse
10
82.209524
20
10.55413
30
0
11
0.315169293048086
21
-2.69873402430404
31
0
210
0
220
0
230
1
40
0.991772
41
-0.35979858370648
42
-0.221565018398533
0
ELLIPSE
5
164
100
AcDbEntity
8
1
62
256
6
ByLayer
370
25
48
1
60
0
100
AcDbEllipse
10
82.209524
20
10.55413
30
0
11
0.315169249498017
21
-2.69873403196891
31
0
210
0
220
0
230
1
40
0.991772
41
2.56909252569272
42
-2.96739580520476
0
ELLIPSE
5
165
100
AcDbEntity
8
1
62
256
6
ByLayer
370
25
48
1
60
0
100
AcDbEllipse
10
82.255066
20
10.559449
30
0
11
0.293162193443481
21
-2.51029181766111
31
0
210
0
220
0
230
1
40
0.991772
41
0.134393222122056
42
2.82799294793472
0
ELLIPSE
5
166
100
AcDbEntity
8
1
62
256
6
ByLayer
370
25
48
1
60
0
100
AcDbEllipse
10
82.753998
20
1.948006
30
0
11
1.33519448951073
21
-0.199388252504636
31
0
210
0
220
0
230
1
40
0.508746
41
2.50937502414861
42
-3.07306479932114
0
ELLIPSE
5
167
100
AcDbEntity
8
1
62
256
6
ByLayer
370
25
48
1
60
0
100
AcDbEllipse
10
82.753998
20
1.948006
30
0
11
1.33519448949072
21
-0.199388252497053
31
0
210
0
220
0
230
1
40
0.508746
41
0.632217629448068
42
2.50937502414172
0
ELLIPSE
5
168
100
AcDbEntity
8
1
62
256
6
ByLayer
370
25
48
1
60
0
100
AcDbEllipse
10
82.703137
20
1.607416
30
0
11
1.73080767154518
21
-0.258466253229422
31
0
210
0
220
0
230
1
40
0.508746
41
2.50937502413707
42
3.06900429210622
0
ELLIPSE
5
169
100
AcDbEntity
8
1
62
256
6
ByLayer
370
25
48
1
60
0
100
AcDbEllipse
10
82.753998
20
1.948006
30
0
11
1.33519448949064
21
-0.199388252497022
31
0
210
0
220
0
230
1
40
0.508746
41
-3.07306479932225
42
0.632217629447972
0
ELLIPSE
5
16A
100
AcDbEntity
8
1
62
256
6
ByLayer
370
25
48
1
60
0
100
AcDbEllipse
10
82.703137
20
1.607416
30
0
11
1.73080767147564
21
-0.258466253245312
31
0
210
0
220
0
230
1
40
0.508746
41
0.0725883934720608
42
0.632217629469766
0
ELLIPSE
5
16B
100
AcDbEntity
8
1
62
256
6
ByLayer
370
25
48
1
60
0
100
AcDbEllipse
10
73.201192
20
0.165425
30
0
11
-1.61863177668516
21
-15.0547979937532
31
0
210
0
220
0
230
1
40
0.070083
41
1.21482283464421
42
1.30601890608949
0
ELLIPSE
5
16C
100
AcDbEntity
8
1
62
256
6
ByLayer
370
25
48
1
60
0
100
AcDbEllipse
10
398.629047
20
-33.34483
30
0
11
378.178844434754
21
-41.6811591372475
31
0
210
0
220
0
230
1
40
0.038873
41
-2.62070178781779
42
-2.60057153501233
0
ELLIPSE
5
16D
100
AcDbEntity
8
1
62
256
6
ByLayer
370
25
48
1
60
0
100
AcDbEllipse
10
79.063476
20
-0.066409
30
0
11
-1.66391936860177
21
-15.4767059762249
31
0
210
0
220
0
230
1
40
0.070085
41
1.63699199241281
42
1.85697609511198
0
ELLIPSE
5
16E
100
AcDbEntity
8
1
62
256
6
ByLayer
370
25
48
1
60
0
100
AcDbEllipse
10
113.084724
20
3.790526
30
0
11
110.085875302054
21
-12.1614702141916
31
0
210
0
220
0
230
1
40
0.0617
41
-1.86679138525982
42
-1.81991019380639
0
ELLIPSE
5
16F
100
AcDbEntity
8
1
62
256
6
ByLayer
370
25
48
1
60
0
100
AcDbEllipse
10
84.104615
20
-0.065541
30
0
11
-1.64218160749272
21
-15.2745153296891
31
0
210
0
220
0
230
1
40
0.070085
41
1.59612294951082
42
1.84718009708063
0
ELLIPSE
5
170
100
AcDbEntity
8
1
62
256
6
ByLayer
370
25
48
1
60
0
100
AcDbEllipse
10
76.584075
20
-3.467774
30
0
11
1.41216549375613
21
-0.0699031593566031
31
0
210
0
220
0
230
1
40
0.759554
41
1.00073242410918
42
1.50930430681627
0
ELLIPSE
5
171
100
AcDbEntity
8
1
62
256
6
ByLayer
370
25
48
1
60
0
100
AcDbEllipse
10
76.229029
20
-7.83518
30
0
11
4.80136268217982
21
-0.237670746483736
31
0
210
0
220
0
230
1
40
0.759554
41
2.00165575724135
42
2.16430566855878
0
ELLIPSE
5
172
100
AcDbEntity
8
1
62
256
6
ByLayer
370
25
48
1
60
0
100
AcDbEllipse
10
76.397429
20
-3.268286
30
0
11
1.41216549375688
21
-0.069903159354455
31
0
210
0
220
0
230
1
40
0.759554
41
1.82984165511022
42
-3.09307376203374
0
ELLIPSE
5
173
100
AcDbEntity
8
1
62
256
6
ByLayer
370
25
48
1
60
0
100
AcDbEllipse
10
95.62343
20
2E-06
30
0
11
114.718824288728
21
-0.223843826390868
31
0
210
0
220
0
230
1
40
0.128179
41
1.79809947661135
42
1.82664227381599
0
ELLIPSE
5
174
100
AcDbEntity
8
1
62
256
6
ByLayer
370
25
48
1
60
0
100
AcDbEllipse
10
95.623428
20
-1E-06
30
0
11
114.71586843351
21
-12.6782793663506
31
0
210
0
220
0
230
1
40
0.064962
41
-1.81921279496114
42
-1.79066999705864
0
ELLIPSE
5
175
100
AcDbEntity
8
1
62
256
6
ByLayer
370
25
48
1
60
0
100
AcDbEllipse
10
75.552713
20
7.851078
30
0
11
-4.7268453168785
21
-0.0847906585366302
31
0
210
0
220
0
230
1
40
0.477795
41
-0.765706603402621
42
-0.659703840394539
0
ELLIPSE
5
176
100
AcDbEntity
8
1
62
256
6
ByLayer
370
25
48
1
60
0
100
AcDbEllipse
10
398.629094
20
-0.581523
30
0
11
378.182358712182
21
-0.730095959248297
31
0
210
0
220
0
230
1
40
0.076699
41
2.60500398712619
42
2.6251342384862
0
ELLIPSE
5
177
100
AcDbEntity
8
1
62
256
6
ByLayer
370
25
48
1
60
0
100
AcDbEllipse
10
73.201192
20
0.012225
30
0
11
-0.121016143300867
21
-15.0543131805582
31
0
210
0
220
0
230
1
40
0.128093
41
2.89138118140492
42
2.98257725449926
0
ELLIPSE
5
178
100
AcDbEntity
8
1
62
256
6
ByLayer
370
25
48
1
60
0
100
AcDbEllipse
10
76.229029
20
13.939764
30
0
11
4.80475519451692
21
-0.0304106202977884
31
0
210
0
220
0
230
1
40
0.013935
41
2.01636877440412
42
2.14338435824
0
POINT
5
6C
100
AcDbEntity
8
81
62
256
6
ByLayer
370
25
48
1
60
0
100
AcDbPoint
10
92.005459
20
15.885423
30
0
39
0
210
0
220
0
230
1
50
360
0
POINT
5
6E
100
AcDbEntity
8
1
62
256
6
ByLayer
370
25
48
1
60
1
100
AcDbPoint
10
-15.885423
20
-92.005459
30
0
39
0
210
0
220
0
230
1
50
360
0
POINT
5
70
100
AcDbEntity
8
80
62
256
6
ByLayer
370
25
48
1
60
0
100
AcDbPoint
10
0
20
0
30
0
39
0
210
0
220
0
230
1
50
360
0
POINT
5
72
100
AcDbEntity
8
1
62
256
6
ByLayer
370
25
48
1
60
1
100
AcDbPoint
10
92.005459
20
-16.114577
30
0
39
0
210
0
220
0
230
1
50
360
0
SPLINE
5
179
100
AcDbEntity
8
1
62
256
6
ByLayer
370
25
48
1
60
0
100
AcDbSpline
70
4
71
3
72
10
73
6
40
0
40
0
40
0
40
0
40
0.0872433768514102
40
0.553195510297378
40
1
40
1
40
1
40
1
41
1
10
91.3842114019302
20
-7.80923734849975
30
0
41
1
10
91.3928292722171
20
-7.83466563534919
30
0
41
1
10
91.4444781154547
20
-7.99638119963276
30
0
41
1
10
91.5076435721474
20
-8.2948460379074
30
0
41
1
10
91.5061896210484
20
-8.57439146303533
30
0
41
1
10
91.4924178670464
20
-8.71310973513839
30
0
0
SPLINE
5
17A
100
AcDbEntity
8
1
62
256
6
ByLayer
370
25
48
1
60
0
100
AcDbSpline
70
4
71
2
72
6
73
3
40
0
40
0
40
0
40
1
40
1
40
1
41
1
10
91.4924178670506
20
-8.71310973513899
30
0
41
1
10
91.481038712316
20
-8.83274003125101
30
0
41
1
10
91.418282853622
20
-8.95342894789831
30
0
0
SPLINE
5
17B
100
AcDbEntity
8
1
62
256
6
ByLayer
370
25
48
1
60
0
100
AcDbSpline
70
4
71
2
72
6
73
3
40
0
40
0
40
0
40
1
40
1
40
1
41
1
10
90.8661568131045
20
-8.41847236585013
30
0
41
1
10
90.8642869632067
20
-8.43148202980051
30
0
41
1
10
90.8630212928078
20
-8.44456084246831
30
0
0
SPLINE
5
17C
100
AcDbEntity
8
1
62
256
6
ByLayer
370
25
48
1
60
0
100
AcDbSpline
70
4
71
3
72
11
73
7
40
0
40
0
40
0
40
0
40
0.270363930059719
40
0.540212249799689
40
0.806433180977756
40
1
40
1
40
1
40
1
41
1
10
90.8661630522583
20
-8.41847251773794
30
0
41
1
10
90.8703045730125
20
-8.39345679980025
30
0
41
1
10
90.8794019641763
20
-8.34447249978144
30
0
41
1
10
90.898353089282
20
-8.2711679999866
30
0
41
1
10
90.9124569361927
20
-8.21320306265301
30
0
41
1
10
90.9149963166081
20
-8.18738294409576
30
0
41
1
10
90.9152459421094
20
-8.17800830704256
30
0
0
SPLINE
5
17D
100
AcDbEntity
8
1
62
256
6
ByLayer
370
25
48
1
60
0
100
AcDbSpline
70
4
71
2
72
6
73
3
40
0
40
0
40
0
40
1
40
1
40
1
41
1
10
90.9099785634334
20
-8.08837447921681
30
0
41
1
10
90.9062870962439
20
-8.06347993736506
30
0
41
1
10
90.8928034050066
20
-8.06523540566082
30
0
0
SPLINE
5
17E
100
AcDbEntity
8
1
62
256
6
ByLayer
370
25
48
1
60
0
100
AcDbSpline
70
4
71
2
72
6
73
3
40
0
40
0
40
0
40
1
40
1
40
1
41
1
10
90.8494806061357
20
-8.13961080270406
30
0
41
1
10
90.8474370771783
20
-8.14994742174369
30
0
41
1
10
90.8459970547188
20
-8.16032871108064
30
0
0
SPLINE
5
17F
100
AcDbEntity
8
1
62
256
6
ByLayer
370
25
48
1
60
0
100
AcDbSpline
70
4
71
3
72
11
73
7
40
0
40
0
40
0
40
0
40
0.342997276396242
40
0.613686623717355
40
0.922204435180597
40
1
40
1
40
1
40
1
41
1
10
90.8433305122139
20
-8.17558350737528
30
0
41
1
10
90.8331032356244
20
-8.20301444454505
30
0
41
1
10
90.8082501342423
20
-8.24953529124762
30
0
41
1
10
90.7483933555156
20
-8.30928859124067
30
0
41
1
10
90.7013487359639
20
-8.35222836274315
30
0
41
1
10
90.6746043786808
20
-8.37418292715669
30
0
41
1
10
90.6692082250432
20
-8.3785324727393
30
0
0
SPLINE
5
180
100
AcDbEntity
8
1
62
256
6
ByLayer
370
25
48
1
60
0
100
AcDbSpline
70
4
71
3
72
10
73
6
40
0
40
0
40
0
40
0
40
0.090979824388791
40
0.54467454114662
40
1
40
1
40
1
40
1
41
1
10
91.8822604482153
20
-5.63297997777562
30
0
41
1
10
91.8887307854224
20
-5.6460220538923
30
0
41
1
10
91.9259811677496
20
-5.72442507433609
30
0
41
1
10
91.9783965211335
20
-5.87210448753561
30
0
41
1
10
92.000611768995
20
-6.01140605838668
30
0
41
1
10
92.0054585689798
20
-6.08250161197434
30
0
0
SPLINE
5
181
100
AcDbEntity
8
1
62
256
6
ByLayer
370
25
48
1
60
0
100
AcDbSpline
70
4
71
3
72
11
73
7
40
0
40
0
40
0
40
0
40
0.0958763309176247
40
0.471885890485483
40
0.890654317186791
40
1
40
1
40
1
40
1
41
1
10
90.8928034050066
20
-8.06523540566082
30
0
41
1
10
90.8913530589656
20
-8.06541729269586
30
0
41
1
10
90.8841760226034
20
-8.0673842654614
30
0
41
1
10
90.8690411698172
20
-8.08151997118563
30
0
41
1
10
90.8557002609056
20
-8.1118899639008
30
0
41
1
10
90.8504890573166
20
-8.13465846391774
30
0
41
1
10
90.8494866890421
20
-8.13961079907746
30
0
0
SPLINE
5
182
100
AcDbEntity
8
1
62
256
6
ByLayer
370
25
48
1
60
0
100
AcDbSpline
70
4
71
3
72
12
73
8
40
0
40
0
40
0
40
0
40
0.123779220721149
40
0.249702833044498
40
0.500646232758323
40
0.780403258642004
40
1
40
1
40
1
40
1
41
1
10
90.6668761238488
20
-8.90187556502068
30
0
41
1
10
90.6708943590129
20
-8.88885704098898
30
0
41
1
10
90.6821080292542
20
-8.85994917086026
30
0
41
1
10
90.7236258947192
20
-8.78387884054364
30
0
41
1
10
90.7775798982545
20
-8.69202213687127
30
0
41
1
10
90.833361741943
20
-8.57937654238025
30
0
41
1
10
90.8538929508313
20
-8.49972325934374
30
0
41
1
10
90.8606097613861
20
-8.46378015114528
30
0
0
SPLINE
5
183
100
AcDbEntity
8
1
62
256
6
ByLayer
370
25
48
1
60
0
100
AcDbSpline
70
4
71
3
72
12
73
8
40
0
40
0
40
0
40
0
40
0.048309367484756
40
0.389524091386393
40
0.778786392242765
40
0.973461805384783
40
1
40
1
40
1
40
1
41
1
10
90.7415678287704
20
-8.85970536905061
30
0
41
1
10
90.7403411548759
20
-8.8622538132964
30
0
41
1
10
90.7301523950217
20
-8.88273390906845
30
0
41
1
10
90.7031178381482
20
-8.92231029287725
30
0
41
1
10
90.6650344859046
20
-8.96755524755604
30
0
41
1
10
90.6414869899983
20
-8.99582823303944
30
0
41
1
10
90.6383700847021
20
-8.99693406461549
30
0
41
1
10
90.6380390831708
20
-8.99699530145764
30
0
0
SPLINE
5
184
100
AcDbEntity
8
1
62
256
6
ByLayer
370
25
48
1
60
0
100
AcDbSpline
70
4
71
2
72
6
73
3
40
0
40
0
40
0
40
1
40
1
40
1
41
1
10
90.7410570639364
20
-8.86078463693075
30
0
41
1
10
90.8345429587431
20
-8.66302752723432
30
0
41
1
10
90.8599324581127
20
-8.47040770884161
30
0
0
SPLINE
5
185
100
AcDbEntity
8
1
62
256
6
ByLayer
370
25
48
1
60
0
100
AcDbSpline
70
4
71
2
72
6
73
3
40
0
40
0
40
0
40
1
40
1
40
1
41
1
10
90.8599324581127
20
-8.47040770884161
30
0
41
1
10
90.8612435552329
20
-8.46052265588134
30
0
41
1
10
90.8623777457567
20
-8.45064843394784
30
0
0
SPLINE
5
186
100
AcDbEntity
8
1
62
256
6
ByLayer
370
25
48
1
60
0
100
AcDbSpline
70
4
71
3
72
12
73
8
40
0
40
0
40
0
40
0
40
0.181376711566557
40
0.446177145676029
40
0.710981899596504
40
0.978504545821235
40
1
40
1
40
1
40
1
41
1
10
91.418282853622
20
-8.95342894789831
30
0
41
1
10
91.3962019494321
20
-8.99543399912428
30
0
41
1
10
91.3312332074506
20
-9.09761014736709
30
0
41
1
10
91.1836893118138
20
-9.25760876878916
30
0
41
1
10
90.9677871709984
20
-9.42714986891339
30
0
41
1
10
90.7837047956024
20
-9.53432189220546
30
0
41
1
10
90.681347789518
20
-9.58690410776041
30
0
41
1
10
90.6736913339321
20
-9.59079724693174
30
0
0
SPLINE
5
187
100
AcDbEntity
8
1
62
256
6
ByLayer
370
25
48
1
60
0
100
AcDbSpline
70
4
71
3
72
10
73
6
40
0
40
0
40
0
40
0
40
0.384911347732376
40
0.857127809733426
40
1
40
1
40
1
40
1
41
1
10
91.4166649705923
20
-8.95949428901766
30
0
41
1
10
91.4488853828284
20
-8.78109413469275
30
0
41
1
10
91.5252706972705
20
-8.37498740412139
30
0
41
1
10
91.6279679821308
20
-7.87635503215616
30
0
41
1
10
91.6952232359108
20
-7.56100389052725
30
0
41
1
10
91.711110422382
20
-7.48723364269709
30
0
0
SPLINE
5
188
100
AcDbEntity
8
1
62
256
6
ByLayer
370
25
48
1
60
0
100
AcDbSpline
70
4
71
1
72
4
73
2
40
0
40
0
40
1
40
1
41
1
10
92.0054585689201
20
-6.08250161198729
30
0
41
1
10
91.9789851569513
20
-6.25683954700744
30
0
0
SPLINE
5
189
100
AcDbEntity
8
1
62
256
6
ByLayer
370
25
48
1
60
0
100
AcDbSpline
70
4
71
3
72
17
73
13
40
0
40
0
40
0
40
0
40
0.100567234530988
40
0.206761207640201
40
0.312857168959442
40
0.418958532200432
40
0.526171978117161
40
0.633384498820098
40
0.741233251577765
40
0.849075627708318
40
0.924538182043306
40
1
40
1
40
1
40
1
41
1
10
2.02250000000444
20
31.4699999999993
30
0
41
1
10
2.02311079129539
20
31.469736797316
30
0
41
1
10
2.06595912319244
20
31.4630417257556
30
0
41
1
10
2.26101370259483
20
31.4328247452913
30
0
41
1
10
2.59303545712709
20
31.3839856307914
30
0
41
1
10
3.0457968794979
20
31.3230771920447
30
0
41
1
10
3.61271088111681
20
31.2560265903734
30
0
41
1
10
4.27663563605817
20
31.1902562363738
30
0
41
1
10
5.02151603692909
20
31.1337889714832
30
0
41
1
10
5.74381372477321
20
31.0965366390529
30
0
41
1
10
6.40980748990459
20
31.0776768192207
30
0
41
1
10
6.80219005489565
20
31.0739505921536
30
0
41
1
10
6.99999999999998
20
31.0738699512951
30
0
0
SPLINE
5
18A
100
AcDbEntity
8
1
62
256
6
ByLayer
370
25
48
1
60
0
100
AcDbSpline
70
4
71
1
72
4
73
2
40
0
40
0
40
1
40
1
41
1
10
7.29453241448415
20
31.0752657767102
30
0
41
1
10
6.83293094577969
20
31.0743190724894
30
0
0
SPLINE
5
18B
100
AcDbEntity
8
1
62
256
6
ByLayer
370
25
48
1
60
0
100
AcDbSpline
70
4
71
3
72
17
73
13
40
0
40
0
40
0
40
0
40
0.106465852628139
40
0.2129355644195
40
0.319359916774784
40
0.425789692907009
40
0.533060120654352
40
0.640329225180955
40
0.748176352749397
40
0.856017246489768
40
0.962957051859967
40
1
40
1
40
1
40
1
41
1
10
6.99999999999998
20
31.0738699512951
30
0
41
1
10
7.28049228685349
20
31.0741834041736
30
0
41
1
10
7.83238986332477
20
31.0815440029866
30
0
41
1
10
8.64403171056441
20
31.1139012389086
30
0
41
1
10
9.40591664599543
20
31.1642096465029
30
0
41
1
10
10.103697755321
20
31.2261503558017
30
0
41
1
10
10.7140966474066
20
31.2934382204896
30
0
41
1
10
11.2244278734514
20
31.3586608531463
30
0
41
1
10
11.6134303000643
20
31.4138499495859
30
0
41
1
10
11.8735975142579
20
31.4536334632404
30
0
41
1
10
11.9655983672219
20
31.4679867994973
30
0
41
1
10
11.9772566389739
20
31.4699211318015
30
0
41
1
10
11.9774999999895
20
31.4699999999984
30
0
0
SPLINE
5
18C
100
AcDbEntity
8
1
62
256
6
ByLayer
370
25
48
1
60
0
100
AcDbSpline
70
4
71
3
72
36
73
32
40
0
40
0
40
0
40
0
40
0.0320149812905009
40
0.0665339007888511
40
0.101162711108355
40
0.135686258145456
40
0.170571099267015
40
0.205562569109441
40
0.240450871267522
40
0.2763764875013
40
0.312414653761172
40
0.348337218671083
40
0.384391743046675
40
0.42056523527146
40
0.456614403348267
40
0.491705301599468
40
0.526911854024496
40
0.562003356813574
40
0.596550799626554
40
0.631206651190374
40
0.6657588551463
40
0.700944343746083
40
0.736237622115546
40
0.771425205174427
40
0.807514774248034
40
0.843718927539906
40
0.879803827415411
40
0.915670396341381
40
0.951656407141734
40
0.987518340198751
40
1
40
1
40
1
40
1
41
1
10
12.9675
20
8.0175
30
0
41
1
10
12.6965971292941
20
8.01749601090301
30
0
41
1
10
12.1372291043383
20
7.98935019675488
30
0
41
1
10
11.2934789444278
20
7.856276417049
30
0
41
1
10
10.4506646314659
20
7.62801720916704
30
0
41
1
10
9.63540191068211
20
7.31015898243611
30
0
41
1
10
8.85940813747624
20
6.90287600375944
30
0
41
1
10
8.13057229240518
20
6.41324754933092
30
0
41
1
10
7.45271437586087
20
5.84267479670807
30
0
41
1
10
6.83767325360298
20
5.19279014242021
30
0
41
1
10
6.29311365177958
20
4.47132186753735
30
0
41
1
10
5.83083767831424
20
3.69175035497052
30
0
41
1
10
5.46052039143947
20
2.86137667551426
30
0
41
1
10
5.18459312574124
20
1.99232005102091
30
0
41
1
10
5.00895447869684
20
1.10424639410952
30
0
41
1
10
4.93717660107859
20
0.209208832511327
30
0
41
1
10
4.96330445985069
20
-0.680253560493449
30
0
41
1
10
5.0857237535674
20
-1.55662606845241
30
0
41
1
10
5.30434650143999
20
-2.40798387593297
30
0
41
1
10
5.61090388653951
20
-3.22523810065557
30
0
41
1
10
6.0050643374505
20
-4.00840850496736
30
0
41
1
10
6.48632456416546
20
-4.74598410771674
30
0
41
1
10
7.04771500650744
20
-5.43007857126703
30
0
41
1
10
7.68542292559436
20
-6.05417824413213
30
0
41
1
10
8.39645403090831
20
-6.60664216518748
30
0
41
1
10
9.1719501547857
20
-7.08071229941932
30
0
41
1
10
9.99537450281587
20
-7.46514354606765
30
0
41
1
10
10.8577949474602
20
-7.75169035501531
30
0
41
1
10
11.7461170669641
20
-7.94037363191484
30
0
41
1
10
12.455117927232
20
-8.00955291870038
30
0
41
1
10
12.8622188811543
20
-8.01751686137219
30
0
41
1
10
12.9675
20
-8.0175
30
0
0
SPLINE
5
18D
100
AcDbEntity
8
1
62
256
6
ByLayer
370
25
48
1
60
0
100
AcDbSpline
70
4
71
3
72
17
73
13
40
0
40
0
40
0
40
0
40
0.0695687863803536
40
0.170565467608792
40
0.271592652324983
40
0.375056506318536
40
0.478576774931722
40
0.593413391949224
40
0.708332282344391
40
0.805439549613957
40
0.902795757181035
40
1
40
1
40
1
40
1
41
1
10
12.9675
20
-19.85
30
0
41
1
10
12.7243624264833
20
-19.8501573196273
30
0
41
1
10
12.1335605796904
20
-19.8765416691296
30
0
41
1
10
11.2034857340498
20
-20.0245404007684
30
0
41
1
10
10.2076227859587
20
-20.316128620036
30
0
41
1
10
9.27857431592667
20
-20.7264417306755
30
0
41
1
10
8.40267284861223
20
-21.2499191353469
30
0
41
1
10
7.61330646036948
20
-21.8722019637571
30
0
41
1
10
6.96001512666511
20
-22.5339033028181
30
0
41
1
10
6.44582670998125
20
-23.1834152932736
30
0
41
1
10
6.04423474438014
20
-23.804214561692
30
0
41
1
10
5.82551374969494
20
-24.2149345929455
30
0
41
1
10
5.7290379845841
20
-24.4200409500066
30
0
0
SPLINE
5
18E
100
AcDbEntity
8
1
62
256
6
ByLayer
370
25
48
1
60
0
100
AcDbSpline
70
4
71
3
72
12
73
8
40
0
40
0
40
0
40
0
40
0.319774123168533
40
0.637018389788319
40
0.800365263899964
40
0.937065104077836
40
1
40
1
40
1
40
1
41
1
10
19.562519871019
20
8.0175
30
0
41
1
10
19.5377945219928
20
7.95785512734307
30
0
41
1
10
19.4776965569779
20
7.84693261029072
30
0
41
1
10
19.3811954841896
20
7.71736455436131
30
0
41
1
10
19.2837956412604
20
7.6405735643222
30
0
41
1
10
19.2147170636813
20
7.61372737275264
30
0
41
1
10
19.1752161583345
20
7.61035286826874
30
0
41
1
10
19.1625
20
7.61023159962955
30
0
0
SPLINE
5
18F
100
AcDbEntity
8
1
62
256
6
ByLayer
370
25
48
1
60
0
100
AcDbSpline
70
4
71
3
72
11
73
7
40
0
40
0
40
0
40
0
40
0.140029982875546
40
0.314873415710932
40
0.632546614633402
40
1
40
1
40
1
40
1
41
1
10
16.8375
20
7.61023159962955
30
0
41
1
10
16.8085524530513
20
7.61154835762907
30
0
41
1
10
16.7471599046477
20
7.62291047489783
30
0
41
1
10
16.639291651935
20
7.69454869542942
30
0
41
1
10
16.5329559880204
20
7.83104592618533
30
0
41
1
10
16.4659012763548
20
7.94869946454573
30
0
41
1
10
16.4374801289847
20
8.01750000000249
30
0
0
SPLINE
5
190
100
AcDbEntity
8
1
62
256
6
ByLayer
370
25
48
1
60
0
100
AcDbSpline
70
4
71
3
72
11
73
7
40
0
40
0
40
0
40
0
40
0.140029982875522
40
0.314873415710909
40
0.632546614633395
40
1
40
1
40
1
40
1
41
1
10
19.1625
20
-7.61023159962955
30
0
41
1
10
19.1914475469487
20
-7.61154835762907
30
0
41
1
10
19.2528400953523
20
-7.62291047489783
30
0
41
1
10
19.360708348065
20
-7.69454869542943
30
0
41
1
10
19.4670440119797
20
-7.83104592618533
30
0
41
1
10
19.5340987236453
20
-7.94869946454573
30
0
41
1
10
19.5625198710153
20
-8.01750000000249
30
0
0
SPLINE
5
191
100
AcDbEntity
8
1
62
256
6
ByLayer
370
25
48
1
60
0
100
AcDbSpline
70
4
71
1
72
4
73
2
40
0
40
0
40
1
40
1
41
1
10
19.8967571619195
20
-19.85
30
0
41
1
10
19.9125
20
-20.0655955555772
30
0
0
SPLINE
5
192
100
AcDbEntity
8
1
62
256
6
ByLayer
370
25
48
1
60
0
100
AcDbSpline
70
4
71
1
72
4
73
2
40
0
40
0
40
1
40
1
41
1
10
16.0875
20
-20.0655955555772
30
0
41
1
10
16.1032428380805
20
-19.85
30
0
0
SPLINE
5
193
100
AcDbEntity
8
1
62
256
6
ByLayer
370
25
48
1
60
0
100
AcDbSpline
70
4
71
3
72
12
73
8
40
0
40
0
40
0
40
0
40
0.319774123168528
40
0.637018389788319
40
0.800365263899948
40
0.937065104077815
40
1
40
1
40
1
40
1
41
1
10
16.437480128981
20
-8.0175
30
0
41
1
10
16.4622054780072
20
-7.95785512734307
30
0
41
1
10
16.5223034430221
20
-7.84693261029072
30
0
41
1
10
16.6188045158104
20
-7.71736455436133
30
0
41
1
10
16.7162043587396
20
-7.64057356432219
30
0
41
1
10
16.7852829363187
20
-7.61372737275264
30
0
41
1
10
16.8247838416655
20
-7.61035286826874
30
0
41
1
10
16.8375
20
-7.61023159962956
30
0
0
SPLINE
5
194
100
AcDbEntity
8
SK1
62
256
6
ByLayer
370
25
48
1
60
0
100
AcDbSpline
70
4
71
1
72
4
73
2
40
0
40
0
40
1
40
1
41
1
10
-30.75
20
-8.88646658436391
30
0
41
1
10
-28.4469019657058
20
-9.15000000000001
30
0
0
SPLINE
5
195
100
AcDbEntity
8
SK1
62
256
6
ByLayer
370
25
48
1
60
0
100
AcDbSpline
70
4
71
2
72
6
73
3
40
0
40
0
40
0
40
1
40
1
40
1
41
1
10
-27.2
20
-9.30491805454911
30
0
41
1
10
-27.8235173897148
20
-9.22799415786018
30
0
41
1
10
-28.4469019657058
20
-9.15000000000001
30
0
0
SPLINE
5
196
100
AcDbEntity
8
SK1
62
256
6
ByLayer
370
25
48
1
60
0
100
AcDbSpline
70
4
71
3
72
10
73
6
40
0
40
0
40
0
40
0
40
0.412116333897964
40
0.828366374219524
40
1
40
1
40
1
40
1
41
1
10
-26.6912014142926
20
-9.15000000000001
30
0
41
1
10
-26.7496727551487
20
-9.19769874812193
30
0
41
1
10
-26.8758336927565
20
-9.27095321367631
30
0
41
1
10
-27.0601418240514
20
-9.31432225853432
30
0
41
1
10
-27.168047259739
20
-9.30875713324589
30
0
41
1
10
-27.2
20
-9.30491805454911
30
0
0
SPLINE
5
197
100
AcDbEntity
8
SK1
62
256
6
ByLayer
370
25
48
1
60
0
100
AcDbSpline
70
4
71
3
72
13
73
9
40
0
40
0
40
0
40
0
40
0.0144633528242098
40
0.223903088585519
40
0.433551097235054
40
0.646939161508603
40
0.859991022612547
40
1
40
1
40
1
40
1
41
1
10
-25.8
20
-7.14766794054519
30
0
41
1
10
-25.8000034342857
20
-7.15864819971621
30
0
41
1
10
-25.8011164234889
20
-7.32848428364321
30
0
41
1
10
-25.8374317098183
20
-7.65571416559305
30
0
41
1
10
-25.9701764862986
20
-8.11308064468522
30
0
41
1
10
-26.1732972130469
20
-8.54434944301555
30
0
41
1
10
-26.4154438050299
20
-8.8971369414539
30
0
41
1
10
-26.6085941119111
20
-9.08138521151256
30
0
41
1
10
-26.6912014142926
20
-9.15000000000001
30
0
0
SPLINE
5
198
100
AcDbEntity
8
SK1
62
256
6
ByLayer
370
25
48
1
60
0
100
AcDbSpline
70
4
71
3
72
12
73
8
40
0
40
0
40
0
40
0
40
0.146971680623776
40
0.298463575993087
40
0.528545204461129
40
0.765334405862514
40
1
40
1
40
1
40
1
41
1
10
-26.6912014142873
20
9.15
30
0
41
1
10
-26.6042831110327
20
9.07815559263555
30
0
41
1
10
-26.4417001304679
20
8.92166648129455
30
0
41
1
10
-26.2094074058096
20
8.59854565630122
30
0
41
1
10
-25.99622969855
20
8.18685760587956
30
0
41
1
10
-25.8382701456519
20
7.68113647810667
30
0
41
1
10
-25.8018871373019
20
7.32788174670405
30
0
41
1
10
-25.8
20
7.14766794054513
30
0
0
SPLINE
5
199
100
AcDbEntity
8
SK1
62
256
6
ByLayer
370
25
48
1
60
0
100
AcDbSpline
70
4
71
3
72
10
73
6
40
0
40
0
40
0
40
0
40
0.353552368608776
40
0.706367755368196
40
1
40
1
40
1
40
1
41
1
10
-27.2
20
9.30491805454911
30
0
41
1
10
-27.1324938588774
20
9.31212472748158
30
0
41
1
10
-27.0030037311812
20
9.30861156420338
30
0
41
1
10
-26.8287347477126
20
9.24415210484047
30
0
41
1
10
-26.7323940699504
20
9.18296271767465
30
0
41
1
10
-26.6912014142873
20
9.15
30
0
0
SPLINE
5
19A
100
AcDbEntity
8
SK1
62
256
6
ByLayer
370
25
48
1
60
0
100
AcDbSpline
70
4
71
2
72
6
73
3
40
0
40
0
40
0
40
1
40
1
40
1
41
1
10
-28.4469019657059
20
9.15
30
0
41
1
10
-27.8235173897148
20
9.22799415786017
30
0
41
1
10
-27.2
20
9.30491805454911
30
0
0
SPLINE
5
19B
100
AcDbEntity
8
SK1
62
256
6
ByLayer
370
25
48
1
60
0
100
AcDbSpline
70
4
71
1
72
4
73
2
40
0
40
0
40
1
40
1
41
1
10
-28.4469019657059
20
9.15
30
0
41
1
10
-30.75
20
8.88646658436392
30
0
0
SPLINE
5
19C
100
AcDbEntity
8
SK1
62
256
6
ByLayer
370
25
48
1
60
0
100
AcDbSpline
70
2053
71
3
72
45
73
41
40
0
40
0
40
0
40
0
40
0.0270382928804462
40
0.0540759109494563
40
0.0811255732317375
40
0.108173228592677
40
0.134973784163225
40
0.161773830388544
40
0.188273025857765
40
0.21477330365694
40
0.241351972825022
40
0.267931283974955
40
0.294734013514548
40
0.32153614552495
40
0.348343397502423
40
0.375150184367995
40
0.401813506361231
40
0.4284774109763
40
0.455151540436145
40
0.481826126602377
40
0.508644522662411
40
0.535462066281678
40
0.562250786349718
40
0.589038516504446
40
0.615594424506267
40
0.6421511536054
40
0.668662758960948
40
0.695176213127564
40
0.722011189347355
40
0.748846487577306
40
0.775977652687744
40
0.803106628568128
40
0.830042268130042
40
0.856975841437987
40
0.883413855707897
40
0.909852545857172
40
0.936119572763106
40
0.962388902008174
40
0.981194261628085
40
1
40
1
40
1
40
1
41
1
10
-6.41444892448236
20
2.71579220847062
30
0
41
1
10
-6.56909563341852
20
2.86271957660075
30
0
41
1
10
-6.897892401344
20
3.12624782078948
30
0
41
1
10
-7.45502320871592
20
3.43708464427628
30
0
41
1
10
-8.05695238874914
20
3.6473108255645
30
0
41
1
10
-8.68506779021018
20
3.75514474569979
30
0
41
1
10
-9.32135076149049
20
3.7533108789901
30
0
41
1
10
-9.94506976242179
20
3.6475766148065
30
0
41
1
10
-10.5394490216083
20
3.43775612886923
30
0
41
1
10
-11.0900762194068
20
3.13499262913259
30
0
41
1
10
-11.5816119624119
20
2.74299791995231
30
0
41
1
10
-12.0041041747229
20
2.27449058105887
30
0
41
1
10
-12.3415273740379
20
1.73926059028442
30
0
41
1
10
-12.5871526321715
20
1.15398646265062
30
0
41
1
10
-12.728911863827
20
0.534953415668094
30
0
41
1
10
-12.7668531890566
20
-0.0980481814032606
30
0
41
1
10
-12.6960880991
20
-0.727012803998012
30
0
41
1
10
-12.5237001889094
20
-1.33470108268027
30
0
41
1
10
-12.2503366275047
20
-1.90392781373536
30
0
41
1
10
-11.8869197927945
20
-2.42161625076647
30
0
41
1
10
-11.4395434329855
20
-2.87047174227911
30
0
41
1
10
-10.9234821938521
20
-3.24031064881496
30
0
41
1
10
-10.3515946508989
20
-3.51623764204898
30
0
41
1
10
-9.74399575580429
20
-3.69386444322369
30
0
41
1
10
-9.11719302401868
20
-3.76491341587129
30
0
41
1
10
-8.49012413497102
20
-3.73310049517024
30
0
41
1
10
-7.87895950713975
20
-3.59591184860342
30
0
41
1
10
-7.29714049847426
20
-3.36104809933987
30
0
41
1
10
-6.76201301355253
20
-3.03006691341859
30
0
41
1
10
-6.28479569196796
20
-2.61286372618519
30
0
41
1
10
-5.88425613912622
20
-2.11779055257303
30
0
41
1
10
-5.57033253798373
20
-1.56153304536219
30
0
41
1
10
-5.35710688854846
20
-0.959700632426036
30
0
41
1
10
-5.24686782260192
20
-0.335261201020401
30
0
41
1
10
-5.24498050207202
20
0.295200291398231
30
0
41
1
10
-5.34449731727427
20
0.912074846565217
30
0
41
1
10
-5.5457281659377
20
1.50114884367704
30
0
41
1
10
-5.81026612939984
20
1.99602198243705
30
0
41
1
10
-6.10716940203809
20
2.39951991873261
30
0
41
1
10
-6.30743803606661
20
2.61412287257365
30
0
41
1
10
-6.41444892448236
20
2.71579220847062
30
0
0
SPLINE
5
19D
100
AcDbEntity
8
SK1
62
256
6
ByLayer
370
25
48
1
60
0
100
AcDbSpline
70
4
71
1
72
4
73
2
40
0
40
0
40
1
40
1
41
1
10
-31.8620954509573
20
-9.14999999999984
30
0
41
1
10
-31.9
20
-8.66111674832968
30
0
0
SPLINE
5
19E
100
AcDbEntity
8
SK1
62
256
6
ByLayer
370
25
48
1
60
0
100
AcDbSpline
70
4
71
1
72
4
73
2
40
0
40
0
40
1
40
1
41
1
10
-30.7599251403303
20
-8.90484115701832
30
0
41
1
10
-30.8913561297336
20
-9.14999999999983
30
0
0
SPLINE
5
19F
100
AcDbEntity
8
SK1
62
256
6
ByLayer
370
25
48
1
60
0
100
AcDbSpline
70
4
71
2
72
6
73
3
40
0
40
0
40
0
40
1
40
1
40
1
41
1
10
-31.9
20
8.66111674832993
30
0
41
1
10
-31.8999869372257
20
8.90198721546484
30
0
41
1
10
-31.8620954509573
20
9.15000000000015
30
0
0
SPLINE
5
1A0
100
AcDbEntity
8
SK1
62
256
6
ByLayer
370
25
48
1
60
0
100
AcDbSpline
70
4
71
1
72
4
73
2
40
0
40
0
40
1
40
1
41
1
10
-30.8913561297336
20
9.15000000000015
30
0
41
1
10
-30.7599251403303
20
8.90484115701856
30
0
0
SPLINE
5
1A1
100
AcDbEntity
8
SK1
62
256
6
ByLayer
370
25
48
1
60
0
100
AcDbSpline
70
4
71
3
72
16
73
12
40
0
40
0
40
0
40
0
40
0.168104207815758
40
0.31704567048211
40
0.466935307453542
40
0.546529436497252
40
0.611371477014677
40
0.681350777363754
40
0.750898934048901
40
0.877870392067025
40
1
40
1
40
1
40
1
41
1
10
-30.8913561297336
20
-9.14999999999983
30
0
41
1
10
-30.9376914092004
20
-9.24018179581886
30
0
41
1
10
-31.0332501264302
20
-9.39871119564705
30
0
41
1
10
-31.1926586911631
20
-9.60877580835663
30
0
41
1
10
-31.345724230336
20
-9.74039111869385
30
0
41
1
10
-31.4811529282425
20
-9.78426318245805
30
0
41
1
10
-31.5823234395407
20
-9.77017205146463
30
0
41
1
10
-31.6692123259224
20
-9.70791609275373
30
0
41
1
10
-31.7564217845767
20
-9.57998629033343
30
0
41
1
10
-31.8210599655393
20
-9.38693264672523
30
0
41
1
10
-31.852747396897
20
-9.23068067746225
30
0
41
1
10
-31.8620954509573
20
-9.14999999999984
30
0
0
SPLINE
5
1A2
100
AcDbEntity
8
SK1
62
256
6
ByLayer
370
25
48
1
60
0
100
AcDbSpline
70
4
71
3
72
16
73
12
40
0
40
0
40
0
40
0
40
0.0894434939518089
40
0.195554770195602
40
0.302644008522489
40
0.369356431416873
40
0.388911150749401
40
0.464318761615009
40
0.560492629422031
40
0.729700783755999
40
1
40
1
40
1
40
1
41
1
10
-31.8620954509573
20
9.15000000000015
30
0
41
1
10
-31.8546234849908
20
9.20830551227164
30
0
41
1
10
-31.8320305532549
20
9.33262869406541
30
0
41
1
10
-31.781017582115
20
9.51918088819691
30
0
41
1
10
-31.7029705338142
20
9.67201346590898
30
0
41
1
10
-31.6252404600667
20
9.74126215584561
30
0
41
1
10
-31.5539627506273
20
9.77558102333324
30
0
41
1
10
-31.4628994380466
20
9.78454861787258
30
0
41
1
10
-31.3086442704556
20
9.7181238655478
30
0
41
1
10
-31.1031982711705
20
9.50895079933211
30
0
41
1
10
-30.9638175469528
20
9.3019422920108
30
0
41
1
10
-30.8913561297336
20
9.15000000000015
30
0
0
SPLINE
5
1A3
100
AcDbEntity
8
1
62
256
6
ByLayer
370
25
48
1
60
0
100
AcDbSpline
70
4
71
2
72
6
73
3
40
0
40
0
40
0
40
1
40
1
40
1
41
1
10
16.0875
20
-21.0560949889959
30
0
41
1
10
15.3768824417158
20
-22.7468453797526
30
0
41
1
10
14.6253876765866
20
-24.4200409500066
30
0
0
SPLINE
5
1A4
100
AcDbEntity
8
1
62
256
6
ByLayer
370
25
48
1
60
0
100
AcDbSpline
70
4
71
2
72
6
73
3
40
0
40
0
40
0
40
1
40
1
40
1
41
1
10
21.3746123234134
20
-24.4200409500066
30
0
41
1
10
20.6231175582842
20
-22.7468453797526
30
0
41
1
10
19.9125
20
-21.0560949889959
30
0
0
SPLINE
5
1A5
100
AcDbEntity
8
1
62
256
6
ByLayer
370
25
48
1
60
0
100
AcDbSpline
70
4
71
3
72
19
73
15
40
0
40
0
40
0
40
0
40
0.0615116219865028
40
0.159068155019746
40
0.256608781697611
40
0.353001637483212
40
0.449359700080727
40
0.540814370958156
40
0.632245102835318
40
0.717924608033062
40
0.803611881332351
40
0.887684929775818
40
0.971783868443239
40
1
40
1
40
1
40
1
41
1
10
73.7959147281931
20
-3.88381631587214
30
0
41
1
10
73.8051644108849
20
-3.81085279613324
30
0
41
1
10
73.8391654532101
20
-3.62480725104339
30
0
41
1
10
73.9373198339185
20
-3.33229591119991
30
0
41
1
10
74.1045790304222
20
-3.02303642664943
30
0
41
1
10
74.3247679499748
20
-2.74836160570801
30
0
41
1
10
74.5854512110706
20
-2.52039866986531
30
0
41
1
10
74.8796641578544
20
-2.34703712716752
30
0
41
1
10
75.1887611817074
20
-2.23234599711853
30
0
41
1
10
75.5073486053828
20
-2.1769816733558
30
0
41
1
10
75.8224810090233
20
-2.17561837502323
30
0
41
1
10
76.1318785162175
20
-2.22741322855225
30
0
41
1
10
76.3626747184091
20
-2.30433806205669
30
0
41
1
10
76.4888717585047
20
-2.36131014309943
30
0
41
1
10
76.5202778590876
20
-2.37647164109088
30
0
0
SPLINE
5
1A6
100
AcDbEntity
8
1
62
256
6
ByLayer
370
25
48
1
60
0
100
AcDbSpline
70
4
71
3
72
15
73
11
40
0
40
0
40
0
40
0
40
0.210505027984064
40
0.31601015995334
40
0.421490023867122
40
0.529121528309296
40
0.636756295255594
40
0.74576066499455
40
0.854761063775412
40
1
40
1
40
1
40
1
41
1
10
77.7993974894802
20
8.03394551738492
30
0
41
1
10
77.2157586376487
20
8.02779543606739
30
0
41
1
10
76.3418831942112
20
8.03809447327335
30
0
41
1
10
75.1782538885068
20
8.07588397168824
30
0
41
1
10
74.3049277758398
20
8.14694571211257
30
0
41
1
10
73.4360303878837
20
8.26241635016856
30
0
41
1
10
72.5699503088388
20
8.41798529230614
30
0
41
1
10
71.7156421893607
20
8.61181580425627
30
0
41
1
10
70.7833139110921
20
8.86909881968327
30
0
41
1
10
70.1528597764154
20
9.08019775631256
30
0
41
1
10
69.7993974894807
20
9.21116101661454
30
0
0
SPLINE
5
1A7
100
AcDbEntity
8
1
62
256
6
ByLayer
370
25
48
1
60
0
100
AcDbSpline
70
4
71
1
72
4
73
2
40
0
40
0
40
1
40
1
41
1
10
76.7238523758433
20
-2.40148033586459
30
0
41
1
10
77.7993974894802
20
-2.13703217306425
30
0
0
SPLINE
5
1A8
100
AcDbEntity
8
1
62
256
6
ByLayer
370
25
48
1
60
0
100
AcDbSpline
70
4
71
2
72
6
73
3
40
0
40
0
40
0
40
1
40
1
40
1
41
1
10
76.5202778590876
20
-2.37647164109088
30
0
41
1
10
76.6228641558399
20
-2.38316103201111
30
0
41
1
10
76.7238523758433
20
-2.40148033586459
30
0
0
SPLINE
5
1A9
100
AcDbEntity
8
1
62
256
6
ByLayer
370
25
48
1
60
0
100
AcDbSpline
70
4
71
3
72
27
73
23
40
0
40
0
40
0
40
0
40
0.0609213314103717
40
0.124369571099015
40
0.187742717448172
40
0.238773889929736
40
0.289756824673394
40
0.341173160709929
40
0.392546579066364
40
0.43666926699069
40
0.48078796190261
40
0.521712852158234
40
0.562647746821685
40
0.604348918112351
40
0.646067290634743
40
0.691173673112596
40
0.736303773954448
40
0.787343572522556
40
0.838414150027648
40
0.898436658377077
40
0.958496938973083
40
1
40
1
40
1
40
1
41
1
10
85.5826126838882
20
3.99182099464432
30
0
41
1
10
85.5984893406171
20
4.16280178178393
30
0
41
1
10
85.6070514130031
20
4.50883170664924
30
0
41
1
10
85.5507061220925
20
5.02668672437289
30
0
41
1
10
85.4183236641248
20
5.49913022737504
30
0
41
1
10
85.2202975583124
20
5.90920630801527
30
0
41
1
10
84.9735298914857
20
6.25557190232765
30
0
41
1
10
84.6605452719905
20
6.55278049865055
30
0
41
1
10
84.3077515845715
20
6.77900451836912
30
0
41
1
10
83.9335698472932
20
6.92941715048839
30
0
41
1
10
83.5664518622511
20
7.01190081211131
30
0
41
1
10
83.1996635335099
20
7.03419254084636
30
0
41
1
10
82.8419487428041
20
7.00427377907829
30
0
41
1
10
82.4936321645194
20
6.92171424634314
30
0
41
1
10
82.1536142699721
20
6.7878162174872
30
0
41
1
10
81.8334483136516
20
6.60194284855656
30
0
41
1
10
81.5273838933537
20
6.35804647702243
30
0
41
1
10
81.2537239745095
20
6.0603195118227
30
0
41
1
10
81.005597960171
20
5.69321774209738
30
0
41
1
10
80.8050446821814
20
5.26961233525853
30
0
41
1
10
80.6744464451435
20
4.84391357368819
30
0
41
1
10
80.6213188693834
20
4.5681001761509
30
0
41
1
10
80.6045853403918
20
4.45367588850956
30
0
0
SPLINE
5
1AA
100
AcDbEntity
8
1
62
256
6
ByLayer
370
25
48
1
60
0
100
AcDbSpline
70
4
71
1
72
4
73
2
40
0
40
0
40
1
40
1
41
1
10
82.0963398988462
20
7.84612291759696
30
0
41
1
10
77.7993974894802
20
8.03394551738507
30
0
0
SPLINE
5
1AB
100
AcDbEntity
8
1
62
256
6
ByLayer
370
25
48
1
60
0
100
AcDbSpline
70
4
71
3
72
12
73
8
40
0
40
0
40
0
40
0
40
0.21818090498834
40
0.437477476546812
40
0.66041190756329
40
0.884675427609452
40
1
40
1
40
1
40
1
41
1
10
85.7923942460729
20
7.54710689548371
30
0
41
1
10
85.5224250410167
20
7.52980096237591
30
0
41
1
10
84.980847813284
20
7.51203134712343
30
0
41
1
10
84.1604921690921
20
7.53589841184693
30
0
41
1
10
83.3358814229807
20
7.61339804815937
30
0
41
1
10
82.6461375376109
20
7.72497572383474
30
0
41
1
10
82.2353313836814
20
7.81358442737077
30
0
41
1
10
82.0963398988462
20
7.84612291759696
30
0
0
SPLINE
5
1AC
100
AcDbEntity
8
1
62
256
6
ByLayer
370
25
48
1
60
0
100
AcDbSpline
70
4
71
1
72
4
73
2
40
0
40
0
40
1
40
1
41
1
10
87.0032323014588
20
7.62439964416516
30
0
41
1
10
85.7923942460729
20
7.5471068954837
30
0
0
SPLINE
5
1AD
100
AcDbEntity
8
1
62
256
6
ByLayer
370
25
48
1
60
0
100
AcDbSpline
70
4
71
1
72
4
73
2
40
0
40
0
40
1
40
1
41
1
10
87.0686792300746
20
7.62141672922136
30
0
41
1
10
87.0032323014588
20
7.62439964416516
30
0
0
SPLINE
5
1AE
100
AcDbEntity
8
1
62
256
6
ByLayer
370
25
48
1
60
0
100
AcDbSpline
70
4
71
2
72
6
73
3
40
0
40
0
40
0
40
1
40
1
40
1
41
1
10
77.7993974894802
20
-2.13703217306425
30
0
41
1
10
82.4366573986006
20
-2.47468724226202
30
0
41
1
10
87.0686792300756
20
-2.85996202870418
30
0
0
SPLINE
5
1AF
100
AcDbEntity
8
1
62
256
6
ByLayer
370
25
48
1
60
0
100
AcDbSpline
70
4
71
3
72
12
73
8
40
0
40
0
40
0
40
0
40
0.201810864308315
40
0.391358792355119
40
0.58052683766543
40
0.833910095393057
40
1
40
1
40
1
40
1
41
1
10
88.56304974555
20
-3.82793131935393
30
0
41
1
10
88.4976796772735
20
-3.72980598773076
30
0
41
1
10
88.3576418876213
20
-3.54856289830226
30
0
41
1
10
88.1138060771716
20
-3.30049750910168
30
0
41
1
10
87.8036007161986
20
-3.06919866843796
30
0
41
1
10
87.4456631186934
20
-2.90748583222639
30
0
41
1
10
87.1786660981772
20
-2.86680159633422
30
0
41
1
10
87.0686792300756
20
-2.85996202870418
30
0
0
SPLINE
5
1B0
100
AcDbEntity
8
1
62
256
6
ByLayer
370
25
48
1
60
0
100
AcDbSpline
70
4
71
3
72
13
73
9
40
0
40
0
40
0
40
0
40
0.127696088649919
40
0.327023628726312
40
0.527874252413528
40
0.735779470783442
40
0.95271596122192
40
1
40
1
40
1
40
1
41
1
10
90.548168787853
20
-2.87197221200743
30
0
41
1
10
90.5487029069186
20
-2.86293140979338
30
0
41
1
10
90.5505764519739
20
-2.84049401122644
30
0
41
1
10
90.5559979924936
20
-2.80569003998485
30
0
41
1
10
90.5644804075035
20
-2.77333992417467
30
0
41
1
10
90.574353477345
20
-2.75090954323053
30
0
41
1
10
90.5818152778028
20
-2.74397578143538
30
0
41
1
10
90.5856787647832
20
-2.74373036346342
30
0
41
1
10
90.5863647270469
20
-2.74380058370466
30
0
0
SPLINE
5
1B1
100
AcDbEntity
8
1
62
256
6
ByLayer
370
25
48
1
60
0
100
AcDbSpline
70
4
71
1
72
4
73
2
40
0
40
0
40
1
40
1
41
1
10
90.5156377799861
20
-3.35914061083994
30
0
41
1
10
90.5481687878548
20
-2.8719722120067
30
0
0
SPLINE
5
1B2
100
AcDbEntity
8
1
62
256
6
ByLayer
370
25
48
1
60
0
100
AcDbSpline
70
4
71
3
72
11
73
7
40
0
40
0
40
0
40
0
40
0.154771255127408
40
0.451535447840931
40
0.749712630474585
40
1
40
1
40
1
40
1
41
1
10
90.5156377799861
20
-3.35914061083994
30
0
41
1
10
90.5149995797712
20
-3.36746334421261
30
0
41
1
10
90.5125867841877
20
-3.39116717351049
30
0
41
1
10
90.5057206596429
20
-3.42930775227043
30
0
41
1
10
90.4944486662025
20
-3.46458371039625
30
0
41
1
10
90.4859029356316
20
-3.48083649480529
30
0
41
1
10
90.4816821165133
20
-3.4870189981225
30
0
0
SPLINE
5
1B3
100
AcDbEntity
8
1
62
256
6
ByLayer
370
25
48
1
60
0
100
AcDbSpline
70
4
71
1
72
4
73
2
40
0
40
0
40
1
40
1
41
1
10
90.4681280929278
20
-3.50642448042092
30
0
41
1
10
90.4816821165162
20
-3.4870189981233
30
0
0
SPLINE
5
1B4
100
AcDbEntity
8
1
62
256
6
ByLayer
370
25
48
1
60
0
100
AcDbSpline
70
4
71
2
72
6
73
3
40
0
40
0
40
0
40
1
40
1
40
1
41
1
10
90.1172558274831
20
-3.35153054162616
30
0
41
1
10
90.1007748099417
20
-3.332838149405
30
0
41
1
10
90.0795694929759
20
-3.33073342454165
30
0
0
SPLINE
5
1B5
100
AcDbEntity
8
1
62
256
6
ByLayer
370
25
48
1
60
0
100
AcDbSpline
70
4
71
1
72
4
73
2
40
0
40
0
40
1
40
1
41
1
10
89.8717228568335
20
-3.9314048639715
30
0
41
1
10
89.9680619797974
20
-3.45106241423331
30
0
0
SPLINE
5
1B6
100
AcDbEntity
8
1
62
256
6
ByLayer
370
25
48
1
60
0
100
AcDbSpline
70
4
71
3
72
11
73
7
40
0
40
0
40
0
40
0
40
0.200007165865709
40
0.422767054208747
40
0.752679002808009
40
1
40
1
40
1
40
1
41
1
10
89.8717228568336
20
-3.9314048639715
30
0
41
1
10
89.8688952361676
20
-3.94343315797828
30
0
41
1
10
89.861231597326
20
-3.96731734759178
30
0
41
1
10
89.8401334732974
20
-4.00497154135929
30
0
41
1
10
89.8118071654056
20
-4.03448449349694
30
0
41
1
10
89.7899895433542
20
-4.04849815654851
30
0
41
1
10
89.7801835548809
20
-4.05312317295704
30
0
0
SPLINE
5
1B7
100
AcDbEntity
8
1
62
256
6
ByLayer
370
25
48
1
60
0
100
AcDbSpline
70
4
71
1
72
4
73
2
40
0
40
0
40
1
40
1
41
1
10
89.5661867311504
20
-4.14707239102315
30
0
41
1
10
89.7801835548809
20
-4.05312317295704
30
0
0
SPLINE
5
1B8
100
AcDbEntity
8
1
62
256
6
ByLayer
370
25
48
1
60
0
100
AcDbSpline
70
4
71
1
72
4
73
2
40
0
40
0
40
1
40
1
41
1
10
88.9072611528537
20
-3.89543797774478
30
0
41
1
10
88.8230384481041
20
-3.85422791512229
30
0
0
SPLINE
5
1B9
100
AcDbEntity
8
1
62
256
6
ByLayer
370
25
48
1
60
0
100
AcDbSpline
70
4
71
2
72
6
73
3
40
0
40
0
40
0
40
1
40
1
40
1
41
1
10
88.563049745549
20
-3.82793131935264
30
0
41
1
10
88.635132102831
20
-3.81881748235996
30
0
41
1
10
88.7043794609538
20
-3.82481895843946
30
0
0
SPLINE
5
1BA
100
AcDbEntity
8
1
62
256
6
ByLayer
370
25
48
1
60
0
100
AcDbSpline
70
4
71
3
72
17
73
13
40
0
40
0
40
0
40
0
40
0.103157046358154
40
0.20631555836637
40
0.309427288936512
40
0.41255027476049
40
0.516635460598554
40
0.620740240789663
40
0.728304565300337
40
0.835895395266217
40
0.91794345443195
40
1
40
1
40
1
40
1
41
1
10
87.0686792300746
20
7.62141672922127
30
0
41
1
10
87.2708584420169
20
7.61279315134547
30
0
41
1
10
87.6681404855584
20
7.58785661398104
30
0
41
1
10
88.2508491227787
20
7.52686876912329
30
0
41
1
10
88.7960533460103
20
7.44387857171471
30
0
41
1
10
89.2939288964386
20
7.34180329620533
30
0
41
1
10
89.7282545401188
20
7.22279845050792
30
0
41
1
10
90.0947548618794
20
7.08934307831366
30
0
41
1
10
90.3782245210786
20
6.94463233182493
30
0
41
1
10
90.5581466973663
20
6.80474502746914
30
0
41
1
10
90.651173462791
20
6.67537403251821
30
0
41
1
10
90.6712305139499
20
6.59787212013163
30
0
41
1
10
90.6721244896567
20
6.55916069013491
30
0
0
SPLINE
5
1BB
100
AcDbEntity
8
1
62
256
6
ByLayer
370
25
48
1
60
0
100
AcDbSpline
70
4
71
2
72
6
73
3
40
0
40
0
40
0
40
1
40
1
40
1
41
1
10
88.7043794609538
20
-3.82481895843946
30
0
41
1
10
88.7684331866348
20
-3.82867045442633
30
0
41
1
10
88.823038448104
20
-3.85422791512221
30
0
0
SPLINE
5
1BC
100
AcDbEntity
8
1
62
256
6
ByLayer
370
25
48
1
60
0
100
AcDbSpline
70
4
71
1
72
4
73
2
40
0
40
0
40
1
40
1
41
1
10
80.6045853403917
20
4.45367588850956
30
0
41
1
10
80.573747693552
20
4.19062932121097
30
0
0
SPLINE
5
1BD
100
AcDbEntity
8
1
62
256
6
ByLayer
370
25
48
1
60
0
100
AcDbSpline
70
4
71
3
72
11
73
7
40
0
40
0
40
0
40
0
40
0.252858620587302
40
0.505713476210088
40
0.752328634843107
40
1
40
1
40
1
40
1
41
1
10
61.973005891846
20
-7.10376065547781
30
0
41
1
10
61.9687637274487
20
-7.04610593475688
30
0
41
1
10
61.9647140955102
20
-6.9304324476384
30
0
41
1
10
61.9719688440749
20
-6.75691040774043
30
0
41
1
10
61.9919486568655
20
-6.58421388087803
30
0
41
1
10
62.0132529643162
20
-6.47034387386999
30
0
41
1
10
62.0259812961696
20
-6.41333071311168
30
0
0
SPLINE
5
1BE
100
AcDbEntity
8
1
62
256
6
ByLayer
370
25
48
1
60
0
100
AcDbSpline
70
4
71
3
72
19
73
15
40
0
40
0
40
0
40
0
40
0.0809031030239155
40
0.161996954536349
40
0.242840517526463
40
0.324296875625933
40
0.406058544999407
40
0.487478694834671
40
0.579532590328428
40
0.671891963607537
40
0.763957010424922
40
0.842579260999379
40
0.921412757613364
40
1
40
1
40
1
40
1
41
1
10
69.7993974894803
20
-14.5338551910302
30
0
41
1
10
69.4059493844698
20
-14.5052678606209
30
0
41
1
10
68.6413339253878
20
-14.4292315017321
30
0
41
1
10
67.5594426121878
20
-14.2652221869925
30
0
41
1
10
66.5556144896465
20
-14.0315369950371
30
0
41
1
10
65.6521144339871
20
-13.7089573176826
30
0
41
1
10
64.8580247577956
20
-13.2864590726344
30
0
41
1
10
64.1609155547855
20
-12.7312209539039
30
0
41
1
10
63.560587763271
20
-12.02131466217
30
0
41
1
10
63.0308822934015
20
-11.1559364410491
30
0
41
1
10
62.6154642970345
20
-10.2151667216443
30
0
41
1
10
62.3015992625209
20
-9.2220099418918
30
0
41
1
10
62.0865814375645
20
-8.20241148612632
30
0
41
1
10
62.0013529379518
20
-7.47753022368377
30
0
41
1
10
61.973005891846
20
-7.10376065547782
30
0
0
SPLINE
5
1BF
100
AcDbEntity
8
1
62
256
6
ByLayer
370
25
48
1
60
0
100
AcDbSpline
70
4
71
3
72
16
73
12
40
0
40
0
40
0
40
0
40
0.0769834216171055
40
0.158834681173011
40
0.240765154783295
40
0.369835037755566
40
0.49908086983691
40
0.631971041060212
40
0.764890632733703
40
0.882459476594047
40
1
40
1
40
1
40
1
41
1
10
62.164810424602
20
14.6294315628998
30
0
41
1
10
62.2193211537496
20
14.6165709110763
30
0
41
1
10
62.3487935255224
20
14.5889753820818
30
0
41
1
10
62.604509550171
20
14.5424884123876
30
0
41
1
10
62.9669645033598
20
14.485040933779
30
0
41
1
10
63.4496560217492
20
14.4208255933492
30
0
41
1
10
64.0593104049522
20
14.3569235687003
30
0
41
1
10
64.7125639478702
20
14.3079326832055
30
0
41
1
10
65.3689161898175
20
14.2785090683886
30
0
41
1
10
66.0093294628458
20
14.2696628110922
30
0
41
1
10
66.4163444463763
20
14.2762358586967
30
0
41
1
10
66.6199936510014
20
14.2825279852178
30
0
0
SPLINE
5
1C0
100
AcDbEntity
8
1
62
256
6
ByLayer
370
25
48
1
60
0
100
AcDbSpline
70
4
71
3
72
13
73
9
40
0
40
0
40
0
40
0
40
0.16587930167645
40
0.33197994526232
40
0.496240287948222
40
0.660659598593665
40
0.91967898720764
40
1
40
1
40
1
40
1
41
1
10
62.0264883811524
20
-6.41338943478794
30
0
41
1
10
62.0565494252499
20
-6.28519824395705
30
0
41
1
10
62.1405322339999
20
-6.0369121447627
30
0
41
1
10
62.343378065886
20
-5.68603235099316
30
0
41
1
10
62.6043383793031
20
-5.36960156602644
30
0
41
1
10
62.9669479234195
20
-5.03424888646157
30
0
41
1
10
63.323524417654
20
-4.79272275606005
30
0
41
1
10
63.5781476777631
20
-4.65441290242116
30
0
41
1
10
63.6394738411542
20
-4.62305144356408
30
0
0
SPLINE
5
1C1
100
AcDbEntity
8
1
62
256
6
ByLayer
370
25
48
1
60
0
100
AcDbSpline
70
4
71
3
72
19
73
15
40
0
40
0
40
0
40
0
40
0.0823559031775429
40
0.164905980168756
40
0.24720127413509
40
0.330120367347774
40
0.413350254396306
40
0.496232489142632
40
0.589939422758748
40
0.683957319712154
40
0.777675604899404
40
0.857709697707902
40
0.937958829961461
40
1
40
1
40
1
40
1
41
1
10
69.7993974894808
20
9.21116101661449
30
0
41
1
10
69.4059493844701
20
9.36678379031406
30
0
41
1
10
68.6413339256311
20
9.69708928872596
30
0
41
1
10
67.5594426113355
20
10.2553106335468
30
0
41
1
10
66.5556144928118
20
10.8570710430842
30
0
41
1
10
65.6521144220591
20
11.4904062669548
30
0
41
1
10
64.8580248024068
20
12.1285536524134
30
0
41
1
10
64.1609153799496
20
12.7730096258527
30
0
41
1
10
63.5605885124937
20
13.376973350927
30
0
41
1
10
63.0308795021171
20
13.9043808911069
30
0
41
1
10
62.6154740329361
20
14.2951527966435
30
0
41
1
10
62.301568743711
20
14.5503479474533
30
0
41
1
10
62.10275448618
20
14.6798947237683
30
0
41
1
10
62.0210135251307
20
14.7056151612171
30
0
41
1
10
61.9938621594786
20
14.7062233317133
30
0
0
SPLINE
5
1C2
100
AcDbEntity
8
1
62
256
6
ByLayer
370
25
48
1
60
0
100
AcDbSpline
70
4
71
3
72
12
73
8
40
0
40
0
40
0
40
0
40
0.151300539882113
40
0.376454281835367
40
0.601657870397964
40
0.8008529266508
40
1
40
1
40
1
40
1
41
1
10
63.6394738411542
20
-4.62305144356408
30
0
41
1
10
63.7767247083911
20
-4.55307152945757
30
0
41
1
10
64.1247691313565
20
-4.39529901337032
30
0
41
1
10
64.7127495323396
20
-4.20825462426952
30
0
41
1
10
65.3688725831296
20
-4.09003578142376
30
0
41
1
10
66.0093412586043
20
-4.05435742865314
30
0
41
1
10
66.4163444463763
20
-4.08083534519574
30
0
41
1
10
66.6199936510014
20
-4.10616936563431
30
0
0
SPLINE
5
1C3
100
AcDbEntity
8
1
62
256
6
ByLayer
370
25
48
1
60
0
100
AcDbSpline
70
4
71
2
72
6
73
3
40
0
40
0
40
0
40
1
40
1
40
1
41
1
10
64.8685936483987
20
-4.95339546433632
30
0
41
1
10
64.9386618968051
20
-4.48979195227571
30
0
41
1
10
65.1482783685547
20
-4.13524462543672
30
0
0
SPLINE
5
1C4
100
AcDbEntity
8
1
62
256
6
ByLayer
370
25
48
1
60
0
100
AcDbSpline
70
4
71
2
72
6
73
3
40
0
40
0
40
0
40
1
40
1
40
1
41
1
10
64.8704602593159
20
-4.9544201277527
30
0
41
1
10
63.4362052392423
20
-5.67731113554372
30
0
41
1
10
62.026083147872
20
-6.41327837891827
30
0
0
SPLINE
5
1C5
100
AcDbEntity
8
1
62
256
6
ByLayer
370
25
48
1
60
0
100
AcDbSpline
70
4
71
3
72
13
73
9
40
0
40
0
40
0
40
0
40
0.111010927022981
40
0.390582411983788
40
0.623087287453546
40
0.808441270007881
40
0.96535240187119
40
1
40
1
40
1
40
1
41
1
10
90.0795694929759
20
-3.33073342454165
30
0
41
1
10
90.0749883074927
20
-3.33025899967677
30
0
41
1
10
90.0587547690521
20
-3.33054978176515
30
0
41
1
10
90.0310908822272
20
-3.34199362693798
30
0
41
1
10
90.0014775761393
20
-3.37099055227387
30
0
41
1
10
89.9808348411395
20
-3.40583193318789
30
0
41
1
10
89.9714816557361
20
-3.4337671287369
30
0
41
1
10
89.9685432763753
20
-3.44838881595568
30
0
41
1
10
89.9680619797973
20
-3.4510624142333
30
0
0
SPLINE
5
1C6
100
AcDbEntity
8
1
62
256
6
ByLayer
370
25
48
1
60
0
100
AcDbSpline
70
4
71
3
72
11
73
7
40
0
40
0
40
0
40
0
40
0.24042100480482
40
0.482792547428229
40
0.739964239170854
40
1
40
1
40
1
40
1
41
1
10
82.0963398988462
20
7.84612291759696
30
0
41
1
10
82.3878284041058
20
7.81566446759616
30
0
41
1
10
82.9777701790659
20
7.76083193800684
30
0
41
1
10
83.8990270120044
20
7.69552445751343
30
0
41
1
10
84.853584501644
20
7.65077847622393
30
0
41
1
10
85.5003431534488
20
7.63701627611056
30
0
41
1
10
85.8254964413304
20
7.63423684584111
30
0
0
SPLINE
5
1C7
100
AcDbEntity
8
1
62
256
6
ByLayer
370
25
48
1
60
0
100
AcDbSpline
70
4
71
1
72
4
73
2
40
0
40
0
40
1
40
1
41
1
10
82.0963398988688
20
-15.3543219727216
30
0
41
1
10
77.7993974894802
20
-15.5247425666898
30
0
0
SPLINE
5
1C8
100
AcDbEntity
8
1
62
256
6
ByLayer
370
25
48
1
60
0
100
AcDbSpline
70
4
71
3
72
15
73
11
40
0
40
0
40
0
40
0
40
0.210505027984066
40
0.316010159953344
40
0.421490023867125
40
0.529121528309298
40
0.636756295255598
40
0.745760664994553
40
0.854761063775417
40
1
40
1
40
1
40
1
41
1
10
77.7993974894802
20
-15.5247425666901
30
0
41
1
10
77.2157586376487
20
-15.4643933438578
30
0
41
1
10
76.3418831942112
20
-15.3729336877532
30
0
41
1
10
75.1782538885068
20
-15.2499977668969
30
0
41
1
10
74.3049277758398
20
-15.1550146046889
30
0
41
1
10
73.4360303878837
20
-15.0564603604362
30
0
41
1
10
72.5699503088388
20
-14.9520938499189
30
0
41
1
10
71.7156421893607
20
-14.8405222562519
30
0
41
1
10
70.7833139110921
20
-14.7058599943233
30
0
41
1
10
70.1528597764155
20
-14.5987759067134
30
0
41
1
10
69.7993974894808
20
-14.5338551910298
30
0
0
SPLINE
5
1C9
100
AcDbEntity
8
1
62
256
6
ByLayer
370
25
48
1
60
0
100
AcDbSpline
70
4
71
3
72
14
73
10
40
0
40
0
40
0
40
0
40
0.16192397783263
40
0.323847767535554
40
0.485784784344253
40
0.647615380292693
40
0.817193508043495
40
0.98682353987391
40
1
40
1
40
1
40
1
41
1
10
61.973005891846
20
-7.10376065547782
30
0
41
1
10
62.2982551284562
20
-6.93663865423136
30
0
41
1
10
62.9483609268712
20
-6.60218821882579
30
0
41
1
10
63.9257980944267
20
-6.10168399879669
30
0
41
1
10
64.8950136095385
20
-5.59704694574464
30
0
41
1
10
65.9399801169953
20
-5.11671622889857
30
0
41
1
10
67.1224430762126
20
-4.70490823893725
30
0
41
1
10
68.0185138362979
20
-4.46397521116225
30
0
41
1
10
68.4991673748738
20
-4.35332644487493
30
0
41
1
10
68.5338998938622
20
-4.34542370776073
30
0
0
SPLINE
5
1CA
100
AcDbEntity
8
1
62
256
6
ByLayer
370
25
48
1
60
0
100
AcDbSpline
70
4
71
1
72
4
73
2
40
0
40
0
40
1
40
1
41
1
10
89.4234863611711
20
-8.28700220626842
30
0
41
1
10
90.509234010514
20
-10.1901189709253
30
0
0
SPLINE
5
1CB
100
AcDbEntity
8
1
62
256
6
ByLayer
370
25
48
1
60
0
100
AcDbSpline
70
4
71
3
72
10
73
6
40
0
40
0
40
0
40
0
40
0.386452751143598
40
0.78400262459982
40
1
40
1
40
1
40
1
41
1
10
90.6677070257793
20
-10.6937651827862
30
0
41
1
10
90.6619789904364
20
-10.6248886135021
30
0
41
1
10
90.6388843754526
20
-10.4884355272445
30
0
41
1
10
90.5789492971192
20
-10.3200400869344
30
0
41
1
10
90.5286654871842
20
-10.2234744893377
30
0
41
1
10
90.509234010514
20
-10.1901189709253
30
0
0
SPLINE
5
1CC
100
AcDbEntity
8
1
62
256
6
ByLayer
370
25
48
1
60
0
100
AcDbSpline
70
4
71
1
72
4
73
2
40
0
40
0
40
1
40
1
41
1
10
90.6721244896567
20
-11.4390058280915
30
0
41
1
10
90.6677070257793
20
-10.6937651827862
30
0
0
SPLINE
5
1CD
100
AcDbEntity
8
1
62
256
6
ByLayer
370
25
48
1
60
0
100
AcDbSpline
70
4
71
1
72
4
73
2
40
0
40
0
40
1
40
1
41
1
10
87.0686792300746
20
-15.1560409370273
30
0
41
1
10
87.1692743488883
20
-15.1520562526938
30
0
0
SPLINE
5
1CE
100
AcDbEntity
8
1
62
256
6
ByLayer
370
25
48
1
60
0
100
AcDbSpline
70
4
71
1
72
4
73
2
40
0
40
0
40
1
40
1
41
1
10
87.1692743488883
20
-15.1520562526938
30
0
41
1
10
87.3561338070811
20
-15.1373448077219
30
0
0
SPLINE
5
1CF
100
AcDbEntity
8
1
62
256
6
ByLayer
370
25
48
1
60
0
100
AcDbSpline
70
4
71
1
72
4
73
2
40
0
40
0
40
1
40
1
41
1
10
87.3561338070811
20
-15.1373448077219
30
0
41
1
10
87.4280423523097
20
-15.1291324755736
30
0
0
SPLINE
5
1D0
100
AcDbEntity
8
1
62
256
6
ByLayer
370
25
48
1
60
0
100
AcDbSpline
70
4
71
1
72
4
73
2
40
0
40
0
40
1
40
1
41
1
10
87.0686792300757
20
-15.1560409370273
30
0
41
1
10
87.0032323014584
20
-15.1586594784862
30
0
0
SPLINE
5
1D1
100
AcDbEntity
8
1
62
256
6
ByLayer
370
25
48
1
60
0
100
AcDbSpline
70
4
71
1
72
4
73
2
40
0
40
0
40
1
40
1
41
1
10
85.8254964413304
20
-15.0315900621906
30
0
41
1
10
87.0032323014584
20
-15.1586594784862
30
0
0
SPLINE
5
1D2
100
AcDbEntity
8
1
62
256
6
ByLayer
370
25
48
1
60
0
100
AcDbSpline
70
4
71
3
72
11
73
7
40
0
40
0
40
0
40
0
40
0.240421004803238
40
0.482792547425005
40
0.739964239169233
40
1
40
1
40
1
40
1
41
1
10
82.0963398988688
20
-15.3543219727216
30
0
41
1
10
82.3878284041248
20
-15.273298958942
30
0
41
1
10
82.9777701790776
20
-15.1366879975563
30
0
41
1
10
83.8990270120083
20
-15.0050527562211
30
0
41
1
10
84.8535845016439
20
-14.9606439025937
30
0
41
1
10
85.5003431534488
20
-14.996820221234
30
0
41
1
10
85.8254964413304
20
-15.0315900621906
30
0
0
SPLINE
5
1D3
100
AcDbEntity
8
1
62
256
6
ByLayer
370
25
48
1
60
0
100
AcDbSpline
70
4
71
2
72
6
73
3
40
0
40
0
40
0
40
1
40
1
40
1
41
1
10
66.8513941008721
20
-4.12615854448844
30
0
41
1
10
65.7753027201825
20
-4.48650376138744
30
0
41
1
10
64.8704602593159
20
-4.95442012775271
30
0
0
SPLINE
5
1D4
100
AcDbEntity
8
1
62
256
6
ByLayer
370
25
48
1
60
0
100
AcDbSpline
70
4
71
1
72
4
73
2
40
0
40
0
40
1
40
1
41
1
10
85.8254964413304
20
7.63423684584111
30
0
41
1
10
87.0032323014588
20
7.62439964416516
30
0
0
SPLINE
5
1D5
100
AcDbEntity
8
1
62
256
6
ByLayer
370
25
48
1
60
0
100
AcDbSpline
70
4
71
2
72
6
73
3
40
0
40
0
40
0
40
1
40
1
40
1
41
1
10
90.5863647270469
20
-2.74380058370466
30
0
41
1
10
90.5936858703484
20
-2.74468368351913
30
0
41
1
10
90.5988434008877
20
-2.7619011269558
30
0
0
SPLINE
5
1D6
100
AcDbEntity
8
1
62
256
6
ByLayer
370
25
48
1
60
0
100
AcDbSpline
70
4
71
1
72
4
73
2
40
0
40
0
40
1
40
1
41
1
10
90.6692028741354
20
-8.2849617615162
30
0
41
1
10
90.6685766058913
20
-8.15020161711518
30
0
0
SPLINE
5
1D7
100
AcDbEntity
8
1
62
256
6
ByLayer
370
25
48
1
60
0
100
AcDbSpline
70
4
71
3
72
11
73
7
40
0
40
0
40
0
40
0
40
0.0020610591518089
40
0.434768158080219
40
0.864609686233245
40
1
40
1
40
1
40
1
41
1
10
90.6692028741354
20
-8.28496176151621
30
0
41
1
10
90.6692032015305
20
-8.28503196931124
30
0
41
1
10
90.6692723024686
20
-8.29983995202589
30
0
41
1
10
90.6694309127192
20
-8.32943368867745
30
0
41
1
10
90.6696401329306
20
-8.35953226566261
30
0
41
1
10
90.669757681513
20
-8.37360599962683
30
0
41
1
10
90.6697860474797
20
-8.37684282584406
30
0
0
SPLINE
5
1D8
100
AcDbEntity
8
1
62
256
6
ByLayer
370
25
48
1
60
0
100
AcDbSpline
70
4
71
3
72
10
73
6
40
0
40
0
40
0
40
0
40
0.301096879887322
40
0.737868382760354
40
1
40
1
40
1
40
1
41
1
10
90.6697860474797
20
-8.37684282584406
30
0
41
1
10
90.669848234209
20
-8.38391069849649
30
0
41
1
10
90.6699937805697
20
-8.39869382837417
30
0
41
1
10
90.6701786833636
20
-8.41100236592484
30
0
41
1
10
90.6702812293646
20
-8.41324228050889
30
0
41
1
10
90.6703169381556
20
-8.41325486139864
30
0
0
SPLINE
5
1D9
100
AcDbEntity
8
1
62
256
6
ByLayer
370
25
48
1
60
0
100
AcDbSpline
70
4
71
3
72
17
73
13
40
0
40
0
40
0
40
0
40
0.0440863225175812
40
0.154039388633509
40
0.26394259204346
40
0.373857792036584
40
0.484798567522276
40
0.595760227946631
40
0.710409296204764
40
0.82508661570472
40
0.912538785171988
40
1
40
1
40
1
40
1
41
1
10
87.4280423523097
20
-15.1291324755736
30
0
41
1
10
87.5079035260054
20
-15.119032767241
30
0
41
1
10
87.7846979131351
20
-15.0749917961368
30
0
41
1
10
88.2507824319007
20
-14.9471428337488
30
0
41
1
10
88.7960712088893
20
-14.6939351149427
30
0
41
1
10
89.2939240605189
20
-14.3582327756597
30
0
41
1
10
89.7282558398982
20
-13.9461047378687
30
0
41
1
10
90.0947545004355
20
-13.4668836307551
30
0
41
1
10
90.3782246202053
20
-12.9311384097933
30
0
41
1
10
90.5581466776084
20
-12.399971369934
30
0
41
1
10
90.6511734677722
20
-11.8983947519999
30
0
41
1
10
90.6712305139499
20
-11.5928889414007
30
0
41
1
10
90.6721244896567
20
-11.4390058280915
30
0
0
SPLINE
5
1DA
100
AcDbEntity
8
1
62
256
6
ByLayer
370
25
48
1
60
0
100
AcDbSpline
70
4
71
3
72
11
73
7
40
0
40
0
40
0
40
0
40
0.305303898730579
40
0.6121894957295
40
0.92423725249363
40
1
40
1
40
1
40
1
41
1
10
85.7923942460729
20
-15.2071749839578
30
0
41
1
10
85.5206990711224
20
-15.2179151085594
30
0
41
1
10
84.9756354902811
20
-15.2395855857123
30
0
41
1
10
84.1500138395165
20
-15.2727537873745
30
0
41
1
10
83.5317436356251
20
-15.2979268333418
30
0
41
1
10
83.1888499929212
20
-15.311731585052
30
0
41
1
10
83.1219235542476
20
-15.3144246831234
30
0
0
SPLINE
5
1DB
100
AcDbEntity
8
1
62
256
6
ByLayer
370
25
48
1
60
0
100
AcDbSpline
70
4
71
2
72
6
73
3
40
0
40
0
40
0
40
1
40
1
40
1
41
1
10
83.1219235542476
20
-15.3144246831234
30
0
41
1
10
82.6039710439147
20
-15.3354237908945
30
0
41
1
10
82.0963398988687
20
-15.3543219727218
30
0
0
SPLINE
5
1DC
100
AcDbEntity
8
1
62
256
6
ByLayer
370
25
48
1
60
0
100
AcDbSpline
70
4
71
1
72
4
73
2
40
0
40
0
40
1
40
1
41
1
10
86.4658581474524
20
-15.1803025813008
30
0
41
1
10
85.7923942460729
20
-15.2071749839578
30
0
0
SPLINE
5
1DD
100
AcDbEntity
8
1
62
256
6
ByLayer
370
25
48
1
60
0
100
AcDbSpline
70
4
71
1
72
4
73
2
40
0
40
0
40
1
40
1
41
1
10
87.003232301458
20
-15.1586594784839
30
0
41
1
10
86.4658581474524
20
-15.1803025813008
30
0
0
SPLINE
5
1DE
100
AcDbEntity
8
1
62
256
6
ByLayer
370
25
48
1
60
0
100
AcDbSpline
70
4
71
3
72
12
73
8
40
0
40
0
40
0
40
0
40
0.0272136193957842
40
0.272782612557229
40
0.526912076349031
40
0.771108892997765
40
1
40
1
40
1
40
1
41
1
10
65.5288351246643
20
11.5963550133596
30
0
41
1
10
65.542969019145
20
11.6062474479513
30
0
41
1
10
65.6861979879618
20
11.7069069233078
30
0
41
1
10
65.9982156574739
20
11.9342110580068
30
0
41
1
10
66.5014436315657
20
12.3192576640356
30
0
41
1
10
67.0304939764434
20
12.7398773286196
30
0
41
1
10
67.3733471352538
20
13.0214194508333
30
0
41
1
10
67.5408503139555
20
13.1610331425872
30
0
0
SPLINE
5
1DF
100
AcDbEntity
8
1
62
256
6
ByLayer
370
25
48
1
60
0
100
AcDbSpline
70
4
71
3
72
11
73
7
40
0
40
0
40
0
40
0
40
0.274820443465757
40
0.55436165902912
40
0.776482693769658
40
1
40
1
40
1
40
1
41
1
10
67.5408503139555
20
13.1610331425872
30
0
41
1
10
67.835809650134
20
12.8019877258281
30
0
41
1
10
68.4627017663293
20
12.1112889478347
30
0
41
1
10
69.4353232766605
20
11.2344810561634
30
0
41
1
10
70.4125027904238
20
10.5027484602981
30
0
41
1
10
71.0457926479121
20
10.1038959911871
30
0
41
1
10
71.372078871931
20
9.91635658560608
30
0
0
SPLINE
5
1E0
100
AcDbEntity
8
1
62
256
6
ByLayer
370
25
48
1
60
0
100
AcDbSpline
70
4
71
3
72
10
73
6
40
0
40
0
40
0
40
0
40
0.340148561968647
40
0.691599769913051
40
1
40
1
40
1
40
1
41
1
10
71.372078871931
20
9.91635658560608
30
0
41
1
10
71.31656327265
20
9.81337682962912
30
0
41
1
10
71.1907169524657
20
9.61490680780945
30
0
41
1
10
70.9652013438848
20
9.35660221523275
30
0
41
1
10
70.7991029461969
20
9.21057984713289
30
0
41
1
10
70.7169261851917
20
9.14718285433736
30
0
0
SPLINE
5
1E1
100
AcDbEntity
8
1
62
256
6
ByLayer
370
25
48
1
60
0
100
AcDbSpline
70
4
71
2
72
6
73
3
40
0
40
0
40
0
40
1
40
1
40
1
41
1
10
70.514112200515
20
8.97187581339506
30
0
41
1
10
70.6091135162338
20
9.06347505919424
30
0
41
1
10
70.7169261851917
20
9.14718285433736
30
0
0
SPLINE
5
1E2
100
AcDbEntity
8
1
62
256
6
ByLayer
370
25
48
1
60
0
100
AcDbSpline
70
4
71
2
72
6
73
3
40
0
40
0
40
0
40
1
40
1
40
1
41
1
10
66.6199936510014
20
14.2825279852178
30
0
41
1
10
67.0804219824785
20
13.7217805639025
30
0
41
1
10
67.5408503139555
20
13.1610331425872
30
0
0
SPLINE
5
1E3
100
AcDbEntity
8
1
62
256
6
ByLayer
370
25
48
1
60
0
100
AcDbSpline
70
4
71
1
72
4
73
2
40
0
40
0
40
1
40
1
41
1
10
71.3471481144809
20
8.7217064121281
30
0
41
1
10
71.4192310822282
20
8.80992560490093
30
0
0
SPLINE
5
1E4
100
AcDbEntity
8
1
62
256
6
ByLayer
370
25
48
1
60
0
100
AcDbSpline
70
4
71
1
72
4
73
2
40
0
40
0
40
1
40
1
41
1
10
71.7928546437105
20
9.16825300343449
30
0
41
1
10
71.4192310822282
20
8.80992560490093
30
0
0
SPLINE
5
1E5
100
AcDbEntity
8
1
62
256
6
ByLayer
370
25
48
1
60
0
100
AcDbSpline
70
4
71
3
72
11
73
7
40
0
40
0
40
0
40
0
40
0.264145707289191
40
0.528272040039244
40
0.806790442203975
40
1
40
1
40
1
40
1
41
1
10
73.7959147281931
20
14.5939094935219
30
0
41
1
10
73.8099141519577
20
14.5656415326743
30
0
41
1
10
73.8550296410729
20
14.5101357260311
30
0
41
1
10
73.9765760850371
20
14.4270908993984
30
0
41
1
10
74.1357414074833
20
14.3569409084674
30
0
41
1
10
74.2611494302007
20
14.3177121955083
30
0
41
1
10
74.3166556819849
20
14.3024447086043
30
0
0
SPLINE
5
1E6
100
AcDbEntity
8
1
62
256
6
ByLayer
370
25
48
1
60
0
100
AcDbSpline
70
4
71
2
72
6
73
3
40
0
40
0
40
0
40
1
40
1
40
1
41
1
10
90.6703818178389
20
-8.41206383611253
30
0
41
1
10
90.6704733765045
20
-8.40821219463298
30
0
41
1
10
90.670502967426
20
-8.39446568243956
30
0
0
SPLINE
5
1E7
100
AcDbEntity
8
1
62
256
6
ByLayer
370
25
48
1
60
0
100
AcDbSpline
70
4
71
2
72
6
73
3
40
0
40
0
40
0
40
1
40
1
40
1
41
1
10
88.9326145251694
20
-8.24713772428913
30
0
41
1
10
84.2774573884114
20
-7.52481127398101
30
0
41
1
10
79.6288180235527
20
-6.68780034596504
30
0
0
SPLINE
5
1E8
100
AcDbEntity
8
1
62
256
6
ByLayer
370
25
48
1
60
0
100
AcDbSpline
70
4
71
3
72
12
73
8
40
0
40
0
40
0
40
0
40
0.173069520369253
40
0.336841607481317
40
0.500038912727152
40
0.745843059705397
40
1
40
1
40
1
40
1
41
1
10
77.8528189909073
20
-6.22667218596594
30
0
41
1
10
77.9598902181177
20
-6.23243921676275
30
0
41
1
10
78.167555120318
20
-6.24931640350871
30
0
41
1
10
78.4745307647153
20
-6.28826209458654
30
0
41
1
10
78.8220092830416
20
-6.35661522510277
30
0
41
1
10
79.2134038450074
20
-6.48120651882735
30
0
41
1
10
79.4913485888542
20
-6.61161766686846
30
0
41
1
10
79.628817911253
20
-6.68780058781016
30
0
0
SPLINE
5
1E9
100
AcDbEntity
8
1
62
256
6
ByLayer
370
25
48
1
60
0
100
AcDbSpline
70
4
71
2
72
6
73
3
40
0
40
0
40
0
40
1
40
1
40
1
41
1
10
77.8527204207383
20
-6.22666688520077
30
0
41
1
10
77.7171835870423
20
-6.2006006192315
30
0
41
1
10
77.5805093021837
20
-6.18079330198068
30
0
0
SPLINE
5
1EA
100
AcDbEntity
8
1
62
256
6
ByLayer
370
25
48
1
60
0
100
AcDbSpline
70
4
71
3
72
11
73
7
40
0
40
0
40
0
40
0
40
0.33843957094785
40
0.500003358542213
40
0.749763246918227
40
1
40
1
40
1
40
1
41
1
10
76.9966087214173
20
-6.0986341272134
30
0
41
1
10
77.0626840908549
20
-6.10658284767156
30
0
41
1
10
77.1602428334826
20
-6.11874012435841
30
0
41
1
10
77.3065654801528
20
-6.13674186162847
30
0
41
1
10
77.4352109904023
20
-6.15586477931253
30
0
41
1
10
77.5321063088162
20
-6.17211392183252
30
0
41
1
10
77.5805090332624
20
-6.18079458616899
30
0
0
SPLINE
5
1EB
100
AcDbEntity
8
1
62
256
6
ByLayer
370
25
48
1
60
0
100
AcDbSpline
70
4
71
3
72
10
73
6
40
0
40
0
40
0
40
0
40
0.307414134666976
40
0.642515280128217
40
1
40
1
40
1
40
1
41
1
10
75.9730376933956
20
-5.98132280586578
30
0
41
1
10
76.0782276810336
20
-5.99091476719224
30
0
41
1
10
76.2978805576131
20
-6.01257679544521
30
0
41
1
10
76.638694303617
20
-6.05491318587212
30
0
41
1
10
76.8748168105124
20
-6.08332949340227
30
0
41
1
10
76.9966398633756
20
-6.09839347948404
30
0
0
SPLINE
5
1EC
100
AcDbEntity
8
1
62
256
6
ByLayer
370
25
48
1
60
0
100
AcDbSpline
70
4
71
2
72
6
73
3
40
0
40
0
40
0
40
1
40
1
40
1
41
1
10
76.5105745944281
20
-3.51210505108071
30
0
41
1
10
76.2386626824183
20
-4.74608080826123
30
0
41
1
10
75.9730217971264
20
-5.98131926447961
30
0
0
SPLINE
5
1ED
100
AcDbEntity
8
1
62
256
6
ByLayer
370
25
48
1
60
0
100
AcDbSpline
70
4
71
2
72
6
73
3
40
0
40
0
40
0
40
1
40
1
40
1
41
1
10
76.8063255336476
20
-3.54647517664299
30
0
41
1
10
76.6584561273125
20
-3.52933368401317
30
0
41
1
10
76.5105886722579
20
-3.51210796340187
30
0
0
SPLINE
5
1EE
100
AcDbEntity
8
1
62
256
6
ByLayer
370
25
48
1
60
0
100
AcDbSpline
70
4
71
2
72
6
73
3
40
0
40
0
40
0
40
1
40
1
40
1
41
1
10
76.8063253284658
20
-3.54647513443829
30
0
41
1
10
77.0003463136387
20
-3.56593806679773
30
0
41
1
10
77.1940991942832
20
-3.58757170053007
30
0
0
SPLINE
5
1EF
100
AcDbEntity
8
1
62
256
6
ByLayer
370
25
48
1
60
0
100
AcDbSpline
70
4
71
2
72
6
73
3
40
0
40
0
40
0
40
1
40
1
40
1
41
1
10
80.4290930034645
20
-3.95376581641411
30
0
41
1
10
78.811176106257
20
-3.77870514670065
30
0
41
1
10
77.1940991942832
20
-3.58757170053007
30
0
0
SPLINE
5
1F0
100
AcDbEntity
8
1
62
256
6
ByLayer
370
25
48
1
60
0
100
AcDbSpline
70
4
71
2
72
6
73
3
40
0
40
0
40
0
40
1
40
1
40
1
41
1
10
82.4502950988998
20
-4.16998635115266
30
0
41
1
10
81.4397175494027
20
-4.06385074664827
30
0
41
1
10
80.4290930034645
20
-3.95376581641424
30
0
0
SPLINE
5
1F1
100
AcDbEntity
8
1
62
256
6
ByLayer
370
25
48
1
60
0
100
AcDbSpline
70
4
71
3
72
10
73
6
40
0
40
0
40
0
40
0
40
0.178259836699508
40
0.891321974509125
40
1
40
1
40
1
40
1
41
1
10
82.4502950988998
20
-4.16998635115266
30
0
41
1
10
82.747265542833
20
-4.20133450222996
30
0
41
1
10
84.2322799846903
20
-4.35521758885948
30
0
41
1
10
85.8980750665494
20
-4.52298485995702
30
0
41
1
10
87.2683845232414
20
-4.63810175899675
30
0
41
1
10
87.4496246679378
20
-4.65308334503651
30
0
0
SPLINE
5
1F2
100
AcDbEntity
8
1
62
256
6
ByLayer
370
25
48
1
60
0
100
AcDbSpline
70
4
71
2
72
6
73
3
40
0
40
0
40
0
40
1
40
1
40
1
41
1
10
88.2289054872376
20
-4.74462973379505
30
0
41
1
10
87.8401069691963
20
-4.6929909991086
30
0
41
1
10
87.4496244413774
20
-4.65308332656193
30
0
0
SPLINE
5
1F3
100
AcDbEntity
8
1
62
256
6
ByLayer
370
25
48
1
60
0
100
AcDbSpline
70
4
71
2
72
6
73
3
40
0
40
0
40
0
40
1
40
1
40
1
41
1
10
89.3069750596802
20
-4.84469261294891
30
0
41
1
10
88.7679792370397
20
-4.79522675000407
30
0
41
1
10
88.2289113353529
20
-4.74463026751997
30
0
0
SPLINE
5
1F4
100
AcDbEntity
8
1
62
256
6
ByLayer
370
25
48
1
60
0
100
AcDbSpline
70
4
71
1
72
4
73
2
40
0
40
0
40
1
40
1
41
1
10
88.9326145357807
20
-8.24713769623039
30
0
41
1
10
89.3069782672719
20
-4.84466385632825
30
0
0
SPLINE
5
1F5
100
AcDbEntity
8
1
62
256
6
ByLayer
370
25
48
1
60
0
100
AcDbSpline
70
4
71
3
72
13
73
9
40
0
40
0
40
0
40
0
40
0.162188865039834
40
0.329081218221595
40
0.491270083318204
40
0.6581624364546
40
0.826443826480553
40
1
40
1
40
1
40
1
41
1
10
76.5105879635036
20
-3.51210786695649
30
0
41
1
10
76.4274810226183
20
-3.50072125750537
30
0
41
1
10
76.2622208643117
20
-3.47103265006756
30
0
41
1
10
76.022458631463
20
-3.40595354497327
30
0
41
1
10
75.7971414147223
20
-3.32173006350603
30
0
41
1
10
75.5936207434802
20
-3.22099138190742
30
0
41
1
10
75.4146789382541
20
-3.10366382076043
30
0
41
1
10
75.3192908325666
20
-3.01841687887745
30
0
41
1
10
75.2768569026468
20
-2.97319597857357
30
0
0
SPLINE
5
1F6
100
AcDbEntity
8
1
62
256
6
ByLayer
370
25
48
1
60
0
100
AcDbSpline
70
4
71
3
72
10
73
6
40
0
40
0
40
0
40
0
40
0.325034472058355
40
0.659531779499577
40
1
40
1
40
1
40
1
41
1
10
75.2630109111539
20
-5.80664134415707
30
0
41
1
10
75.333211262982
20
-5.83588371023826
30
0
41
1
10
75.4801544914971
20
-5.88843083921825
30
0
41
1
10
75.7209756032906
20
-5.94822590995136
30
0
41
1
10
75.8873879350029
20
-5.97278410884373
30
0
41
1
10
75.9730375370282
20
-5.98132582726303
30
0
0
SPLINE
5
1F7
100
AcDbEntity
8
1
62
256
6
ByLayer
370
25
48
1
60
0
100
AcDbSpline
70
4
71
2
72
6
73
3
40
0
40
0
40
0
40
1
40
1
40
1
41
1
10
74.7120611934265
20
-5.43373452721586
30
0
41
1
10
74.9057592614128
20
-5.65570179268586
30
0
41
1
10
75.2630109111539
20
-5.80664134415707
30
0
0
SPLINE
5
1F8
100
AcDbEntity
8
1
62
256
6
ByLayer
370
25
48
1
60
0
100
AcDbSpline
70
4
71
1
72
4
73
2
40
0
40
0
40
1
40
1
41
1
10
74.5480016853848
20
-5.25111102621875
30
0
41
1
10
74.7120611931471
20
-5.43373452730489
30
0
0
SPLINE
5
1F9
100
AcDbEntity
8
1
62
256
6
ByLayer
370
25
48
1
60
0
100
AcDbSpline
70
4
71
1
72
4
73
2
40
0
40
0
40
1
40
1
41
1
10
73.9332092036601
20
-4.5940151743863
30
0
41
1
10
74.5480016853903
20
-5.25111102622103
30
0
0
SPLINE
5
1FA
100
AcDbEntity
8
1
62
256
6
ByLayer
370
25
48
1
60
0
100
AcDbSpline
70
4
71
2
72
6
73
3
40
0
40
0
40
0
40
1
40
1
40
1
41
1
10
75.4360669079344
20
-2.87539550669746
30
0
41
1
10
75.562609246568
20
-2.83362915356789
30
0
41
1
10
75.632538872543
20
-2.71578838450591
30
0
0
SPLINE
5
1FB
100
AcDbEntity
8
1
62
256
6
ByLayer
370
25
48
1
60
0
100
AcDbSpline
70
4
71
3
72
10
73
6
40
0
40
0
40
0
40
0
40
0.434994211133371
40
0.969676339896388
40
1
40
1
40
1
40
1
41
1
10
75.828558035126
20
-2.68642701088861
30
0
41
1
10
75.8109126812628
20
-2.70376671067865
30
0
41
1
10
75.7702748735463
20
-2.73295458195313
30
0
41
1
10
75.7198544888543
20
-2.73922502038605
30
0
41
1
10
75.6936734023669
20
-2.73684056923149
30
0
41
1
10
75.6922677620593
20
-2.736692837342
30
0
0
SPLINE
5
1FC
100
AcDbEntity
8
1
62
256
6
ByLayer
370
25
48
1
60
0
100
AcDbSpline
70
4
71
2
72
6
73
3
40
0
40
0
40
0
40
1
40
1
40
1
41
1
10
75.8285643725987
20
-2.68642895899371
30
0
41
1
10
75.8362983522892
20
-2.67747523291728
30
0
41
1
10
75.8434560261196
20
-2.66826270673424
30
0
0
SPLINE
5
1FD
100
AcDbEntity
8
1
62
256
6
ByLayer
370
25
48
1
60
0
100
AcDbSpline
70
4
71
2
72
6
73
3
40
0
40
0
40
0
40
1
40
1
40
1
41
1
10
76.8149020124273
20
-3.13736332238891
30
0
41
1
10
76.8194297086571
20
-3.12526215034562
30
0
41
1
10
76.8214589912005
20
-3.11260680842255
30
0
0
SPLINE
5
1FE
100
AcDbEntity
8
1
62
256
6
ByLayer
370
25
48
1
60
0
100
AcDbSpline
70
4
71
3
72
11
73
7
40
0
40
0
40
0
40
0
40
0.117037863066836
40
0.240476600305136
40
0.493435152195022
40
1
40
1
40
1
40
1
41
1
10
76.8148619285847
20
-3.13735936376496
30
0
41
1
10
76.8108285615962
20
-3.15830656475439
30
0
41
1
10
76.8123514780213
20
-3.1970891053744
30
0
41
1
10
76.8737683924634
20
-3.25919251737893
30
0
41
1
10
77.007125012945
20
-3.31745609607392
30
0
41
1
10
77.1276485651418
20
-3.34776315872971
30
0
41
1
10
77.2144954767703
20
-3.35116768871005
30
0
0
SPLINE
5
1FF
100
AcDbEntity
8
1
62
256
6
ByLayer
370
25
48
1
60
0
100
AcDbSpline
70
4
71
2
72
6
73
3
40
0
40
0
40
0
40
1
40
1
40
1
41
1
10
77.1940991940344
20
-3.58757170867755
30
0
41
1
10
77.1993462238932
20
-3.4827576182231
30
0
41
1
10
77.2144954768286
20
-3.35116768818147
30
0
0
SPLINE
5
200
100
AcDbEntity
8
1
62
256
6
ByLayer
370
25
48
1
60
0
100
AcDbSpline
70
4
71
3
72
16
73
12
40
0
40
0
40
0
40
0
40
0.1184594054937
40
0.236930045182618
40
0.355326440026349
40
0.473724766324804
40
0.5933383045676
40
0.712940234176224
40
0.831579620431595
40
0.950204067922083
40
1
40
1
40
1
40
1
41
1
10
91.4924178670506
20
-4.01886346699117
30
0
41
1
10
91.4867217382629
20
-4.08153638841685
30
0
41
1
10
91.4555258924844
20
-4.20220216331386
30
0
41
1
10
91.3484415276432
20
-4.37149348584748
30
0
41
1
10
91.1837985019518
20
-4.52194099167553
30
0
41
1
10
90.9674873004989
20
-4.65119161109463
30
0
41
1
10
90.7030396805899
20
-4.7542937582734
30
0
41
1
10
90.3995665384659
20
-4.82868745852571
30
0
41
1
10
90.0654997140632
20
-4.8705190717809
30
0
41
1
10
89.7795117261858
20
-4.8779304099589
30
0
41
1
10
89.6087520725809
20
-4.87076098289364
30
0
41
1
10
89.5578524637097
20
-4.86765571900184
30
0
0
SPLINE
5
201
100
AcDbEntity
8
1
62
256
6
ByLayer
370
25
48
1
60
0
100
AcDbSpline
70
4
71
3
72
16
73
12
40
0
40
0
40
0
40
0
40
0.105088447026571
40
0.21016974274524
40
0.318207382430425
40
0.42623445329902
40
0.532402152941446
40
0.63855925667421
40
0.74252327796733
40
0.846482338170359
40
1
40
1
40
1
40
1
41
1
10
92.0054585689201
20
-6.60449981191472
30
0
41
1
10
92.0095495549425
20
-6.71984080502108
30
0
41
1
10
91.9899200564473
20
-6.94346885900257
30
0
41
1
10
91.8759984401925
20
-7.26516571044707
30
0
41
1
10
91.6748206067523
20
-7.55889338222119
30
0
41
1
10
91.3935055734671
20
-7.81558613295893
30
0
41
1
10
91.0398895425814
20
-8.02326158002476
30
0
41
1
10
90.6305374946003
20
-8.17742182530005
30
0
41
1
10
90.1746573317241
20
-8.2731574459305
30
0
41
1
10
89.6083866100019
20
-8.31690143703942
30
0
41
1
10
89.1897985971577
20
-8.28668736985138
30
0
41
1
10
88.9326145397933
20
-8.24713745059036
30
0
0
SPLINE
5
202
100
AcDbEntity
8
1
62
256
6
ByLayer
370
25
48
1
60
0
100
AcDbSpline
70
4
71
3
72
50
73
46
40
0
40
0
40
0
40
0
40
0.174062673811757
40
0.328559541690126
40
0.366012632535921
40
0.398860813261679
40
0.427104135177992
40
0.45074267003116
40
0.481162743686294
40
0.490029327206953
40
0.491609479570488
40
0.493577881233366
40
0.496776262252725
40
0.500042525919077
40
0.500626180948112
40
0.500682199560575
40
0.500726018352382
40
0.500744818698026
40
0.50076263871453
40
0.500780539447567
40
0.500799568445448
40
0.500844169842288
40
0.500901208557018
40
0.501060118698434
40
0.502364774518325
40
0.508320736145464
40
0.5135692399465
40
0.520781528456691
40
0.52995800111195
40
0.541098846100111
40
0.552375466573568
40
0.56706052247325
40
0.585154045010117
40
0.606656050656543
40
0.626235743086941
40
0.6491370614522
40
0.675360008897476
40
0.704904587609152
40
0.737770799213078
40
0.773870996201999
40
0.813013060424586
40
0.855196992403841
40
0.900422792651894
40
0.948690461679022
40
1
40
1
40
1
40
1
41
1
10
89.5578506493701
20
-4.86765560701336
30
0
41
1
10
89.4960649208897
20
-5.19830897410723
30
0
41
1
10
89.3791554032451
20
-5.82239983491039
30
0
41
1
10
89.2485277033454
20
-6.51756482065785
30
0
41
1
10
89.1679292536018
20
-6.94445963836862
30
0
41
1
10
89.1324060534317
20
-7.13156463025715
30
0
41
1
10
89.1016767634463
20
-7.2924091230209
30
0
41
1
10
89.0715498275332
20
-7.44859456145465
30
0
41
1
10
89.0482082878047
20
-7.5679618241108
30
0
41
1
10
89.0324671602875
20
-7.64537213108785
30
0
41
1
10
89.0275230592881
20
-7.66886443785364
30
0
41
1
10
89.0248356448604
20
-7.68161768587282
30
0
41
1
10
89.021051726717
20
-7.69756315502859
30
0
41
1
10
89.0175619977131
20
-7.71052926985441
30
0
41
1
10
89.0148398606738
20
-7.71785530779976
30
0
41
1
10
89.0138862031446
20
-7.71880194482853
30
0
41
1
10
89.0136808248644
20
-7.71892176654044
30
0
41
1
10
89.0135255349966
20
-7.71895679275223
30
0
41
1
10
89.0134176997387
20
-7.7189551125013
30
0
41
1
10
89.0133137776481
20
-7.71892665393681
30
0
41
1
10
89.0131743312263
20
-7.71884972487408
30
0
41
1
10
89.013011582582
20
-7.71867759242683
30
0
41
1
10
89.0127629380648
20
-7.71824063900581
30
0
41
1
10
89.0119439065425
20
-7.71541398880762
30
0
41
1
10
89.0119212907111
20
-7.70098190201432
30
0
41
1
10
89.0132631372543
20
-7.67701042010571
30
0
41
1
10
89.0162130575064
20
-7.64157018574849
30
0
41
1
10
89.019981352848
20
-7.60001550108307
30
0
41
1
10
89.0250794109452
20
-7.54714325371034
30
0
41
1
10
89.0311242284732
20
-7.48648931877762
30
0
41
1
10
89.0384351084323
20
-7.41527478434626
30
0
41
1
10
89.0472696066813
20
-7.33072940054731
30
0
41
1
10
89.0582652077407
20
-7.22656996960401
30
0
41
1
10
89.0703377608158
20
-7.11302579638915
30
0
41
1
10
89.0834605451302
20
-6.99026262523719
30
0
41
1
10
89.0976075644473
20
-6.85844644416531
30
0
41
1
10
89.1138516975658
20
-6.70751555192098
30
0
41
1
10
89.1321937560388
20
-6.53747001986526
30
0
41
1
10
89.1526175112527
20
-6.34847817132375
30
0
41
1
10
89.1750557784181
20
-6.14107590898643
30
0
41
1
10
89.1994423517127
20
-5.91579922047769
30
0
41
1
10
89.2257399390667
20
-5.67301690787906
30
0
41
1
10
89.253947738585
20
-5.41272889575239
30
0
41
1
10
89.2840661949532
20
-5.13493522056699
30
0
41
1
10
89.3047854139594
20
-4.94390451641504
30
0
41
1
10
89.3154636890786
20
-4.84547157317
30
0
0
SPLINE
5
203
100
AcDbEntity
8
1
62
256
6
ByLayer
370
25
48
1
60
0
100
AcDbSpline
70
4
71
1
72
4
73
2
40
0
40
0
40
1
40
1
41
1
10
76.4584167681192
20
-2.5546946874548
30
0
41
1
10
76.3656718449424
20
-2.53071118757369
30
0
0
SPLINE
5
204
100
AcDbEntity
8
1
62
256
6
ByLayer
370
25
48
1
60
0
100
AcDbSpline
70
4
71
2
72
6
73
3
40
0
40
0
40
0
40
1
40
1
40
1
41
1
10
76.7886122465138
20
-2.67347633095967
30
0
41
1
10
76.6135759957566
20
-2.62343922883762
30
0
41
1
10
76.45841924289
20
-2.55469421647272
30
0
0
SPLINE
5
205
100
AcDbEntity
8
1
62
256
6
ByLayer
370
25
48
1
60
0
100
AcDbSpline
70
4
71
3
72
16
73
12
40
0
40
0
40
0
40
0
40
0.0896878427725545
40
0.159694494760658
40
0.285477645946461
40
0.579467351643178
40
0.628233867143371
40
0.649268868142711
40
0.668584170998149
40
0.757396817869035
40
1
40
1
40
1
40
1
41
1
10
76.8266975932448
20
-3.09443689647484
30
0
41
1
10
76.8227498803985
20
-3.07771520172053
30
0
41
1
10
76.8175871979201
20
-3.04766096808854
30
0
41
1
10
76.8066265514496
20
-2.99266602132764
30
0
41
1
10
76.8371327200668
20
-2.89824371727231
30
0
41
1
10
76.9027996069706
20
-2.83134240150378
30
0
41
1
10
76.9505919940845
20
-2.78173074531997
30
0
41
1
10
76.9615235534592
20
-2.76686681788405
30
0
41
1
10
76.9543856612802
20
-2.74097887473257
30
0
41
1
10
76.8886262867158
20
-2.70870875296947
30
0
41
1
10
76.837083919613
20
-2.68058776386297
30
0
41
1
10
76.7886200413974
20
-2.6734775811675
30
0
0
SPLINE
5
206
100
AcDbEntity
8
1
62
256
6
ByLayer
370
25
48
1
60
0
100
AcDbSpline
70
4
71
3
72
24
73
20
40
0
40
0
40
0
40
0
40
0.0119031503547229
40
0.0238401798564443
40
0.0387831112347602
40
0.101338124030234
40
0.152373889864193
40
0.20346936750389
40
0.275184429143572
40
0.472106106166425
40
0.528033405732758
40
0.584012152859777
40
0.589681861334854
40
0.595375330633003
40
0.602245287161881
40
0.614195372691569
40
0.65297313012841
40
0.834604657952006
40
1
40
1
40
1
40
1
41
1
10
88.071255754269
20
-4.29734569379658
30
0
41
1
10
88.0706285169398
20
-4.29467955843613
30
0
41
1
10
88.0703139301725
20
-4.28945099582123
30
0
41
1
10
88.0730408614324
20
-4.28071170784506
30
0
41
1
10
88.086421242913
20
-4.26459697236386
30
0
41
1
10
88.1089303937396
20
-4.24448399780022
30
0
41
1
10
88.1238540989318
20
-4.20805733015849
30
0
41
1
10
88.1259065234829
20
-4.16714558212337
30
0
41
1
10
88.1032049928715
20
-4.09507446031777
30
0
41
1
10
88.0526681634515
20
-4.03660364055236
30
0
41
1
10
88.0102591151329
20
-3.98028797877122
30
0
41
1
10
87.9874011099228
20
-3.9615644595764
30
0
41
1
10
87.9842452941024
20
-3.94601538039076
30
0
41
1
10
87.9851378778395
20
-3.94180661659971
30
0
41
1
10
87.9882012623308
20
-3.93702722074659
30
0
41
1
10
87.9986459681112
20
-3.92887847823772
30
0
41
1
10
88.0491448642034
20
-3.91177915374833
30
0
41
1
10
88.1365752033231
20
-3.90432054493634
30
0
41
1
10
88.2141493511993
20
-3.89945507193121
30
0
41
1
10
88.2513584144443
20
-3.89972465206951
30
0
0
SPLINE
5
207
100
AcDbEntity
8
1
62
256
6
ByLayer
370
25
48
1
60
0
100
AcDbSpline
70
4
71
2
72
6
73
3
40
0
40
0
40
0
40
1
40
1
40
1
41
1
10
87.4496244416797
20
-4.65308332152371
30
0
41
1
10
87.456233924369
20
-4.55645829265231
30
0
41
1
10
87.4685411168236
20
-4.44810643154821
30
0
0
SPLINE
5
208
100
AcDbEntity
8
1
62
256
6
ByLayer
370
25
48
1
60
0
100
AcDbSpline
70
4
71
3
72
12
73
8
40
0
40
0
40
0
40
0
40
0.0572464911012857
40
0.116268749604175
40
0.24130012694535
40
0.494251404639103
40
1
40
1
40
1
40
1
41
1
10
88.0733219333886
20
-4.34174652936072
30
0
41
1
10
88.0739527883784
20
-4.35532501752904
30
0
41
1
10
88.0695524351999
20
-4.37971072623423
30
0
41
1
10
88.0263688917762
20
-4.41608720013051
30
0
41
1
10
87.9365575906323
20
-4.44777156249368
30
0
41
1
10
87.7442426094243
20
-4.4678546360146
30
0
41
1
10
87.5798924608348
20
-4.46506446967648
30
0
41
1
10
87.4685411168198
20
-4.44810643157889
30
0
0
SPLINE
5
209
100
AcDbEntity
8
1
62
256
6
ByLayer
370
25
48
1
60
0
100
AcDbSpline
70
4
71
2
72
6
73
3
40
0
40
0
40
0
40
1
40
1
40
1
41
1
10
88.0732662095282
20
-4.34174023877586
30
0
41
1
10
88.071060907852
20
-4.32902576085418
30
0
41
1
10
88.0724436845334
20
-4.31619429367208
30
0
0
SPLINE
5
20A
100
AcDbEntity
8
1
62
256
6
ByLayer
370
25
48
1
60
0
100
AcDbSpline
70
4
71
2
72
6
73
3
40
0
40
0
40
0
40
1
40
1
40
1
41
1
10
89.5578542867473
20
-4.86765594925648
30
0
41
1
10
89.4366561389957
20
-4.8565919209707
30
0
41
1
10
89.3154540619928
20
-4.84547069629977
30
0
0
SPLINE
5
20B
100
AcDbEntity
8
1
62
256
6
ByLayer
370
25
48
1
60
0
100
AcDbSpline
70
4
71
3
72
12
73
8
40
0
40
0
40
0
40
0
40
0.030657857918265
40
0.338645109178222
40
0.663320645598338
40
0.896405388951229
40
1
40
1
40
1
40
1
41
1
10
76.3656718449424
20
-2.53071118757369
30
0
41
1
10
76.3600547558583
20
-2.5301661508163
30
0
41
1
10
76.2980343884661
20
-2.52501376544046
30
0
41
1
10
76.174443494771
20
-2.55162438131552
30
0
41
1
10
76.0216368476565
20
-2.5841038397047
30
0
41
1
10
75.9129733129319
20
-2.61708883987661
30
0
41
1
10
75.8678236908657
20
-2.64544033935139
30
0
41
1
10
75.8545962518211
20
-2.65490794550987
30
0
0
SPLINE
5
20C
100
AcDbEntity
8
1
62
256
6
ByLayer
370
25
48
1
60
0
100
AcDbSpline
70
4
71
3
72
12
73
8
40
0
40
0
40
0
40
0
40
0.0621666511827221
40
0.522094858806463
40
0.826107838848678
40
0.970092821933808
40
1
40
1
40
1
40
1
41
1
10
88.8918429082247
20
-3.87071393681252
30
0
41
1
10
88.9069941706804
20
-3.87259312231758
30
0
41
1
10
89.0335964291665
20
-3.89022905727994
30
0
41
1
10
89.2270772411552
20
-3.96310983631454
30
0
41
1
10
89.4228815078469
20
-4.04569840802455
30
0
41
1
10
89.5204423495131
20
-4.08822252232133
30
0
41
1
10
89.546039268377
20
-4.11519205443094
30
0
41
1
10
89.550270962397
20
-4.12001469594292
30
0
0
SPLINE
5
20D
100
AcDbEntity
8
1
62
256
6
ByLayer
370
25
48
1
60
0
100
AcDbSpline
70
4
71
1
72
4
73
2
40
0
40
0
40
1
40
1
41
1
10
88.752844046776
20
-3.86991166879608
30
0
41
1
10
88.8918429082247
20
-3.87071393681252
30
0
0
SPLINE
5
20E
100
AcDbEntity
8
1
62
256
6
ByLayer
370
25
48
1
60
0
100
AcDbSpline
70
4
71
3
72
11
73
7
40
0
40
0
40
0
40
0
40
0.316521177481448
40
0.634343978130273
40
0.927816887143659
40
1
40
1
40
1
40
1
41
1
10
75.515654703502
20
-2.59461278337188
30
0
41
1
10
75.5051890654073
20
-2.58352948360864
30
0
41
1
10
75.4889238146109
20
-2.55698660038283
30
0
41
1
10
75.478507038893
20
-2.50326321627242
30
0
41
1
10
75.4812420939997
20
-2.45780180845134
30
0
41
1
10
75.4849534175464
20
-2.43350786979479
30
0
41
1
10
75.4857924542335
20
-2.4286799867671
30
0
0
SPLINE
5
20F
100
AcDbEntity
8
1
62
256
6
ByLayer
370
25
48
1
60
0
100
AcDbSpline
70
4
71
1
72
4
73
2
40
0
40
0
40
1
40
1
41
1
10
75.6144708058812
20
-2.70022787460212
30
0
41
1
10
75.6325388606237
20
-2.71578840225897
30
0
0
SPLINE
5
210
100
AcDbEntity
8
1
62
256
6
ByLayer
370
25
48
1
60
0
100
AcDbSpline
70
4
71
1
72
4
73
2
40
0
40
0
40
1
40
1
41
1
10
75.6922677620593
20
-2.736692837342
30
0
41
1
10
75.6325388625601
20
-2.71578840359491
30
0
0
SPLINE
5
211
100
AcDbEntity
8
1
62
256
6
ByLayer
370
25
48
1
60
0
100
AcDbSpline
70
4
71
2
72
6
73
3
40
0
40
0
40
0
40
1
40
1
40
1
41
1
10
89.7470574074818
20
-4.24022011508977
30
0
41
1
10
89.8115365923698
20
-4.24717837782072
30
0
41
1
10
89.8739289996915
20
-4.22564871807884
30
0
0
SPLINE
5
212
100
AcDbEntity
8
1
62
256
6
ByLayer
370
25
48
1
60
0
100
AcDbSpline
70
4
71
2
72
6
73
3
40
0
40
0
40
0
40
1
40
1
40
1
41
1
10
89.5744399731134
20
-4.15690140754444
30
0
41
1
10
89.6437532541893
20
-4.23424917842508
30
0
41
1
10
89.7470574074818
20
-4.24022011508977
30
0
0
SPLINE
5
213
100
AcDbEntity
8
1
62
256
6
ByLayer
370
25
48
1
60
0
100
AcDbSpline
70
4
71
1
72
4
73
2
40
0
40
0
40
1
40
1
41
1
10
89.5744399731366
20
-4.15690140751826
30
0
41
1
10
89.5606618508888
20
-4.13567713791892
30
0
0
SPLINE
5
214
100
AcDbEntity
8
1
62
256
6
ByLayer
370
25
48
1
60
0
100
AcDbSpline
70
4
71
2
72
6
73
3
40
0
40
0
40
0
40
1
40
1
40
1
41
1
10
90.049190119193
20
-4.14935502724257
30
0
41
1
10
89.9649484044024
20
-4.18954291572537
30
0
41
1
10
89.8739353903405
20
-4.22565107270837
30
0
0
SPLINE
5
215
100
AcDbEntity
8
1
62
256
6
ByLayer
370
25
48
1
60
0
100
AcDbSpline
70
4
71
3
72
12
73
8
40
0
40
0
40
0
40
0
40
0.263853101906832
40
0.471504858999367
40
0.680017402551294
40
0.870706487159898
40
1
40
1
40
1
40
1
41
1
10
90.0491898748019
20
-4.14935494788398
30
0
41
1
10
90.066869857373
20
-4.14152502742441
30
0
41
1
10
90.0944864017227
20
-4.12079111935601
30
0
41
1
10
90.1258496541741
20
-4.07304623088802
30
0
41
1
10
90.1425714013497
20
-4.0175862739503
30
0
41
1
10
90.1480472911886
20
-3.96495108315948
30
0
41
1
10
90.1481444966122
20
-3.9346872723242
30
0
41
1
10
90.1475856914741
20
-3.9224946122434
30
0
0
SPLINE
5
216
100
AcDbEntity
8
1
62
256
6
ByLayer
370
25
48
1
60
0
100
AcDbSpline
70
4
71
2
72
6
73
3
40
0
40
0
40
0
40
1
40
1
40
1
41
1
10
90.1475780704098
20
-3.92249440144119
30
0
41
1
10
90.1470916846364
20
-3.9097618820167
30
0
41
1
10
90.1474000004272
20
-3.89701739761408
30
0
0
SPLINE
5
217
100
AcDbEntity
8
1
62
256
6
ByLayer
370
25
48
1
60
0
100
AcDbSpline
70
4
71
2
72
6
73
3
40
0
40
0
40
0
40
1
40
1
40
1
41
1
10
90.5571759937041
20
-3.62089190719209
30
0
41
1
10
90.5538480418966
20
-3.61073549174377
30
0
41
1
10
90.5511501621259
20
-3.60048798205559
30
0
0
SPLINE
5
218
100
AcDbEntity
8
1
62
256
6
ByLayer
370
25
48
1
60
0
100
AcDbSpline
70
4
71
3
72
10
73
6
40
0
40
0
40
0
40
0
40
0.408117969973681
40
0.813146556221999
40
1
40
1
40
1
40
1
41
1
10
90.5571815108757
20
-3.62089166339097
30
0
41
1
10
90.5643243473719
20
-3.63946036133342
30
0
41
1
10
90.5811447765403
20
-3.66946445170782
30
0
41
1
10
90.611348393496
20
-3.68904852926625
30
0
41
1
10
90.6292123379974
20
-3.69341433671836
30
0
41
1
10
90.6350171405879
20
-3.69406299476489
30
0
0
SPLINE
5
219
100
AcDbEntity
8
1
62
256
6
ByLayer
370
25
48
1
60
0
100
AcDbSpline
70
4
71
3
72
12
73
8
40
0
40
0
40
0
40
0
40
0.213053726172865
40
0.426266412127645
40
0.638662715292426
40
0.868581408789572
40
1
40
1
40
1
40
1
41
1
10
90.752728456722
20
-3.58347171506629
30
0
41
1
10
90.7586332751061
20
-3.57413734388326
30
0
41
1
10
90.7677316954842
20
-3.55129727862817
30
0
41
1
10
90.7724111917253
20
-3.50214167766102
30
0
41
1
10
90.7705351422325
20
-3.44391798043798
30
0
41
1
10
90.7659378255124
20
-3.39042491656239
30
0
41
1
10
90.7631680087782
20
-3.35858281325
30
0
41
1
10
90.7620925628289
20
-3.34708412833864
30
0
0
SPLINE
5
21A
100
AcDbEntity
8
1
62
256
6
ByLayer
370
25
48
1
60
0
100
AcDbSpline
70
4
71
2
72
6
73
3
40
0
40
0
40
0
40
1
40
1
40
1
41
1
10
90.762084553986
20
-3.34708414546637
30
0
41
1
10
90.7609673015762
20
-3.3342903368174
30
0
41
1
10
90.7604864333734
20
-3.32145523003211
30
0
0
SPLINE
5
21B
100
AcDbEntity
8
1
62
256
6
ByLayer
370
25
48
1
60
0
100
AcDbSpline
70
4
71
2
72
6
73
3
40
0
40
0
40
0
40
1
40
1
40
1
41
1
10
90.8661568131045
20
-3.01279767946168
30
0
41
1
10
90.8642869632067
20
-3.00277120392602
30
0
41
1
10
90.8630212928078
20
-2.99270294882701
30
0
0
SPLINE
5
21C
100
AcDbEntity
8
1
62
256
6
ByLayer
370
25
48
1
60
0
100
AcDbSpline
70
4
71
3
72
10
73
6
40
0
40
0
40
0
40
0
40
0.440395515878316
40
0.879951154659446
40
1
40
1
40
1
40
1
41
1
10
90.8661630522583
20
-3.01279767979891
30
0
41
1
10
90.8703045730125
20
-3.03174866525946
30
0
41
1
10
90.8793302032047
20
-3.06167316810327
30
0
41
1
10
90.8940014271693
20
-3.07901607245199
30
0
41
1
10
90.900887162045
20
-3.08132918253692
30
0
41
1
10
90.9023619902801
20
-3.08151480504821
30
0
0
SPLINE
5
21D
100
AcDbEntity
8
1
62
256
6
ByLayer
370
25
48
1
60
0
100
AcDbSpline
70
4
71
3
72
12
73
8
40
0
40
0
40
0
40
0
40
0.212723127156986
40
0.424609556878186
40
0.663904594156994
40
0.930411664865093
40
1
40
1
40
1
40
1
41
1
10
90.9099785771301
20
-2.95914353850436
30
0
41
1
10
90.9084812495925
20
-2.94802082260407
30
0
41
1
10
90.9036003133294
20
-2.92242178940536
30
0
41
1
10
90.8880623518848
20
-2.86934761226792
30
0
41
1
10
90.8690880323741
20
-2.80542337797108
30
0
41
1
10
90.8556968712074
20
-2.75140873885081
30
0
41
1
10
90.8504890573167
20
-2.72146674984908
30
0
41
1
10
90.8494866890421
20
-2.71528540303446
30
0
0
SPLINE
5
21E
100
AcDbEntity
8
1
62
256
6
ByLayer
370
25
48
1
60
0
100
AcDbSpline
70
4
71
2
72
6
73
3
40
0
40
0
40
0
40
1
40
1
40
1
41
1
10
90.8494806061357
20
-2.71528562339808
30
0
41
1
10
90.8474370771783
20
-2.70240945906929
30
0
41
1
10
90.8459970547188
20
-2.68945501176548
30
0
0
SPLINE
5
21F
100
AcDbEntity
8
1
62
256
6
ByLayer
370
25
48
1
60
0
100
AcDbSpline
70
4
71
2
72
6
73
3
40
0
40
0
40
0
40
1
40
1
40
1
41
1
10
91.250102112552
20
-2.67270281945754
30
0
41
1
10
91.3969119491284
20
-3.01585171055576
30
0
41
1
10
91.4605899623876
20
-3.35646105303317
30
0
0
SPLINE
5
220
100
AcDbEntity
8
1
62
256
6
ByLayer
370
25
48
1
60
0
100
AcDbSpline
70
4
71
3
72
10
73
6
40
0
40
0
40
0
40
0
40
0.497018893459542
40
0.74833506628417
40
1
40
1
40
1
40
1
41
1
10
91.1753436474535
20
-2.54596078936126
30
0
41
1
10
91.1920168447378
20
-2.56669751641713
30
0
41
1
10
91.2139294121086
20
-2.59811326903614
30
0
41
1
10
91.235455601078
20
-2.64061923107759
30
0
41
1
10
91.2454555060234
20
-2.66199402396487
30
0
41
1
10
91.2501021125576
20
-2.67270281945787
30
0
0
SPLINE
5
221
100
AcDbEntity
8
1
62
256
6
ByLayer
370
25
48
1
60
0
100
AcDbSpline
70
4
71
3
72
15
73
11
40
0
40
0
40
0
40
0
40
0.112425674262107
40
0.45226385750875
40
0.718663145697978
40
0.789640689460842
40
0.836831225837908
40
0.884057410126267
40
0.931794677633106
40
1
40
1
40
1
40
1
41
1
10
90.1471460494744
20
-3.87825946943047
30
0
41
1
10
90.1485068270956
20
-3.86129395856278
30
0
41
1
10
90.1511280275693
20
-3.79324967038672
30
0
41
1
10
90.132503682282
20
-3.68356525320541
30
0
41
1
10
90.0995711045173
20
-3.5866724795354
30
0
41
1
10
90.0802916983809
20
-3.5309246418423
30
0
41
1
10
90.0785193996121
20
-3.50590686322748
30
0
41
1
10
90.082575502472
20
-3.48662417673534
30
0
41
1
10
90.0922952764004
20
-3.46917581751585
30
0
41
1
10
90.1013546496306
20
-3.46073401985562
30
0
41
1
10
90.1076551176266
20
-3.45714804042608
30
0
0
SPLINE
5
222
100
AcDbEntity
8
1
62
256
6
ByLayer
370
25
48
1
60
0
100
AcDbSpline
70
4
71
2
72
6
73
3
40
0
40
0
40
0
40
1
40
1
40
1
41
1
10
90.2156847658383
20
-3.38524625918731
30
0
41
1
10
90.1641474623462
20
-3.4223268188607
30
0
41
1
10
90.10766155043
20
-3.45715008810984
30
0
0
SPLINE
5
223
100
AcDbEntity
8
1
62
256
6
ByLayer
370
25
48
1
60
0
100
AcDbSpline
70
4
71
1
72
4
73
2
40
0
40
0
40
1
40
1
41
1
10
90.2572550581348
20
-3.37563192738565
30
0
41
1
10
90.2353969948235
20
-3.37656282015369
30
0
0
SPLINE
5
224
100
AcDbEntity
8
1
62
256
6
ByLayer
370
25
48
1
60
0
100
AcDbSpline
70
4
71
1
72
4
73
2
40
0
40
0
40
1
40
1
41
1
10
90.2353969948235
20
-3.37656282015369
30
0
41
1
10
90.2156842498995
20
-3.38524606075632
30
0
0
SPLINE
5
225
100
AcDbEntity
8
1
62
256
6
ByLayer
370
25
48
1
60
0
100
AcDbSpline
70
4
71
3
72
12
73
8
40
0
40
0
40
0
40
0
40
0.100831804513669
40
0.529281174527139
40
0.820794449194403
40
0.955440677798634
40
1
40
1
40
1
40
1
41
1
10
90.5465912019386
20
-3.58545260893544
30
0
41
1
10
90.5410770293838
20
-3.57548458994184
30
0
41
1
10
90.5095725981506
20
-3.52471540427139
30
0
41
1
10
90.4260885404265
20
-3.46915100775002
30
0
41
1
10
90.333783362633
20
-3.41082384721014
30
0
41
1
10
90.2815603634734
20
-3.37989674060172
30
0
41
1
10
90.2620882057343
20
-3.37624741306005
30
0
41
1
10
90.2572550581348
20
-3.37563192738565
30
0
0
SPLINE
5
226
100
AcDbEntity
8
1
62
256
6
ByLayer
370
25
48
1
60
0
100
AcDbSpline
70
4
71
2
72
6
73
3
40
0
40
0
40
0
40
1
40
1
40
1
41
1
10
90.6350171405879
20
-3.69406299476489
30
0
41
1
10
90.6655423401654
20
-3.69797644261817
30
0
41
1
10
90.6885336686108
20
-3.67164856919104
30
0
0
SPLINE
5
227
100
AcDbEntity
8
1
62
256
6
ByLayer
370
25
48
1
60
0
100
AcDbSpline
70
4
71
3
72
12
73
8
40
0
40
0
40
0
40
0
40
0.279148494460739
40
0.499327992580592
40
0.750511696084088
40
0.876132109739631
40
1
40
1
40
1
40
1
41
1
10
90.7592072204668
20
-3.30258806706861
30
0
41
1
10
90.7560968024518
20
-3.25899853595445
30
0
41
1
10
90.7438867520159
20
-3.18294564932441
30
0
41
1
10
90.7030171305816
20
-3.07241590787064
30
0
41
1
10
90.6650059750014
20
-2.99071166846786
30
0
41
1
10
90.6351781835231
20
-2.91315626495879
30
0
41
1
10
90.6365739654496
20
-2.88527442273096
30
0
41
1
10
90.6399885003658
20
-2.87295025672905
30
0
0
SPLINE
5
228
100
AcDbEntity
8
1
62
256
6
ByLayer
370
25
48
1
60
0
100
AcDbSpline
70
4
71
2
72
6
73
3
40
0
40
0
40
0
40
1
40
1
40
1
41
1
10
91.925235237204
20
-5.88394988755604
30
0
41
1
10
91.9930803353052
20
-6.24676884074715
30
0
41
1
10
92.0054585689201
20
-6.60449981191435
30
0
0
SPLINE
5
229
100
AcDbEntity
8
1
62
256
6
ByLayer
370
25
48
1
60
0
100
AcDbSpline
70
4
71
2
72
6
73
3
40
0
40
0
40
0
40
1
40
1
40
1
41
1
10
91.4605899623876
20
-3.35646105303317
30
0
41
1
10
91.5250060043342
20
-3.69207563970528
30
0
41
1
10
91.4924178670464
20
-4.01886346698954
30
0
0
SPLINE
5
22A
100
AcDbEntity
8
1
62
256
6
ByLayer
370
25
48
1
60
0
100
AcDbSpline
70
4
71
3
72
10
73
6
40
0
40
0
40
0
40
0
40
0.229804161072638
40
0.585505711457822
40
1
40
1
40
1
40
1
41
1
10
91.9275452735098
20
-5.89639625133558
30
0
41
1
10
91.890644068769
20
-5.69769211535521
30
0
41
1
10
91.7971053965871
20
-5.1928457939013
30
0
41
1
10
91.6396333227675
20
-4.33808080482486
30
0
41
1
10
91.5201370763401
20
-3.68385924181643
30
0
41
1
10
91.4563941809542
20
-3.33328671783118
30
0
0
SPLINE
5
22B
100
AcDbEntity
8
1
62
256
6
ByLayer
370
25
48
1
60
0
100
AcDbSpline
70
4
71
3
72
12
73
8
40
0
40
0
40
0
40
0
40
0.0127765067315073
40
0.154652562838233
40
0.437386350414054
40
0.752583975134402
40
1
40
1
40
1
40
1
41
1
10
90.6821753206434
20
-2.77993717513222
30
0
41
1
10
90.6828865255174
20
-2.78002525640596
30
0
41
1
10
90.6916058529041
20
-2.78144077992598
30
0
41
1
10
90.7234706369019
20
-2.80741698752949
30
0
41
1
10
90.7776399419138
20
-2.85620373094741
30
0
41
1
10
90.8333478778411
20
-2.91243006756356
30
0
41
1
10
90.8538929508314
20
-2.95724952270675
30
0
41
1
10
90.8606097613861
20
-2.97789731150926
30
0
0
SPLINE
5
22C
100
AcDbEntity
8
1
62
256
6
ByLayer
370
25
48
1
60
0
100
AcDbSpline
70
4
71
1
72
4
73
2
40
0
40
0
40
1
40
1
41
1
10
90.6668761238488
20
-2.79236517319663
30
0
41
1
10
90.6821753206434
20
-2.77993717513223
30
0
0
SPLINE
5
22D
100
AcDbEntity
8
1
62
256
6
ByLayer
370
25
48
1
60
0
100
AcDbSpline
70
4
71
1
72
4
73
2
40
0
40
0
40
1
40
1
41
1
10
90.9117330650181
20
-3.0755850873725
30
0
41
1
10
90.9152459421414
20
-3.05475086930368
30
0
0
SPLINE
5
22E
100
AcDbEntity
8
1
62
256
6
ByLayer
370
25
48
1
60
0
100
AcDbSpline
70
4
71
3
72
11
73
7
40
0
40
0
40
0
40
0
40
0.347078030127346
40
0.620988997894188
40
0.933178646831343
40
1
40
1
40
1
40
1
41
1
10
90.8433293356939
20
-2.67043921097114
30
0
41
1
10
90.8331026134448
20
-2.62451037645513
30
0
41
1
10
90.8082580397536
20
-2.54502378139332
30
0
41
1
10
90.7483708385082
20
-2.4339839314107
30
0
41
1
10
90.7022554158012
20
-2.35930332655574
30
0
41
1
10
90.6762052348826
20
-2.31538137309619
30
0
41
1
10
90.6716025197275
20
-2.30764387063278
30
0
0
SPLINE
5
22F
100
AcDbEntity
8
1
62
256
6
ByLayer
370
25
48
1
60
0
100
AcDbSpline
70
4
71
3
72
10
73
6
40
0
40
0
40
0
40
0
40
0.147008193006449
40
0.666460874746079
40
1
40
1
40
1
40
1
41
1
10
90.8380621788918
20
-2.64479156249899
30
0
41
1
10
90.8335278743755
20
-2.62501896746349
30
0
41
1
10
90.8107194569907
20
-2.53523703259091
30
0
41
1
10
90.7615671221597
20
-2.39994785162447
30
0
41
1
10
90.7023677147693
20
-2.282928153749
30
0
41
1
10
90.6766347873509
20
-2.23698062787405
30
0
0
SPLINE
5
230
100
AcDbEntity
8
1
62
256
6
ByLayer
370
25
48
1
60
0
100
AcDbSpline
70
4
71
3
72
12
73
8
40
0
40
0
40
0
40
0
40
0.0633880296714074
40
0.286000988160509
40
0.511590094520434
40
0.751639968867297
40
1
40
1
40
1
40
1
41
1
10
83.3996214433542
20
10.5388829312402
30
0
41
1
10
83.3995528527348
20
10.5473680685184
30
0
41
1
10
83.3977776713543
20
10.5852708253106
30
0
41
1
10
83.3819381911774
20
10.6524938612284
30
0
41
1
10
83.3379501104729
20
10.7296636235619
30
0
41
1
10
83.2739996765686
20
10.7894644039019
30
0
41
1
10
83.2247041923775
20
10.813250721054
30
0
41
1
10
83.1975549687304
20
10.8211396879783
30
0
0
SPLINE
5
231
100
AcDbEntity
8
1
62
256
6
ByLayer
370
25
48
1
60
0
100
AcDbSpline
70
4
71
3
72
13
73
9
40
0
40
0
40
0
40
0
40
0.212275563556791
40
0.386387565009909
40
0.561520404343323
40
0.714816161336362
40
0.917450739141728
40
1
40
1
40
1
40
1
41
1
10
82.7121902093869
20
11.6580947935967
30
0
41
1
10
82.6981647804197
20
11.5879829436367
30
0
41
1
10
82.6936931153312
20
11.4581169111071
30
0
41
1
10
82.7406694800171
20
11.2552502730735
30
0
41
1
10
82.8317705605793
20
11.0835917329697
30
0
41
1
10
82.9625934852807
20
10.9386295897753
30
0
41
1
10
83.088536684776
20
10.8593449414867
30
0
41
1
10
83.1727430865694
20
10.8283656966612
30
0
41
1
10
83.1975549687304
20
10.8211396879783
30
0
0
SPLINE
5
232
100
AcDbEntity
8
1
62
256
6
ByLayer
370
25
48
1
60
0
100
AcDbSpline
70
4
71
3
72
11
73
7
40
0
40
0
40
0
40
0
40
0.284186472106436
40
0.569985996508075
40
0.828961317192133
40
1
40
1
40
1
40
1
41
1
10
82.7121902093869
20
11.6580947935967
30
0
41
1
10
82.7188002902814
20
11.6917373327808
30
0
41
1
10
82.7198753058269
20
11.7587722627846
30
0
41
1
10
82.6869051083401
20
11.8614722145768
30
0
41
1
10
82.6274560449905
20
11.9384032524875
30
0
41
1
10
82.5817557882587
20
11.9719751653882
30
0
41
1
10
82.5617187676237
20
11.9837486924303
30
0
0
SPLINE
5
233
100
AcDbEntity
8
1
62
256
6
ByLayer
370
25
48
1
60
0
100
AcDbSpline
70
4
71
3
72
12
73
8
40
0
40
0
40
0
40
0
40
0.0573009716925837
40
0.280031064926654
40
0.505395285878054
40
0.744943740650593
40
1
40
1
40
1
40
1
41
1
10
82.5827070640388
20
9.0850170061484
30
0
41
1
10
82.5892497633914
20
9.08890805210113
30
0
41
1
10
82.6203211351627
20
9.10897238346384
30
0
41
1
10
82.6701552491242
20
9.15639060428516
30
0
41
1
10
82.7159100058647
20
9.23568963541009
30
0
41
1
10
82.7375799092537
20
9.32611213159704
30
0
41
1
10
82.7347357193824
20
9.385064509642
30
0
41
1
10
82.7284287053517
20
9.41536666261411
30
0
0
SPLINE
5
234
100
AcDbEntity
8
1
62
256
6
ByLayer
370
25
48
1
60
0
100
AcDbSpline
70
4
71
3
72
13
73
9
40
0
40
0
40
0
40
0
40
0.212275459580111
40
0.386387479228188
40
0.561520337419872
40
0.714816097899348
40
0.917450657562086
40
1
40
1
40
1
40
1
41
1
10
83.2016357526681
20
10.2575352166587
30
0
41
1
10
83.1364286965115
20
10.2393442398969
30
0
41
1
10
83.0257576772639
20
10.1851865139504
30
0
41
1
10
82.878517027671
20
10.0498893387513
30
0
41
1
10
82.7775862331008
20
9.88541915117035
30
0
41
1
10
82.7171246059952
20
9.69393765465274
30
0
41
1
10
82.7093678289662
20
9.53685569200432
30
0
41
1
10
82.7228529196681
20
9.44233405577245
30
0
41
1
10
82.7284287053517
20
9.41536666261411
30
0
0
SPLINE
5
235
100
AcDbEntity
8
1
62
256
6
ByLayer
370
25
48
1
60
0
100
AcDbSpline
70
4
71
3
72
11
73
7
40
0
40
0
40
0
40
0
40
0.284186181053548
40
0.569985742254231
40
0.828961092406594
40
1
40
1
40
1
40
1
41
1
10
83.201635752668
20
10.2575352166587
30
0
41
1
10
83.2329161386814
20
10.2664902458846
30
0
41
1
10
83.2893395152557
20
10.2953284136965
30
0
41
1
10
83.3589316001244
20
10.3710884380214
30
0
41
1
10
83.3940235086278
20
10.459252915702
30
0
41
1
10
83.3996262514667
20
10.5155300462145
30
0
41
1
10
83.3996214433542
20
10.5388829312402
30
0
0
SPLINE
5
236
100
AcDbEntity
8
1
62
256
6
ByLayer
370
25
48
1
60
0
100
AcDbSpline
70
4
71
3
72
10
73
6
40
0
40
0
40
0
40
0
40
0.0749009908292445
40
0.521040798174903
40
1
40
1
40
1
40
1
41
1
10
82.3872973206051
20
12.0209121896334
30
0
41
1
10
82.3824071684988
20
12.0203274212468
30
0
41
1
10
82.3488019900531
20
12.0154460936041
30
0
41
1
10
82.2877338552838
20
11.9933658290974
30
0
41
1
10
82.2442807405435
20
11.9586530608498
30
0
41
1
10
82.2246327961659
20
11.9362764580095
30
0
0
SPLINE
5
237
100
AcDbEntity
8
1
62
256
6
ByLayer
370
25
48
1
60
0
100
AcDbSpline
70
4
71
3
72
10
73
6
40
0
40
0
40
0
40
0
40
0.134383910557248
40
0.606326340617241
40
1
40
1
40
1
40
1
41
1
10
82.5617187676237
20
11.9837486924303
30
0
41
1
10
82.5544068387032
20
11.9879656945719
30
0
41
1
10
82.5210980656914
20
12.0054467193567
30
0
41
1
10
82.4607688115582
20
12.0231721055278
30
0
41
1
10
82.4104270414826
20
12.0236728185768
30
0
41
1
10
82.3872973206051
20
12.0209121896334
30
0
0
SPLINE
5
238
100
AcDbEntity
8
1
62
256
6
ByLayer
370
25
48
1
60
0
100
AcDbSpline
70
4
71
3
72
10
73
6
40
0
40
0
40
0
40
0
40
0.420489505399811
40
0.841816614128227
40
1
40
1
40
1
40
1
41
1
10
81.8451075479306
20
11.7377936227282
30
0
41
1
10
81.9127458477699
20
11.747934050263
30
0
41
1
10
82.0358357273579
20
11.7826492282343
30
0
41
1
10
82.1547254691878
20
11.8638337831519
30
0
41
1
10
82.2103607228168
20
11.9200395549494
30
0
41
1
10
82.2246327961661
20
11.9362764580093
30
0
0
SPLINE
5
239
100
AcDbEntity
8
1
62
256
6
ByLayer
370
25
48
1
60
0
100
AcDbSpline
70
4
71
3
72
10
73
6
40
0
40
0
40
0
40
0
40
0.494848865875511
40
0.898966292198748
40
1
40
1
40
1
40
1
41
1
10
81.2567572689059
20
11.9310124088173
30
0
41
1
10
81.313032506154
20
11.8789299722938
30
0
41
1
10
81.4265905739084
20
11.8030791851346
30
0
41
1
10
81.5826092054919
20
11.7507692574194
30
0
41
1
10
81.6636183968425
20
11.7388054060529
30
0
41
1
10
81.6800194768519
20
11.7368957472239
30
0
0
SPLINE
5
23A
100
AcDbEntity
8
1
62
256
6
ByLayer
370
25
48
1
60
0
100
AcDbSpline
70
4
71
3
72
10
73
6
40
0
40
0
40
0
40
0
40
0.405308285174436
40
0.813224381337241
40
1
40
1
40
1
40
1
41
1
10
81.2567572689059
20
11.9310124088173
30
0
41
1
10
81.2298495759669
20
11.9557183500851
30
0
41
1
10
81.1706286746818
20
11.9939716968129
30
0
41
1
10
81.0787341696018
20
12.0170185248085
30
0
41
1
10
81.0238138970146
20
12.0151728909733
30
0
41
1
10
81.0062162701324
20
12.0132646081316
30
0
0
SPLINE
5
23B
100
AcDbEntity
8
1
62
256
6
ByLayer
370
25
48
1
60
0
100
AcDbSpline
70
4
71
2
72
6
73
3
40
0
40
0
40
0
40
1
40
1
40
1
41
1
10
82.4703954210403
20
9.04677142981122
30
0
41
1
10
82.52902278995
20
9.05352547268423
30
0
41
1
10
82.5827070640388
20
9.0850170061484
30
0
0
SPLINE
5
23C
100
AcDbEntity
8
1
62
256
6
ByLayer
370
25
48
1
60
0
100
AcDbSpline
70
4
71
3
72
10
73
6
40
0
40
0
40
0
40
0
40
0.405308285174452
40
0.81322438133726
40
1
40
1
40
1
40
1
41
1
10
82.2449375292918
20
9.13195293743226
30
0
41
1
10
82.2672305282807
20
9.10670807324287
30
0
41
1
10
82.318231376331
20
9.0674947549215
30
0
41
1
10
82.4019522005674
20
9.04349337089065
30
0
41
1
10
82.4536720493328
20
9.0449652460812
30
0
41
1
10
82.4703954210403
20
9.04677142981122
30
0
0
SPLINE
5
23D
100
AcDbEntity
8
1
62
256
6
ByLayer
370
25
48
1
60
0
100
AcDbSpline
70
4
71
3
72
10
73
6
40
0
40
0
40
0
40
0
40
0.134383910557374
40
0.606326340617201
40
1
40
1
40
1
40
1
41
1
10
80.9118286608309
20
9.07592948832103
30
0
41
1
10
80.91914121176
20
9.07171255882009
30
0
41
1
10
80.9526446845301
20
9.05425427187322
30
0
41
1
10
81.0148381345341
20
9.03674659415594
30
0
41
1
10
81.0683754307668
20
9.03661906778222
30
0
41
1
10
81.0933093492004
20
9.03959039832981
30
0
0
SPLINE
5
23E
100
AcDbEntity
8
1
62
256
6
ByLayer
370
25
48
1
60
0
100
AcDbSpline
70
4
71
3
72
10
73
6
40
0
40
0
40
0
40
0
40
0.420489505399735
40
0.841816614128116
40
1
40
1
40
1
40
1
41
1
10
81.6974470392274
20
9.329943497572
30
0
41
1
10
81.6273135181692
20
9.3195116678503
30
0
41
1
10
81.49667346209
20
9.28391474924404
30
0
41
1
10
81.3607346536097
20
9.20073913426733
30
0
41
1
10
81.2943931915585
20
9.14328304745735
30
0
41
1
10
81.2770620020318
20
9.12668888824008
30
0
0
SPLINE
5
23F
100
AcDbEntity
8
1
62
256
6
ByLayer
370
25
48
1
60
0
100
AcDbSpline
70
4
71
3
72
10
73
6
40
0
40
0
40
0
40
0
40
0.494848865875523
40
0.898966292198781
40
1
40
1
40
1
40
1
41
1
10
82.2449375292918
20
9.13195293743227
30
0
41
1
10
82.1988580650334
20
9.18522607822073
30
0
41
1
10
82.1004430304876
20
9.26284533102185
30
0
41
1
10
81.9566283298493
20
9.31658048393968
30
0
41
1
10
81.8784643292906
20
9.32887660837797
30
0
41
1
10
81.8625351103062
20
9.33084137307637
30
0
0
SPLINE
5
240
100
AcDbEntity
8
1
62
256
6
ByLayer
370
25
48
1
60
0
100
AcDbSpline
70
4
71
2
72
6
73
3
40
0
40
0
40
0
40
1
40
1
40
1
41
1
10
81.0062162701324
20
12.0132646081316
30
0
41
1
10
80.9445568105354
20
12.0061564652491
30
0
41
1
10
80.8908403644159
20
11.9746611746029
30
0
0
SPLINE
5
241
100
AcDbEntity
8
1
62
256
6
ByLayer
370
25
48
1
60
0
100
AcDbSpline
70
4
71
3
72
12
73
8
40
0
40
0
40
0
40
0
40
0.0573009716925634
40
0.280031064926649
40
0.505395285878041
40
0.744943740650585
40
1
40
1
40
1
40
1
41
1
10
80.8908403644159
20
11.9746611746029
30
0
41
1
10
80.8842981238403
20
11.9707701822281
30
0
41
1
10
80.8534006862858
20
11.9507261636179
30
0
41
1
10
80.8054725779102
20
11.9035305339608
30
0
41
1
10
80.7653952404272
20
11.8248945351857
30
0
41
1
10
80.7524184565853
20
11.7354872572202
30
0
41
1
10
80.7624313514771
20
11.6773720700042
30
0
41
1
10
80.7728238115071
20
11.6475470322033
30
0
0
SPLINE
5
242
100
AcDbEntity
8
1
62
256
6
ByLayer
370
25
48
1
60
0
100
AcDbSpline
70
4
71
3
72
10
73
6
40
0
40
0
40
0
40
0
40
0.0749009908291846
40
0.521040798174879
40
1
40
1
40
1
40
1
41
1
10
81.0933093492004
20
9.03959039832981
30
0
41
1
10
81.0985832139755
20
9.04021997825862
30
0
41
1
10
81.1349345740359
20
9.0454220162745
30
0
41
1
10
81.2025731184771
20
9.06826960022097
30
0
41
1
10
81.2532680674988
20
9.10382809963327
30
0
41
1
10
81.2770620020318
20
9.12668888824008
30
0
0
SPLINE
5
243
100
AcDbEntity
8
1
62
256
6
ByLayer
370
25
48
1
60
0
100
AcDbSpline
70
4
71
3
72
11
73
7
40
0
40
0
40
0
40
0
40
0.284186472106439
40
0.569985996508078
40
0.828961317192146
40
1
40
1
40
1
40
1
41
1
10
80.7890623074719
20
9.40481890122075
30
0
41
1
10
80.7778696506031
20
9.37064118998421
30
0
41
1
10
80.7686351215064
20
9.30265335845983
30
0
41
1
10
80.7921293065254
20
9.19884675899397
30
0
41
1
10
80.8468973593595
20
9.12136905344068
30
0
41
1
10
80.8918075179463
20
9.08770486963207
30
0
41
1
10
80.9118286608309
20
9.07592948832103
30
0
0
SPLINE
5
244
100
AcDbEntity
8
1
62
256
6
ByLayer
370
25
48
1
60
0
100
AcDbSpline
70
4
71
3
72
13
73
9
40
0
40
0
40
0
40
0
40
0.212275459580111
40
0.386387479228187
40
0.561520337419875
40
0.714816097899352
40
0.917450657562088
40
1
40
1
40
1
40
1
41
1
10
80.2996167641907
20
10.8053784781587
30
0
41
1
10
80.3749197537238
20
10.8247484995051
30
0
41
1
10
80.5005977079855
20
10.8806587969873
30
0
41
1
10
80.6634032947934
20
11.0177737095118
30
0
41
1
10
80.76625994468
20
11.1824688063901
30
0
41
1
10
80.8162630862635
20
11.3727289179937
30
0
41
1
10
80.8076621476528
20
11.5279005593947
30
0
41
1
10
80.7821044305231
20
11.621012304705
30
0
41
1
10
80.7728238115071
20
11.6475470322033
30
0
0
SPLINE
5
245
100
AcDbEntity
8
1
62
256
6
ByLayer
370
25
48
1
60
0
100
AcDbSpline
70
4
71
3
72
11
73
7
40
0
40
0
40
0
40
0
40
0.284186181053569
40
0.569985742254233
40
0.828961092406599
40
1
40
1
40
1
40
1
41
1
10
80.2996167641907
20
10.8053784781587
30
0
41
1
10
80.2637538071653
20
10.7958882774599
30
0
41
1
10
80.1991709198504
20
10.7660972084556
30
0
41
1
10
80.1201028217374
20
10.6892305363664
30
0
41
1
10
80.0803298972821
20
10.6005193904084
30
0
41
1
10
80.0739370548075
20
10.5441499888138
30
0
41
1
10
80.0739259851005
20
10.5207952495111
30
0
0
SPLINE
5
246
100
AcDbEntity
8
1
62
256
6
ByLayer
370
25
48
1
60
0
100
AcDbSpline
70
4
71
3
72
12
73
8
40
0
40
0
40
0
40
0
40
0.0633880296714113
40
0.286000988160506
40
0.51159009452044
40
0.75163996886729
40
1
40
1
40
1
40
1
41
1
10
80.0739259851005
20
10.5207952495111
30
0
41
1
10
80.0739951977222
20
10.512310184873
30
0
41
1
10
80.0759668534555
20
10.474430373163
30
0
41
1
10
80.0938027152742
20
10.4074404828966
30
0
41
1
10
80.1435501407382
20
10.3309433205096
30
0
41
1
10
80.2161844058257
20
10.2721566736578
30
0
41
1
10
80.2725747326379
20
10.2491989213802
30
0
41
1
10
80.3036975481284
20
10.2417740068392
30
0
0
SPLINE
5
247
100
AcDbEntity
8
1
62
256
6
ByLayer
370
25
48
1
60
0
100
AcDbSpline
70
4
71
3
72
13
73
9
40
0
40
0
40
0
40
0
40
0.212275563556791
40
0.386387565009911
40
0.561520404343329
40
0.714816161336363
40
0.917450739141737
40
1
40
1
40
1
40
1
41
1
10
80.7890623074719
20
9.40481890122075
30
0
41
1
10
80.813183675386
20
9.47610979641592
30
0
41
1
10
80.8326622775862
20
9.60772840072603
30
0
41
1
10
80.8012508464798
20
9.81241277566055
30
0
41
1
10
80.7120756150531
20
9.98429622433983
30
0
41
1
10
80.5707942006509
20
10.1280369821322
30
0
41
1
10
80.4284932859346
20
10.2054113092222
30
0
41
1
10
80.3322142598667
20
10.2349806633777
30
0
41
1
10
80.3036975481284
20
10.2417740068392
30
0
0
SPLINE
5
248
100
AcDbEntity
8
1
62
256
6
ByLayer
370
25
48
1
60
0
100
AcDbSpline
70
4
71
1
72
4
73
2
40
0
40
0
40
1
40
1
41
1
10
91.7779526924849
20
10.7437469011665
30
0
41
1
10
91.141558084742
20
11.0537136155031
30
0
0
SPLINE
5
249
100
AcDbEntity
8
1
62
256
6
ByLayer
370
25
48
1
60
0
100
AcDbSpline
70
4
71
3
72
12
73
8
40
0
40
0
40
0
40
0
40
0.457102257519187
40
0.632905789324841
40
0.769711591295197
40
0.906559047551922
40
1
40
1
40
1
40
1
41
1
10
91.1415586533815
20
11.0537150997931
30
0
41
1
10
91.0955625795931
20
11.0682200716162
30
0
41
1
10
91.0439363258764
20
11.100735429266
30
0
41
1
10
90.9935754044046
20
11.1593080269283
30
0
41
1
10
90.9782108762733
20
11.2015257140765
30
0
41
1
10
90.9784365614549
20
11.2378001506148
30
0
41
1
10
90.9834694117199
20
11.2592057141228
30
0
41
1
10
90.9864305078855
20
11.2678097896998
30
0
0
SPLINE
5
24A
100
AcDbEntity
8
1
62
256
6
ByLayer
370
25
48
1
60
0
100
AcDbSpline
70
4
71
3
72
20
73
16
40
0
40
0
40
0
40
0
40
0.061124397646313
40
0.124886491868956
40
0.185969251881782
40
0.249875018560566
40
0.311750956284891
40
0.374933120445343
40
0.437799180461011
40
0.500005792507058
40
0.624824560774322
40
0.685592766158942
40
0.749926446397674
40
0.874949759095488
40
1
40
1
40
1
40
1
41
1
10
90.9864291145433
20
11.2678102879957
30
0
41
1
10
91.0248426579561
20
11.3889801679095
30
0
41
1
10
91.079149881155
20
11.639391130741
30
0
41
1
10
91.081521830161
20
12.0278623192477
30
0
41
1
10
91.0191073748358
20
12.4171363934166
30
0
41
1
10
90.900200403208
20
12.7909364026402
30
0
41
1
10
90.7336439253965
20
13.1516957972214
30
0
41
1
10
90.5270478051156
20
13.4895058542289
30
0
41
1
10
90.2842169042792
20
13.8037640599953
30
0
41
1
10
89.9167337925786
20
14.1818032199499
30
0
41
1
10
89.48907202139
20
14.4894175210511
30
0
41
1
10
89.0199682028726
20
14.7244936264356
30
0
41
1
10
88.5324572296924
20
14.9167505176664
30
0
41
1
10
87.8967091435149
20
15.0880566174338
30
0
41
1
10
87.3839569949925
20
15.1686417412664
30
0
41
1
10
87.1243623677824
20
15.1934983374858
30
0
0
SPLINE
5
24B
100
AcDbEntity
8
1
62
256
6
ByLayer
370
25
48
1
60
0
100
AcDbSpline
70
4
71
3
72
10
73
6
40
0
40
0
40
0
40
0
40
0.230950333434724
40
0.612410561907423
40
1
40
1
40
1
40
1
41
1
10
80.9215286144389
20
15.3778899418267
30
0
41
1
10
80.9320495429295
20
15.3735977624957
30
0
41
1
10
80.9602547839849
20
15.3636821949838
30
0
41
1
10
81.008522400472
20
15.3557219365185
30
0
41
1
10
81.0455575777364
20
15.3528106908521
30
0
41
1
10
81.0643881807656
20
15.3525580007593
30
0
0
SPLINE
5
24C
100
AcDbEntity
8
1
62
256
6
ByLayer
370
25
48
1
60
0
100
AcDbSpline
70
4
71
1
72
4
73
2
40
0
40
0
40
1
40
1
41
1
10
79.6288142842208
20
15.9374010426004
30
0
41
1
10
80.9215221037669
20
15.3778895857908
30
0
0
SPLINE
5
24D
100
AcDbEntity
8
1
62
256
6
ByLayer
370
25
48
1
60
0
100
AcDbSpline
70
4
71
2
72
6
73
3
40
0
40
0
40
0
40
1
40
1
40
1
41
1
10
88.9326145251694
20
15.9563110560784
30
0
41
1
10
84.2774573884114
20
16.0347302975657
30
0
41
1
10
79.6288180235527
20
15.9374007672912
30
0
0
SPLINE
5
24E
100
AcDbEntity
8
1
62
256
6
ByLayer
370
25
48
1
60
0
100
AcDbSpline
70
4
71
3
72
16
73
12
40
0
40
0
40
0
40
0
40
0.105088447026572
40
0.210169742745241
40
0.318207382430425
40
0.42623445329902
40
0.532402152941446
40
0.63855925667421
40
0.74252327796733
40
0.846482338170359
40
1
40
1
40
1
40
1
41
1
10
92.0054585689201
20
12.6870014239028
30
0
41
1
10
92.0095495549425
20
12.8610691426648
30
0
41
1
10
91.9899200564473
20
13.2055157212359
30
0
41
1
10
91.8759984401925
20
13.7226414253228
30
0
41
1
10
91.6748206067524
20
14.2193308439165
30
0
41
1
10
91.393505573467
20
14.6800243012528
30
0
41
1
10
91.0398895425814
20
15.0845533175836
30
0
41
1
10
90.6305374946003
20
15.4219084863771
30
0
41
1
10
90.174657331724
20
15.6823126329897
30
0
41
1
10
89.6083866100019
20
15.8916510237893
30
0
41
1
10
89.1897985971577
20
15.9514369293668
30
0
41
1
10
88.9326145397933
20
15.9563106368821
30
0
0
SPLINE
5
24F
100
AcDbEntity
8
1
62
256
6
ByLayer
370
25
48
1
60
0
100
AcDbSpline
70
4
71
3
72
10
73
6
40
0
40
0
40
0
40
0
40
0.358607685041846
40
0.678728527759997
40
1
40
1
40
1
40
1
41
1
10
91.7779810590003
20
10.7438069681615
30
0
41
1
10
91.8266023347872
20
10.972522355104
30
0
41
1
10
91.9040891431096
20
11.4078413197665
30
0
41
1
10
91.9784022909912
20
12.0573441203763
30
0
41
1
10
92.0006117689653
20
12.4763236903148
30
0
41
1
10
92.0054585689201
20
12.6870014239027
30
0
0
SPLINE
5
250
100
AcDbEntity
8
1
62
256
6
ByLayer
370
25
48
1
60
0
100
AcDbSpline
70
4
71
3
72
18
73
14
40
0
40
0
40
0
40
0
40
0.0146406175501566
40
0.0214316346382816
40
0.021438139608963
40
0.0214449700249065
40
0.0214647579782437
40
0.0214840158177112
40
0.0220656215784735
40
0.0267185826471543
40
0.101192630755303
40
0.399642268722686
40
1
40
1
40
1
40
1
41
1
10
90.082345951767
20
11.2471885223604
30
0
41
1
10
90.0869630855438
20
11.2466205480028
30
0
41
1
10
90.0937180271857
20
11.245781745027
30
0
41
1
10
90.1004694351062
20
11.2449319798794
30
0
41
1
10
90.1026117185203
20
11.2446611526659
30
0
41
1
10
90.1026221470955
20
11.2446598349099
30
0
41
1
10
90.1026365907201
20
11.2446580002843
30
0
41
1
10
90.1028319945854
20
11.2446331273452
30
0
41
1
10
90.1044860888634
20
11.2444229043639
30
0
41
1
10
90.1295807572407
20
11.2412611090616
30
0
41
1
10
90.248372653264
20
11.228226829394
30
0
41
1
10
90.5534597435502
20
11.2189165091619
30
0
41
1
10
90.8168848066308
20
11.2388856426972
30
0
41
1
10
90.9864261336351
20
11.2678045441264
30
0
0
SPLINE
5
251
100
AcDbEntity
8
1
62
256
6
ByLayer
370
25
48
1
60
0
100
AcDbSpline
70
4
71
3
72
15
73
11
40
0
40
0
40
0
40
0
40
0.124994469150169
40
0.250006096857978
40
0.374996576056436
40
0.499984072444541
40
0.624981869331197
40
0.749982430883799
40
0.874965937009906
40
1
40
1
40
1
40
1
41
1
10
90.0812407832601
20
11.2471496661601
30
0
41
1
10
90.0719413834353
20
11.432804703267
30
0
41
1
10
90.0206035965087
20
11.795269881717
30
0
41
1
10
89.8416521230805
20
12.3202638241852
30
0
41
1
10
89.5719516056524
20
12.8027855272364
30
0
41
1
10
89.2129261406695
20
13.2232113502352
30
0
41
1
10
88.7792551786003
20
13.5640930089184
30
0
41
1
10
88.2906674916281
20
13.8174451753185
30
0
41
1
10
87.7614526263305
20
13.9717095453459
30
0
41
1
10
87.4000278875514
20
14.0067104488693
30
0
41
1
10
87.2155883836314
20
14.0073931437923
30
0
0
SPLINE
5
252
100
AcDbEntity
8
1
62
256
6
ByLayer
370
25
48
1
60
0
100
AcDbSpline
70
4
71
3
72
11
73
7
40
0
40
0
40
0
40
0
40
0.249993332868945
40
0.499996743904079
40
0.750000003301491
40
1
40
1
40
1
40
1
41
1
10
87.1243621006611
20
15.193498354669
30
0
41
1
10
87.136770870948
20
15.12174603528
30
0
41
1
10
87.1593084279682
20
14.9631521310018
30
0
41
1
10
87.1868481500992
20
14.6748295174548
30
0
41
1
10
87.2063966762097
20
14.3515825661764
30
0
41
1
10
87.2134779669065
20
14.1254562087975
30
0
41
1
10
87.2155828050967
20
14.0086822472399
30
0
0
SPLINE
5
253
100
AcDbEntity
8
1
62
256
6
ByLayer
370
25
48
1
60
0
100
AcDbSpline
70
4
71
3
72
10
73
6
40
0
40
0
40
0
40
0
40
0.364121501396822
40
0.738906366009252
40
1
40
1
40
1
40
1
41
1
10
91.0650900058145
20
8.91919216086618
30
0
41
1
10
91.101655135731
20
9.00191439844089
30
0
41
1
10
91.1794843336948
20
9.17136630045332
30
0
41
1
10
91.2967767751425
20
9.40902578894023
30
0
41
1
10
91.3746572793824
20
9.55823753252816
30
0
41
1
10
91.4073942034985
20
9.61958667419309
30
0
0
SPLINE
5
254
100
AcDbEntity
8
1
62
256
6
ByLayer
370
25
48
1
60
0
100
AcDbSpline
70
4
71
2
72
6
73
3
40
0
40
0
40
0
40
1
40
1
40
1
41
1
10
91.0650957411256
20
8.91918991920866
30
0
41
1
10
90.832497595538
20
9.04878363813691
30
0
41
1
10
90.6206373898449
20
9.21246776300223
30
0
0
SPLINE
5
255
100
AcDbEntity
8
1
62
256
6
ByLayer
370
25
48
1
60
0
100
AcDbSpline
70
4
71
3
72
10
73
6
40
0
40
0
40
0
40
0
40
0.26149712622443
40
0.517168901950952
40
1
40
1
40
1
40
1
41
1
10
90.6205112394491
20
9.21258756849683
30
0
41
1
10
90.5782592402781
20
9.24478107362109
30
0
41
1
10
90.489739934784
20
9.2979477503078
30
0
41
1
10
90.2912990273688
20
9.35312316265398
30
0
41
1
10
90.1425198007374
20
9.36743181184318
30
0
41
1
10
90.0413778745776
20
9.36287063243024
30
0
0
SPLINE
5
256
100
AcDbEntity
8
1
62
256
6
ByLayer
370
25
48
1
60
0
100
AcDbSpline
70
4
71
3
72
18
73
14
40
0
40
0
40
0
40
0
40
0.508029648920777
40
0.943972226258492
40
0.944707724704216
40
0.944891506904101
40
0.944983494890574
40
0.945017184366385
40
0.945037862352391
40
0.945039484190318
40
0.945041767244477
40
0.972881767378944
40
1
40
1
40
1
40
1
41
1
10
90.0413778745776
20
9.36287063243024
30
0
41
1
10
89.9521635453793
20
9.35736849145409
30
0
41
1
10
89.7898970674532
20
9.366326680516
30
0
41
1
10
89.621572007391
20
9.38096694368975
30
0
41
1
10
89.5508920965218
20
9.40926112983058
30
0
41
1
10
89.550728557468
20
9.40932678854364
30
0
41
1
10
89.5506785006835
20
9.40934685386405
30
0
41
1
10
89.5506576116948
20
9.40935527841102
30
0
41
1
10
89.5506483194013
20
9.40935897596916
30
0
41
1
10
89.5506390227998
20
9.40936266285278
30
0
41
1
10
89.5461295822426
20
9.41114787109164
30
0
41
1
10
89.5372999422117
20
9.41486462801109
30
0
41
1
10
89.5286667306953
20
9.41896618317304
30
0
41
1
10
89.5244509302828
20
9.42108307254402
30
0
0
SPLINE
5
257
100
AcDbEntity
8
1
62
256
6
ByLayer
370
25
48
1
60
0
100
AcDbSpline
70
4
71
3
72
26
73
22
40
0
40
0
40
0
40
0
40
0.132796777562807
40
0.267749043516457
40
0.334640459326533
40
0.401061589263366
40
0.467267105009314
40
0.533349977632154
40
0.599703760673259
40
0.666432710931423
40
0.801038608471918
40
0.937824449408211
40
0.972372417500366
40
0.989708110208733
40
0.998396667930034
40
0.999483855206785
40
0.999755692523011
40
0.99989161729809
40
0.999959581218593
40
0.999993580592824
40
1
40
1
40
1
40
1
41
1
10
89.514818994015
20
9.42642943797352
30
0
41
1
10
89.4037293033698
20
9.48310552480051
30
0
41
1
10
89.20843264249
20
9.62346987505465
30
0
41
1
10
89.0166054862111
20
9.87121528902171
30
0
41
1
10
88.9305238959367
20
10.10168667012
30
0
41
1
10
88.9049146042547
20
10.2833851310682
30
0
41
1
10
88.9225021481323
20
10.4653861707469
30
0
41
1
10
88.984381789743
20
10.6372642650477
30
0
41
1
10
89.0866225775785
20
10.7887413464657
30
0
41
1
10
89.2666533702601
20
10.9546050268219
30
0
41
1
10
89.554293973307
20
11.0826076333607
30
0
41
1
10
89.8352838992831
20
11.1018074812561
30
0
41
1
10
90.0050075381178
20
11.0829173190572
30
0
41
1
10
90.0591044743387
20
11.0739674922267
30
0
41
1
10
90.083199274495
20
11.0693320104343
30
0
41
1
10
90.0921116479075
20
11.0675274383204
30
0
41
1
10
90.0934373305394
20
11.0672571535325
30
0
41
1
10
90.0938591579384
20
11.0671709715815
30
0
41
1
10
90.0940700846973
20
11.0671278342683
30
0
41
1
10
90.0941661824088
20
11.0671081698871
30
0
41
1
10
90.0941999659058
20
11.0671012561856
30
0
41
1
10
90.0942097638328
20
11.0670992510354
30
0
0
SPLINE
5
258
100
AcDbEntity
8
1
62
256
6
ByLayer
370
25
48
1
60
0
100
AcDbSpline
70
4
71
3
72
11
73
7
40
0
40
0
40
0
40
0
40
0.0001688317995795
40
0.0003329287300926
40
0.0926814011790427
40
1
40
1
40
1
40
1
41
1
10
90.0942030507741
20
11.0671006392447
30
0
41
1
10
90.0942128409887
20
11.0670985967705
30
0
41
1
10
90.094222622451
20
11.0670965127879
30
0
41
1
10
90.0961106025075
20
11.0666862511393
30
0
41
1
10
90.1165257295193
20
11.0622406839516
30
0
41
1
10
90.136909102692
20
11.057668455722
30
0
41
1
10
90.1553863383421
20
11.0534158958423
30
0
0
SPLINE
5
259
100
AcDbEntity
8
1
62
256
6
ByLayer
370
25
48
1
60
0
100
AcDbSpline
70
4
71
2
72
6
73
3
40
0
40
0
40
0
40
1
40
1
40
1
41
1
10
90.1553851593711
20
11.0533998327442
30
0
41
1
10
90.3471630480882
20
11.0309447089467
30
0
41
1
10
90.5346196224168
20
11.0281164642855
30
0
0
SPLINE
5
25A
100
AcDbEntity
8
1
62
256
6
ByLayer
370
25
48
1
60
0
100
AcDbSpline
70
4
71
2
72
6
73
3
40
0
40
0
40
0
40
1
40
1
40
1
41
1
10
90.5346196197875
20
11.0281164791331
30
0
41
1
10
90.8526243376488
20
11.0250380127635
30
0
41
1
10
91.1415485424033
20
11.0537163286401
30
0
0
SPLINE
5
25B
100
AcDbEntity
8
1
62
256
6
ByLayer
370
25
48
1
60
0
100
AcDbSpline
70
4
71
3
72
10
73
6
40
0
40
0
40
0
40
0
40
0.25059118715484
40
0.500059856560429
40
1
40
1
40
1
40
1
41
1
10
91.4073945127412
20
9.61958723371077
30
0
41
1
10
91.4217317002822
20
9.64750122219674
30
0
41
1
10
91.4488909399607
20
9.70368852456701
30
0
41
1
10
91.497335398913
20
9.81838558927792
30
0
41
1
10
91.5273120534172
20
9.90560410233586
30
0
41
1
10
91.5444645398829
20
9.96450215076998
30
0
0
SPLINE
5
25C
100
AcDbEntity
8
1
62
256
6
ByLayer
370
25
48
1
60
0
100
AcDbSpline
70
4
71
2
72
6
73
3
40
0
40
0
40
0
40
1
40
1
40
1
41
1
10
91.5444645398829
20
9.96450215076998
30
0
41
1
10
91.6713093867378
20
10.4089727081567
30
0
41
1
10
91.7779839441396
20
10.7437892584331
30
0
0
SPLINE
5
25D
100
AcDbEntity
8
1
62
256
6
ByLayer
370
25
48
1
60
0
100
AcDbSpline
70
4
71
3
72
17
73
13
40
0
40
0
40
0
40
0
40
0.0843924436572526
40
0.168711250719706
40
0.251379255806296
40
0.337562672912797
40
0.420275880100445
40
0.506753206687199
40
0.589512253321574
40
0.675638852748879
40
0.844347772045444
40
1
40
1
40
1
40
1
41
1
10
76.9521157122627
20
12.5026438167129
30
0
41
1
10
76.899090490799
20
12.3578328671031
30
0
41
1
10
76.8201713572755
20
12.0643165759468
30
0
41
1
10
76.7856689225546
20
11.6078704213442
30
0
41
1
10
76.8265386130828
20
11.1504570472057
30
0
41
1
10
76.9348772477556
20
10.7071287217081
30
0
41
1
10
77.1013887907235
20
10.2756996356644
30
0
41
1
10
77.3127606996223
20
9.8717673789528
30
0
41
1
10
77.5661179215109
20
9.48600540013875
30
0
41
1
10
77.9444679546987
20
9.00819733906583
30
0
41
1
10
78.4723814776598
20
8.48488167212567
30
0
41
1
10
78.9339256667961
20
8.12895072184856
30
0
41
1
10
79.1675120838376
20
7.97144172241853
30
0
0
SPLINE
5
25E
100
AcDbEntity
8
1
62
256
6
ByLayer
370
25
48
1
60
0
100
AcDbSpline
70
4
71
3
72
10
73
6
40
0
40
0
40
0
40
0
40
0.217214917359937
40
0.612197408270349
40
1
40
1
40
1
40
1
41
1
10
86.6494872333638
20
7.62294321667446
30
0
41
1
10
86.7110833063002
20
7.68102379222583
30
0
41
1
10
86.875609446783
20
7.85184159813995
30
0
41
1
10
87.1085523338163
20
8.16743827913042
30
0
41
1
10
87.2397998935315
20
8.44144990735415
30
0
41
1
10
87.2935369256408
20
8.58461112652548
30
0
0
SPLINE
5
25F
100
AcDbEntity
8
1
62
256
6
ByLayer
370
25
48
1
60
0
100
AcDbSpline
70
4
71
3
72
30
73
26
40
0
40
0
40
0
40
0
40
0.0309420495260172
40
0.0624617548683692
40
0.0930262400908236
40
0.12494489309648
40
0.165935325570224
40
0.207713816138057
40
0.24985921953182
40
0.312351870186686
40
0.374864510525233
40
0.437358677471762
40
0.4998695861628
40
0.56237572889239
40
0.624873736957113
40
0.687343086829743
40
0.749762932339617
40
0.781682431766506
40
0.812293199717399
40
0.844369457732456
40
0.874984452941195
40
0.90692968797319
40
0.937514123446397
40
0.969155584587232
40
1
40
1
40
1
40
1
41
1
10
87.2924574873326
20
8.58503271823325
30
0
41
1
10
87.3408751716449
20
8.72896423586357
30
0
41
1
10
87.4122313666953
20
9.02279940578124
30
0
41
1
10
87.4364693790467
20
9.4772426106468
30
0
41
1
10
87.3866979224892
20
9.9325457248863
30
0
41
1
10
87.2598673306913
20
10.4204589945334
30
0
41
1
10
87.042105995139
20
10.9351315527404
30
0
41
1
10
86.7295335730119
20
11.456073438157
30
0
41
1
10
86.2932351139346
20
12.0173901286325
30
0
41
1
10
85.7158182814383
20
12.588452878794
30
0
41
1
10
84.9917059985007
20
13.1378259686573
30
0
41
1
10
84.208348240102
20
13.5967512192147
30
0
41
1
10
83.3800687615526
20
13.9660606766763
30
0
41
1
10
82.517124523012
20
14.2428944927568
30
0
41
1
10
81.6292679523914
20
14.4217386139564
30
0
41
1
10
80.7269886743555
20
14.4933065997246
30
0
41
1
10
79.9699125371892
20
14.4509202806315
30
0
41
1
10
79.3766548825336
20
14.3456108878792
30
0
41
1
10
78.9362404676414
20
14.2258508731755
30
0
41
1
10
78.5154669040464
20
14.0647822402493
30
0
41
1
10
78.1100314720102
20
13.8531911676766
30
0
41
1
10
77.7405210546714
20
13.5943765771962
30
0
41
1
10
77.4106277792547
20
13.2788898142032
30
0
41
1
10
77.1387357704768
20
12.9156475756057
30
0
41
1
10
77.0063907937361
20
12.6441321609676
30
0
41
1
10
76.9521722364932
20
12.5027943504546
30
0
0
SPLINE
5
260
100
AcDbEntity
8
1
62
256
6
ByLayer
370
25
48
1
60
0
100
AcDbSpline
70
4
71
3
72
12
73
8
40
0
40
0
40
0
40
0
40
0.132637544788664
40
0.264348896666526
40
0.455444014294842
40
0.776938143159319
40
1
40
1
40
1
40
1
41
1
10
75.3094545813208
20
8.21600643946282
30
0
41
1
10
75.3346271113205
20
8.21619220064993
30
0
41
1
10
75.3821703052767
20
8.22358549029958
30
0
41
1
10
75.4574558423059
20
8.26355528095777
30
0
41
1
10
75.5400916000045
20
8.35095310776791
30
0
41
1
10
75.595873006857
20
8.47713382964491
30
0
41
1
10
75.6238440223668
20
8.57286029992707
30
0
41
1
10
75.6320069266675
20
8.61360970502594
30
0
0
SPLINE
5
261
100
AcDbEntity
8
1
62
256
6
ByLayer
370
25
48
1
60
0
100
AcDbSpline
70
4
71
3
72
12
73
8
40
0
40
0
40
0
40
0
40
0.444883731379363
40
0.624184670565733
40
0.804934674593601
40
0.937047312582539
40
1
40
1
40
1
40
1
41
1
10
75.6320209369601
20
8.61374021119799
30
0
41
1
10
75.7162119402804
20
8.62620832812559
30
0
41
1
10
75.8225031453534
20
8.66506794415607
30
0
41
1
10
75.9471024525751
20
8.74704683702669
30
0
41
1
10
76.0047663358525
20
8.81914582162355
30
0
41
1
10
76.028333419508
20
8.88586662813659
30
0
41
1
10
76.031000947687
20
8.92163517606489
30
0
41
1
10
76.0309893580976
20
8.93340802815806
30
0
0
SPLINE
5
262
100
AcDbEntity
8
1
62
256
6
ByLayer
370
25
48
1
60
0
100
AcDbSpline
70
4
71
3
72
12
73
8
40
0
40
0
40
0
40
0
40
0.132674221184176
40
0.264421396076544
40
0.455550302253266
40
0.777172165009376
40
1
40
1
40
1
40
1
41
1
10
76.0309894651256
20
8.93341472302247
30
0
41
1
10
76.0307566498857
20
8.95879719109905
30
0
41
1
10
76.0233279140869
20
9.00674893472592
30
0
41
1
10
75.9835168299425
20
9.08272834090017
30
0
41
1
10
75.8966246566833
20
9.1662043697462
30
0
41
1
10
75.7713580245951
20
9.22265134193473
30
0
41
1
10
75.6763647389572
20
9.25101846144486
30
0
41
1
10
75.6359713887011
20
9.25931784699431
30
0
0
SPLINE
5
263
100
AcDbEntity
8
1
62
256
6
ByLayer
370
25
48
1
60
0
100
AcDbSpline
70
4
71
3
72
12
73
8
40
0
40
0
40
0
40
0
40
0.444602957711101
40
0.623955173048365
40
0.804757542659837
40
0.936891439164504
40
1
40
1
40
1
40
1
41
1
10
75.6358350069433
20
9.25933930213329
30
0
41
1
10
75.6233088298271
20
9.34417230239986
30
0
41
1
10
75.5845839126198
20
9.4513626033769
30
0
41
1
10
75.5030838433876
20
9.57712286242156
30
0
41
1
10
75.4314576569725
20
9.63543407041791
30
0
41
1
10
75.3651938896557
20
9.65935859874272
30
0
41
1
10
75.3296749331536
20
9.66212504555088
30
0
41
1
10
75.3179668349356
20
9.66213600328393
30
0
0
SPLINE
5
264
100
AcDbEntity
8
1
62
256
6
ByLayer
370
25
48
1
60
0
100
AcDbSpline
70
4
71
3
72
12
73
8
40
0
40
0
40
0
40
0
40
0.132653675601825
40
0.264380545624118
40
0.45548225652848
40
0.777071681368237
40
1
40
1
40
1
40
1
41
1
10
75.317960096041
20
9.66213657194291
30
0
41
1
10
75.2927805483237
20
9.66194949429248
30
0
41
1
10
75.245225624603
20
9.65455053456887
30
0
41
1
10
75.169928651837
20
9.61455921695582
30
0
41
1
10
75.087283922346
20
9.52711666207353
30
0
41
1
10
75.0315169735894
20
9.4009147257364
30
0
41
1
10
75.0035538571919
20
9.3051778974125
30
0
41
1
10
74.9953962005526
20
9.26444737305313
30
0
0
SPLINE
5
265
100
AcDbEntity
8
1
62
256
6
ByLayer
370
25
48
1
60
0
100
AcDbSpline
70
4
71
3
72
12
73
8
40
0
40
0
40
0
40
0
40
0.444885375473519
40
0.624191903459104
40
0.804947411300829
40
0.937069626015156
40
1
40
1
40
1
40
1
41
1
10
74.9953604603901
20
9.26441186769254
30
0
41
1
10
74.9111735117217
20
9.25194409000813
30
0
41
1
10
74.8048878443321
20
9.21308480932586
30
0
41
1
10
74.6802962107747
20
9.1311048627298
30
0
41
1
10
74.6226369289995
20
9.05900390353947
30
0
41
1
10
74.5990747252401
20
8.99228713594236
30
0
41
1
10
74.5964080360474
20
8.95652288397339
30
0
41
1
10
74.5964194280189
20
8.9447549719275
30
0
0
SPLINE
5
266
100
AcDbEntity
8
1
62
256
6
ByLayer
370
25
48
1
60
0
100
AcDbSpline
70
4
71
3
72
12
73
8
40
0
40
0
40
0
40
0
40
0.132661942454015
40
0.264396954018943
40
0.455501419698437
40
0.777059381915074
40
1
40
1
40
1
40
1
41
1
10
74.5964192835716
20
8.94474896725458
30
0
41
1
10
74.5966512900094
20
8.91936566078686
30
0
41
1
10
74.6040787207369
20
8.87141208590015
30
0
41
1
10
74.6438878799902
20
8.79542990769952
30
0
41
1
10
74.7307743226122
20
8.71195299329123
30
0
41
1
10
74.8560593812043
20
8.65549362042556
30
0
41
1
10
74.9510731002672
20
8.62712169895217
30
0
41
1
10
74.991492932673
20
8.61881971816761
30
0
0
SPLINE
5
267
100
AcDbEntity
8
1
62
256
6
ByLayer
370
25
48
1
60
0
100
AcDbSpline
70
4
71
3
72
12
73
8
40
0
40
0
40
0
40
0
40
0.444893739014712
40
0.624205161278177
40
0.804965403856606
40
0.937097601387875
40
1
40
1
40
1
40
1
41
1
10
74.9915958050781
20
8.61871457273275
30
0
41
1
10
75.0041269287246
20
8.53383094146837
30
0
41
1
10
75.0428811185717
20
8.42662453532487
30
0
41
1
10
75.1244479281994
20
8.30088867641316
30
0
41
1
10
75.1960839248486
20
8.24263881219313
30
0
41
1
10
75.2623050511
20
8.21877015370996
30
0
41
1
10
75.2977815081703
20
8.21601703658312
30
0
41
1
10
75.3094487259454
20
8.21600655393895
30
0
0
SPLINE
5
268
100
AcDbEntity
8
1
62
256
6
ByLayer
370
25
48
1
60
0
100
AcDbSpline
70
4
71
3
72
18
73
14
40
0
40
0
40
0
40
0
40
0.0418380391861406
40
0.0833836680363152
40
0.143663537697676
40
0.245127770699404
40
0.46109441363023
40
0.708038645966861
40
0.790737746989037
40
0.873912594665216
40
0.925947017020826
40
0.978333683734988
40
1
40
1
40
1
40
1
41
1
10
88.93636076705
20
12.8718068206991
30
0
41
1
10
88.9111991640952
20
12.8716201299531
30
0
41
1
10
88.8636810579518
20
12.8642234318
30
0
41
1
10
88.7884231949497
20
12.824270377501
30
0
41
1
10
88.7059109156876
20
12.7367633325558
30
0
41
1
10
88.6143781179407
20
12.5324377061904
30
0
41
1
10
88.5669631424885
20
12.202705939599
30
0
41
1
10
88.5878012299756
20
11.8794520956058
30
0
41
1
10
88.6599303225042
20
11.6486196728489
30
0
41
1
10
88.7214872954266
20
11.5347059915265
30
0
41
1
10
88.8027288058271
20
11.4594453310173
30
0
41
1
10
88.872455737744
20
11.4297407436566
30
0
41
1
10
88.9150683085312
20
11.4261253739085
30
0
41
1
10
88.9278425015919
20
11.4260694371337
30
0
0
SPLINE
5
269
100
AcDbEntity
8
1
62
256
6
ByLayer
370
25
48
1
60
0
100
AcDbSpline
70
4
71
3
72
18
73
14
40
0
40
0
40
0
40
0
40
0.0418401921026015
40
0.0833879650941692
40
0.143669529848075
40
0.245132984888605
40
0.461097325175431
40
0.708040015378174
40
0.790740770836623
40
0.873917232032919
40
0.925949187249153
40
0.978333408666204
40
1
40
1
40
1
40
1
41
1
10
88.9278568364893
20
11.4260692142227
30
0
41
1
10
88.9530195456916
20
11.4262563484817
30
0
41
1
10
89.0005396491783
20
11.4336541718126
30
0
41
1
10
89.0757995960953
20
11.4736096011181
30
0
41
1
10
89.1583115647577
20
11.5611183815293
30
0
41
1
10
89.249839817449
20
11.7654435746035
30
0
41
1
10
89.2972475213705
20
12.0951714235768
30
0
41
1
10
89.2764047692257
20
12.4184208562911
30
0
41
1
10
89.2042761475248
20
12.6492526181463
30
0
41
1
10
89.1427211403958
20
12.7631667182
30
0
41
1
10
89.0614839933714
20
12.8384278930892
30
0
41
1
10
88.991761178809
20
12.8681337149653
30
0
41
1
10
88.9491502682095
20
12.8717503319939
30
0
41
1
10
88.9363759868601
20
12.8718066314715
30
0
0
SPLINE
5
26A
100
AcDbEntity
8
1
62
256
6
ByLayer
370
25
48
1
60
0
100
AcDbSpline
70
4
71
3
72
22
73
18
40
0
40
0
40
0
40
0
40
0.0633553670770543
40
0.124377739664958
40
0.187684799025799
40
0.249349056734935
40
0.312790305629978
40
0.374782612053026
40
0.438058744204678
40
0.500663815213739
40
0.563014816762809
40
0.626411506278927
40
0.688208084844232
40
0.75162876084663
40
0.813048265852779
40
0.876330318080508
40
1
40
1
40
1
40
1
41
1
10
89.4312144626965
20
9.25482655699455
30
0
41
1
10
89.3719164079712
20
9.28662522458116
30
0
41
1
10
89.2609881361991
20
9.35639386869638
30
0
41
1
10
89.1078619000677
20
9.48363752177699
30
0
41
1
10
88.976213540955
20
9.63085179799586
30
0
41
1
10
88.8683028860228
20
9.79969561549731
30
0
41
1
10
88.7909578471189
20
9.98355991194025
30
0
41
1
10
88.7501084143419
20
10.1807523027615
30
0
41
1
10
88.7486676118809
20
10.3814831663162
30
0
41
1
10
88.7908530699705
20
10.5780498079994
30
0
41
1
10
88.8735918275986
20
10.7611244469098
30
0
41
1
10
88.9937050025884
20
10.9205849430141
30
0
41
1
10
89.1434040901944
20
11.053475469378
30
0
41
1
10
89.3143274374265
20
11.1530028308935
30
0
41
1
10
89.5008439941099
20
11.2216735409939
30
0
41
1
10
89.759422522183
20
11.2696060029568
30
0
41
1
10
89.9552590382078
20
11.2626574012297
30
0
41
1
10
90.0867383103963
20
11.2386576765678
30
0
0
SPLINE
5
26B
100
AcDbEntity
8
1
62
256
6
ByLayer
370
25
48
1
60
0
100
AcDbSpline
70
4
71
3
72
12
73
8
40
0
40
0
40
0
40
0
40
0.36663920287646
40
0.7325641269153
40
0.830059228153459
40
0.927994180511599
40
1
40
1
40
1
40
1
41
1
10
89.4311028185446
20
9.25462888522668
30
0
41
1
10
89.350566771627
20
9.01453703327721
30
0
41
1
10
89.1561759253784
20
8.5535287146558
30
0
41
1
10
88.8617376491682
20
8.06395200549052
30
0
41
1
10
88.628810702067
20
7.7591733351937
30
0
41
1
10
88.5103538586092
20
7.61999383312017
30
0
41
1
10
88.4314202496443
20
7.53499347031375
30
0
41
1
10
88.3972866722011
20
7.49958807414464
30
0
0
SPLINE
5
26C
100
AcDbEntity
8
1
62
256
6
ByLayer
370
25
48
1
60
0
100
AcDbSpline
70
4
71
3
72
11
73
7
40
0
40
0
40
0
40
0
40
0.290270148479927
40
0.58058021221236
40
0.870841163529805
40
1
40
1
40
1
40
1
41
1
10
74.1645722453764
20
9.84108394562842
30
0
41
1
10
74.173858240178
20
9.6554193675101
30
0
41
1
10
74.2252020780439
20
9.29289104503842
30
0
41
1
10
74.4040053925239
20
8.76805642312293
30
0
41
1
10
74.6241902345675
20
8.37419001388585
30
0
41
1
10
74.7846232501049
20
8.16420170546956
30
0
41
1
10
74.8369599126341
20
8.10137352963419
30
0
0
SPLINE
5
26D
100
AcDbEntity
8
1
62
256
6
ByLayer
370
25
48
1
60
0
100
AcDbSpline
70
4
71
3
72
22
73
18
40
0
40
0
40
0
40
0
40
0.0635049931214226
40
0.124657924056919
40
0.188078309995202
40
0.249835510251292
40
0.313343323682147
40
0.375383095852875
40
0.438677914024422
40
0.501274825102346
40
0.563585162891567
40
0.626943332131358
40
0.688652986896403
40
0.752016167932116
40
0.813333838598584
40
0.87653223277727
40
1
40
1
40
1
40
1
41
1
10
74.8147071029406
20
11.8334606060501
30
0
41
1
10
74.8740684460751
20
11.8013652445774
30
0
41
1
10
74.9850541029708
20
11.7310058940786
30
0
41
1
10
75.1381011126553
20
11.6028446755897
30
0
41
1
10
75.2694510186459
20
11.4547385413622
30
0
41
1
10
75.3768000585467
20
11.2850609025671
30
0
41
1
10
75.4533147017846
20
11.1004855719071
30
0
41
1
10
75.4929942642724
20
10.9027926691165
30
0
41
1
10
75.4929957902205
20
10.7018779737599
30
0
41
1
10
75.4490777761722
20
10.505607096051
30
0
41
1
10
75.3644971496616
20
10.3233651400768
30
0
41
1
10
75.2426373774865
20
10.165334374936
30
0
41
1
10
75.091386076653
20
10.034368949038
30
0
41
1
10
74.919307988722
20
9.93719333356863
30
0
41
1
10
74.7320243169818
20
9.87113581874572
30
0
41
1
10
74.4730732854484
20
9.82687550984166
30
0
41
1
10
74.2775512756234
20
9.8365913393518
30
0
41
1
10
74.1465620360094
20
9.86244307083695
30
0
0
SPLINE
5
26E
100
AcDbEntity
8
1
62
256
6
ByLayer
370
25
48
1
60
0
100
AcDbSpline
70
4
71
3
72
46
73
42
40
0
40
0
40
0
40
0
40
0.114803184122115
40
0.229383019219652
40
0.259911174791972
40
0.290577045588308
40
0.321460115972721
40
0.352221882785776
40
0.378503948965453
40
0.381194551886724
40
0.385026878759119
40
0.394777222691501
40
0.404499614942302
40
0.404501762063089
40
0.404503909172839
40
0.40450820335924
40
0.404516791599635
40
0.404533967550811
40
0.404568317334715
40
0.404637008428992
40
0.404774356725298
40
0.405048917764007
40
0.40559749774682
40
0.406692490305334
40
0.408873813618472
40
0.413201876502165
40
0.421720189500709
40
0.438209985972685
40
0.47329687467318
40
0.543731828768195
40
0.612009831183449
40
0.682893343488756
40
0.765626148522731
40
0.852849288304547
40
0.873130804937445
40
0.893655658380499
40
0.914429439554862
40
0.935547123701983
40
0.956863819020081
40
0.969082083125621
40
1
40
1
40
1
40
1
41
1
10
74.8147745330609
20
11.8335640308567
30
0
41
1
10
74.8953151865748
20
12.0736462479459
30
0
41
1
10
75.0897174210608
20
12.5346359957441
30
0
41
1
10
75.3841498273754
20
13.0241885405103
30
0
41
1
10
75.6170954258787
20
13.3289543515262
30
0
41
1
10
75.7473123311572
20
13.4819744195767
30
0
41
1
10
75.885365657557
20
13.6285121000828
30
0
41
1
10
76.0235017196106
20
13.7614222005069
30
0
41
1
10
76.1214385369838
20
13.8471756387778
30
0
41
1
10
76.1761665285232
20
13.8931072045299
30
0
41
1
10
76.2034401605863
20
13.9157633207188
30
0
41
1
10
76.2452886221907
20
13.9445409024936
30
0
41
1
10
76.2783007323509
20
13.971191997588
30
0
41
1
10
76.2951887692593
20
13.9839707339341
30
0
41
1
10
76.2952036809657
20
13.9839820172343
30
0
41
1
10
76.2952297762147
20
13.9840017626245
30
0
41
1
10
76.2952819658272
20
13.9840412520608
30
0
41
1
10
76.2953863415593
20
13.9841202254895
30
0
41
1
10
76.2955950790177
20
13.9842781506198
30
0
41
1
10
76.2960124979352
20
13.9845939139433
30
0
41
1
10
76.2968471117519
20
13.9852250929133
30
0
41
1
10
76.2985154433145
20
13.9864860604825
30
0
41
1
10
76.3018485218735
20
13.9890024372051
30
0
41
1
10
76.3085003407863
20
13.9940129791854
30
0
41
1
10
76.3217466033083
20
14.0039454229956
30
0
41
1
10
76.3480097392475
20
14.0234571308638
30
0
41
1
10
76.3996167470836
20
14.0610825839592
30
0
41
1
10
76.5067657194456
20
14.136147492645
30
0
41
1
10
76.7306701103471
20
14.2790743078764
30
0
41
1
10
77.0653710539233
20
14.4564773529307
30
0
41
1
10
77.4885902302653
20
14.6271517668879
30
0
41
1
10
77.9511521913393
20
14.7656518522389
30
0
41
1
10
78.4646773515926
20
14.8699470710076
30
0
41
1
10
78.8757996856311
20
14.9171698444603
30
0
41
1
10
79.153326232081
20
14.9361829376927
30
0
41
1
10
79.2869560916727
20
14.9430803216743
30
0
41
1
10
79.4224976649438
20
14.9478417857156
30
0
41
1
10
79.559821245409
20
14.9504638375351
30
0
41
1
10
79.6785822879978
20
14.9509208171861
30
0
41
1
10
79.8186322476995
20
14.9496667690597
30
0
41
1
10
79.9123637442716
20
14.9490255337012
30
0
41
1
10
79.9795455001149
20
14.9484701878533
30
0
0
SPLINE
5
26F
100
AcDbEntity
8
1
62
256
6
ByLayer
370
25
48
1
60
0
100
AcDbSpline
70
4
71
3
72
12
73
8
40
0
40
0
40
0
40
0
40
0.162699595744402
40
0.317227655972838
40
0.498791712821836
40
0.799281969184991
40
1
40
1
40
1
40
1
41
1
10
79.1363254070726
20
15.2092628317201
30
0
41
1
10
79.1842974801952
20
15.2039209411247
30
0
41
1
10
79.2764819460746
20
15.1882020736992
30
0
41
1
10
79.4138724123847
20
15.1342970937709
30
0
41
1
10
79.5931009788186
20
15.0794099721452
30
0
41
1
10
79.7844943987149
20
15.017278132598
30
0
41
1
10
79.9238772899895
20
14.9684811222641
30
0
41
1
10
79.9795454093778
20
14.9484702218003
30
0
0
SPLINE
5
270
100
AcDbEntity
8
1
62
256
6
ByLayer
370
25
48
1
60
0
100
AcDbSpline
70
4
71
1
72
4
73
2
40
0
40
0
40
1
40
1
41
1
10
79.1363115333
20
15.2092585889544
30
0
41
1
10
78.913458105172
20
15.2937089417268
30
0
0
SPLINE
5
271
100
AcDbEntity
8
1
62
256
6
ByLayer
370
25
48
1
60
0
100
AcDbSpline
70
4
71
3
72
15
73
11
40
0
40
0
40
0
40
0
40
0.008570460643517
40
0.0492184200798571
40
0.129779553924051
40
0.210517231617532
40
0.424467350200593
40
0.638553738982481
40
0.852644698976093
40
1
40
1
40
1
40
1
41
1
10
87.2147566196848
20
14.0107525783105
30
0
41
1
10
87.1968728566669
20
14.027303016699
30
0
41
1
10
87.0915715689336
20
14.1180685285546
30
0
41
1
10
86.7418981816341
20
14.2502524129923
30
0
41
1
10
86.1985714509562
20
14.4039870343897
30
0
41
1
10
85.1583399486104
20
14.5977708056498
30
0
41
1
10
83.7457170162964
20
14.8202708512696
30
0
41
1
10
81.9502895171266
20
15.0210121245491
30
0
41
1
10
80.3390038488417
20
15.171109364465
30
0
41
1
10
79.3264694347198
20
15.259464360889
30
0
41
1
10
78.913545250853
20
15.2938907847362
30
0
0
SPLINE
5
272
100
AcDbEntity
8
1
62
256
6
ByLayer
370
25
48
1
60
0
100
AcDbSpline
70
4
71
3
72
19
73
15
40
0
40
0
40
0
40
0
40
0.499648048172139
40
0.75008065328403
40
0.875349722241818
40
0.937986710379389
40
0.96905087929484
40
0.976715075250304
40
0.977620319182691
40
0.978399687964574
40
0.97911717821117
40
0.979853133543161
40
0.983778802059079
40
1
40
1
40
1
40
1
41
1
10
90.0866911000109
20
11.2386413488872
30
0
41
1
10
90.0998760807614
20
11.2068127549811
30
0
41
1
10
90.1184058330126
20
11.1596331276682
30
0
41
1
10
90.1369704773438
20
11.1049015051329
30
0
41
1
10
90.1463468431678
20
11.0783051614844
30
0
41
1
10
90.1506661943026
20
11.0653425822654
30
0
41
1
10
90.1527118402411
20
11.0592091895689
30
0
41
1
10
90.1523682902127
20
11.0568651648425
30
0
41
1
10
90.1521379166077
20
11.0563702709132
30
0
41
1
10
90.1521263023671
20
11.0562269077857
30
0
41
1
10
90.1521619085806
20
11.0560913197589
30
0
41
1
10
90.1523776972869
20
11.0558087901877
30
0
41
1
10
90.153562363798
20
11.0550094542844
30
0
41
1
10
90.1545373047576
20
11.0540963139995
30
0
41
1
10
90.1553840649887
20
11.0534152092769
30
0
0
SPLINE
5
273
100
AcDbEntity
8
1
62
256
6
ByLayer
370
25
48
1
60
0
100
AcDbSpline
70
4
71
1
72
4
73
2
40
0
40
0
40
1
40
1
41
1
10
72.4250315478802
20
10.3392803052092
30
0
41
1
10
73.0585117972277
20
10.0289700935629
30
0
0
SPLINE
5
274
100
AcDbEntity
8
1
62
256
6
ByLayer
370
25
48
1
60
0
100
AcDbSpline
70
4
71
3
72
12
73
8
40
0
40
0
40
0
40
0
40
0.181401276389173
40
0.317057477821373
40
0.452302811876342
40
0.68192755500043
40
1
40
1
40
1
40
1
41
1
10
73.2070422791778
20
9.81409665231209
30
0
41
1
10
73.2140425392408
20
9.83154323247308
30
0
41
1
10
73.2197071100712
20
9.8616300000254
30
0
41
1
10
73.2116732674656
20
9.90609185091524
30
0
41
1
10
73.1866990685097
20
9.94868795483678
30
0
41
1
10
73.1350307019586
20
9.99260077629128
30
0
41
1
10
73.0886947666731
20
10.0181402332647
30
0
41
1
10
73.0585111319404
20
10.028968543944
30
0
0
SPLINE
5
275
100
AcDbEntity
8
1
62
256
6
ByLayer
370
25
48
1
60
0
100
AcDbSpline
70
4
71
3
72
11
73
7
40
0
40
0
40
0
40
0
40
0.248549114756132
40
0.507823818068672
40
0.756203219210215
40
1
40
1
40
1
40
1
41
1
10
73.207040422636
20
9.814100275569
30
0
41
1
10
73.1628661984298
20
9.6922573888598
30
0
41
1
10
73.0970957262938
20
9.44048127973708
30
0
41
1
10
73.0780209136965
20
9.05017883659341
30
0
41
1
10
73.1245593785819
20
8.66692818320421
30
0
41
1
10
73.1898313941366
20
8.42435524970892
30
0
41
1
10
73.2312594113816
20
8.30581536390147
30
0
0
SPLINE
5
276
100
AcDbEntity
8
1
62
256
6
ByLayer
370
25
48
1
60
0
100
AcDbSpline
70
4
71
3
72
10
73
6
40
0
40
0
40
0
40
0
40
0.386004255772224
40
0.730581385071613
40
1
40
1
40
1
40
1
41
1
10
72.4250001696122
20
10.3392198791365
30
0
41
1
10
72.3658887237803
20
10.1092794069539
30
0
41
1
10
72.268673495823
20
9.67165305093477
30
0
41
1
10
72.1729288574755
20
9.06514282091662
30
0
41
1
10
72.1344747348054
20
8.69084469534794
30
0
41
1
10
72.1214417504982
20
8.526101757372
30
0
0
SPLINE
5
277
100
AcDbEntity
8
1
62
256
6
ByLayer
370
25
48
1
60
0
100
AcDbSpline
70
4
71
1
72
4
73
2
40
0
40
0
40
1
40
1
41
1
10
78.9135394039043
20
15.2940115141435
30
0
41
1
10
78.8497839897746
20
15.2994281620623
30
0
0
SPLINE
5
278
100
AcDbEntity
8
1
62
256
6
ByLayer
370
25
48
1
60
0
100
AcDbSpline
70
4
71
1
72
4
73
2
40
0
40
0
40
1
40
1
41
1
10
79.5987592017584
20
15.2715493792395
30
0
41
1
10
78.8505903337599
20
15.2993218839018
30
0
0
SPLINE
5
279
100
AcDbEntity
8
1
62
256
6
ByLayer
370
25
48
1
60
0
100
AcDbSpline
70
4
71
3
72
11
73
7
40
0
40
0
40
0
40
0
40
0.266444432222604
40
0.531096760197313
40
0.783518908723972
40
1
40
1
40
1
40
1
41
1
10
81.0643025797745
20
15.3525602391656
30
0
41
1
10
80.9509059636771
20
15.3136354726744
30
0
41
1
10
80.7143438993147
20
15.2541248320971
30
0
41
1
10
80.3238369437799
20
15.2171943516344
30
0
41
1
10
79.9492843096306
20
15.2352689230203
30
0
41
1
10
79.7097660184082
20
15.2575128210705
30
0
41
1
10
79.5987860411462
20
15.2715398861903
30
0
0
SPLINE
5
27A
100
AcDbEntity
8
1
62
256
6
ByLayer
370
25
48
1
60
0
100
AcDbSpline
70
4
71
2
72
6
73
3
40
0
40
0
40
0
40
1
40
1
40
1
41
1
10
86.6586680785627
20
8.78783886793293
30
0
41
1
10
85.656408428696
20
9.16790181436089
30
0
41
1
10
84.6550564213187
20
9.5476864695402
30
0
0
SPLINE
5
27B
100
AcDbEntity
8
1
62
256
6
ByLayer
370
25
48
1
60
0
100
AcDbSpline
70
4
71
3
72
16
73
12
40
0
40
0
40
0
40
0
40
0.114508594563389
40
0.22901891741016
40
0.343530363412074
40
0.458041770669002
40
0.572537376462878
40
0.687032676322261
40
0.801490170639825
40
0.915947815112796
40
1
40
1
40
1
40
1
41
1
10
84.6550533061894
20
9.54767852636722
30
0
41
1
10
84.7100371968182
20
9.69686390962333
30
0
41
1
10
84.7941014213021
20
9.99956065660817
30
0
41
1
10
84.8442285506515
20
10.4727171828564
30
0
41
1
10
84.8131517265937
20
10.9465742099309
30
0
41
1
10
84.705163559456
20
11.4092875970559
30
0
41
1
10
84.520153384926
20
11.8465785654858
30
0
41
1
10
84.2663681276536
20
12.2473940346948
30
0
41
1
10
83.948603710413
20
12.5984838879264
30
0
41
1
10
83.6100967903096
20
12.8664368782085
30
0
41
1
10
83.3748103743953
20
13.0016469839692
30
0
41
1
10
83.2710825155039
20
13.0530699417586
30
0
0
SPLINE
5
27C
100
AcDbEntity
8
1
62
256
6
ByLayer
370
25
48
1
60
0
100
AcDbSpline
70
4
71
2
72
6
73
3
40
0
40
0
40
0
40
1
40
1
40
1
41
1
10
83.1021395040971
20
13.3741913440875
30
0
41
1
10
83.0625734320772
20
13.2677063075143
30
0
41
1
10
83.0230611776644
20
13.1612281430692
30
0
0
SPLINE
5
27D
100
AcDbEntity
8
1
62
256
6
ByLayer
370
25
48
1
60
0
100
AcDbSpline
70
4
71
2
72
6
73
3
40
0
40
0
40
0
40
1
40
1
40
1
41
1
10
84.4876426939711
20
12.6717915231067
30
0
41
1
10
83.8306270688384
20
13.0948172061858
30
0
41
1
10
83.1021386136918
20
13.3741678467496
30
0
0
SPLINE
5
27E
100
AcDbEntity
8
1
62
256
6
ByLayer
370
25
48
1
60
0
100
AcDbSpline
70
4
71
2
72
6
73
3
40
0
40
0
40
0
40
1
40
1
40
1
41
1
10
85.1424987324776
20
12.1908299254528
30
0
41
1
10
84.8290669902407
20
12.4506980124124
30
0
41
1
10
84.4876446798852
20
12.6717902519437
30
0
0
SPLINE
5
27F
100
AcDbEntity
8
1
62
256
6
ByLayer
370
25
48
1
60
0
100
AcDbSpline
70
4
71
3
72
11
73
7
40
0
40
0
40
0
40
0
40
0.248265745804634
40
0.498069534308588
40
0.748763215325574
40
1
40
1
40
1
40
1
41
1
10
86.7018849204231
20
9.87158488935068
30
0
41
1
10
86.6477634913623
20
10.1046526083155
30
0
41
1
10
86.4979972560788
20
10.5518800574379
30
0
41
1
10
86.1291257716365
20
11.1653555906426
30
0
41
1
10
85.6726942079829
20
11.7142605079999
30
0
41
1
10
85.3271128740695
20
12.0390019508324
30
0
41
1
10
85.1425029659007
20
12.190826375149
30
0
0
SPLINE
5
280
100
AcDbEntity
8
1
62
256
6
ByLayer
370
25
48
1
60
0
100
AcDbSpline
70
4
71
2
72
6
73
3
40
0
40
0
40
0
40
1
40
1
40
1
41
1
10
86.7528515308522
20
9.4231448127763
30
0
41
1
10
86.748522409674
20
9.64976040288285
30
0
41
1
10
86.7018877157242
20
9.87157148154693
30
0
0
SPLINE
5
281
100
AcDbEntity
8
1
62
256
6
ByLayer
370
25
48
1
60
0
100
AcDbSpline
70
4
71
2
72
6
73
3
40
0
40
0
40
0
40
1
40
1
40
1
41
1
10
86.6577644959848
20
8.78803688663002
30
0
41
1
10
86.7588698178848
20
9.09737183377821
30
0
41
1
10
86.7528517195476
20
9.42313097802895
30
0
0
SPLINE
5
282
100
AcDbEntity
8
1
62
256
6
ByLayer
370
25
48
1
60
0
100
AcDbSpline
70
4
71
3
72
28
73
24
40
0
40
0
40
0
40
0
40
0.0302036092268997
40
0.0606375772553369
40
0.0912645469027497
40
0.122118436706668
40
0.163564130027958
40
0.205219464465283
40
0.247087940552634
40
0.310054986422565
40
0.373216607607806
40
0.436476422419102
40
0.499776494745369
40
0.563088564721928
40
0.626356380066702
40
0.689548176656156
40
0.752565852090525
40
0.815296010907553
40
0.877522143472294
40
0.908427929586171
40
0.93917198010632
40
0.969659678091927
40
1
40
1
40
1
40
1
41
1
10
77.3290726654251
20
12.3248900230902
30
0
41
1
10
77.3772525049918
20
12.4490585375495
30
0
41
1
10
77.4947050608767
20
12.6841961049675
30
0
41
1
10
77.7411158050723
20
12.9984313463751
30
0
41
1
10
78.0386286934825
20
13.2653323636707
30
0
41
1
10
78.4129862462484
20
13.5094306707287
30
0
41
1
10
78.8632014653131
20
13.7145344347618
30
0
41
1
10
79.3825005725524
20
13.8679907812027
30
0
41
1
10
80.0077675017607
20
13.9735320779846
30
0
41
1
10
80.7355190606332
20
14.0030368002231
30
0
41
1
10
81.5526868859833
20
13.9300321643145
30
0
41
1
10
82.357605190432
20
13.7633455964216
30
0
41
1
10
83.1409137521357
20
13.5108628230663
30
0
41
1
10
83.8939693184566
20
13.1773939443867
30
0
41
1
10
84.6077010001655
20
12.765732409798
30
0
41
1
10
85.2695065531449
20
12.2753523598918
30
0
41
1
10
85.8641518451511
20
11.7065840002654
30
0
41
1
10
86.3666592920803
20
11.0581111279292
30
0
41
1
10
86.6793609433492
20
10.4494883062496
30
0
41
1
10
86.8331783491245
20
9.93071375065405
30
0
41
1
10
86.8914196322079
20
9.53217318766753
30
0
41
1
10
86.8810283772723
20
9.13013386982653
30
0
41
1
10
86.8225510308192
20
8.87259862401045
30
0
41
1
10
86.7810935706037
20
8.74539567590623
30
0
0
SPLINE
5
283
100
AcDbEntity
8
1
62
256
6
ByLayer
370
25
48
1
60
0
100
AcDbSpline
70
4
71
3
72
11
73
7
40
0
40
0
40
0
40
0
40
0.252082496348681
40
0.502231081336845
40
0.750135086948603
40
1
40
1
40
1
40
1
41
1
10
86.7820340522795
20
8.74538308922939
30
0
41
1
10
86.774501704689
20
8.74756135688822
30
0
41
1
10
86.7578495319356
20
8.75267262256716
30
0
41
1
10
86.7273147247928
20
8.76284498786419
30
0
41
1
10
86.6935522425062
20
8.7747756101559
30
0
41
1
10
86.6708121098706
20
8.78320157349669
30
0
41
1
10
86.6591669837348
20
8.78761248810605
30
0
0
SPLINE
5
284
100
AcDbEntity
8
1
62
256
6
ByLayer
370
25
48
1
60
0
100
AcDbSpline
70
4
71
3
72
12
73
8
40
0
40
0
40
0
40
0
40
0.166192739939038
40
0.332650128103299
40
0.499380021226226
40
0.749629019696142
40
1
40
1
40
1
40
1
41
1
10
79.342379098838
20
13.7217510537445
30
0
41
1
10
79.5498274531956
20
13.7709621473249
30
0
41
1
10
79.9674387039397
20
13.8442845681247
30
0
41
1
10
80.6059626035471
20
13.8739220506956
30
0
41
1
10
81.3499763139542
20
13.831192226624
30
0
41
1
10
82.192348488028
20
13.6807785537348
30
0
41
1
10
82.8017576773686
20
13.4901220354873
30
0
41
1
10
83.1021339792632
20
13.374169627534
30
0
0
SPLINE
5
285
100
AcDbEntity
8
1
62
256
6
ByLayer
370
25
48
1
60
0
100
AcDbSpline
70
4
71
2
72
6
73
3
40
0
40
0
40
0
40
1
40
1
40
1
41
1
10
79.0979879407309
20
13.653609010107
30
0
41
1
10
79.2191093466676
20
13.6915671761505
30
0
41
1
10
79.3423775194921
20
13.7217506669966
30
0
0
SPLINE
5
286
100
AcDbEntity
8
1
62
256
6
ByLayer
370
25
48
1
60
0
100
AcDbSpline
70
4
71
3
72
11
73
7
40
0
40
0
40
0
40
0
40
0.247465767873239
40
0.496677808512938
40
0.747660290705193
40
1
40
1
40
1
40
1
41
1
10
77.4345025057529
20
12.2800473013182
30
0
41
1
10
77.5054209047081
20
12.4558936387686
30
0
41
1
10
77.6853661457148
20
12.7772904206557
30
0
41
1
10
78.0909095336356
20
13.1700751654163
30
0
41
1
10
78.57175819504
20
13.4602333202983
30
0
41
1
10
78.9169082597803
20
13.5991401024037
30
0
41
1
10
79.097986740583
20
13.6536086338333
30
0
0
SPLINE
5
287
100
AcDbEntity
8
1
62
256
6
ByLayer
370
25
48
1
60
0
100
AcDbSpline
70
4
71
3
72
11
73
7
40
0
40
0
40
0
40
0
40
0.2520178189823
40
0.502221086829327
40
0.750133104260322
40
1
40
1
40
1
40
1
41
1
10
77.3291153767958
20
12.3248845923657
30
0
41
1
10
77.3338732253203
20
12.322369128636
30
0
41
1
10
77.3456203840318
20
12.3166367266629
30
0
41
1
10
77.3704887804499
20
12.3056611671377
30
0
41
1
10
77.4008070008288
20
12.2931380107284
30
0
41
1
10
77.4228207782164
20
12.2844895631169
30
0
41
1
10
77.4344874796648
20
12.2800075152545
30
0
0
SPLINE
5
288
100
AcDbEntity
8
1
62
256
6
ByLayer
370
25
48
1
60
0
100
AcDbSpline
70
4
71
3
72
29
73
25
40
0
40
0
40
0
40
0
40
0.0303069911214218
40
0.0608081219223747
40
0.0914676739709173
40
0.1223240521554
40
0.153382574072637
40
0.184584026438851
40
0.247214750840695
40
0.310146355001871
40
0.373279482365398
40
0.436517884020756
40
0.49979937813889
40
0.563091221629925
40
0.626336231927956
40
0.689495325756546
40
0.752470414293291
40
0.794323866804157
40
0.836003513988286
40
0.877432054496156
40
0.908335035392691
40
0.939067734798508
40
0.969591961803698
40
1
40
1
40
1
40
1
41
1
10
77.1634289053595
20
12.4128579795739
30
0
41
1
10
77.2141584229235
20
12.5443102565064
30
0
41
1
10
77.3371244621843
20
12.7939446848074
30
0
41
1
10
77.5924253735217
20
13.1302269735291
30
0
41
1
10
77.9010203994921
20
13.4186298344918
30
0
41
1
10
78.2513142400671
20
13.6582288540035
30
0
41
1
10
78.6313699889209
20
13.850825035419
30
0
41
1
10
79.1660757411868
20
14.0505385870431
30
0
41
1
10
79.8697821840594
20
14.1985928684049
30
0
41
1
10
80.7318700406706
20
14.2426682785012
30
0
41
1
10
81.5947937166245
20
14.1717425857522
30
0
41
1
10
82.4448543987578
20
13.9991903458747
30
0
41
1
10
83.2718194941997
20
13.7337312620737
30
0
41
1
10
84.0660415022138
20
13.3807085725161
30
0
41
1
10
84.8174386537495
20
12.9431628105319
30
0
41
1
10
85.5119906222253
20
12.4207129667563
30
0
41
1
10
86.0646116129017
20
11.8807383378579
30
0
41
1
10
86.4823916113254
20
11.3525515182803
30
0
41
1
10
86.7837441388238
20
10.862529401987
30
0
41
1
10
86.9950867623069
20
10.3807854495052
30
0
41
1
10
87.1198864859213
20
9.92217844000867
30
0
41
1
10
87.1723951707684
20
9.50019758388913
30
0
41
1
10
87.1537102189568
20
9.07594325864471
30
0
41
1
10
87.0896407425202
20
8.80413104435515
30
0
41
1
10
87.0451998385698
20
8.66992728263538
30
0
0
SPLINE
5
289
100
AcDbEntity
8
1
62
256
6
ByLayer
370
25
48
1
60
0
100
AcDbSpline
70
4
71
1
72
4
73
2
40
0
40
0
40
1
40
1
41
1
10
87.045996871603
20
8.66958983953202
30
0
41
1
10
86.7825082826004
20
8.74525367436045
30
0
0
SPLINE
5
28A
100
AcDbEntity
8
1
62
256
6
ByLayer
370
25
48
1
60
0
100
AcDbSpline
70
4
71
3
72
12
73
8
40
0
40
0
40
0
40
0
40
0.252178968207667
40
0.503175353480889
40
0.752159520477648
40
0.876356953690836
40
1
40
1
40
1
40
1
41
1
10
77.9158849456706
20
9.92273236113222
30
0
41
1
10
77.7939247610822
20
10.0961953638851
30
0
41
1
10
77.5866125354634
20
10.4578506094587
30
0
41
1
10
77.3650326108282
20
11.0485029778119
30
0
41
1
10
77.3014677959991
20
11.5707933293812
30
0
41
1
10
77.3437877689744
20
11.9843721239697
30
0
41
1
10
77.3988478281774
20
12.182572799526
30
0
41
1
10
77.4345025058877
20
12.2800473016693
30
0
0
SPLINE
5
28B
100
AcDbEntity
8
1
62
256
6
ByLayer
370
25
48
1
60
0
100
AcDbSpline
70
4
71
3
72
12
73
8
40
0
40
0
40
0
40
0
40
0.101214449441494
40
0.401255707699893
40
0.601162076946897
40
0.800741062839836
40
1
40
1
40
1
40
1
41
1
10
80.3887603014095
20
7.90804326300665
30
0
41
1
10
80.2906921910696
20
7.95485925597982
30
0
41
1
10
79.9068266650175
20
8.14883726865901
30
0
41
1
10
79.3556199188072
20
8.48920814865259
30
0
41
1
10
78.7668421632696
20
8.95747648390073
30
0
41
1
10
78.3054942266171
20
9.40952039706344
30
0
41
1
10
78.0395287661424
20
9.74594047907393
30
0
41
1
10
77.9158899935968
20
9.92272503005628
30
0
0
SPLINE
5
28C
100
AcDbEntity
8
1
62
256
6
ByLayer
370
25
48
1
60
0
100
AcDbSpline
70
4
71
1
72
4
73
2
40
0
40
0
40
1
40
1
41
1
10
85.5803781752607
20
7.63868965581074
30
0
41
1
10
85.9515083480701
20
7.87318579731882
30
0
0
SPLINE
5
28D
100
AcDbEntity
8
1
62
256
6
ByLayer
370
25
48
1
60
0
100
AcDbSpline
70
4
71
2
72
6
73
3
40
0
40
0
40
0
40
1
40
1
40
1
41
1
10
85.9515155635277
20
7.87319121864199
30
0
41
1
10
86.4030379840321
20
8.20167572867282
30
0
41
1
10
86.6300658413146
20
8.71420574512801
30
0
0
SPLINE
5
28E
100
AcDbEntity
8
1
62
256
6
ByLayer
370
25
48
1
60
0
100
AcDbSpline
70
4
71
2
72
6
73
3
40
0
40
0
40
0
40
1
40
1
40
1
41
1
10
86.6302015827441
20
8.71452870184458
30
0
41
1
10
86.6381302232296
20
8.73331087685707
30
0
41
1
10
86.6456200718432
20
8.75227589125561
30
0
0
SPLINE
5
28F
100
AcDbEntity
8
1
62
256
6
ByLayer
370
25
48
1
60
0
100
AcDbSpline
70
4
71
1
72
4
73
2
40
0
40
0
40
1
40
1
41
1
10
86.7823879261597
20
8.74493028550069
30
0
41
1
10
86.7531454422828
20
8.67093997088914
30
0
0
SPLINE
5
290
100
AcDbEntity
8
1
62
256
6
ByLayer
370
25
48
1
60
0
100
AcDbSpline
70
4
71
3
72
17
73
13
40
0
40
0
40
0
40
0
40
0.0738000539115914
40
0.147378459377205
40
0.220699072209472
40
0.293794206486265
40
0.390842623978997
40
0.4876939092026
40
0.584304365697837
40
0.728918018321208
40
0.873407671620567
40
1
40
1
40
1
40
1
41
1
10
77.3291081686572
20
12.3248653957572
30
0
41
1
10
77.2813821042421
20
12.1930395458666
30
0
41
1
10
77.2132018366655
20
11.9264511209186
30
0
41
1
10
77.1960156209503
20
11.5094884795311
30
0
41
1
10
77.251955742708
20
11.099439635512
30
0
41
1
10
77.381797645974
20
10.6605639241447
30
0
41
1
10
77.5928912285158
20
10.2051445529781
30
0
41
1
10
77.8874469304786
20
9.74663966938511
30
0
41
1
10
78.2886092613777
20
9.25674092824731
30
0
41
1
10
78.8114302117498
20
8.75782158841256
30
0
41
1
10
79.4374500756322
20
8.29610524189906
30
0
41
1
10
79.8723919643239
20
8.03975687042693
30
0
41
1
10
80.0822043533104
20
7.92993302437223
30
0
0
SPLINE
5
291
100
AcDbEntity
8
1
62
256
6
ByLayer
370
25
48
1
60
0
100
AcDbSpline
70
4
71
3
72
11
73
7
40
0
40
0
40
0
40
0
40
0.129972917598543
40
0.418947959491013
40
0.709132566292274
40
1
40
1
40
1
40
1
41
1
10
85.8172951322874
20
7.62844639547643
30
0
41
1
10
85.869854462328
20
7.6606203352139
30
0
41
1
10
86.0350299020383
20
7.7698543213567
30
0
41
1
10
86.2956853742117
20
7.98368501886077
30
0
41
1
10
86.5658703151762
20
8.30015740057772
30
0
41
1
10
86.6978191615961
20
8.54170431992953
30
0
41
1
10
86.7529919321053
20
8.67069197859929
30
0
0
SPLINE
5
292
100
AcDbEntity
8
1
62
256
6
ByLayer
370
25
48
1
60
0
100
AcDbSpline
70
4
71
2
72
6
73
3
40
0
40
0
40
0
40
1
40
1
40
1
41
1
10
87.0463873452645
20
8.66949338524352
30
0
41
1
10
87.0379550001055
20
8.64679125267501
30
0
41
1
10
87.0290183562308
20
8.62428684140755
30
0
0
SPLINE
5
293
100
AcDbEntity
8
1
62
256
6
ByLayer
370
25
48
1
60
0
100
AcDbSpline
70
4
71
2
72
6
73
3
40
0
40
0
40
0
40
1
40
1
40
1
41
1
10
87.0290183562308
20
8.62428684140755
30
0
41
1
10
87.0227996977143
20
8.6086267713662
30
0
41
1
10
87.0163394755326
20
8.59306677928203
30
0
0
SPLINE
5
294
100
AcDbEntity
8
1
62
256
6
ByLayer
370
25
48
1
60
0
100
AcDbSpline
70
4
71
3
72
17
73
13
40
0
40
0
40
0
40
0
40
0.0801972503448869
40
0.160010495347457
40
0.239395369293365
40
0.318366118574114
40
0.422940506381683
40
0.527082722973379
40
0.630748391481643
40
0.785699090895052
40
0.940345933855444
40
1
40
1
40
1
40
1
41
1
10
77.1634017306942
20
12.41281047787
30
0
41
1
10
77.1122622110815
20
12.2723537353865
30
0
41
1
10
77.0381311094214
20
11.988400358926
30
0
41
1
10
77.0136379559675
20
11.5447501098847
30
0
41
1
10
77.0655181842331
20
11.1077613733704
30
0
41
1
10
77.194698252146
20
10.6397450975935
30
0
41
1
10
77.41033800605
20
10.1540988100758
30
0
41
1
10
77.7146974387254
20
9.66544322586262
30
0
41
1
10
78.131747110891
20
9.14432137344994
30
0
41
1
10
78.6777377021675
20
8.61460367935048
30
0
41
1
10
79.2216060812287
20
8.20866919425576
30
0
41
1
10
79.5534288312984
20
7.9993925818105
30
0
41
1
10
79.6472562113503
20
7.9432004644981
30
0
0
SPLINE
5
295
100
AcDbEntity
8
1
62
256
6
ByLayer
370
25
48
1
60
0
100
AcDbSpline
70
4
71
3
72
10
73
6
40
0
40
0
40
0
40
0
40
0.289548762762032
40
0.644150594708536
40
1
40
1
40
1
40
1
41
1
10
86.2605244272396
20
7.6266333562154
30
0
41
1
10
86.3559690355097
20
7.69992745702778
30
0
41
1
10
86.5539366809261
20
7.87590576818887
30
0
41
1
10
86.8199839155874
20
8.19713758077996
30
0
41
1
10
86.9582682317411
20
8.4554819477944
30
0
41
1
10
87.016340162877
20
8.59306645438623
30
0
0
SPLINE
5
296
100
AcDbEntity
8
1
62
256
6
ByLayer
370
25
48
1
60
0
100
AcDbSpline
70
4
71
1
72
4
73
2
40
0
40
0
40
1
40
1
41
1
10
81.0715668659483
20
7.9091696250018
30
0
41
1
10
81.1468240265797
20
7.88187025765176
30
0
0
SPLINE
5
297
100
AcDbEntity
8
1
62
256
6
ByLayer
370
25
48
1
60
0
100
AcDbSpline
70
4
71
3
72
11
73
7
40
0
40
0
40
0
40
0
40
0.25500412220993
40
0.605618877162666
40
0.956234269851235
40
1
40
1
40
1
40
1
41
1
10
82.6243800215761
20
7.78919592339079
30
0
41
1
10
82.7362968501821
20
7.81293517333863
30
0
41
1
10
82.9961296205694
20
7.88487504717481
30
0
41
1
10
83.3882967743297
20
8.05918505505398
30
0
41
1
10
83.6670126857585
20
8.24393192149225
30
0
41
1
10
83.8037764237868
20
8.35496986335484
30
0
41
1
10
83.8188369691707
20
8.36746285281153
30
0
0
SPLINE
5
298
100
AcDbEntity
8
1
62
256
6
ByLayer
370
25
48
1
60
0
100
AcDbSpline
70
4
71
1
72
4
73
2
40
0
40
0
40
1
40
1
41
1
10
83.2710825155039
20
13.0530699417586
30
0
41
1
10
83.0230612954319
20
13.1612284627069
30
0
0
SPLINE
5
299
100
AcDbEntity
8
1
62
256
6
ByLayer
370
25
48
1
60
0
100
AcDbSpline
70
4
71
3
72
10
73
6
40
0
40
0
40
0
40
0
40
0.282321613520842
40
0.604750651915092
40
1
40
1
40
1
40
1
41
1
10
83.8188369691707
20
8.36746285281153
30
0
41
1
10
83.9251607071881
20
8.45603040528101
30
0
41
1
10
84.136390723941
20
8.65957409952232
30
0
41
1
10
84.4324689878561
20
9.05138408104169
30
0
41
1
10
84.5866226845078
20
9.36428630496754
30
0
41
1
10
84.655050927745
20
9.54767128228856
30
0
0
SPLINE
5
29A
100
AcDbEntity
8
1
62
256
6
ByLayer
370
25
48
1
60
0
100
AcDbSpline
70
4
71
3
72
10
73
6
40
0
40
0
40
0
40
0
40
0.368199996883626
40
0.73639957804909
40
1
40
1
40
1
40
1
41
1
10
81.0715670406583
20
7.90916994747038
30
0
41
1
10
80.9238224026852
20
7.96559914118544
30
0
41
1
10
80.6422315054919
20
8.10077043820584
30
0
41
1
10
80.2915465685055
20
8.34852387266164
30
0
41
1
10
80.0969953987448
20
8.53400448675294
30
0
41
1
10
80.0198967038375
20
8.61680521409146
30
0
0
SPLINE
5
29B
100
AcDbEntity
8
1
62
256
6
ByLayer
370
25
48
1
60
0
100
AcDbSpline
70
4
71
3
72
12
73
8
40
0
40
0
40
0
40
0
40
0.0838941596883067
40
0.300705940035245
40
0.517457960722508
40
0.734209410487325
40
1
40
1
40
1
40
1
41
1
10
80.1061785451313
20
12.5482790087804
30
0
41
1
10
80.1496680073061
20
12.5907709494407
30
0
41
1
10
80.3097821068462
20
12.7374554837367
30
0
41
1
10
80.6139689695594
20
12.958423659356
30
0
41
1
10
81.0371445119682
20
13.1651941150609
30
0
41
1
10
81.5239740307655
20
13.3090190555498
30
0
41
1
10
81.8693831160025
20
13.3422369320271
30
0
41
1
10
82.0639186876321
20
13.3410390453697
30
0
0
SPLINE
5
29C
100
AcDbEntity
8
1
62
256
6
ByLayer
370
25
48
1
60
0
100
AcDbSpline
70
4
71
2
72
6
73
3
40
0
40
0
40
0
40
1
40
1
40
1
41
1
10
82.063918687632
20
13.3410390453674
30
0
41
1
10
82.5590749795178
20
13.3364687375744
30
0
41
1
10
83.0230612980011
20
13.1612284614429
30
0
0
SPLINE
5
29D
100
AcDbEntity
8
1
62
256
6
ByLayer
370
25
48
1
60
0
100
AcDbSpline
70
4
71
2
72
6
73
3
40
0
40
0
40
0
40
1
40
1
40
1
41
1
10
90.985661226453
20
8.75675457222632
30
0
41
1
10
90.7360742445699
20
8.90489244428957
30
0
41
1
10
90.5155950040695
20
9.09590635167586
30
0
0
SPLINE
5
29E
100
AcDbEntity
8
1
62
256
6
ByLayer
370
25
48
1
60
0
100
AcDbSpline
70
4
71
2
72
6
73
3
40
0
40
0
40
0
40
1
40
1
40
1
41
1
10
90.6206373898449
20
9.21246776300223
30
0
41
1
10
90.5658501753689
20
9.15736730932386
30
0
41
1
10
90.5156492403283
20
9.09594151160301
30
0
0
SPLINE
5
29F
100
AcDbEntity
8
1
62
256
6
ByLayer
370
25
48
1
60
0
100
AcDbSpline
70
4
71
3
72
10
73
6
40
0
40
0
40
0
40
0
40
0.258245997025281
40
0.516515175482188
40
1
40
1
40
1
40
1
41
1
10
91.0650899931613
20
8.91919214953153
30
0
41
1
10
91.0591163629189
20
8.90566509736472
30
0
41
1
10
91.0467036892774
20
8.87833214893594
30
0
41
1
10
91.0206440065645
20
8.82382614018074
30
0
41
1
10
90.9998822687958
20
8.78334368036779
30
0
41
1
10
90.9856612231221
20
8.75675456600646
30
0
0
SPLINE
5
2A0
100
AcDbEntity
8
1
62
256
6
ByLayer
370
25
48
1
60
0
100
AcDbSpline
70
4
71
3
72
10
73
6
40
0
40
0
40
0
40
0
40
0.102729913726635
40
0.32730868358866
40
1
40
1
40
1
40
1
41
1
10
89.5363159125187
20
7.26741900759433
30
0
41
1
10
89.5698492254857
20
7.33003393105626
30
0
41
1
10
89.6766903838857
20
7.52953167620049
30
0
41
1
10
90.0031213630028
20
8.1390366937408
30
0
41
1
10
90.2960123728548
20
8.68593069205262
30
0
41
1
10
90.5155949147454
20
9.09594224179492
30
0
0
SPLINE
5
2A1
100
AcDbEntity
8
1
62
256
6
ByLayer
370
25
48
1
60
0
100
AcDbSpline
70
4
71
1
72
4
73
2
40
0
40
0
40
1
40
1
41
1
10
90.9856606517308
20
8.75675360474951
30
0
41
1
10
90.0891874913908
20
7.08292480007854
30
0
0
SPLINE
5
2A2
100
AcDbEntity
8
1
62
256
6
ByLayer
370
25
48
1
60
0
100
AcDbSpline
70
4
71
3
72
27
73
23
40
0
40
0
40
0
40
0
40
0.435628308107878
40
0.590195819780123
40
0.751418334154032
40
0.920785646417497
40
0.920808674345428
40
0.920811083114456
40
0.92081528960671
40
0.920824849836976
40
0.920843970383228
40
0.920882211818617
40
0.9209586960605
40
0.921111670025236
40
0.921417639851358
40
0.922029666873562
40
0.923254068699726
40
0.925704250425573
40
0.930610030076385
40
0.940442612681234
40
0.960188575569339
40
1
40
1
40
1
40
1
41
1
10
90.0483363392354
20
9.17997449146537
30
0
41
1
10
89.9567986941267
20
9.16921478561109
30
0
41
1
10
89.8333012056753
20
9.16643355730617
30
0
41
1
10
89.6762216463533
20
9.18022508974842
30
0
41
1
10
89.5760903801868
20
9.20013581562685
30
0
41
1
10
89.5097661955439
20
9.22178165382166
30
0
41
1
10
89.4767500198179
20
9.23487767324155
30
0
41
1
10
89.476740720129
20
9.23488135228971
30
0
41
1
10
89.4767314183597
20
9.23488502611554
30
0
41
1
10
89.4767221138464
20
9.23488869299928
30
0
41
1
10
89.4767128093806
20
9.2348923600031
30
0
41
1
10
89.4766866907713
20
9.23490265422227
30
0
41
1
10
89.4766344531834
20
9.23492324549869
30
0
41
1
10
89.4765299764151
20
9.2349644391142
30
0
41
1
10
89.4763210166436
20
9.2350468707639
30
0
41
1
10
89.4759030724957
20
9.23521191131353
30
0
41
1
10
89.4750670888233
20
9.23554269945224
30
0
41
1
10
89.4733947627914
20
9.23620708657963
30
0
41
1
10
89.4700488265944
20
9.23754699654605
30
0
41
1
10
89.4633527189218
20
9.24027048797427
30
0
41
1
10
89.4499453740614
20
9.24588997578589
30
0
41
1
10
89.4385565658323
20
9.25093536262587
30
0
41
1
10
89.4309963195184
20
9.25440930538801
30
0
0
SPLINE
5
2A3
100
AcDbEntity
8
1
62
256
6
ByLayer
370
25
48
1
60
0
100
AcDbSpline
70
4
71
3
72
11
73
7
40
0
40
0
40
0
40
0
40
0.115773020652417
40
0.232215373164181
40
0.473429816966474
40
1
40
1
40
1
40
1
41
1
10
90.5156401645644
20
9.09595310187737
30
0
41
1
10
90.5027806584098
20
9.109689387981
30
0
41
1
10
90.4746856212716
20
9.13393573545154
30
0
41
1
10
90.4062510608394
20
9.17040881333106
30
0
41
1
10
90.2613618588922
20
9.19644035313809
30
0
41
1
10
90.1368474488879
20
9.19665873652287
30
0
41
1
10
90.0483363392354
20
9.17997449146537
30
0
0
SPLINE
5
2A4
100
AcDbEntity
8
1
62
256
6
ByLayer
370
25
48
1
60
0
100
AcDbSpline
70
4
71
2
72
6
73
3
40
0
40
0
40
0
40
1
40
1
40
1
41
1
10
89.5245001727131
20
9.42105828662376
30
0
41
1
10
89.4776633987817
20
9.34264811383837
30
0
41
1
10
89.4312093451716
20
9.25481368685823
30
0
0
SPLINE
5
2A5
100
AcDbEntity
8
1
62
256
6
ByLayer
370
25
48
1
60
0
100
AcDbSpline
70
4
71
2
72
6
73
3
40
0
40
0
40
0
40
1
40
1
40
1
41
1
10
90.0413778745776
20
9.36287063243024
30
0
41
1
10
90.0459025483313
20
9.27435336142118
30
0
41
1
10
90.0483347126656
20
9.18003797208647
30
0
0
SPLINE
5
2A6
100
AcDbEntity
8
1
62
256
6
ByLayer
370
25
48
1
60
0
100
AcDbSpline
70
4
71
2
72
6
73
3
40
0
40
0
40
0
40
1
40
1
40
1
41
1
10
88.9278496611375
20
11.4260694113698
30
0
41
1
10
88.9344807118532
20
11.4871702206183
30
0
41
1
10
88.9350382274329
20
11.5651480994224
30
0
0
SPLINE
5
2A7
100
AcDbEntity
8
1
62
256
6
ByLayer
370
25
48
1
60
0
100
AcDbSpline
70
4
71
3
72
19
73
15
40
0
40
0
40
0
40
0
40
0.016270988838931
40
0.03331083411635
40
0.0730019514477316
40
0.182576407016529
40
0.330333452624395
40
0.499979793742809
40
0.66962613486052
40
0.817383180467831
40
0.926957636037893
40
0.966491494955848
40
0.983578442130808
40
1
40
1
40
1
40
1
41
1
10
88.9350382334546
20
11.5651481001269
30
0
41
1
10
88.9423062137944
20
11.5652194120646
30
0
41
1
10
88.9567079037769
20
11.5670057282532
30
0
41
1
10
88.9866904745352
20
11.579197320674
30
0
41
1
10
89.0424003783057
20
11.6285670743983
30
0
41
1
10
89.0995361425353
20
11.7497479551604
30
0
41
1
10
89.1424416518723
20
11.932978027093
30
0
41
1
10
89.1583412247356
20
12.1479625141577
30
0
41
1
10
89.1449555450834
20
12.3631320898512
30
0
41
1
10
89.1042944077707
20
12.5471343736907
30
0
41
1
10
89.0484371117091
20
12.6689021768623
30
0
41
1
10
88.9936150958252
20
12.7194458261759
30
0
41
1
10
88.9637227499157
20
12.7320468706261
30
0
41
1
10
88.9492598536122
20
12.7340607799038
30
0
41
1
10
88.9419250820312
20
12.7342368989212
30
0
0
SPLINE
5
2A8
100
AcDbEntity
8
1
62
256
6
ByLayer
370
25
48
1
60
0
100
AcDbSpline
70
4
71
2
72
6
73
3
40
0
40
0
40
0
40
1
40
1
40
1
41
1
10
88.9363683697537
20
12.8718066508168
30
0
41
1
10
88.9422861166359
20
12.8121769926181
30
0
41
1
10
88.9419250801266
20
12.7342368986987
30
0
0
SPLINE
5
2A9
100
AcDbEntity
8
1
62
256
6
ByLayer
370
25
48
1
60
0
100
AcDbSpline
70
4
71
3
72
19
73
15
40
0
40
0
40
0
40
0
40
0.0162709888366369
40
0.0333108341126451
40
0.0730019514441144
40
0.182576407014174
40
0.330333452621482
40
0.499979793739188
40
0.669626134857597
40
0.817383180465455
40
0.926957636034249
40
0.966491494952029
40
0.983578442128421
40
1
40
1
40
1
40
1
41
1
10
88.9419250820213
20
12.7342368989213
30
0
41
1
10
88.9346571016825
20
12.7341655869834
30
0
41
1
10
88.9202554117016
20
12.7323792707946
30
0
41
1
10
88.8902728409457
20
12.7201876783719
30
0
41
1
10
88.8345629371794
20
12.6708179246433
30
0
41
1
10
88.7774271729506
20
12.5496370438818
30
0
41
1
10
88.7345216636134
20
12.3664069719486
30
0
41
1
10
88.7186220907501
20
12.1514224848844
30
0
41
1
10
88.7320077704026
20
11.9362529091905
30
0
41
1
10
88.7726689077147
20
11.7522506253514
30
0
41
1
10
88.8285262037778
20
11.6304828221794
30
0
41
1
10
88.883348219665
20
11.5799391728699
30
0
41
1
10
88.9132405655779
20
11.5673381284216
30
0
41
1
10
88.9277034618814
20
11.5653242191441
30
0
41
1
10
88.9350382334645
20
11.5651481001268
30
0
0
SPLINE
5
2AA
100
AcDbEntity
8
1
62
256
6
ByLayer
370
25
48
1
60
0
100
AcDbSpline
70
4
71
3
72
11
73
7
40
0
40
0
40
0
40
0
40
0.249999606962559
40
0.499999399850206
40
0.749999514092262
40
1
40
1
40
1
40
1
41
1
10
87.2924268594415
20
8.58501853089073
30
0
41
1
10
87.2690394713535
20
8.59387439006089
30
0
41
1
10
87.223211782327
20
8.61084853284805
30
0
41
1
10
87.1553675921709
20
8.63479566341054
30
0
41
1
10
87.0942525218207
20
8.65513276464192
30
0
41
1
10
87.0612385583994
20
8.66523261728056
30
0
41
1
10
87.0463936529284
20
8.66950561632778
30
0
0
SPLINE
5
2AB
100
AcDbEntity
8
1
62
256
6
ByLayer
370
25
48
1
60
0
100
AcDbSpline
70
4
71
3
72
11
73
7
40
0
40
0
40
0
40
0
40
0.250006025312954
40
0.500009218413648
40
0.750007483681614
40
1
40
1
40
1
40
1
41
1
10
76.9521498442744
20
12.5027917353993
30
0
41
1
10
76.9755631829738
20
12.4938040055589
30
0
41
1
10
77.0199151348939
20
12.4763926997783
30
0
41
1
10
77.0808289549761
20
12.4512349890348
30
0
41
1
10
77.1306992901822
20
12.4292359768367
30
0
41
1
10
77.1540298298474
20
12.4178372924796
30
0
41
1
10
77.1634289053595
20
12.4128579795739
30
0
0
SPLINE
5
2AC
100
AcDbEntity
8
1
62
256
6
ByLayer
370
25
48
1
60
0
100
AcDbSpline
70
4
71
2
72
6
73
3
40
0
40
0
40
0
40
1
40
1
40
1
41
1
10
77.4345172355266
20
12.2800871290304
30
0
41
1
10
78.4125203880232
20
11.9094179540009
30
0
41
1
10
79.3921057686335
20
11.5401058380148
30
0
0
SPLINE
5
2AD
100
AcDbEntity
8
1
62
256
6
ByLayer
370
25
48
1
60
0
100
AcDbSpline
70
4
71
3
72
11
73
7
40
0
40
0
40
0
40
0
40
0.261500736047959
40
0.521491341246703
40
0.775377129482063
40
1
40
1
40
1
40
1
41
1
10
80.9215272231484
20
15.3778844736681
30
0
41
1
10
80.8219475831099
20
15.3460980360455
30
0
41
1
10
80.6150977223671
20
15.297697691667
30
0
41
1
10
80.2733140381505
20
15.279042212392
30
0
41
1
10
79.9430846492959
20
15.2862984224391
30
0
41
1
10
79.7274620906856
20
15.2948120506377
30
0
41
1
10
79.625789531949
20
15.3005106923527
30
0
0
SPLINE
5
2AE
100
AcDbEntity
8
1
62
256
6
ByLayer
370
25
48
1
60
0
100
AcDbSpline
70
4
71
1
72
4
73
2
40
0
40
0
40
1
40
1
41
1
10
77.8527498483944
20
15.8482614541498
30
0
41
1
10
79.6257861397978
20
15.3005359785152
30
0
0
SPLINE
5
2AF
100
AcDbEntity
8
1
62
256
6
ByLayer
370
25
48
1
60
0
100
AcDbSpline
70
4
71
3
72
12
73
8
40
0
40
0
40
0
40
0
40
0.173069520369253
40
0.336841607481317
40
0.500038912727152
40
0.745843059705397
40
1
40
1
40
1
40
1
41
1
10
77.8528189909073
20
15.848269672622
30
0
41
1
10
77.9598902181177
20
15.8466318764681
30
0
41
1
10
78.167555120318
20
15.8452431261831
30
0
41
1
10
78.4745307647153
20
15.8475402582592
30
0
41
1
10
78.8220092830415
20
15.8578681726943
30
0
41
1
10
79.2134038450074
20
15.8848206962984
30
0
41
1
10
79.4913485888542
20
15.9174821526653
30
0
41
1
10
79.628817911253
20
15.9374009183555
30
0
0
SPLINE
5
2B0
100
AcDbEntity
8
1
62
256
6
ByLayer
370
25
48
1
60
0
100
AcDbSpline
70
4
71
3
72
18
73
14
40
0
40
0
40
0
40
0
40
0.204674344106727
40
0.261848518790381
40
0.319324202987842
40
0.341447510945524
40
0.356321255441772
40
0.371329099293268
40
0.384056033142041
40
0.404863755603724
40
0.456378648556463
40
0.6425629077807
40
1
40
1
40
1
40
1
41
1
10
79.6257911344059
20
15.3005324023818
30
0
41
1
10
79.6323500479936
20
15.2988424740334
30
0
41
1
10
79.6403766632407
20
15.2957877645273
30
0
41
1
10
79.649747436468
20
15.291012640869
30
0
41
1
10
79.6535248268283
20
15.2884116687162
30
0
41
1
10
79.6555081664714
20
15.2859687091093
30
0
41
1
10
79.6561614181241
20
15.2843823326284
30
0
41
1
10
79.6561781443531
20
15.2829950628077
30
0
41
1
10
79.6556137405969
20
15.2815763619181
30
0
41
1
10
79.653831480703
20
15.2795912245808
30
0
41
1
10
79.6465188830917
20
15.2758788673019
30
0
41
1
10
79.6276198082672
20
15.2728223324941
30
0
41
1
10
79.6104722201385
20
15.2710863155888
30
0
41
1
10
79.5987591654637
20
15.2715498492968
30
0
0
SPLINE
5
2B1
100
AcDbEntity
8
1
62
256
6
ByLayer
370
25
48
1
60
0
100
AcDbSpline
70
4
71
3
72
19
73
15
40
0
40
0
40
0
40
0
40
0.594376115289182
40
0.889866333278428
40
0.963597929541074
40
0.972810615120436
40
0.97741663745655
40
0.979719569997298
40
0.979791535803588
40
0.979827640309439
40
0.979846316097759
40
0.979855836381293
40
0.985504352658842
40
1
40
1
40
1
40
1
41
1
10
73.2070393744631
20
9.81410339579801
30
0
41
1
10
73.3932751262101
20
9.84475349077432
30
0
41
1
10
73.6741976031161
20
9.86715154202089
30
0
41
1
10
73.9859558625909
20
9.85995744355104
30
0
41
1
10
74.1069096365903
20
9.84767172563517
30
0
41
1
10
74.1348130717145
20
9.84435124361039
30
0
41
1
10
74.1399484428984
20
9.84372442052067
30
0
41
1
10
74.142171543332
20
9.84344971896015
30
0
41
1
10
74.142939261413
20
9.84335443886478
30
0
41
1
10
74.1429796203804
20
9.84334943082534
30
0
41
1
10
74.1430000947033
20
9.84334688721612
30
0
41
1
10
74.1448079659708
20
9.8431241893831
30
0
41
1
10
74.1512260539335
20
9.84233523914763
30
0
41
1
10
74.1576404297076
20
9.8415557083863
30
0
41
1
10
74.1622557941538
20
9.84099909836712
30
0
0
SPLINE
5
2B2
100
AcDbEntity
8
1
62
256
6
ByLayer
370
25
48
1
60
0
100
AcDbSpline
70
4
71
1
72
4
73
2
40
0
40
0
40
1
40
1
41
1
10
78.849865957163
20
15.2996165585044
30
0
41
1
10
79.088433240179
20
15.2092067872434
30
0
0
SPLINE
5
2B3
100
AcDbEntity
8
1
62
256
6
ByLayer
370
25
48
1
60
0
100
AcDbSpline
70
4
71
1
72
4
73
2
40
0
40
0
40
1
40
1
41
1
10
79.052395455505
20
15.2091706195789
30
0
41
1
10
79.0884950582172
20
15.2091739650203
30
0
0
SPLINE
5
2B4
100
AcDbEntity
8
1
62
256
6
ByLayer
370
25
48
1
60
0
100
AcDbSpline
70
4
71
3
72
11
73
7
40
0
40
0
40
0
40
0
40
0.365740899833159
40
0.583332872012174
40
0.804395136667699
40
1
40
1
40
1
40
1
41
1
10
77.5804973860362
20
15.8419293135447
30
0
41
1
10
77.7379235923523
20
15.7178163003439
30
0
41
1
10
78.0020716165452
20
15.5441427801413
30
0
41
1
10
78.3944638676042
20
15.3547005924649
30
0
41
1
10
78.7218350361515
20
15.2423129428538
30
0
41
1
10
78.9454134100163
20
15.2140733886125
30
0
41
1
10
79.0524556438163
20
15.2091442227952
30
0
0
SPLINE
5
2B5
100
AcDbEntity
8
1
62
256
6
ByLayer
370
25
48
1
60
0
100
AcDbSpline
70
4
71
2
72
6
73
3
40
0
40
0
40
0
40
1
40
1
40
1
41
1
10
77.8527204207383
20
15.8482711832747
30
0
41
1
10
77.7171835870423
20
15.844110989047
30
0
41
1
10
77.5805093021837
20
15.841950171203
30
0
0
SPLINE
5
2B6
100
AcDbEntity
8
1
62
256
6
ByLayer
370
25
48
1
60
0
100
AcDbSpline
70
4
71
3
72
27
73
23
40
0
40
0
40
0
40
0
40
0.435513750555744
40
0.590159308352809
40
0.751471579933507
40
0.920873792116428
40
0.920896698240567
40
0.920899105254616
40
0.920903307985993
40
0.920912859668368
40
0.920931963117209
40
0.920970170351047
40
0.921046586163025
40
0.921199423160896
40
0.92150511862506
40
0.922116595212368
40
0.923339889338475
40
0.925787828450032
40
0.930689014808393
40
0.940511983947886
40
0.960237041404073
40
1
40
1
40
1
40
1
41
1
10
74.2239753899303
20
11.9131264642137
30
0
41
1
10
74.3107501241311
20
11.9231020702985
30
0
41
1
10
74.4279866631099
20
11.924797717798
30
0
41
1
10
74.5767700952104
20
11.9094519575697
30
0
41
1
10
74.672515487685
20
11.88866768864
30
0
41
1
10
74.7369771182467
20
11.8665967493288
30
0
41
1
10
74.7694935619901
20
11.8533517231041
30
0
41
1
10
74.7695028271135
20
11.853347957849
30
0
41
1
10
74.7695120941164
20
11.8533441971877
30
0
41
1
10
74.7695213639383
20
11.8533404434688
30
0
41
1
10
74.7695306337153
20
11.8533366896395
30
0
41
1
10
74.7695563221082
20
11.8533262865412
30
0
41
1
10
74.7696076997632
20
11.853305477594
30
0
41
1
10
74.7697104586277
20
11.8532638489732
30
0
41
1
10
74.7699159904676
20
11.8531805486674
30
0
41
1
10
74.7703271102451
20
11.8530137762147
30
0
41
1
10
74.7711495712413
20
11.8526795459004
30
0
41
1
10
74.7727953565575
20
11.8520083608064
30
0
41
1
10
74.7760902346701
20
11.850655199938
30
0
41
1
10
74.7826923239007
20
11.8479065766728
30
0
41
1
10
74.7959442758073
20
11.8422423055971
30
0
41
1
10
74.8072585548745
20
11.8371669250779
30
0
41
1
10
74.8147952397985
20
11.8336769010115
30
0
0
SPLINE
5
2B7
100
AcDbEntity
8
1
62
256
6
ByLayer
370
25
48
1
60
0
100
AcDbSpline
70
4
71
3
72
11
73
7
40
0
40
0
40
0
40
0
40
0.115429378432387
40
0.231537466538021
40
0.472415256526373
40
1
40
1
40
1
40
1
41
1
10
73.7634811003637
20
11.9986875280735
30
0
41
1
10
73.7769815992956
20
11.9849828669489
30
0
41
1
10
73.8060948007871
20
11.9607747033674
30
0
41
1
10
73.8756099616337
20
11.9242411350956
30
0
41
1
10
74.0194598931595
20
11.8979006994996
30
0
41
1
10
74.1399653142621
20
11.8970035283574
30
0
41
1
10
74.2239753899303
20
11.9131264642137
30
0
0
SPLINE
5
2B8
100
AcDbEntity
8
1
62
256
6
ByLayer
370
25
48
1
60
0
100
AcDbSpline
70
4
71
3
72
11
73
7
40
0
40
0
40
0
40
0
40
0.166176033392615
40
0.330818509854453
40
0.498302720314977
40
1
40
1
40
1
40
1
41
1
10
75.075052752919
20
14.4475940892806
30
0
41
1
10
75.002401573776
20
14.3119465919424
30
0
41
1
10
74.8577716906916
20
14.0419023130262
30
0
41
1
10
74.6399352107382
20
13.6351337232689
30
0
41
1
10
74.275401528606
20
12.9544879571863
30
0
41
1
10
73.9828554337436
20
12.4082344008132
30
0
41
1
10
73.763528363653
20
11.9986984592569
30
0
0
SPLINE
5
2B9
100
AcDbEntity
8
1
62
256
6
ByLayer
370
25
48
1
60
0
100
AcDbSpline
70
4
71
3
72
15
73
11
40
0
40
0
40
0
40
0
40
0.148033963960665
40
0.299230643805245
40
0.370978072757182
40
0.466997370138555
40
0.647543192722631
40
0.830202748509912
40
0.927562976751689
40
1
40
1
40
1
40
1
41
1
10
76.9948272028813
20
15.2078261071158
30
0
41
1
10
76.8871962806757
20
15.2077597215959
30
0
41
1
10
76.6692675083444
20
15.2054188547835
30
0
41
1
10
76.3976110214879
20
15.2132586681808
30
0
41
1
10
76.164155289837
20
15.1958273892826
30
0
41
1
10
75.9123232929748
20
15.1509302756859
30
0
41
1
10
75.5953272225068
20
15.0226261226953
30
0
41
1
10
75.3313485866968
20
14.8026305635196
30
0
41
1
10
75.1701566964296
20
14.598605785651
30
0
41
1
10
75.1022078087377
20
14.4937441290124
30
0
41
1
10
75.0751338305546
20
14.447557935413
30
0
0
SPLINE
5
2BA
100
AcDbEntity
8
1
62
256
6
ByLayer
370
25
48
1
60
0
100
AcDbSpline
70
4
71
2
72
6
73
3
40
0
40
0
40
0
40
1
40
1
40
1
41
1
10
76.9949938567796
20
15.208032585626
30
0
41
1
10
78.0189134576492
20
15.2081888133558
30
0
41
1
10
79.0524556437468
20
15.2091442253036
30
0
0
SPLINE
5
2BB
100
AcDbEntity
8
1
62
256
6
ByLayer
370
25
48
1
60
0
100
AcDbSpline
70
4
71
1
72
4
73
2
40
0
40
0
40
1
40
1
41
1
10
79.0884310365184
20
15.209193558735
30
0
41
1
10
79.1363121867653
20
15.2092603825119
30
0
0
SPLINE
5
2BC
100
AcDbEntity
8
1
62
256
6
ByLayer
370
25
48
1
60
0
100
AcDbSpline
70
4
71
1
72
4
73
2
40
0
40
0
40
1
40
1
41
1
10
76.9966118785263
20
15.8328839087192
30
0
41
1
10
76.9950051641442
20
15.208033522543
30
0
0
SPLINE
5
2BD
100
AcDbEntity
8
1
62
256
6
ByLayer
370
25
48
1
60
0
100
AcDbSpline
70
4
71
3
72
11
73
7
40
0
40
0
40
0
40
0
40
0.33843957094785
40
0.500003358542213
40
0.749763246918227
40
1
40
1
40
1
40
1
41
1
10
76.9966087214173
20
15.833000693573
30
0
41
1
10
77.0626840908549
20
15.8336256597525
30
0
41
1
10
77.1602428334826
20
15.8346582026073
30
0
41
1
10
77.3065654801528
20
15.8360626278643
30
0
41
1
10
77.4352109904023
20
15.838344311059
30
0
41
1
10
77.5321063088162
20
15.8406318066362
30
0
41
1
10
77.5805090332624
20
15.8419506066319
30
0
0
SPLINE
5
2BE
100
AcDbEntity
8
1
62
256
6
ByLayer
370
25
48
1
60
0
100
AcDbSpline
70
4
71
3
72
10
73
6
40
0
40
0
40
0
40
0
40
0.366220242782534
40
0.743164862669048
40
1
40
1
40
1
40
1
41
1
10
73.1953954222567
20
12.166899691249
30
0
41
1
10
73.1694461993581
20
12.0853545081766
30
0
41
1
10
73.1093144118916
20
11.9178770997851
30
0
41
1
10
73.0061887782321
20
11.6831324312304
30
0
41
1
10
72.9317239854129
20
11.5355924057412
30
0
41
1
10
72.8998746199267
20
11.4756193257767
30
0
0
SPLINE
5
2BF
100
AcDbEntity
8
1
62
256
6
ByLayer
370
25
48
1
60
0
100
AcDbSpline
70
4
71
1
72
4
73
2
40
0
40
0
40
1
40
1
41
1
10
73.1953895090098
20
12.1669021839198
30
0
41
1
10
73.6607555943248
20
11.8786162074114
30
0
0
SPLINE
5
2C0
100
AcDbEntity
8
1
62
256
6
ByLayer
370
25
48
1
60
0
100
AcDbSpline
70
4
71
3
72
10
73
6
40
0
40
0
40
0
40
0
40
0.261798199575631
40
0.517637008615503
40
1
40
1
40
1
40
1
41
1
10
73.6608886388521
20
11.8784988802434
30
0
41
1
10
73.7054879548888
20
11.8464323604851
30
0
41
1
10
73.7972821017908
20
11.7934125202519
30
0
41
1
10
73.9958717910833
20
11.7378999743768
30
0
41
1
10
74.1410909902761
20
11.723225257642
30
0
41
1
10
74.2380030581266
20
11.7274044280207
30
0
0
SPLINE
5
2C1
100
AcDbEntity
8
1
62
256
6
ByLayer
370
25
48
1
60
0
100
AcDbSpline
70
4
71
3
72
17
73
13
40
0
40
0
40
0
40
0
40
0.508209933925596
40
0.943803685298921
40
0.944539060521244
40
0.944906529097849
40
0.944998373413822
40
0.945046580714264
40
0.945083043447473
40
0.945101328582767
40
0.972890034123228
40
1
40
1
40
1
40
1
41
1
10
74.2380030581266
20
11.7274044280207
30
0
41
1
10
74.322523759696
20
11.7325465582405
30
0
41
1
10
74.4777043741966
20
11.7231994862408
30
0
41
1
10
74.6374540407499
20
11.7081562193734
30
0
41
1
10
74.7070082271143
20
11.6800640702389
30
0
41
1
10
74.7071984519914
20
11.6799870387866
30
0
41
1
10
74.7072792575264
20
11.6799542987535
30
0
41
1
10
74.7073073572468
20
11.6799428966508
30
0
41
1
10
74.7073237531915
20
11.6799362690618
30
0
41
1
10
74.711762592799
20
11.6781614240849
30
0
41
1
10
74.7204660768428
20
11.6744699343264
30
0
41
1
10
74.7290268045989
20
11.6704051630232
30
0
41
1
10
74.7332232831198
20
11.668306396624
30
0
0
SPLINE
5
2C2
100
AcDbEntity
8
1
62
256
6
ByLayer
370
25
48
1
60
0
100
AcDbSpline
70
4
71
3
72
18
73
14
40
0
40
0
40
0
40
0
40
0.128439307360336
40
0.259359650132883
40
0.324357954713356
40
0.388948505619692
40
0.453370423297869
40
0.517705329781625
40
0.582288649350885
40
0.647229420794934
40
0.778153047160321
40
0.911377387619549
40
1
40
1
40
1
40
1
41
1
10
74.7429497030587
20
11.6631329360403
30
0
41
1
10
74.8505334904155
20
11.6083766341934
30
0
41
1
10
75.0411517703858
20
11.472922497056
30
0
41
1
10
75.2302820127255
20
11.2350003208081
30
0
41
1
10
75.3197689649455
20
11.0126144435231
30
0
41
1
10
75.3508547309583
20
10.8361638454862
30
0
41
1
10
75.341520142547
20
10.6576765425989
30
0
41
1
10
75.2902822219706
20
10.4865085195924
30
0
41
1
10
75.1993361875588
20
10.3326546576948
30
0
41
1
10
75.0341041674882
20
10.1598126405639
30
0
41
1
10
74.7620380348258
20
10.0169002554624
30
0
41
1
10
74.4381648665935
20
9.97605398788751
30
0
41
1
10
74.2388734162884
20
9.99738557241468
30
0
41
1
10
74.1586789815398
20
10.0141480317668
30
0
0
SPLINE
5
2C3
100
AcDbEntity
8
1
62
256
6
ByLayer
370
25
48
1
60
0
100
AcDbSpline
70
4
71
1
72
4
73
2
40
0
40
0
40
1
40
1
41
1
10
74.1586789815398
20
10.0141480317668
30
0
41
1
10
74.0300948732314
20
10.0434430662038
30
0
0
SPLINE
5
2C4
100
AcDbEntity
8
1
62
256
6
ByLayer
370
25
48
1
60
0
100
AcDbSpline
70
4
71
2
72
6
73
3
40
0
40
0
40
0
40
1
40
1
40
1
41
1
10
73.7102755477749
20
10.0599280800544
30
0
41
1
10
73.8705663602141
20
10.0583140529617
30
0
41
1
10
74.0300965275449
20
10.0434597862771
30
0
0
SPLINE
5
2C5
100
AcDbEntity
8
1
62
256
6
ByLayer
370
25
48
1
60
0
100
AcDbSpline
70
4
71
2
72
6
73
3
40
0
40
0
40
0
40
1
40
1
40
1
41
1
10
73.0585165669941
20
10.0289662986582
30
0
41
1
10
73.378448680236
20
10.061270316619
30
0
41
1
10
73.7102755437489
20
10.0599281212688
30
0
0
SPLINE
5
2C6
100
AcDbEntity
8
1
62
256
6
ByLayer
370
25
48
1
60
0
100
AcDbSpline
70
4
71
2
72
6
73
3
40
0
40
0
40
0
40
1
40
1
40
1
41
1
10
72.755085087765
20
11.1298023606262
30
0
41
1
10
72.6069209930588
20
10.6828420463368
30
0
41
1
10
72.42498888526
20
10.3392366121462
30
0
0
SPLINE
5
2C7
100
AcDbEntity
8
1
62
256
6
ByLayer
370
25
48
1
60
0
100
AcDbSpline
70
4
71
3
72
10
73
6
40
0
40
0
40
0
40
0
40
0.250591184603216
40
0.5000598565427
40
1
40
1
40
1
40
1
41
1
10
72.8998743067837
20
11.4756187566316
30
0
41
1
10
72.8856264135143
20
11.4477151965793
30
0
41
1
10
72.858278833476
20
11.391505899074
30
0
41
1
10
72.8080013305109
20
11.2765947639026
30
0
41
1
10
72.7749942146653
20
11.1890223408449
30
0
41
1
10
72.755085087765
20
11.1298023606262
30
0
0
SPLINE
5
2C8
100
AcDbEntity
8
1
62
256
6
ByLayer
370
25
48
1
60
0
100
AcDbSpline
70
4
71
1
72
4
73
2
40
0
40
0
40
1
40
1
41
1
10
74.5480016853848
20
14.7264758247276
30
0
41
1
10
74.7120611931471
20
15.0372796737197
30
0
0
SPLINE
5
2C9
100
AcDbEntity
8
1
62
256
6
ByLayer
370
25
48
1
60
0
100
AcDbSpline
70
4
71
2
72
6
73
3
40
0
40
0
40
0
40
1
40
1
40
1
41
1
10
74.7120611934265
20
15.0372796735764
30
0
41
1
10
74.9057592614128
20
15.4061412573835
30
0
41
1
10
75.2630109111539
20
15.6212865081133
30
0
0
SPLINE
5
2CA
100
AcDbEntity
8
1
62
256
6
ByLayer
370
25
48
1
60
0
100
AcDbSpline
70
4
71
3
72
10
73
6
40
0
40
0
40
0
40
0
40
0.325034472058356
40
0.659531779499578
40
1
40
1
40
1
40
1
41
1
10
75.2630109111539
20
15.6212865081133
30
0
41
1
10
75.333211262982
20
15.6628199895227
30
0
41
1
10
75.4801544914971
20
15.7341787597722
30
0
41
1
10
75.7209756032906
20
15.8037703884095
30
0
41
1
10
75.887387935003
20
15.821741798973
30
0
41
1
10
75.9730375370282
20
15.8236248121635
30
0
0
SPLINE
5
2CB
100
AcDbEntity
8
1
62
256
6
ByLayer
370
25
48
1
60
0
100
AcDbSpline
70
4
71
3
72
10
73
6
40
0
40
0
40
0
40
0
40
0.307414134666976
40
0.642515280128216
40
1
40
1
40
1
40
1
41
1
10
75.9730376933956
20
15.8236197716886
30
0
41
1
10
76.0782276810335
20
15.8239317189872
30
0
41
1
10
76.2978805576131
20
15.8250188820944
30
0
41
1
10
76.638694303617
20
15.8292594603185
30
0
41
1
10
76.8748168105124
20
15.8316315143023
30
0
41
1
10
76.9966398633756
20
15.8329197302424
30
0
0
SPLINE
5
2CC
100
AcDbEntity
8
1
62
256
6
ByLayer
370
25
48
1
60
0
100
AcDbSpline
70
4
71
3
72
57
73
53
40
0
40
0
40
0
40
0
40
0.0013818801435986
40
0.0090870332906232
40
0.0174258302347255
40
0.0225721340177712
40
0.0253905468653779
40
0.0261207343034699
40
0.0261469185282576
40
0.0261706291931991
40
0.0262174334106746
40
0.0266663814150448
40
0.0270076933751915
40
0.0276182349529906
40
0.0287118616011672
40
0.0306755624669437
40
0.14636379557618
40
0.302287779466586
40
0.501678393804918
40
0.750241157785184
40
0.809060324760652
40
0.840979507449531
40
0.857570119596968
40
0.866023639043819
40
0.870290009802053
40
0.87243310517938
40
0.873507131274271
40
0.874044764036771
40
0.874313735360932
40
0.874448259760548
40
0.874515531644939
40
0.874582809985857
40
0.876609151671443
40
0.892526100452892
40
0.936759145186308
40
0.967797016925015
40
0.978248585551651
40
0.981403877871717
40
0.982488344620608
40
0.983274689639666
40
0.985139772947535
40
0.987124577915374
40
0.992050452882677
40
0.997033361560508
40
0.997888779821026
40
0.998003674825459
40
0.99808398255876
40
0.998141219219649
40
0.998201891237597
40
0.998289439164207
40
0.998776584166866
40
1
40
1
40
1
40
1
41
1
10
74.1465663524194
20
9.86244223621284
30
0
41
1
10
74.1465064844442
20
9.86252723593366
30
0
41
1
10
74.1461357977995
20
9.86309564470003
30
0
41
1
10
74.1459600554282
20
9.86443598469322
30
0
41
1
10
74.145748282953
20
9.86599042083628
30
0
41
1
10
74.145636713073
20
9.86719691387189
30
0
41
1
10
74.1456070913219
20
9.86786003390086
30
0
41
1
10
74.1455729295835
20
9.86811227152765
30
0
41
1
10
74.1455778102258
20
9.86817667777926
30
0
41
1
10
74.1455673368664
20
9.86817989772224
30
0
41
1
10
74.145531472467
20
9.86818839358347
30
0
41
1
10
74.1454853961836
20
9.868237732183
30
0
41
1
10
74.145399685231
20
9.86829502561876
30
0
41
1
10
74.1452775791065
20
9.86838739353843
30
0
41
1
10
74.1450572742339
20
9.86854840212616
30
0
41
1
10
74.1379690831536
20
9.87384992274983
30
0
41
1
10
74.1236541677059
20
9.88859613637318
30
0
41
1
10
74.1028762502918
20
9.91671661125882
30
0
41
1
10
74.0790150909267
20
9.95421887792932
30
0
41
1
10
74.0607929131468
20
9.98596179903607
30
0
41
1
10
74.0493933237764
20
10.0070301846324
30
0
41
1
10
74.0458496620765
20
10.0136672831601
30
0
41
1
10
74.0439818606241
20
10.0171788877219
30
0
41
1
10
74.0430240041425
20
10.0189826911153
30
0
41
1
10
74.0425390592239
20
10.0198965383379
30
0
41
1
10
74.0422950816115
20
10.020356442754
30
0
41
1
10
74.0421727163692
20
10.0205871394059
30
0
41
1
10
74.0421114393033
20
10.0207026736107
30
0
41
1
10
74.042080777595
20
10.020760487364
30
0
41
1
10
74.0420654403239
20
10.0207894056274
30
0
41
1
10
74.0420566751299
20
10.020805934442
30
0
41
1
10
74.0419862586949
20
10.0209386617905
30
0
41
1
10
74.0414122898015
20
10.0220503807156
30
0
41
1
10
74.0394416025526
20
10.025887011159
30
0
41
1
10
74.0366123919366
20
10.0314892795848
30
0
41
1
10
74.0337400944011
20
10.0366649345455
30
0
41
1
10
74.0328927486711
20
10.0395605394586
30
0
41
1
10
74.0327356964914
20
10.0405322205992
30
0
41
1
10
74.0327398811389
20
10.040869138203
30
0
41
1
10
74.0328100508639
20
10.0411128919117
30
0
41
1
10
74.0330237584829
20
10.0413693072384
30
0
41
1
10
74.0335511670534
20
10.0417249165766
30
0
41
1
10
74.0344476332388
20
10.0419357301435
30
0
41
1
10
74.0352448410449
20
10.0418969245044
30
0
41
1
10
74.03569632623
20
10.0418951867732
30
0
41
1
10
74.035771797921
20
10.0419151662771
30
0
41
1
10
74.0357888188408
20
10.0419231513332
30
0
41
1
10
74.0357970911492
20
10.0419355937185
30
0
41
1
10
74.0357914377422
20
10.0419495726975
30
0
41
1
10
74.0357578056839
20
10.0419795647019
30
0
41
1
10
74.0356328059407
20
10.0420302018941
30
0
41
1
10
74.0355179102106
20
10.042075383051
30
0
41
1
10
74.0354277611096
20
10.0420955130249
30
0
0
SPLINE
5
2CD
100
AcDbEntity
8
1
62
256
6
ByLayer
370
25
48
1
60
0
100
AcDbSpline
70
4
71
2
72
6
73
3
40
0
40
0
40
0
40
1
40
1
40
1
41
1
10
75.8999768943776
20
8.93524416924554
30
0
41
1
10
75.9773491860024
20
8.93462018945478
30
0
41
1
10
76.0309893933717
20
8.9334113806804
30
0
0
SPLINE
5
2CE
100
AcDbEntity
8
1
62
256
6
ByLayer
370
25
48
1
60
0
100
AcDbSpline
70
4
71
3
72
13
73
9
40
0
40
0
40
0
40
0
40
0.0534848202386304
40
0.109775861735226
40
0.243518807595746
40
0.359211738299641
40
0.495110822446344
40
1
40
1
40
1
40
1
41
1
10
75.8999770118588
20
8.9352441832343
30
0
41
1
10
75.899786268694
20
8.9436194723123
30
0
41
1
10
75.8974078962736
20
8.96015097549057
30
0
41
1
10
75.8817440296836
20
8.99449577253903
30
0
41
1
10
75.8481038022561
20
9.02825530354336
30
0
41
1
10
75.7989293567724
20
9.0601704709466
30
0
41
1
10
75.6941991228145
20
9.10833409898171
30
0
41
1
10
75.6006882302096
20
9.13321011731422
30
0
41
1
10
75.5226321105629
20
9.14125936478542
30
0
0
SPLINE
5
2CF
100
AcDbEntity
8
1
62
256
6
ByLayer
370
25
48
1
60
0
100
AcDbSpline
70
4
71
3
72
10
73
6
40
0
40
0
40
0
40
0
40
0.241466349591975
40
0.50024205569492
40
1
40
1
40
1
40
1
41
1
10
75.6359083900066
20
9.25943381437944
30
0
41
1
10
75.6285105437709
20
9.25116387973212
30
0
41
1
10
75.612260813066
20
9.23333947021233
30
0
41
1
10
75.5751218243411
20
9.1939847065101
30
0
41
1
10
75.5443955245451
20
9.16274684451592
30
0
41
1
10
75.5227333585343
20
9.14124442837214
30
0
0
SPLINE
5
2D0
100
AcDbEntity
8
1
62
256
6
ByLayer
370
25
48
1
60
0
100
AcDbSpline
70
4
71
2
72
6
73
3
40
0
40
0
40
0
40
1
40
1
40
1
41
1
10
75.6321050468291
20
8.6136619090708
30
0
41
1
10
75.5849637197045
20
8.66937175545429
30
0
41
1
10
75.5204034096058
20
8.73523536790013
30
0
0
SPLINE
5
2D1
100
AcDbEntity
8
1
62
256
6
ByLayer
370
25
48
1
60
0
100
AcDbSpline
70
4
71
3
72
14
73
10
40
0
40
0
40
0
40
0
40
0.268561937259593
40
0.505293872095709
40
0.639854421229285
40
0.756631486430894
40
0.88993762492175
40
0.946265855441365
40
1
40
1
40
1
40
1
41
1
10
75.5202212864554
20
8.73521149887933
30
0
41
1
10
75.5609005077628
20
8.73994711897735
30
0
41
1
10
75.6360916568768
20
8.75391649657134
30
0
41
1
10
75.7294751135522
20
8.78153871070017
30
0
41
1
10
75.797263192156
20
8.81190264551171
30
0
41
1
10
75.8468174931424
20
8.84291511653601
30
0
41
1
10
75.8810993907641
20
8.87613257311872
30
0
41
1
10
75.8971216996956
20
8.91027266295358
30
0
41
1
10
75.8996948483542
20
8.92682400770567
30
0
41
1
10
75.8999770118589
20
8.9352441832343
30
0
0
SPLINE
5
2D2
100
AcDbEntity
8
1
62
256
6
ByLayer
370
25
48
1
60
0
100
AcDbSpline
70
4
71
2
72
6
73
3
40
0
40
0
40
0
40
1
40
1
40
1
41
1
10
74.7331628605118
20
11.6683366701501
30
0
41
1
10
74.7682371084682
20
11.7454988924875
30
0
41
1
10
74.8146807546655
20
11.833459522056
30
0
0
SPLINE
5
2D3
100
AcDbEntity
8
1
62
256
6
ByLayer
370
25
48
1
60
0
100
AcDbSpline
70
4
71
3
72
11
73
7
40
0
40
0
40
0
40
0
40
0.630175530014417
40
0.844003586884531
40
0.926183278274221
40
1
40
1
40
1
40
1
41
1
10
75.5226928533817
20
9.14125039647247
30
0
41
1
10
75.5203127926495
20
9.2452213896488
30
0
41
1
10
75.4819129652046
20
9.36412731994488
30
0
41
1
10
75.4056162750916
20
9.48643621243019
30
0
41
1
10
75.3581781978512
20
9.51907797453998
30
0
41
1
10
75.335168613478
20
9.5237648924335
30
0
41
1
10
75.3235491868949
20
9.52437267638426
30
0
0
SPLINE
5
2D4
100
AcDbEntity
8
1
62
256
6
ByLayer
370
25
48
1
60
0
100
AcDbSpline
70
4
71
2
72
6
73
3
40
0
40
0
40
0
40
1
40
1
40
1
41
1
10
75.3235290102441
20
9.52437281793028
30
0
41
1
10
75.3238704664523
20
9.6025525706931
30
0
41
1
10
75.3179039580056
20
9.6622697320911
30
0
0
SPLINE
5
2D5
100
AcDbEntity
8
1
62
256
6
ByLayer
370
25
48
1
60
0
100
AcDbSpline
70
4
71
2
72
6
73
3
40
0
40
0
40
0
40
1
40
1
40
1
41
1
10
75.3166622151815
20
8.35528386324158
30
0
41
1
10
75.316103199342
20
8.27716367991217
30
0
41
1
10
75.3094516560035
20
8.21600650885924
30
0
0
SPLINE
5
2D6
100
AcDbEntity
8
1
62
256
6
ByLayer
370
25
48
1
60
0
100
AcDbSpline
70
4
71
3
72
13
73
9
40
0
40
0
40
0
40
0
40
0.0534847570253845
40
0.109775767233668
40
0.243518883066483
40
0.359211886986348
40
0.495110979971941
40
1
40
1
40
1
40
1
41
1
10
75.3166623383282
20
8.35528387758988
30
0
41
1
10
75.3249702818749
20
8.35546021929088
30
0
41
1
10
75.3413650418471
20
8.35782635576969
30
0
41
1
10
75.3754053403776
20
8.37355156052595
30
0
41
1
10
75.4088307264639
20
8.40739961997286
30
0
41
1
10
75.4403968820744
20
8.45691094018473
30
0
41
1
10
75.4879755973618
20
8.56239618236977
30
0
41
1
10
75.5124743548521
20
8.65661563297629
30
0
41
1
10
75.5203104030582
20
8.73528735457915
30
0
0
SPLINE
5
2D7
100
AcDbEntity
8
1
62
256
6
ByLayer
370
25
48
1
60
0
100
AcDbSpline
70
4
71
3
72
14
73
10
40
0
40
0
40
0
40
0
40
0.26855529164129
40
0.5052877850605
40
0.639850619033977
40
0.756627460485586
40
0.889937285374126
40
0.946266020493787
40
1
40
1
40
1
40
1
41
1
10
75.1175080370906
20
8.73848731059205
30
0
41
1
10
75.1222829056093
20
8.69747154995214
30
0
41
1
10
75.1362830587867
20
8.62164740702697
30
0
41
1
10
75.1638618705066
20
8.52745781621029
30
0
41
1
10
75.1941115033446
20
8.45906391081696
30
0
41
1
10
75.2249703398618
20
8.4090494930422
30
0
41
1
10
75.2579873969908
20
8.37442686151836
30
0
41
1
10
75.2918851950549
20
8.35820961833482
30
0
41
1
10
75.3083090306872
20
8.3555842755847
30
0
41
1
10
75.3166623383282
20
8.35528387758988
30
0
0
SPLINE
5
2D8
100
AcDbEntity
8
1
62
256
6
ByLayer
370
25
48
1
60
0
100
AcDbSpline
70
4
71
3
72
13
73
9
40
0
40
0
40
0
40
0
40
0.0534854284212188
40
0.109776770981414
40
0.243518081689399
40
0.359210308233933
40
0.495109307386632
40
1
40
1
40
1
40
1
41
1
10
74.7402345133644
20
8.94441237074984
30
0
41
1
10
74.7404252217018
20
8.93603774055995
30
0
41
1
10
74.7428032663003
20
8.91950751406881
30
0
41
1
10
74.7584646989945
20
8.88516541698607
30
0
41
1
10
74.7921002176508
20
8.85140754167163
30
0
41
1
10
74.8412689229606
20
8.81949346936989
30
0
41
1
10
74.9459885454601
20
8.77133044243752
30
0
41
1
10
75.0394907449665
20
8.74645364371913
30
0
41
1
10
75.1175401716116
20
8.73840291227162
30
0
0
SPLINE
5
2D9
100
AcDbEntity
8
1
62
256
6
ByLayer
370
25
48
1
60
0
100
AcDbSpline
70
4
71
3
72
14
73
10
40
0
40
0
40
0
40
0
40
0.26856366768196
40
0.505294977675592
40
0.639855393763669
40
0.756632015237004
40
0.889936925979003
40
0.946265384785251
40
1
40
1
40
1
40
1
41
1
10
75.119961573477
20
9.14444133467798
30
0
41
1
10
75.0792847714622
20
9.13970509753009
30
0
41
1
10
75.0040985493841
20
9.12573487533521
30
0
41
1
10
74.9107214697332
20
9.09811231134512
30
0
41
1
10
74.8429386093356
20
9.06774868055849
30
0
41
1
10
74.7933885023331
20
9.0367369435836
30
0
41
1
10
74.7591100551872
20
9.00352063422815
30
0
41
1
10
74.7430895450819
20
8.9693824868972
30
0
41
1
10
74.7405166460187
20
8.9528320674404
30
0
41
1
10
74.7402345133743
20
8.94441237074976
30
0
0
SPLINE
5
2DA
100
AcDbEntity
8
1
62
256
6
ByLayer
370
25
48
1
60
0
100
AcDbSpline
70
4
71
3
72
13
73
9
40
0
40
0
40
0
40
0
40
0.0534850556398982
40
0.109775643397922
40
0.243514563978068
40
0.359207145651143
40
0.495104311414767
40
1
40
1
40
1
40
1
41
1
10
75.323549186895
20
9.52437267639426
30
0
41
1
10
75.3152415019895
20
9.52419627142769
30
0
41
1
10
75.2988473221192
20
9.52183016299331
30
0
41
1
10
75.2648085477368
20
9.50610641207192
30
0
41
1
10
75.2313840395959
20
9.47226087285258
30
0
41
1
10
75.1998185559113
20
9.42275264912415
30
0
41
1
10
75.1522392398568
20
9.31727126479952
30
0
41
1
10
75.1277398606135
20
9.22305464154136
30
0
41
1
10
75.1199032329928
20
9.14438450242019
30
0
0
SPLINE
5
2DB
100
AcDbEntity
8
1
62
256
6
ByLayer
370
25
48
1
60
0
100
AcDbSpline
70
4
71
1
72
4
73
2
40
0
40
0
40
1
40
1
41
1
10
73.2681373938491
20
12.3368052863652
30
0
41
1
10
73.7635255962575
20
11.998734085583
30
0
0
SPLINE
5
2DC
100
AcDbEntity
8
1
62
256
6
ByLayer
370
25
48
1
60
0
100
AcDbSpline
70
4
71
1
72
4
73
2
40
0
40
0
40
1
40
1
41
1
10
73.2681380041476
20
12.3368062920409
30
0
41
1
10
74.5480016853903
20
14.7264758247356
30
0
0
SPLINE
5
2DD
100
AcDbEntity
8
1
62
256
6
ByLayer
370
25
48
1
60
0
100
AcDbSpline
70
4
71
2
72
6
73
3
40
0
40
0
40
0
40
1
40
1
40
1
41
1
10
74.9953302008651
20
9.26447114863246
30
0
41
1
10
75.0550481331258
20
9.21034519182887
30
0
41
1
10
75.11991082595
20
9.14443773255529
30
0
0
SPLINE
5
2DE
100
AcDbEntity
8
1
62
256
6
ByLayer
370
25
48
1
60
0
100
AcDbSpline
70
4
71
2
72
6
73
3
40
0
40
0
40
0
40
1
40
1
40
1
41
1
10
74.9914630068738
20
8.61869758375467
30
0
41
1
10
75.0523168544307
20
8.67304127438637
30
0
41
1
10
75.1175185806051
20
8.73840587138986
30
0
0
SPLINE
5
2DF
100
AcDbEntity
8
1
62
256
6
ByLayer
370
25
48
1
60
0
100
AcDbSpline
70
4
71
2
72
6
73
3
40
0
40
0
40
0
40
1
40
1
40
1
41
1
10
74.2379990589978
20
11.7274308892017
30
0
41
1
10
74.224602544754
20
11.8166832555951
30
0
41
1
10
74.2239757413972
20
11.9130636907499
30
0
0
SPLINE
5
2E0
100
AcDbEntity
8
1
62
256
6
ByLayer
370
25
48
1
60
0
100
AcDbSpline
70
4
71
2
72
6
73
3
40
0
40
0
40
0
40
1
40
1
40
1
41
1
10
74.7402343843101
20
8.94441235595144
30
0
41
1
10
74.6626529901101
20
8.94501333522362
30
0
41
1
10
74.5964193595124
20
8.94475197008008
30
0
0
SPLINE
5
2E1
100
AcDbEntity
8
1
62
256
6
ByLayer
370
25
48
1
60
0
100
AcDbSpline
70
4
71
1
72
4
73
2
40
0
40
0
40
1
40
1
41
1
10
73.6607555943248
20
11.8786162074114
30
0
41
1
10
73.7634696772897
20
11.9986987618436
30
0
0
SPLINE
5
2E2
100
AcDbEntity
8
1
62
256
6
ByLayer
370
25
48
1
60
0
100
AcDbSpline
70
4
71
3
72
10
73
6
40
0
40
0
40
0
40
0
40
0.259492976424378
40
0.519008279522383
40
1
40
1
40
1
40
1
41
1
10
73.1953954441658
20
12.1668997036439
30
0
41
1
10
73.1998741108992
20
12.1810169100887
30
0
41
1
10
73.2097870598559
20
12.2095963000778
30
0
41
1
10
73.232741594607
20
12.2665177930176
30
0
41
1
10
73.2532620217146
20
12.3089454414505
30
0
41
1
10
73.2681373220653
20
12.3368052720106
30
0
0
SPLINE
5
2E3
100
AcDbEntity
8
1
62
256
6
ByLayer
370
25
48
1
60
0
100
AcDbSpline
70
4
71
2
72
6
73
3
40
0
40
0
40
0
40
1
40
1
40
1
41
0.500087744771095
10
90.9099785630002
20
-8.08837447541289
30
0
41
0.499912255228905
10
90.9150471044006
20
-8.13288450950713
30
0
41
0.500087744771095
10
90.9152459421422
20
-8.17800831449642
30
0
0
SPLINE
5
2E4
100
AcDbEntity
8
1
62
256
6
ByLayer
370
25
48
1
60
0
100
AcDbSpline
70
4
71
2
72
6
73
3
40
0
40
0
40
0
40
1
40
1
40
1
41
0.500055586889248
10
90.8265394429126
20
-8.09277176222532
30
0
41
0.499944413110752
10
90.8377666977425
20
-8.12628405161747
30
0
41
0.500055586889248
10
90.8459981498585
20
-8.16033325440988
30
0
0
SPLINE
5
2E5
100
AcDbEntity
8
1
62
256
6
ByLayer
370
25
48
1
60
0
100
AcDbSpline
70
4
71
2
72
6
73
3
40
0
40
0
40
0
40
1
40
1
40
1
41
0.502764697479836
10
78.2911423408612
20
-2.72908179294079
30
0
41
0.497235302520164
10
78.1821200688085
20
-2.68714129937732
30
0
41
0.502764697479836
10
78.0634558803479
20
-2.67444705651136
30
0
0
SPLINE
5
2E6
100
AcDbEntity
8
1
62
256
6
ByLayer
370
25
48
1
60
0
100
AcDbSpline
70
4
71
2
72
6
73
3
40
0
40
0
40
0
40
1
40
1
40
1
41
0.500594958255542
10
70.8270688181194
20
8.86634998309438
30
0
41
0.499405041744458
10
70.8687839180773
20
8.9610953593229
30
0
41
0.500594958255542
10
70.9175684481989
20
9.05218218776384
30
0
0
SPLINE
5
2E7
100
AcDbEntity
8
1
62
256
6
ByLayer
370
25
48
1
60
0
100
AcDbSpline
70
4
71
2
72
6
73
3
40
0
40
0
40
0
40
1
40
1
40
1
41
0.50001208397395
10
88.7528440467728
20
-3.86991166877164
30
0
41
0.49998791602605
10
88.7240069784661
20
-3.87303786286572
30
0
41
0.50001208397395
10
88.6949359426077
20
-3.87584388113218
30
0
0
SPLINE
5
2E8
100
AcDbEntity
8
1
62
256
6
ByLayer
370
25
48
1
60
0
100
AcDbSpline
70
4
71
2
72
6
73
3
40
0
40
0
40
0
40
1
40
1
40
1
41
0.500098769958566
10
90.7527284567219
20
-3.58347171506628
30
0
41
0.499901230041434
10
90.7232202204033
20
-3.62831172277954
30
0
41
0.500098769958566
10
90.6885336686927
20
-3.67164856919269
30
0
0
SPLINE
5
2E9
100
AcDbEntity
8
1
62
256
6
ByLayer
370
25
48
1
60
0
100
AcDbSpline
70
4
71
2
72
6
73
3
40
0
40
0
40
0
40
1
40
1
40
1
41
0.500002279199552
10
90.9099785630002
20
-2.95914340459252
30
0
41
0.499997720800448
10
90.9107953133137
20
-2.96688391238254
30
0
41
0.500002279199552
10
90.9114856832614
20
-2.97461384027158
30
0
0
SPLINE
5
2EA
100
AcDbEntity
8
1
62
256
6
ByLayer
370
25
48
1
60
0
100
AcDbSpline
70
4
71
2
72
6
73
3
40
0
40
0
40
0
40
1
40
1
40
1
41
0.500061737066725
10
90.9114856832614
20
-2.97461384027158
30
0
41
0.499938262933275
10
90.9150791642036
20
-3.01484929467706
30
0
41
0.500061737066725
10
90.9152459421421
20
-3.05475086950218
30
0
0
SPLINE
5
2EB
100
AcDbEntity
8
1
62
256
6
ByLayer
370
25
48
1
60
0
100
AcDbSpline
70
4
71
2
72
6
73
3
40
0
40
0
40
0
40
1
40
1
40
1
41
0.500082721406025
10
90.6668758353863
20
-2.79236620278653
30
0
41
0.499917278593975
10
90.6555105533795
20
-2.83306581246831
30
0
41
0.500082721406025
10
90.6399885066536
20
-2.87295025463279
30
0
0
SPLINE
5
2EC
100
AcDbEntity
8
1
62
256
6
ByLayer
370
25
48
1
60
0
100
AcDbSpline
70
4
71
2
72
6
73
3
40
0
40
0
40
0
40
1
40
1
40
1
41
0.504359637524971
10
82.4795102595447
20
12.0177650939822
30
0
41
0.495640362475029
10
82.4298246200454
20
11.995123746543
30
0
41
0.504359637524971
10
82.3917522650903
20
11.9557933562968
30
0
0
SPLINE
5
2ED
100
AcDbEntity
8
1
62
256
6
ByLayer
370
25
48
1
60
0
100
AcDbSpline
70
4
71
2
72
6
73
3
40
0
40
0
40
0
40
1
40
1
40
1
41
0.50059616150477
10
81.6800194768518
20
11.7368957472239
30
0
41
0.49940383849523
10
81.762521854544
20
11.7430981258168
30
0
41
0.50059616150477
10
81.8451075479306
20
11.7377936227282
30
0
0
SPLINE
5
2EE
100
AcDbEntity
8
1
62
256
6
ByLayer
370
25
48
1
60
0
100
AcDbSpline
70
4
71
2
72
6
73
3
40
0
40
0
40
0
40
1
40
1
40
1
41
0.511332215667999
10
82.4120569982163
20
9.15146983571959
30
0
41
0.488667784332001
10
82.4752413728939
20
9.08783691507914
30
0
41
0.511332215667999
10
82.5629261962646
20
9.0710113453541
30
0
0
SPLINE
5
2EF
100
AcDbEntity
8
1
62
256
6
ByLayer
370
25
48
1
60
0
100
AcDbSpline
70
4
71
2
72
6
73
3
40
0
40
0
40
0
40
1
40
1
40
1
41
0.50059616150477
10
81.8625351103061
20
9.33084137307637
30
0
41
0.49940383849523
10
81.780032732614
20
9.32463899448343
30
0
41
0.50059616150477
10
81.6974470392274
20
9.32994349757201
30
0
0
SPLINE
5
2F0
100
AcDbEntity
8
1
62
256
6
ByLayer
370
25
48
1
60
0
100
AcDbSpline
70
4
71
2
72
6
73
3
40
0
40
0
40
0
40
1
40
1
40
1
41
0.50059616150477
10
82.0092246847504
20
9.34797238433833
30
0
41
0.49940383849523
10
81.9267223070583
20
9.34177000574539
30
0
41
0.50059616150477
10
81.8441366136717
20
9.34707450883397
30
0
0
SPLINE
5
2F1
100
AcDbEntity
8
1
62
256
6
ByLayer
370
25
48
1
60
0
100
AcDbSpline
70
4
71
2
72
6
73
3
40
0
40
0
40
0
40
1
40
1
40
1
41
0.500432240787143
10
81.7045355875138
20
9.36438565389472
30
0
41
0.499567759212857
10
81.7738385761554
20
9.35158977221476
30
0
41
0.500432240787143
10
81.8441366136717
20
9.34707450883396
30
0
0
SPLINE
5
2F2
100
AcDbEntity
8
1
62
256
6
ByLayer
370
25
48
1
60
0
100
AcDbSpline
70
4
71
2
72
6
73
3
40
0
40
0
40
0
40
1
40
1
40
1
41
0.500067490239332
10
81.3161567604113
20
13.1190073004582
30
0
41
0.499932509760668
10
81.3752461428411
20
13.1398227302134
30
0
41
0.500067490239332
10
81.4352361720383
20
13.1578467692736
30
0
0
SPLINE
5
2F3
100
AcDbEntity
8
1
62
256
6
ByLayer
370
25
48
1
60
0
100
AcDbSpline
70
4
71
2
72
6
73
3
40
0
40
0
40
0
40
1
40
1
40
1
41
0.500005217561079
10
73.6222016966547
20
14.1020712424257
30
0
41
0.499994782438921
10
73.6241820300995
20
14.0575356238801
30
0
41
0.500005217561079
10
73.6261247791006
20
14.01251399119
30
0
0
LINE
5
73
100
AcDbEntity
8
1
62
256
6
ByLayer
370
25
48
1
60
0
100
AcDbLine
10
92.005459
20
-6.082502
30
0
11
91.975941
21
-6.233854
31
0
39
0
210
0
220
0
230
1
0
LINE
5
74
100
AcDbEntity
8
1
62
256
6
ByLayer
370
25
48
1
60
0
100
AcDbLine
10
91.741662
20
-7.435113
30
0
11
91.492418
21
-8.71311
31
0
39
0
210
0
220
0
230
1
0
LINE
5
75
100
AcDbEntity
8
1
62
256
6
ByLayer
370
25
48
1
60
0
100
AcDbLine
10
90.909979
20
-8.088374
30
0
11
90.866215
21
-8.093402
31
0
39
0
210
0
220
0
230
1
0
LINE
5
76
100
AcDbEntity
8
1
62
256
6
ByLayer
370
25
48
1
60
0
100
AcDbLine
10
90.915246
20
-8.178008
30
0
11
90.837031
21
-8.186994
31
0
39
0
210
0
220
0
230
1
0
LINE
5
77
100
AcDbEntity
8
1
62
256
6
ByLayer
370
25
48
1
60
0
100
AcDbLine
10
90.860609
20
-8.46378
30
0
11
90.672124
21
-8.485434
31
0
39
0
210
0
220
0
230
1
0
LINE
5
78
100
AcDbEntity
8
1
62
256
6
ByLayer
370
25
48
1
60
0
100
AcDbLine
10
90.86616
20
-8.418472
30
0
11
90.672124
21
-8.440763
31
0
39
0
210
0
220
0
230
1
0
LINE
5
79
100
AcDbEntity
8
1
62
256
6
ByLayer
370
25
48
1
60
0
100
AcDbLine
10
0
20
-31.47
30
0
11
14.625388
21
-31.47
31
0
39
0
210
0
220
0
230
1
0
LINE
5
7A
100
AcDbEntity
8
1
62
256
6
ByLayer
370
25
48
1
60
0
100
AcDbLine
10
2.026024
20
31.47
30
0
11
0
21
31.47
31
0
39
0
210
0
220
0
230
1
0
LINE
5
7B
100
AcDbEntity
8
1
62
256
6
ByLayer
370
25
48
1
60
0
100
AcDbLine
10
14.625388
20
31.47
30
0
11
11.961224
21
31.47
31
0
39
0
210
0
220
0
230
1
0
LINE
5
7C
100
AcDbEntity
8
1
62
256
6
ByLayer
370
25
48
1
60
0
100
AcDbLine
10
5.729038
20
-24.420041
30
0
11
14.625388
21
-24.420041
31
0
39
0
210
0
220
0
230
1
0
LINE
5
7D
100
AcDbEntity
8
1
62
256
6
ByLayer
370
25
48
1
60
0
100
AcDbLine
10
16.0875
20
28.937547
30
0
11
14.625388
21
31.47
31
0
39
0
210
0
220
0
230
1
0
LINE
5
7E
100
AcDbEntity
8
1
62
256
6
ByLayer
370
25
48
1
60
0
100
AcDbLine
10
26
20
31.47
30
0
11
21.374612
21
31.47
31
0
39
0
210
0
220
0
230
1
0
LINE
5
7F
100
AcDbEntity
8
1
62
256
6
ByLayer
370
25
48
1
60
0
100
AcDbLine
10
21.374612
20
31.47
30
0
11
19.9125
21
28.937547
31
0
39
0
210
0
220
0
230
1
0
LINE
5
80
100
AcDbEntity
8
1
62
256
6
ByLayer
370
25
48
1
60
0
100
AcDbLine
10
19.1625
20
27.475
30
0
11
16.8375
21
27.475
31
0
39
0
210
0
220
0
230
1
0
LINE
5
81
100
AcDbEntity
8
1
62
256
6
ByLayer
370
25
48
1
60
0
100
AcDbLine
10
16.8375
20
7.610232
30
0
11
19.1625
21
7.610232
31
0
39
0
210
0
220
0
230
1
0
LINE
5
82
100
AcDbEntity
8
1
62
256
6
ByLayer
370
25
48
1
60
0
100
AcDbLine
10
16.8375
20
-27.475
30
0
11
19.1625
21
-27.475
31
0
39
0
210
0
220
0
230
1
0
LINE
5
83
100
AcDbEntity
8
1
62
256
6
ByLayer
370
25
48
1
60
0
100
AcDbLine
10
19.1625
20
-7.610232
30
0
11
16.8375
21
-7.610232
31
0
39
0
210
0
220
0
230
1
0
LINE
5
84
100
AcDbEntity
8
SK1
62
256
6
ByLayer
370
25
48
1
60
0
100
AcDbLine
10
-1.894753
20
24.225262
30
0
11
-30.759925
21
22.782004
31
0
39
0
210
0
220
0
230
1
0
LINE
5
86
100
AcDbEntity
8
SK1
62
256
6
ByLayer
370
25
48
1
60
0
100
AcDbLine
10
-30.759925
20
-22.782004
30
0
11
-1.894753
21
-24.225262
31
0
39
0
210
0
220
0
230
1
0
LINE
5
87
100
AcDbEntity
8
SK1
62
256
6
ByLayer
370
25
48
1
60
0
100
AcDbLine
10
-1.894753
20
-24.225262
30
0
11
-1.20489
21
-24.040414
31
0
39
0
210
0
220
0
230
1
0
LINE
5
88
100
AcDbEntity
8
SK1
62
256
6
ByLayer
370
25
48
1
60
0
100
AcDbLine
10
-1.20489
20
24.040414
30
0
11
-1.894753
21
24.225262
31
0
39
0
210
0
220
0
230
1
0
LINE
5
89
100
AcDbEntity
8
SK1
62
256
6
ByLayer
370
25
48
1
60
0
100
AcDbLine
10
-0.475
20
24.01997
30
0
11
-1.049598
21
24.01997
31
0
39
0
210
0
220
0
230
1
0
LINE
5
8A
100
AcDbEntity
8
SK1
62
256
6
ByLayer
370
25
48
1
60
0
100
AcDbLine
10
-1.049598
20
-24.01997
30
0
11
-0.475
21
-24.01997
31
0
39
0
210
0
220
0
230
1
0
LINE
5
8B
100
AcDbEntity
8
SK1
62
256
6
ByLayer
370
25
48
1
60
0
100
AcDbLine
10
-27.2
20
-6.27
30
0
11
-30.75
21
-6.27
31
0
39
0
210
0
220
0
230
1
0
LINE
5
8C
100
AcDbEntity
8
SK1
62
256
6
ByLayer
370
25
48
1
60
0
100
AcDbLine
10
-27.2
20
6.27
30
0
11
-30.75
21
6.27
31
0
39
0
210
0
220
0
230
1
0
LINE
5
8D
100
AcDbEntity
8
SK1
62
256
6
ByLayer
370
25
48
1
60
0
100
AcDbLine
10
-30.75
20
-6.27
30
0
11
-31.9
21
-7.42
31
0
39
0
210
0
220
0
230
1
0
LINE
5
8E
100
AcDbEntity
8
SK1
62
256
6
ByLayer
370
25
48
1
60
0
100
AcDbLine
10
-30.891356
20
-9.15
30
0
11
-31.862095
21
-9.15
31
0
39
0
210
0
220
0
230
1
0
LINE
5
8F
100
AcDbEntity
8
SK1
62
256
6
ByLayer
370
25
48
1
60
0
100
AcDbLine
10
-30.891356
20
9.15
30
0
11
-31.862095
21
9.15
31
0
39
0
210
0
220
0
230
1
0
LINE
5
90
100
AcDbEntity
8
SK1
62
256
6
ByLayer
370
25
48
1
60
0
100
AcDbLine
10
-30.75
20
6.27
30
0
11
-31.9
21
7.42
31
0
39
0
210
0
220
0
230
1
0
LINE
5
91
100
AcDbEntity
8
1
62
256
6
ByLayer
370
25
48
1
60
0
100
AcDbLine
10
19.9125
20
-28.937547
30
0
11
21.374612
21
-31.47
31
0
39
0
210
0
220
0
230
1
0
LINE
5
92
100
AcDbEntity
8
1
62
256
6
ByLayer
370
25
48
1
60
0
100
AcDbLine
10
21.374612
20
-31.47
30
0
11
26
21
-31.47
31
0
39
0
210
0
220
0
230
1
0
LINE
5
93
100
AcDbEntity
8
1
62
256
6
ByLayer
370
25
48
1
60
0
100
AcDbLine
10
21.374612
20
-24.420041
30
0
11
26
21
-24.420041
31
0
39
0
210
0
220
0
230
1
0
LINE
5
94
100
AcDbEntity
8
1
62
256
6
ByLayer
370
25
48
1
60
0
100
AcDbLine
10
14.625388
20
-31.47
30
0
11
16.0875
21
-28.937547
31
0
39
0
210
0
220
0
230
1
0
LINE
5
95
100
AcDbEntity
8
1
62
256
6
ByLayer
370
25
48
1
60
0
100
AcDbLine
10
85.216367
20
0.206214
30
0
11
85.202169
21
1.444195
31
0
39
0
210
0
220
0
230
1
0
LINE
5
96
100
AcDbEntity
8
1
62
256
6
ByLayer
370
25
48
1
60
0
100
AcDbLine
10
78.291142
20
-2.729082
30
0
11
88.56305
21
-3.827931
31
0
39
0
210
0
220
0
230
1
0
LINE
5
97
100
AcDbEntity
8
1
62
256
6
ByLayer
370
25
48
1
60
0
100
AcDbLine
10
77.3909
20
-2.6025
30
0
11
78.063456
21
-2.674447
31
0
39
0
210
0
220
0
230
1
0
LINE
5
98
100
AcDbEntity
8
1
62
256
6
ByLayer
370
25
48
1
60
0
100
AcDbLine
10
85.582613
20
3.991821
30
0
11
85.202169
21
1.444195
31
0
39
0
210
0
220
0
230
1
0
LINE
5
99
100
AcDbEntity
8
1
62
256
6
ByLayer
370
25
48
1
60
0
100
AcDbLine
10
74.984351
20
-3.250486
30
0
11
74.387756
21
-4.422322
31
0
39
0
210
0
220
0
230
1
0
LINE
5
9A
100
AcDbEntity
8
1
62
256
6
ByLayer
370
25
48
1
60
0
100
AcDbLine
10
31
20
-14.706223
30
0
11
69.799397
21
-14.706223
31
0
39
0
210
0
220
0
230
1
0
LINE
5
9B
100
AcDbEntity
8
1
62
256
6
ByLayer
370
25
48
1
60
0
100
AcDbLine
10
62.001772
20
14.706223
30
0
11
31
21
14.706223
31
0
39
0
210
0
220
0
230
1
0
LINE
5
9C
100
AcDbEntity
8
1
62
256
6
ByLayer
370
25
48
1
60
0
100
AcDbLine
10
90.037358
20
-3.342983
30
0
11
90.117256
21
-3.351531
31
0
39
0
210
0
220
0
230
1
0
LINE
5
9D
100
AcDbEntity
8
1
62
256
6
ByLayer
370
25
48
1
60
0
100
AcDbLine
10
85.792394
20
7.547107
30
0
11
85.825496
21
7.634237
31
0
39
0
210
0
220
0
230
1
0
LINE
5
9E
100
AcDbEntity
8
1
62
256
6
ByLayer
370
25
48
1
60
0
100
AcDbLine
10
69.799397
20
-14.706223
30
0
11
77.799397
21
-15.527909
31
0
39
0
210
0
220
0
230
1
0
LINE
5
9F
100
AcDbEntity
8
1
62
256
6
ByLayer
370
25
48
1
60
0
100
AcDbLine
10
85.792394
20
-15.207175
30
0
11
85.825496
21
-15.03159
31
0
39
0
210
0
220
0
230
1
0
LINE
5
A0
100
AcDbEntity
8
1
62
256
6
ByLayer
370
25
48
1
60
0
100
AcDbLine
10
86.465846
20
-15.180303
30
0
11
87.068679
21
-15.156124
31
0
39
0
210
0
220
0
230
1
0
LINE
5
A1
100
AcDbEntity
8
1
62
256
6
ByLayer
370
25
48
1
60
0
100
AcDbLine
10
77.799397
20
-15.527909
30
0
11
83.122798
21
-15.314391
31
0
39
0
210
0
220
0
230
1
0
LINE
5
A2
100
AcDbEntity
8
1
62
256
6
ByLayer
370
25
48
1
60
0
100
AcDbLine
10
70.917568
20
9.052182
30
0
11
70.716926
21
9.147183
31
0
39
0
210
0
220
0
230
1
0
LINE
5
A3
100
AcDbEntity
8
1
62
256
6
ByLayer
370
25
48
1
60
0
100
AcDbLine
10
73.626027
20
14.874153
30
0
11
73.621563
21
14.116426
31
0
39
0
210
0
220
0
230
1
0
LINE
5
A4
100
AcDbEntity
8
1
62
256
6
ByLayer
370
25
48
1
60
0
100
AcDbLine
10
73.621563
20
14.116426
30
0
11
71.372079
21
9.916357
31
0
39
0
210
0
220
0
230
1
0
LINE
5
A5
100
AcDbEntity
8
1
62
256
6
ByLayer
370
25
48
1
60
0
100
AcDbLine
10
73.792604
20
14.031956
30
0
11
73.795915
21
14.593909
31
0
39
0
210
0
220
0
230
1
0
LINE
5
A6
100
AcDbEntity
8
1
62
256
6
ByLayer
370
25
48
1
60
0
100
AcDbLine
10
73.626125
20
14.012514
30
0
11
73.792604
21
14.031956
31
0
39
0
210
0
220
0
230
1
0
LINE
5
A7
100
AcDbEntity
8
1
62
256
6
ByLayer
370
25
48
1
60
0
100
AcDbLine
10
73.621563
20
14.116426
30
0
11
73.622202
21
14.102071
31
0
39
0
210
0
220
0
230
1
0
LINE
5
A8
100
AcDbEntity
8
1
62
256
6
ByLayer
370
25
48
1
60
0
100
AcDbLine
10
73.622202
20
14.102071
30
0
11
70.917568
21
9.052182
31
0
39
0
210
0
220
0
230
1
0
LINE
5
A9
100
AcDbEntity
8
1
62
256
6
ByLayer
370
25
48
1
60
0
100
AcDbLine
10
74.712061
20
-5.433735
30
0
11
75.276857
21
-2.973196
31
0
39
0
210
0
220
0
230
1
0
LINE
5
AA
100
AcDbEntity
8
1
62
256
6
ByLayer
370
25
48
1
60
0
100
AcDbLine
10
75.436067
20
-2.875396
30
0
11
75.222292
21
-2.646912
31
0
39
0
210
0
220
0
230
1
0
LINE
5
AB
100
AcDbEntity
8
1
62
256
6
ByLayer
370
25
48
1
60
0
100
AcDbLine
10
75.111264
20
-2.796209
30
0
11
75.276857
21
-2.973196
31
0
39
0
210
0
220
0
230
1
0
LINE
5
AC
100
AcDbEntity
8
1
62
256
6
ByLayer
370
25
48
1
60
0
100
AcDbLine
10
92.005459
20
-6.6045
30
0
11
91.492418
21
-4.018863
31
0
39
0
210
0
220
0
230
1
0
LINE
5
AD
100
AcDbEntity
8
1
62
256
6
ByLayer
370
25
48
1
60
0
100
AcDbLine
10
88.071269
20
-4.297338
30
0
11
76.826703
21
-3.094438
31
0
39
0
210
0
220
0
230
1
0
LINE
5
AE
100
AcDbEntity
8
1
62
256
6
ByLayer
370
25
48
1
60
0
100
AcDbLine
10
88.251356
20
-3.899717
30
0
11
76.788615
21
-2.673477
31
0
39
0
210
0
220
0
230
1
0
LINE
5
AF
100
AcDbEntity
8
1
62
256
6
ByLayer
370
25
48
1
60
0
100
AcDbLine
10
87.468541
20
-4.448106
30
0
11
77.214495
21
-3.351168
31
0
39
0
210
0
220
0
230
1
0
LINE
5
B0
100
AcDbEntity
8
1
62
256
6
ByLayer
370
25
48
1
60
0
100
AcDbLine
10
88.073294
20
-4.341743
30
0
11
76.814874
21
-3.137361
31
0
39
0
210
0
220
0
230
1
0
LINE
5
B1
100
AcDbEntity
8
1
62
256
6
ByLayer
370
25
48
1
60
0
100
AcDbLine
10
75.614471
20
-2.700228
30
0
11
75.515655
21
-2.594613
31
0
39
0
210
0
220
0
230
1
0
LINE
5
B2
100
AcDbEntity
8
1
62
256
6
ByLayer
370
25
48
1
60
0
100
AcDbLine
10
89.873932
20
-4.22565
30
0
11
89.626204
21
-4.19915
31
0
39
0
210
0
220
0
230
1
0
LINE
5
B3
100
AcDbEntity
8
1
62
256
6
ByLayer
370
25
48
1
60
0
100
AcDbLine
10
75.782914
20
-2.718247
30
0
11
75.614471
21
-2.700228
31
0
39
0
210
0
220
0
230
1
0
LINE
5
B4
100
AcDbEntity
8
1
62
256
6
ByLayer
370
25
48
1
60
0
100
AcDbLine
10
91.175344
20
-2.545961
30
0
11
90.672124
21
-2.008118
31
0
39
0
210
0
220
0
230
1
0
LINE
5
B5
100
AcDbEntity
8
1
62
256
6
ByLayer
370
25
48
1
60
0
100
AcDbLine
10
90.04919
20
-4.149355
30
0
11
89.654127
21
-4.107093
31
0
39
0
210
0
220
0
230
1
0
LINE
5
B6
100
AcDbEntity
8
1
62
256
6
ByLayer
370
25
48
1
60
0
100
AcDbLine
10
75.887882
20
-2.634432
30
0
11
75.515655
21
-2.594613
31
0
39
0
210
0
220
0
230
1
0
LINE
5
B7
100
AcDbEntity
8
1
62
256
6
ByLayer
370
25
48
1
60
0
100
AcDbLine
10
90.147144
20
-3.878259
30
0
11
89.887943
21
-3.850531
31
0
39
0
210
0
220
0
230
1
0
LINE
5
B8
100
AcDbEntity
8
1
62
256
6
ByLayer
370
25
48
1
60
0
100
AcDbLine
10
77.119577
20
-2.48462
30
0
11
75.674299
21
-2.33001
31
0
39
0
210
0
220
0
230
1
0
LINE
5
B9
100
AcDbEntity
8
1
62
256
6
ByLayer
370
25
48
1
60
0
100
AcDbLine
10
90.107658
20
-3.457149
30
0
11
89.969897
21
-3.442413
31
0
39
0
210
0
220
0
230
1
0
LINE
5
BA
100
AcDbEntity
8
1
62
256
6
ByLayer
370
25
48
1
60
0
100
AcDbLine
10
90.147582
20
-3.922495
30
0
11
89.879267
21
-3.893792
31
0
39
0
210
0
220
0
230
1
0
LINE
5
BB
100
AcDbEntity
8
1
62
256
6
ByLayer
370
25
48
1
60
0
100
AcDbLine
10
77.276516
20
-2.545597
30
0
11
75.597177
21
-2.365948
31
0
39
0
210
0
220
0
230
1
0
LINE
5
BC
100
AcDbEntity
8
1
62
256
6
ByLayer
370
25
48
1
60
0
100
AcDbLine
10
90.215684
20
-3.385246
30
0
11
90.012238
21
-3.363482
31
0
39
0
210
0
220
0
230
1
0
LINE
5
BD
100
AcDbEntity
8
1
62
256
6
ByLayer
370
25
48
1
60
0
100
AcDbLine
10
90.688524
20
-3.671645
30
0
11
90.579688
21
-3.660002
31
0
39
0
210
0
220
0
230
1
0
LINE
5
BE
100
AcDbEntity
8
1
62
256
6
ByLayer
370
25
48
1
60
0
100
AcDbLine
10
90.752717
20
-3.583468
30
0
11
90.530159
21
-3.559659
31
0
39
0
210
0
220
0
230
1
0
LINE
5
BF
100
AcDbEntity
8
1
62
256
6
ByLayer
370
25
48
1
60
0
100
AcDbLine
10
90.762089
20
-3.347084
30
0
11
90.518185
21
-3.320993
31
0
39
0
210
0
220
0
230
1
0
LINE
5
C0
100
AcDbEntity
8
1
62
256
6
ByLayer
370
25
48
1
60
0
100
AcDbLine
10
90.759206
20
-3.302588
30
0
11
90.521115
21
-3.277118
31
0
39
0
210
0
220
0
230
1
0
LINE
5
C1
100
AcDbEntity
8
1
62
256
6
ByLayer
370
25
48
1
60
0
100
AcDbLine
10
90.639976
20
-2.872947
30
0
11
90.548906
21
-2.863205
31
0
39
0
210
0
220
0
230
1
0
LINE
5
C2
100
AcDbEntity
8
1
62
256
6
ByLayer
370
25
48
1
60
0
100
AcDbLine
10
90.666865
20
-2.792364
30
0
11
90.563048
21
-2.781258
31
0
39
0
210
0
220
0
230
1
0
LINE
5
C3
100
AcDbEntity
8
1
62
256
6
ByLayer
370
25
48
1
60
0
100
AcDbLine
10
90.915246
20
-3.054751
30
0
11
90.878041
21
-3.050771
31
0
39
0
210
0
220
0
230
1
0
LINE
5
C4
100
AcDbEntity
8
1
62
256
6
ByLayer
370
25
48
1
60
0
100
AcDbLine
10
90.909979
20
-2.959143
30
0
11
90.848522
21
-2.952569
31
0
39
0
210
0
220
0
230
1
0
LINE
5
C5
100
AcDbEntity
8
1
62
256
6
ByLayer
370
25
48
1
60
0
100
AcDbLine
10
90.849484
20
-2.715286
30
0
11
90.672124
21
-2.696313
31
0
39
0
210
0
220
0
230
1
0
LINE
5
C6
100
AcDbEntity
8
1
62
256
6
ByLayer
370
25
48
1
60
0
100
AcDbLine
10
82.391752
20
11.955793
30
0
11
82.224633
21
11.936276
31
0
39
0
210
0
220
0
230
1
0
LINE
5
C7
100
AcDbEntity
8
1
62
256
6
ByLayer
370
25
48
1
60
0
100
AcDbLine
10
82.412057
20
9.15147
30
0
11
82.244938
21
9.131953
31
0
39
0
210
0
220
0
230
1
0
LINE
5
C8
100
AcDbEntity
8
1
62
256
6
ByLayer
370
25
48
1
60
0
100
AcDbLine
10
81.610299
20
13.157909
30
0
11
81.467308
21
13.14121
31
0
39
0
210
0
220
0
230
1
0
LINE
5
C9
100
AcDbEntity
8
1
62
256
6
ByLayer
370
25
48
1
60
0
100
AcDbLine
10
82.076286
20
7.926649
30
0
11
82.219277
21
7.943348
31
0
39
0
210
0
220
0
230
1
0
LINE
5
CA
100
AcDbEntity
8
1
62
256
6
ByLayer
370
25
48
1
60
0
100
AcDbLine
10
81.991797
20
11.754925
30
0
11
81.845108
21
11.737794
31
0
39
0
210
0
220
0
230
1
0
LINE
5
CB
100
AcDbEntity
8
1
62
256
6
ByLayer
370
25
48
1
60
0
100
AcDbLine
10
80.940164
20
11.66709
30
0
11
80.772824
21
11.647547
31
0
39
0
210
0
220
0
230
1
0
LINE
5
CC
100
AcDbEntity
8
1
62
256
6
ByLayer
370
25
48
1
60
0
100
AcDbLine
10
81.862535
20
9.330841
30
0
11
82.009225
21
9.347972
31
0
39
0
210
0
220
0
230
1
0
LINE
5
CD
100
AcDbEntity
8
1
62
256
6
ByLayer
370
25
48
1
60
0
100
AcDbLine
10
80.956403
20
9.424362
30
0
11
80.789062
21
9.404819
31
0
39
0
210
0
220
0
230
1
0
LINE
5
CE
100
AcDbEntity
8
1
62
256
6
ByLayer
370
25
48
1
60
0
100
AcDbLine
10
80.466957
20
10.824921
30
0
11
80.299617
21
10.805378
31
0
39
0
210
0
220
0
230
1
0
LINE
5
CF
100
AcDbEntity
8
1
62
256
6
ByLayer
370
25
48
1
60
0
100
AcDbLine
10
80.471038
20
10.261317
30
0
11
80.303698
21
10.241774
31
0
39
0
210
0
220
0
230
1
0
LINE
5
D0
100
AcDbEntity
8
1
62
256
6
ByLayer
370
25
48
1
60
0
100
AcDbLine
10
81.844137
20
9.347075
30
0
11
81.697447
21
9.329943
31
0
39
0
210
0
220
0
230
1
0
LINE
5
D1
100
AcDbEntity
8
1
62
256
6
ByLayer
370
25
48
1
60
0
100
AcDbLine
10
87.124363
20
15.193498
30
0
11
81.064388
21
15.352554
31
0
39
0
210
0
220
0
230
1
0
LINE
5
D2
100
AcDbEntity
8
1
62
256
6
ByLayer
370
25
48
1
60
0
100
AcDbLine
10
77.163437
20
12.412909
30
0
11
77.329064
21
12.324855
31
0
39
0
210
0
220
0
230
1
0
LINE
5
D3
100
AcDbEntity
8
1
62
256
6
ByLayer
370
25
48
1
60
0
100
AcDbLine
10
75.075065
20
14.447588
30
0
11
74.548002
21
14.726476
31
0
39
0
210
0
220
0
230
1
0
LINE
5
D4
100
AcDbEntity
8
1
62
256
6
ByLayer
370
25
48
1
60
0
100
AcDbLine
10
84.177117
20
1.919249
30
0
11
83.891068
21
2.188563
31
0
39
0
210
0
220
0
230
1
0
LINE
5
D5
100
AcDbEntity
8
1
62
256
6
ByLayer
370
25
48
1
60
0
100
AcDbLine
10
81.736815
20
2.510264
30
0
11
81.384566
21
2.336269
31
0
39
0
210
0
220
0
230
1
0
LINE
5
D6
100
AcDbEntity
8
1
62
256
6
ByLayer
370
25
48
1
60
0
100
AcDbLine
10
90.845997
20
-8.160329
30
0
11
90.843328
21
-8.175584
31
0
39
0
210
0
220
0
230
1
0
LINE
5
D7
100
AcDbEntity
8
1
62
256
6
ByLayer
370
25
48
1
60
0
100
AcDbLine
10
90.863021
20
-8.444561
30
0
11
90.860607
21
-8.46378
31
0
39
0
210
0
220
0
230
1
0
LINE
5
D8
100
AcDbEntity
8
SK1
62
256
6
ByLayer
370
25
48
1
60
0
100
AcDbLine
10
-30.759925
20
-8.904841
30
0
11
-30.75
21
-8.886467
31
0
39
0
210
0
220
0
230
1
0
LINE
5
D9
100
AcDbEntity
8
SK1
62
256
6
ByLayer
370
25
48
1
60
0
100
AcDbLine
10
-30.75
20
8.886467
30
0
11
-30.759925
21
8.904841
31
0
39
0
210
0
220
0
230
1
0
LINE
5
DA
100
AcDbEntity
8
1
62
256
6
ByLayer
370
25
48
1
60
0
100
AcDbLine
10
89.315459
20
-4.845471
30
0
11
89.306979
21
-4.844428
31
0
39
0
210
0
220
0
230
1
0
LINE
5
DB
100
AcDbEntity
8
1
62
256
6
ByLayer
370
25
48
1
60
0
100
AcDbLine
10
75.843456
20
-2.668263
30
0
11
75.854591
21
-2.654906
31
0
39
0
210
0
220
0
230
1
0
LINE
5
DC
100
AcDbEntity
8
1
62
256
6
ByLayer
370
25
48
1
60
0
100
AcDbLine
10
76.826717
20
-3.094441
30
0
11
76.821459
21
-3.112606
31
0
39
0
210
0
220
0
230
1
0
LINE
5
DD
100
AcDbEntity
8
1
62
256
6
ByLayer
370
25
48
1
60
0
100
AcDbLine
10
88.072444
20
-4.316194
30
0
11
88.071298
21
-4.297341
31
0
39
0
210
0
220
0
230
1
0
LINE
5
DE
100
AcDbEntity
8
1
62
256
6
ByLayer
370
25
48
1
60
0
100
AcDbLine
10
89.560662
20
-4.135677
30
0
11
89.550263
21
-4.120017
31
0
39
0
210
0
220
0
230
1
0
LINE
5
DF
100
AcDbEntity
8
1
62
256
6
ByLayer
370
25
48
1
60
0
100
AcDbLine
10
90.1474
20
-3.897017
30
0
11
90.147142
21
-3.878259
31
0
39
0
210
0
220
0
230
1
0
LINE
5
E0
100
AcDbEntity
8
1
62
256
6
ByLayer
370
25
48
1
60
0
100
AcDbLine
10
90.55115
20
-3.600488
30
0
11
90.546591
21
-3.585453
31
0
39
0
210
0
220
0
230
1
0
LINE
5
E1
100
AcDbEntity
8
1
62
256
6
ByLayer
370
25
48
1
60
0
100
AcDbLine
10
90.760486
20
-3.321455
30
0
11
90.759204
21
-3.302588
31
0
39
0
210
0
220
0
230
1
0
LINE
5
E2
100
AcDbEntity
8
1
62
256
6
ByLayer
370
25
48
1
60
0
100
AcDbLine
10
90.863021
20
-2.992703
30
0
11
90.860607
21
-2.977897
31
0
39
0
210
0
220
0
230
1
0
LINE
5
E3
100
AcDbEntity
8
1
62
256
6
ByLayer
370
25
48
1
60
0
100
AcDbLine
10
90.845997
20
-2.689455
30
0
11
90.843328
21
-2.670439
31
0
39
0
210
0
220
0
230
1
0
LINE
5
E4
100
AcDbEntity
8
1
62
256
6
ByLayer
370
25
48
1
60
0
100
AcDbLine
10
89.52465
20
9.42144
30
0
11
89.514819
21
9.426429
31
0
39
0
210
0
220
0
230
1
0
LINE
5
E5
100
AcDbEntity
8
1
62
256
6
ByLayer
370
25
48
1
60
0
100
AcDbLine
10
90.086771
20
11.238679
30
0
11
90.084534
21
11.246926
31
0
39
0
210
0
220
0
230
1
0
LINE
5
E6
100
AcDbEntity
8
1
62
256
6
ByLayer
370
25
48
1
60
0
100
AcDbLine
10
74.157518
20
9.841567
30
0
11
74.146568
21
9.862437
31
0
39
0
210
0
220
0
230
1
0
LINE
5
E7
100
AcDbEntity
8
1
62
256
6
ByLayer
370
25
48
1
60
0
100
AcDbLine
10
86.64562
20
8.752276
30
0
11
86.652528
21
8.77002
31
0
39
0
210
0
220
0
230
1
0
LINE
5
E8
100
AcDbEntity
8
1
62
256
6
ByLayer
370
25
48
1
60
0
100
AcDbLine
10
86.652529
20
8.77002
30
0
11
86.659144
21
8.78755
31
0
39
0
210
0
220
0
230
1
0
LINE
5
E9
100
AcDbEntity
8
1
62
256
6
ByLayer
370
25
48
1
60
0
100
AcDbLine
10
74.733137
20
11.668096
30
0
11
74.74295
21
11.663133
31
0
39
0
210
0
220
0
230
1
0
LINE
5
EA
100
AcDbEntity
8
1
62
256
6
ByLayer
370
25
48
1
60
0
100
AcDbLine
10
0
20
-31.47
30
0
11
0
21
31.47
31
0
39
0
210
0
220
0
230
1
0
LINE
5
EB
100
AcDbEntity
8
1
62
256
6
ByLayer
370
25
48
1
60
0
100
AcDbLine
10
14.625388
20
31.47
30
0
11
14.625388
21
8.0175
31
0
39
0
210
0
220
0
230
1
0
LINE
5
EC
100
AcDbEntity
8
1
62
256
6
ByLayer
370
25
48
1
60
0
100
AcDbLine
10
14.625388
20
-8.0175
30
0
11
14.625388
21
-19.85
31
0
39
0
210
0
220
0
230
1
0
LINE
5
ED
100
AcDbEntity
8
1
62
256
6
ByLayer
370
25
48
1
60
0
100
AcDbLine
10
14.625388
20
-24.420041
30
0
11
14.625388
21
-31.47
31
0
39
0
210
0
220
0
230
1
0
LINE
5
EE
100
AcDbEntity
8
1
62
256
6
ByLayer
370
25
48
1
60
0
100
AcDbLine
10
16.0875
20
28.937547
30
0
11
16.0875
21
8.0175
31
0
39
0
210
0
220
0
230
1
0
LINE
5
EF
100
AcDbEntity
8
1
62
256
6
ByLayer
370
25
48
1
60
0
100
AcDbLine
10
21.374612
20
8.0175
30
0
11
21.374612
21
31.47
31
0
39
0
210
0
220
0
230
1
0
LINE
5
F0
100
AcDbEntity
8
1
62
256
6
ByLayer
370
25
48
1
60
0
100
AcDbLine
10
19.9125
20
28.937547
30
0
11
19.9125
21
8.0175
31
0
39
0
210
0
220
0
230
1
0
LINE
5
F1
100
AcDbEntity
8
1
62
256
6
ByLayer
370
25
48
1
60
0
100
AcDbLine
10
16.0875
20
-8.0175
30
0
11
16.0875
21
-19.85
31
0
39
0
210
0
220
0
230
1
0
LINE
5
F2
100
AcDbEntity
8
1
62
256
6
ByLayer
370
25
48
1
60
0
100
AcDbLine
10
19.9125
20
-8.0175
30
0
11
19.9125
21
-19.85
31
0
39
0
210
0
220
0
230
1
0
LINE
5
F3
100
AcDbEntity
8
1
62
256
6
ByLayer
370
25
48
1
60
0
100
AcDbLine
10
21.374612
20
-19.85
30
0
11
21.374612
21
-8.0175
31
0
39
0
210
0
220
0
230
1
0
LINE
5
F4
100
AcDbEntity
8
1
62
256
6
ByLayer
370
25
48
1
60
0
100
AcDbLine
10
19.1625
20
7.610232
30
0
11
19.1625
21
27.475
31
0
39
0
210
0
220
0
230
1
0
LINE
5
F5
100
AcDbEntity
8
1
62
256
6
ByLayer
370
25
48
1
60
0
100
AcDbLine
10
16.8375
20
27.475
30
0
11
16.8375
21
7.610232
31
0
39
0
210
0
220
0
230
1
0
LINE
5
F6
100
AcDbEntity
8
1
62
256
6
ByLayer
370
25
48
1
60
0
100
AcDbLine
10
19.1625
20
-27.475
30
0
11
19.1625
21
-7.610232
31
0
39
0
210
0
220
0
230
1
0
LINE
5
F7
100
AcDbEntity
8
1
62
256
6
ByLayer
370
25
48
1
60
0
100
AcDbLine
10
16.8375
20
-7.610232
30
0
11
16.8375
21
-27.475
31
0
39
0
210
0
220
0
230
1
0
LINE
5
F8
100
AcDbEntity
8
SK1
62
256
6
ByLayer
370
25
48
1
60
0
100
AcDbLine
10
-30.759925
20
-22.782004
30
0
11
-30.759925
21
-8.904841
31
0
39
0
210
0
220
0
230
1
0
LINE
5
F9
100
AcDbEntity
8
SK1
62
256
6
ByLayer
370
25
48
1
60
0
100
AcDbLine
10
-1.894753
20
24.225262
30
0
11
-1.894753
21
-24.225262
31
0
39
0
210
0
220
0
230
1
0
LINE
5
FA
100
AcDbEntity
8
SK1
62
256
6
ByLayer
370
25
48
1
60
0
100
AcDbLine
10
-30.759925
20
8.904841
30
0
11
-30.759925
21
22.782004
31
0
39
0
210
0
220
0
230
1
0
LINE
5
FB
100
AcDbEntity
8
SK1
62
256
6
ByLayer
370
25
48
1
60
0
100
AcDbLine
10
-25.8
20
-7.147668
30
0
11
-25.8
21
7.147668
31
0
39
0
210
0
220
0
230
1
0
LINE
5
FC
100
AcDbEntity
8
SK1
62
256
6
ByLayer
370
25
48
1
60
0
100
AcDbLine
10
-30.75
20
-8.886467
30
0
11
-30.75
21
-6.27
31
0
39
0
210
0
220
0
230
1
0
LINE
5
FD
100
AcDbEntity
8
SK1
62
256
6
ByLayer
370
25
48
1
60
0
100
AcDbLine
10
-30.75
20
6.27
30
0
11
-30.75
21
8.886467
31
0
39
0
210
0
220
0
230
1
0
LINE
5
FE
100
AcDbEntity
8
1
62
256
6
ByLayer
370
25
48
1
60
0
100
AcDbLine
10
21.374612
20
-31.47
30
0
11
21.374612
21
-24.420041
31
0
39
0
210
0
220
0
230
1
0
LINE
5
FF
100
AcDbEntity
8
1
62
256
6
ByLayer
370
25
48
1
60
0
100
AcDbLine
10
31
20
-14.706223
30
0
11
31
21
14.706223
31
0
39
0
210
0
220
0
230
1
0
LINE
5
100
100
AcDbEntity
8
1
62
256
6
ByLayer
370
25
48
1
60
0
100
AcDbLine
10
69.799397
20
-4.507505
30
0
11
69.799397
21
9.211161
31
0
39
0
210
0
220
0
230
1
0
LINE
5
101
100
AcDbEntity
8
1
62
256
6
ByLayer
370
25
48
1
60
0
100
AcDbLine
10
77.799397
20
-2.137032
30
0
11
77.799397
21
8.033946
31
0
39
0
210
0
220
0
230
1
0
LINE
5
102
100
AcDbEntity
8
1
62
256
6
ByLayer
370
25
48
1
60
0
100
AcDbLine
10
87.068679
20
-2.859962
30
0
11
87.068679
21
7.621417
31
0
39
0
210
0
220
0
230
1
0
LINE
5
103
100
AcDbEntity
8
1
62
256
6
ByLayer
370
25
48
1
60
0
100
AcDbLine
10
69.799397
20
-14.706223
30
0
11
69.799397
21
-14.533855
31
0
39
0
210
0
220
0
230
1
0
LINE
5
104
100
AcDbEntity
8
1
62
256
6
ByLayer
370
25
48
1
60
0
100
AcDbLine
10
77.799397
20
-15.527909
30
0
11
77.799397
21
-15.524743
31
0
39
0
210
0
220
0
230
1
0
LINE
5
105
100
AcDbEntity
8
1
62
256
6
ByLayer
370
25
48
1
60
0
100
AcDbLine
10
90.509234
20
-8.209004
30
0
11
90.509234
21
-10.215366
31
0
39
0
210
0
220
0
230
1
0
LINE
5
106
100
AcDbEntity
8
1
62
256
6
ByLayer
370
25
48
1
60
0
100
AcDbLine
10
90.667707
20
-8.163436
30
0
11
90.667707
21
-10.714712
31
0
39
0
210
0
220
0
230
1
0
LINE
5
107
100
AcDbEntity
8
1
62
256
6
ByLayer
370
25
48
1
60
0
100
AcDbLine
10
90.667707
20
8.170066
30
0
11
90.667707
21
6.590758
31
0
39
0
210
0
220
0
230
1
0
LINE
5
108
100
AcDbEntity
8
1
62
256
6
ByLayer
370
25
48
1
60
0
100
AcDbLine
10
90.509234
20
7.880434
30
0
11
90.509234
21
6.840075
31
0
39
0
210
0
220
0
230
1
0
LINE
5
109
100
AcDbEntity
8
1
62
256
6
ByLayer
370
25
48
1
60
0
100
AcDbLine
10
90.843329
20
-2.670439
30
0
11
90.672124
21
-2.652124
31
0
39
0
210
0
220
0
230
1
0
LINE
5
10A
100
AcDbEntity
8
1
62
256
6
ByLayer
370
25
48
1
60
0
100
AcDbLine
10
78.45957
20
-2.754707
30
0
11
76.36572
21
-2.530715
31
0
39
0
210
0
220
0
230
1
0
LINE
5
10B
100
AcDbEntity
8
1
62
256
6
ByLayer
370
25
48
1
60
0
100
AcDbLine
10
88.561113
20
-3.849394
30
0
11
76.458418
21
-2.554694
31
0
39
0
210
0
220
0
230
1
0
LINE
5
10C
100
AcDbEntity
8
SK1
62
256
6
ByLayer
370
25
48
1
60
0
100
AcDbLine
10
-26.691201
20
-9.15
30
0
11
-28.446902
21
-9.15
31
0
39
0
210
0
220
0
230
1
0
LINE
5
10D
100
AcDbEntity
8
1
62
256
6
ByLayer
370
25
48
1
60
0
100
AcDbLine
10
16.43748
20
8.0175
30
0
11
12.9675
21
8.0175
31
0
39
0
210
0
220
0
230
1
0
LINE
5
10E
100
AcDbEntity
8
1
62
256
6
ByLayer
370
25
48
1
60
0
100
AcDbLine
10
26
20
-19.85
30
0
11
19.9125
21
-19.85
31
0
39
0
210
0
220
0
230
1
0
LINE
5
10F
100
AcDbEntity
8
SK1
62
256
6
ByLayer
370
25
48
1
60
0
100
AcDbLine
10
-26.691201
20
9.15
30
0
11
-28.446902
21
9.15
31
0
39
0
210
0
220
0
230
1
0
LINE
5
110
100
AcDbEntity
8
1
62
256
6
ByLayer
370
25
48
1
60
0
100
AcDbLine
10
16.43748
20
-8.0175
30
0
11
12.9675
21
-8.0175
31
0
39
0
210
0
220
0
230
1
0
LINE
5
111
100
AcDbEntity
8
1
62
256
6
ByLayer
370
25
48
1
60
0
100
AcDbLine
10
16.0875
20
-19.85
30
0
11
12.9675
21
-19.85
31
0
39
0
210
0
220
0
230
1
0
LINE
5
112
100
AcDbEntity
8
1
62
256
6
ByLayer
370
25
48
1
60
0
100
AcDbLine
10
26
20
8.0175
30
0
11
19.56252
21
8.0175
31
0
39
0
210
0
220
0
230
1
0
LINE
5
113
100
AcDbEntity
8
1
62
256
6
ByLayer
370
25
48
1
60
0
100
AcDbLine
10
26
20
-8.0175
30
0
11
19.56252
21
-8.0175
31
0
39
0
210
0
220
0
230
1
0
LINE
5
114
100
AcDbEntity
8
1
62
256
6
ByLayer
370
25
48
1
60
0
100
AcDbLine
10
72.461868
20
10.417385
30
0
11
71.792855
21
9.168253
31
0
39
0
210
0
220
0
230
1
0
LINE
5
115
100
AcDbEntity
8
1
62
256
6
ByLayer
370
25
48
1
60
0
100
AcDbLine
10
16.0875
20
-20.065596
30
0
11
16.0875
21
-28.937547
31
0
39
0
210
0
220
0
230
1
0
LINE
5
116
100
AcDbEntity
8
1
62
256
6
ByLayer
370
25
48
1
60
0
100
AcDbLine
10
19.9125
20
-20.065596
30
0
11
19.9125
21
-28.937547
31
0
39
0
210
0
220
0
230
1
0
LINE
5
117
100
AcDbEntity
8
SK1
62
256
6
ByLayer
370
25
48
1
60
0
100
AcDbLine
10
-27.2
20
9.304918
30
0
11
-27.2
21
6.27
31
0
39
0
210
0
220
0
230
1
0
LINE
5
118
100
AcDbEntity
8
SK1
62
256
6
ByLayer
370
25
48
1
60
0
100
AcDbLine
10
-27.2
20
-6.27
30
0
11
-27.2
21
-9.304918
31
0
39
0
210
0
220
0
230
1
0
LINE
5
119
100
AcDbEntity
8
SK1
62
256
6
ByLayer
370
25
48
1
60
0
100
AcDbLine
10
-1.049598
20
24.01997
30
0
11
-1.049598
21
-24.01997
31
0
39
0
210
0
220
0
230
1
0
LINE
5
11A
100
AcDbEntity
8
SK1
62
256
6
ByLayer
370
25
48
1
60
0
100
AcDbLine
10
-1.20489
20
24.040414
30
0
11
-1.20489
21
-24.040414
31
0
39
0
210
0
220
0
230
1
0
LINE
5
11B
100
AcDbEntity
8
1
62
256
6
ByLayer
370
25
48
1
60
0
100
AcDbLine
10
26
20
31.47
30
0
11
26
21
-31.47
31
0
39
0
210
0
220
0
230
1
0
LINE
5
11C
100
AcDbEntity
8
1
62
256
6
ByLayer
370
25
48
1
60
0
100
AcDbLine
10
90.672124
20
8.182016
30
0
11
90.672124
21
-2.782377
31
0
39
0
210
0
220
0
230
1
0
LINE
5
11D
100
AcDbEntity
8
SK1
62
256
6
ByLayer
370
25
48
1
60
0
100
AcDbLine
10
-0.475
20
24.01997
30
0
11
-0.475
21
-24.01997
31
0
39
0
210
0
220
0
230
1
0
LINE
5
11E
100
AcDbEntity
8
1
62
256
6
ByLayer
370
25
48
1
60
0
100
AcDbLine
10
90.672124
20
-8.407657
30
0
11
90.672124
21
-11.480021
31
0
39
0
210
0
220
0
230
1
0
LINE
5
11F
100
AcDbEntity
8
SK1
62
256
6
ByLayer
370
25
48
1
60
0
100
AcDbLine
10
-31.9
20
-7.42
30
0
11
-31.9
21
-21.583501
31
0
39
0
210
0
220
0
230
1
0
LINE
5
120
100
AcDbEntity
8
SK1
62
256
6
ByLayer
370
25
48
1
60
0
100
AcDbLine
10
-31.9
20
21.583501
30
0
11
-31.9
21
7.42
31
0
39
0
210
0
220
0
230
1
0
LINE
5
121
100
AcDbEntity
8
4
62
256
6
ByLayer
370
13
48
0.05
60
0
100
AcDbLine
10
0
20
0
30
0
11
92.005459
21
0
31
0
39
0
210
0
220
0
230
1
0
LINE
5
123
100
AcDbEntity
8
SK4
62
256
6
ByLayer
370
13
48
0.05
60
0
100
AcDbLine
10
95.675653
20
0
30
0
11
-35.2626
21
0
31
0
39
0
210
0
220
0
230
1
0
LINE
5
125
100
AcDbEntity
8
80
62
256
6
ByLayer
370
25
48
1
60
0
100
AcDbLine
10
0
20
0
30
0
11
-5.956095
21
0
31
0
39
0
210
0
220
0
230
1
0
LINE
5
126
100
AcDbEntity
8
81
62
256
6
ByLayer
370
25
48
1
60
0
100
AcDbLine
10
92.005459
20
15.885423
30
0
11
98.033232
21
15.885423
31
0
39
0
210
0
220
0
230
1
0
MTEXT
5
2F4
100
AcDbEntity
8
SK6
62
256
6
ByLayer
370
25
48
1
60
0
100
AcDbMText
10
12.703168
20
-49.615909
30
0
210
0
220
0
230
1
1
\W0.7548;R790-032HA6S2-16M
40
4.0005
41
0
44
1.084337
50
0
71
7
72
5
7
iso_b_vert
0
DIMENSION
5
306
100
AcDbEntity
8
SK2
62
256
6
ByLayer
370
13
48
1
60
0
100
AcDbDimension
2
DimnDraft3D1
10
31.47
20
45.570611
30
0
11
0
21
45.570611
31
0
70
32
71
5
72
1
41
1
210
0
220
0
230
1
3
Standard
100
AcDbAlignedDimension
13
-31.47
23
1.5875
33
0
14
31.47
24
1.5875
34
0
50
0
100
AcDbRotatedDimension
1001
ACAD
1000
DSTYLE
1002
{
1070
   279
1070
     0
1070
   173
1070
     1
1070
   340
1005
2F5
1070
   271
1070
     2
1070
   272
1070
     3
1070
    77
1070
     1
1070
    73
1070
     0
1070
   171
1070
     3
1070
   274
1070
     4
1070
   177
1070
     7
1070
   176
1070
     7
1070
   178
1070
     7
1070
    48
1040
-0.005
1070
    41
1041
3.175
1070
   147
1041
2.00025
1070
    42
1041
1.5875
1070
    44
1041
3.175
1070
   140
1041
4.0005
1070
   343
1005
0
1070
   344
1005
0
1002
}
0
DIMENSION
5
315
100
AcDbEntity
8
2
62
256
6
ByLayer
370
13
48
1
60
0
100
AcDbDimension
2
DimnDraft3D2
10
15.885423
20
-111.46109
30
0
11
-0.114577
21
-111.46109
31
0
70
32
71
5
72
1
41
1
210
0
220
0
230
1
3
Standard
100
AcDbAlignedDimension
13
-16.114577
23
-93.592959
33
0
14
15.885423
24
-93.592959
34
0
50
0
100
AcDbRotatedDimension
1001
ACAD
1000
DSTYLE
1002
{
1070
   279
1070
     0
1070
   173
1070
     1
1070
   340
1005
2F5
1070
   271
1070
     2
1070
   272
1070
     3
1070
    77
1070
     1
1070
    73
1070
     0
1070
   171
1070
     3
1070
   274
1070
     4
1070
   177
1070
     7
1070
   176
1070
     7
1070
   178
1070
     7
1070
    48
1040
-0.005
1070
    41
1041
3.175
1070
   147
1041
2.00025
1070
    42
1041
1.5875
1070
    44
1041
3.175
1070
   140
1041
4.0005
1070
   343
1005
0
1070
   344
1005
0
1002
}
0
DIMENSION
5
324
100
AcDbEntity
8
SK2
62
256
6
ByLayer
370
13
48
1
60
0
100
AcDbDimension
2
DimnDraft3D3
10
-24.745679
20
79.204333
30
0
11
-24.745679
21
85.604896
31
0
70
32
71
5
72
1
41
1
210
0
220
0
230
1
3
Standard
100
AcDbAlignedDimension
13
-17.472923
23
92.005459
33
0
14
-17.474964
24
79.204333
34
0
50
90
100
AcDbRotatedDimension
1001
ACAD
1000
DSTYLE
1002
{
1070
    74
1070
     0
1070
   279
1070
     0
1070
   173
1070
     1
1070
   340
1005
2F5
1070
   271
1070
     2
1070
   272
1070
     3
1070
    77
1070
     1
1070
    73
1070
     0
1070
   171
1070
     3
1070
   274
1070
     4
1070
   177
1070
     7
1070
   176
1070
     7
1070
   178
1070
     7
1070
    48
1040
-0.005
1070
    41
1041
3.175
1070
   147
1041
2.00025
1070
    42
1041
1.5875
1070
    44
1041
3.175
1070
   140
1041
4.0005
1070
   343
1005
0
1070
   344
1005
0
1002
}
0
DIMENSION
5
332
100
AcDbEntity
8
2
62
256
6
ByLayer
370
13
48
1
60
0
100
AcDbDimension
2
DimnDraft3D4
10
-36.693268
20
92.005459
30
0
11
-36.693268
21
61.502729
31
0
70
32
71
5
72
1
41
1
210
0
220
0
230
1
3
Standard
100
AcDbAlignedDimension
13
-16.293723
23
31
33
0
14
-17.472923
24
92.005459
34
0
50
90
100
AcDbRotatedDimension
1001
ACAD
1000
DSTYLE
1002
{
1070
    74
1070
     0
1070
   279
1070
     0
1070
   173
1070
     1
1070
   340
1005
2F5
1070
   271
1070
     2
1070
   272
1070
     3
1070
    77
1070
     1
1070
    73
1070
     0
1070
   171
1070
     3
1070
   274
1070
     4
1070
   177
1070
     7
1070
   176
1070
     7
1070
   178
1070
     7
1070
    48
1040
-0.005
1070
    41
1041
3.175
1070
   147
1041
2.00025
1070
    42
1041
1.5875
1070
    44
1041
3.175
1070
   140
1041
4.0005
1070
   343
1005
0
1070
   344
1005
0
1002
}
0
DIMENSION
5
340
100
AcDbEntity
8
2
62
256
6
ByLayer
370
13
48
1
60
0
100
AcDbDimension
2
DimnDraft3D5
10
-48.181334
20
92.005459
30
0
11
-48.181334
21
46.002729
31
0
70
32
71
5
72
1
41
1
210
0
220
0
230
1
3
Standard
100
AcDbAlignedDimension
13
-33.0575
23
0
33
0
14
-17.472923
24
92.005459
34
0
50
90
100
AcDbRotatedDimension
1001
ACAD
1000
DSTYLE
1002
{
1070
    74
1070
     0
1070
   279
1070
     0
1070
   173
1070
     1
1070
   340
1005
2F5
1070
   271
1070
     2
1070
   272
1070
     3
1070
    77
1070
     1
1070
    73
1070
     0
1070
   171
1070
     3
1070
   274
1070
     4
1070
   177
1070
     7
1070
   176
1070
     7
1070
   178
1070
     7
1070
    48
1040
-0.005
1070
    41
1041
3.175
1070
   147
1041
2.00025
1070
    42
1041
1.5875
1070
    44
1041
3.175
1070
   140
1041
4.0005
1070
   343
1005
0
1070
   344
1005
0
1002
}
0
ENDSEC
0
SECTION
2
OBJECTS
0
DICTIONARY
5
3ab
330
0
100
AcDbDictionary
280
0
281
1
3
ACAD_GROUP
350
3ac
3
ACAD_MLINESTYLE
350
3ad
0
DICTIONARY
5
3ac
330
0
100
AcDbDictionary
280
0
281
1
0
DICTIONARY
5
3ad
330
0
100
AcDbDictionary
280
0
281
1
3
Standard
350
18
0
MLINESTYLE
5
18
330
3ad
100
AcDbMlineStyle
2
Standard
70
0
3

62
256
51
90
52
90
71
2
49
-0.5
62
256
6
ByLayer
49
0.5
62
256
6
ByLayer
0
RASTERVARIABLES
5
399
330

100
AcDbRasterVariables
90
0
70
1
71
1
72
1
0
ENDSEC
0
EOF
