0
SECTION
2
HEADER
9
$ACADVER
1
AC1015
9
$DWGCODEPAGE
3
ANSI_1252
9
$HANDSEED
5
336
9
$ANGBASE
50
0
9
$ANGDIR
70
0
9
$ATTMODE
70
1
9
$AUNITS
70
0
9
$AUPREC
70
0
9
$CECOLOR
62
256
9
$CELTSCALE
40
1
9
$CELTYPE
6
ByLayer
9
$CELWEIGHT
370
18
9
$CLAYER
8
0
9
$CMLJUST
70
0
9
$CMLSCALE
40
1
9
$CMLSTYLE
2
Standard
9
$DIMSTYLE
2
Standard
9
$TEXTSIZE
40
0.2
9
$TEXTSTYLE
7
Standard
9
$LUNITS
70
2
9
$LUPREC
70
4
9
$EXTNAMES
290
1
9
$INSUNITS
70
4
9
$LTSCALE
40
1
9
$LWDISPLAY
290
1
9
$PDMODE
70
0
9
$PDSIZE
40
0
9
$PLINEGEN
70
0
0
ENDSEC
0
SECTION
2
CLASSES
0
CLASS
1
RASTERVARIABLES
2
AcDbRasterVariables
3
ISM
90
0
280
0
281
0
0
ENDSEC
0
SECTION
2
TABLES
0
TABLE
2
VPORT
5
32c
100
AcDbSymbolTable
0
VPORT
5
1
100
AcDbSymbolTableRecord
100
AcDbViewportTableRecord
2
*Active
70
0
10
0
20
0
11
1
21
1
12
-1
22
1
13
0
23
0
14
0.5
24
0.5
15
10
25
10
16
0
26
0
36
1
17
0
27
0
37
0
0
ENDTAB
0
TABLE
2
LTYPE
5
32d
100
AcDbSymbolTable
0
LTYPE
5
14
100
AcDbSymbolTableRecord
100
AcDbLinetypeTableRecord
70
0
2
ByBlock
3

72
65
73
0
40
0
0
LTYPE
5
15
100
AcDbSymbolTableRecord
100
AcDbLinetypeTableRecord
70
0
2
ByLayer
3

72
65
73
0
40
0
0
LTYPE
5
16
100
AcDbSymbolTableRecord
100
AcDbLinetypeTableRecord
70
0
2
CONTINUOUS
3
Solid line
72
65
73
0
40
0
0
LTYPE
5
6A
100
AcDbSymbolTableRecord
100
AcDbLinetypeTableRecord
70
0
2
CENTER
3
____ _ ____ _ ____ _ ____
72
65
73
4
40
47.5
49
22
74
0
49
-8.5
74
0
49
8.5
74
0
49
-8.5
74
0
0
LTYPE
5
6B
100
AcDbSymbolTableRecord
100
AcDbLinetypeTableRecord
70
0
2
DASHED
3
__ __ __ __ __ __ __ __ __
72
65
73
2
40
25.72
49
12.86
74
0
49
-12.86
74
0
0
ENDTAB
0
TABLE
2
LAYER
5
32e
100
AcDbSymbolTable
0
LAYER
5
10
100
AcDbSymbolTableRecord
100
AcDbLayerTableRecord
2
0
70
0
62
7
6
CONTINUOUS
290
1
370
-3
390
0
0
LAYER
5
6D
100
AcDbSymbolTableRecord
100
AcDbLayerTableRecord
2
81
70
0
62
-3
6
CONTINUOUS
290
1
370
-3
390
0
0
LAYER
5
6F
100
AcDbSymbolTableRecord
100
AcDbLayerTableRecord
2
1
70
0
62
4
6
CONTINUOUS
290
1
370
-3
390
0
0
LAYER
5
71
100
AcDbSymbolTableRecord
100
AcDbLayerTableRecord
2
80
70
0
62
-6
6
CONTINUOUS
290
1
370
-3
390
0
0
LAYER
5
DD
100
AcDbSymbolTableRecord
100
AcDbLayerTableRecord
2
4
70
0
62
-2
6
CENTER
290
1
370
-3
390
0
0
LAYER
5
26A
100
AcDbSymbolTableRecord
100
AcDbLayerTableRecord
2
2
70
0
62
7
6
CONTINUOUS
290
1
370
-3
390
0
0
LAYER
5
318
100
AcDbSymbolTableRecord
100
AcDbLayerTableRecord
2
SK1
70
0
62
4
6
CONTINUOUS
290
1
370
-3
390
0
0
LAYER
5
319
100
AcDbSymbolTableRecord
100
AcDbLayerTableRecord
2
SK4
70
0
62
2
6
CENTER
290
1
370
-3
390
0
0
LAYER
5
31a
100
AcDbSymbolTableRecord
100
AcDbLayerTableRecord
2
SK6
70
0
62
5
6
CONTINUOUS
290
1
370
-3
390
0
0
LAYER
5
31b
100
AcDbSymbolTableRecord
100
AcDbLayerTableRecord
2
SK2
70
0
62
7
6
CONTINUOUS
290
1
370
-3
390
0
0
ENDTAB
0
TABLE
2
STYLE
5
32f
100
AcDbSymbolTable
0
STYLE
5
11
100
AcDbSymbolTableRecord
100
AcDbTextStyleTableRecord
2
Standard
3
txt
70
0
71
0
40
0
41
1
42
0
50
0
0
STYLE
5
265
100
AcDbSymbolTableRecord
100
AcDbTextStyleTableRecord
2
iso_b_vert
3
simplex.shx
70
0
71
0
40
0
41
1
42
0
50
0
0
STYLE
5
266
100
AcDbSymbolTableRecord
100
AcDbTextStyleTableRecord
2
DWGDirectTextStyle
3
simplex
70
0
71
0
40
0
41
1
42
0
50
0
0
ENDTAB
0
TABLE
2
DIMSTYLE
5
330
100
AcDbSymbolTable
100
AcDbDimStyleTable
0
DIMSTYLE
105
27
100
AcDbSymbolTableRecord
100
AcDbDimStyleTableRecord
2
Standard
70
0
3
<>
41
0.18
42
0.0625
44
0.18
140
0.18
147
0.09
73
0
74
0
77
1
271
2
275
0
278
52
280
0
340
11
0
ENDTAB
0
TABLE
2
VIEW
5
331
100
AcDbSymbolTable
0
ENDTAB
0
TABLE
2
UCS
5
332
100
AcDbSymbolTable
0
ENDTAB
0
TABLE
2
APPID
5
333
100
AcDbSymbolTable
0
APPID
5
12
100
AcDbSymbolTableRecord
100
AcDbRegAppTableRecord
2
ACAD
70
0
0
ENDTAB
0
TABLE
2
BLOCK_RECORD
5
334
100
AcDbSymbolTable
0
BLOCK_RECORD
5
1F
100
AcDbSymbolTableRecord
100
AcDbBlockTableRecord
2
*Model_Space
340
0
70
0
0
BLOCK_RECORD
5
1B
100
AcDbSymbolTableRecord
100
AcDbBlockTableRecord
2
*Paper_Space
340
0
70
0
0
BLOCK_RECORD
5
23
100
AcDbSymbolTableRecord
100
AcDbBlockTableRecord
2
*Paper_Space0
340
0
70
0
0
BLOCK_RECORD
5
268
100
AcDbSymbolTableRecord
100
AcDbBlockTableRecord
2
DimnDraft3D1
340
0
70
0
0
BLOCK_RECORD
5
277
100
AcDbSymbolTableRecord
100
AcDbBlockTableRecord
2
DimnDraft3D2
340
0
70
0
0
BLOCK_RECORD
5
287
100
AcDbSymbolTableRecord
100
AcDbBlockTableRecord
2
DimnDraft3D3
340
0
70
0
0
BLOCK_RECORD
5
295
100
AcDbSymbolTableRecord
100
AcDbBlockTableRecord
2
DimnDraft3D4
340
0
70
0
0
BLOCK_RECORD
5
2A3
100
AcDbSymbolTableRecord
100
AcDbBlockTableRecord
2
DimnDraft3D5
340
0
70
0
0
BLOCK_RECORD
5
2B1
100
AcDbSymbolTableRecord
100
AcDbBlockTableRecord
2
DimnDraft3D6
340
0
70
0
0
ENDTAB
0
ENDSEC
0
SECTION
2
BLOCKS
0
BLOCK
5
20
100
AcDbEntity
8
0
100
AcDbBlockBegin
2
*Model_Space
70
0
10
0
20
0
30
0
3
*Model_Space
0
ENDBLK
5
21
100
AcDbEntity
8
0
100
AcDbBlockEnd
0
BLOCK
5
1C
100
AcDbEntity
8
0
100
AcDbBlockBegin
2
*Paper_Space
70
0
10
0
20
0
30
0
3
*Paper_Space
0
ENDBLK
5
1D
100
AcDbEntity
8
0
100
AcDbBlockEnd
0
BLOCK
5
24
100
AcDbEntity
8
0
100
AcDbBlockBegin
2
*Paper_Space0
70
0
10
0
20
0
30
0
3
*Paper_Space0
0
ENDBLK
5
25
100
AcDbEntity
8
0
100
AcDbBlockEnd
0
BLOCK
5
274
100
AcDbEntity
8
0
100
AcDbBlockBegin
2
DimnDraft3D1
70
0
10
0
20
0
30
0
3
DimnDraft3D1
0
MTEXT
5
269
100
AcDbEntity
8
2
62
256
6
ByLayer
370
25
48
1
60
0
100
AcDbMText
10
86.277583
20
-5.967467
30
0
210
0
220
0
230
1
1
\W1.2949;%%c25
40
4.0005
41
0
44
1.084337
50
90
71
7
72
5
7
iso_b_vert
0
LINE
5
26B
100
AcDbEntity
8
2
62
256
6
ByLayer
370
13
48
1
60
0
100
AcDbLine
10
67.520295
20
-12.462285
30
0
11
91.452833
21
-12.462285
31
0
39
0
210
0
220
0
230
1
0
LINE
5
26C
100
AcDbEntity
8
2
62
256
6
ByLayer
370
13
48
1
60
0
100
AcDbLine
10
70.592966
20
12.40252
30
0
11
91.452833
21
12.40252
31
0
39
0
210
0
220
0
230
1
0
LINE
5
26D
100
AcDbEntity
8
2
62
256
6
ByLayer
370
13
48
1
60
0
100
AcDbLine
10
88.277833
20
-12.462285
30
0
11
88.277833
21
12.40252
31
0
39
0
210
0
220
0
230
1
0
LINE
5
26E
100
AcDbEntity
8
2
62
256
6
ByLayer
370
13
48
1
60
0
100
AcDbLine
10
88.277833
20
-12.462285
30
0
11
87.859836
21
-9.287287
31
0
39
0
210
0
220
0
230
1
0
LINE
5
26F
100
AcDbEntity
8
2
62
256
6
ByLayer
370
13
48
1
60
0
100
AcDbLine
10
88.277833
20
-12.462285
30
0
11
88.69583
21
-9.287284
31
0
39
0
210
0
220
0
230
1
0
LINE
5
270
100
AcDbEntity
8
2
62
256
6
ByLayer
370
13
48
1
60
0
100
AcDbLine
10
87.859836
20
-9.287287
30
0
11
88.69583
21
-9.287284
31
0
39
0
210
0
220
0
230
1
0
LINE
5
271
100
AcDbEntity
8
2
62
256
6
ByLayer
370
13
48
1
60
0
100
AcDbLine
10
88.277833
20
12.40252
30
0
11
88.69583
21
9.227521
31
0
39
0
210
0
220
0
230
1
0
LINE
5
272
100
AcDbEntity
8
2
62
256
6
ByLayer
370
13
48
1
60
0
100
AcDbLine
10
88.277833
20
12.40252
30
0
11
87.859836
21
9.227518
31
0
39
0
210
0
220
0
230
1
0
LINE
5
273
100
AcDbEntity
8
2
62
256
6
ByLayer
370
13
48
1
60
0
100
AcDbLine
10
88.69583
20
9.227521
30
0
11
87.859836
21
9.227518
31
0
39
0
210
0
220
0
230
1
0
ENDBLK
5
275
100
AcDbEntity
8
0
100
AcDbBlockEnd
0
BLOCK
5
284
100
AcDbEntity
8
0
100
AcDbBlockBegin
2
DimnDraft3D2
70
0
10
0
20
0
30
0
3
DimnDraft3D2
0
MTEXT
5
278
100
AcDbEntity
8
SK2
62
256
6
ByLayer
370
25
48
1
60
0
100
AcDbMText
10
61.980547
20
20.737431
30
0
210
0
220
0
230
1
1
\W0.5144;12
40
4.0005
41
0
44
1.084337
50
0
71
7
72
5
7
iso_b_vert
0
LINE
5
27A
100
AcDbEntity
8
SK2
62
256
6
ByLayer
370
13
48
1
60
0
100
AcDbLine
10
69.005466
20
13.99002
30
0
11
69.005466
21
22.912306
31
0
39
0
210
0
220
0
230
1
0
LINE
5
27B
100
AcDbEntity
8
SK2
62
256
6
ByLayer
370
13
48
1
60
0
100
AcDbLine
10
56.629522
20
13.996411
30
0
11
56.629522
21
22.912306
31
0
39
0
210
0
220
0
230
1
0
LINE
5
27C
100
AcDbEntity
8
SK2
62
256
6
ByLayer
370
13
48
1
60
0
100
AcDbLine
10
79.006716
20
19.737306
30
0
11
69.005466
21
19.737306
31
0
39
0
210
0
220
0
230
1
0
LINE
5
27D
100
AcDbEntity
8
SK2
62
256
6
ByLayer
370
13
48
1
60
0
100
AcDbLine
10
46.628272
20
19.737306
30
0
11
56.629522
21
19.737306
31
0
39
0
210
0
220
0
230
1
0
LINE
5
27E
100
AcDbEntity
8
SK2
62
256
6
ByLayer
370
13
48
1
60
0
100
AcDbLine
10
69.005466
20
19.737306
30
0
11
72.180465
21
20.155302
31
0
39
0
210
0
220
0
230
1
0
LINE
5
27F
100
AcDbEntity
8
SK2
62
256
6
ByLayer
370
13
48
1
60
0
100
AcDbLine
10
69.005466
20
19.737306
30
0
11
72.180468
21
19.319309
31
0
39
0
210
0
220
0
230
1
0
LINE
5
280
100
AcDbEntity
8
SK2
62
256
6
ByLayer
370
13
48
1
60
0
100
AcDbLine
10
72.180465
20
20.155302
30
0
11
72.180468
21
19.319309
31
0
39
0
210
0
220
0
230
1
0
LINE
5
281
100
AcDbEntity
8
SK2
62
256
6
ByLayer
370
13
48
1
60
0
100
AcDbLine
10
56.629522
20
19.737306
30
0
11
53.454523
21
19.319309
31
0
39
0
210
0
220
0
230
1
0
LINE
5
282
100
AcDbEntity
8
SK2
62
256
6
ByLayer
370
13
48
1
60
0
100
AcDbLine
10
56.629522
20
19.737306
30
0
11
53.45452
21
20.155302
31
0
39
0
210
0
220
0
230
1
0
LINE
5
283
100
AcDbEntity
8
SK2
62
256
6
ByLayer
370
13
48
1
60
0
100
AcDbLine
10
53.454523
20
19.319309
30
0
11
53.45452
21
20.155302
31
0
39
0
210
0
220
0
230
1
0
ENDBLK
5
285
100
AcDbEntity
8
0
100
AcDbBlockEnd
0
BLOCK
5
292
100
AcDbEntity
8
0
100
AcDbBlockBegin
2
DimnDraft3D3
70
0
10
0
20
0
30
0
3
DimnDraft3D3
0
MTEXT
5
288
100
AcDbEntity
8
2
62
256
6
ByLayer
370
25
48
1
60
0
100
AcDbMText
10
42.665722
20
30.355899
30
0
210
0
220
0
230
1
1
\W0.6562;50
40
4.0005
41
0
44
1.084337
50
0
71
7
72
5
7
iso_b_vert
0
LINE
5
289
100
AcDbEntity
8
2
62
256
6
ByLayer
370
13
48
1
60
0
100
AcDbLine
10
18.999995
20
12.896556
30
0
11
18.999995
21
32.530774
31
0
39
0
210
0
220
0
230
1
0
LINE
5
28A
100
AcDbEntity
8
2
62
256
6
ByLayer
370
13
48
1
60
0
100
AcDbLine
10
69.005466
20
13.99002
30
0
11
69.005466
21
32.530774
31
0
39
0
210
0
220
0
230
1
0
LINE
5
28B
100
AcDbEntity
8
2
62
256
6
ByLayer
370
13
48
1
60
0
100
AcDbLine
10
18.999995
20
29.355774
30
0
11
69.005466
21
29.355774
31
0
39
0
210
0
220
0
230
1
0
LINE
5
28C
100
AcDbEntity
8
2
62
256
6
ByLayer
370
13
48
1
60
0
100
AcDbLine
10
18.999995
20
29.355774
30
0
11
22.174994
21
29.773771
31
0
39
0
210
0
220
0
230
1
0
LINE
5
28D
100
AcDbEntity
8
2
62
256
6
ByLayer
370
13
48
1
60
0
100
AcDbLine
10
18.999995
20
29.355774
30
0
11
22.174997
21
28.937778
31
0
39
0
210
0
220
0
230
1
0
LINE
5
28E
100
AcDbEntity
8
2
62
256
6
ByLayer
370
13
48
1
60
0
100
AcDbLine
10
22.174994
20
29.773771
30
0
11
22.174997
21
28.937778
31
0
39
0
210
0
220
0
230
1
0
LINE
5
28F
100
AcDbEntity
8
2
62
256
6
ByLayer
370
13
48
1
60
0
100
AcDbLine
10
69.005466
20
29.355774
30
0
11
65.830468
21
28.937778
31
0
39
0
210
0
220
0
230
1
0
LINE
5
290
100
AcDbEntity
8
2
62
256
6
ByLayer
370
13
48
1
60
0
100
AcDbLine
10
69.005466
20
29.355774
30
0
11
65.830465
21
29.773771
31
0
39
0
210
0
220
0
230
1
0
LINE
5
291
100
AcDbEntity
8
2
62
256
6
ByLayer
370
13
48
1
60
0
100
AcDbLine
10
65.830468
20
28.937778
30
0
11
65.830465
21
29.773771
31
0
39
0
210
0
220
0
230
1
0
ENDBLK
5
293
100
AcDbEntity
8
0
100
AcDbBlockEnd
0
BLOCK
5
2A0
100
AcDbEntity
8
0
100
AcDbBlockBegin
2
DimnDraft3D4
70
0
10
0
20
0
30
0
3
DimnDraft3D4
0
MTEXT
5
296
100
AcDbEntity
8
2
62
256
6
ByLayer
370
25
48
1
60
0
100
AcDbMText
10
4.197182
20
50.332719
30
0
210
0
220
0
230
1
1
\W0.6044;125
40
4.0005
41
0
44
1.084337
50
0
71
7
72
5
7
iso_b_vert
0
LINE
5
297
100
AcDbEntity
8
2
62
256
6
ByLayer
370
13
48
1
60
0
100
AcDbLine
10
-56
20
12.5875
30
0
11
-56
21
52.507594
31
0
39
0
210
0
220
0
230
1
0
LINE
5
298
100
AcDbEntity
8
2
62
256
6
ByLayer
370
13
48
1
60
0
100
AcDbLine
10
69.005466
20
13.99002
30
0
11
69.005466
21
52.507594
31
0
39
0
210
0
220
0
230
1
0
LINE
5
299
100
AcDbEntity
8
2
62
256
6
ByLayer
370
13
48
1
60
0
100
AcDbLine
10
-56
20
49.332594
30
0
11
69.005466
21
49.332594
31
0
39
0
210
0
220
0
230
1
0
LINE
5
29A
100
AcDbEntity
8
2
62
256
6
ByLayer
370
13
48
1
60
0
100
AcDbLine
10
-56
20
49.332594
30
0
11
-52.825002
21
49.750591
31
0
39
0
210
0
220
0
230
1
0
LINE
5
29B
100
AcDbEntity
8
2
62
256
6
ByLayer
370
13
48
1
60
0
100
AcDbLine
10
-56
20
49.332594
30
0
11
-52.824998
21
48.914598
31
0
39
0
210
0
220
0
230
1
0
LINE
5
29C
100
AcDbEntity
8
2
62
256
6
ByLayer
370
13
48
1
60
0
100
AcDbLine
10
-52.825002
20
49.750591
30
0
11
-52.824998
21
48.914598
31
0
39
0
210
0
220
0
230
1
0
LINE
5
29D
100
AcDbEntity
8
2
62
256
6
ByLayer
370
13
48
1
60
0
100
AcDbLine
10
69.005466
20
49.332594
30
0
11
65.830468
21
48.914598
31
0
39
0
210
0
220
0
230
1
0
LINE
5
29E
100
AcDbEntity
8
2
62
256
6
ByLayer
370
13
48
1
60
0
100
AcDbLine
10
69.005466
20
49.332594
30
0
11
65.830465
21
49.750591
31
0
39
0
210
0
220
0
230
1
0
LINE
5
29F
100
AcDbEntity
8
2
62
256
6
ByLayer
370
13
48
1
60
0
100
AcDbLine
10
65.830468
20
48.914598
30
0
11
65.830465
21
49.750591
31
0
39
0
210
0
220
0
230
1
0
ENDBLK
5
2A1
100
AcDbEntity
8
0
100
AcDbBlockEnd
0
BLOCK
5
2AE
100
AcDbEntity
8
0
100
AcDbBlockBegin
2
DimnDraft3D5
70
0
10
0
20
0
30
0
3
DimnDraft3D5
0
MTEXT
5
2A4
100
AcDbEntity
8
SK2
62
256
6
ByLayer
370
25
48
1
60
0
100
AcDbMText
10
-71.817029
20
-5.937584
30
0
210
0
220
0
230
1
1
\W1.2949;%%c25
40
4.0005
41
0
44
1.084337
50
90
71
7
72
5
7
iso_b_vert
0
LINE
5
2A5
100
AcDbEntity
8
SK2
62
256
6
ByLayer
370
13
48
1
60
0
100
AcDbLine
10
-56.0875
20
-12.5
30
0
11
-72.991779
21
-12.5
31
0
39
0
210
0
220
0
230
1
0
LINE
5
2A6
100
AcDbEntity
8
SK2
62
256
6
ByLayer
370
13
48
1
60
0
100
AcDbLine
10
-56.0875
20
12.5
30
0
11
-72.991779
21
12.5
31
0
39
0
210
0
220
0
230
1
0
LINE
5
2A7
100
AcDbEntity
8
SK2
62
256
6
ByLayer
370
13
48
1
60
0
100
AcDbLine
10
-69.816779
20
-12.5
30
0
11
-69.816779
21
12.5
31
0
39
0
210
0
220
0
230
1
0
LINE
5
2A8
100
AcDbEntity
8
SK2
62
256
6
ByLayer
370
13
48
1
60
0
100
AcDbLine
10
-69.816779
20
-12.5
30
0
11
-70.234775
21
-9.325002
31
0
39
0
210
0
220
0
230
1
0
LINE
5
2A9
100
AcDbEntity
8
SK2
62
256
6
ByLayer
370
13
48
1
60
0
100
AcDbLine
10
-69.816779
20
-12.5
30
0
11
-69.398782
21
-9.324998
31
0
39
0
210
0
220
0
230
1
0
LINE
5
2AA
100
AcDbEntity
8
SK2
62
256
6
ByLayer
370
13
48
1
60
0
100
AcDbLine
10
-70.234775
20
-9.325002
30
0
11
-69.398782
21
-9.324998
31
0
39
0
210
0
220
0
230
1
0
LINE
5
2AB
100
AcDbEntity
8
SK2
62
256
6
ByLayer
370
13
48
1
60
0
100
AcDbLine
10
-69.816779
20
12.5
30
0
11
-69.398782
21
9.325002
31
0
39
0
210
0
220
0
230
1
0
LINE
5
2AC
100
AcDbEntity
8
SK2
62
256
6
ByLayer
370
13
48
1
60
0
100
AcDbLine
10
-69.816779
20
12.5
30
0
11
-70.234775
21
9.324998
31
0
39
0
210
0
220
0
230
1
0
LINE
5
2AD
100
AcDbEntity
8
SK2
62
256
6
ByLayer
370
13
48
1
60
0
100
AcDbLine
10
-69.398782
20
9.325002
30
0
11
-70.234775
21
9.324998
31
0
39
0
210
0
220
0
230
1
0
ENDBLK
5
2AF
100
AcDbEntity
8
0
100
AcDbBlockEnd
0
BLOCK
5
2BC
100
AcDbEntity
8
0
100
AcDbBlockBegin
2
DimnDraft3D6
70
0
10
0
20
0
30
0
3
DimnDraft3D6
0
MTEXT
5
2B2
100
AcDbEntity
8
SK2
62
256
6
ByLayer
370
25
48
1
60
0
100
AcDbMText
10
33.165724
20
40.270321
30
0
210
0
220
0
230
1
1
\W0.6745;69
40
4.0005
41
0
44
1.084337
50
0
71
7
72
5
7
iso_b_vert
0
LINE
5
2B3
100
AcDbEntity
8
SK2
62
256
6
ByLayer
370
13
48
1
60
0
100
AcDbLine
10
0
20
14.0875
30
0
11
0
21
42.445196
31
0
39
0
210
0
220
0
230
1
0
LINE
5
2B4
100
AcDbEntity
8
SK2
62
256
6
ByLayer
370
13
48
1
60
0
100
AcDbLine
10
69.005466
20
13.99002
30
0
11
69.005466
21
42.445196
31
0
39
0
210
0
220
0
230
1
0
LINE
5
2B5
100
AcDbEntity
8
SK2
62
256
6
ByLayer
370
13
48
1
60
0
100
AcDbLine
10
0
20
39.270196
30
0
11
69.005466
21
39.270196
31
0
39
0
210
0
220
0
230
1
0
LINE
5
2B6
100
AcDbEntity
8
SK2
62
256
6
ByLayer
370
13
48
1
60
0
100
AcDbLine
10
0
20
39.270196
30
0
11
3.174998
21
39.688193
31
0
39
0
210
0
220
0
230
1
0
LINE
5
2B7
100
AcDbEntity
8
SK2
62
256
6
ByLayer
370
13
48
1
60
0
100
AcDbLine
10
0
20
39.270196
30
0
11
3.175002
21
38.8522
31
0
39
0
210
0
220
0
230
1
0
LINE
5
2B8
100
AcDbEntity
8
SK2
62
256
6
ByLayer
370
13
48
1
60
0
100
AcDbLine
10
3.174998
20
39.688193
30
0
11
3.175002
21
38.8522
31
0
39
0
210
0
220
0
230
1
0
LINE
5
2B9
100
AcDbEntity
8
SK2
62
256
6
ByLayer
370
13
48
1
60
0
100
AcDbLine
10
69.005466
20
39.270196
30
0
11
65.830468
21
38.8522
31
0
39
0
210
0
220
0
230
1
0
LINE
5
2BA
100
AcDbEntity
8
SK2
62
256
6
ByLayer
370
13
48
1
60
0
100
AcDbLine
10
69.005466
20
39.270196
30
0
11
65.830465
21
39.688193
31
0
39
0
210
0
220
0
230
1
0
LINE
5
2BB
100
AcDbEntity
8
SK2
62
256
6
ByLayer
370
13
48
1
60
0
100
AcDbLine
10
65.830468
20
38.8522
30
0
11
65.830465
21
39.688193
31
0
39
0
210
0
220
0
230
1
0
ENDBLK
5
2BD
100
AcDbEntity
8
0
100
AcDbBlockEnd
0
ENDSEC
0
SECTION
2
ENTITIES
0
ELLIPSE
5
E2
100
AcDbEntity
8
1
62
256
6
ByLayer
370
25
48
1
60
0
100
AcDbEllipse
10
59.210146
20
7.012774
30
0
11
-0.0960519976203034
21
-2.71537677772124
31
0
210
0
220
0
230
1
40
0.991835
41
0.0296615638807951
42
0.541795663766703
0
ELLIPSE
5
E3
100
AcDbEntity
8
1
62
256
6
ByLayer
370
25
48
1
60
0
100
AcDbEllipse
10
59.210146
20
7.012774
30
0
11
-0.0960519983212608
21
-2.71537677772177
31
0
210
0
220
0
230
1
40
0.991835
41
-0.273444745582013
42
0.0296615641363177
0
ELLIPSE
5
E4
100
AcDbEntity
8
1
62
256
6
ByLayer
370
25
48
1
60
0
100
AcDbEllipse
10
59.210146
20
7.012774
30
0
11
-0.0960518611355406
21
-2.71537679130667
31
0
210
0
220
0
230
1
40
0.991835
41
-2.92810335361584
42
-2.83458484605744
0
ELLIPSE
5
E5
100
AcDbEntity
8
1
62
256
6
ByLayer
370
25
48
1
60
0
100
AcDbEllipse
10
59.210146
20
7.012774
30
0
11
-0.0960519980257915
21
-2.71537677768758
31
0
210
0
220
0
230
1
40
0.991835
41
2.56655627303519
42
-2.92810330316372
0
ELLIPSE
5
E6
100
AcDbEntity
8
1
62
256
6
ByLayer
370
25
48
1
60
0
100
AcDbEllipse
10
59.255792
20
7.011159
30
0
11
-0.0893450565366364
21
-2.52577246448549
31
0
210
0
220
0
230
1
40
0.991835
41
0.245466508818117
42
2.93932219531929
0
ELLIPSE
5
E7
100
AcDbEntity
8
1
62
256
6
ByLayer
370
25
48
1
60
0
100
AcDbEllipse
10
58.771993
20
7.020854
30
0
11
-0.0927970286326425
21
-2.62335924178905
31
0
210
0
220
0
230
1
40
0.991835
41
3.14159265358979
42
-1.52206311248089
0
ELLIPSE
5
E8
100
AcDbEntity
8
1
62
256
6
ByLayer
370
25
48
1
60
0
100
AcDbEllipse
10
58.73689
20
7.022096
30
0
11
-0.0636322482248498
21
-1.79887490865426
31
0
210
0
220
0
230
1
40
0.991835
41
0
42
6.28318530717959
0
ELLIPSE
5
E9
100
AcDbEntity
8
1
62
256
6
ByLayer
370
25
48
1
60
0
100
AcDbEllipse
10
58.73689
20
7.022096
30
0
11
-0.0592663690278536
21
-1.67545210241839
31
0
210
0
220
0
230
1
40
0.991835
41
0.575122537637952
42
1.61952954115387
0
ELLIPSE
5
EA
100
AcDbEntity
8
1
62
256
6
ByLayer
370
25
48
1
60
0
100
AcDbEllipse
10
58.73689
20
7.022096
30
0
11
-0.0592663689617684
21
-1.67545210242165
31
0
210
0
220
0
230
1
40
0.991835
41
-0.477656108960465
42
0.575122537598909
0
ELLIPSE
5
EB
100
AcDbEntity
8
1
62
256
6
ByLayer
370
25
48
1
60
0
100
AcDbEllipse
10
58.73689
20
7.022096
30
0
11
-0.05926636902756
21
-1.67545210242083
31
0
210
0
220
0
230
1
40
0.991835
41
1.61952954115356
42
2.66393654466811
0
ELLIPSE
5
EC
100
AcDbEntity
8
1
62
256
6
ByLayer
370
25
48
1
60
0
100
AcDbEllipse
10
58.73689
20
7.022096
30
0
11
-0.0592663689633835
21
-1.67545210242186
31
0
210
0
220
0
230
1
40
0.991835
41
2.66393654463033
42
-2.56647011598998
0
ELLIPSE
5
ED
100
AcDbEntity
8
1
62
256
6
ByLayer
370
25
48
1
60
0
100
AcDbEllipse
10
58.73689
20
7.022096
30
0
11
-0.0592663688855662
21
-1.67545210242642
31
0
210
0
220
0
230
1
40
0.991835
41
-2.56647011603601
42
-1.52206311252174
0
ELLIPSE
5
EE
100
AcDbEntity
8
1
62
256
6
ByLayer
370
25
48
1
60
0
100
AcDbEllipse
10
58.73689
20
7.022096
30
0
11
-0.0592663690327796
21
-1.67545210242067
31
0
210
0
220
0
230
1
40
0.991835
41
-1.52206311243306
42
-0.477656108918454
0
ELLIPSE
5
EF
100
AcDbEntity
8
1
62
256
6
ByLayer
370
25
48
1
60
0
100
AcDbEllipse
10
58.915312
20
7.015784
30
0
11
-0.0927970286602651
21
-2.62335924178749
31
0
210
0
220
0
230
1
40
0.991835
41
0
42
3.14159265358979
0
ELLIPSE
5
F0
100
AcDbEntity
8
1
62
256
6
ByLayer
370
25
48
1
60
0
100
AcDbEllipse
10
58.771993
20
7.020854
30
0
11
-0.092797028657927
21
-2.62335924178754
31
0
210
0
220
0
230
1
40
0.991835
41
-1.5220631124711
42
-3.41139084318752E-16
0
ELLIPSE
5
F1
100
AcDbEntity
8
1
62
256
6
ByLayer
370
25
48
1
60
0
100
AcDbEllipse
10
58.771993
20
7.020854
30
0
11
-0.092797028659389
21
-2.62335924178752
31
0
210
0
220
0
230
1
40
0.991835
41
0
42
3.14159265358979
0
ELLIPSE
5
F2
100
AcDbEntity
8
1
62
256
6
ByLayer
370
25
48
1
60
0
100
AcDbEllipse
10
58.942953
20
5.131307
30
0
11
-0.0242509570922064
21
-0.685571215189035
31
0
210
0
220
0
230
1
40
0.991835
41
2.39906453338828
42
3.06871182708656
0
ELLIPSE
5
F3
100
AcDbEntity
8
1
62
256
6
ByLayer
370
25
48
1
60
0
100
AcDbEllipse
10
58.894043
20
8.900036
30
0
11
-0.0242509568051026
21
-0.685571215188648
31
0
210
0
220
0
230
1
40
0.991835
41
0.170347255515191
42
0.839994549219105
0
ELLIPSE
5
F4
100
AcDbEntity
8
1
62
256
6
ByLayer
370
25
48
1
60
0
100
AcDbEllipse
10
58.24417
20
5.809216
30
0
11
-0.0103225646976576
21
-0.291817485181937
31
0
210
0
220
0
230
1
40
0.991835
41
-1.78385025438285
42
-0.304629784197034
0
ELLIPSE
5
F5
100
AcDbEntity
8
1
62
256
6
ByLayer
370
25
48
1
60
0
100
AcDbEllipse
10
58.213102
20
8.20312
30
0
11
-0.0103225647145913
21
-0.29181748518156
31
0
210
0
220
0
230
1
40
0.991835
41
-2.84618966124117
42
-1.26027597059775
0
ELLIPSE
5
F6
100
AcDbEntity
8
1
62
256
6
ByLayer
370
25
48
1
60
0
100
AcDbEllipse
10
57.545405
20
6.996756
30
0
11
-0.0103225647117166
21
-0.291817485181704
31
0
210
0
220
0
230
1
40
0.991835
41
-2.82825725784937
42
-0.215868967092566
0
ELLIPSE
5
F7
100
AcDbEntity
8
1
62
256
6
ByLayer
370
25
48
1
60
0
100
AcDbEllipse
10
57.30399
20
6.049397
30
0
11
-0.0242509565394034
21
-0.685571215188731
31
0
210
0
220
0
230
1
40
0.991835
41
2.14173304246047
42
2.92572368608708
0
ELLIPSE
5
F8
100
AcDbEntity
8
1
62
256
6
ByLayer
370
25
48
1
60
0
100
AcDbEllipse
10
57.30399
20
6.049397
30
0
11
-0.0242509567816832
21
-0.685571215184818
31
0
210
0
220
0
230
1
40
0.991835
41
1.35774239919433
42
2.14173304281968
0
ELLIPSE
5
F9
100
AcDbEntity
8
1
62
256
6
ByLayer
370
25
48
1
60
0
100
AcDbEllipse
10
57.279491
20
7.937126
30
0
11
-0.0242509568131624
21
-0.685571215188249
31
0
210
0
220
0
230
1
40
0.991835
41
1.09732603934769
42
1.88131668296759
0
ELLIPSE
5
FA
100
AcDbEntity
8
1
62
256
6
ByLayer
370
25
48
1
60
0
100
AcDbEllipse
10
57.279491
20
7.937126
30
0
11
-0.0242509567304881
21
-0.68557121519265
31
0
210
0
220
0
230
1
40
0.991835
41
0.313335395606632
42
1.09732603922578
0
ELLIPSE
5
FB
100
AcDbEntity
8
1
62
256
6
ByLayer
370
25
48
1
60
0
100
AcDbEllipse
10
58.918498
20
7.015672
30
0
11
-0.0426512818124011
21
-1.20574587625249
31
0
210
0
220
0
230
1
40
0.991835
41
1.31623035123456
42
1.92492308847525
0
ELLIPSE
5
FC
100
AcDbEntity
8
1
62
256
6
ByLayer
370
25
48
1
60
0
100
AcDbEllipse
10
58.918498
20
7.015672
30
0
11
-0.0426512818990394
21
-1.20574587627313
31
0
210
0
220
0
230
1
40
0.991835
41
2.44046720627446
42
3.12129323447331
0
ELLIPSE
5
FD
100
AcDbEntity
8
1
62
256
6
ByLayer
370
25
48
1
60
0
100
AcDbEllipse
10
58.918498
20
7.015672
30
0
11
-0.0426512818685467
21
-1.2057458762775
31
0
210
0
220
0
230
1
40
0.991835
41
0.117765847682038
42
0.797500055286371
0
ELLIPSE
5
FE
100
AcDbEntity
8
1
62
256
6
ByLayer
370
25
48
1
60
0
100
AcDbEllipse
10
58.918498
20
7.015672
30
0
11
-0.0426512819569535
21
-1.2057458762729
31
0
210
0
220
0
230
1
40
0.991835
41
-0.999859610693979
42
-0.13956656871788
0
ELLIPSE
5
FF
100
AcDbEntity
8
1
62
256
6
ByLayer
370
25
48
1
60
0
100
AcDbEllipse
10
58.918498
20
7.015672
30
0
11
-0.0426512819163047
21
-1.20574587627264
31
0
210
0
220
0
230
1
40
0.991835
41
-2.04426661424361
42
-0.999859610727409
0
ELLIPSE
5
100
100
AcDbEntity
8
1
62
256
6
ByLayer
370
25
48
1
60
0
100
AcDbEllipse
10
58.918498
20
7.015672
30
0
11
-0.0426512820482826
21
-1.20574587626643
31
0
210
0
220
0
230
1
40
0.991835
41
-2.89335748005151
42
-2.0442666141331
0
ELLIPSE
5
101
100
AcDbEntity
8
1
62
256
6
ByLayer
370
25
48
1
60
0
100
AcDbEllipse
10
59.72488
20
-7.037157
30
0
11
0.0883781225404657
21
-2.49843737313056
31
0
210
0
220
0
230
1
40
0.991835
41
1.54113476276991
42
3.11315449513134
0
ELLIPSE
5
102
100
AcDbEntity
8
1
62
256
6
ByLayer
370
25
48
1
60
0
100
AcDbEllipse
10
59.724583
20
-6.987158
30
0
11
0.0618646857738202
21
-1.74890616119165
31
0
210
0
220
0
230
1
40
0.991835
41
3.14159265358979
42
-0.0296615640224072
0
ELLIPSE
5
103
100
AcDbEntity
8
1
62
256
6
ByLayer
370
25
48
1
60
0
100
AcDbEllipse
10
59.724583
20
-6.987158
30
0
11
0.0618646857724175
21
-1.7489061611917
31
0
210
0
220
0
230
1
40
0.991835
41
0
42
3.14159265358979
0
ELLIPSE
5
104
100
AcDbEntity
8
1
62
256
6
ByLayer
370
25
48
1
60
0
100
AcDbEllipse
10
50.460636
20
3.681167
30
0
11
0.469961848432023
21
-2.45542987301213
31
0
210
0
220
0
230
1
40
0.978605
41
-2.75439618063414
42
-2.17348602159105
0
ELLIPSE
5
105
100
AcDbEntity
8
1
62
256
6
ByLayer
370
25
48
1
60
0
100
AcDbEllipse
10
48.613594
20
5.042944
30
0
11
-0.657665161521555
21
-1.34813817386694
31
0
210
0
220
0
230
1
40
0.549963
41
-1.63850129429535
42
-1.26513637417431
0
ELLIPSE
5
106
100
AcDbEntity
8
1
62
256
6
ByLayer
370
25
48
1
60
0
100
AcDbEllipse
10
49.88819
20
4.214151
30
0
11
3.74763001573634
21
-2.00443735280834
31
0
210
0
220
0
230
1
40
0.056503
41
2.00333345167101
42
2.15417033380848
0
ELLIPSE
5
107
100
AcDbEntity
8
1
62
256
6
ByLayer
370
25
48
1
60
0
100
AcDbEllipse
10
54.226148
20
-9.436524
30
0
11
0.0610748660190437
21
-1.72657807394733
31
0
210
0
220
0
230
1
40
0.991835
41
-0.930672380643839
42
-0.273092589252383
0
ELLIPSE
5
108
100
AcDbEntity
8
1
62
256
6
ByLayer
370
25
48
1
60
0
100
AcDbEllipse
10
64.515008
20
-7.67905
30
0
11
0.113473424826668
21
-3.20787987221505
31
0
210
0
220
0
230
1
40
0.991835
41
0.198169906343204
42
0.364115838834679
0
ELLIPSE
5
109
100
AcDbEntity
8
1
62
256
6
ByLayer
370
25
48
1
60
0
100
AcDbEllipse
10
54.183512
20
-9.438032
30
0
11
0.0707024979033676
21
-1.99874989851244
31
0
210
0
220
0
230
1
40
0.991835
41
-1.05718609327654
42
-0.22616199871738
0
ELLIPSE
5
10A
100
AcDbEntity
8
1
62
256
6
ByLayer
370
25
48
1
60
0
100
AcDbEllipse
10
64.469708
20
-7.680652
30
0
11
0.121171987699938
21
-3.42551548764087
31
0
210
0
220
0
230
1
40
0.991835
41
0.14294541129474
42
0.627205280275266
0
ELLIPSE
5
10B
100
AcDbEntity
8
1
62
256
6
ByLayer
370
25
48
1
60
0
100
AcDbEllipse
10
64.469708
20
-7.680652
30
0
11
0.121172002070579
21
-3.42551548750295
31
0
210
0
220
0
230
1
40
0.991835
41
0.871805482237638
42
1.09970924959167
0
ELLIPSE
5
10C
100
AcDbEntity
8
1
62
256
6
ByLayer
370
25
48
1
60
0
100
AcDbEllipse
10
64.427072
20
-7.68216
30
0
11
0.130799621340939
21
-3.69768731223398
31
0
210
0
220
0
230
1
40
0.991835
41
0.184934578853608
42
2.02055344700538
0
ELLIPSE
5
10D
100
AcDbEntity
8
1
62
256
6
ByLayer
370
25
48
1
60
0
100
AcDbEllipse
10
64.469708
20
-7.680652
30
0
11
0.121171970657212
21
-3.42551548754371
31
0
210
0
220
0
230
1
40
0.991835
41
1.28248113911601
42
1.47854556303397
0
ELLIPSE
5
10E
100
AcDbEntity
8
1
62
256
6
ByLayer
370
25
48
1
60
0
100
AcDbEllipse
10
64.469708
20
-7.680652
30
0
11
0.121171984704704
21
-3.42551548793147
31
0
210
0
220
0
230
1
40
0.991835
41
1.65024948219477
42
1.84806145916101
0
ELLIPSE
5
10F
100
AcDbEntity
8
1
62
256
6
ByLayer
370
25
48
1
60
0
100
AcDbEllipse
10
59.756444
20
-6.986031
30
0
11
0.0477241861684571
21
-1.3491561814907
31
0
210
0
220
0
230
1
40
0.991835
41
0
42
6.28318530717959
0
ELLIPSE
5
110
100
AcDbEntity
8
1
62
256
6
ByLayer
370
25
48
1
60
0
100
AcDbEllipse
10
59.705467
20
-6.987834
30
0
11
0.0618646857733154
21
-1.74890616119167
31
0
210
0
220
0
230
1
40
0.991835
41
0
42
3.14159265358979
0
ELLIPSE
5
111
100
AcDbEntity
8
1
62
256
6
ByLayer
370
25
48
1
60
0
100
AcDbEllipse
10
50.253569
20
-0.006533
30
0
11
0.0646769886914051
21
-11.6626607706926
31
0
210
0
220
0
230
1
40
0.128525
41
0.2087878605462
42
0.327818346203649
0
ELLIPSE
5
112
100
AcDbEntity
8
1
62
256
6
ByLayer
370
25
48
1
60
0
100
AcDbEllipse
10
306.761164
20
-0.138099
30
0
11
295.814099821796
21
-0.173798599470524
31
0
210
0
220
0
230
1
40
0.077205
41
-2.64408415601074
42
-2.61761801814034
0
ELLIPSE
5
113
100
AcDbEntity
8
1
62
256
6
ByLayer
370
25
48
1
60
0
100
AcDbEllipse
10
56.122588
20
0.003084
30
0
11
0.066918664768561
21
-12.06857688963
31
0
210
0
220
0
230
1
40
0.128517
41
0.77403267887206
42
0.946484366143851
0
ELLIPSE
5
114
100
AcDbEntity
8
1
62
256
6
ByLayer
370
25
48
1
60
0
100
AcDbEllipse
10
92.693935
20
0.017167
30
0
11
80.5869903005427
21
-0.0477479822595903
31
0
210
0
220
0
230
1
40
0.119638
41
-2.02606187392325
42
-1.95858188477505
0
ELLIPSE
5
115
100
AcDbEntity
8
1
62
256
6
ByLayer
370
25
48
1
60
0
100
AcDbEllipse
10
61.163968
20
0.003024
30
0
11
0.0656085639948521
21
-11.8323041002027
31
0
210
0
220
0
230
1
40
0.128517
41
0.719592002581696
42
0.935068365465061
0
ELLIPSE
5
116
100
AcDbEntity
8
1
62
256
6
ByLayer
370
25
48
1
60
0
100
AcDbEllipse
10
70.300758
20
0
30
0
11
-88.0136487130708
21
-0.0522647039201826
31
0
210
0
220
0
230
1
40
0.128491
41
-1.30059171964182
42
-1.26246296247616
0
ELLIPSE
5
117
100
AcDbEntity
8
1
62
256
6
ByLayer
370
25
48
1
60
0
100
AcDbEllipse
10
70.300757
20
0
30
0
11
88.0136479015215
21
-0.0522647564552664
31
0
210
0
220
0
230
1
40
0.128491
41
-1.87912968893145
42
-1.84100093143991
0
ELLIPSE
5
118
100
AcDbEntity
8
1
62
256
6
ByLayer
370
25
48
1
60
0
100
AcDbEllipse
10
53.585519
20
-10.788013
30
0
11
-1.41315121172561
21
-0.00824345264083793
31
0
210
0
220
0
230
1
40
0.003351
41
-2.17872073029297
42
-1.95896903288452
0
ELLIPSE
5
119
100
AcDbEntity
8
1
62
256
6
ByLayer
370
25
48
1
60
0
100
AcDbEllipse
10
52.556616
20
4.082331
30
0
11
4.7292583442965
21
-0.19451946822952
31
0
210
0
220
0
230
1
40
0.489249
41
2.40473747101618
42
2.51074023322964
0
ELLIPSE
5
11A
100
AcDbEntity
8
1
62
256
6
ByLayer
370
25
48
1
60
0
100
AcDbEllipse
10
306.761162
20
0.138099
30
0
11
-295.814098240762
21
-0.173798658390759
31
0
210
0
220
0
230
1
40
0.077205
41
-0.523974636796699
42
-0.497508498845837
0
ELLIPSE
5
11B
100
AcDbEntity
8
1
62
256
6
ByLayer
370
25
48
1
60
0
100
AcDbEllipse
10
50.253569
20
0.006533
30
0
11
-0.0646769886914094
21
-11.6626607706926
31
0
210
0
220
0
230
1
40
0.128525
41
2.81377430738614
42
2.93280479304359
0
ELLIPSE
5
11C
100
AcDbEntity
8
1
62
256
6
ByLayer
370
25
48
1
60
0
100
AcDbEllipse
10
53.2289
20
10.460165
30
0
11
4.80471398928434
21
-0.0280277397583405
31
0
210
0
220
0
230
1
40
0.003351
41
-2.14301637632553
42
-2.016977797158
0
POINT
5
6C
100
AcDbEntity
8
81
62
256
6
ByLayer
370
25
48
1
60
0
100
AcDbPoint
10
69.005466
20
12.40252
30
0
39
0
210
0
220
0
230
1
50
360
0
POINT
5
6E
100
AcDbEntity
8
1
62
256
6
ByLayer
370
25
48
1
60
1
100
AcDbPoint
10
-12.40252
20
-69.005466
30
0
39
0
210
0
220
0
230
1
50
360
0
POINT
5
70
100
AcDbEntity
8
80
62
256
6
ByLayer
370
25
48
1
60
0
100
AcDbPoint
10
0
20
0
30
0
39
0
210
0
220
0
230
1
50
360
0
SPLINE
5
11D
100
AcDbEntity
8
1
62
256
6
ByLayer
370
25
48
1
60
0
100
AcDbSpline
70
4
71
1
72
4
73
2
40
0
40
0
40
1
40
1
41
1
10
68.7779730738649
20
7.24259739144345
30
0
41
1
10
68.1416142730242
20
7.55126028383388
30
0
0
SPLINE
5
11E
100
AcDbEntity
8
1
62
256
6
ByLayer
370
25
48
1
60
0
100
AcDbSpline
70
4
71
3
72
12
73
8
40
0
40
0
40
0
40
0
40
0.457102257519214
40
0.632905789324849
40
0.769711591295205
40
0.906559047551928
40
1
40
1
40
1
40
1
41
1
10
68.1416148416317
20
7.55126177525079
30
0
41
1
10
68.095621355824
20
7.56564577610234
30
0
41
1
10
68.0439980068713
20
7.59808031144928
30
0
41
1
10
67.9936399189695
20
7.6566649708884
30
0
41
1
10
67.9782762553272
20
7.69896875711333
30
0
41
1
10
67.9785019278104
20
7.73536681950884
30
0
41
1
10
67.983534494901
20
7.75686345132384
30
0
41
1
10
67.9864954244597
20
7.76550760097305
30
0
0
SPLINE
5
11F
100
AcDbEntity
8
1
62
256
6
ByLayer
370
25
48
1
60
0
100
AcDbSpline
70
4
71
3
72
20
73
16
40
0
40
0
40
0
40
0
40
0.061124397646313
40
0.124886491868956
40
0.185969251881782
40
0.249875018560566
40
0.31175095628489
40
0.374933120445343
40
0.43779918046101
40
0.500005792507058
40
0.624824560774323
40
0.685592766158943
40
0.749926446397676
40
0.87494975909549
40
1
40
1
40
1
40
1
41
1
10
67.9864940311959
20
7.76550809580376
30
0
41
1
10
68.0249054132611
20
7.88723017855864
30
0
41
1
10
68.0792095808504
20
8.13868960105225
30
0
41
1
10
68.0815813963981
20
8.528484560714
30
0
41
1
10
68.019170452838
20
8.91884557502525
30
0
41
1
10
67.9002701715407
20
9.29347126160929
30
0
41
1
10
67.7337230650711
20
9.65483600534112
30
0
41
1
10
67.5271385689728
20
9.99302567920336
30
0
41
1
10
67.284321331078
20
10.3074497985217
30
0
41
1
10
66.9168588959068
20
10.6854098711297
30
0
41
1
10
66.4892211872149
20
10.9924841804298
30
0
41
1
10
66.0201437629416
20
11.2266215147158
30
0
41
1
10
65.5326602196885
20
11.4177266281896
30
0
41
1
10
64.8969479040365
20
11.5872619211245
30
0
41
1
10
64.3842246056423
20
11.6662239211575
30
0
41
1
10
64.1246445845891
20
11.6902048030514
30
0
0
SPLINE
5
120
100
AcDbEntity
8
1
62
256
6
ByLayer
370
25
48
1
60
0
100
AcDbSpline
70
4
71
3
72
10
73
6
40
0
40
0
40
0
40
0
40
0.230950333434725
40
0.612410561907449
40
1
40
1
40
1
40
1
41
1
10
57.9221598352422
20
11.852285501728
30
0
41
1
10
57.9326801717701
20
11.8480176943966
30
0
41
1
10
57.9608838258505
20
11.8381728513881
30
0
41
1
10
58.0091487265481
20
11.8303641172526
30
0
41
1
10
58.046181820019
20
11.8275799550249
30
0
41
1
10
58.0650113635395
20
11.8273960360351
30
0
0
SPLINE
5
121
100
AcDbEntity
8
1
62
256
6
ByLayer
370
25
48
1
60
0
100
AcDbSpline
70
4
71
1
72
4
73
2
40
0
40
0
40
1
40
1
41
1
10
56.62951823992
20
12.4089107515557
30
0
41
1
10
57.9221533249365
20
11.8522851204135
30
0
0
SPLINE
5
122
100
AcDbEntity
8
1
62
256
6
ByLayer
370
25
48
1
60
0
100
AcDbSpline
70
4
71
2
72
6
73
3
40
0
40
0
40
0
40
1
40
1
40
1
41
1
10
65.9327950002149
20
12.4622857366465
30
0
41
1
10
61.2778997870406
20
12.5237579096341
30
0
41
1
10
56.6295219790415
20
12.4089104891407
30
0
0
SPLINE
5
123
100
AcDbEntity
8
1
62
256
6
ByLayer
370
25
48
1
60
0
100
AcDbSpline
70
4
71
3
72
16
73
12
40
0
40
0
40
0
40
0
40
0.105088447026571
40
0.210169742745241
40
0.318207382430425
40
0.42623445329902
40
0.532402152941448
40
0.638559256674212
40
0.742523277967332
40
0.84648233817036
40
1
40
1
40
1
40
1
41
1
10
69.0054661496249
20
9.19327116695498
30
0
41
1
10
69.0095569054669
20
9.36794324302305
30
0
41
1
10
68.9899285114304
20
9.71348321578681
30
0
41
1
10
68.8760133050039
20
10.2319381976888
30
0
41
1
10
68.674846790885
20
10.7295650845605
30
0
41
1
10
68.3935475858607
20
11.1907778527877
30
0
41
1
10
68.0399514512696
20
11.5953687254668
30
0
41
1
10
67.6306224355842
20
11.9323522777899
30
0
41
1
10
67.1747679229196
20
12.1919522851016
30
0
41
1
10
66.6085290625617
20
12.3999055046448
30
0
41
1
10
66.1899646016769
20
12.458346053181
30
0
41
1
10
65.932795014838
20
12.4622853160853
30
0
0
SPLINE
5
124
100
AcDbEntity
8
1
62
256
6
ByLayer
370
25
48
1
60
0
100
AcDbSpline
70
4
71
3
72
10
73
6
40
0
40
0
40
0
40
0
40
0.358607685041846
40
0.678728527759998
40
1
40
1
40
1
40
1
41
1
10
68.7780014387843
20
7.24265776665493
30
0
41
1
10
68.8266199788829
20
7.47232714840349
30
0
41
1
10
68.9041024273905
20
7.90940620553442
30
0
41
1
10
68.9784113940243
20
8.56138239049175
30
0
41
1
10
69.0006196223765
20
8.98186235408883
30
0
41
1
10
69.005466149625
20
9.19327116695493
30
0
0
SPLINE
5
125
100
AcDbEntity
8
1
62
256
6
ByLayer
370
25
48
1
60
0
100
AcDbSpline
70
4
71
3
72
18
73
14
40
0
40
0
40
0
40
0
40
0.0146406175501509
40
0.0214316346382947
40
0.0214381396089498
40
0.0214449700249106
40
0.0214647579782358
40
0.0214840158177072
40
0.0220656215784697
40
0.0267185826471607
40
0.101192630755291
40
0.399642268722679
40
1
40
1
40
1
40
1
41
1
10
67.0825046700987
20
7.73861343276944
30
0
41
1
10
67.0871215441189
20
7.73806060586995
30
0
41
1
10
67.0938761001998
20
7.73724430445817
30
0
41
1
10
67.1006271147432
20
7.73641752893381
30
0
41
1
10
67.1027692724902
20
7.73615404655142
30
0
41
1
10
67.1027797004538
20
7.73615276455641
30
0
41
1
10
67.1027941432324
20
7.73615097933717
30
0
41
1
10
67.1029895356607
20
7.73612677424326
30
0
41
1
10
67.10464353306
20
7.7359222093274
30
0
41
1
10
67.129736726336
20
7.73284670719046
30
0
41
1
10
67.2485212414015
20
7.72025397827945
30
0
41
1
10
67.5535845235784
20
7.71248272438234
30
0
41
1
10
67.8169766126699
20
7.73470278593395
30
0
41
1
10
67.9864910507488
20
7.76550230192179
30
0
0
SPLINE
5
126
100
AcDbEntity
8
1
62
256
6
ByLayer
370
25
48
1
60
0
100
AcDbSpline
70
4
71
3
72
15
73
11
40
0
40
0
40
0
40
0
40
0.124994469150169
40
0.250006096857977
40
0.374996576056434
40
0.49998407244454
40
0.624981869331196
40
0.749982430883797
40
0.874965937009904
40
1
40
1
40
1
40
1
41
1
10
67.0813995133536
20
7.73857371771377
30
0
41
1
10
67.07210961343
20
7.92422479543986
30
0
41
1
10
67.0207916208996
20
8.28660084472036
30
0
41
1
10
66.8418727489216
20
8.81120911265885
30
0
41
1
10
66.5722061505216
20
9.29311821111582
30
0
41
1
10
66.2132149014288
20
9.71270600015998
30
0
41
1
10
65.779577040395
20
10.0525584339306
30
0
41
1
10
65.2910202045026
20
10.304737770338
30
0
41
1
10
64.7618328335669
20
10.4577195853392
30
0
41
1
10
64.400423404434
20
10.4918374298162
30
0
41
1
10
64.2159908665295
20
10.4920677443362
30
0
0
SPLINE
5
127
100
AcDbEntity
8
1
62
256
6
ByLayer
370
25
48
1
60
0
100
AcDbSpline
70
4
71
3
72
11
73
7
40
0
40
0
40
0
40
0
40
0.249993332868946
40
0.499996743904078
40
0.75000000330149
40
1
40
1
40
1
40
1
41
1
10
64.1246443174861
20
11.6902048190853
30
0
41
1
10
64.1370760842516
20
11.6166769468101
30
0
41
1
10
64.1596533140125
20
11.4549020300894
30
0
41
1
10
64.1872345101613
20
11.1628390073656
30
0
41
1
10
64.2068036892481
20
10.8371209388363
30
0
41
1
10
64.2138843826718
20
10.6102685588469
30
0
41
1
10
64.2159853712244
20
10.4933556669785
30
0
0
SPLINE
5
128
100
AcDbEntity
8
1
62
256
6
ByLayer
370
25
48
1
60
0
100
AcDbSpline
70
4
71
3
72
10
73
6
40
0
40
0
40
0
40
0
40
0.364121501396822
40
0.738906366009255
40
1
40
1
40
1
40
1
41
1
10
68.0651154208658
20
5.41156734938762
30
0
41
1
10
68.101695735556
20
5.493556130264
30
0
41
1
10
68.1795512070056
20
5.66182732643869
30
0
41
1
10
68.2968670705679
20
5.8987249472824
30
0
41
1
10
68.3747552826868
20
6.0479243165508
30
0
41
1
10
68.4074941942883
20
6.10934705583037
30
0
0
SPLINE
5
129
100
AcDbEntity
8
1
62
256
6
ByLayer
370
25
48
1
60
0
100
AcDbSpline
70
4
71
2
72
6
73
3
40
0
40
0
40
0
40
1
40
1
40
1
41
1
10
68.0651211556793
20
5.41156513300303
30
0
41
1
10
67.8325512382838
20
5.53972880005423
30
0
41
1
10
67.6207194485906
20
5.70208470399799
30
0
0
SPLINE
5
12A
100
AcDbEntity
8
1
62
256
6
ByLayer
370
25
48
1
60
0
100
AcDbSpline
70
4
71
3
72
10
73
6
40
0
40
0
40
0
40
0
40
0.261497126224428
40
0.51716890195094
40
1
40
1
40
1
40
1
41
1
10
67.6205933186198
20
5.70220356074037
30
0
41
1
10
67.5783468343226
20
5.73414079035939
30
0
41
1
10
67.4898365467995
20
5.78689116421325
30
0
41
1
10
67.2914048238259
20
5.84165157780062
30
0
41
1
10
67.1426269578702
20
5.8559255863996
30
0
41
1
10
67.0414832429838
20
5.85147328064565
30
0
0
SPLINE
5
12B
100
AcDbEntity
8
1
62
256
6
ByLayer
370
25
48
1
60
0
100
AcDbSpline
70
4
71
3
72
18
73
14
40
0
40
0
40
0
40
0
40
0.508029648920769
40
0.943972226258515
40
0.944707724704229
40
0.944891506904081
40
0.944983494890572
40
0.945017184366392
40
0.945037862352361
40
0.945039484190321
40
0.945041767244465
40
0.972881767378981
40
1
40
1
40
1
40
1
41
1
10
67.0414832429838
20
5.85147328064565
30
0
41
1
10
66.9522667244022
20
5.84610291294699
30
0
41
1
10
66.7899989115742
20
5.85518861887513
30
0
41
1
10
66.6216713662506
20
5.87005257085388
30
0
41
1
10
66.55099428003
20
5.89825795659314
30
0
41
1
10
66.5508307475467
20
5.89832340813364
30
0
41
1
10
66.5507806927668
20
5.89834341039997
30
0
41
1
10
66.5507598088712
20
5.8983518063964
30
0
41
1
10
66.5507505127139
20
5.89835549423325
30
0
41
1
10
66.5507412122957
20
5.89835917147837
30
0
41
1
10
66.5462319517678
20
5.9001389330561
30
0
41
1
10
66.5374026952161
20
5.90384317535027
30
0
41
1
10
66.5287699400351
20
5.90792865209882
30
0
41
1
10
66.5245543824075
20
5.91003674737988
30
0
0
SPLINE
5
12C
100
AcDbEntity
8
1
62
256
6
ByLayer
370
25
48
1
60
0
100
AcDbSpline
70
4
71
3
72
26
73
22
40
0
40
0
40
0
40
0
40
0.13279677756281
40
0.267749043516461
40
0.334640459326535
40
0.401061589263368
40
0.467267105009315
40
0.533349977632154
40
0.599703760673264
40
0.666432710931425
40
0.801038608471921
40
0.937824449408208
40
0.972372417500367
40
0.989708110208735
40
0.998396667930037
40
0.999483855206786
40
0.999755692523013
40
0.999891617298095
40
0.999959581218594
40
0.999993580592825
40
1
40
1
40
1
40
1
41
1
10
66.5149230918456
20
5.91535868365444
30
0
41
1
10
66.403840087102
20
5.97178685943975
30
0
41
1
10
66.2085570112452
20
6.11173125257263
30
0
41
1
10
66.016747891015
20
6.35912349568881
30
0
41
1
10
65.9306799676708
20
6.58946892253545
30
0
41
1
10
65.9050800629862
20
6.77115838265101
30
0
41
1
10
65.9226756220456
20
6.95324063807357
30
0
41
1
10
65.9845613770021
20
7.12529012803968
30
0
41
1
10
66.086806008385
20
7.27701870690516
30
0
41
1
10
66.2668387666719
20
7.44330373470824
30
0
41
1
10
66.5544758782263
20
7.57195760034255
30
0
41
1
10
66.8354569319182
20
7.59179922345437
30
0
41
1
10
67.0051735063013
20
7.57330710443149
30
0
41
1
10
67.0592680261764
20
7.56448521677543
30
0
41
1
10
67.0833617130627
20
7.55990697055045
30
0
41
1
10
67.0922736697944
20
7.5581236047887
30
0
41
1
10
67.0935992902714
20
7.55785647493744
30
0
41
1
10
67.0940210979477
20
7.55777129709538
30
0
41
1
10
67.0942320147483
20
7.55772866166804
30
0
41
1
10
67.094328108043
20
7.55770922622849
30
0
41
1
10
67.0943618873954
20
7.55770239329789
30
0
41
1
10
67.0943716898731
20
7.55770041051424
30
0
0
SPLINE
5
12D
100
AcDbEntity
8
1
62
256
6
ByLayer
370
25
48
1
60
0
100
AcDbSpline
70
4
71
3
72
11
73
7
40
0
40
0
40
0
40
0
40
0.0001688317996909
40
0.0003329287299249
40
0.0926814011791359
40
1
40
1
40
1
40
1
41
1
10
67.0943649696367
20
7.55770178440626
30
0
41
1
10
67.094374764391
20
7.5576997638147
30
0
41
1
10
67.0943845503847
20
7.55769770121587
30
0
41
1
10
67.0962724393121
20
7.55729169399628
30
0
41
1
10
67.11668663387
20
7.55289216443274
30
0
41
1
10
67.1370690669869
20
7.54836604438748
30
0
41
1
10
67.1555454429395
20
7.54415542227386
30
0
0
SPLINE
5
12E
100
AcDbEntity
8
1
62
256
6
ByLayer
370
25
48
1
60
0
100
AcDbSpline
70
4
71
2
72
6
73
3
40
0
40
0
40
0
40
1
40
1
40
1
41
1
10
67.1555442648885
20
7.54413924356794
30
0
41
1
10
67.3473109314323
20
7.52234597254325
30
0
41
1
10
67.5347505167686
20
7.52063042676818
30
0
0
SPLINE
5
12F
100
AcDbEntity
8
1
62
256
6
ByLayer
370
25
48
1
60
0
100
AcDbSpline
70
4
71
2
72
6
73
3
40
0
40
0
40
0
40
1
40
1
40
1
41
1
10
67.5347505141376
20
7.52063044178226
30
0
41
1
10
67.8527265157172
20
7.51943845960384
30
0
41
1
10
68.1416047318294
20
7.55126293043725
30
0
0
SPLINE
5
130
100
AcDbEntity
8
1
62
256
6
ByLayer
370
25
48
1
60
0
100
AcDbSpline
70
4
71
3
72
10
73
6
40
0
40
0
40
0
40
0
40
0.250591187154839
40
0.500059856560429
40
1
40
1
40
1
40
1
41
1
10
68.4074945035484
20
6.10934761606368
30
0
41
1
10
68.4218326315468
20
6.13729271187025
30
0
41
1
10
68.4489934007667
20
6.19356693098847
30
0
41
1
10
68.4974395630997
20
6.30853630728163
30
0
41
1
10
68.5274158706294
20
6.39607165065949
30
0
41
1
10
68.5445674143647
20
6.45523100499066
30
0
0
SPLINE
5
131
100
AcDbEntity
8
1
62
256
6
ByLayer
370
25
48
1
60
0
100
AcDbSpline
70
4
71
2
72
6
73
3
40
0
40
0
40
0
40
1
40
1
40
1
41
1
10
68.5445674143647
20
6.45523100499066
30
0
41
1
10
68.671404644895
20
6.90170707144674
30
0
41
1
10
68.77800431319
20
7.2426407119092
30
0
0
SPLINE
5
132
100
AcDbEntity
8
1
62
256
6
ByLayer
370
25
48
1
60
0
100
AcDbSpline
70
4
71
3
72
19
73
15
40
0
40
0
40
0
40
0
40
0.499648048172136
40
0.750080653284017
40
0.875349722241785
40
0.937986710379367
40
0.969050879294795
40
0.976715075250245
40
0.977620319182647
40
0.978399687964527
40
0.979117178211123
40
0.979853133543123
40
0.98377880205903
40
1
40
1
40
1
40
1
41
1
10
67.0868492059102
20
7.73007790588663
30
0
41
1
10
67.1000320716669
20
7.69828180076
30
0
41
1
10
67.1185603721652
20
7.65103824053558
30
0
41
1
10
67.1371263091027
20
7.59603428895825
30
0
41
1
10
67.1465041037482
20
7.56925224899039
30
0
41
1
10
67.1508243749266
20
7.55618427705898
30
0
41
1
10
67.1528705081624
20
7.54999755433766
30
0
41
1
10
67.152527233895
20
7.54762724112773
30
0
41
1
10
67.1522969302215
20
7.54712602479989
30
0
41
1
10
67.1522853323105
20
7.54698108908839
30
0
41
1
10
67.1523209506486
20
7.54684423252315
30
0
41
1
10
67.1525367545029
20
7.54655972643012
30
0
41
1
10
67.1537214229133
20
7.545757497839
30
0
41
1
10
67.1546963940579
20
7.54483920634136
30
0
41
1
10
67.1555431688777
20
7.54415478069696
30
0
0
SPLINE
5
133
100
AcDbEntity
8
1
62
256
6
ByLayer
370
25
48
1
60
0
100
AcDbSpline
70
4
71
1
72
4
73
2
40
0
40
0
40
1
40
1
41
1
10
49.4257594504737
20
6.79061130367052
30
0
41
1
10
50.0591972041289
20
6.48204950950282
30
0
0
SPLINE
5
134
100
AcDbEntity
8
1
62
256
6
ByLayer
370
25
48
1
60
0
100
AcDbSpline
70
4
71
3
72
12
73
8
40
0
40
0
40
0
40
0
40
0.181401276389166
40
0.31705747782136
40
0.452302811876342
40
0.681927555000391
40
1
40
1
40
1
40
1
41
1
10
50.2077038586437
20
6.2680285411668
30
0
41
1
10
50.2147056855561
20
6.28542943870983
30
0
41
1
10
50.2203730820779
20
6.31542951493323
30
0
41
1
10
50.2123437318156
20
6.35974299928225
30
0
41
1
10
50.1873741701019
20
6.40217562996723
30
0
41
1
10
50.135711084369
20
6.44588791872734
30
0
41
1
10
50.0893785346542
20
6.47129063871269
30
0
41
1
10
50.0591965387034
20
6.48204796388781
30
0
0
SPLINE
5
135
100
AcDbEntity
8
1
62
256
6
ByLayer
370
25
48
1
60
0
100
AcDbSpline
70
4
71
3
72
16
73
12
40
0
40
0
40
0
40
0
40
0.116946741135572
40
0.238940060810213
40
0.355806948697577
40
0.478074955657418
40
0.596459407256328
40
0.717342964692839
40
0.837621753410152
40
0.956638849193432
40
1
40
1
40
1
40
1
41
1
10
50.2077020024911
20
6.26803215084919
30
0
41
1
10
50.1635167448027
20
6.14651412136054
30
0
41
1
10
50.0976844845862
20
5.89546220480088
30
0
41
1
10
50.0787488877267
20
5.50625315740445
30
0
41
1
10
50.1256054436506
20
5.11644292850924
30
0
41
1
10
50.2305229765401
20
4.74231195137722
30
0
41
1
10
50.3843994889573
20
4.38139822836114
30
0
41
1
10
50.5799749770425
20
4.04359068816205
30
0
41
1
10
50.8132204431987
20
3.72953550426728
30
0
41
1
10
51.0248004563739
20
3.50619945507518
30
0
41
1
10
51.15614880981
20
3.3885849219605
30
0
41
1
10
51.1919626405547
20
3.35788894954844
30
0
0
SPLINE
5
136
100
AcDbEntity
8
1
62
256
6
ByLayer
370
25
48
1
60
0
100
AcDbSpline
70
4
71
3
72
10
73
6
40
0
40
0
40
0
40
0
40
0.230852532368097
40
0.612358933211406
40
1
40
1
40
1
40
1
41
1
10
60.2594495145973
20
2.18170576624406
30
0
41
1
10
60.2489421331558
20
2.18597305602753
30
0
41
1
10
60.2206960257804
20
2.19582244127037
30
0
41
1
10
60.1719702878675
20
2.20364763908338
30
0
41
1
10
60.1344431611438
20
2.20644743513019
30
0
41
1
10
60.1153100210615
20
2.20664000150975
30
0
0
SPLINE
5
137
100
AcDbEntity
8
1
62
256
6
ByLayer
370
25
48
1
60
0
100
AcDbSpline
70
4
71
1
72
4
73
2
40
0
40
0
40
1
40
1
41
1
10
60.4247013968318
20
2.10987665559217
30
0
41
1
10
60.2594561443067
20
2.18170614327053
30
0
0
SPLINE
5
138
100
AcDbEntity
8
1
62
256
6
ByLayer
370
25
48
1
60
0
100
AcDbSpline
70
4
71
2
72
6
73
3
40
0
40
0
40
0
40
1
40
1
40
1
41
1
10
49.1119259451185
20
4.84299168097951
30
0
41
1
10
49.0911167546306
20
4.52164060093649
30
0
41
1
10
49.1335381065897
20
4.20498562085317
30
0
0
SPLINE
5
139
100
AcDbEntity
8
1
62
256
6
ByLayer
370
25
48
1
60
0
100
AcDbSpline
70
4
71
3
72
10
73
6
40
0
40
0
40
0
40
0
40
0.358607686898899
40
0.678728528699232
40
1
40
1
40
1
40
1
41
1
10
49.4257280669165
20
6.7905510270121
30
0
41
1
10
49.3665953307934
20
6.56125356765187
30
0
41
1
10
49.269343705708
20
6.12487381430025
30
0
41
1
10
49.1662046323666
20
5.4739174504104
30
0
41
1
10
49.1258135483221
20
5.05408067889229
30
0
41
1
10
49.1119259451786
20
4.84299168096967
30
0
0
SPLINE
5
13A
100
AcDbEntity
8
1
62
256
6
ByLayer
370
25
48
1
60
0
100
AcDbSpline
70
4
71
3
72
31
73
27
40
0
40
0
40
0
40
0
40
0.0312319321279725
40
0.0624366128453776
40
0.0930303652256879
40
0.124925100310725
40
0.15553558107205
40
0.187539086095974
40
0.218166531107021
40
0.250040239121111
40
0.312475989154059
40
0.374954659181113
40
0.437445057604305
40
0.499937615380918
40
0.562440803694699
40
0.624933723612467
40
0.687481425224815
40
0.750005321062913
40
0.781863458905328
40
0.812511511631336
40
0.844457575517099
40
0.874942721950228
40
0.906195114052864
40
0.937479571021541
40
0.969026511961465
40
1
40
1
40
1
40
1
41
1
10
53.9528297948764
20
8.96198822122298
30
0
41
1
10
53.899799429134
20
8.8170324897318
30
0
41
1
10
53.8208687851688
20
8.52329279447842
30
0
41
1
10
53.786345195896
20
8.0667156540069
30
0
41
1
10
53.8271906399041
20
7.60935607391647
30
0
41
1
10
53.9355039846817
20
7.16624854816797
30
0
41
1
10
54.1019856823088
20
6.73518392695539
30
0
41
1
10
54.313338579703
20
6.33172990997349
30
0
41
1
10
54.5666349016281
20
5.94654755827278
30
0
41
1
10
54.9451117976726
20
5.46963290222323
30
0
41
1
10
55.4886845536434
20
4.93070219679718
30
0
41
1
10
56.2171041399841
20
4.38082193855271
30
0
41
1
10
57.00525928942
20
3.92219349083372
30
0
41
1
10
57.839110915902
20
3.55486821889029
30
0
41
1
10
58.7076832075044
20
3.28117298711298
30
0
41
1
10
59.6015387538449
20
3.106138662144
30
0
41
1
10
60.5101571151642
20
3.0403360096434
30
0
41
1
10
61.2720169188462
20
3.0875954722488
30
0
41
1
10
61.8685976566735
20
3.19775942195739
30
0
41
1
10
62.3102527961205
20
3.32123985552584
30
0
41
1
10
62.731683613116
20
3.48584393864024
30
0
41
1
10
63.1344426115915
20
3.69938171220495
30
0
41
1
10
63.5043151695513
20
3.96188314427424
30
0
41
1
10
63.8356636721319
20
4.28009301293853
30
0
41
1
10
64.1085057747734
20
4.6511991039988
30
0
41
1
10
64.2399271379801
20
4.9256186867444
30
0
41
1
10
64.2936692063037
20
5.06892626641629
30
0
0
SPLINE
5
13B
100
AcDbEntity
8
1
62
256
6
ByLayer
370
25
48
1
60
0
100
AcDbSpline
70
4
71
3
72
30
73
26
40
0
40
0
40
0
40
0
40
0.0309420495260175
40
0.0624617548683694
40
0.0930262400908239
40
0.124944893096479
40
0.165935325570224
40
0.207713816138057
40
0.249859219531819
40
0.312351870186686
40
0.374864510525233
40
0.437358677471762
40
0.499869586162801
40
0.562375728892389
40
0.624873736957113
40
0.687343086829744
40
0.749762932339615
40
0.781682431766506
40
0.8122931997174
40
0.844369457732456
40
0.874984452941195
40
0.90692968797319
40
0.937514123446398
40
0.969155584587232
40
1
40
1
40
1
40
1
41
1
10
64.2925898293464
20
5.06934525295913
30
0
41
1
10
64.3410127877724
20
5.21341016038665
30
0
41
1
10
64.4123807830623
20
5.50745021323741
30
0
41
1
10
64.4366402825255
20
5.96199902466474
30
0
41
1
10
64.3868931371919
20
6.41722627968593
30
0
41
1
10
64.2600913602281
20
6.90487796737643
30
0
41
1
10
64.0423635761288
20
7.41906859820838
30
0
41
1
10
63.729828578033
20
7.93929661120777
30
0
41
1
10
63.2935741833215
20
8.49960001614244
30
0
41
1
10
62.7162071996385
20
9.06930429207641
30
0
41
1
10
61.9921492102114
20
9.61695684560425
30
0
41
1
10
61.208843514232
20
10.0740070395055
30
0
41
1
10
60.3806133696457
20
10.4413221421798
30
0
41
1
10
59.5177152101389
20
10.7160671763424
30
0
41
1
10
58.6299008252959
20
10.8927514522917
30
0
41
1
10
57.7276589878167
20
10.9621133186165
30
0
41
1
10
56.9706092171211
20
10.9178655069189
30
0
41
1
10
56.377368670346
20
10.8110900959728
30
0
41
1
10
55.9369649063208
20
10.6902375363643
30
0
41
1
10
55.5161992193929
20
10.5281203447931
30
0
41
1
10
55.1107685974252
20
10.3155132091539
30
0
41
1
10
54.741259312369
20
10.0557658880017
30
0
41
1
10
54.4113628869802
20
9.73943782441369
30
0
41
1
10
54.139463194465
20
9.37549171899161
30
0
41
1
10
54.00710980989
20
9.1036240759922
30
0
41
1
10
53.9528863244018
20
8.96213890891111
30
0
0
SPLINE
5
13C
100
AcDbEntity
8
1
62
256
6
ByLayer
370
25
48
1
60
0
100
AcDbSpline
70
4
71
3
72
12
73
8
40
0
40
0
40
0
40
0
40
0.132637544788676
40
0.264348896666541
40
0.455444014294824
40
0.776938143159316
40
1
40
1
40
1
40
1
41
1
10
52.3100191298793
20
4.67088591876272
30
0
41
1
10
52.3351907228965
20
4.6711334497084
30
0
41
1
10
52.3827324942808
20
4.67864411865132
30
0
41
1
10
52.4580171716073
20
4.71880265162533
30
0
41
1
10
52.5406541309209
20
4.80641206788245
30
0
41
1
10
52.5964396602306
20
4.93274244098053
30
0
41
1
10
52.6244143424849
20
5.02854724804335
30
0
41
1
10
52.6325789483879
20
5.06932081566615
30
0
0
SPLINE
5
13D
100
AcDbEntity
8
1
62
256
6
ByLayer
370
25
48
1
60
0
100
AcDbSpline
70
4
71
3
72
12
73
8
40
0
40
0
40
0
40
0
40
0.444883731379388
40
0.624184670565743
40
0.804934674593608
40
0.937047312582538
40
1
40
1
40
1
40
1
41
1
10
52.6325929645863
20
5.06945136945968
30
0
41
1
10
52.716781418008
20
5.08212728199905
30
0
41
1
10
52.8230705432782
20
5.12125158781162
30
0
41
1
10
52.9476692077843
20
5.20354446089567
30
0
41
1
10
53.0053344772394
20
5.27579222269594
30
0
41
1
10
53.0289039635652
20
5.34257761718735
30
0
41
1
10
53.0315731544052
20
5.37835634109737
30
0
41
1
10
53.0315621454995
20
5.39013036027843
30
0
0
SPLINE
5
13E
100
AcDbEntity
8
1
62
256
6
ByLayer
370
25
48
1
60
0
100
AcDbSpline
70
4
71
3
72
12
73
8
40
0
40
0
40
0
40
0
40
0.132674221184183
40
0.264421396076546
40
0.455550302253239
40
0.777172165009397
40
1
40
1
40
1
40
1
41
1
10
53.0315622528535
20
5.39013705608525
30
0
41
1
10
53.031330697389
20
5.4155215305991
30
0
41
1
10
53.0239046042033
20
5.46345992018605
30
0
41
1
10
52.9840987611978
20
5.53934938114803
30
0
41
1
10
52.897213968159
20
5.62262073113282
30
0
41
1
10
52.7719548264588
20
5.6787661430622
30
0
41
1
10
52.6769665093803
20
5.70690311457966
30
0
41
1
10
52.6365750864054
20
5.71510425373478
30
0
0
SPLINE
5
13F
100
AcDbEntity
8
1
62
256
6
ByLayer
370
25
48
1
60
0
100
AcDbSpline
70
4
71
3
72
12
73
8
40
0
40
0
40
0
40
0
40
0.444602957711105
40
0.623955173048379
40
0.804757542659853
40
0.936891439164516
40
1
40
1
40
1
40
1
41
1
10
52.6364387108312
20
5.71512537649354
30
0
41
1
10
52.6239171856863
20
5.79993626339961
30
0
41
1
10
52.5851990070832
20
5.90704245307473
30
0
41
1
10
52.5037081994645
20
6.03261555457372
30
0
41
1
10
52.4320875791829
20
6.090756977343
30
0
41
1
10
52.3658274816322
20
6.11452138310117
30
0
41
1
10
52.3303099965
20
6.11720097905859
30
0
41
1
10
52.3186023388842
20
6.11718321669356
30
0
0
SPLINE
5
140
100
AcDbEntity
8
1
62
256
6
ByLayer
370
25
48
1
60
0
100
AcDbSpline
70
4
71
3
72
12
73
8
40
0
40
0
40
0
40
0
40
0.132653675601834
40
0.264380545624119
40
0.455482256528485
40
0.777071681368232
40
1
40
1
40
1
40
1
41
1
10
52.3185956002708
20
6.11718376887907
30
0
41
1
10
52.2934169897349
20
6.11693490412117
30
0
41
1
10
52.2458634887476
20
6.10941853575414
30
0
41
1
10
52.1705673750529
20
6.06923844558614
30
0
41
1
10
52.0879214420799
20
5.98158427470606
30
0
41
1
10
52.0321503692772
20
5.85523272046077
30
0
41
1
10
52.0041835853275
20
5.75941757368172
30
0
41
1
10
51.9960242278192
20
5.71866290158881
30
0
0
SPLINE
5
141
100
AcDbEntity
8
1
62
256
6
ByLayer
370
25
48
1
60
0
100
AcDbSpline
70
4
71
3
72
12
73
8
40
0
40
0
40
0
40
0
40
0.444885375473498
40
0.624191903459098
40
0.804947411300823
40
0.937069626015152
40
1
40
1
40
1
40
1
41
1
10
51.9959884872501
20
5.71862730494828
30
0
41
1
10
51.9118040883446
20
5.70595174163303
30
0
41
1
10
51.8055205005661
20
5.66682778478724
30
0
41
1
10
51.6809295093839
20
5.58453387669509
30
0
41
1
10
51.6232688411608
20
5.5122841513888
30
0
41
1
10
51.5997042347467
20
5.44550280819437
30
0
41
1
10
51.5970358830732
20
5.40972838273805
30
0
41
1
10
51.597046694612
20
5.39795930362115
30
0
0
SPLINE
5
142
100
AcDbEntity
8
1
62
256
6
ByLayer
370
25
48
1
60
0
100
AcDbSpline
70
4
71
3
72
12
73
8
40
0
40
0
40
0
40
0
40
0.132661942454013
40
0.264396954018932
40
0.455501419698436
40
0.77705938191506
40
1
40
1
40
1
40
1
41
1
10
51.5970465498741
20
5.39795329798412
30
0
41
1
10
51.5972772965256
20
5.3725679830099
30
0
41
1
10
51.6047020845988
20
5.32462775877568
30
0
41
1
10
51.644506002649
20
5.24873552078386
30
0
41
1
10
51.7313850652222
20
5.16546327108903
30
0
41
1
10
51.8566626321226
20
5.10930550242539
30
0
41
1
10
51.9516713816215
20
5.08116377858242
30
0
41
1
10
51.9920892856227
20
5.07296010889218
30
0
0
SPLINE
5
143
100
AcDbEntity
8
1
62
256
6
ByLayer
370
25
48
1
60
0
100
AcDbSpline
70
4
71
3
72
12
73
8
40
0
40
0
40
0
40
0
40
0.44489373901471
40
0.624205161278183
40
0.804965403856624
40
0.937097601387881
40
1
40
1
40
1
40
1
41
1
10
51.992192148979
20
5.07285520513689
30
0
41
1
10
52.0047186179726
20
4.98799369422584
30
0
41
1
10
52.0434660673216
20
4.8808714695577
30
0
41
1
10
52.1250236140299
20
4.75532293439076
30
0
41
1
10
52.1966540472003
20
4.69724288569274
30
0
41
1
10
52.262871508042
20
4.67353425084664
30
0
41
1
10
52.2983464959967
20
4.67086788166854
30
0
41
1
10
52.3100132747296
20
4.67088601888661
30
0
0
SPLINE
5
144
100
AcDbEntity
8
1
62
256
6
ByLayer
370
25
48
1
60
0
100
AcDbSpline
70
4
71
3
72
18
73
14
40
0
40
0
40
0
40
0
40
0.0418380391861506
40
0.083383668036315
40
0.143663537697678
40
0.245127770699406
40
0.461094413630228
40
0.708038645966858
40
0.790737746989036
40
0.87391259466521
40
0.925947017020825
40
0.978333683734987
40
1
40
1
40
1
40
1
41
1
10
65.9366426031702
20
9.36058734164256
30
0
41
1
10
65.9114819367413
20
9.36033890784878
30
0
41
1
10
65.863965252059
20
9.35282489159939
30
0
41
1
10
65.7887082485441
20
9.31268316457135
30
0
41
1
10
65.7061947576431
20
9.224964821994
30
0
41
1
10
65.6146553296706
20
9.02039390692406
30
0
41
1
10
65.5672258848869
20
8.6905123425045
30
0
41
1
10
65.5880472569509
20
8.36727679053437
30
0
41
1
10
65.6601622613972
20
8.13659786737346
30
0
41
1
10
65.7217113061719
20
8.02282362406448
30
0
41
1
10
65.8029460536487
20
7.94775461499959
30
0
41
1
10
65.8726689007515
20
7.91821805875908
30
0
41
1
10
65.9152796917058
20
7.91470685504537
30
0
41
1
10
65.9280534018774
20
7.91468224904518
30
0
0
SPLINE
5
145
100
AcDbEntity
8
1
62
256
6
ByLayer
370
25
48
1
60
0
100
AcDbSpline
70
4
71
3
72
18
73
14
40
0
40
0
40
0
40
0
40
0.0418401921026025
40
0.0833879650941738
40
0.143669529848079
40
0.245132984888607
40
0.461097325175434
40
0.70804001537818
40
0.79074077083663
40
0.873917232032927
40
0.925949187249163
40
0.978333408666207
40
1
40
1
40
1
40
1
41
1
10
65.928067736225
20
7.91468206127653
30
0
41
1
10
65.9532295088816
20
7.91493094134205
30
0
41
1
10
66.0007481908877
20
7.9224460877832
30
0
41
1
10
66.0760072783562
20
7.96259019517095
30
0
41
1
10
66.1585204587547
20
8.05031027262862
30
0
41
1
10
66.250055341821
20
8.25488074321387
30
0
41
1
10
66.2974775151544
20
8.58475837177962
30
0
41
1
10
66.2766514783903
20
8.90798950057999
30
0
41
1
10
66.2045369447217
20
9.13866776392707
30
0
41
1
10
66.1429898656872
20
9.25244243083228
30
0
41
1
10
66.0617594814476
20
9.32751196503323
30
0
41
1
10
65.9920407516059
20
9.35704976601479
30
0
41
1
10
65.9494316208376
20
9.3605622212083
30
0
41
1
10
65.936657822399
20
9.3605871897315
30
0
0
SPLINE
5
146
100
AcDbEntity
8
1
62
256
6
ByLayer
370
25
48
1
60
0
100
AcDbSpline
70
4
71
3
72
22
73
18
40
0
40
0
40
0
40
0
40
0.0633553670770541
40
0.124377739664962
40
0.187684799025801
40
0.24934905673494
40
0.31279030562998
40
0.374782612053029
40
0.438058744204682
40
0.500663815213742
40
0.563014816762812
40
0.62641150627893
40
0.688208084844239
40
0.751628760846632
40
0.81304826585278
40
0.876330318080515
40
1
40
1
40
1
40
1
41
1
10
66.4312994292118
20
5.74445370689681
30
0
41
1
10
66.3720051705307
20
5.77611013915999
30
0
41
1
10
66.2610845068077
20
5.84561374933882
30
0
41
1
10
66.1079702975524
20
5.97249468890124
30
0
41
1
10
65.9763341423367
20
6.11940096711154
30
0
41
1
10
65.8684358651474
20
6.28799721417155
30
0
41
1
10
65.7911027954571
20
6.47169044619261
30
0
41
1
10
65.750264617066
20
6.66880265364865
30
0
41
1
10
65.7488337621736
20
6.86955036672938
30
0
41
1
10
65.7910273228476
20
7.06624045492656
30
0
41
1
10
65.8737719938387
20
7.24953665181408
30
0
41
1
10
65.9938885135621
20
7.40930799133186
30
0
41
1
10
66.1435885243289
20
7.54257924035399
30
0
41
1
10
66.3145103526146
20
7.64253600190753
30
0
41
1
10
66.5010232834329
20
7.71167123039381
30
0
41
1
10
66.7595944549847
20
7.76024288048345
30
0
41
1
10
66.9554232677969
20
7.75377398094787
30
0
41
1
10
67.0868964153146
20
7.73009435178969
30
0
0
SPLINE
5
147
100
AcDbEntity
8
1
62
256
6
ByLayer
370
25
48
1
60
0
100
AcDbSpline
70
4
71
3
72
46
73
42
40
0
40
0
40
0
40
0
40
0.114803666256274
40
0.229383674407671
40
0.259911765720204
40
0.290577585133782
40
0.321460622368293
40
0.352224995032269
40
0.378512336060259
40
0.381205582310424
40
0.385039003392911
40
0.394788390018846
40
0.404507524382558
40
0.404509667683788
40
0.404511810978234
40
0.404516097546774
40
0.404524670602443
40
0.404541816388138
40
0.404576106657004
40
0.404644681984893
40
0.404781811803336
40
0.405055988107339
40
0.405604007515473
40
0.406698714587702
40
0.408882810235828
40
0.413229795965764
40
0.421839501934135
40
0.438726461165609
40
0.473327235837404
40
0.543731848604192
40
0.612009810950374
40
0.682893358090984
40
0.765626005818461
40
0.852849085122107
40
0.873130605415625
40
0.893655470282615
40
0.914429271010747
40
0.93554698071503
40
0.956863712001971
40
0.969082270494342
40
1
40
1
40
1
40
1
41
1
10
66.4311877795135
20
5.74425574118064
30
0
41
1
10
66.3506429262364
20
5.5039419447112
30
0
41
1
10
66.1562333988429
20
5.04240928085782
30
0
41
1
10
65.8617931467273
20
4.55206283846347
30
0
41
1
10
65.6288452700557
20
4.24667882012996
30
0
41
1
10
65.4986271897522
20
4.09331603549562
30
0
41
1
10
65.3605686190524
20
3.94641305879628
30
0
41
1
10
65.2224189021722
20
3.81313141033539
30
0
41
1
10
65.1244628139195
20
3.72711036120281
30
0
41
1
10
65.0697187630944
20
3.68102531674073
30
0
41
1
10
65.0424406965965
20
3.65829425689654
30
0
41
1
10
65.0005969893137
20
3.62941402787831
30
0
41
1
10
64.9675908166545
20
3.60268475069401
30
0
41
1
10
64.9507081836563
20
3.58986703844821
30
0
41
1
10
64.9506932981963
20
3.58985573704148
30
0
41
1
10
64.9506672487459
20
3.58983595987181
30
0
41
1
10
64.9506151502519
20
3.58979640654544
30
0
41
1
10
64.9505109548403
20
3.58971730401026
30
0
41
1
10
64.9503025703582
20
3.5895591153631
30
0
41
1
10
64.9498858267332
20
3.58924280378997
30
0
41
1
10
64.9490524408486
20
3.58861044346983
30
0
41
1
10
64.947386074477
20
3.5873467738497
30
0
41
1
10
64.9440549627935
20
3.58482363649542
30
0
41
1
10
64.9373992205502
20
3.5797941492523
30
0
41
1
10
64.9241136201423
20
3.56980219218095
30
0
41
1
10
64.8976457741849
20
3.55008495102097
30
0
41
1
10
64.8451199351254
20
3.51170941776364
30
0
41
1
10
64.7379166636942
20
3.43643763716666
30
0
41
1
10
64.5142359392583
20
3.29307761951442
30
0
41
1
10
64.1804913444666
20
3.11541176338875
30
0
41
1
10
63.7573430590885
20
2.94367991441341
30
0
41
1
10
63.2947785215342
20
2.80402678067414
30
0
41
1
10
62.7812563406985
20
2.69845312036884
30
0
41
1
10
62.3701368923674
20
2.65021427657936
30
0
41
1
10
62.0926128282453
20
2.63051705177012
30
0
41
1
10
61.95898413252
20
2.6232906243064
30
0
41
1
10
61.8234437975997
20
2.61819575935687
30
0
41
1
10
61.6861215220405
20
2.61523628394134
30
0
41
1
10
61.5673610730099
20
2.61448774748317
30
0
41
1
10
61.4273125023174
20
2.61539837804732
30
0
41
1
10
61.3335819012247
20
2.61580974558825
30
0
41
1
10
61.2664013657591
20
2.61620036000913
30
0
0
SPLINE
5
148
100
AcDbEntity
8
1
62
256
6
ByLayer
370
25
48
1
60
0
100
AcDbSpline
70
4
71
3
72
12
73
8
40
0
40
0
40
0
40
0
40
0.162699598902242
40
0.317227735677588
40
0.498791704867677
40
0.79928227283752
40
1
40
1
40
1
40
1
41
1
10
62.1095769117426
20
2.35744974159334
30
0
41
1
10
62.0616069026963
20
2.36267449534242
30
0
41
1
10
61.9694266507316
20
2.37816882662275
30
0
41
1
10
61.8320440072819
20
2.43174225957856
30
0
41
1
10
61.6528247963214
20
2.48619532745186
30
0
41
1
10
61.4614416485157
20
2.54786396022164
30
0
41
1
10
61.3220663917603
20
2.59632399807731
30
0
41
1
10
61.2664014316
20
2.61620033553409
30
0
0
SPLINE
5
149
100
AcDbEntity
8
1
62
256
6
ByLayer
370
25
48
1
60
0
100
AcDbSpline
70
4
71
1
72
4
73
2
40
0
40
0
40
1
40
1
41
1
10
62.1095681591964
20
2.35745283639528
30
0
41
1
10
62.3324028076292
20
2.27354038636997
30
0
0
SPLINE
5
14A
100
AcDbEntity
8
1
62
256
6
ByLayer
370
25
48
1
60
0
100
AcDbSpline
70
4
71
3
72
15
73
11
40
0
40
0
40
0
40
0
40
0.0082928740374606
40
0.0488556672279078
40
0.129248235323096
40
0.209817220412558
40
0.423318381448543
40
0.636955709922834
40
0.8505976119766
40
1
40
1
40
1
40
1
41
1
10
54.0299830313459
20
3.53477600612844
30
0
41
1
10
54.0473533316799
20
3.51888538052929
30
0
41
1
10
54.1521638460854
20
3.42936882813278
30
0
41
1
10
54.5001638724128
20
3.29822996868484
30
0
41
1
10
55.0424851585707
20
3.14613392533039
30
0
41
1
10
56.0805077928322
20
2.95504404449813
30
0
41
1
10
57.4902577259043
20
2.73627382554264
30
0
41
1
10
59.28199436135
20
2.5401143731918
30
0
41
1
10
60.8965836954775
20
2.39348985375614
30
0
41
1
10
61.9136531901774
20
2.30718267556234
30
0
41
1
10
62.332340462931
20
2.27330838936596
30
0
0
SPLINE
5
14B
100
AcDbEntity
8
1
62
256
6
ByLayer
370
25
48
1
60
0
100
AcDbSpline
70
4
71
3
72
15
73
11
40
0
40
0
40
0
40
0
40
0.124994444633313
40
0.250006077340719
40
0.374996561545366
40
0.499984060673798
40
0.624981858166768
40
0.749982424499081
40
0.874965934126526
40
1
40
1
40
1
40
1
41
1
10
51.1652599207667
20
6.29331993131368
30
0
41
1
10
51.1745364157007
20
6.1076592787234
30
0
41
1
10
51.2258317860276
20
5.74526302014862
30
0
41
1
10
51.4047315341001
20
5.22062054591879
30
0
41
1
10
51.6743871642567
20
4.73867583653491
30
0
41
1
10
52.0333777753672
20
4.31905325969635
30
0
41
1
10
52.4670254628608
20
3.97917137904084
30
0
41
1
10
52.9555996022985
20
3.72696958715864
30
0
41
1
10
53.4848097225985
20
3.57397340689684
30
0
41
1
10
53.8462355808869
20
3.53985250372458
30
0
41
1
10
54.030676847735
20
3.53962219612773
30
0
0
SPLINE
5
14C
100
AcDbEntity
8
1
62
256
6
ByLayer
370
25
48
1
60
0
100
AcDbSpline
70
4
71
3
72
22
73
18
40
0
40
0
40
0
40
0
40
0.0635049931214223
40
0.124657924056921
40
0.188078309995204
40
0.249835510251292
40
0.313343323682148
40
0.375383095852877
40
0.438677914024424
40
0.50127482510235
40
0.563585162891567
40
0.626943332131359
40
0.688652986896408
40
0.752016167932119
40
0.813333838598584
40
0.876532232777273
40
1
40
1
40
1
40
1
41
1
10
51.8154685404689
20
8.28749376507767
30
0
41
1
10
51.8748260705573
20
8.25554076405276
30
0
41
1
10
51.9858040881329
20
8.18544652827659
30
0
41
1
10
52.1388390286951
20
8.05764773577737
30
0
41
1
10
52.2701766980494
20
7.9098487768541
30
0
41
1
10
52.3775133402198
20
7.7404172461255
30
0
41
1
10
52.4540160104109
20
7.55601087063387
30
0
41
1
10
52.4936843378147
20
7.35839523056576
30
0
41
1
10
52.4936759612306
20
7.15746013631681
30
0
41
1
10
52.4497499242953
20
6.96106159198431
30
0
41
1
10
52.3651634946909
20
6.77859364429043
30
0
41
1
10
52.243300513897
20
6.62024789633486
30
0
41
1
10
52.0920484431269
20
6.48889813552593
30
0
41
1
10
51.9199720334548
20
6.39129052613357
30
0
41
1
10
51.7326921452091
20
6.32476687647667
30
0
41
1
10
51.4737486651872
20
6.27986683855771
30
0
41
1
10
51.278234483142
20
6.28910401840208
30
0
41
1
10
51.1472514410602
20
6.31463704455452
30
0
0
SPLINE
5
14D
100
AcDbEntity
8
1
62
256
6
ByLayer
370
25
48
1
60
0
100
AcDbSpline
70
4
71
3
72
46
73
42
40
0
40
0
40
0
40
0
40
0.114803184122114
40
0.229383019219652
40
0.259911174791971
40
0.290577045588309
40
0.32146011597272
40
0.352221882785777
40
0.378503948965452
40
0.381194551886725
40
0.38502687875912
40
0.394777222691502
40
0.404499614942304
40
0.404501762063089
40
0.404503909172841
40
0.404508203359242
40
0.404516791599637
40
0.404533967550811
40
0.404568317334715
40
0.404637008428992
40
0.404774356725298
40
0.405048917764007
40
0.40559749774682
40
0.406692490305335
40
0.408873813618472
40
0.413201876502164
40
0.421720189500711
40
0.438209985972686
40
0.473296874673181
40
0.543731828768196
40
0.61200983118345
40
0.682893343488757
40
0.76562614852273
40
0.852849288304548
40
0.873130804937446
40
0.893655658380499
40
0.914429439554863
40
0.935547123701982
40
0.956863819020084
40
0.969082083125621
40
1
40
1
40
1
40
1
41
1
10
51.8155359731524
20
8.28759736580018
30
0
41
1
10
51.8960854323777
20
8.5279015377314
30
0
41
1
10
52.0905030808197
20
8.98941498782913
30
0
41
1
10
52.3849485491168
20
9.47973952006698
30
0
41
1
10
52.617900413077
20
9.78510772001073
30
0
41
1
10
52.7481199659
20
9.93846276298285
30
0
41
1
10
52.8861753258062
20
10.085353983707
30
0
41
1
10
53.0243127465949
20
10.2186164434452
30
0
41
1
10
53.1222501094278
20
10.3046188393045
30
0
41
1
10
53.1769783077816
20
10.350689322937
30
0
41
1
10
53.2042520313838
20
10.3734146449466
30
0
41
1
10
53.2461003384434
20
10.4022978077921
30
0
41
1
10
53.2791125213087
20
10.429032591452
30
0
41
1
10
53.2960005533192
20
10.4418540536407
30
0
41
1
10
53.2960154650212
20
10.4418653746666
30
0
41
1
10
53.2960415602628
20
10.4418851860764
30
0
41
1
10
53.2960937498597
20
10.4419248075495
30
0
41
1
10
53.2961981255613
20
10.4420040450427
30
0
41
1
10
53.2964068629576
20
10.4421624982652
30
0
41
1
10
53.296824281749
20
10.4424793176272
30
0
41
1
10
53.2976588953047
20
10.4431126080891
30
0
41
1
10
53.2993272263103
20
10.4443777963029
30
0
41
1
10
53.3026603036164
20
10.4469026049567
30
0
41
1
10
53.3093121194675
20
10.4519299733709
30
0
41
1
10
53.3225583736537
20
10.4618959202999
30
0
41
1
10
53.3488214841359
20
10.4814740358247
30
0
41
1
10
53.4004284067086
20
10.5192299072196
30
0
41
1
10
53.5075770514765
20
10.5945652864841
30
0
41
1
10
53.7314800711064
20
10.7380558770516
30
0
41
1
10
54.066177178226
20
10.9162979941939
30
0
41
1
10
54.4893888594194
20
11.0880279415994
30
0
41
1
10
54.951940260827
20
11.2276768051735
30
0
41
1
10
55.4654512600503
20
11.3332423468546
30
0
41
1
10
55.8765604690575
20
11.3814784425548
30
0
41
1
10
56.1540775214557
20
11.4011742686937
30
0
41
1
10
56.2877026983689
20
11.4084001613615
30
0
41
1
10
56.4232394118346
20
11.413494606826
30
0
41
1
10
56.5605579600707
20
11.4164537942674
30
0
41
1
10
56.6793145614142
20
11.4172021537992
30
0
41
1
10
56.8193591953717
20
11.41629153578
30
0
41
1
10
56.9130871373345
20
11.4158801686403
30
0
41
1
10
56.9802663407043
20
11.4154895703937
30
0
0
SPLINE
5
14E
100
AcDbEntity
8
1
62
256
6
ByLayer
370
25
48
1
60
0
100
AcDbSpline
70
4
71
3
72
12
73
8
40
0
40
0
40
0
40
0
40
0.162699595744406
40
0.317227655972832
40
0.498791712821828
40
0.799281969184999
40
1
40
1
40
1
40
1
41
1
10
56.1370907947209
20
11.6742401888094
30
0
41
1
10
56.1850608014732
20
11.669015436352
30
0
41
1
10
56.2772410277599
20
11.6535211109995
30
0
41
1
10
56.4146236732811
20
11.5999476905219
30
0
41
1
10
56.5938427979869
20
11.5454946619234
30
0
41
1
10
56.7852259618554
20
11.4838260213914
30
0
41
1
10
56.9246012092098
20
11.4353659768466
30
0
41
1
10
56.9802662499723
20
11.4154896041215
30
0
0
SPLINE
5
14F
100
AcDbEntity
8
1
62
256
6
ByLayer
370
25
48
1
60
0
100
AcDbSpline
70
4
71
1
72
4
73
2
40
0
40
0
40
1
40
1
41
1
10
56.137076891407
20
11.6742379004391
30
0
41
1
10
55.9142359940206
20
11.7581506627105
30
0
0
SPLINE
5
150
100
AcDbEntity
8
1
62
256
6
ByLayer
370
25
48
1
60
0
100
AcDbSpline
70
4
71
3
72
15
73
11
40
0
40
0
40
0
40
0
40
0.008570460643516
40
0.049218420079857
40
0.129779553924052
40
0.210517231617533
40
0.424467350200593
40
0.638553738982481
40
0.852644698976093
40
1
40
1
40
1
40
1
41
1
10
64.2151592994219
20
10.4954254795954
30
0
41
1
10
64.1972770243064
20
10.5119337278864
30
0
41
1
10
64.0919841679976
20
10.6024501416019
30
0
41
1
10
63.74233043851
20
10.7337896631187
30
0
41
1
10
63.1990317064949
20
10.8862070577873
30
0
41
1
10
62.158848853441
20
11.0774587089777
30
0
41
1
10
60.7462899825103
20
11.2965160348248
30
0
41
1
10
58.9509398604429
20
11.4928733184178
30
0
41
1
10
57.3397221519908
20
11.6390331453152
30
0
41
1
10
56.3272301498704
20
11.7249132594143
30
0
41
1
10
55.9143231830003
20
11.7583302322585
30
0
0
SPLINE
5
151
100
AcDbEntity
8
1
62
256
6
ByLayer
370
25
48
1
60
0
100
AcDbSpline
70
4
71
1
72
4
73
2
40
0
40
0
40
1
40
1
41
1
10
55.9143173053471
20
11.7584534161809
30
0
41
1
10
55.8505645110045
20
11.7637171134897
30
0
0
SPLINE
5
152
100
AcDbEntity
8
1
62
256
6
ByLayer
370
25
48
1
60
0
100
AcDbSpline
70
4
71
1
72
4
73
2
40
0
40
0
40
1
40
1
41
1
10
56.5994996960013
20
11.7383724527989
30
0
41
1
10
55.8513708317265
20
11.7636119843476
30
0
0
SPLINE
5
153
100
AcDbEntity
8
1
62
256
6
ByLayer
370
25
48
1
60
0
100
AcDbSpline
70
4
71
3
72
11
73
7
40
0
40
0
40
0
40
0
40
0.26644443222261
40
0.531096760197305
40
0.78351890872397
40
1
40
1
40
1
40
1
41
1
10
58.0649257673647
20
11.8273979655105
30
0
41
1
10
57.9515483662175
20
11.7870670997356
30
0
41
1
10
57.7150195003096
20
11.7251553572424
30
0
41
1
10
57.3245451830317
20
11.685945366198
30
0
41
1
10
56.9500118719368
20
11.7028128750315
30
0
41
1
10
56.7105030355272
20
11.7245143774327
30
0
41
1
10
56.5995265362261
20
11.7383628704799
30
0
0
SPLINE
5
154
100
AcDbEntity
8
1
62
256
6
ByLayer
370
25
48
1
60
0
100
AcDbSpline
70
4
71
2
72
6
73
3
40
0
40
0
40
0
40
1
40
1
40
1
41
1
10
63.6586585658151
20
5.2823205960863
30
0
41
1
10
62.6564555911705
20
5.65994536639151
30
0
41
1
10
61.6551625715649
20
6.03713679421929
30
0
0
SPLINE
5
155
100
AcDbEntity
8
1
62
256
6
ByLayer
370
25
48
1
60
0
100
AcDbSpline
70
4
71
3
72
15
73
11
40
0
40
0
40
0
40
0
40
0.128003401915675
40
0.25600873579247
40
0.384015325187942
40
0.512021871272341
40
0.640010753695479
40
0.767999294129825
40
0.895945573649324
40
1
40
1
40
1
40
1
41
1
10
61.6551594542298
20
6.03712897126442
30
0
41
1
10
61.7101486085117
20
6.186465891698
30
0
41
1
10
61.794224263776
20
6.48940617897129
30
0
41
1
10
61.8443735464778
20
6.96275483448663
30
0
41
1
10
61.8133169924492
20
7.43661452080456
30
0
41
1
10
61.7053695096225
20
7.89913064106253
30
0
41
1
10
61.5203339345414
20
8.3360911965084
30
0
41
1
10
61.2667767135897
20
8.73619057580213
30
0
41
1
10
60.9681195762833
20
9.06532474083477
30
0
41
1
10
60.7481646744346
20
9.24449672980309
30
0
41
1
10
60.6434056192034
20
9.31866317244298
30
0
0
SPLINE
5
156
100
AcDbEntity
8
1
62
256
6
ByLayer
370
25
48
1
60
0
100
AcDbSpline
70
4
71
2
72
6
73
3
40
0
40
0
40
0
40
1
40
1
40
1
41
1
10
60.1024897084049
20
9.86041469904407
30
0
41
1
10
60.0629198773456
20
9.75382164609844
30
0
41
1
10
60.0234039859689
20
9.64722735309169
30
0
0
SPLINE
5
157
100
AcDbEntity
8
1
62
256
6
ByLayer
370
25
48
1
60
0
100
AcDbSpline
70
4
71
2
72
6
73
3
40
0
40
0
40
0
40
1
40
1
40
1
41
1
10
61.4879062020678
20
9.16134242707573
30
0
41
1
10
60.8309361215816
20
9.58279931734106
30
0
41
1
10
60.1024888168751
20
9.86039119713008
30
0
0
SPLINE
5
158
100
AcDbEntity
8
1
62
256
6
ByLayer
370
25
48
1
60
0
100
AcDbSpline
70
4
71
2
72
6
73
3
40
0
40
0
40
0
40
1
40
1
40
1
41
1
10
62.1427139218845
20
8.68193842314581
30
0
41
1
10
61.8293067683817
20
8.9410640220417
30
0
41
1
10
61.4879081878882
20
9.16134115775195
30
0
0
SPLINE
5
159
100
AcDbEntity
8
1
62
256
6
ByLayer
370
25
48
1
60
0
100
AcDbSpline
70
4
71
3
72
11
73
7
40
0
40
0
40
0
40
0
40
0.248265745804631
40
0.498069534308582
40
0.748763215325572
40
1
40
1
40
1
40
1
41
1
10
63.7019271938765
20
6.36628295215142
30
0
41
1
10
63.6478192855486
20
6.59924161866844
30
0
41
1
10
63.4980807207
20
7.04614716933594
30
0
41
1
10
63.1292533358911
20
7.65878019676967
30
0
41
1
10
62.6728659809009
20
8.20662122546292
30
0
41
1
10
62.3273136413749
20
8.53054791073493
30
0
41
1
10
62.1427181549152
20
8.68193488674549
30
0
0
SPLINE
5
15A
100
AcDbEntity
8
1
62
256
6
ByLayer
370
25
48
1
60
0
100
AcDbSpline
70
4
71
2
72
6
73
3
40
0
40
0
40
0
40
1
40
1
40
1
41
1
10
63.7528697879101
20
5.91792226422495
30
0
41
1
10
63.7485519978517
20
6.14455029962869
30
0
41
1
10
63.7019299884576
20
6.36626954678337
30
0
0
SPLINE
5
15B
100
AcDbEntity
8
1
62
256
6
ByLayer
370
25
48
1
60
0
100
AcDbSpline
70
4
71
2
72
6
73
3
40
0
40
0
40
0
40
1
40
1
40
1
41
1
10
63.6577550269608
20
5.28251641820346
30
0
41
1
10
63.7588717935129
20
5.59213089129289
30
0
41
1
10
63.7528699759165
20
5.91790842853237
30
0
0
SPLINE
5
15C
100
AcDbEntity
8
1
62
256
6
ByLayer
370
25
48
1
60
0
100
AcDbSpline
70
4
71
3
72
28
73
24
40
0
40
0
40
0
40
0
40
0.0302036092268997
40
0.0606375772553366
40
0.0912645469027493
40
0.122118436706667
40
0.163564130027957
40
0.205219464465283
40
0.247087940552633
40
0.310054986422565
40
0.373216607607804
40
0.436476422419101
40
0.499776494745368
40
0.563088564721927
40
0.626356380066702
40
0.689548176656155
40
0.752565852090524
40
0.815296010907553
40
0.877522143472294
40
0.908427929586171
40
0.93917198010632
40
0.969659678091927
40
1
40
1
40
1
40
1
41
1
10
54.3296087800316
20
8.79546983545748
30
0
41
1
10
54.3777929280154
20
8.91976918784894
30
0
41
1
10
54.4952526573619
20
9.15521883458845
30
0
41
1
10
54.7416696258217
20
9.47009057851864
30
0
41
1
10
55.0391844848306
20
9.73774864882366
30
0
41
1
10
55.4135399958926
20
9.98279021028214
30
0
41
1
10
55.8637484000625
20
10.1890193605966
30
0
41
1
10
56.3830355502587
20
10.3437653192468
30
0
41
1
10
57.008284177792
20
10.450851321133
30
0
41
1
10
57.7360098353631
20
10.4821444336812
30
0
41
1
10
58.5531433463426
20
10.4111371181941
30
0
41
1
10
59.3580231799039
20
10.2464082834811
30
0
41
1
10
60.1412898546794
20
9.99582149536836
30
0
41
1
10
60.8943006799799
20
9.66416613917562
30
0
41
1
10
61.6079852452118
20
9.25421369511312
30
0
41
1
10
62.2697417540461
20
8.76540733326054
30
0
41
1
10
62.8643366631474
20
8.19803991904902
30
0
41
1
10
63.3667932624252
20
7.55073383820643
30
0
41
1
10
63.679453164583
20
6.94281621517654
30
0
41
1
10
63.8332392215611
20
6.42436621414352
30
0
41
1
10
63.8914586739888
20
6.02592796781954
30
0
41
1
10
63.8810479957905
20
5.62382223484807
30
0
41
1
10
63.8225601552277
20
5.36611731329602
30
0
41
1
10
63.7810979843618
20
5.23879971033318
30
0
0
SPLINE
5
15D
100
AcDbEntity
8
1
62
256
6
ByLayer
370
25
48
1
60
0
100
AcDbSpline
70
4
71
3
72
11
73
7
40
0
40
0
40
0
40
0
40
0.252082496348706
40
0.502231081336845
40
0.750135086948716
40
1
40
1
40
1
40
1
41
1
10
63.7820382470008
20
5.23880162550194
30
0
41
1
10
63.7745031147183
20
5.24117316745078
30
0
41
1
10
63.7578461843997
20
5.24661953362112
30
0
41
1
10
63.727306437788
20
5.25715695665941
30
0
41
1
10
63.6935417250936
20
5.2692782740067
30
0
41
1
10
63.6708019366955
20
5.27771098396038
30
0
41
1
10
63.6591574410807
20
5.28209541694069
30
0
0
SPLINE
5
15E
100
AcDbEntity
8
1
62
256
6
ByLayer
370
25
48
1
60
0
100
AcDbSpline
70
4
71
3
72
12
73
8
40
0
40
0
40
0
40
0
40
0.166192739939038
40
0.332650128103295
40
0.499380021226219
40
0.749629019696138
40
1
40
1
40
1
40
1
41
1
10
56.3428877573979
20
10.1987859950848
30
0
41
1
10
56.5503307392853
20
10.248511029123
30
0
41
1
10
56.967929906051
20
10.3228654355769
30
0
41
1
10
57.6064312648703
20
10.3540724205132
30
0
41
1
10
58.3504149027353
20
10.31316353009
30
0
41
1
10
59.1927480000537
20
10.1648011320947
30
0
41
1
10
59.802124886162
20
9.97562026629121
30
0
41
1
10
60.1024841827084
20
9.86039296672607
30
0
0
SPLINE
5
15F
100
AcDbEntity
8
1
62
256
6
ByLayer
370
25
48
1
60
0
100
AcDbSpline
70
4
71
2
72
6
73
3
40
0
40
0
40
0
40
1
40
1
40
1
41
1
10
56.0985024274197
20
10.130037452578
30
0
41
1
10
56.2196211512406
20
10.1682966284558
30
0
41
1
10
56.3428861780923
20
10.198785604423
30
0
0
SPLINE
5
160
100
AcDbEntity
8
1
62
256
6
ByLayer
370
25
48
1
60
0
100
AcDbSpline
70
4
71
3
72
11
73
7
40
0
40
0
40
0
40
0
40
0.247465767873238
40
0.496677808512937
40
0.747660290705193
40
1
40
1
40
1
40
1
41
1
10
54.4350118272875
20
8.7522549175437
30
0
41
1
10
54.5059362268
20
8.92829313738867
30
0
41
1
10
54.6858905433818
20
9.25016409148488
30
0
41
1
10
55.0914380451277
20
9.64398373296917
30
0
41
1
10
55.5722829319271
20
9.93535108437266
30
0
41
1
10
55.9174268686463
20
10.0751187592998
30
0
41
1
10
56.0985012272983
20
10.1300370733217
30
0
0
SPLINE
5
161
100
AcDbEntity
8
1
62
256
6
ByLayer
370
25
48
1
60
0
100
AcDbSpline
70
4
71
3
72
11
73
7
40
0
40
0
40
0
40
0
40
0.252017818982346
40
0.502221086829388
40
0.750133104260303
40
1
40
1
40
1
40
1
41
1
10
54.329651489547
20
8.79546450777453
30
0
41
1
10
54.3344058347642
20
8.79317367865479
30
0
41
1
10
54.3461465864921
20
8.7878481101205
30
0
41
1
10
54.3710068576326
20
8.77737544122301
30
0
41
1
10
54.4013191936421
20
8.76520036911258
30
0
41
1
10
54.4233307826868
20
8.75666731379645
30
0
41
1
10
54.4349967998034
20
8.75221509056692
30
0
0
SPLINE
5
162
100
AcDbEntity
8
1
62
256
6
ByLayer
370
25
48
1
60
0
100
AcDbSpline
70
4
71
3
72
12
73
8
40
0
40
0
40
0
40
0
40
0.25217896820767
40
0.50317535348089
40
0.752159520477649
40
0.876356953690836
40
1
40
1
40
1
40
1
41
1
10
54.9162599958975
20
6.39588101844407
30
0
41
1
10
54.7943129445165
20
6.56906247273014
30
0
41
1
10
54.5870263351615
20
6.93024593091174
30
0
41
1
10
54.3654838488715
20
7.52041481659836
30
0
41
1
10
54.3019471636579
20
8.04260238441916
30
0
41
1
10
54.3442859284738
20
8.45632709657651
30
0
41
1
10
54.3993536860491
20
8.65468302345378
30
0
41
1
10
54.4350118274223
20
8.75225491789523
30
0
0
SPLINE
5
163
100
AcDbEntity
8
1
62
256
6
ByLayer
370
25
48
1
60
0
100
AcDbSpline
70
4
71
3
72
12
73
8
40
0
40
0
40
0
40
0
40
0.250369910501458
40
0.500618654644858
40
0.667350117313387
40
0.833808526623573
40
1
40
1
40
1
40
1
41
1
10
57.9776779247818
20
4.1366989059155
30
0
41
1
10
57.6748031414255
20
4.25025986768217
30
0
41
1
10
57.0897827207722
20
4.51451124412359
30
0
41
1
10
56.3558159936365
20
4.96573598482462
30
0
41
1
10
55.7671496766534
20
5.43261609426174
30
0
41
1
10
55.3058259127743
20
5.88357220108537
30
0
41
1
10
55.0398904558171
20
6.21937447648324
30
0
41
1
10
54.9162650432727
20
6.39587369900599
30
0
0
SPLINE
5
164
100
AcDbEntity
8
1
62
256
6
ByLayer
370
25
48
1
60
0
100
AcDbSpline
70
4
71
2
72
6
73
3
40
0
40
0
40
0
40
1
40
1
40
1
41
1
10
57.977685916445
20
4.13669589569164
30
0
41
1
10
58.6970876427546
20
3.86515039669099
30
0
41
1
10
59.4560449741381
20
3.74509063100418
30
0
0
SPLINE
5
165
100
AcDbEntity
8
1
62
256
6
ByLayer
370
25
48
1
60
0
100
AcDbSpline
70
4
71
3
72
13
73
9
40
0
40
0
40
0
40
0
40
0.251078778479756
40
0.501631794140941
40
0.626755567161852
40
0.751610256057964
40
0.876038563127027
40
1
40
1
40
1
40
1
41
1
10
59.4560476320927
20
3.74509021581876
30
0
41
1
10
59.7588170627245
20
3.69603589332201
30
0
41
1
10
60.3630230342124
20
3.64452854220412
30
0
41
1
10
61.1259382844126
20
3.68568303362048
30
0
41
1
10
61.7224959496731
20
3.80061811990724
30
0
41
1
10
62.1577864164764
20
3.9322230234722
30
0
41
1
10
62.5747407048123
20
4.11431102373002
30
0
41
1
10
62.8292274517552
20
4.27577148330352
30
0
41
1
10
62.9514803393879
20
4.36583956326816
30
0
0
SPLINE
5
166
100
AcDbEntity
8
1
62
256
6
ByLayer
370
25
48
1
60
0
100
AcDbSpline
70
4
71
2
72
6
73
3
40
0
40
0
40
0
40
1
40
1
40
1
41
1
10
62.9514875548415
20
4.36584500284472
30
0
41
1
10
63.4030091919804
20
4.69547066168111
30
0
41
1
10
63.6300537748004
20
5.20860980902339
30
0
0
SPLINE
5
167
100
AcDbEntity
8
1
62
256
6
ByLayer
370
25
48
1
60
0
100
AcDbSpline
70
4
71
2
72
6
73
3
40
0
40
0
40
0
40
1
40
1
40
1
41
1
10
63.6301895270434
20
5.20893313166347
30
0
41
1
10
63.6381187951503
20
5.22773666964856
30
0
41
1
10
63.6456092968898
20
5.24672198914673
30
0
0
SPLINE
5
168
100
AcDbEntity
8
1
62
256
6
ByLayer
370
25
48
1
60
0
100
AcDbSpline
70
4
71
1
72
4
73
2
40
0
40
0
40
1
40
1
41
1
10
63.7823922683168
20
5.23833744875667
30
0
41
1
10
63.7531472371323
20
5.16426786305795
30
0
0
SPLINE
5
169
100
AcDbEntity
8
1
62
256
6
ByLayer
370
25
48
1
60
0
100
AcDbSpline
70
4
71
3
72
28
73
24
40
0
40
0
40
0
40
0
40
0.0317493857094074
40
0.0634034164477778
40
0.0949465426906189
40
0.126392666218047
40
0.168143687743797
40
0.209809901357944
40
0.251372508486981
40
0.31358648249689
40
0.375747110985258
40
0.43785857448664
40
0.499945113631576
40
0.5620443334615
40
0.624148024920425
40
0.686327801168764
40
0.748563641531793
40
0.810921694961614
40
0.873452225625595
40
0.904887155424416
40
0.936478399883009
40
0.968201876040479
40
1
40
1
40
1
40
1
41
1
10
54.3296442807333
20
8.79544529152849
30
0
41
1
10
54.2819135134514
20
8.66348893841933
30
0
41
1
10
54.2137226645567
20
8.39670611357923
30
0
41
1
10
54.1965165711899
20
7.97965887209494
30
0
41
1
10
54.2524342878064
20
7.5697055248391
30
0
41
1
10
54.3822500674029
20
7.13110370655564
30
0
41
1
10
54.5933113606071
20
6.67615574532982
30
0
41
1
10
54.8878408782703
20
6.21832725950297
30
0
41
1
10
55.2889316047775
20
5.72936094461468
30
0
41
1
10
55.8118896490577
20
5.23168397749945
30
0
41
1
10
56.4639173218728
20
4.75172633770015
30
0
41
1
10
57.1643882124064
20
4.34860519079214
30
0
41
1
10
57.9025236487031
20
4.02178055460477
30
0
41
1
10
58.6699731267728
20
3.77292667695378
30
0
41
1
10
59.459480143839
20
3.60566319843286
30
0
41
1
10
60.263456615154
20
3.5281757938802
30
0
41
1
10
61.0725614640269
20
3.55095824940314
30
0
41
1
10
61.8721479450006
20
3.69204880335214
30
0
41
1
10
62.5108631783043
20
3.93114350837607
30
0
41
1
10
62.9774549929662
20
4.21357800501495
30
0
41
1
10
63.2955730249272
20
4.47584499838292
30
0
41
1
10
63.5658888445779
20
4.79298113423832
30
0
41
1
10
63.6978166669345
20
5.03488332578985
30
0
41
1
10
63.752993720521
20
5.164019467733
30
0
0
SPLINE
5
16A
100
AcDbEntity
8
1
62
256
6
ByLayer
370
25
48
1
60
0
100
AcDbSpline
70
4
71
2
72
6
73
3
40
0
40
0
40
0
40
1
40
1
40
1
41
1
10
57.9776768532043
20
4.13670834237259
30
0
41
1
10
58.0246645349438
20
4.2632780659485
30
0
41
1
10
58.0717243507825
20
4.38984395951619
30
0
0
SPLINE
5
16B
100
AcDbEntity
8
1
62
256
6
ByLayer
370
25
48
1
60
0
100
AcDbSpline
70
4
71
2
72
6
73
3
40
0
40
0
40
0
40
1
40
1
40
1
41
1
10
58.0717242348685
20
4.38984364164186
30
0
41
1
10
58.5357709354474
20
4.21571690782624
30
0
41
1
10
59.0309974975308
20
4.21236467950349
30
0
0
SPLINE
5
16C
100
AcDbEntity
8
1
62
256
6
ByLayer
370
25
48
1
60
0
100
AcDbSpline
70
4
71
3
72
11
73
7
40
0
40
0
40
0
40
0
40
0.30924098719106
40
0.618482146286933
40
0.927718716470585
40
1
40
1
40
1
40
1
41
1
10
59.0309974975307
20
4.21236467950345
30
0
41
1
10
59.1889095580929
20
4.21189289800623
30
0
41
1
10
59.4998200054351
20
4.23694905182733
30
0
41
1
10
59.9577063519898
20
4.35258144405422
30
0
41
1
10
60.278334338367
20
4.49668077821548
30
0
41
1
10
60.4459005086321
20
4.59279615701318
30
0
41
1
10
60.4773471806771
20
4.61165109711518
30
0
0
SPLINE
5
16D
100
AcDbEntity
8
1
62
256
6
ByLayer
370
25
48
1
60
0
100
AcDbSpline
70
4
71
3
72
29
73
25
40
0
40
0
40
0
40
0
40
0.0303069911214216
40
0.0608081219223756
40
0.0914676739709174
40
0.1223240521554
40
0.153382574072636
40
0.184584026438852
40
0.247214750840695
40
0.310146355001871
40
0.373279482365398
40
0.436517884020757
40
0.499799378138889
40
0.563091221629926
40
0.626336231927956
40
0.689495325756546
40
0.752470414293291
40
0.794323866804157
40
0.836003513988286
40
0.877432054496156
40
0.908335035392691
40
0.939067734798508
40
0.969591961803698
40
1
40
1
40
1
40
1
41
1
10
54.1640893133896
20
8.87546352078005
30
0
41
1
10
54.2148234024994
20
9.00705363215178
30
0
41
1
10
54.3377971224299
20
9.25701514157092
30
0
41
1
10
54.5931050104125
20
9.59395798712356
30
0
41
1
10
54.9017026500993
20
9.88314727745332
30
0
41
1
10
55.2519951317586
20
10.1236300581168
30
0
41
1
10
55.6320460865197
20
10.3171782310688
30
0
41
1
10
56.1667415823345
20
10.5182239003207
30
0
41
1
10
56.8704288702588
20
10.6680196491409
30
0
41
1
10
57.7324864941042
20
10.7142144988907
30
0
41
1
10
58.5953742382308
20
10.6453985907045
30
0
41
1
10
59.4453944635424
20
10.4749142344625
30
0
41
1
10
60.2723153915367
20
10.211456917381
30
0
41
1
10
61.0664901474494
20
9.86034675336076
30
0
41
1
10
61.8178374910403
20
9.42459985169396
30
0
41
1
10
62.5123376039595
20
8.90380076827639
30
0
41
1
10
63.0649112104308
20
8.36512691779178
30
0
41
1
10
63.4826494741197
20
7.83791127212643
30
0
41
1
10
63.783966524152
20
7.34857858381177
30
0
41
1
10
63.9952774615201
20
6.86730408132757
30
0
41
1
10
64.1200498923405
20
6.40895656184998
30
0
41
1
10
64.1725358067965
20
5.98706157277313
30
0
41
1
10
64.1538306486418
20
5.56271822437372
30
0
41
1
10
64.0897501846802
20
5.29072116203407
30
0
41
1
10
64.0453043371997
20
5.156394713617
30
0
0
SPLINE
5
16E
100
AcDbEntity
8
1
62
256
6
ByLayer
370
25
48
1
60
0
100
AcDbSpline
70
4
71
1
72
4
73
2
40
0
40
0
40
1
40
1
41
1
10
64.0461011580883
20
5.15607022084651
30
0
41
1
10
63.7825126362525
20
5.23866116037913
30
0
0
SPLINE
5
16F
100
AcDbEntity
8
1
62
256
6
ByLayer
370
25
48
1
60
0
100
AcDbSpline
70
4
71
2
72
6
73
3
40
0
40
0
40
0
40
1
40
1
40
1
41
1
10
64.0464917778773
20
5.15596368509838
30
0
41
1
10
64.0380586308407
20
5.13323855490025
30
0
41
1
10
64.0291212137889
20
5.11070992893651
30
0
0
SPLINE
5
170
100
AcDbEntity
8
1
62
256
6
ByLayer
370
25
48
1
60
0
100
AcDbSpline
70
4
71
2
72
6
73
3
40
0
40
0
40
0
40
1
40
1
40
1
41
1
10
64.0291212137889
20
5.11070992893651
30
0
41
1
10
64.0229020172421
20
5.09503300882782
30
0
41
1
10
64.0164412710425
20
5.0794555842365
30
0
0
SPLINE
5
171
100
AcDbEntity
8
1
62
256
6
ByLayer
370
25
48
1
60
0
100
AcDbSpline
70
4
71
3
72
29
73
25
40
0
40
0
40
0
40
0
40
0.0321034229737115
40
0.0640531263887659
40
0.0958313503932095
40
0.127443797899927
40
0.169305529936447
40
0.210994261336654
40
0.252492227783898
40
0.314519888607039
40
0.376425913935291
40
0.438242985340137
40
0.500016808888652
40
0.56180211389972
40
0.623606041287105
40
0.685522857230176
40
0.747557764123525
40
0.789061066400419
40
0.830715375935437
40
0.872552529159105
40
0.904133469522188
40
0.935916174881387
40
0.967901820896369
40
1
40
1
40
1
40
1
41
1
10
54.1640621359259
20
8.87541604609294
30
0
41
1
10
54.1129176164079
20
8.73481954681299
30
0
41
1
10
54.0387753030134
20
8.45065540286009
30
0
41
1
10
54.0142612237984
20
8.00689990509909
30
0
41
1
10
54.0661178996251
20
7.56999397334375
30
0
41
1
10
54.1952703173967
20
7.10224694519422
30
0
41
1
10
54.4108766964106
20
6.61708040103059
30
0
41
1
10
54.7152058211982
20
6.1291211754308
30
0
41
1
10
55.132191641958
20
5.6089719400177
30
0
41
1
10
55.6782612772452
20
5.08052573093076
30
0
41
1
10
56.361164444738
20
4.57208672112348
30
0
41
1
10
57.0959572440529
20
4.14627172176779
30
0
41
1
10
57.8710475827283
20
3.80230799970029
30
0
41
1
10
58.6774981051925
20
3.54188936583971
30
0
41
1
10
59.5076372899717
20
3.36893262501693
30
0
41
1
10
60.3533364016801
20
3.29248905157371
30
0
41
1
10
61.1099907288989
20
3.3203731705094
30
0
41
1
10
61.7648817400043
20
3.42759342613866
30
0
41
1
10
62.3148002420465
20
3.58486220858023
30
0
41
1
10
62.7975478870456
20
3.79813073260545
30
0
41
1
10
63.205446363078
20
4.05591439229115
30
0
41
1
10
63.5380559125881
20
4.34094711274941
30
0
41
1
10
63.8198595133623
20
4.68298213644382
30
0
41
1
10
63.9583654292661
20
4.94171429425836
30
0
41
1
10
64.0164419581996
20
5.0794552706759
30
0
0
SPLINE
5
172
100
AcDbEntity
8
1
62
256
6
ByLayer
370
25
48
1
60
0
100
AcDbSpline
70
4
71
3
72
11
73
7
40
0
40
0
40
0
40
0
40
0.166171540131549
40
0.330826838798585
40
0.498314964911721
40
1
40
1
40
1
40
1
41
1
10
66.2025141947711
20
3.13048894421186
30
0
41
1
10
66.2752536919789
20
3.26648586009392
30
0
41
1
10
66.4200669297947
20
3.53723988154316
30
0
41
1
10
66.6381796171467
20
3.94507725402685
30
0
41
1
10
67.0031675283215
20
4.62749836775452
30
0
41
1
10
67.2960736395737
20
5.1751669659788
30
0
41
1
10
67.5156681352854
20
5.58575888744798
30
0
0
SPLINE
5
173
100
AcDbEntity
8
1
62
256
6
ByLayer
370
25
48
1
60
0
100
AcDbSpline
70
4
71
2
72
6
73
3
40
0
40
0
40
0
40
1
40
1
40
1
41
1
10
67.9856694126281
20
5.24973173627314
30
0
41
1
10
67.736114580401
20
5.39624194479775
30
0
41
1
10
67.5156682196389
20
5.58572320697346
30
0
0
SPLINE
5
174
100
AcDbEntity
8
1
62
256
6
ByLayer
370
25
48
1
60
0
100
AcDbSpline
70
4
71
1
72
4
73
2
40
0
40
0
40
1
40
1
41
1
10
67.9856688379711
20
5.24973076121085
30
0
41
1
10
66.7031070103556
20
2.85176595425375
30
0
0
SPLINE
5
175
100
AcDbEntity
8
1
62
256
6
ByLayer
370
25
48
1
60
0
100
AcDbSpline
70
4
71
2
72
6
73
3
40
0
40
0
40
0
40
1
40
1
40
1
41
1
10
67.6207194485906
20
5.70208470399799
30
0
41
1
10
67.5659237603955
20
5.64736504281016
30
0
41
1
10
67.5157224539286
20
5.58575861434331
30
0
0
SPLINE
5
176
100
AcDbEntity
8
1
62
256
6
ByLayer
370
25
48
1
60
0
100
AcDbSpline
70
4
71
3
72
10
73
6
40
0
40
0
40
0
40
0
40
0.25824599702529
40
0.516515175482189
40
1
40
1
40
1
40
1
41
1
10
68.0651154082231
20
5.4115673373135
30
0
41
1
10
68.0591392856049
20
5.39816084233039
30
0
41
1
10
68.0467221407262
20
5.37103387749071
30
0
41
1
10
68.020655698689
20
5.3167949976194
30
0
41
1
10
67.9998912624717
20
5.27635633046261
30
0
41
1
10
67.985669409297
20
5.24973173004448
30
0
0
SPLINE
5
177
100
AcDbEntity
8
1
62
256
6
ByLayer
370
25
48
1
60
0
100
AcDbSpline
70
4
71
2
72
6
73
3
40
0
40
0
40
0
40
1
40
1
40
1
41
1
10
60.6434056192034
20
9.31866317244298
30
0
41
1
10
60.3558070870106
20
9.52138623064189
30
0
41
1
10
60.0234041037473
20
9.64722767307557
30
0
0
SPLINE
5
178
100
AcDbEntity
8
1
62
256
6
ByLayer
370
25
48
1
60
0
100
AcDbSpline
70
4
71
3
72
11
73
7
40
0
40
0
40
0
40
0
40
0.192030448406547
40
0.442497596620772
40
0.692964891178584
40
1
40
1
40
1
40
1
41
1
10
60.4773471806771
20
4.61165109711518
30
0
41
1
10
60.5809027660958
20
4.67424379661253
30
0
41
1
10
60.8079761919377
20
4.83219990192274
30
0
41
1
10
61.1251566782737
20
5.13253856232203
30
0
41
1
10
61.4323600016278
20
5.54003515499845
30
0
41
1
10
61.5867223525607
20
5.85355113737248
30
0
41
1
10
61.6551570774488
20
6.03712159196473
30
0
0
SPLINE
5
179
100
AcDbEntity
8
1
62
256
6
ByLayer
370
25
48
1
60
0
100
AcDbSpline
70
4
71
3
72
10
73
6
40
0
40
0
40
0
40
0
40
0.358395624459915
40
0.716790844271347
40
1
40
1
40
1
40
1
41
1
10
58.0717244097203
20
4.38984395574709
30
0
41
1
10
57.9239881021467
20
4.4459167111741
30
0
41
1
10
57.6424180720393
20
4.58040282781419
30
0
41
1
10
57.2821508447704
20
4.83409565328191
30
0
41
1
10
57.0804440336288
20
5.02837533440036
30
0
41
1
10
56.9963951755138
20
5.12072055459057
30
0
0
SPLINE
5
17A
100
AcDbEntity
8
1
62
256
6
ByLayer
370
25
48
1
60
0
100
AcDbSpline
70
4
71
3
72
12
73
8
40
0
40
0
40
0
40
0
40
0.0784887874081967
40
0.296579839577147
40
0.514610779481736
40
0.732641145095228
40
1
40
1
40
1
40
1
41
1
10
57.1157093127093
20
9.03582038468395
30
0
41
1
10
57.15633133119
20
9.07524915325738
30
0
41
1
10
57.3136759108801
20
9.21911715552715
30
0
41
1
10
57.6143867318066
20
9.43839000102794
30
0
41
1
10
58.0375650891649
20
9.64625397562279
30
0
41
1
10
58.5243802425967
20
9.79132567618416
30
0
41
1
10
58.8697784538316
20
9.8254080492255
30
0
41
1
10
59.0643065783805
20
9.82469233390839
30
0
0
SPLINE
5
17B
100
AcDbEntity
8
1
62
256
6
ByLayer
370
25
48
1
60
0
100
AcDbSpline
70
4
71
2
72
6
73
3
40
0
40
0
40
0
40
1
40
1
40
1
41
1
10
59.0643065783804
20
9.8246923339061
30
0
41
1
10
59.5594439488352
20
9.82134190678319
30
0
41
1
10
60.0234041063237
20
9.64722767132598
30
0
0
SPLINE
5
17C
100
AcDbEntity
8
1
62
256
6
ByLayer
370
25
48
1
60
0
100
AcDbSpline
70
4
71
3
72
27
73
23
40
0
40
0
40
0
40
0
40
0.435628308107883
40
0.590195819780134
40
0.751418334154041
40
0.920785646417513
40
0.920808674345455
40
0.920811083114466
40
0.920815289606745
40
0.920824849837001
40
0.920843970383227
40
0.920882211818627
40
0.920958696060526
40
0.921111670025262
40
0.921417639851378
40
0.922029666873577
40
0.923254068699767
40
0.925704250425569
40
0.930610030076384
40
0.940442612681229
40
0.960188575569357
40
1
40
1
40
1
40
1
41
1
10
67.0484245704796
20
5.66909935473528
30
0
41
1
10
66.9568843346023
20
5.65848048364868
30
0
41
1
10
66.8333841406927
20
5.65587636302445
30
0
41
1
10
66.6763016580632
20
5.669917332189
30
0
41
1
10
66.5761701269984
20
5.68991818854196
30
0
41
1
10
66.5098474202194
20
5.71154225256315
30
0
41
1
10
66.4768326184588
20
5.7245939285191
30
0
41
1
10
66.4768233145829
20
5.7245975969665
30
0
41
1
10
66.4768140086501
20
5.72460126023362
30
0
41
1
10
66.4768046999914
20
5.72460491658095
30
0
41
1
10
66.4767953913794
20
5.72460857304709
30
0
41
1
10
66.4767692738323
20
5.72461883268778
30
0
41
1
10
66.4767170383692
20
5.72463935476558
30
0
41
1
10
66.4766125658537
20
5.72468040981972
30
0
41
1
10
66.4764036145999
20
5.72476256368843
30
0
41
1
10
66.475985687536
20
5.72492704604484
30
0
41
1
10
66.4751497382254
20
5.72525670727426
30
0
41
1
10
66.4734774816914
20
5.72591879853085
30
0
41
1
10
66.4701316875807
20
5.72725394862833
30
0
41
1
10
66.463435876363
20
5.72996725012945
30
0
41
1
10
66.4500291736445
20
5.73556366291943
30
0
41
1
10
66.4386409920073
20
5.74058496454362
30
0
41
1
10
66.4310811986289
20
5.7440408769102
30
0
0
SPLINE
5
17D
100
AcDbEntity
8
1
62
256
6
ByLayer
370
25
48
1
60
0
100
AcDbSpline
70
4
71
3
72
11
73
7
40
0
40
0
40
0
40
0
40
0.115773020652424
40
0.232215373164179
40
0.473429816966485
40
1
40
1
40
1
40
1
41
1
10
67.515713382102
20
5.58576998200714
30
0
41
1
10
67.5028559840157
20
5.59941298048591
30
0
41
1
10
67.474764745515
20
5.62348976661794
30
0
41
1
10
67.4063362873526
20
5.65968325567866
30
0
41
1
10
67.2614527689219
20
5.68543165022431
30
0
41
1
10
67.1369384984472
20
5.68564781477482
30
0
41
1
10
67.0484245704795
20
5.66909935473528
30
0
0
SPLINE
5
17E
100
AcDbEntity
8
1
62
256
6
ByLayer
370
25
48
1
60
0
100
AcDbSpline
70
4
71
3
72
15
73
11
40
0
40
0
40
0
40
0
40
0.148027523402865
40
0.299218302123125
40
0.3709677583164
40
0.466989349298873
40
0.647538675083696
40
0.830202577365588
40
0.927564903365725
40
1
40
1
40
1
40
1
41
1
10
64.2781136581247
20
2.3652183370029
30
0
41
1
10
64.3872354799201
20
2.36560716730518
30
0
41
1
10
64.6074727193172
20
2.36857224014192
30
0
41
1
10
64.8800744220183
20
2.3614217702651
30
0
41
1
10
65.1134079095992
20
2.37942220167513
30
0
41
1
10
65.3652892863341
20
2.42494583567389
30
0
41
1
10
65.6822807953647
20
2.55404888260057
30
0
41
1
10
65.9462817603604
20
2.77473132868611
30
0
41
1
10
66.1074848375059
20
2.9791847983364
30
0
41
1
10
66.1754383334794
20
3.0842293137494
30
0
41
1
10
66.2025135435982
20
3.13048772692503
30
0
0
SPLINE
5
17F
100
AcDbEntity
8
1
62
256
6
ByLayer
370
25
48
1
60
0
100
AcDbSpline
70
4
71
2
72
6
73
3
40
0
40
0
40
0
40
1
40
1
40
1
41
1
10
64.2781755044013
20
2.36507738607214
30
0
41
1
10
63.2338338847877
20
2.36154864601902
30
0
41
1
10
62.193609734741
20
2.35777227470358
30
0
0
SPLINE
5
180
100
AcDbEntity
8
1
62
256
6
ByLayer
370
25
48
1
60
0
100
AcDbSpline
70
4
71
1
72
4
73
2
40
0
40
0
40
1
40
1
41
1
10
62.193608315302
20
2.35777228990187
30
0
41
1
10
62.1095672631621
20
2.35745039674089
30
0
0
SPLINE
5
181
100
AcDbEntity
8
1
62
256
6
ByLayer
370
25
48
1
60
0
100
AcDbSpline
70
4
71
1
72
4
73
2
40
0
40
0
40
1
40
1
41
1
10
62.3323205315886
20
2.27321435340838
30
0
41
1
10
62.4420683704734
20
2.26430615717338
30
0
0
SPLINE
5
182
100
AcDbEntity
8
1
62
256
6
ByLayer
370
25
48
1
60
0
100
AcDbSpline
70
4
71
2
72
6
73
3
40
0
40
0
40
0
40
1
40
1
40
1
41
1
10
61.6380474910267
20
2.29364654841546
30
0
41
1
10
62.0424535347428
20
2.29908437075943
30
0
41
1
10
62.4420749117187
20
2.26433690654815
30
0
0
SPLINE
5
183
100
AcDbEntity
8
1
62
256
6
ByLayer
370
25
48
1
60
0
100
AcDbSpline
70
4
71
3
72
11
73
7
40
0
40
0
40
0
40
0
40
0.266444477389716
40
0.531097369955734
40
0.783518603716406
40
1
40
1
40
1
40
1
41
1
10
60.1153392212738
20
2.20659841664678
30
0
41
1
10
60.2432884424825
20
2.24642091376232
30
0
41
1
10
60.5033498191339
20
2.30751173672189
30
0
41
1
10
60.9109338436939
20
2.34612790218015
30
0
41
1
10
61.289257567696
20
2.32912526289061
30
0
41
1
10
61.5282306816453
20
2.30744413704545
30
0
41
1
10
61.6380215414036
20
2.2936379944304
30
0
0
SPLINE
5
184
100
AcDbEntity
8
1
62
256
6
ByLayer
370
25
48
1
60
0
100
AcDbSpline
70
4
71
3
72
10
73
6
40
0
40
0
40
0
40
0
40
0.287157498697109
40
0.643581075023057
40
1
40
1
40
1
40
1
41
1
10
53.99836162721
20
2.64115663984391
30
0
41
1
10
54.0047593066493
20
2.71589493658708
30
0
41
1
10
54.0169782179914
20
2.89068026024873
30
0
41
1
10
54.028871868606
20
3.19518326809277
30
0
41
1
10
54.0311095728566
20
3.42147926750484
30
0
41
1
10
54.0307216988793
20
3.53833142921947
30
0
0
SPLINE
5
185
100
AcDbEntity
8
1
62
256
6
ByLayer
370
25
48
1
60
0
100
AcDbSpline
70
4
71
2
72
6
73
3
40
0
40
0
40
0
40
1
40
1
40
1
41
1
10
66.524603621992
20
5.91001206463513
30
0
41
1
10
66.4777510123214
20
5.83239383555911
30
0
41
1
10
66.4312942362918
20
5.74444581630521
30
0
0
SPLINE
5
186
100
AcDbEntity
8
1
62
256
6
ByLayer
370
25
48
1
60
0
100
AcDbSpline
70
4
71
2
72
6
73
3
40
0
40
0
40
0
40
1
40
1
40
1
41
1
10
67.0414832429838
20
5.85147328064565
30
0
41
1
10
67.0459933826119
20
5.76362441195032
30
0
41
1
10
67.0484229456052
20
5.66916293737529
30
0
0
SPLINE
5
187
100
AcDbEntity
8
1
62
256
6
ByLayer
370
25
48
1
60
0
100
AcDbSpline
70
4
71
1
72
4
73
2
40
0
40
0
40
1
40
1
41
1
10
64.266672106477
20
2.08807485191948
30
0
41
1
10
64.2781639874463
20
2.36507641253219
30
0
0
SPLINE
5
188
100
AcDbEntity
8
1
62
256
6
ByLayer
370
25
48
1
60
0
100
AcDbSpline
70
4
71
2
72
6
73
3
40
0
40
0
40
0
40
1
40
1
40
1
41
1
10
66.5375876290339
20
2.54046727290143
30
0
41
1
10
66.3884502817137
20
2.26014694498772
30
0
41
1
10
66.1434904560507
20
2.06546549758381
30
0
0
SPLINE
5
189
100
AcDbEntity
8
1
62
256
6
ByLayer
370
25
48
1
60
0
100
AcDbSpline
70
4
71
1
72
4
73
2
40
0
40
0
40
1
40
1
41
1
10
66.7031070103604
20
2.85176595426174
30
0
41
1
10
66.5375876291667
20
2.54046727282936
30
0
0
SPLINE
5
18A
100
AcDbEntity
8
1
62
256
6
ByLayer
370
25
48
1
60
0
100
AcDbSpline
70
4
71
2
72
6
73
3
40
0
40
0
40
0
40
1
40
1
40
1
41
1
10
65.9280605611217
20
7.91468224290055
30
0
41
1
10
65.9347089464453
20
7.97483470619144
30
0
41
1
10
65.9352705121972
20
8.05280669278264
30
0
0
SPLINE
5
18B
100
AcDbEntity
8
1
62
256
6
ByLayer
370
25
48
1
60
0
100
AcDbSpline
70
4
71
3
72
19
73
15
40
0
40
0
40
0
40
0
40
0.016270988838933
40
0.0333108341163425
40
0.0730019514477328
40
0.182576407016528
40
0.330333452624394
40
0.499979793742811
40
0.669626134860524
40
0.817383180467839
40
0.926957636037904
40
0.966491494955852
40
0.983578442130806
40
1
40
1
40
1
40
1
41
1
10
65.9352705182327
20
8.05280669256885
30
0
41
1
10
65.9425382288916
20
8.05289584223835
30
0
41
1
10
65.9569394655661
20
8.05471767178147
30
0
41
1
10
65.9869215101563
20
8.06698406105431
30
0
41
1
10
66.0426317529658
20
8.11649551229659
30
0
41
1
10
66.0997713417397
20
8.23782889761871
30
0
41
1
10
66.1426842685209
20
8.42118287856323
30
0
41
1
10
66.1585938389203
20
8.63622825319695
30
0
41
1
10
66.1452192667263
20
8.85138689004022
30
0
41
1
10
66.1045687260944
20
9.03530814815365
30
0
41
1
10
66.0487195307881
20
9.15695131072124
30
0
41
1
10
65.9939020665715
20
9.20736561002646
30
0
41
1
10
65.9640114653051
20
9.21989460238581
30
0
41
1
10
65.9495492119002
20
9.2218732349418
30
0
41
1
10
65.9422147247039
20
9.22203137755278
30
0
0
SPLINE
5
18C
100
AcDbEntity
8
1
62
256
6
ByLayer
370
25
48
1
60
0
100
AcDbSpline
70
4
71
2
72
6
73
3
40
0
40
0
40
0
40
1
40
1
40
1
41
1
10
65.9366502055482
20
9.36058719249429
30
0
41
1
10
65.942579358945
20
9.2999954760102
30
0
41
1
10
65.9422147227949
20
9.22203137762031
30
0
0
SPLINE
5
18D
100
AcDbEntity
8
1
62
256
6
ByLayer
370
25
48
1
60
0
100
AcDbSpline
70
4
71
3
72
19
73
15
40
0
40
0
40
0
40
0
40
0.0162709888366387
40
0.0333108341126377
40
0.0730019514441138
40
0.182576407014172
40
0.330333452621482
40
0.499979793739189
40
0.669626134857597
40
0.81738318046546
40
0.926957636034253
40
0.966491494952034
40
0.983578442128431
40
1
40
1
40
1
40
1
41
1
10
65.942214724694
20
9.22203137755283
30
0
41
1
10
65.9349470140362
20
9.22194222788322
30
0
41
1
10
65.9205457773632
20
9.2201203983399
30
0
41
1
10
65.8905637327754
20
9.20785400906515
30
0
41
1
10
65.8348534899702
20
9.15834255781856
30
0
41
1
10
65.777713901197
20
9.03700917249704
30
0
41
1
10
65.7348009744156
20
8.85365519155204
30
0
41
1
10
65.7188914040163
20
8.63860981691875
30
0
41
1
10
65.7322659762103
20
8.42345118007506
30
0
41
1
10
65.7729165168422
20
8.23952992196206
30
0
41
1
10
65.8287657121491
20
8.11788675939403
30
0
41
1
10
65.88358317637
20
8.06747246009289
30
0
41
1
10
65.9134737776386
20
8.05494346773548
30
0
41
1
10
65.9279360310456
20
8.05296483517963
30
0
41
1
10
65.9352705182426
20
8.0528066925688
30
0
0
SPLINE
5
18E
100
AcDbEntity
8
1
62
256
6
ByLayer
370
25
48
1
60
0
100
AcDbSpline
70
4
71
3
72
15
73
11
40
0
40
0
40
0
40
0
40
0.249794093845505
40
0.499703537498281
40
0.587214609985734
40
0.67474540932946
40
0.770691502505212
40
0.892159094472916
40
0.970498072622967
40
1
40
1
40
1
40
1
41
1
10
60.259455330454
20
2.18170496499579
30
0
41
1
10
60.3660372515318
20
2.21283062439554
30
0
41
1
10
60.5829749680578
20
2.26082864046005
30
0
41
1
10
60.8525196066352
20
2.27946416548243
30
0
41
1
10
61.0461350712382
20
2.28069147754422
30
0
41
1
10
61.169607865824
20
2.27994817756175
30
0
41
1
10
61.3082683009656
20
2.27665222351233
30
0
41
1
10
61.4424321323551
20
2.27192033193354
30
0
41
1
10
61.5461903063107
20
2.26735505819948
30
0
41
1
10
61.5949242405573
20
2.26511736959491
30
0
41
1
10
61.6082515238031
20
2.26449411021747
30
0
0
SPLINE
5
18F
100
AcDbEntity
8
1
62
256
6
ByLayer
370
25
48
1
60
0
100
AcDbSpline
70
4
71
2
72
6
73
3
40
0
40
0
40
0
40
1
40
1
40
1
41
1
10
62.1491256180264
20
2.10031105324287
30
0
41
1
10
61.8788137598887
20
2.18266983397523
30
0
41
1
10
61.6082485648622
20
2.26447065875005
30
0
0
SPLINE
5
190
100
AcDbEntity
8
1
62
256
6
ByLayer
370
25
48
1
60
0
100
AcDbSpline
70
4
71
3
72
11
73
7
40
0
40
0
40
0
40
0
40
0.24999960696259
40
0.499999399850171
40
0.749999514092317
40
1
40
1
40
1
40
1
41
1
10
64.2925591343944
20
5.06933548677502
30
0
41
1
10
64.2691730015195
20
5.07813889115582
30
0
41
1
10
64.223345979222
20
5.09512840728654
30
0
41
1
10
64.155497185265
20
5.11946676068724
30
0
41
1
10
64.0943721255884
20
5.1405413080096
30
0
41
1
10
64.0613485736711
20
5.15131581922733
30
0
41
1
10
64.0464980865942
20
5.15597588711272
30
0
0
SPLINE
5
191
100
AcDbEntity
8
1
62
256
6
ByLayer
370
25
48
1
60
0
100
AcDbSpline
70
4
71
3
72
11
73
7
40
0
40
0
40
0
40
0
40
0.25000602531303
40
0.500009218413657
40
0.750007483681629
40
1
40
1
40
1
40
1
41
1
10
53.9528638808973
20
8.96213970281325
30
0
41
1
10
53.976275865783
20
8.95321054886394
30
0
41
1
10
54.0206234436041
20
8.93602945154942
30
0
41
1
10
54.0815254184593
20
8.91157261385926
30
0
41
1
10
54.1313794789008
20
8.89058082683782
30
0
41
1
10
54.1546972127819
20
8.87999549635913
30
0
41
1
10
54.1640893133896
20
8.87546352078005
30
0
0
SPLINE
5
192
100
AcDbEntity
8
1
62
256
6
ByLayer
370
25
48
1
60
0
100
AcDbSpline
70
4
71
3
72
10
73
6
40
0
40
0
40
0
40
0
40
0.269519860591065
40
0.6542668214213
40
1
40
1
40
1
40
1
41
1
10
63.0850888777469
20
2.09847106241808
30
0
41
1
10
63.0099277021662
20
2.13726218187085
30
0
41
1
10
62.8242408858593
20
2.22136623859037
30
0
41
1
10
62.5275029105027
20
2.32458248749911
30
0
41
1
10
62.3022696145233
20
2.35288268241582
30
0
41
1
10
62.1936096584311
20
2.3577700365559
30
0
0
SPLINE
5
193
100
AcDbEntity
8
1
62
256
6
ByLayer
370
25
48
1
60
0
100
AcDbSpline
70
4
71
2
72
6
73
3
40
0
40
0
40
0
40
1
40
1
40
1
41
1
10
54.4350265581344
20
8.75229480782775
30
0
41
1
10
55.4122116568465
20
8.38425685123658
30
0
41
1
10
56.3909799143043
20
8.01739558558961
30
0
0
SPLINE
5
194
100
AcDbEntity
8
1
62
256
6
ByLayer
370
25
48
1
60
0
100
AcDbSpline
70
4
71
1
72
4
73
2
40
0
40
0
40
1
40
1
41
1
10
62.4420717082175
20
2.26433920193456
30
0
41
1
10
62.1936525784681
20
2.35789078430855
30
0
0
SPLINE
5
195
100
AcDbEntity
8
1
62
256
6
ByLayer
370
25
48
1
60
0
100
AcDbSpline
70
4
71
3
72
18
73
14
40
0
40
0
40
0
40
0
40
0.204661343899812
40
0.261831887910936
40
0.319303922302719
40
0.341425825110728
40
0.356298624988905
40
0.371305515699048
40
0.384031641383542
40
0.404838042803544
40
0.456349665416287
40
0.64252210476908
40
1
40
1
40
1
40
1
41
1
10
61.6082491914183
20
2.26447254080949
30
0
41
1
10
61.6016312919069
20
2.2661440678627
30
0
41
1
10
61.5936060623816
20
2.2691794357444
30
0
41
1
10
61.5843271722595
20
2.27393587697298
30
0
41
1
10
61.5806371346893
20
2.27653149129935
30
0
41
1
10
61.5787791879219
20
2.27897507345777
30
0
41
1
10
61.5782247672991
20
2.28056414060712
30
0
41
1
10
61.5783095435257
20
2.2819557556206
30
0
41
1
10
61.5789934068432
20
2.28338098295197
30
0
41
1
10
61.5809693145785
20
2.28537879769699
30
0
41
1
10
61.5887489168608
20
2.28912902116625
30
0
41
1
10
61.608365436147
20
2.29226252245973
30
0
41
1
10
61.6260761260339
20
2.29406439768144
30
0
41
1
10
61.6380475702859
20
2.29363997651865
30
0
0
SPLINE
5
196
100
AcDbEntity
8
1
62
256
6
ByLayer
370
25
48
1
60
0
100
AcDbSpline
70
4
71
3
72
11
73
7
40
0
40
0
40
0
40
0
40
0.261500736047964
40
0.521491341246702
40
0.775377129482077
40
1
40
1
40
1
40
1
41
1
10
57.9221584449372
20
11.8522799494783
30
0
41
1
10
57.8225951055796
20
11.819305022862
30
0
41
1
10
57.6157737170488
20
11.7688545376295
30
0
41
1
10
57.2740185110761
20
11.7482560717791
30
0
41
1
10
56.9438085775797
20
11.7542575283193
30
0
41
1
10
56.7281959014478
20
11.7621525755109
30
0
41
1
10
56.6265272362323
20
11.7676162943809
30
0
0
SPLINE
5
197
100
AcDbEntity
8
1
62
256
6
ByLayer
370
25
48
1
60
0
100
AcDbSpline
70
4
71
1
72
4
73
2
40
0
40
0
40
1
40
1
41
1
10
54.8535899576129
20
12.3104892126398
30
0
41
1
10
56.6265238458853
20
11.7676415461099
30
0
0
SPLINE
5
198
100
AcDbEntity
8
1
62
256
6
ByLayer
370
25
48
1
60
0
100
AcDbSpline
70
4
71
3
72
12
73
8
40
0
40
0
40
0
40
0
40
0.173069520369264
40
0.336841607481312
40
0.500038912727161
40
0.745843059705408
40
1
40
1
40
1
40
1
41
1
10
54.8536590996551
20
12.3104974867757
30
0
41
1
10
54.9607280072322
20
12.3090032318701
30
0
41
1
10
55.1683868839837
20
12.3080006288894
30
0
41
1
10
55.4753498571973
20
12.3111340721895
30
0
41
1
10
55.8228075473793
20
12.3228668412027
30
0
41
1
10
56.2141659656357
20
12.3522985888734
30
0
41
1
10
56.492073874461
20
12.3875104242042
30
0
41
1
10
56.6295218666937
20
12.4089106439282
30
0
0
SPLINE
5
199
100
AcDbEntity
8
1
62
256
6
ByLayer
370
25
48
1
60
0
100
AcDbSpline
70
4
71
3
72
18
73
14
40
0
40
0
40
0
40
0
40
0.204674344106595
40
0.261848518790531
40
0.319324202987704
40
0.341447510945563
40
0.356321255441767
40
0.37132909929326
40
0.384056033142107
40
0.404863755603678
40
0.45637864855654
40
0.642562907780551
40
1
40
1
40
1
40
1
41
1
10
56.6265288402751
20
11.7676379721644
30
0
41
1
10
56.6330873552421
20
11.7659685457329
30
0
41
1
10
56.6411135193138
20
11.7629331447994
30
0
41
1
10
56.6504838108517
20
11.7581734704282
30
0
41
1
10
56.6542610320352
20
11.7555747721722
30
0
41
1
10
56.6562443219306
20
11.7531267562595
30
0
41
1
10
56.6568975853486
20
11.7515341927323
30
0
41
1
10
56.6569143602192
20
11.7501389855361
30
0
41
1
10
56.6563500462492
20
11.748709529376
30
0
41
1
10
56.6545679800658
20
11.7467048578589
30
0
41
1
10
56.6472560160946
20
11.7429380928268
30
0
41
1
10
56.6283583313267
20
11.7397795672055
30
0
41
1
10
56.6112119535277
20
11.7379579138779
30
0
41
1
10
56.5994996596962
20
11.7383729251443
30
0
0
SPLINE
5
19A
100
AcDbEntity
8
1
62
256
6
ByLayer
370
25
48
1
60
0
100
AcDbSpline
70
4
71
3
72
19
73
15
40
0
40
0
40
0
40
0
40
0.594376115289187
40
0.889866333278425
40
0.963597929541079
40
0.97281061512043
40
0.977416637456555
40
0.979719569997301
40
0.979791535803601
40
0.979827640309452
40
0.979846316097775
40
0.979855836381292
40
0.985504352658839
40
1
40
1
40
1
40
1
41
1
10
50.2077009541143
20
6.26803529528223
30
0
41
1
10
50.3939529086534
20
6.29770022725871
30
0
41
1
10
50.6748898133745
20
6.31919861207446
30
0
41
1
10
50.9866480140781
20
6.31196820908063
30
0
41
1
10
51.1075990432736
20
6.29981760673379
30
0
41
1
10
51.1355017036107
20
6.29653608117917
30
0
41
1
10
51.1406369277985
20
6.29591666776482
30
0
41
1
10
51.1428599636527
20
6.29564522553502
30
0
41
1
10
51.1436276593153
20
6.29555107733058
30
0
41
1
10
51.1436680171044
20
6.29554612878664
30
0
41
1
10
51.1436884908288
20
6.29554361539851
30
0
41
1
10
51.1454963096852
20
6.29532356334143
30
0
41
1
10
51.151914209748
20
6.29454413378016
30
0
41
1
10
51.158328391637
20
6.29377455443738
30
0
41
1
10
51.1629436133715
20
6.29322533289983
30
0
0
SPLINE
5
19B
100
AcDbEntity
8
1
62
256
6
ByLayer
370
25
48
1
60
0
100
AcDbSpline
70
4
71
1
72
4
73
2
40
0
40
0
40
1
40
1
41
1
10
55.8506464850838
20
11.7639056977461
30
0
41
1
10
56.0892003535504
20
11.6740714238112
30
0
0
SPLINE
5
19C
100
AcDbEntity
8
1
62
256
6
ByLayer
370
25
48
1
60
0
100
AcDbSpline
70
4
71
1
72
4
73
2
40
0
40
0
40
1
40
1
41
1
10
56.053163926008
20
11.6739465552671
30
0
41
1
10
56.0892621707886
20
11.6740385406326
30
0
0
SPLINE
5
19D
100
AcDbEntity
8
1
62
256
6
ByLayer
370
25
48
1
60
0
100
AcDbSpline
70
4
71
3
72
11
73
7
40
0
40
0
40
0
40
0
40
0.36574089983316
40
0.583332872012174
40
0.804395136667704
40
1
40
1
40
1
40
1
41
1
10
54.5813516128833
20
12.3032089719638
30
0
41
1
10
54.7387660698198
20
12.1794505639189
30
0
41
1
10
55.00289582359
20
12.0063928860082
30
0
41
1
10
55.3952619565401
20
11.8180294514504
30
0
41
1
10
55.722616251259
20
11.70636884131
30
0
41
1
10
55.9461856247052
20
11.6786219263736
30
0
41
1
10
56.053224110748
20
11.6739203039851
30
0
0
SPLINE
5
19E
100
AcDbEntity
8
1
62
256
6
ByLayer
370
25
48
1
60
0
100
AcDbSpline
70
4
71
2
72
6
73
3
40
0
40
0
40
0
40
1
40
1
40
1
41
1
10
54.8535605316194
20
12.3104988654396
30
0
41
1
10
54.7180315914336
20
12.3058056182107
30
0
41
1
10
54.5813635290523
20
12.3032298981902
30
0
0
SPLINE
5
19F
100
AcDbEntity
8
1
62
256
6
ByLayer
370
25
48
1
60
0
100
AcDbSpline
70
4
71
3
72
27
73
23
40
0
40
0
40
0
40
0
40
0.435513750555732
40
0.590159308352805
40
0.751471579933488
40
0.920873792116425
40
0.920896698240551
40
0.920899105254606
40
0.920903307986009
40
0.920912859668363
40
0.920931963117209
40
0.920970170351053
40
0.921046586163032
40
0.921199423160898
40
0.921505118625069
40
0.922116595212374
40
0.923339889338476
40
0.925787828450044
40
0.930689014808387
40
0.940511983947887
40
0.960237041404074
40
1
40
1
40
1
40
1
41
1
10
51.2247931589606
20
8.36370653611062
30
0
41
1
10
51.311559617495
20
8.37426282201807
30
0
41
1
10
51.4287846168983
20
8.37672701362037
30
0
41
1
10
51.577552183216
20
8.36237871944827
30
0
41
1
10
51.6732879400563
20
8.34216115079205
30
0
41
1
10
51.7377439787424
20
8.32038475298334
30
0
41
1
10
51.7702579706386
20
8.30725342950929
30
0
41
1
10
51.7702672469527
20
8.30724969191044
30
0
41
1
10
51.7702765251433
20
8.30724595893655
30
0
41
1
10
51.7702858061838
20
8.30724223304193
30
0
41
1
10
51.770295087179
20
8.3072385070349
30
0
41
1
10
51.7703207736676
20
8.30722819427324
30
0
41
1
10
51.7703721475146
20
8.30720756596015
30
0
41
1
10
51.770474898765
20
8.30716629845406
30
0
41
1
10
51.7706804153834
20
8.30708371976118
30
0
41
1
10
51.7710915047467
20
8.30691838806896
30
0
41
1
10
51.7719139050271
20
8.30658702940219
30
0
41
1
10
51.7735595693669
20
8.30592154804422
30
0
41
1
10
51.7768542073597
20
8.30457963581248
30
0
41
1
10
51.7834558237552
20
8.3018528727161
30
0
41
1
10
51.7967068600349
20
8.29622975265655
30
0
41
1
10
51.808020413696
20
8.29118494264311
30
0
41
1
10
51.8155566408925
20
8.28771321499441
30
0
0
SPLINE
5
1A0
100
AcDbEntity
8
1
62
256
6
ByLayer
370
25
48
1
60
0
100
AcDbSpline
70
4
71
3
72
11
73
7
40
0
40
0
40
0
40
0
40
0.115429378432398
40
0.23153746653802
40
0.472415256526347
40
1
40
1
40
1
40
1
41
1
10
50.7643270697212
20
8.44770195028853
30
0
41
1
10
50.7778273282066
20
8.43396622948431
30
0
41
1
10
50.8069397830361
20
8.40972438080813
30
0
41
1
10
50.8764522680641
20
8.37324186998555
30
0
41
1
10
51.0202944714308
20
8.34731980185175
30
0
41
1
10
51.1407907760911
20
8.34702080148795
30
0
41
1
10
51.2247931589606
20
8.36370653611062
30
0
0
SPLINE
5
1A1
100
AcDbEntity
8
1
62
256
6
ByLayer
370
25
48
1
60
0
100
AcDbSpline
70
4
71
3
72
11
73
7
40
0
40
0
40
0
40
0
40
0.166176033392613
40
0.330818509854455
40
0.498302720314978
40
1
40
1
40
1
40
1
41
1
10
52.0759701108559
20
10.9000755310817
30
0
41
1
10
52.0033149776244
20
10.7642359786981
30
0
41
1
10
51.8586772226881
20
10.4938093692171
30
0
41
1
10
51.6408288847562
20
10.0864649114285
30
0
41
1
10
51.2762753606239
20
9.40485555015711
30
0
41
1
10
50.9837133419288
20
8.85782863125764
30
0
41
1
10
50.7643743336317
20
8.4477128746889
30
0
0
SPLINE
5
1A2
100
AcDbEntity
8
1
62
256
6
ByLayer
370
25
48
1
60
0
100
AcDbSpline
70
4
71
3
72
15
73
11
40
0
40
0
40
0
40
0
40
0.148033963960672
40
0.29923064380525
40
0.370978072757186
40
0.466997370138551
40
0.647543192722626
40
0.830202748509911
40
0.927562976751689
40
1
40
1
40
1
40
1
41
1
10
53.9957044608119
20
11.6654547526627
30
0
41
1
10
53.8880793148336
20
11.6650088058796
30
0
41
1
10
53.670161304853
20
11.661954114796
30
0
41
1
10
53.3985165193308
20
11.6690547453226
30
0
41
1
10
53.165068560655
20
11.6510585038211
30
0
41
1
10
52.913243863505
20
11.6055359182204
30
0
41
1
10
52.5962533621414
20
11.4764425653237
30
0
41
1
10
52.3322738135167
20
11.2557765544232
30
0
41
1
10
52.1710779261467
20
11.0513356319727
30
0
41
1
10
52.1031264246864
20
10.9462966003821
30
0
41
1
10
52.0760511879383
20
10.9000392875583
30
0
0
SPLINE
5
1A3
100
AcDbEntity
8
1
62
256
6
ByLayer
370
25
48
1
60
0
100
AcDbSpline
70
4
71
2
72
6
73
3
40
0
40
0
40
0
40
1
40
1
40
1
41
1
10
53.9958713828865
20
11.6656440556141
30
0
41
1
10
55.019728646429
20
11.6699016360314
30
0
41
1
10
56.0532241106784
20
11.673920306507
30
0
0
SPLINE
5
1A4
100
AcDbEntity
8
1
62
256
6
ByLayer
370
25
48
1
60
0
100
AcDbSpline
70
4
71
1
72
4
73
2
40
0
40
0
40
1
40
1
41
1
10
56.0891981492895
20
11.6740581906224
30
0
41
1
10
56.1370775449407
20
11.6742396954807
30
0
0
SPLINE
5
1A5
100
AcDbEntity
8
1
62
256
6
ByLayer
370
25
48
1
60
0
100
AcDbSpline
70
4
71
1
72
4
73
2
40
0
40
0
40
1
40
1
41
1
10
53.9974919188722
20
12.2924429600338
30
0
41
1
10
53.9958826896287
20
11.66564503659
30
0
0
SPLINE
5
1A6
100
AcDbEntity
8
1
62
256
6
ByLayer
370
25
48
1
60
0
100
AcDbSpline
70
4
71
3
72
11
73
7
40
0
40
0
40
0
40
0
40
0.338439570947849
40
0.500003358542212
40
0.749763246918252
40
1
40
1
40
1
40
1
41
1
10
53.9974887623686
20
12.2925601000412
30
0
41
1
10
54.0635615802727
20
12.2933538029396
30
0
41
1
10
54.1611164376581
20
12.2946437119937
30
0
41
1
10
54.3074333034901
20
12.2964305657305
30
0
41
1
10
54.4360728499652
20
12.2991107339938
30
0
41
1
10
54.5329631790556
20
12.301733431992
30
0
41
1
10
54.5813632597937
20
12.3032303575738
30
0
0
SPLINE
5
1A7
100
AcDbEntity
8
1
62
256
6
ByLayer
370
25
48
1
60
0
100
AcDbSpline
70
4
71
3
72
10
73
6
40
0
40
0
40
0
40
0
40
0.366220242782537
40
0.743164862669052
40
1
40
1
40
1
40
1
41
1
10
50.1962531783735
20
8.61572719806069
30
0
41
1
10
50.1703133294748
20
8.53328280010414
30
0
41
1
10
50.1101962613759
20
8.36426091970798
30
0
41
1
10
50.0070787674339
20
8.12818460229405
30
0
41
1
10
49.9326126935003
20
7.98023428242281
30
0
41
1
10
49.9007617594918
20
7.92016430623825
30
0
0
SPLINE
5
1A8
100
AcDbEntity
8
1
62
256
6
ByLayer
370
25
48
1
60
0
100
AcDbSpline
70
4
71
1
72
4
73
2
40
0
40
0
40
1
40
1
41
1
10
50.1962472652621
20
8.61572969044786
30
0
41
1
10
50.6616067818992
20
8.32688176889536
30
0
0
SPLINE
5
1A9
100
AcDbEntity
8
1
62
256
6
ByLayer
370
25
48
1
60
0
100
AcDbSpline
70
4
71
3
72
10
73
6
40
0
40
0
40
0
40
0
40
0.261798199575642
40
0.517637008615482
40
1
40
1
40
1
40
1
41
1
10
50.6617398252745
20
8.32676411454086
30
0
41
1
10
50.7063382235321
20
8.29464792031699
30
0
41
1
10
50.798129371422
20
8.24164372775094
30
0
41
1
10
50.996707865664
20
8.18667897943965
30
0
41
1
10
51.1419159072341
20
8.17269052200105
30
0
41
1
10
51.2388191420468
20
8.17746736722917
30
0
0
SPLINE
5
1AA
100
AcDbEntity
8
1
62
256
6
ByLayer
370
25
48
1
60
0
100
AcDbSpline
70
4
71
3
72
17
73
13
40
0
40
0
40
0
40
0
40
0.508209933925589
40
0.94380368529896
40
0.944539060521267
40
0.94490652909788
40
0.944998373413852
40
0.945046580714289
40
0.945083043447461
40
0.945101328582772
40
0.972890034123247
40
1
40
1
40
1
40
1
41
1
10
51.2388191420468
20
8.17746736722917
30
0
41
1
10
51.3233316418498
20
8.18316900710036
30
0
41
1
10
51.4784980584475
20
8.17472826650014
30
0
41
1
10
51.638231394132
20
8.16071391571558
30
0
41
1
10
51.7077803132004
20
8.13287404202993
30
0
41
1
10
51.7079705236901
20
8.13279769863524
30
0
41
1
10
51.7080513231146
20
8.13276525075089
30
0
41
1
10
51.708079420712
20
8.13275395005284
30
0
41
1
10
51.7080958154148
20
8.13274738193149
30
0
41
1
10
51.7125343163757
20
8.13098886344506
30
0
41
1
10
51.721237155152
20
8.12732742334967
30
0
41
1
10
51.7297972850367
20
8.12328828701393
30
0
41
1
10
51.7339934796228
20
8.12120111844704
30
0
0
SPLINE
5
1AB
100
AcDbEntity
8
1
62
256
6
ByLayer
370
25
48
1
60
0
100
AcDbSpline
70
4
71
3
72
18
73
14
40
0
40
0
40
0
40
0
40
0.128439307360336
40
0.259359650132883
40
0.324357954713357
40
0.388948505619692
40
0.453370423297869
40
0.517705329781627
40
0.582288649350887
40
0.647229420794937
40
0.778153047160327
40
0.911377387619552
40
1
40
1
40
1
40
1
41
1
10
51.7437192685239
20
8.11605169030116
30
0
41
1
10
51.8512959880378
20
8.06157542162905
30
0
41
1
10
52.0418996739524
20
7.92662532331048
30
0
41
1
10
52.2310096370089
20
7.68923915268878
30
0
41
1
10
52.3204812690848
20
7.46711656411255
30
0
41
1
10
52.351556569804
20
7.29076428906373
30
0
41
1
10
52.3422131489453
20
7.11226169118395
30
0
41
1
10
52.2909685678013
20
6.94096059067479
30
0
41
1
10
52.2000184532696
20
6.78686237139531
30
0
41
1
10
52.0347844875325
20
6.61357330349771
30
0
41
1
10
51.7627223011437
20
6.46992809549331
30
0
41
1
10
51.438859999589
20
6.42823610227963
30
0
41
1
10
51.239577231847
20
6.44907160308308
30
0
41
1
10
51.1593866597867
20
6.46563755225743
30
0
0
SPLINE
5
1AC
100
AcDbEntity
8
1
62
256
6
ByLayer
370
25
48
1
60
0
100
AcDbSpline
70
4
71
1
72
4
73
2
40
0
40
0
40
1
40
1
41
1
10
51.1593866597867
20
6.46563755225743
30
0
41
1
10
51.030809031956
20
6.49460656480724
30
0
0
SPLINE
5
1AD
100
AcDbEntity
8
1
62
256
6
ByLayer
370
25
48
1
60
0
100
AcDbSpline
70
4
71
2
72
6
73
3
40
0
40
0
40
0
40
1
40
1
40
1
41
1
10
50.7109910872834
20
6.51107167106562
30
0
41
1
10
50.8712838387984
20
6.50931483998803
30
0
41
1
10
51.0308106891122
20
6.49462315201719
30
0
0
SPLINE
5
1AE
100
AcDbEntity
8
1
62
256
6
ByLayer
370
25
48
1
60
0
100
AcDbSpline
70
4
71
2
72
6
73
3
40
0
40
0
40
0
40
1
40
1
40
1
41
1
10
50.0592019734338
20
6.48204573226174
30
0
41
1
10
50.3791601430199
20
6.51270693335517
30
0
41
1
10
50.7109910832665
20
6.51107171181662
30
0
0
SPLINE
5
1AF
100
AcDbEntity
8
1
62
256
6
ByLayer
370
25
48
1
60
0
100
AcDbSpline
70
4
71
2
72
6
73
3
40
0
40
0
40
0
40
1
40
1
40
1
41
1
10
49.7559516641236
20
7.57455402636857
30
0
41
1
10
49.6077463575588
20
7.12883381390059
30
0
41
1
10
49.4257167740599
20
6.79056838380649
30
0
0
SPLINE
5
1B0
100
AcDbEntity
8
1
62
256
6
ByLayer
370
25
48
1
60
0
100
AcDbSpline
70
4
71
3
72
10
73
6
40
0
40
0
40
0
40
0
40
0.250591184603199
40
0.500059856542687
40
1
40
1
40
1
40
1
41
1
10
49.900761446334
20
7.92016373616496
30
0
41
1
10
49.8865128171205
20
7.89221547478637
30
0
41
1
10
49.8591632761789
20
7.83594793317811
30
0
41
1
10
49.8088798715524
20
7.72104354627967
30
0
41
1
10
49.7758661619169
20
7.63361564572537
30
0
41
1
10
49.7559516641236
20
7.57455402636857
30
0
0
SPLINE
5
1B1
100
AcDbEntity
8
1
62
256
6
ByLayer
370
25
48
1
60
0
100
AcDbSpline
70
4
71
1
72
4
73
2
40
0
40
0
40
1
40
1
41
1
10
51.5489219521875
20
11.1797343353843
30
0
41
1
10
51.7129889281208
20
11.4910843932695
30
0
0
SPLINE
5
1B2
100
AcDbEntity
8
1
62
256
6
ByLayer
370
25
48
1
60
0
100
AcDbSpline
70
4
71
2
72
6
73
3
40
0
40
0
40
0
40
1
40
1
40
1
41
1
10
51.7129889284002
20
11.4910843931259
30
0
41
1
10
51.9066940911735
20
11.8607120815961
30
0
41
1
10
52.2639426072607
20
12.0767761955114
30
0
0
SPLINE
5
1B3
100
AcDbEntity
8
1
62
256
6
ByLayer
370
25
48
1
60
0
100
AcDbSpline
70
4
71
3
72
10
73
6
40
0
40
0
40
0
40
0
40
0.325034472058388
40
0.65953177949961
40
1
40
1
40
1
40
1
41
1
10
52.2639426072607
20
12.0767761955114
30
0
41
1
10
52.3341423190203
20
12.118489339139
30
0
41
1
10
52.4810836669896
20
12.1902074673073
30
0
41
1
10
52.7219000496176
20
12.2603374700727
30
0
41
1
10
52.8883080727047
20
12.278648287526
30
0
41
1
10
52.9739552020276
20
12.2806980479597
30
0
0
SPLINE
5
1B4
100
AcDbEntity
8
1
62
256
6
ByLayer
370
25
48
1
60
0
100
AcDbSpline
70
4
71
3
72
10
73
6
40
0
40
0
40
0
40
0
40
0.307414134666967
40
0.642515280128207
40
1
40
1
40
1
40
1
41
1
10
52.9739553582939
20
12.2806929971469
30
0
41
1
10
53.0791421672914
20
12.281212408871
30
0
41
1
10
53.2987879514114
20
12.2827645749533
30
0
41
1
10
53.6395883110715
20
12.287893965106
30
0
41
1
10
53.8757017270567
20
12.2908676708604
30
0
41
1
10
53.9975199676653
20
12.2924746414304
30
0
0
SPLINE
5
1B5
100
AcDbEntity
8
1
62
256
6
ByLayer
370
25
48
1
60
0
100
AcDbSpline
70
4
71
3
72
57
73
53
40
0
40
0
40
0
40
0
40
0.0013818801435972
40
0.0090870332906171
40
0.0174258302347161
40
0.0225721340177574
40
0.0253905468653629
40
0.0261207343034543
40
0.0261469185282525
40
0.026170629193142
40
0.0262174334106176
40
0.0266663814149921
40
0.0270076933752101
40
0.0276182349529555
40
0.0287118616010821
40
0.030675562466927
40
0.146363795576179
40
0.302287779466579
40
0.50167839380492
40
0.750241157785224
40
0.809060324760665
40
0.840979507449565
40
0.857570119597026
40
0.866023639043874
40
0.870290009802129
40
0.872433105179399
40
0.873507131274313
40
0.874044764036783
40
0.874313735360988
40
0.874448259760593
40
0.87451553164497
40
0.874582809985867
40
0.876609151671506
40
0.892526100452915
40
0.936759145186332
40
0.967797016925088
40
0.978248585551719
40
0.981403877871781
40
0.982488344620665
40
0.983274689639762
40
0.985139772947596
40
0.987124577915436
40
0.992050452882741
40
0.997033361560529
40
0.997888779821066
40
0.998003674825436
40
0.998083982558791
40
0.998141219219688
40
0.998201891237644
40
0.998289439164278
40
0.998776584166839
40
1
40
1
40
1
40
1
41
1
10
51.1472557572682
20
6.31463622034371
30
0
41
1
10
51.1471958960259
20
6.31472106228703
30
0
41
1
10
51.146825253835
20
6.3152884524958
30
0
41
1
10
51.1466496019785
20
6.31662730843895
30
0
41
1
10
51.146437936774
20
6.31817987081496
30
0
41
1
10
51.1463264502359
20
6.31938490130997
30
0
41
1
10
51.1462968740686
20
6.32004723074537
30
0
41
1
10
51.1462627302175
20
6.32029913229272
30
0
41
1
10
51.1462676151458
20
6.32036347078042
30
0
41
1
10
51.1462571422258
20
6.32036667288494
30
0
41
1
10
51.1462212791613
20
6.32037511039766
30
0
41
1
10
51.1461752072158
20
6.32042432936184
30
0
41
1
10
51.1460895019794
20
6.32048144028135
30
0
41
1
10
51.1459674047341
20
6.32057353556368
30
0
41
1
10
51.145747115502
20
6.32073405840512
30
0
41
1
10
51.138659436259
20
6.32601978703733
30
0
41
1
10
51.1243458718408
20
6.3407266399375
30
0
41
1
10
51.1035707763364
20
6.36875536529205
30
0
41
1
10
51.0797140831917
20
6.40608825262793
30
0
41
1
10
51.0614965867309
20
6.4376276816884
30
0
41
1
10
51.0501005832522
20
6.45852907178695
30
0
41
1
10
51.0465580976356
20
6.46511046654033
30
0
41
1
10
51.0446909318663
20
6.46859170371089
30
0
41
1
10
51.0437334055142
20
6.47037966848629
30
0
41
1
10
51.043248628778
20
6.47128542944599
30
0
41
1
10
51.0430047360422
20
6.47174124857348
30
0
41
1
10
51.0428824134352
20
6.47196989198924
30
0
41
1
10
51.0428211577365
20
6.47208439692261
30
0
41
1
10
51.0427905067241
20
6.47214169537441
30
0
41
1
10
51.042775174804
20
6.47217035582284
30
0
41
1
10
51.0427664126687
20
6.47218673726031
30
0
41
1
10
51.042696020797
20
6.47231828106152
30
0
41
1
10
51.0421222577832
20
6.47342007666798
30
0
41
1
10
51.0401522865753
20
6.47722209170134
30
0
41
1
10
51.0373241496414
20
6.48277193904302
30
0
41
1
10
51.0344528763743
20
6.48789702294779
30
0
41
1
10
51.0336061132699
20
6.49076365803352
30
0
41
1
10
51.0334492577361
20
6.49172553574835
30
0
41
1
10
51.0334535106197
20
6.49205904770803
30
0
41
1
10
51.0335237296542
20
6.49230033795431
30
0
41
1
10
51.0337374889966
20
6.49255416454146
30
0
41
1
10
51.0342649690514
20
6.49290618849945
30
0
41
1
10
51.0351614768002
20
6.49311490108178
30
0
41
1
10
51.0359586754063
20
6.49307653640014
30
0
41
1
10
51.036410159494
20
6.4930748429305
30
0
41
1
10
51.0364856351344
20
6.49309462310619
30
0
41
1
10
51.0365026576545
20
6.49310252772036
30
0
41
1
10
51.0365109324866
20
6.49311484367476
30
0
41
1
10
51.0365052819398
20
6.49312867971558
30
0
41
1
10
51.0364716560537
20
6.49315836375386
30
0
41
1
10
51.0363466668411
20
6.49320847687731
30
0
41
1
10
51.0362317805439
20
6.49325319023923
30
0
41
1
10
51.0361416356751
20
6.49327310944576
30
0
0
SPLINE
5
1B6
100
AcDbEntity
8
1
62
256
6
ByLayer
370
25
48
1
60
0
100
AcDbSpline
70
4
71
2
72
6
73
3
40
0
40
0
40
0
40
1
40
1
40
1
41
1
10
52.6326770440487
20
5.06937482369125
30
0
41
1
10
52.5855553285158
20
5.12396911860997
30
0
41
1
10
52.5210004673338
20
5.18969596062462
30
0
0
SPLINE
5
1B7
100
AcDbEntity
8
1
62
256
6
ByLayer
370
25
48
1
60
0
100
AcDbSpline
70
4
71
3
72
14
73
10
40
0
40
0
40
0
40
0
40
0.268561937259588
40
0.505293872095734
40
0.639854421229309
40
0.756631486430877
40
0.889937624921764
40
0.946265855441366
40
1
40
1
40
1
40
1
41
1
10
52.5208183501388
20
5.18967162332666
30
0
41
1
10
52.5614962757465
20
5.19450752340287
30
0
41
1
10
52.6366852869668
20
5.20866278860907
30
0
41
1
10
52.7300665947788
20
5.23651691097756
30
0
41
1
10
52.7978536217431
20
5.26705024016264
30
0
41
1
10
52.8474075884399
20
5.29818743879947
30
0
41
1
10
52.8816898345144
20
5.33149237976415
30
0
41
1
10
52.8977132237271
20
5.36567525179569
30
0
41
1
10
52.9002870913718
20
5.38223459383961
30
0
41
1
10
52.9005696592457
20
5.39065631860938
30
0
0
SPLINE
5
1B8
100
AcDbEntity
8
1
62
256
6
ByLayer
370
25
48
1
60
0
100
AcDbSpline
70
4
71
2
72
6
73
3
40
0
40
0
40
0
40
1
40
1
40
1
41
1
10
52.9005695414954
20
5.3906563225055
30
0
41
1
10
52.9779386645235
20
5.39023738568454
30
0
41
1
10
53.0315621809319
20
5.39013371360577
30
0
0
SPLINE
5
1B9
100
AcDbEntity
8
1
62
256
6
ByLayer
370
25
48
1
60
0
100
AcDbSpline
70
4
71
3
72
13
73
9
40
0
40
0
40
0
40
0
40
0.0534848202386279
40
0.109775861735225
40
0.243518807595731
40
0.359211738299623
40
0.495110822446372
40
1
40
1
40
1
40
1
41
1
10
52.9005696592457
20
5.39065631860939
30
0
41
1
10
52.9003793360141
20
5.39903199218209
30
0
41
1
10
52.8980018677241
20
5.4155593431087
30
0
41
1
10
52.8823402825528
20
5.44986920776764
30
0
41
1
10
52.848702983412
20
5.48354964556247
30
0
41
1
10
52.7995319592325
20
5.51534742207215
30
0
41
1
10
52.6948080356408
20
5.56325901845701
30
0
41
1
10
52.6013018839851
20
5.58790815922227
30
0
41
1
10
52.5232490950777
20
5.59576673154608
30
0
0
SPLINE
5
1BA
100
AcDbEntity
8
1
62
256
6
ByLayer
370
25
48
1
60
0
100
AcDbSpline
70
4
71
3
72
10
73
6
40
0
40
0
40
0
40
0
40
0.241466349592009
40
0.500242055694941
40
1
40
1
40
1
40
1
41
1
10
52.6365120704057
20
5.71522176976417
30
0
41
1
10
52.6291165441321
20
5.70676966052702
30
0
41
1
10
52.6128709882336
20
5.68860761393535
30
0
41
1
10
52.5757376520186
20
5.64874494945955
30
0
41
1
10
52.545012805824
20
5.61730606958696
30
0
41
1
10
52.5233503382275
20
5.59575206063437
30
0
0
SPLINE
5
1BB
100
AcDbEntity
8
1
62
256
6
ByLayer
370
25
48
1
60
0
100
AcDbSpline
70
4
71
2
72
6
73
3
40
0
40
0
40
0
40
1
40
1
40
1
41
1
10
52.317248205987
20
4.80920594766043
30
0
41
1
10
52.3166851314763
20
4.73109174112027
30
0
41
1
10
52.3100162046709
20
4.6708859812842
30
0
0
SPLINE
5
1BC
100
AcDbEntity
8
1
62
256
6
ByLayer
370
25
48
1
60
0
100
AcDbSpline
70
4
71
3
72
13
73
9
40
0
40
0
40
0
40
0
40
0.0534847570253946
40
0.109775767233636
40
0.243518883066464
40
0.359211886986336
40
0.495110979971927
40
1
40
1
40
1
40
1
41
1
10
52.3172483294152
20
4.80920594330234
30
0
41
1
10
52.3255559693661
20
4.80940268475787
30
0
41
1
10
52.3419502296886
20
4.81180928318724
30
0
41
1
10
52.3759900236743
20
4.82761959923791
30
0
41
1
10
52.4094158214869
20
4.86155310597767
30
0
41
1
10
52.4409832306502
20
4.91114690646683
30
0
41
1
10
52.4885653561855
20
5.01675960947204
30
0
41
1
10
52.5130678362564
20
5.1110487523963
30
0
41
1
10
52.5209074671302
20
5.18974770537613
30
0
0
SPLINE
5
1BD
100
AcDbEntity
8
1
62
256
6
ByLayer
370
25
48
1
60
0
100
AcDbSpline
70
4
71
3
72
11
73
7
40
0
40
0
40
0
40
0
40
0.630175530014389
40
0.844003586884497
40
0.926183278274189
40
1
40
1
40
1
40
1
41
1
10
52.5233098351713
20
5.59575791134016
30
0
41
1
10
52.5209349879552
20
5.69973364778042
30
0
41
1
10
52.4825424640159
20
5.81855747444627
30
0
41
1
10
52.40625466962
20
5.94069163761072
30
0
41
1
10
52.3588199842247
20
5.97322034259756
30
0
41
1
10
52.3358114957443
20
5.97785128831399
30
0
41
1
10
52.3241925358764
20
5.97843062828633
30
0
0
SPLINE
5
1BE
100
AcDbEntity
8
1
62
256
6
ByLayer
370
25
48
1
60
0
100
AcDbSpline
70
4
71
2
72
6
73
3
40
0
40
0
40
0
40
1
40
1
40
1
41
1
10
52.3241723597039
20
5.97843073947858
30
0
41
1
10
52.3245174255196
20
6.05663464498371
30
0
41
1
10
52.3185394379152
20
6.11731900287249
30
0
0
SPLINE
5
1BF
100
AcDbEntity
8
1
62
256
6
ByLayer
370
25
48
1
60
0
100
AcDbSpline
70
4
71
3
72
14
73
10
40
0
40
0
40
0
40
0
40
0.268555291641284
40
0.5052877850605
40
0.639850619033978
40
0.756627460485578
40
0.889937285374116
40
0.946266020493785
40
1
40
1
40
1
40
1
41
1
10
52.1181203997689
20
5.19195979550857
30
0
41
1
10
52.1228930674061
20
5.15095157439729
30
0
41
1
10
52.1368889574554
20
5.0751540604886
30
0
41
1
10
52.1644620905271
20
4.98102254184524
30
0
41
1
10
52.1947072156249
20
4.91269588643208
30
0
41
1
10
52.2255624273076
20
4.86275208386978
30
0
41
1
10
52.2585765370376
20
4.82820692889011
30
0
41
1
10
52.2924722616783
20
4.81207119627925
30
0
41
1
10
52.3088953505706
20
4.80948587877422
30
0
41
1
10
52.3172483294152
20
4.80920594330234
30
0
0
SPLINE
5
1C0
100
AcDbEntity
8
1
62
256
6
ByLayer
370
25
48
1
60
0
100
AcDbSpline
70
4
71
3
72
13
73
9
40
0
40
0
40
0
40
0
40
0.0534854284212117
40
0.109776770981416
40
0.243518081689431
40
0.359210308233963
40
0.495109307386625
40
1
40
1
40
1
40
1
41
1
10
51.7408712060461
20
5.39698025298928
30
0
41
1
10
51.7410614944841
20
5.38860523828632
30
0
41
1
10
51.7434386350274
20
5.37207916337253
30
0
41
1
10
51.7590977865274
20
5.33777199298305
30
0
41
1
10
51.7927303771557
20
5.30409319949466
30
0
41
1
10
51.8418956614311
20
5.27229650411564
30
0
41
1
10
51.9466089739927
20
5.22438548286164
30
0
41
1
10
52.0401064328382
20
5.19973554030439
30
0
41
1
10
52.1181525289226
20
5.19187546743336
30
0
0
SPLINE
5
1C1
100
AcDbEntity
8
1
62
256
6
ByLayer
370
25
48
1
60
0
100
AcDbSpline
70
4
71
3
72
14
73
10
40
0
40
0
40
0
40
0
40
0.268563667681946
40
0.50529497767562
40
0.639855393763664
40
0.756632015236999
40
0.88993692597902
40
0.946265384785261
40
1
40
1
40
1
40
1
41
1
10
52.1205938507563
20
5.5979611571422
30
0
41
1
10
52.0799183443199
20
5.59312464588854
30
0
41
1
10
52.0047342599086
20
5.57896854808295
30
0
41
1
10
51.9113593288642
20
5.5511140914623
30
0
41
1
10
51.8435775199249
20
5.52058107913484
30
0
41
1
10
51.7940277470906
20
5.48944462491122
30
0
41
1
10
51.7597489514189
20
5.45614083975558
30
0
41
1
10
51.7437273610603
20
5.4219599148387
30
0
41
1
10
51.7411537430474
20
5.40540149879658
30
0
41
1
10
51.740871206056
20
5.39698025298923
30
0
0
SPLINE
5
1C2
100
AcDbEntity
8
1
62
256
6
ByLayer
370
25
48
1
60
0
100
AcDbSpline
70
4
71
3
72
13
73
9
40
0
40
0
40
0
40
0
40
0.0534850556399179
40
0.109775643397934
40
0.243514563978052
40
0.359207145651152
40
0.495104311414772
40
1
40
1
40
1
40
1
41
1
10
52.3241925358766
20
5.97843062829633
30
0
41
1
10
52.315885154554
20
5.97823382420331
30
0
41
1
10
52.2994914743131
20
5.97582725524439
30
0
41
1
10
52.2654532044898
20
5.96001839691576
30
0
41
1
10
52.2320282847138
20
5.92608741281391
30
0
41
1
10
52.2004615476037
20
5.8764967107718
30
0
41
1
10
52.1528788215142
20
5.77088786454578
30
0
41
1
10
52.1283757198528
20
5.67660154773231
30
0
41
1
10
52.1205355096642
20
5.59790417597378
30
0
0
SPLINE
5
1C3
100
AcDbEntity
8
1
62
256
6
ByLayer
370
25
48
1
60
0
100
AcDbSpline
70
4
71
2
72
6
73
3
40
0
40
0
40
0
40
1
40
1
40
1
41
1
10
51.7339330610991
20
8.12123122542502
30
0
41
1
10
51.7689960387213
20
8.19940369617573
30
0
41
1
10
51.8154421493777
20
8.28749553118907
30
0
0
SPLINE
5
1C4
100
AcDbEntity
8
1
62
256
6
ByLayer
370
25
48
1
60
0
100
AcDbSpline
70
4
71
2
72
6
73
3
40
0
40
0
40
0
40
1
40
1
40
1
41
1
10
51.9920593249502
20
5.07283988584263
30
0
41
1
10
52.0529286668337
20
5.12633219773243
30
0
41
1
10
52.1181309385788
20
5.19187839351016
30
0
0
SPLINE
5
1C5
100
AcDbEntity
8
1
62
256
6
ByLayer
370
25
48
1
60
0
100
AcDbSpline
70
4
71
2
72
6
73
3
40
0
40
0
40
0
40
1
40
1
40
1
41
1
10
51.995958216097
20
5.7186875627676
30
0
41
1
10
52.0556863214224
20
5.66369761272672
30
0
41
1
10
52.1205431046641
20
5.5979574498225
30
0
0
SPLINE
5
1C6
100
AcDbEntity
8
1
62
256
6
ByLayer
370
25
48
1
60
0
100
AcDbSpline
70
4
71
2
72
6
73
3
40
0
40
0
40
0
40
1
40
1
40
1
41
1
10
51.7408710766962
20
5.39698025783819
30
0
41
1
10
51.6632923986815
20
5.39740626675888
30
0
41
1
10
51.5970466259585
20
5.39795630140446
30
0
0
SPLINE
5
1C7
100
AcDbEntity
8
1
62
256
6
ByLayer
370
25
48
1
60
0
100
AcDbSpline
70
4
71
1
72
4
73
2
40
0
40
0
40
1
40
1
41
1
10
50.2689879993548
20
8.78668060923557
30
0
41
1
10
50.7643715648917
20
8.44774871132402
30
0
0
SPLINE
5
1C8
100
AcDbEntity
8
1
62
256
6
ByLayer
370
25
48
1
60
0
100
AcDbSpline
70
4
71
1
72
4
73
2
40
0
40
0
40
1
40
1
41
1
10
50.2689886097721
20
8.78668161036764
30
0
41
1
10
51.548921952193
20
11.1797343353922
30
0
0
SPLINE
5
1C9
100
AcDbEntity
8
1
62
256
6
ByLayer
370
25
48
1
60
0
100
AcDbSpline
70
4
71
2
72
6
73
3
40
0
40
0
40
0
40
1
40
1
40
1
41
1
10
51.2388151413292
20
8.17749402402877
30
0
41
1
10
51.2254133530323
20
8.26740055707564
30
0
41
1
10
51.2247935058452
20
8.36364385541595
30
0
0
SPLINE
5
1CA
100
AcDbEntity
8
1
62
256
6
ByLayer
370
25
48
1
60
0
100
AcDbSpline
70
4
71
1
72
4
73
2
40
0
40
0
40
1
40
1
41
1
10
50.6616067818992
20
8.32688176889536
30
0
41
1
10
50.7643156446102
20
8.44771335837459
30
0
0
SPLINE
5
1CB
100
AcDbEntity
8
1
62
256
6
ByLayer
370
25
48
1
60
0
100
AcDbSpline
70
4
71
3
72
10
73
6
40
0
40
0
40
0
40
0
40
0.259492976424389
40
0.519008279522364
40
1
40
1
40
1
40
1
41
1
10
50.1962532002932
20
8.61572720979786
30
0
41
1
10
50.2007302351077
20
8.63000069508674
30
0
41
1
10
50.2106404413367
20
8.65885904532459
30
0
41
1
10
50.2335916421704
20
8.71619415993475
30
0
41
1
10
50.254111845522
20
8.75877929107319
30
0
41
1
10
50.26898792757
20
8.78668059489688
30
0
0
SPLINE
5
1CC
100
AcDbEntity
8
1
62
256
6
ByLayer
370
25
48
1
60
0
100
AcDbSpline
70
4
71
3
72
12
73
8
40
0
40
0
40
0
40
0
40
0.0573009716925678
40
0.280031064926662
40
0.505395285878045
40
0.744943740650589
40
1
40
1
40
1
40
1
41
1
10
59.5910587063408
20
5.58420699767674
30
0
41
1
10
59.5975786503095
20
5.5881528608652
30
0
41
1
10
59.6285331170724
20
5.60846385901175
30
0
41
1
10
59.6780947540052
20
5.65614830531222
30
0
41
1
10
59.7234000647514
20
5.73537934897107
30
0
41
1
10
59.7445628307065
20
5.82529187239886
30
0
41
1
10
59.7413913860662
20
5.8836497696382
30
0
41
1
10
59.734917082752
20
5.91357379803307
30
0
0
SPLINE
5
1CD
100
AcDbEntity
8
1
62
256
6
ByLayer
370
25
48
1
60
0
100
AcDbSpline
70
4
71
3
72
13
73
9
40
0
40
0
40
0
40
0
40
0.212275459580099
40
0.386387479228184
40
0.561520337419865
40
0.714816097899346
40
0.917450657562085
40
1
40
1
40
1
40
1
41
1
10
60.2032605492152
20
6.75975552070804
30
0
41
1
10
60.1381774193811
20
6.74020890863904
30
0
41
1
10
60.027847119316
20
6.68391933494653
30
0
41
1
10
59.8814160287164
20
6.54613405846859
30
0
41
1
10
59.7814385316289
20
6.38065450578307
30
0
41
1
10
59.7220638164794
20
6.18949312682509
30
0
41
1
10
59.7151841828177
20
6.03364706876152
30
0
41
1
10
59.7291925199652
20
5.94019944943363
30
0
41
1
10
59.734917082752
20
5.91357379803307
30
0
0
SPLINE
5
1CE
100
AcDbEntity
8
1
62
256
6
ByLayer
370
25
48
1
60
0
100
AcDbSpline
70
4
71
3
72
11
73
7
40
0
40
0
40
0
40
0
40
0.284186181053578
40
0.569985742254245
40
0.828961092406595
40
1
40
1
40
1
40
1
41
1
10
60.2032605492152
20
6.75975552070804
30
0
41
1
10
60.2344805687548
20
6.76933995971603
30
0
41
1
10
60.2907224265721
20
6.79930593778087
30
0
41
1
10
60.3598608873465
20
6.87641307565934
30
0
41
1
10
60.394437503044
20
6.96525310704516
30
0
41
1
10
60.3997157485636
20
7.02164497341286
30
0
41
1
10
60.3995769107546
20
7.04500100040265
30
0
0
SPLINE
5
1CF
100
AcDbEntity
8
1
62
256
6
ByLayer
370
25
48
1
60
0
100
AcDbSpline
70
4
71
3
72
13
73
9
40
0
40
0
40
0
40
0
40
0.212275563556794
40
0.386387565009912
40
0.561520404343322
40
0.714816161336364
40
0.917450739141737
40
1
40
1
40
1
40
1
41
1
10
59.7058101900382
20
8.15634973315502
30
0
41
1
10
59.6922032765863
20
8.08530462870208
30
0
41
1
10
59.6884998197967
20
7.9541857839751
30
0
41
1
10
59.7366607707013
20
7.75044441154561
30
0
41
1
10
59.8287438336766
20
7.57937659052842
30
0
41
1
10
59.9603742129385
20
7.43633280585583
30
0
41
1
10
60.0867393834884
20
7.35940486420849
30
0
41
1
10
60.1710997790101
20
7.33009431895522
30
0
41
1
10
60.1959458976293
20
7.32337200535477
30
0
0
SPLINE
5
1D0
100
AcDbEntity
8
1
62
256
6
ByLayer
370
25
48
1
60
0
100
AcDbSpline
70
4
71
3
72
11
73
7
40
0
40
0
40
0
40
0
40
0.284186472106433
40
0.569985996508073
40
0.828961317192125
40
1
40
1
40
1
40
1
41
1
10
59.7058101900382
20
8.15634973315502
30
0
41
1
10
59.7122198540751
20
8.19041806077736
30
0
41
1
10
59.7128977874326
20
8.25812256760456
30
0
41
1
10
59.679326086636
20
8.36131693095817
30
0
41
1
10
59.6194323769074
20
8.43813456384064
30
0
41
1
10
59.5735412689226
20
8.47139172495649
30
0
41
1
10
59.5534379751277
20
8.48300047092768
30
0
0
SPLINE
5
1D1
100
AcDbEntity
8
1
62
256
6
ByLayer
370
25
48
1
60
0
100
AcDbSpline
70
4
71
3
72
12
73
8
40
0
40
0
40
0
40
0
40
0.0633880296714101
40
0.286000988160506
40
0.51159009452042
40
0.751639968867304
40
1
40
1
40
1
40
1
41
1
10
60.3995769107546
20
7.04500100040265
30
0
41
1
10
60.3994596352539
20
7.05348620897043
30
0
41
1
10
60.3974673696759
20
7.09136148901678
30
0
41
1
10
60.3812461999357
20
7.15829769288196
30
0
41
1
10
60.3368268871639
20
7.23464466960762
30
0
41
1
10
60.2725506203945
20
7.2932200387089
30
0
41
1
10
60.2231326024428
20
7.31602774153531
30
0
41
1
10
60.1959458976293
20
7.32337200535477
30
0
0
SPLINE
5
1D2
100
AcDbEntity
8
1
62
256
6
ByLayer
370
25
48
1
60
0
100
AcDbSpline
70
4
71
2
72
6
73
3
40
0
40
0
40
0
40
1
40
1
40
1
41
1
10
59.4346409241637
20
5.54273541437623
30
0
41
1
10
59.5165886570485
20
5.53998364438257
30
0
41
1
10
59.5910587063407
20
5.58420699767674
30
0
0
SPLINE
5
1D3
100
AcDbEntity
8
1
62
256
6
ByLayer
370
25
48
1
60
0
100
AcDbSpline
70
4
71
3
72
10
73
6
40
0
40
0
40
0
40
0
40
0.487588175569314
40
0.978313562610902
40
1
40
1
40
1
40
1
41
1
10
59.253084523642
20
5.62607130232493
30
0
41
1
10
59.2755139450089
20
5.60138072023341
30
0
41
1
10
59.3267614521402
20
5.56324770795282
30
0
41
1
10
59.3963389223393
20
5.54442547295483
30
0
41
1
10
59.4330808802676
20
5.54279245697585
30
0
41
1
10
59.4346409241637
20
5.54273541437623
30
0
0
SPLINE
5
1D4
100
AcDbEntity
8
1
62
256
6
ByLayer
370
25
48
1
60
0
100
AcDbSpline
70
4
71
3
72
10
73
6
40
0
40
0
40
0
40
0
40
0.244018580688194
40
0.60859945411386
40
1
40
1
40
1
40
1
41
1
10
59.4234562936465
20
8.52030093180447
30
0
41
1
10
59.4029844415343
20
8.52082914596223
30
0
41
1
10
59.3540820745888
20
8.5173176773348
30
0
41
1
10
59.2794111730119
20
8.48897521416035
30
0
41
1
10
59.2362010363042
20
8.45332969089264
30
0
41
1
10
59.2166890538917
20
8.43045459754472
30
0
0
SPLINE
5
1D5
100
AcDbEntity
8
1
62
256
6
ByLayer
370
25
48
1
60
0
100
AcDbSpline
70
4
71
3
72
10
73
6
40
0
40
0
40
0
40
0
40
0.180331410960988
40
0.813636722230435
40
1
40
1
40
1
40
1
41
1
10
59.5534379751277
20
8.48300047092767
30
0
41
1
10
59.5461023270974
20
8.48715681935456
30
0
41
1
10
59.5126880884102
20
8.50433972651745
30
0
41
1
10
59.4677348836891
20
8.51712539528665
30
0
41
1
10
59.4316983695732
20
8.52001924585782
30
0
41
1
10
59.4234562936465
20
8.52030093180447
30
0
0
SPLINE
5
1D6
100
AcDbEntity
8
1
62
256
6
ByLayer
370
25
48
1
60
0
100
AcDbSpline
70
4
71
3
72
10
73
6
40
0
40
0
40
0
40
0
40
0.180331410961124
40
0.813636722230404
40
1
40
1
40
1
40
1
41
1
10
57.9203417702435
20
5.56119122596375
30
0
41
1
10
57.9276780417069
20
5.55703485548394
30
0
41
1
10
57.9612882118432
20
5.53984501756753
30
0
41
1
10
58.0076260579062
20
5.52701036938284
30
0
41
1
10
58.045604455633
20
5.52404782786525
30
0
41
1
10
58.0543328603811
20
5.52374893883454
30
0
0
SPLINE
5
1D7
100
AcDbEntity
8
1
62
256
6
ByLayer
370
25
48
1
60
0
100
AcDbSpline
70
4
71
3
72
10
73
6
40
0
40
0
40
0
40
0
40
0.420489505399745
40
0.841816614128132
40
1
40
1
40
1
40
1
41
1
10
58.7045555426488
20
5.8162337529234
30
0
41
1
10
58.6344826960777
20
5.8054168229213
30
0
41
1
10
58.5040440302995
20
5.76933427119412
30
0
41
1
10
58.3685656085393
20
5.68638765233942
30
0
41
1
10
58.3025419896035
20
5.62923350775254
30
0
41
1
10
58.2853025280623
20
5.61273915191875
30
0
0
SPLINE
5
1D8
100
AcDbEntity
8
1
62
256
6
ByLayer
370
25
48
1
60
0
100
AcDbSpline
70
4
71
3
72
10
73
6
40
0
40
0
40
0
40
0
40
0.494848865875516
40
0.898966292198751
40
1
40
1
40
1
40
1
41
1
10
59.253084523642
20
5.62607130232493
30
0
41
1
10
59.2067178023629
20
5.67814606479698
30
0
41
1
10
59.1078867144776
20
5.75373546332124
30
0
41
1
10
58.9637915383963
20
5.80529637067832
30
0
41
1
10
58.885566397571
20
5.81671352244519
30
0
41
1
10
58.8696276602663
20
5.81850778396551
30
0
0
SPLINE
5
1D9
100
AcDbEntity
8
1
62
256
6
ByLayer
370
25
48
1
60
0
100
AcDbSpline
70
4
71
3
72
10
73
6
40
0
40
0
40
0
40
0
40
0.4204895053998
40
0.841816614128228
40
1
40
1
40
1
40
1
41
1
10
58.8383894107742
20
8.22551133822237
30
0
41
1
10
58.9059613212399
20
8.23641673473557
30
0
41
1
10
59.0288325181109
20
8.27276697325828
30
0
41
1
10
59.147222825187
20
8.3563180561312
30
0
41
1
10
59.2025157149216
20
8.41385178265591
30
0
41
1
10
59.2166890538919
20
8.43045459754455
30
0
0
SPLINE
5
1DA
100
AcDbEntity
8
1
62
256
6
ByLayer
370
25
48
1
60
0
100
AcDbSpline
70
4
71
3
72
10
73
6
40
0
40
0
40
0
40
0
40
0.494848865875533
40
0.898966292198774
40
1
40
1
40
1
40
1
41
1
10
58.2489070583121
20
8.41712244713854
30
0
41
1
10
58.3054929042927
20
8.36468619989814
30
0
41
1
10
58.4195017079699
20
8.28855991458198
30
0
41
1
10
58.5758287660577
20
8.23656632446951
30
0
41
1
10
58.6569056141083
20
8.22504829823875
30
0
41
1
10
58.6733172931567
20
8.22323730718026
30
0
0
SPLINE
5
1DB
100
AcDbEntity
8
1
62
256
6
ByLayer
370
25
48
1
60
0
100
AcDbSpline
70
4
71
3
72
10
73
6
40
0
40
0
40
0
40
0
40
0.487588175569386
40
0.978313562610955
40
1
40
1
40
1
40
1
41
1
10
58.2489070583121
20
8.41712244713855
30
0
41
1
10
58.2218523738109
20
8.44197664032411
30
0
41
1
10
58.1623652569512
20
8.48040111527891
30
0
41
1
10
58.085980090505
20
8.49946416136137
30
0
41
1
10
58.0466007218689
20
8.50119047141651
30
0
41
1
10
58.0449302149876
20
8.50125142146298
30
0
0
SPLINE
5
1DC
100
AcDbEntity
8
1
62
256
6
ByLayer
370
25
48
1
60
0
100
AcDbSpline
70
4
71
3
72
10
73
6
40
0
40
0
40
0
40
0
40
0.244018580688175
40
0.608599454113853
40
1
40
1
40
1
40
1
41
1
10
58.0543328603811
20
5.52374893883454
30
0
41
1
10
58.0760239819946
20
5.5231775950188
30
0
41
1
10
58.1284319491331
20
5.52656505879153
30
0
41
1
10
58.2111682920096
20
5.55462222021414
30
0
41
1
10
58.2616350597977
20
5.59001105206434
30
0
41
1
10
58.2853025280623
20
5.61273915191875
30
0
0
SPLINE
5
1DD
100
AcDbEntity
8
1
62
256
6
ByLayer
370
25
48
1
60
0
100
AcDbSpline
70
4
71
3
72
11
73
7
40
0
40
0
40
0
40
0
40
0.284186472106445
40
0.569985996508097
40
0.828961317192145
40
1
40
1
40
1
40
1
41
1
10
57.7957380976055
20
5.8868596971173
30
0
41
1
10
57.784735361971
20
5.85295384186622
30
0
41
1
10
57.7758792270621
20
5.78553862549977
30
0
41
1
10
57.79995321217
20
5.6826802282544
30
0
41
1
10
57.855155190312
20
5.60602855767841
30
0
41
1
10
57.9002543905642
20
5.57279940899921
30
0
41
1
10
57.9203417702435
20
5.56119122596375
30
0
0
SPLINE
5
1DE
100
AcDbEntity
8
1
62
256
6
ByLayer
370
25
48
1
60
0
100
AcDbSpline
70
4
71
2
72
6
73
3
40
0
40
0
40
0
40
1
40
1
40
1
41
1
10
58.0449302149876
20
8.50125142146298
30
0
41
1
10
57.9572538488182
20
8.5042058324593
30
0
41
1
10
57.8827210390304
20
8.45998469921468
30
0
0
SPLINE
5
1DF
100
AcDbEntity
8
1
62
256
6
ByLayer
370
25
48
1
60
0
100
AcDbSpline
70
4
71
3
72
12
73
8
40
0
40
0
40
0
40
0
40
0.0573009716925486
40
0.280031064926641
40
0.505395285878051
40
0.744943740650593
40
1
40
1
40
1
40
1
41
1
10
57.8827210390304
20
8.45998469921468
30
0
41
1
10
57.8762015548894
20
8.45603881976056
30
0
41
1
10
57.8454214207107
20
8.43572165488491
30
0
41
1
10
57.7977701547505
20
8.38796963234589
30
0
41
1
10
57.7581552664403
20
8.30853729933045
30
0
41
1
10
57.7457055301681
20
8.21831656677434
30
0
41
1
10
57.7560620985479
20
8.15970450757237
30
0
41
1
10
57.7666312048917
20
8.12963563223926
30
0
0
SPLINE
5
1E0
100
AcDbEntity
8
1
62
256
6
ByLayer
370
25
48
1
60
0
100
AcDbSpline
70
4
71
3
72
12
73
8
40
0
40
0
40
0
40
0
40
0.0633880296714102
40
0.28600098816051
40
0.511590094520409
40
0.751639968867305
40
1
40
1
40
1
40
1
41
1
10
57.0742028346166
20
6.99919069648877
30
0
41
1
10
57.0743207335441
20
6.99070546586829
30
0
41
1
10
57.0765099234665
20
6.95282321994637
30
0
41
1
10
57.0947320472267
20
6.885816235616
30
0
41
1
10
57.1449238955733
20
6.80926506491619
30
0
41
1
10
57.217903882388
20
6.75038181599975
30
0
41
1
10
57.2744329925104
20
6.72732256995598
30
0
41
1
10
57.3056023900144
20
6.71983742491756
30
0
0
SPLINE
5
1E1
100
AcDbEntity
8
1
62
256
6
ByLayer
370
25
48
1
60
0
100
AcDbSpline
70
4
71
3
72
13
73
9
40
0
40
0
40
0
40
0
40
0.212275563556792
40
0.38638756500991
40
0.561520404343324
40
0.71481616133637
40
0.917450739141736
40
1
40
1
40
1
40
1
41
1
10
57.7957380976055
20
5.8868596971173
30
0
41
1
10
57.8194640730628
20
5.95754685635558
30
0
41
1
10
57.8382088378423
20
6.08813363949283
30
0
41
1
10
57.8056484693926
20
6.29132316691607
30
0
41
1
10
57.715495666388
20
6.46232270815406
30
0
41
1
10
57.5733828440049
20
6.60573729205202
30
0
41
1
10
57.430622493625
20
6.68324518628395
30
0
41
1
10
57.334161823503
20
6.71298375889656
30
0
41
1
10
57.3056023900144
20
6.71983742491756
30
0
0
SPLINE
5
1E2
100
AcDbEntity
8
1
62
256
6
ByLayer
370
25
48
1
60
0
100
AcDbSpline
70
4
71
3
72
13
73
9
40
0
40
0
40
0
40
0
40
0.212275459580102
40
0.386387479228188
40
0.56152033741987
40
0.714816097899347
40
0.917450657562086
40
1
40
1
40
1
40
1
41
1
10
57.2982877384285
20
7.28345390956428
30
0
41
1
10
57.373489924685
20
7.30264257661611
30
0
41
1
10
57.4988615306373
20
7.35840008879327
30
0
41
1
10
57.6608932073359
20
7.49563352013606
30
0
41
1
10
57.762800970589
20
7.66104479282324
30
0
41
1
10
57.8116932468056
20
7.85257697085843
30
0
41
1
10
57.8021777002175
20
8.00900298152144
30
0
41
1
10
57.7760690863117
20
8.10287862828501
30
0
41
1
10
57.7666312048917
20
8.12963563223926
30
0
0
SPLINE
5
1E3
100
AcDbEntity
8
1
62
256
6
ByLayer
370
25
48
1
60
0
100
AcDbSpline
70
4
71
3
72
11
73
7
40
0
40
0
40
0
40
0
40
0.284186181053564
40
0.56998574225425
40
0.828961092406598
40
1
40
1
40
1
40
1
41
1
10
57.2982877384285
20
7.28345390956429
30
0
41
1
10
57.262474652265
20
7.27403194275162
30
0
41
1
10
57.1980545957131
20
7.24435525504788
30
0
41
1
10
57.1194184184719
20
7.16758408330518
30
0
41
1
10
57.0801500657389
20
7.07891001441858
30
0
41
1
10
57.0740799109926
20
7.02254616054038
30
0
41
1
10
57.0742028346166
20
6.99919069648877
30
0
0
SPLINE
5
1E4
100
AcDbEntity
8
1
62
256
6
ByLayer
370
25
48
1
60
0
100
AcDbSpline
70
4
71
3
72
11
73
7
40
0
40
0
40
0
40
0
40
0.247510300833591
40
0.495976676509519
40
0.747457896322997
40
1
40
1
40
1
40
1
41
1
10
58.9139046748196
20
-0.36836439257171
30
0
41
1
10
58.5726074255631
20
-0.385416310594992
30
0
41
1
10
57.8891703642511
20
-0.398340041348889
30
0
41
1
10
56.8589388100962
20
-0.353908320424614
30
0
41
1
10
55.8266730788217
20
-0.243556061696571
30
0
41
1
10
55.1423441345544
20
-0.124684817891389
30
0
41
1
10
54.8009236029828
20
-0.0538914669972704
30
0
0
SPLINE
5
1E5
100
AcDbEntity
8
1
62
256
6
ByLayer
370
25
48
1
60
0
100
AcDbSpline
70
4
71
3
72
16
73
12
40
0
40
0
40
0
40
0
40
0.134389713707121
40
0.268762564477116
40
0.408447313463779
40
0.548086744834645
40
0.63334076420038
40
0.718585201248818
40
0.806111462528476
40
0.893626618847237
40
1
40
1
40
1
40
1
41
1
10
54.8009236029828
20
-0.0538914669972704
30
0
41
1
10
54.3553482085277
20
0.0619442858232463
30
0
41
1
10
53.4798254120642
20
0.332838923227133
30
0
41
1
10
52.1897428766661
20
0.863907198175653
30
0
41
1
10
50.9461091151672
20
1.52470596392433
30
0
41
1
10
49.920408831499
20
2.21138409348227
30
0
41
1
10
49.1103306589163
20
2.86162160368069
30
0
41
1
10
48.4797489930197
20
3.43978498415488
30
0
41
1
10
47.8940913897999
20
4.05591065959737
30
0
41
1
10
47.3202218102696
20
4.75083012638591
30
0
41
1
10
46.9753883183812
20
5.24061755182602
30
0
41
1
10
46.8009236029827
20
5.51366832709561
30
0
0
SPLINE
5
1E6
100
AcDbEntity
8
1
62
256
6
ByLayer
370
25
48
1
60
0
100
AcDbSpline
70
4
71
1
72
4
73
2
40
0
40
0
40
1
40
1
41
1
10
46.8009236029827
20
5.51366832709561
30
0
41
1
10
46.7588991199867
20
5.57655335249559
30
0
0
SPLINE
5
1E7
100
AcDbEntity
8
1
62
256
6
ByLayer
370
25
48
1
60
0
100
AcDbSpline
70
4
71
3
72
18
73
14
40
0
40
0
40
0
40
0
40
0.110043715006328
40
0.220268430155722
40
0.330313353816233
40
0.424580087273821
40
0.519110959045832
40
0.613530181028549
40
0.707644204634387
40
0.779774635145774
40
0.852090300761437
40
0.924152583255812
40
1
40
1
40
1
40
1
41
1
10
46.7588991199867
20
5.57655335249559
30
0
41
1
10
47.1271571730133
20
5.32679467374303
30
0
41
1
10
47.8951698431299
20
4.84768578767708
30
0
41
1
10
49.1427460254816
20
4.1851391391191
30
0
41
1
10
50.4130444322323
20
3.6262477871633
30
0
41
1
10
51.6745507270012
20
3.18684422347122
30
0
41
1
10
52.910250641717
20
2.85413891181407
30
0
41
1
10
54.1936938495961
20
2.59170745112048
30
0
41
1
10
55.4198509514099
20
2.4099883578073
30
0
41
1
10
56.5826279687857
20
2.28140139405531
30
0
41
1
10
57.6653377298938
20
2.19123178145447
30
0
41
1
10
58.783517366613
20
2.13121567442123
30
0
41
1
10
59.5316741908612
20
2.11507758455412
30
0
41
1
10
59.9158232224711
20
2.112954762117
30
0
0
SPLINE
5
1E8
100
AcDbEntity
8
1
62
256
6
ByLayer
370
25
48
1
60
0
100
AcDbSpline
70
4
71
3
72
18
73
14
40
0
40
0
40
0
40
0
40
0.09929969937702
40
0.198592462043666
40
0.298417856540509
40
0.398197225054811
40
0.493891216242252
40
0.589524979479741
40
0.675487533208921
40
0.761443046391977
40
0.841549757550661
40
0.921685530815302
40
1
40
1
40
1
40
1
41
1
10
50.7974313162166
20
-11.0454457639629
30
0
41
1
10
50.8124486147694
20
-11.0054336245324
30
0
41
1
10
50.861921333151
20
-10.9263500295543
30
0
41
1
10
50.9953257584045
20
-10.8079541307455
30
0
41
1
10
51.1863180165115
20
-10.6969756166075
30
0
41
1
10
51.4266171849572
20
-10.6006357647375
30
0
41
1
10
51.7101211890431
20
-10.5263314265828
30
0
41
1
10
52.0150344872369
20
-10.4800662964903
30
0
41
1
10
52.3330771132331
20
-10.4644165611944
30
0
41
1
10
52.6437094996146
20
-10.4760344183892
30
0
41
1
10
52.9478440679535
20
-10.513618923408
30
0
41
1
10
53.2358793403128
20
-10.5716451773327
30
0
41
1
10
53.416922173826
20
-10.6219156569011
30
0
41
1
10
53.5043778588877
20
-10.6498293186998
30
0
0
SPLINE
5
1E9
100
AcDbEntity
8
1
62
256
6
ByLayer
370
25
48
1
60
0
100
AcDbSpline
70
4
71
1
72
4
73
2
40
0
40
0
40
1
40
1
41
1
10
54.1203682777072
20
-10.7805093613725
30
0
41
1
10
54.8009236029828
20
-10.7758503061888
30
0
0
SPLINE
5
1EA
100
AcDbEntity
8
1
62
256
6
ByLayer
370
25
48
1
60
0
100
AcDbSpline
70
4
71
2
72
6
73
3
40
0
40
0
40
0
40
1
40
1
40
1
41
1
10
53.5043778588877
20
-10.6498293186998
30
0
41
1
10
53.8240776876692
20
-10.6927207831275
30
0
41
1
10
54.1203682777072
20
-10.7805093613725
30
0
0
SPLINE
5
1EB
100
AcDbEntity
8
1
62
256
6
ByLayer
370
25
48
1
60
0
100
AcDbSpline
70
4
71
3
72
17
73
13
40
0
40
0
40
0
40
0
40
0.120412727471475
40
0.240713485082099
40
0.344295016918746
40
0.447802089778176
40
0.551906810473226
40
0.655963582185741
40
0.749501151614141
40
0.843035276311673
40
0.932685225529655
40
1
40
1
40
1
40
1
41
1
10
62.4264975464561
20
-7.01578070492167
30
0
41
1
10
62.4396954650063
20
-6.87623654999848
30
0
41
1
10
62.4391932808274
20
-6.59622215994067
30
0
41
1
10
62.366059202169
20
-6.18660035929332
30
0
41
1
10
62.2206382290788
20
-5.80520846824105
30
0
41
1
10
62.0160720713811
20
-5.46069804874801
30
0
41
1
10
61.741904648394
20
-5.14999855486591
30
0
41
1
10
61.4181795468062
20
-4.89512750848901
30
0
41
1
10
61.0591644261066
20
-4.70633484016496
30
0
41
1
10
60.6882918181216
20
-4.58274069634771
30
0
41
1
10
60.3347545257791
20
-4.52721510152157
30
0
41
1
10
60.1113038045871
20
-4.52206171227408
30
0
41
1
10
60.0146121179287
20
-4.5253442178383
30
0
0
SPLINE
5
1EC
100
AcDbEntity
8
1
62
256
6
ByLayer
370
25
48
1
60
0
100
AcDbSpline
70
4
71
1
72
4
73
2
40
0
40
0
40
1
40
1
41
1
10
64.0698533102613
20
-0.11053661962073
30
0
41
1
10
58.9139046748196
20
-0.36836439257171
30
0
0
SPLINE
5
1ED
100
AcDbEntity
8
1
62
256
6
ByLayer
370
25
48
1
60
0
100
AcDbSpline
70
4
71
2
72
6
73
3
40
0
40
0
40
0
40
1
40
1
40
1
41
1
10
54.8009236029828
20
-10.7758503061888
30
0
41
1
10
59.4383662219532
20
-10.7498986774532
30
0
41
1
10
64.0698533102613
20
-10.7242138248066
30
0
0
SPLINE
5
1EE
100
AcDbEntity
8
1
62
256
6
ByLayer
370
25
48
1
60
0
100
AcDbSpline
70
4
71
1
72
4
73
2
40
0
40
0
40
1
40
1
41
1
10
59.915823222471
20
2.112954762117
30
0
41
1
10
66.71313325785
20
2.07408497513075
30
0
0
SPLINE
5
1EF
100
AcDbEntity
8
1
62
256
6
ByLayer
370
25
48
1
60
0
100
AcDbSpline
70
4
71
1
72
4
73
2
40
0
40
0
40
1
40
1
41
1
10
66.71313325785
20
2.07408497513075
30
0
41
1
10
67.5066174521026
20
1.62516957417237
30
0
0
SPLINE
5
1F0
100
AcDbEntity
8
1
62
256
6
ByLayer
370
25
48
1
60
0
100
AcDbSpline
70
4
71
3
72
10
73
6
40
0
40
0
40
0
40
0
40
0.369904778341137
40
0.750562495818223
40
1
40
1
40
1
40
1
41
1
10
67.668527361895
20
1.44305616849302
30
0
41
1
10
67.6660142512679
20
1.46727386224467
30
0
41
1
10
67.6478319161321
20
1.51505380840681
30
0
41
1
10
67.5877871484966
20
1.5761496830177
30
0
41
1
10
67.531714964435
20
1.61154198140258
30
0
41
1
10
67.5066174521026
20
1.62516957417237
30
0
0
SPLINE
5
1F1
100
AcDbEntity
8
1
62
256
6
ByLayer
370
25
48
1
60
0
100
AcDbSpline
70
4
71
1
72
4
73
2
40
0
40
0
40
1
40
1
41
1
10
67.6729816171212
20
1.20391431537416
30
0
41
1
10
67.668527361895
20
1.44305616849302
30
0
0
SPLINE
5
1F2
100
AcDbEntity
8
1
62
256
6
ByLayer
370
25
48
1
60
0
100
AcDbSpline
70
4
71
3
72
17
73
13
40
0
40
0
40
0
40
0
40
0.102636042800788
40
0.20528137445804
40
0.307831521053486
40
0.410399302669897
40
0.515053050644706
40
0.619732460028638
40
0.729446747249763
40
0.839196167760827
40
0.919593024184092
40
1
40
1
40
1
40
1
41
1
10
64.0698533102613
20
-0.11053661962073
30
0
41
1
10
64.2737022148695
20
-0.101470706933485
30
0
41
1
10
64.6734899326531
20
-0.073546569995728
30
0
41
1
10
65.2572983858464
20
-0.00160814597306
30
0
41
1
10
65.8010581596599
20
0.0982689092200041
30
0
41
1
10
66.2974407451973
20
0.222833286070945
30
0
41
1
10
66.7304147489709
20
0.369721014719521
30
0
41
1
10
67.0973867371836
20
0.536863132322572
30
0
41
1
10
67.3811367204767
20
0.720067860856657
30
0
41
1
10
67.5587310220322
20
0.897057477372622
30
0
41
1
10
67.6498531098965
20
1.05939712102499
30
0
41
1
10
67.6708832809037
20
1.15568774616453
30
0
41
1
10
67.6729816171212
20
1.20391431537416
30
0
0
SPLINE
5
1F3
100
AcDbEntity
8
1
62
256
6
ByLayer
370
25
48
1
60
0
100
AcDbSpline
70
4
71
3
72
11
73
7
40
0
40
0
40
0
40
0
40
0.259637914488535
40
0.59006167270577
40
0.915459089816618
40
1
40
1
40
1
40
1
41
1
10
67.6497728054904
20
-7.85256367631176
30
0
41
1
10
67.651020794036
20
-7.8456439128723
30
0
41
1
10
67.6538526216821
20
-7.82717722077147
30
0
41
1
10
67.658529633976
20
-7.78719949877556
30
0
41
1
10
67.6618181893344
20
-7.74885365913121
30
0
41
1
10
67.6633493726274
20
-7.7273495496018
30
0
41
1
10
67.6636550604044
20
-7.72286916527972
30
0
0
SPLINE
5
1F4
100
AcDbEntity
8
1
62
256
6
ByLayer
370
25
48
1
60
0
100
AcDbSpline
70
4
71
1
72
4
73
2
40
0
40
0
40
1
40
1
41
1
10
67.6497728054904
20
-7.85256367631176
30
0
41
1
10
67.584460024691
20
-8.09525932344305
30
0
0
SPLINE
5
1F5
100
AcDbEntity
8
1
62
256
6
ByLayer
370
25
48
1
60
0
100
AcDbSpline
70
4
71
3
72
14
73
10
40
0
40
0
40
0
40
0
40
0.0611203768118002
40
0.210305581836488
40
0.358404767340199
40
0.511099235272948
40
0.671507807683634
40
0.839407694487399
40
1
40
1
40
1
40
1
41
1
10
67.5308339402732
20
-8.32072006684247
30
0
41
1
10
67.5310520703142
20
-8.31783485720286
30
0
41
1
10
67.5321332661145
20
-8.30698865762203
30
0
41
1
10
67.5361178766226
20
-8.28209911320027
30
0
41
1
10
67.5440533443086
20
-8.24383785073001
30
0
41
1
10
67.5540430129256
20
-8.2015642294121
30
0
41
1
10
67.5650928582802
20
-8.15888494337463
30
0
41
1
10
67.5758172437789
20
-8.12101568761126
30
0
41
1
10
67.5817733848096
20
-8.10275250371965
30
0
41
1
10
67.584460024691
20
-8.09525932344305
30
0
0
SPLINE
5
1F6
100
AcDbEntity
8
1
62
256
6
ByLayer
370
25
48
1
60
0
100
AcDbSpline
70
4
71
1
72
4
73
2
40
0
40
0
40
1
40
1
41
1
10
67.5078145689801
20
-8.56640745415572
30
0
41
1
10
67.5308339402732
20
-8.32072006684247
30
0
0
SPLINE
5
1F7
100
AcDbEntity
8
1
62
256
6
ByLayer
370
25
48
1
60
0
100
AcDbSpline
70
4
71
3
72
11
73
7
40
0
40
0
40
0
40
0
40
0.290776129127549
40
0.585318499269816
40
0.885541243798913
40
1
40
1
40
1
40
1
41
1
10
67.5078145689801
20
-8.56640745415572
30
0
41
1
10
67.5068695848577
20
-8.57461380208051
30
0
41
1
10
67.5036168929767
20
-8.59400390851362
30
0
41
1
10
67.4942338085422
20
-8.63406765542403
30
0
41
1
10
67.4839366060078
20
-8.67006139646912
30
0
41
1
10
67.4772717903336
20
-8.69096178644449
30
0
41
1
10
67.4753674428994
20
-8.69677517632689
30
0
0
SPLINE
5
1F8
100
AcDbEntity
8
1
62
256
6
ByLayer
370
25
48
1
60
0
100
AcDbSpline
70
4
71
1
72
4
73
2
40
0
40
0
40
1
40
1
41
1
10
67.3723072866466
20
-8.97446740696892
30
0
41
1
10
67.4753674428994
20
-8.69677517632689
30
0
0
SPLINE
5
1F9
100
AcDbEntity
8
1
62
256
6
ByLayer
370
25
48
1
60
0
100
AcDbSpline
70
4
71
3
72
11
73
7
40
0
40
0
40
0
40
0
40
0.259938926256236
40
0.596275496910228
40
0.959503055822142
40
1
40
1
40
1
40
1
41
1
10
67.3723072866466
20
-8.97446740696892
30
0
41
1
10
67.3663128888557
20
-8.98881725509814
30
0
41
1
10
67.3525049147178
20
-9.02003178911182
30
0
41
1
10
67.3291524353283
20
-9.06565717315537
30
0
41
1
10
67.3124272240081
20
-9.09246347597156
30
0
41
1
10
67.3044373347341
20
-9.10339613523486
30
0
41
1
10
67.3036438193041
20
-9.10446064463177
30
0
0
SPLINE
5
1FA
100
AcDbEntity
8
1
62
256
6
ByLayer
370
25
48
1
60
0
100
AcDbSpline
70
4
71
1
72
4
73
2
40
0
40
0
40
1
40
1
41
1
10
67.0896615968306
20
-9.34796699892789
30
0
41
1
10
67.303643819304
20
-9.10446064463177
30
0
0
SPLINE
5
1FB
100
AcDbEntity
8
1
62
256
6
ByLayer
370
25
48
1
60
0
100
AcDbSpline
70
4
71
3
72
14
73
10
40
0
40
0
40
0
40
0
40
0.0878848409340425
40
0.271075328759395
40
0.480833588174701
40
0.696906273126624
40
0.832797952009293
40
0.948009130945938
40
1
40
1
40
1
40
1
41
1
10
67.0896615968306
20
-9.34796699892789
30
0
41
1
10
67.0855925416449
20
-9.35197098790439
30
0
41
1
10
67.0725301067472
20
-9.36556006682302
30
0
41
1
10
67.0456582335964
20
-9.39781457266686
30
0
41
1
10
67.0089335179055
20
-9.44738880393135
30
0
41
1
10
66.975392204186
20
-9.49816168305998
30
0
41
1
10
66.9524075717541
20
-9.53864313500408
30
0
41
1
10
66.9420508365637
20
-9.56141951215298
30
0
41
1
10
66.9389606165551
20
-9.57114872984181
30
0
41
1
10
66.9382158789854
20
-9.57396116114417
30
0
0
SPLINE
5
1FC
100
AcDbEntity
8
1
62
256
6
ByLayer
370
25
48
1
60
0
100
AcDbSpline
70
4
71
1
72
4
73
2
40
0
40
0
40
1
40
1
41
1
10
66.8631194333773
20
-9.8199325291921
30
0
41
1
10
66.9382158789854
20
-9.57396116114417
30
0
0
SPLINE
5
1FD
100
AcDbEntity
8
1
62
256
6
ByLayer
370
25
48
1
60
0
100
AcDbSpline
70
4
71
3
72
12
73
8
40
0
40
0
40
0
40
0
40
0.0125042254455701
40
0.223954893506925
40
0.444403074954217
40
0.771094642410495
40
1
40
1
40
1
40
1
41
1
10
66.8631194333773
20
-9.8199325291921
30
0
41
1
10
66.8629871233909
20
-9.82030743832871
30
0
41
1
10
66.8605448353484
20
-9.82708935264074
30
0
41
1
10
66.8527405805342
20
-9.84361361861007
30
0
41
1
10
66.83224862434
20
-9.87730905869067
30
0
41
1
10
66.8051617650727
20
-9.9146593365847
30
0
41
1
10
66.7844142276544
20
-9.94011794004166
30
0
41
1
10
66.7754416123158
20
-9.95060142906082
30
0
0
SPLINE
5
1FE
100
AcDbEntity
8
1
62
256
6
ByLayer
370
25
48
1
60
0
100
AcDbSpline
70
4
71
1
72
4
73
2
40
0
40
0
40
1
40
1
41
1
10
66.510656651517
20
-10.2291755588766
30
0
41
1
10
66.7754416123158
20
-9.95060142906082
30
0
0
SPLINE
5
1FF
100
AcDbEntity
8
1
62
256
6
ByLayer
370
25
48
1
60
0
100
AcDbSpline
70
4
71
3
72
10
73
6
40
0
40
0
40
0
40
0
40
0.456630817600462
40
0.937105416375068
40
1
40
1
40
1
40
1
41
1
10
66.510656651517
20
-10.2291755588766
30
0
41
1
10
66.4829652750033
20
-10.2550171546623
30
0
41
1
10
66.4278290016074
20
-10.3020658737998
30
0
41
1
10
66.3686733079137
20
-10.3421542947868
30
0
41
1
10
66.3401711777672
20
-10.3579733032942
30
0
41
1
10
66.3368973363816
20
-10.3597418931748
30
0
0
SPLINE
5
200
100
AcDbEntity
8
1
62
256
6
ByLayer
370
25
48
1
60
0
100
AcDbSpline
70
4
71
2
72
6
73
3
40
0
40
0
40
0
40
1
40
1
40
1
41
1
10
66.3368973363816
20
-10.3597418931748
30
0
41
1
10
66.0804845276997
20
-10.498530575077
30
0
41
1
10
65.7665375066286
20
-10.6051916050053
30
0
0
SPLINE
5
201
100
AcDbEntity
8
1
62
256
6
ByLayer
370
25
48
1
60
0
100
AcDbSpline
70
4
71
3
72
10
73
6
40
0
40
0
40
0
40
0
40
0.339284853007633
40
0.846454346170175
40
1
40
1
40
1
40
1
41
1
10
65.4832605061399
20
-10.7190726406087
30
0
41
1
10
65.5170177242559
20
-10.7045265742389
30
0
41
1
10
65.5995115231469
20
-10.669908201695
30
0
41
1
10
65.695680298854
20
-10.6302534359408
30
0
41
1
10
65.7533344987116
20
-10.6097637443273
30
0
41
1
10
65.7665375066286
20
-10.6051916050053
30
0
0
SPLINE
5
202
100
AcDbEntity
8
1
62
256
6
ByLayer
370
25
48
1
60
0
100
AcDbSpline
70
4
71
3
72
12
73
8
40
0
40
0
40
0
40
0
40
0.101911240975725
40
0.332234739596132
40
0.562070870095439
40
0.876996457658711
40
1
40
1
40
1
40
1
41
1
10
65.4832605061399
20
-10.7190726406087
30
0
41
1
10
65.4485531592431
20
-10.7191026770993
30
0
41
1
10
65.3308347558045
20
-10.7192440085261
30
0
41
1
10
65.1067208417489
20
-10.7197046687285
30
0
41
1
10
64.7488279060483
20
-10.7208464312289
30
0
41
1
10
64.3867368995825
20
-10.7224597449708
30
0
41
1
10
64.1403892012951
20
-10.7238101556919
30
0
41
1
10
64.0698533102613
20
-10.7242138248066
30
0
0
SPLINE
5
203
100
AcDbEntity
8
1
62
256
6
ByLayer
370
25
48
1
60
0
100
AcDbSpline
70
4
71
1
72
4
73
2
40
0
40
0
40
1
40
1
41
1
10
67.6729816171212
20
-7.49664436414798
30
0
41
1
10
67.6636550604044
20
-7.72286916527972
30
0
0
SPLINE
5
204
100
AcDbEntity
8
1
62
256
6
ByLayer
370
25
48
1
60
0
100
AcDbSpline
70
4
71
1
72
4
73
2
40
0
40
0
40
1
40
1
41
1
10
38.910074101065
20
-11.3090560545015
30
0
41
1
10
38.8858863179914
20
-11.3055782168568
30
0
0
SPLINE
5
205
100
AcDbEntity
8
1
62
256
6
ByLayer
370
25
48
1
60
0
100
AcDbSpline
70
4
71
2
72
6
73
3
40
0
40
0
40
0
40
1
40
1
40
1
41
1
10
38.8858863179914
20
-11.3055782168568
30
0
41
1
10
38.8721389470724
20
-11.3010804031013
30
0
41
1
10
38.8820034671908
20
-11.2907537173042
30
0
0
SPLINE
5
206
100
AcDbEntity
8
1
62
256
6
ByLayer
370
25
48
1
60
0
100
AcDbSpline
70
4
71
2
72
6
73
3
40
0
40
0
40
0
40
1
40
1
40
1
41
1
10
39.1634798678138
20
-11.190459712985
30
0
41
1
10
39.0349059365974
20
-11.2718859732307
30
0
41
1
10
38.9448353125716
20
-11.3044499100014
30
0
0
SPLINE
5
207
100
AcDbEntity
8
1
62
256
6
ByLayer
370
25
48
1
60
0
100
AcDbSpline
70
4
71
3
72
16
73
12
40
0
40
0
40
0
40
0
40
0.039872797350794
40
0.12282445598499
40
0.205860792827326
40
0.341253198298527
40
0.476840666601892
40
0.616880604390238
40
0.756940544969848
40
0.878490710743261
40
1
40
1
40
1
40
1
41
1
10
39.1588504807959
20
11.1865227501491
30
0
41
1
10
39.1911618303986
20
11.1777433382652
30
0
41
1
10
39.2969052931654
20
11.1502597649325
30
0
41
1
10
39.5104877700734
20
11.1008480033649
30
0
41
1
10
39.874077458672
20
11.0271818334121
30
0
41
1
10
40.3626352237886
20
10.9436921926443
30
0
41
1
10
40.9853530981466
20
10.8593809901182
30
0
41
1
10
41.6533635526245
20
10.7940957495785
30
0
41
1
10
42.3220372519402
20
10.7548007191049
30
0
41
1
10
42.9706079966728
20
10.7428428824826
30
0
41
1
10
43.3799541492795
20
10.7514790933523
30
0
41
1
10
43.5847671333836
20
10.759752627941
30
0
0
SPLINE
5
208
100
AcDbEntity
8
1
62
256
6
ByLayer
370
25
48
1
60
0
100
AcDbSpline
70
4
71
3
72
20
73
16
40
0
40
0
40
0
40
0
40
0.0903963760125967
40
0.180990942867505
40
0.271287235186781
40
0.346881337507824
40
0.422699653822312
40
0.498237073780601
40
0.573552228812847
40
0.649063551285597
40
0.724382691434735
40
0.808937124300495
40
0.893812149254443
40
0.978269171255518
40
1
40
1
40
1
40
1
41
1
10
46.7588991199867
20
5.57655335249559
30
0
41
1
10
46.3533116415362
20
5.74993738990018
30
0
41
1
10
45.5635814842986
20
6.1183142487822
30
0
41
1
10
44.4411741863268
20
6.74143889519245
30
0
41
1
10
43.4541174510339
20
7.3770662627646
30
0
41
1
10
42.6087395292078
20
8.00605415171934
30
0
41
1
10
41.8956329838523
20
8.603788219234
30
0
41
1
10
41.2747825158266
20
9.18948359447339
30
0
41
1
10
40.7389759369423
20
9.73340175023203
30
0
41
1
10
40.2630195632534
20
10.2157568289589
30
0
41
1
10
39.8265265480337
20
10.6419558338283
30
0
41
1
10
39.4410007612975
20
10.9835490993201
30
0
41
1
10
39.1331827343721
20
11.2205044467536
30
0
41
1
10
38.9769384451229
20
11.3016666951104
30
0
41
1
10
38.9204407858535
20
11.309052714851
30
0
41
1
10
38.910074101065
20
11.3090560545015
30
0
0
SPLINE
5
209
100
AcDbEntity
8
1
62
256
6
ByLayer
370
25
48
1
60
0
100
AcDbSpline
70
4
71
3
72
17
73
13
40
0
40
0
40
0
40
0
40
0.0743424501692943
40
0.148797819015564
40
0.222338733751527
40
0.295954720077225
40
0.415987055905045
40
0.536192324973075
40
0.660344937399282
40
0.784515283329448
40
0.892275761232656
40
1
40
1
40
1
40
1
41
1
10
38.9356108980773
20
-11.2595799713272
30
0
41
1
10
38.9656475193223
20
-11.2460432244385
30
0
41
1
10
39.0493829051289
20
-11.2160704579552
30
0
41
1
10
39.2516020891853
20
-11.1606967580041
30
0
41
1
10
39.5103665389661
20
-11.1008875480393
30
0
41
1
10
39.874133368178
20
-11.0271635961522
30
0
41
1
10
40.3626173074573
20
-10.9436980368167
30
0
41
1
10
40.985358079384
20
-10.859379365276
30
0
41
1
10
41.6533621926511
20
-10.7940961931916
30
0
41
1
10
42.3220375648069
20
-10.7548006170501
30
0
41
1
10
42.9706079127892
20
-10.7428429098448
30
0
41
1
10
43.3799541492795
20
-10.7514790933523
30
0
41
1
10
43.5847671333836
20
-10.759752627941
30
0
0
SPLINE
5
20A
100
AcDbEntity
8
1
62
256
6
ByLayer
370
25
48
1
60
0
100
AcDbSpline
70
4
71
3
72
17
73
13
40
0
40
0
40
0
40
0
40
0.0227633075809669
40
0.114740727511379
40
0.206736238509749
40
0.301964778427205
40
0.397220659420172
40
0.497874421570129
40
0.598568585577513
40
0.70800247889048
40
0.817491011852972
40
1
40
1
40
1
40
1
41
1
10
60.0146121179287
20
-4.5253442178383
30
0
41
1
10
59.9825957337468
20
-4.52648547294216
30
0
41
1
10
59.8216078585113
20
-4.53524087180018
30
0
41
1
10
59.5326240604911
20
-4.57941669052848
30
0
41
1
10
59.1568411905421
20
-4.69507961580489
30
0
41
1
10
58.801101721887
20
-4.86690903126147
30
0
41
1
10
58.4676780965234
20
-5.0917733974266
30
0
41
1
10
58.1709418401272
20
-5.36373420408142
30
0
41
1
10
57.909670852943
20
-5.68227582797001
30
0
41
1
10
57.6985467685755
20
-6.0350725510855
30
0
41
1
10
57.5074908304049
20
-6.4968285312149
30
0
41
1
10
57.4370439596688
20
-6.83266618683133
30
0
41
1
10
57.4201427063529
20
-7.04449347447138
30
0
0
SPLINE
5
20B
100
AcDbEntity
8
1
62
256
6
ByLayer
370
25
48
1
60
0
100
AcDbSpline
70
4
71
3
72
10
73
6
40
0
40
0
40
0
40
0
40
0.0765075364576921
40
0.537141866551637
40
1
40
1
40
1
40
1
41
1
10
38.8820034671908
20
-11.2907537173042
30
0
41
1
10
38.8825812788531
20
-11.2901474808863
30
0
41
1
10
38.8870560313
20
-11.28578941965
30
0
41
1
10
38.9009526684196
20
-11.276302220351
30
0
41
1
10
38.9222741456258
20
-11.2655075510412
30
0
41
1
10
38.9351219933421
20
-11.259574077994
30
0
0
SPLINE
5
20C
100
AcDbEntity
8
1
62
256
6
ByLayer
370
25
48
1
60
0
100
AcDbSpline
70
4
71
1
72
4
73
2
40
0
40
0
40
1
40
1
41
1
10
38.8858863179914
20
-11.3055782168568
30
0
41
1
10
38.9155888063399
20
-11.2694625169338
30
0
0
SPLINE
5
20D
100
AcDbEntity
8
1
62
256
6
ByLayer
370
25
48
1
60
0
100
AcDbSpline
70
4
71
3
72
12
73
8
40
0
40
0
40
0
40
0
40
0.0151248316782211
40
0.263745503489297
40
0.521033026647279
40
0.768264469948512
40
1
40
1
40
1
40
1
41
1
10
42.548811598689
20
8.06367844064455
30
0
41
1
10
42.5566580942794
20
8.06898610485111
30
0
41
1
10
42.6942953220511
20
8.16234970133112
30
0
41
1
10
42.9991359129837
20
8.37819816627985
30
0
41
1
10
43.5024806246159
20
8.75706764143594
30
0
41
1
10
44.031596960316
20
9.17460348797052
30
0
41
1
10
44.3744653893979
20
9.4560814037942
30
0
41
1
10
44.5419693169158
20
9.59610928528902
30
0
0
SPLINE
5
20E
100
AcDbEntity
8
1
62
256
6
ByLayer
370
25
48
1
60
0
100
AcDbSpline
70
4
71
3
72
11
73
7
40
0
40
0
40
0
40
0
40
0.274820443465756
40
0.554361659029117
40
0.776482693769657
40
1
40
1
40
1
40
1
41
1
10
44.5419693169158
20
9.59610928528902
30
0
41
1
10
44.8368998708948
20
9.23775094531859
30
0
41
1
10
45.4637343828765
20
8.548519815464
30
0
41
1
10
46.436276121307
20
7.67400880399481
30
0
41
1
10
47.4133828416545
20
6.94459903632481
30
0
41
1
10
48.0466292376462
20
6.54725961523723
30
0
41
1
10
48.3728939543356
20
6.36050159641149
30
0
0
SPLINE
5
20F
100
AcDbEntity
8
1
62
256
6
ByLayer
370
25
48
1
60
0
100
AcDbSpline
70
4
71
3
72
10
73
6
40
0
40
0
40
0
40
0
40
0.340148561968646
40
0.69159976991305
40
1
40
1
40
1
40
1
41
1
10
48.3728939543356
20
6.3605015964115
30
0
41
1
10
48.3173752937108
20
6.25738002068726
30
0
41
1
10
48.1915199788366
20
6.0588437998276
30
0
41
1
10
47.9659825310482
20
5.80113124419202
30
0
41
1
10
47.7998654492931
20
5.65586777490478
30
0
41
1
10
47.7176789244965
20
5.59291082947272
30
0
0
SPLINE
5
210
100
AcDbEntity
8
1
62
256
6
ByLayer
370
25
48
1
60
0
100
AcDbSpline
70
4
71
3
72
10
73
6
40
0
40
0
40
0
40
0
40
0.0358999806138184
40
0.527545548552455
40
1
40
1
40
1
40
1
41
1
10
47.3298578410815
20
5.21954597676457
30
0
41
1
10
47.3337515763249
20
5.22435928814329
30
0
41
1
10
47.3913695357802
20
5.29490951985625
30
0
41
1
10
47.5134530140172
20
5.42403456094404
30
0
41
1
10
47.6475312362807
20
5.53884569049624
30
0
41
1
10
47.7176789244965
20
5.59291082947272
30
0
0
SPLINE
5
211
100
AcDbEntity
8
1
62
256
6
ByLayer
370
25
48
1
60
0
100
AcDbSpline
70
4
71
2
72
6
73
3
40
0
40
0
40
0
40
1
40
1
40
1
41
1
10
43.5847671333836
20
10.759752627941
30
0
41
1
10
44.0633682251497
20
10.177930956615
30
0
41
1
10
44.5419693169158
20
9.59610928528902
30
0
0
SPLINE
5
212
100
AcDbEntity
8
1
62
256
6
ByLayer
370
25
48
1
60
0
100
AcDbSpline
70
4
71
2
72
6
73
3
40
0
40
0
40
0
40
1
40
1
40
1
41
1
10
48.0758748985076
20
4.76229411228456
30
0
41
1
10
48.2205505037909
20
5.00560454978567
30
0
41
1
10
48.4201018375426
20
5.24661392095083
30
0
0
SPLINE
5
213
100
AcDbEntity
8
1
62
256
6
ByLayer
370
25
48
1
60
0
100
AcDbSpline
70
4
71
1
72
4
73
2
40
0
40
0
40
1
40
1
41
1
10
48.7937550663972
20
5.6041588125336
30
0
41
1
10
48.4201018375426
20
5.24661392095082
30
0
0
SPLINE
5
214
100
AcDbEntity
8
1
62
256
6
ByLayer
370
25
48
1
60
0
100
AcDbSpline
70
4
71
3
72
11
73
7
40
0
40
0
40
0
40
0
40
0.299795368196301
40
0.599569793795053
40
0.900952286252507
40
1
40
1
40
1
40
1
41
1
10
50.7974313162166
20
11.0454457639629
30
0
41
1
10
50.8124486147694
20
11.0054336245324
30
0
41
1
10
50.8619470428446
20
10.926338223716
30
0
41
1
10
50.9952355743583
20
10.8079955430733
30
0
41
1
10
51.1437646546888
20
10.7217311906055
30
0
41
1
10
51.2435118236204
20
10.6766419108357
30
0
41
1
10
51.2691512916469
20
10.6656942034641
30
0
0
SPLINE
5
215
100
AcDbEntity
8
1
62
256
6
ByLayer
370
25
48
1
60
0
100
AcDbSpline
70
4
71
2
72
6
73
3
40
0
40
0
40
0
40
1
40
1
40
1
41
1
10
67.2168390619982
20
-9.37853814292922
30
0
41
1
10
67.1653078080335
20
-9.4618619075625
30
0
41
1
10
67.108827967576
20
-9.5418438548116
30
0
0
SPLINE
5
216
100
AcDbEntity
8
1
62
256
6
ByLayer
370
25
48
1
60
0
100
AcDbSpline
70
4
71
3
72
15
73
11
40
0
40
0
40
0
40
0
40
0.112425674262108
40
0.452263857508756
40
0.718663145697985
40
0.789640689460839
40
0.836831225837908
40
0.88405741012626
40
0.931794677633093
40
1
40
1
40
1
40
1
41
1
10
67.1482235373672
20
-9.78862566967973
30
0
41
1
10
67.1495886406669
20
-9.7819810446794
30
0
41
1
10
67.1522269828499
20
-9.75440996409162
30
0
41
1
10
67.1336276688659
20
-9.69842238704628
30
0
41
1
10
67.100717504853
20
-9.65030053709679
30
0
41
1
10
67.0814512505492
20
-9.62374921294046
30
0
41
1
10
67.0796835446934
20
-9.60602453259864
30
0
41
1
10
67.0837421186068
20
-9.58761963108456
30
0
41
1
10
67.0934628821337
20
-9.56543483703935
30
0
41
1
10
67.102521789343
20
-9.55050897296486
30
0
41
1
10
67.1088215348863
20
-9.54184123929708
30
0
0
SPLINE
5
217
100
AcDbEntity
8
1
62
256
6
ByLayer
370
25
48
1
60
0
100
AcDbSpline
70
4
71
3
72
11
73
7
40
0
40
0
40
0
40
0
40
0.240536995309197
40
0.604257964060338
40
0.987687148721152
40
1
40
1
40
1
40
1
41
1
10
53.4601563804354
20
-10.7035647231758
30
0
41
1
10
53.4239784792273
20
-10.6812097716004
30
0
41
1
10
53.3326285984486
20
-10.6306867230152
30
0
41
1
10
53.1760833343905
20
-10.5903418245037
30
0
41
1
10
53.0622822466886
20
-10.5511540404635
30
0
41
1
10
53.0059557697351
20
-10.5296300975935
30
0
41
1
10
53.0042055914519
20
-10.5289587997953
30
0
0
SPLINE
5
218
100
AcDbEntity
8
1
62
256
6
ByLayer
370
25
48
1
60
0
100
AcDbSpline
70
4
71
3
72
12
73
8
40
0
40
0
40
0
40
0
40
0.210680225165972
40
0.597774346141337
40
0.853643926053718
40
0.974827492395402
40
1
40
1
40
1
40
1
41
1
10
65.7541154985909
20
-10.6365370958384
30
0
41
1
10
65.8166193525193
20
-10.6117161395528
30
0
41
1
10
65.9906294930901
20
-10.5466600872669
30
0
41
1
10
66.2283189213554
20
-10.5008205403592
30
0
41
1
10
66.4240456141332
20
-10.4431100980741
30
0
41
1
10
66.5215860557197
20
-10.3997888016748
30
0
41
1
10
66.5471712922552
20
-10.3894479297188
30
0
41
1
10
66.5514011314728
20
-10.3877326024012
30
0
0
SPLINE
5
219
100
AcDbEntity
8
1
62
256
6
ByLayer
370
25
48
1
60
0
100
AcDbSpline
70
4
71
2
72
6
73
3
40
0
40
0
40
0
40
1
40
1
40
1
41
1
10
53.7903460995184
20
-10.8644793597822
30
0
41
1
10
53.6153134880232
20
-10.8043858372368
30
0
41
1
10
53.4601576177384
20
-10.7035639992462
30
0
0
SPLINE
5
21A
100
AcDbEntity
8
1
62
256
6
ByLayer
370
25
48
1
60
0
100
AcDbSpline
70
4
71
3
72
16
73
12
40
0
40
0
40
0
40
0
40
0.0896878427725548
40
0.159694494760654
40
0.285477645946455
40
0.579467351643165
40
0.628233867143364
40
0.649268868142705
40
0.66858417099814
40
0.757396817869033
40
1
40
1
40
1
40
1
41
1
10
53.8283425700437
20
-11.1112697143625
30
0
41
1
10
53.8243992725835
20
-11.1053938252529
30
0
41
1
10
53.8192442537164
20
-11.0936249848139
30
0
41
1
10
53.808296481369
20
-11.0669892311498
30
0
41
1
10
53.838824344419
20
-11.0194475351459
30
0
41
1
10
53.9045054737854
20
-10.9807596680813
30
0
41
1
10
53.9523084624717
20
-10.9522468976683
30
0
41
1
10
53.9632431513139
20
-10.9434960067747
30
0
41
1
10
53.9561103350454
20
-10.9265886506111
30
0
41
1
10
53.8903563213622
20
-10.9012156619136
30
0
41
1
10
53.8388180020019
20
-10.8763370866988
30
0
41
1
10
53.7903538941459
20
-10.8644801289936
30
0
0
SPLINE
5
21B
100
AcDbEntity
8
1
62
256
6
ByLayer
370
25
48
1
60
0
100
AcDbSpline
70
4
71
3
72
24
73
20
40
0
40
0
40
0
40
0
40
0.0119031503547248
40
0.0238401798564477
40
0.0387831112347651
40
0.101338124030242
40
0.152373889864199
40
0.203469367503896
40
0.27518442914358
40
0.472106106166434
40
0.528033405732757
40
0.584012152859773
40
0.589681861334856
40
0.595375330633002
40
0.602245287161885
40
0.614195372691569
40
0.652973130128417
40
0.834604657952018
40
1
40
1
40
1
40
1
41
1
10
65.0724736771585
20
-11.0499564612101
30
0
41
1
10
65.0718472255571
20
-11.0493823321599
30
0
41
1
10
65.07153413035
20
-11.0480376020623
30
0
41
1
10
65.0742633756751
20
-11.0449959900214
30
0
41
1
10
65.0876475917333
20
-11.0374695326386
30
0
41
1
10
65.1101610680743
20
-11.0260329539768
30
0
41
1
10
65.1250931682525
20
-11.0078062254621
30
0
41
1
10
65.1271550992024
20
-10.9876782686874
30
0
41
1
10
65.1044705601681
20
-10.9533032474412
30
0
41
1
10
65.0539478352223
20
-10.9268274289985
30
0
41
1
10
65.0115520008383
20
-10.8996833437438
30
0
41
1
10
64.9886987107091
20
-10.8920854447007
30
0
41
1
10
64.9855462178513
20
-10.8831475560939
30
0
41
1
10
64.9864396355134
20
-10.8804377513102
30
0
41
1
10
64.9895038898988
20
-10.8770186894971
30
0
41
1
10
64.9999498803533
20
-10.8703092144206
30
0
41
1
10
65.0504503534864
20
-10.8512692920249
30
0
41
1
10
65.137878520826
20
-10.8302823650738
30
0
41
1
10
65.215449861692
20
-10.810424737675
30
0
41
1
10
65.2526569303785
20
-10.8019888254098
30
0
0
SPLINE
5
21C
100
AcDbEntity
8
1
62
256
6
ByLayer
370
25
48
1
60
0
100
AcDbSpline
70
4
71
2
72
6
73
3
40
0
40
0
40
0
40
1
40
1
40
1
41
1
10
67.1486425870849
20
-9.79843876044971
30
0
41
1
10
67.1481599373236
20
-9.79562475130417
30
0
41
1
10
67.1484719873762
20
-9.7927848671945
30
0
0
SPLINE
5
21D
100
AcDbEntity
8
1
62
256
6
ByLayer
370
25
48
1
60
0
100
AcDbSpline
70
4
71
2
72
6
73
3
40
0
40
0
40
0
40
1
40
1
40
1
41
1
10
53.8078805768325
20
-11.4016081206623
30
0
41
1
10
54.0018951598438
20
-11.4028703266381
30
0
41
1
10
54.1956410147381
20
-11.4046714517912
30
0
0
SPLINE
5
21E
100
AcDbEntity
8
1
62
256
6
ByLayer
370
25
48
1
60
0
100
AcDbSpline
70
4
71
2
72
6
73
3
40
0
40
0
40
0
40
1
40
1
40
1
41
1
10
53.8165344825245
20
-11.1211493821681
30
0
41
1
10
53.8210656964997
20
-11.1183291248868
30
0
41
1
10
53.8230986757846
20
-11.1154587635116
30
0
0
SPLINE
5
21F
100
AcDbEntity
8
1
62
256
6
ByLayer
370
25
48
1
60
0
100
AcDbSpline
70
4
71
3
72
11
73
7
40
0
40
0
40
0
40
0
40
0.117037863066835
40
0.240476600305153
40
0.493435152195023
40
1
40
1
40
1
40
1
41
1
10
53.8164944001077
20
-11.121149673891
30
0
41
1
10
53.8124552327266
20
-11.1273140519404
30
0
41
1
10
53.8139677959971
20
-11.1404412269459
30
0
41
1
10
53.8753710961918
20
-11.1746276881857
30
0
41
1
10
54.0087162027136
20
-11.212297151964
30
0
41
1
10
54.1292323281347
20
-11.2255193773983
30
0
41
1
10
54.2160775915632
20
-11.2234033372906
30
0
0
SPLINE
5
220
100
AcDbEntity
8
1
62
256
6
ByLayer
370
25
48
1
60
0
100
AcDbSpline
70
4
71
2
72
6
73
3
40
0
40
0
40
0
40
1
40
1
40
1
41
1
10
54.1956410144891
20
-11.4046714635222
30
0
41
1
10
54.2008955805251
20
-11.2784607381584
30
0
41
1
10
54.2160775916217
20
-11.2234033370384
30
0
0
SPLINE
5
221
100
AcDbEntity
8
1
62
256
6
ByLayer
370
25
48
1
60
0
100
AcDbSpline
70
4
71
3
72
12
73
8
40
0
40
0
40
0
40
0
40
0.263853101906816
40
0.471504858999369
40
0.680017402551283
40
0.870706487159897
40
1
40
1
40
1
40
1
41
1
10
67.0502208685429
20
-9.99521048487056
30
0
41
1
10
67.0678989867411
20
-9.97501189225459
30
0
41
1
10
67.0955144651961
20
-9.93870253257781
30
0
41
1
10
67.126881376805
20
-9.88221962086044
30
0
41
1
10
67.1436121388792
20
-9.83775196842731
30
0
41
1
10
67.149099945063
20
-9.81046242278848
30
0
41
1
10
67.1492054356551
20
-9.80113367011309
30
0
41
1
10
67.148650208037
20
-9.79843858460858
30
0
0
SPLINE
5
222
100
AcDbEntity
8
1
62
256
6
ByLayer
370
25
48
1
60
0
100
AcDbSpline
70
4
71
3
72
10
73
6
40
0
40
0
40
0
40
0
40
0.251507279318018
40
0.652391424280102
40
1
40
1
40
1
40
1
41
1
10
66.5755546725347
20
-10.378130615181
30
0
41
1
10
66.5950231449379
20
-10.3704684009633
30
0
41
1
10
66.6492603485778
20
-10.3448234437366
30
0
41
1
10
66.7610652614569
20
-10.2798734410559
30
0
41
1
10
66.8382134308883
20
-10.2153321487698
30
0
41
1
10
66.8749757808224
20
-10.1814650984225
30
0
0
SPLINE
5
223
100
AcDbEntity
8
1
62
256
6
ByLayer
370
25
48
1
60
0
100
AcDbSpline
70
4
71
1
72
4
73
2
40
0
40
0
40
1
40
1
41
1
10
51.5489219521875
20
-11.1797343353843
30
0
41
1
10
51.7129889281208
20
-11.4910843932695
30
0
0
SPLINE
5
224
100
AcDbEntity
8
1
62
256
6
ByLayer
370
25
48
1
60
0
100
AcDbSpline
70
4
71
1
72
4
73
2
40
0
40
0
40
1
40
1
41
1
10
51.2749773893153
20
-10.6675484574462
30
0
41
1
10
51.548921952193
20
-11.1797343353922
30
0
0
SPLINE
5
225
100
AcDbEntity
8
1
62
256
6
ByLayer
370
25
48
1
60
0
100
AcDbSpline
70
4
71
1
72
4
73
2
40
0
40
0
40
1
40
1
41
1
10
66.575554672558
20
-10.3781306151579
30
0
41
1
10
66.5617850809584
20
-10.3836587370972
30
0
0
SPLINE
5
226
100
AcDbEntity
8
1
62
256
6
ByLayer
370
25
48
1
60
0
100
AcDbSpline
70
4
71
2
72
6
73
3
40
0
40
0
40
0
40
1
40
1
40
1
41
1
10
53.8078807820085
20
-11.4016081590337
30
0
41
1
10
53.6600168644235
20
-11.3998351213552
30
0
41
1
10
53.5121548899327
20
-11.3978974515983
30
0
0
SPLINE
5
227
100
AcDbEntity
8
1
62
256
6
ByLayer
370
25
48
1
60
0
100
AcDbSpline
70
4
71
3
72
13
73
9
40
0
40
0
40
0
40
0
40
0.162188865039835
40
0.329081218221596
40
0.491270083318197
40
0.658162436454604
40
0.826443826480544
40
1
40
1
40
1
40
1
41
1
10
53.5121541812033
20
-11.3978974152506
30
0
41
1
10
53.4290501567759
20
-11.3934839954737
30
0
41
1
10
53.2637951209633
20
-11.3709705049719
30
0
41
1
10
53.0240382056447
20
-11.2954029911562
30
0
41
1
10
52.7987237700681
20
-11.1794192870504
30
0
41
1
10
52.5952032414656
20
-11.0265719856204
30
0
41
1
10
52.4162587990118
20
-10.8361219710239
30
0
41
1
10
52.3208671062648
20
-10.6903356867756
30
0
41
1
10
52.2784308794323
20
-10.6112527232853
30
0
0
SPLINE
5
228
100
AcDbEntity
8
1
62
256
6
ByLayer
370
25
48
1
60
0
100
AcDbSpline
70
4
71
2
72
6
73
3
40
0
40
0
40
0
40
1
40
1
40
1
41
1
10
65.0744711039629
20
-11.0597588921051
30
0
41
1
10
65.0722695443824
20
-11.0569991086133
30
0
41
1
10
65.0736560737174
20
-11.0541085129949
30
0
0
SPLINE
5
229
100
AcDbEntity
8
1
62
256
6
ByLayer
370
25
48
1
60
0
100
AcDbSpline
70
4
71
2
72
6
73
3
40
0
40
0
40
0
40
1
40
1
40
1
41
1
10
67.0502211129298
20
-9.99521058728728
30
0
41
1
10
66.9659873243973
20
-10.0915918729656
30
0
41
1
10
66.8749821713893
20
-10.1814683213934
30
0
0
SPLINE
5
22A
100
AcDbEntity
8
1
62
256
6
ByLayer
370
25
48
1
60
0
100
AcDbSpline
70
4
71
3
72
12
73
8
40
0
40
0
40
0
40
0
40
0.0572464911012877
40
0.116268749604151
40
0.24130012694534
40
0.494251404639109
40
1
40
1
40
1
40
1
41
1
10
65.0745268256105
20
-11.0597586614105
30
0
41
1
10
65.0751537998063
20
-11.0632187539721
30
0
41
1
10
65.0707467674958
20
-11.0707208324965
30
0
41
1
10
65.02755528164
20
-11.0908753865142
30
0
41
1
10
64.9377393363466
20
-11.1185139172717
30
0
41
1
10
64.7454257865872
20
-11.1554297659032
30
0
41
1
10
64.5810795591953
20
-11.1685579367959
30
0
41
1
10
64.4697337984517
20
-11.1674892741243
30
0
0
SPLINE
5
22B
100
AcDbEntity
8
1
62
256
6
ByLayer
370
25
48
1
60
0
100
AcDbSpline
70
4
71
2
72
6
73
3
40
0
40
0
40
0
40
1
40
1
40
1
41
1
10
53.5121408129549
20
-11.3978967948349
30
0
41
1
10
53.2420661847884
20
-11.8357150506057
30
0
41
1
10
52.9781277247936
20
-12.273713971844
30
0
0
SPLINE
5
22C
100
AcDbEntity
8
1
62
256
6
ByLayer
370
25
48
1
60
0
100
AcDbSpline
70
4
71
3
72
10
73
6
40
0
40
0
40
0
40
0
40
0.325034472058387
40
0.659531779499609
40
1
40
1
40
1
40
1
41
1
10
52.2639426072607
20
-12.0767761955114
30
0
41
1
10
52.3341423190203
20
-12.118489339139
30
0
41
1
10
52.4810836669896
20
-12.1902074673073
30
0
41
1
10
52.7219000496176
20
-12.2603374700727
30
0
41
1
10
52.8883080727046
20
-12.278648287526
30
0
41
1
10
52.9739552020276
20
-12.2806980479597
30
0
0
SPLINE
5
22D
100
AcDbEntity
8
1
62
256
6
ByLayer
370
25
48
1
60
0
100
AcDbSpline
70
4
71
2
72
6
73
3
40
0
40
0
40
0
40
1
40
1
40
1
41
1
10
51.7129889284002
20
-11.4910843931259
30
0
41
1
10
51.9066940911735
20
-11.8607120815961
30
0
41
1
10
52.2639426072607
20
-12.0767761955114
30
0
0
SPLINE
5
22E
100
AcDbEntity
8
1
62
256
6
ByLayer
370
25
48
1
60
0
100
AcDbSpline
70
4
71
2
72
6
73
3
40
0
40
0
40
0
40
1
40
1
40
1
41
1
10
65.9327950002149
20
-12.4622857366465
30
0
41
1
10
61.2778997870406
20
-12.5237579096341
30
0
41
1
10
56.6295219790415
20
-12.4089104891407
30
0
0
SPLINE
5
22F
100
AcDbEntity
8
1
62
256
6
ByLayer
370
25
48
1
60
0
100
AcDbSpline
70
4
71
3
72
12
73
8
40
0
40
0
40
0
40
0
40
0.173069520369264
40
0.336841607481312
40
0.500038912727161
40
0.745843059705408
40
1
40
1
40
1
40
1
41
1
10
54.8536590996551
20
-12.3104974867757
30
0
41
1
10
54.9607280072322
20
-12.3090032318701
30
0
41
1
10
55.1683868839837
20
-12.3080006288894
30
0
41
1
10
55.4753498571973
20
-12.3111340721895
30
0
41
1
10
55.8228075473793
20
-12.3228668412027
30
0
41
1
10
56.2141659656357
20
-12.3522985888734
30
0
41
1
10
56.4920738744609
20
-12.3875104242042
30
0
41
1
10
56.6295218666937
20
-12.4089106439282
30
0
0
SPLINE
5
230
100
AcDbEntity
8
1
62
256
6
ByLayer
370
25
48
1
60
0
100
AcDbSpline
70
4
71
2
72
6
73
3
40
0
40
0
40
0
40
1
40
1
40
1
41
1
10
54.8535605316194
20
-12.3104988654396
30
0
41
1
10
54.7180315914336
20
-12.3058056182107
30
0
41
1
10
54.5813635290523
20
-12.3032298981902
30
0
0
SPLINE
5
231
100
AcDbEntity
8
1
62
256
6
ByLayer
370
25
48
1
60
0
100
AcDbSpline
70
4
71
3
72
11
73
7
40
0
40
0
40
0
40
0
40
0.338439570947849
40
0.500003358542212
40
0.749763246918252
40
1
40
1
40
1
40
1
41
1
10
53.9974887623686
20
-12.2925601000412
30
0
41
1
10
54.0635615802727
20
-12.2933538029397
30
0
41
1
10
54.1611164376581
20
-12.2946437119937
30
0
41
1
10
54.3074333034901
20
-12.2964305657305
30
0
41
1
10
54.4360728499653
20
-12.2991107339938
30
0
41
1
10
54.5329631790555
20
-12.301733431992
30
0
41
1
10
54.5813632597937
20
-12.3032303575738
30
0
0
SPLINE
5
232
100
AcDbEntity
8
1
62
256
6
ByLayer
370
25
48
1
60
0
100
AcDbSpline
70
4
71
3
72
10
73
6
40
0
40
0
40
0
40
0
40
0.307414134666967
40
0.642515280128207
40
1
40
1
40
1
40
1
41
1
10
52.9739553582939
20
-12.2806929971469
30
0
41
1
10
53.0791421672914
20
-12.281212408871
30
0
41
1
10
53.2987879514114
20
-12.2827645749533
30
0
41
1
10
53.6395883110715
20
-12.287893965106
30
0
41
1
10
53.8757017270567
20
-12.2908676708604
30
0
41
1
10
53.9975199676653
20
-12.2924746414304
30
0
0
SPLINE
5
233
100
AcDbEntity
8
1
62
256
6
ByLayer
370
25
48
1
60
0
100
AcDbSpline
70
4
71
2
72
6
73
3
40
0
40
0
40
0
40
1
40
1
40
1
41
1
10
57.430512561193
20
-11.4203411079665
30
0
41
1
10
55.8126564959904
20
-11.4234190489993
30
0
41
1
10
54.1956410147381
20
-11.4046714517912
30
0
0
SPLINE
5
234
100
AcDbEntity
8
1
62
256
6
ByLayer
370
25
48
1
60
0
100
AcDbSpline
70
4
71
2
72
6
73
3
40
0
40
0
40
0
40
1
40
1
40
1
41
1
10
59.4516378944298
20
-11.4093198046417
30
0
41
1
10
58.4410989146145
20
-11.4186753142866
30
0
41
1
10
57.430512561193
20
-11.4203411079668
30
0
0
SPLINE
5
235
100
AcDbEntity
8
1
62
256
6
ByLayer
370
25
48
1
60
0
100
AcDbSpline
70
4
71
3
72
10
73
6
40
0
40
0
40
0
40
0
40
0.178259836699507
40
0.891321974509126
40
1
40
1
40
1
40
1
41
1
10
59.4516378944298
20
-11.4093198046417
30
0
41
1
10
59.7485969621537
20
-11.4066260630449
30
0
41
1
10
61.2335548166108
20
-11.3901076775252
30
0
41
1
10
62.899285120058
20
-11.358412579456
30
0
41
1
10
64.2695453904705
20
-11.3156736210867
30
0
41
1
10
64.4507790600365
20
-11.3097838760649
30
0
0
SPLINE
5
236
100
AcDbEntity
8
1
62
256
6
ByLayer
370
25
48
1
60
0
100
AcDbSpline
70
4
71
2
72
6
73
3
40
0
40
0
40
0
40
1
40
1
40
1
41
1
10
65.2300246376806
20
-11.2929411265291
30
0
41
1
10
64.8412453892799
20
-11.2997455727739
30
0
41
1
10
64.4507788334841
20
-11.3097838835127
30
0
0
SPLINE
5
237
100
AcDbEntity
8
1
62
256
6
ByLayer
370
25
48
1
60
0
100
AcDbSpline
70
4
71
2
72
6
73
3
40
0
40
0
40
0
40
1
40
1
40
1
41
1
10
66.3080518000886
20
-11.2573014491586
30
0
41
1
10
65.7690772349232
20
-11.2762156212767
30
0
41
1
10
65.230030485565
20
-11.2929409154987
30
0
0
SPLINE
5
238
100
AcDbEntity
8
1
62
256
6
ByLayer
370
25
48
1
60
0
100
AcDbSpline
70
4
71
1
72
4
73
2
40
0
40
0
40
1
40
1
41
1
10
65.9327950108505
20
-12.4622858015706
30
0
41
1
10
66.3080550152525
20
-11.2572912518215
30
0
0
SPLINE
5
239
100
AcDbEntity
8
1
62
256
6
ByLayer
370
25
48
1
60
0
100
AcDbSpline
70
4
71
2
72
6
73
3
40
0
40
0
40
0
40
1
40
1
40
1
41
1
10
64.4507788337869
20
-11.309783878051
30
0
41
1
10
64.4574000865759
20
-11.2148379776572
30
0
41
1
10
64.4697337984555
20
-11.1674892741141
30
0
0
SPLINE
5
23A
100
AcDbEntity
8
1
62
256
6
ByLayer
370
25
48
1
60
0
100
AcDbSpline
70
4
71
3
72
13
73
9
40
0
40
0
40
0
40
0
40
0.0886744039964196
40
0.465465127296526
40
0.721830302042852
40
0.840242075792989
40
0.939974096250269
40
1
40
1
40
1
40
1
41
1
10
67.5476212887736
20
-9.13228997857967
30
0
41
1
10
67.542111845551
20
-9.13809603550302
30
0
41
1
10
67.5106268964593
20
-9.16881196666417
30
0
41
1
10
67.4272464566041
20
-9.22598148781212
30
0
41
1
10
67.3347829872051
20
-9.27498296150741
30
0
41
1
10
67.2752479174087
20
-9.30894671942955
30
0
41
1
10
67.2404973684136
20
-9.34419197649908
30
0
41
1
10
67.2231336663697
20
-9.36863763848717
30
0
41
1
10
67.2168385026441
20
-9.37853793665415
30
0
0
SPLINE
5
23B
100
AcDbEntity
8
1
62
256
6
ByLayer
370
25
48
1
60
0
100
AcDbSpline
70
4
71
3
72
12
73
8
40
0
40
0
40
0
40
0
40
0.279148494460742
40
0.499327992580578
40
0.750511696084081
40
0.876132109739632
40
1
40
1
40
1
40
1
41
1
10
67.7601998645419
20
-8.53527911168874
30
0
41
1
10
67.7571002175158
20
-8.51668385609348
30
0
41
1
10
67.744908738211
20
-8.48325542187232
30
0
41
1
10
67.7040648882709
20
-8.42926195062521
30
0
41
1
10
67.6660732909158
20
-8.39160210116482
30
0
41
1
10
67.6362624228419
20
-8.34856953565312
30
0
41
1
10
67.6376592472079
20
-8.31072522784424
30
0
41
1
10
67.6410731021728
20
-8.28893526060244
30
0
0
SPLINE
5
23C
100
AcDbEntity
8
1
62
256
6
ByLayer
370
25
48
1
60
0
100
AcDbSpline
70
4
71
3
72
12
73
8
40
0
40
0
40
0
40
0
40
0.123779220721138
40
0.249702833044483
40
0.500646232758331
40
0.780403258642013
40
1
40
1
40
1
40
1
41
1
10
67.6679516859136
20
-8.12606868986502
30
0
41
1
10
67.6719680717208
20
-8.10399488355729
30
0
41
1
10
67.6831763991324
20
-8.0658100305856
30
0
41
1
10
67.7246734241294
20
-8.02473140380503
30
0
41
1
10
67.778601349524
20
-7.98312343510856
30
0
41
1
10
67.8343516063261
20
-7.92865821540335
30
0
41
1
10
67.8548599009392
20
-7.89522382078374
30
0
41
1
10
67.8615663223966
20
-7.8805685098158
30
0
0
SPLINE
5
23D
100
AcDbEntity
8
1
62
256
6
ByLayer
370
25
48
1
60
0
100
AcDbSpline
70
4
71
3
72
11
73
7
40
0
40
0
40
0
40
0
40
0.346801422403393
40
0.620494093756213
40
0.932434939655627
40
1
40
1
40
1
40
1
41
1
10
67.8442571864376
20
-7.28481121571389
30
0
41
1
10
67.8340418749558
20
-7.2654909722858
30
0
41
1
10
67.8092163162447
20
-7.23107413572973
30
0
41
1
10
67.7493572610157
20
-7.17802829197054
30
0
41
1
10
67.7031977265954
20
-7.14373235212601
30
0
41
1
10
67.6771103227228
20
-7.12087580878495
30
0
41
1
10
67.6724558351363
20
-7.1167709960192
30
0
0
SPLINE
5
23E
100
AcDbEntity
8
1
62
256
6
ByLayer
370
25
48
1
60
0
100
AcDbSpline
70
4
71
2
72
6
73
3
40
0
40
0
40
0
40
1
40
1
40
1
41
1
10
67.6754822809539
20
-6.70280935756742
30
0
41
1
10
67.7004528596667
20
-6.66483030307772
30
0
41
1
10
67.7032443406867
20
-6.6314196002488
30
0
0
SPLINE
5
23F
100
AcDbEntity
8
1
62
256
6
ByLayer
370
25
48
1
60
0
100
AcDbSpline
70
4
71
2
72
6
73
3
40
0
40
0
40
0
40
1
40
1
40
1
41
1
10
67.5581917681334
20
-9.12276023924203
30
0
41
1
10
67.5548679160923
20
-9.12548423946218
30
0
41
1
10
67.5521741764182
20
-9.1282485643684
30
0
0
SPLINE
5
240
100
AcDbEntity
8
1
62
256
6
ByLayer
370
25
48
1
60
0
100
AcDbSpline
70
4
71
3
72
11
73
7
40
0
40
0
40
0
40
0
40
0.248822897706951
40
0.495762248333838
40
0.79202096395449
40
1
40
1
40
1
40
1
41
1
10
67.5581972854336
20
-9.12276043944437
30
0
41
1
10
67.5653324460523
20
-9.11697980654114
30
0
41
1
10
67.5822452210948
20
-9.09992011909355
30
0
41
1
10
67.6209547333891
20
-9.05320518959966
30
0
41
1
10
67.6601054247558
20
-8.99436303451801
30
0
41
1
10
67.681231128183
20
-8.94763900508463
30
0
41
1
10
67.6894879141775
20
-8.92702250794263
30
0
0
SPLINE
5
241
100
AcDbEntity
8
1
62
256
6
ByLayer
370
25
48
1
60
0
100
AcDbSpline
70
4
71
3
72
12
73
8
40
0
40
0
40
0
40
0
40
0.213053726172868
40
0.426266412127642
40
0.638662715292425
40
0.868581408789569
40
1
40
1
40
1
40
1
41
1
10
67.7536711328618
20
-8.74137029354585
30
0
41
1
10
67.7595747712806
20
-8.72191577806751
30
0
41
1
10
67.7686725940745
20
-8.6844738792113
30
0
41
1
10
67.7733566207121
20
-8.62970479313119
30
0
41
1
10
67.771490350785
20
-8.5844181919374
30
0
41
1
10
67.7669052515717
20
-8.55715698596635
30
0
41
1
10
67.7641442121799
20
-8.5476079997713
30
0
41
1
10
67.7630721428991
20
-8.54507853207869
30
0
0
SPLINE
5
242
100
AcDbEntity
8
1
62
256
6
ByLayer
370
25
48
1
60
0
100
AcDbSpline
70
4
71
2
72
6
73
3
40
0
40
0
40
0
40
1
40
1
40
1
41
1
10
67.7630641341043
20
-8.54507876987786
30
0
41
1
10
67.7619506398486
20
-8.54226957761478
30
0
41
1
10
67.7614735376969
20
-8.53943261998594
30
0
0
SPLINE
5
243
100
AcDbEntity
8
1
62
256
6
ByLayer
370
25
48
1
60
0
100
AcDbSpline
70
4
71
2
72
6
73
3
40
0
40
0
40
0
40
1
40
1
40
1
41
1
10
67.86709925438
20
-7.87106624293762
30
0
41
1
10
67.8652334594305
20
-7.87378948248408
30
0
41
1
10
67.8639718641767
20
-7.87653880755231
30
0
0
SPLINE
5
244
100
AcDbEntity
8
1
62
256
6
ByLayer
370
25
48
1
60
0
100
AcDbSpline
70
4
71
3
72
11
73
7
40
0
40
0
40
0
40
0
40
0.270363930059724
40
0.540212249799701
40
0.806433180977753
40
1
40
1
40
1
40
1
41
1
10
67.8671054935673
20
-7.87106639312755
30
0
41
1
10
67.8712392551224
20
-7.8654978413991
30
0
41
1
10
67.8803222801402
20
-7.84734388340886
30
0
41
1
10
67.8992544545501
20
-7.79785004025277
30
0
41
1
10
67.913345814838
20
-7.73682388708773
30
0
41
1
10
67.9158813544055
20
-7.6945617085406
30
0
41
1
10
67.9161299786975
20
-7.67577183974445
30
0
0
SPLINE
5
245
100
AcDbEntity
8
1
62
256
6
ByLayer
370
25
48
1
60
0
100
AcDbSpline
70
4
71
2
72
6
73
3
40
0
40
0
40
0
40
1
40
1
40
1
41
1
10
67.8503952685548
20
-7.29459304835091
30
0
41
1
10
67.8483555280243
20
-7.29179262397416
30
0
41
1
10
67.846919312949
20
-7.28895717948079
30
0
0
SPLINE
5
246
100
AcDbEntity
8
1
62
256
6
ByLayer
370
25
48
1
60
0
100
AcDbSpline
70
4
71
2
72
6
73
3
40
0
40
0
40
0
40
1
40
1
40
1
41
1
10
67.7056517375862
20
-6.62193713264573
30
0
41
1
10
67.7046653880783
20
-6.62465883826259
30
0
41
1
10
67.7043259143876
20
-6.62739987316261
30
0
0
SPLINE
5
247
100
AcDbEntity
8
1
62
256
6
ByLayer
370
25
48
1
60
0
100
AcDbSpline
70
4
71
3
72
12
73
8
40
0
40
0
40
0
40
0
40
0.212723127156988
40
0.424609556878174
40
0.663904594156989
40
0.930411664865093
40
1
40
1
40
1
40
1
41
1
10
67.9108536823905
20
-7.49049903269252
30
0
41
1
10
67.9093554827138
20
-7.4696854904895
30
0
41
1
10
67.9044745209822
20
-7.43057803473387
30
0
41
1
10
67.8889423135321
20
-7.37526744575503
30
0
41
1
10
67.8699793505342
20
-7.3282936403581
30
0
41
1
10
67.8566011902129
20
-7.30371318569881
30
0
41
1
10
67.8514019032819
20
-7.29594695712562
30
0
41
1
10
67.8504013514856
20
-7.29459282167048
30
0
0
SPLINE
5
248
100
AcDbEntity
8
1
62
256
6
ByLayer
370
25
48
1
60
0
100
AcDbSpline
70
4
71
3
72
12
73
8
40
0
40
0
40
0
40
0
40
0.282248081249214
40
0.512157754119225
40
0.742715494029603
40
0.956408688046603
40
1
40
1
40
1
40
1
41
1
10
67.7056601059884
20
-6.62193727659323
30
0
41
1
10
67.70815116369
20
-6.61629973058452
30
0
41
1
10
67.7108989884577
20
-6.59865012436353
30
0
41
1
10
67.7122939193077
20
-6.55170283413981
30
0
41
1
10
67.7059836189554
20
-6.49647704054049
30
0
41
1
10
67.6941864006792
20
-6.45287326301832
30
0
41
1
10
67.6860953028171
20
-6.43076949174859
30
0
41
1
10
67.6846663612734
20
-6.42702399712328
30
0
0
SPLINE
5
249
100
AcDbEntity
8
1
62
256
6
ByLayer
370
25
48
1
60
0
100
AcDbSpline
70
4
71
1
72
4
73
2
40
0
40
0
40
1
40
1
41
1
10
67.6732172980857
20
-6.39742710060646
30
0
41
1
10
67.684665193354
20
-6.42702428695286
30
0
0
SPLINE
5
24A
100
AcDbEntity
8
1
62
256
6
ByLayer
370
25
48
1
60
0
100
AcDbSpline
70
4
71
3
72
10
73
6
40
0
40
0
40
0
40
0
40
0.335398606941484
40
0.674670247522465
40
1
40
1
40
1
40
1
41
1
10
68.2508764101246
20
-6.60683280699094
30
0
41
1
10
68.3161546808753
20
-6.88987921358868
30
0
41
1
10
68.4217627489997
20
-7.46235920935146
30
0
41
1
10
68.5084763303736
20
-8.32414042553756
30
0
41
1
10
68.5070671582806
20
-8.89782684982144
30
0
41
1
10
68.493309804279
20
-9.17950509180635
30
0
0
SPLINE
5
24B
100
AcDbEntity
8
1
62
256
6
ByLayer
370
25
48
1
60
0
100
AcDbSpline
70
4
71
3
72
16
73
12
40
0
40
0
40
0
40
0
40
0.1184594054937
40
0.236930045182618
40
0.355326440026349
40
0.473724766324804
40
0.593338304567602
40
0.712940234176225
40
0.831579620431595
40
0.950204067922086
40
1
40
1
40
1
40
1
41
1
10
68.4933098042833
20
-9.17950509180857
30
0
41
1
10
68.487619971695
20
-9.3029139706388
30
0
41
1
10
68.4564372243235
20
-9.54484559683991
30
0
41
1
10
68.3493742917048
20
-9.89782119311149
30
0
41
1
10
68.1847536653747
20
-10.2263766823528
30
0
41
1
10
67.9684653200974
20
-10.5246637482288
30
0
41
1
10
67.7040403670232
20
-10.782272707156
30
0
41
1
10
67.4005890167848
20
-10.9922626253254
30
0
41
1
10
67.0665423321892
20
-11.1453157140873
30
0
41
1
10
66.7805688570723
20
-11.2209718176154
30
0
41
1
10
66.6098167548856
20
-11.2435396748636
30
0
41
1
10
66.5589193039002
20
-11.2483789638599
30
0
0
SPLINE
5
24C
100
AcDbEntity
8
1
62
256
6
ByLayer
370
25
48
1
60
0
100
AcDbSpline
70
4
71
2
72
6
73
3
40
0
40
0
40
0
40
1
40
1
40
1
41
1
10
66.558921126872
20
-11.2483790226109
30
0
41
1
10
66.4377277647099
20
-11.2527467334149
30
0
41
1
10
66.3165304679909
20
-11.2570037726358
30
0
0
SPLINE
5
24D
100
AcDbEntity
8
1
62
256
6
ByLayer
370
25
48
1
60
0
100
AcDbSpline
70
4
71
3
72
10
73
6
40
0
40
0
40
0
40
0
40
0.497018893459521
40
0.748335066284164
40
1
40
1
40
1
40
1
41
1
10
68.1761093758002
20
-6.37573080801251
30
0
41
1
10
68.1927837607875
20
-6.41259164831362
30
0
41
1
10
68.2146982890203
20
-6.46915145209788
30
0
41
1
10
68.2362275229933
20
-6.54741589369144
30
0
41
1
10
68.2462289989722
20
-6.58694894057631
30
0
41
1
10
68.2508764101302
20
-6.60683280699038
30
0
0
SPLINE
5
24E
100
AcDbEntity
8
1
62
256
6
ByLayer
370
25
48
1
60
0
100
AcDbSpline
70
4
71
3
72
16
73
12
40
0
40
0
40
0
40
0
40
0.105088447026571
40
0.21016974274524
40
0.318207382430425
40
0.42623445329902
40
0.532402152941448
40
0.638559256674212
40
0.742523277967332
40
0.846482338170361
40
1
40
1
40
1
40
1
41
1
10
69.0054661496249
20
-9.19327116695497
30
0
41
1
10
69.0095569054669
20
-9.36794324302304
30
0
41
1
10
68.9899285114304
20
-9.7134832157868
30
0
41
1
10
68.8760133050039
20
-10.2319381976888
30
0
41
1
10
68.674846790885
20
-10.7295650845605
30
0
41
1
10
68.3935475858606
20
-11.1907778527877
30
0
41
1
10
68.0399514512696
20
-11.5953687254668
30
0
41
1
10
67.6306224355842
20
-11.9323522777899
30
0
41
1
10
67.1747679229196
20
-12.1919522851016
30
0
41
1
10
66.6085290625617
20
-12.3999055046448
30
0
41
1
10
66.1899646016768
20
-12.4583460531809
30
0
41
1
10
65.932795014838
20
-12.4622853160853
30
0
0
SPLINE
5
24F
100
AcDbEntity
8
1
62
256
6
ByLayer
370
25
48
1
60
0
100
AcDbSpline
70
4
71
3
72
50
73
46
40
0
40
0
40
0
40
0
40
0.174062673811757
40
0.328559541690126
40
0.366012632535921
40
0.398860813261679
40
0.427104135177993
40
0.450742670031161
40
0.481162743686295
40
0.490029327206953
40
0.491609479570489
40
0.493577881233367
40
0.496776262252725
40
0.500042525919078
40
0.500626180948113
40
0.500682199560575
40
0.500726018352385
40
0.500744818698026
40
0.500762638714532
40
0.500780539447569
40
0.500799568445447
40
0.500844169842287
40
0.500901208557017
40
0.501060118698433
40
0.502364774518324
40
0.508320736145463
40
0.5135692399465
40
0.52078152845669
40
0.529958001111949
40
0.54109884610011
40
0.552375466573568
40
0.56706052247325
40
0.585154045010116
40
0.606656050656543
40
0.626235743086941
40
0.6491370614522
40
0.675360008897476
40
0.704904587609151
40
0.737770799213078
40
0.773870996201999
40
0.813013060424586
40
0.855196992403841
40
0.900422792651894
40
0.948690461679022
40
1
40
1
40
1
40
1
41
1
10
66.5589174896374
20
-11.2483791338215
30
0
41
1
10
66.4970450488736
20
-11.3671980373655
30
0
41
1
10
66.379971869839
20
-11.5914779206246
30
0
41
1
10
66.2491618742652
20
-11.8413182075411
30
0
41
1
10
66.1684514833717
20
-11.9947653275369
30
0
41
1
10
66.1328792230617
20
-12.062032862126
30
0
41
1
10
66.1021077614277
20
-12.1198717649536
30
0
41
1
10
66.0719398797034
20
-12.176054268024
30
0
41
1
10
66.048567051206
20
-12.2190136229935
30
0
41
1
10
66.0328056418733
20
-12.2469133688766
30
0
41
1
10
66.0278553883209
20
-12.255391512582
30
0
41
1
10
66.0251646339133
20
-12.259994261186
30
0
41
1
10
66.0213765461915
20
-12.2657775387347
30
0
41
1
10
66.0178834329321
20
-12.2705079169354
30
0
41
1
10
66.0151593951065
20
-12.2732309789856
30
0
41
1
10
66.0142055010839
20
-12.2736232153434
30
0
41
1
10
66.0140000941517
20
-12.2736785424173
30
0
41
1
10
66.0138447973513
20
-12.2737011049568
30
0
41
1
10
66.0137369641723
20
-12.2737077555836
30
0
41
1
10
66.0136330511997
20
-12.273704857746
30
0
41
1
10
66.0134936272828
20
-12.2736875345527
30
0
41
1
10
66.0133309267335
20
-12.2736387605066
30
0
41
1
10
66.0130824018121
20
-12.2735039155325
30
0
41
1
10
66.0122641319977
20
-12.2725786498893
30
0
41
1
10
66.0122453422328
20
-12.2675755206928
30
0
41
1
10
66.013593522924
20
-12.25917287628
30
0
41
1
10
66.0165527931574
20
-12.2466853308432
30
0
41
1
10
66.0203320469319
20
-12.2320225744432
30
0
41
1
10
66.0254440434331
20
-12.213346011871
30
0
41
1
10
66.031504847831
20
-12.1919074745218
30
0
41
1
10
66.0388344949365
20
-12.1667218977814
30
0
41
1
10
66.047691271058
20
-12.1368113601244
30
0
41
1
10
66.0587143166391
20
-12.0999542631503
30
0
41
1
10
66.0708167856739
20
-12.0597705598287
30
0
41
1
10
66.0839719138543
20
-12.0163195171179
30
0
41
1
10
66.0981536613363
20
-11.9696604376703
30
0
41
1
10
66.1144375578698
20
-11.9162322384359
30
0
41
1
10
66.1328244149763
20
-11.8560348861911
30
0
41
1
10
66.1532979596667
20
-11.7891278355531
30
0
41
1
10
66.1757908661091
20
-11.7157014242021
30
0
41
1
10
66.2002367874002
20
-11.6359459532258
30
0
41
1
10
66.2265983342704
20
-11.5499918096417
30
0
41
1
10
66.254874704856
20
-11.4578390157669
30
0
41
1
10
66.2850663438245
20
-11.3594875488214
30
0
41
1
10
66.3058358882749
20
-11.2918535454631
30
0
41
1
10
66.3165400946965
20
-11.2570034218465
30
0
0
SPLINE
5
250
100
AcDbEntity
8
1
62
256
6
ByLayer
370
25
48
1
60
0
100
AcDbSpline
70
4
71
1
72
4
73
2
40
0
40
0
40
1
40
1
41
1
10
67.9856688379711
20
-5.24973076121085
30
0
41
1
10
67.6729816171212
20
-4.66510947041713
30
0
0
SPLINE
5
251
100
AcDbEntity
8
1
62
256
6
ByLayer
370
25
48
1
60
0
100
AcDbSpline
70
4
71
3
72
10
73
6
40
0
40
0
40
0
40
0
40
0.258245997025286
40
0.516515175482185
40
1
40
1
40
1
40
1
41
1
10
68.0651154082231
20
-5.41156733731349
30
0
41
1
10
68.0591392856049
20
-5.39816084233038
30
0
41
1
10
68.0467221407262
20
-5.3710338774907
30
0
41
1
10
68.020655698689
20
-5.31679499761939
30
0
41
1
10
67.9998912624718
20
-5.27635633046261
30
0
41
1
10
67.985669409297
20
-5.24973173004447
30
0
0
SPLINE
5
252
100
AcDbEntity
8
1
62
256
6
ByLayer
370
25
48
1
60
0
100
AcDbSpline
70
4
71
3
72
10
73
6
40
0
40
0
40
0
40
0
40
0.364121501396821
40
0.738906366009255
40
1
40
1
40
1
40
1
41
1
10
68.0651154208658
20
-5.41156734938762
30
0
41
1
10
68.101695735556
20
-5.493556130264
30
0
41
1
10
68.1795512070056
20
-5.66182732643869
30
0
41
1
10
68.2968670705678
20
-5.89872494728239
30
0
41
1
10
68.3747552826868
20
-6.0479243165508
30
0
41
1
10
68.4074941942883
20
-6.10934705583037
30
0
0
SPLINE
5
253
100
AcDbEntity
8
1
62
256
6
ByLayer
370
25
48
1
60
0
100
AcDbSpline
70
4
71
1
72
4
73
2
40
0
40
0
40
1
40
1
41
1
10
68.407493661824
20
-6.10934605970742
30
0
41
1
10
68.1761094117619
20
-6.37573088550706
30
0
0
SPLINE
5
254
100
AcDbEntity
8
1
62
256
6
ByLayer
370
25
48
1
60
0
100
AcDbSpline
70
4
71
2
72
6
73
3
40
0
40
0
40
0
40
1
40
1
40
1
41
1
10
68.5445674143647
20
-6.45523100499065
30
0
41
1
10
68.671404644895
20
-6.90170707144674
30
0
41
1
10
68.77800431319
20
-7.2426407119092
30
0
0
SPLINE
5
255
100
AcDbEntity
8
1
62
256
6
ByLayer
370
25
48
1
60
0
100
AcDbSpline
70
4
71
3
72
10
73
6
40
0
40
0
40
0
40
0
40
0.358607685041846
40
0.678728527759996
40
1
40
1
40
1
40
1
41
1
10
68.7780014387843
20
-7.24265776665493
30
0
41
1
10
68.8266199788829
20
-7.47232714840348
30
0
41
1
10
68.9041024273906
20
-7.90940620553442
30
0
41
1
10
68.9784113940242
20
-8.56138239049174
30
0
41
1
10
69.0006196223766
20
-8.98186235408883
30
0
41
1
10
69.005466149625
20
-9.19327116695493
30
0
0
SPLINE
5
256
100
AcDbEntity
8
1
62
256
6
ByLayer
370
25
48
1
60
0
100
AcDbSpline
70
4
71
3
72
10
73
6
40
0
40
0
40
0
40
0
40
0.250591187154839
40
0.500059856560429
40
1
40
1
40
1
40
1
41
1
10
68.4074945035484
20
-6.10934761606367
30
0
41
1
10
68.4218326315468
20
-6.13729271187024
30
0
41
1
10
68.4489934007667
20
-6.19356693098847
30
0
41
1
10
68.4974395630997
20
-6.30853630728163
30
0
41
1
10
68.5274158706294
20
-6.39607165065948
30
0
41
1
10
68.5445674143647
20
-6.45523100499065
30
0
0
SPLINE
5
257
100
AcDbEntity
8
1
62
256
6
ByLayer
370
25
48
1
60
0
100
AcDbSpline
70
4
71
2
72
6
73
3
40
0
40
0
40
0
40
1
40
1
40
1
41
0.505836238486574
10
59.4205867517423
20
5.6201461858506
30
0
41
0.494163761513426
10
59.4656825351037
20
5.57535835220249
30
0
41
0.505836238486574
10
59.5252131503494
20
5.55364128413137
30
0
0
SPLINE
5
258
100
AcDbEntity
8
1
62
256
6
ByLayer
370
25
48
1
60
0
100
AcDbSpline
70
4
71
2
72
6
73
3
40
0
40
0
40
0
40
1
40
1
40
1
41
0.508799255596123
10
59.5136826139245
20
8.50296395801756
30
0
41
0.491200744403877
10
59.4384418710468
20
8.48137013250089
30
0
41
0.508799255596123
10
59.384191281992
20
8.42452948107039
30
0
0
SPLINE
5
259
100
AcDbEntity
8
1
62
256
6
ByLayer
370
25
48
1
60
0
100
AcDbSpline
70
4
71
2
72
6
73
3
40
0
40
0
40
0
40
1
40
1
40
1
41
0.50043365041071
10
58.8696276602664
20
5.81850778396552
30
0
41
0.49956634958929
10
58.7993208719007
20
5.81263285890049
30
0
41
0.50043365041071
10
58.7288211947771
20
5.81512666929989
30
0
0
SPLINE
5
25A
100
AcDbEntity
8
1
62
256
6
ByLayer
370
25
48
1
60
0
100
AcDbSpline
70
4
71
2
72
6
73
3
40
0
40
0
40
0
40
1
40
1
40
1
41
0.50043365041071
10
58.6733172931568
20
8.22323730718027
30
0
41
0.49956634958929
10
58.7436240815225
20
8.2291122322453
30
0
41
0.50043365041071
10
58.8141237586461
20
8.22661842184589
30
0
0
SPLINE
5
25B
100
AcDbEntity
8
1
62
256
6
ByLayer
370
25
48
1
60
0
100
AcDbSpline
70
4
71
2
72
6
73
3
40
0
40
0
40
0
40
1
40
1
40
1
41
0.500296983317563
10
58.8203428355225
20
8.21803651986478
30
0
41
0.499703016682437
10
58.8785095604453
20
8.22289700571748
30
0
41
0.500296983317563
10
58.9368660743263
20
8.22202788783388
30
0
0
SPLINE
5
25C
100
AcDbEntity
8
1
62
256
6
ByLayer
370
25
48
1
60
0
100
AcDbSpline
70
4
71
2
72
6
73
3
40
0
40
0
40
0
40
1
40
1
40
1
41
0.500532322669823
10
58.666016564018
20
8.19485214482519
30
0
41
0.499467677330177
10
58.7424315001574
20
8.21152614913635
30
0
41
0.500532322669823
10
58.8203428355225
20
8.21803651986478
30
0
0
SPLINE
5
25D
100
AcDbEntity
8
1
62
256
6
ByLayer
370
25
48
1
60
0
100
AcDbSpline
70
4
71
2
72
6
73
3
40
0
40
0
40
0
40
1
40
1
40
1
41
0.500027495019808
10
59.7864479862029
20
-8.73606397527992
30
0
41
0.499972504980192
10
59.7607202222218
20
-8.73697405271555
30
0
41
0.500027495019808
10
59.7349765626227
20
-8.73711443509038
30
0
0
SPLINE
5
25E
100
AcDbEntity
8
1
62
256
6
ByLayer
370
25
48
1
60
0
100
AcDbSpline
70
4
71
2
72
6
73
3
40
0
40
0
40
0
40
1
40
1
40
1
41
0.502764697479836
10
55.2928368163746
20
-10.7746418914578
30
0
41
0.497235302520164
10
55.1838290466416
20
-10.7751028592317
30
0
41
0.502764697479836
10
55.0651693648676
20
-10.7757499206124
30
0
0
SPLINE
5
25F
100
AcDbEntity
8
1
62
256
6
ByLayer
370
25
48
1
60
0
100
AcDbSpline
70
4
71
2
72
6
73
3
40
0
40
0
40
0
40
1
40
1
40
1
41
0.501068365199719
10
49.1181458136757
20
5.78116649795748
30
0
41
0.498931634800281
10
49.1797547230972
20
5.8111869856078
30
0
41
0.501068365199719
10
49.2337750654384
20
5.82150471962621
30
0
0
SPLINE
5
260
100
AcDbEntity
8
1
62
256
6
ByLayer
370
25
48
1
60
0
100
AcDbSpline
70
4
71
2
72
6
73
3
40
0
40
0
40
0
40
1
40
1
40
1
41
0.500082721406025
10
67.6679513975641
20
-8.12607075896736
30
0
41
0.499917278593975
10
67.6565905742344
20
-8.20785283318901
30
0
41
0.500082721406025
10
67.6410731084581
20
-8.288935245431
30
0
0
SPLINE
5
261
100
AcDbEntity
8
1
62
256
6
ByLayer
370
25
48
1
60
0
100
AcDbSpline
70
4
71
2
72
6
73
3
40
0
40
0
40
0
40
1
40
1
40
1
41
0.500098769958566
10
67.7536711328619
20
-8.74137029354589
30
0
41
0.499901230041434
10
67.724168628522
20
-8.83510758746392
30
0
41
0.500098769958566
10
67.6894879142595
20
-8.92702250781397
30
0
0
SPLINE
5
262
100
AcDbEntity
8
1
62
256
6
ByLayer
370
25
48
1
60
0
100
AcDbSpline
70
4
71
2
72
6
73
3
40
0
40
0
40
0
40
1
40
1
40
1
41
0.500087744771095
10
67.9108536682485
20
-7.49049877463639
30
0
41
0.499912255228905
10
67.9159265800982
20
-7.58306625392909
30
0
41
0.500087744771095
10
67.9161299787312
20
-7.67577185505823
30
0
0
SPLINE
5
263
100
AcDbEntity
8
1
62
256
6
ByLayer
370
25
48
1
60
0
100
AcDbSpline
70
4
71
2
72
6
73
3
40
0
40
0
40
0
40
1
40
1
40
1
41
0.500005217565447
10
50.6231401657853
20
10.5520505760766
30
0
41
0.499994782434553
10
50.625123441389
20
10.5071680928553
30
0
41
0.500005217565447
10
50.627069029325
20
10.4618048290489
30
0
0
LINE
5
72
100
AcDbEntity
8
1
62
256
6
ByLayer
370
25
48
1
60
0
100
AcDbLine
10
64.124646
20
11.690205
30
0
11
58.065011
21
11.827392
31
0
39
0
210
0
220
0
230
1
0
LINE
5
73
100
AcDbEntity
8
1
62
256
6
ByLayer
370
25
48
1
60
0
100
AcDbLine
10
56.571699
20
2.287537
30
0
11
60.11531
21
2.206644
31
0
39
0
210
0
220
0
230
1
0
LINE
5
74
100
AcDbEntity
8
1
62
256
6
ByLayer
370
25
48
1
60
0
100
AcDbLine
10
54.164098
20
8.875515
30
0
11
54.3296
21
8.795435
31
0
39
0
210
0
220
0
230
1
0
LINE
5
75
100
AcDbEntity
8
1
62
256
6
ByLayer
370
25
48
1
60
0
100
AcDbLine
10
66.202503
20
3.130495
30
0
11
66.703107
21
2.851766
31
0
39
0
210
0
220
0
230
1
0
LINE
5
76
100
AcDbEntity
8
1
62
256
6
ByLayer
370
25
48
1
60
0
100
AcDbLine
10
52.075982
20
10.900069
30
0
11
51.548922
21
11.179734
31
0
39
0
210
0
220
0
230
1
0
LINE
5
77
100
AcDbEntity
8
1
62
256
6
ByLayer
370
25
48
1
60
0
100
AcDbLine
10
59.420587
20
5.620146
30
0
11
59.253085
21
5.626071
31
0
39
0
210
0
220
0
230
1
0
LINE
5
78
100
AcDbEntity
8
1
62
256
6
ByLayer
370
25
48
1
60
0
100
AcDbLine
10
59.384191
20
8.424529
30
0
11
59.216689
21
8.430455
31
0
39
0
210
0
220
0
230
1
0
LINE
5
79
100
AcDbEntity
8
1
62
256
6
ByLayer
370
25
48
1
60
0
100
AcDbLine
10
59.008109
20
9.639144
30
0
11
58.86479
21
9.644213
31
0
39
0
210
0
220
0
230
1
0
LINE
5
7A
100
AcDbEntity
8
1
62
256
6
ByLayer
370
25
48
1
60
0
100
AcDbLine
10
58.679196
20
4.397495
30
0
11
58.822515
21
4.392425
31
0
39
0
210
0
220
0
230
1
0
LINE
5
7B
100
AcDbEntity
8
1
62
256
6
ByLayer
370
25
48
1
60
0
100
AcDbLine
10
58.869628
20
5.818508
30
0
11
59.016653
21
5.813307
31
0
39
0
210
0
220
0
230
1
0
LINE
5
7C
100
AcDbEntity
8
1
62
256
6
ByLayer
370
25
48
1
60
0
100
AcDbLine
10
58.985415
20
8.220311
30
0
11
58.838389
21
8.225511
31
0
39
0
210
0
220
0
230
1
0
LINE
5
7D
100
AcDbEntity
8
1
62
256
6
ByLayer
370
25
48
1
60
0
100
AcDbLine
10
57.963462
20
5.880927
30
0
11
57.795738
21
5.88686
31
0
39
0
210
0
220
0
230
1
0
LINE
5
7E
100
AcDbEntity
8
1
62
256
6
ByLayer
370
25
48
1
60
0
100
AcDbLine
10
57.934355
20
8.123703
30
0
11
57.766631
21
8.129636
31
0
39
0
210
0
220
0
230
1
0
LINE
5
7F
100
AcDbEntity
8
1
62
256
6
ByLayer
370
25
48
1
60
0
100
AcDbLine
10
57.466012
20
7.277521
30
0
11
57.298288
21
7.283454
31
0
39
0
210
0
220
0
230
1
0
LINE
5
80
100
AcDbEntity
8
1
62
256
6
ByLayer
370
25
48
1
60
0
100
AcDbLine
10
57.473326
20
6.713904
30
0
11
57.305602
21
6.719837
31
0
39
0
210
0
220
0
230
1
0
LINE
5
81
100
AcDbEntity
8
1
62
256
6
ByLayer
370
25
48
1
60
0
100
AcDbLine
10
58.753104
20
5.814516
30
0
11
58.704556
21
5.816234
31
0
39
0
210
0
220
0
230
1
0
LINE
5
82
100
AcDbEntity
8
1
62
256
6
ByLayer
370
25
48
1
60
0
100
AcDbLine
10
58.673317
20
8.223237
30
0
11
58.820343
21
8.218037
31
0
39
0
210
0
220
0
230
1
0
LINE
5
83
100
AcDbEntity
8
1
62
256
6
ByLayer
370
25
48
1
60
0
100
AcDbLine
10
58.913905
20
-0.368364
30
0
11
59.915823
21
2.112955
31
0
39
0
210
0
220
0
230
1
0
LINE
5
84
100
AcDbEntity
8
1
62
256
6
ByLayer
370
25
48
1
60
0
100
AcDbLine
10
16.229995
20
-12.5
30
0
11
18.999995
21
-11.309056
31
0
39
0
210
0
220
0
230
1
0
LINE
5
85
100
AcDbEntity
8
1
62
256
6
ByLayer
370
25
48
1
60
0
100
AcDbLine
10
18.999995
20
11.309056
30
0
11
16.229995
21
12.5
31
0
39
0
210
0
220
0
230
1
0
LINE
5
86
100
AcDbEntity
8
SK1
62
256
6
ByLayer
370
25
48
1
60
0
100
AcDbLine
10
-54.5
20
12.5
30
0
11
-56
21
11
31
0
39
0
210
0
220
0
230
1
0
LINE
5
88
100
AcDbEntity
8
SK1
62
256
6
ByLayer
370
25
48
1
60
0
100
AcDbLine
10
-56
20
-11
30
0
11
-54.5
21
-12.5
31
0
39
0
210
0
220
0
230
1
0
LINE
5
89
100
AcDbEntity
8
1
62
256
6
ByLayer
370
25
48
1
60
0
100
AcDbLine
10
16.229995
20
12.5
30
0
11
0
21
12.5
31
0
39
0
210
0
220
0
230
1
0
LINE
5
8A
100
AcDbEntity
8
SK1
62
256
6
ByLayer
370
25
48
1
60
0
100
AcDbLine
10
-54.5
20
-12.5
30
0
11
0
21
-12.5
31
0
39
0
210
0
220
0
230
1
0
LINE
5
8B
100
AcDbEntity
8
1
62
256
6
ByLayer
370
25
48
1
60
0
100
AcDbLine
10
18.999995
20
-11.309056
30
0
11
38.913293
21
-11.309056
31
0
39
0
210
0
220
0
230
1
0
LINE
5
8C
100
AcDbEntity
8
1
62
256
6
ByLayer
370
25
48
1
60
0
100
AcDbLine
10
38.913293
20
11.309056
30
0
11
18.999995
21
11.309056
31
0
39
0
210
0
220
0
230
1
0
LINE
5
8D
100
AcDbEntity
8
1
62
256
6
ByLayer
370
25
48
1
60
0
100
AcDbLine
10
62.426498
20
-7.015781
30
0
11
62.20445
21
-7.023635
31
0
39
0
210
0
220
0
230
1
0
LINE
5
8E
100
AcDbEntity
8
1
62
256
6
ByLayer
370
25
48
1
60
0
100
AcDbLine
10
62.215536
20
-8.890195
30
0
11
62.20445
21
-7.023635
31
0
39
0
210
0
220
0
230
1
0
LINE
5
8F
100
AcDbEntity
8
1
62
256
6
ByLayer
370
25
48
1
60
0
100
AcDbLine
10
55.292837
20
-10.774642
30
0
11
65.483261
21
-10.719073
31
0
39
0
210
0
220
0
230
1
0
LINE
5
90
100
AcDbEntity
8
1
62
256
6
ByLayer
370
25
48
1
60
0
100
AcDbLine
10
54.392639
20
-10.779417
30
0
11
55.065169
21
-10.77575
31
0
39
0
210
0
220
0
230
1
0
LINE
5
91
100
AcDbEntity
8
1
62
256
6
ByLayer
370
25
48
1
60
0
100
AcDbLine
10
47.91836
20
5.495012
30
0
11
47.717679
21
5.592911
31
0
39
0
210
0
220
0
230
1
0
LINE
5
92
100
AcDbEntity
8
1
62
256
6
ByLayer
370
25
48
1
60
0
100
AcDbLine
10
50.622501
20
10.566517
30
0
11
48.372894
21
6.360502
31
0
39
0
210
0
220
0
230
1
0
LINE
5
93
100
AcDbEntity
8
1
62
256
6
ByLayer
370
25
48
1
60
0
100
AcDbLine
10
50.622501
20
10.566517
30
0
11
50.62314
21
10.552051
31
0
39
0
210
0
220
0
230
1
0
LINE
5
94
100
AcDbEntity
8
1
62
256
6
ByLayer
370
25
48
1
60
0
100
AcDbLine
10
50.62314
20
10.552051
30
0
11
47.91836
21
5.495012
31
0
39
0
210
0
220
0
230
1
0
LINE
5
95
100
AcDbEntity
8
1
62
256
6
ByLayer
370
25
48
1
60
0
100
AcDbLine
10
50.627535
20
11.414191
30
0
11
50.622501
21
10.566517
31
0
39
0
210
0
220
0
230
1
0
LINE
5
96
100
AcDbEntity
8
1
62
256
6
ByLayer
370
25
48
1
60
0
100
AcDbLine
10
50.793957
20
10.460487
30
0
11
50.797431
21
11.045446
31
0
39
0
210
0
220
0
230
1
0
LINE
5
97
100
AcDbEntity
8
1
62
256
6
ByLayer
370
25
48
1
60
0
100
AcDbLine
10
67.108825
20
-9.541843
30
0
11
66.951094
21
-9.542704
31
0
39
0
210
0
220
0
230
1
0
LINE
5
98
100
AcDbEntity
8
1
62
256
6
ByLayer
370
25
48
1
60
0
100
AcDbLine
10
67.216839
20
-9.378538
30
0
11
67.061731
21
-9.379384
31
0
39
0
210
0
220
0
230
1
0
LINE
5
99
100
AcDbEntity
8
1
62
256
6
ByLayer
370
25
48
1
60
0
100
AcDbLine
10
67.148221
20
-9.788626
30
0
11
66.872218
21
-9.790131
31
0
39
0
210
0
220
0
230
1
0
LINE
5
9A
100
AcDbEntity
8
1
62
256
6
ByLayer
370
25
48
1
60
0
100
AcDbLine
10
65.754111
20
-10.636524
30
0
11
65.682966
21
-10.636912
31
0
39
0
210
0
220
0
230
1
0
LINE
5
9B
100
AcDbEntity
8
1
62
256
6
ByLayer
370
25
48
1
60
0
100
AcDbLine
10
53.785519
20
-10.70179
30
0
11
53.460156
21
-10.703565
31
0
39
0
210
0
220
0
230
1
0
LINE
5
9C
100
AcDbEntity
8
1
62
256
6
ByLayer
370
25
48
1
60
0
100
AcDbLine
10
66.551397
20
-10.387732
30
0
11
66.275854
21
-10.389235
31
0
39
0
210
0
220
0
230
1
0
LINE
5
9D
100
AcDbEntity
8
1
62
256
6
ByLayer
370
25
48
1
60
0
100
AcDbLine
10
65.252655
20
-10.801975
30
0
11
53.790349
21
-10.86448
31
0
39
0
210
0
220
0
230
1
0
LINE
5
9E
100
AcDbEntity
8
1
62
256
6
ByLayer
370
25
48
1
60
0
100
AcDbLine
10
65.072487
20
-11.049954
30
0
11
53.828348
21
-11.11127
31
0
39
0
210
0
220
0
230
1
0
LINE
5
9F
100
AcDbEntity
8
1
62
256
6
ByLayer
370
25
48
1
60
0
100
AcDbLine
10
67.148646
20
-9.798439
30
0
11
66.869216
21
-9.799963
31
0
39
0
210
0
220
0
230
1
0
LINE
5
A0
100
AcDbEntity
8
1
62
256
6
ByLayer
370
25
48
1
60
0
100
AcDbLine
10
67.050221
20
-9.995211
30
0
11
66.731388
21
-9.996949
31
0
39
0
210
0
220
0
230
1
0
LINE
5
A1
100
AcDbEntity
8
1
62
256
6
ByLayer
370
25
48
1
60
0
100
AcDbLine
10
66.874979
20
-10.181467
30
0
11
66.554342
21
-10.183217
31
0
39
0
210
0
220
0
230
1
0
LINE
5
A2
100
AcDbEntity
8
1
62
256
6
ByLayer
370
25
48
1
60
0
100
AcDbLine
10
52.205701
20
-10.475272
30
0
11
52.278431
21
-10.611253
31
0
39
0
210
0
220
0
230
1
0
LINE
5
A3
100
AcDbEntity
8
1
62
256
6
ByLayer
370
25
48
1
60
0
100
AcDbLine
10
51.712989
20
-11.491084
30
0
11
52.278431
21
-10.611253
31
0
39
0
210
0
220
0
230
1
0
LINE
5
A4
100
AcDbEntity
8
1
62
256
6
ByLayer
370
25
48
1
60
0
100
AcDbLine
10
65.074498
20
-11.059759
30
0
11
53.816506
21
-11.12115
31
0
39
0
210
0
220
0
230
1
0
LINE
5
A5
100
AcDbEntity
8
1
62
256
6
ByLayer
370
25
48
1
60
0
100
AcDbLine
10
64.469734
20
-11.167489
30
0
11
54.216078
21
-11.223403
31
0
39
0
210
0
220
0
230
1
0
LINE
5
A6
100
AcDbEntity
8
1
62
256
6
ByLayer
370
25
48
1
60
0
100
AcDbLine
10
67.547621
20
-9.13229
30
0
11
67.277896
21
-9.133761
31
0
39
0
210
0
220
0
230
1
0
LINE
5
A7
100
AcDbEntity
8
1
62
256
6
ByLayer
370
25
48
1
60
0
100
AcDbLine
10
67.760198
20
-8.535279
30
0
11
67.510604
21
-8.53664
31
0
39
0
210
0
220
0
230
1
0
LINE
5
A8
100
AcDbEntity
8
1
62
256
6
ByLayer
370
25
48
1
60
0
100
AcDbLine
10
67.641061
20
-8.288932
30
0
11
67.535241
21
-8.289509
31
0
39
0
210
0
220
0
230
1
0
LINE
5
A9
100
AcDbEntity
8
1
62
256
6
ByLayer
370
25
48
1
60
0
100
AcDbLine
10
67.667941
20
-8.126069
30
0
11
67.574444
21
-8.126579
31
0
39
0
210
0
220
0
230
1
0
LINE
5
AA
100
AcDbEntity
8
1
62
256
6
ByLayer
370
25
48
1
60
0
100
AcDbLine
10
67.861565
20
-7.880569
30
0
11
67.641914
21
-7.881766
31
0
39
0
210
0
220
0
230
1
0
LINE
5
AB
100
AcDbEntity
8
1
62
256
6
ByLayer
370
25
48
1
60
0
100
AcDbLine
10
67.844257
20
-7.284811
30
0
11
67.672982
21
-7.285745
31
0
39
0
210
0
220
0
230
1
0
LINE
5
AC
100
AcDbEntity
8
1
62
256
6
ByLayer
370
25
48
1
60
0
100
AcDbLine
10
67.703244
20
-6.63142
30
0
11
67.672982
21
-6.631585
31
0
39
0
210
0
220
0
230
1
0
LINE
5
AD
100
AcDbEntity
8
1
62
256
6
ByLayer
370
25
48
1
60
0
100
AcDbLine
10
67.558195
20
-9.12276
30
0
11
67.28626
21
-9.124243
31
0
39
0
210
0
220
0
230
1
0
LINE
5
AE
100
AcDbEntity
8
1
62
256
6
ByLayer
370
25
48
1
60
0
100
AcDbLine
10
67.689478
20
-8.927017
30
0
11
67.38931
21
-8.928654
31
0
39
0
210
0
220
0
230
1
0
LINE
5
AF
100
AcDbEntity
8
1
62
256
6
ByLayer
370
25
48
1
60
0
100
AcDbLine
10
67.753659
20
-8.741365
30
0
11
67.458221
21
-8.742976
31
0
39
0
210
0
220
0
230
1
0
LINE
5
B0
100
AcDbEntity
8
1
62
256
6
ByLayer
370
25
48
1
60
0
100
AcDbLine
10
67.763068
20
-8.545079
30
0
11
67.509683
21
-8.546461
31
0
39
0
210
0
220
0
230
1
0
LINE
5
B1
100
AcDbEntity
8
1
62
256
6
ByLayer
370
25
48
1
60
0
100
AcDbLine
10
67.867102
20
-7.871066
30
0
11
67.644467
21
-7.87228
31
0
39
0
210
0
220
0
230
1
0
LINE
5
B2
100
AcDbEntity
8
1
62
256
6
ByLayer
370
25
48
1
60
0
100
AcDbLine
10
67.91613
20
-7.675772
30
0
11
67.66554
21
-7.677138
31
0
39
0
210
0
220
0
230
1
0
LINE
5
B3
100
AcDbEntity
8
1
62
256
6
ByLayer
370
25
48
1
60
0
100
AcDbLine
10
67.850398
20
-7.294593
30
0
11
67.672982
21
-7.295561
31
0
39
0
210
0
220
0
230
1
0
LINE
5
B4
100
AcDbEntity
8
1
62
256
6
ByLayer
370
25
48
1
60
0
100
AcDbLine
10
67.705656
20
-6.621937
30
0
11
67.672982
21
-6.622115
31
0
39
0
210
0
220
0
230
1
0
LINE
5
B5
100
AcDbEntity
8
1
62
256
6
ByLayer
370
25
48
1
60
0
100
AcDbLine
10
67.910854
20
-7.490499
30
0
11
67.673182
21
-7.491795
31
0
39
0
210
0
220
0
230
1
0
LINE
5
B6
100
AcDbEntity
8
1
62
256
6
ByLayer
370
25
48
1
60
0
100
AcDbLine
10
67.684665
20
-6.427024
30
0
11
67.672982
21
-6.427088
31
0
39
0
210
0
220
0
230
1
0
LINE
5
B7
100
AcDbEntity
8
1
62
256
6
ByLayer
370
25
48
1
60
0
100
AcDbLine
10
68.176109
20
-6.375731
30
0
11
67.672982
21
-5.43505
31
0
39
0
210
0
220
0
230
1
0
LINE
5
B8
100
AcDbEntity
8
1
62
256
6
ByLayer
370
25
48
1
60
0
100
AcDbLine
10
69.005466
20
-9.193271
30
0
11
68.49331
21
-9.179505
31
0
39
0
210
0
220
0
230
1
0
LINE
5
B9
100
AcDbEntity
8
1
62
256
6
ByLayer
370
25
48
1
60
0
100
AcDbLine
10
68.544567
20
-6.455231
30
0
11
68.250876
21
-6.606833
31
0
39
0
210
0
220
0
230
1
0
LINE
5
BA
100
AcDbEntity
8
1
62
256
6
ByLayer
370
25
48
1
60
0
100
AcDbLine
10
66.524754
20
5.91039
30
0
11
66.514923
21
5.915359
31
0
39
0
210
0
220
0
230
1
0
LINE
5
BB
100
AcDbEntity
8
1
62
256
6
ByLayer
370
25
48
1
60
0
100
AcDbLine
10
67.086929
20
7.730116
30
0
11
67.084692
21
7.738358
31
0
39
0
210
0
220
0
230
1
0
LINE
5
BC
100
AcDbEntity
8
1
62
256
6
ByLayer
370
25
48
1
60
0
100
AcDbLine
10
51.158206
20
6.293785
30
0
11
51.147257
21
6.314631
31
0
39
0
210
0
220
0
230
1
0
LINE
5
BD
100
AcDbEntity
8
1
62
256
6
ByLayer
370
25
48
1
60
0
100
AcDbLine
10
63.645609
20
5.246722
30
0
11
63.652518
21
5.264485
31
0
39
0
210
0
220
0
230
1
0
LINE
5
BE
100
AcDbEntity
8
1
62
256
6
ByLayer
370
25
48
1
60
0
100
AcDbLine
10
63.652518
20
5.264485
30
0
11
63.659134
21
5.282033
31
0
39
0
210
0
220
0
230
1
0
LINE
5
BF
100
AcDbEntity
8
1
62
256
6
ByLayer
370
25
48
1
60
0
100
AcDbLine
10
51.733907
20
8.120989
30
0
11
51.743719
21
8.116052
31
0
39
0
210
0
220
0
230
1
0
LINE
5
C0
100
AcDbEntity
8
1
62
256
6
ByLayer
370
25
48
1
60
0
100
AcDbLine
10
53.828362
20
-11.11127
30
0
11
53.823099
21
-11.115459
31
0
39
0
210
0
220
0
230
1
0
LINE
5
C1
100
AcDbEntity
8
1
62
256
6
ByLayer
370
25
48
1
60
0
100
AcDbLine
10
67.148472
20
-9.792785
30
0
11
67.148219
21
-9.788626
31
0
39
0
210
0
220
0
230
1
0
LINE
5
C2
100
AcDbEntity
8
1
62
256
6
ByLayer
370
25
48
1
60
0
100
AcDbLine
10
66.561785
20
-10.383659
30
0
11
66.551393
21
-10.387732
31
0
39
0
210
0
220
0
230
1
0
LINE
5
C3
100
AcDbEntity
8
1
62
256
6
ByLayer
370
25
48
1
60
0
100
AcDbLine
10
65.073656
20
-11.054109
30
0
11
65.072516
21
-11.049954
31
0
39
0
210
0
220
0
230
1
0
LINE
5
C4
100
AcDbEntity
8
1
62
256
6
ByLayer
370
25
48
1
60
0
100
AcDbLine
10
52.978128
20
-12.273714
30
0
11
52.973939
21
-12.280692
31
0
39
0
210
0
220
0
230
1
0
LINE
5
C5
100
AcDbEntity
8
1
62
256
6
ByLayer
370
25
48
1
60
0
100
AcDbLine
10
67.552174
20
-9.128249
30
0
11
67.547621
21
-9.13229
31
0
39
0
210
0
220
0
230
1
0
LINE
5
C6
100
AcDbEntity
8
1
62
256
6
ByLayer
370
25
48
1
60
0
100
AcDbLine
10
67.761474
20
-8.539433
30
0
11
67.760197
21
-8.535279
31
0
39
0
210
0
220
0
230
1
0
LINE
5
C7
100
AcDbEntity
8
1
62
256
6
ByLayer
370
25
48
1
60
0
100
AcDbLine
10
67.863972
20
-7.876539
30
0
11
67.861564
21
-7.880569
31
0
39
0
210
0
220
0
230
1
0
LINE
5
C8
100
AcDbEntity
8
1
62
256
6
ByLayer
370
25
48
1
60
0
100
AcDbLine
10
67.846919
20
-7.288957
30
0
11
67.844256
21
-7.284811
31
0
39
0
210
0
220
0
230
1
0
LINE
5
C9
100
AcDbEntity
8
1
62
256
6
ByLayer
370
25
48
1
60
0
100
AcDbLine
10
67.704326
20
-6.6274
30
0
11
67.703243
21
-6.63142
31
0
39
0
210
0
220
0
230
1
0
LINE
5
CA
100
AcDbEntity
8
1
62
256
6
ByLayer
370
25
48
1
60
0
100
AcDbLine
10
66.316535
20
-11.257003
30
0
11
66.308056
21
-11.256785
31
0
39
0
210
0
220
0
230
1
0
LINE
5
CB
100
AcDbEntity
8
1
62
256
6
ByLayer
370
25
48
1
60
0
100
AcDbLine
10
58.728821
20
5.815127
30
0
11
58.704556
21
5.816234
31
0
39
0
210
0
220
0
230
1
0
LINE
5
CC
100
AcDbEntity
8
1
62
256
6
ByLayer
370
25
48
1
60
0
100
AcDbLine
10
58.814124
20
8.226618
30
0
11
58.838389
21
8.225511
31
0
39
0
210
0
220
0
230
1
0
LINE
5
CD
100
AcDbEntity
8
1
62
256
6
ByLayer
370
25
48
1
60
0
100
AcDbLine
10
18.999995
20
-11.309056
30
0
11
18.999995
21
11.309056
31
0
39
0
210
0
220
0
230
1
0
LINE
5
CE
100
AcDbEntity
8
1
62
256
6
ByLayer
370
25
48
1
60
0
100
AcDbLine
10
46.800924
20
-10.884654
30
0
11
46.800924
21
5.513668
31
0
39
0
210
0
220
0
230
1
0
LINE
5
CF
100
AcDbEntity
8
1
62
256
6
ByLayer
370
25
48
1
60
0
100
AcDbLine
10
54.800924
20
-10.77585
30
0
11
54.800924
21
-0.053891
31
0
39
0
210
0
220
0
230
1
0
LINE
5
D0
100
AcDbEntity
8
1
62
256
6
ByLayer
370
25
48
1
60
0
100
AcDbLine
10
64.069853
20
-10.724214
30
0
11
64.069853
21
-0.110537
31
0
39
0
210
0
220
0
230
1
0
LINE
5
D1
100
AcDbEntity
8
1
62
256
6
ByLayer
370
25
48
1
60
0
100
AcDbLine
10
67.506617
20
4.370094
30
0
11
67.506617
21
1.626715
31
0
39
0
210
0
220
0
230
1
0
LINE
5
D2
100
AcDbEntity
8
1
62
256
6
ByLayer
370
25
48
1
60
0
100
AcDbLine
10
67.668527
20
4.671293
30
0
11
67.668527
21
1.448078
31
0
39
0
210
0
220
0
230
1
0
LINE
5
D3
100
AcDbEntity
8
1
62
256
6
ByLayer
370
25
48
1
60
0
100
AcDbLine
10
66.575537
20
-10.378128
30
0
11
66.295684
21
-10.379654
31
0
39
0
210
0
220
0
230
1
0
LINE
5
D4
100
AcDbEntity
8
1
62
256
6
ByLayer
370
25
48
1
60
0
100
AcDbLine
10
49.519069
20
6.960255
30
0
11
48.793755
21
5.604159
31
0
39
0
210
0
220
0
230
1
0
LINE
5
D5
100
AcDbEntity
8
1
62
256
6
ByLayer
370
25
48
1
60
0
100
AcDbLine
10
16.229995
20
12.5
30
0
11
16.229995
21
-12.5
31
0
39
0
210
0
220
0
230
1
0
LINE
5
D6
100
AcDbEntity
8
SK1
62
256
6
ByLayer
370
25
48
1
60
0
100
AcDbLine
10
-56
20
11
30
0
11
-56
21
-11
31
0
39
0
210
0
220
0
230
1
0
LINE
5
D7
100
AcDbEntity
8
1
62
256
6
ByLayer
370
25
48
1
60
0
100
AcDbLine
10
67.672982
20
4.679145
30
0
11
67.672982
21
-7.496644
31
0
39
0
210
0
220
0
230
1
0
LINE
5
D8
100
AcDbEntity
8
SK1
62
256
6
ByLayer
370
25
48
1
60
0
100
AcDbLine
10
-54.5
20
12.5
30
0
11
-54.5
21
-12.5
31
0
39
0
210
0
220
0
230
1
0
LINE
5
D9
100
AcDbEntity
8
1
62
256
6
ByLayer
370
25
48
1
60
0
100
AcDbLine
10
0
20
12.5
30
0
11
0
21
-12.5
31
0
39
0
210
0
220
0
230
1
0
LINE
5
DA
100
AcDbEntity
8
1
62
256
6
ByLayer
370
25
48
1
60
0
100
AcDbLine
10
0
20
-12.5
30
0
11
16.229995
21
-12.5
31
0
39
0
210
0
220
0
230
1
0
LINE
5
DB
100
AcDbEntity
8
SK1
62
256
6
ByLayer
370
25
48
1
60
0
100
AcDbLine
10
0
20
12.5
30
0
11
-54.5
21
12.5
31
0
39
0
210
0
220
0
230
1
0
LINE
5
DC
100
AcDbEntity
8
4
62
256
6
ByLayer
370
13
48
0.05
60
0
100
AcDbLine
10
0
20
0
30
0
11
69.005466
21
0
31
0
39
0
210
0
220
0
230
1
0
LINE
5
DE
100
AcDbEntity
8
SK4
62
256
6
ByLayer
370
13
48
0.05
60
0
100
AcDbLine
10
72.5911
20
0
30
0
11
-61.3597
21
0
31
0
39
0
210
0
220
0
230
1
0
LINE
5
E0
100
AcDbEntity
8
80
62
256
6
ByLayer
370
25
48
1
60
0
100
AcDbLine
10
0
20
0
30
0
11
-6.041537
21
0
31
0
39
0
210
0
220
0
230
1
0
LINE
5
E1
100
AcDbEntity
8
81
62
256
6
ByLayer
370
25
48
1
60
0
100
AcDbLine
10
69.005466
20
12.40252
30
0
11
75.004725
21
12.40252
31
0
39
0
210
0
220
0
230
1
0
MTEXT
5
264
100
AcDbEntity
8
SK6
62
256
6
ByLayer
370
25
48
1
60
0
100
AcDbMText
10
-12.8326
20
-25.586643
30
0
210
0
220
0
230
1
1
\W0.7480;R790-025A25S2-16L
40
4.0005
41
0
44
1.084337
50
0
71
7
72
5
7
iso_b_vert
0
DIMENSION
5
276
100
AcDbEntity
8
2
62
256
6
ByLayer
370
13
48
1
60
0
100
AcDbDimension
2
DimnDraft3D1
10
12.40252
20
-88.277833
30
0
11
-0.029883
21
-88.277833
31
0
70
32
71
5
72
1
41
1
210
0
220
0
230
1
3
Standard
100
AcDbAlignedDimension
13
-12.462285
23
-67.520295
33
0
14
12.40252
24
-70.592966
34
0
50
0
100
AcDbRotatedDimension
1001
ACAD
1000
DSTYLE
1002
{
1070
   279
1070
     0
1070
   173
1070
     1
1070
   340
1005
265
1070
   271
1070
     2
1070
   272
1070
     3
1070
    77
1070
     1
1070
    73
1070
     0
1070
   171
1070
     3
1070
   274
1070
     4
1070
   177
1070
     7
1070
   176
1070
     7
1070
   178
1070
     7
1070
    48
1040
-0.005
1070
    41
1041
3.175
1070
   147
1041
2.00025
1070
    42
1041
1.5875
1070
    44
1041
3.175
1070
   140
1041
4.0005
1070
   343
1005
0
1070
   344
1005
0
1002
}
0
DIMENSION
5
286
100
AcDbEntity
8
SK2
62
256
6
ByLayer
370
13
48
1
60
0
100
AcDbDimension
2
DimnDraft3D2
10
-19.737306
20
56.629522
30
0
11
-19.737306
21
62.817494
31
0
70
32
71
5
72
1
41
1
210
0
220
0
230
1
3
Standard
100
AcDbAlignedDimension
13
-13.99002
23
69.005466
33
0
14
-13.996411
24
56.629522
34
0
50
90
100
AcDbRotatedDimension
1001
ACAD
1000
DSTYLE
1002
{
1070
    74
1070
     0
1070
   279
1070
     0
1070
   173
1070
     1
1070
   340
1005
265
1070
   271
1070
     2
1070
   272
1070
     3
1070
    77
1070
     1
1070
    73
1070
     0
1070
   171
1070
     3
1070
   274
1070
     4
1070
   177
1070
     7
1070
   176
1070
     7
1070
   178
1070
     7
1070
    48
1040
-0.005
1070
    41
1041
3.175
1070
   147
1041
2.00025
1070
    42
1041
1.5875
1070
    44
1041
3.175
1070
   140
1041
4.0005
1070
   343
1005
0
1070
   344
1005
0
1002
}
0
DIMENSION
5
294
100
AcDbEntity
8
2
62
256
6
ByLayer
370
13
48
1
60
0
100
AcDbDimension
2
DimnDraft3D3
10
-29.355774
20
69.005466
30
0
11
-29.355774
21
44.002731
31
0
70
32
71
5
72
1
41
1
210
0
220
0
230
1
3
Standard
100
AcDbAlignedDimension
13
-12.896556
23
18.999995
33
0
14
-13.99002
24
69.005466
34
0
50
90
100
AcDbRotatedDimension
1001
ACAD
1000
DSTYLE
1002
{
1070
    74
1070
     0
1070
   279
1070
     0
1070
   173
1070
     1
1070
   340
1005
265
1070
   271
1070
     2
1070
   272
1070
     3
1070
    77
1070
     1
1070
    73
1070
     0
1070
   171
1070
     3
1070
   274
1070
     4
1070
   177
1070
     7
1070
   176
1070
     7
1070
   178
1070
     7
1070
    48
1040
-0.005
1070
    41
1041
3.175
1070
   147
1041
2.00025
1070
    42
1041
1.5875
1070
    44
1041
3.175
1070
   140
1041
4.0005
1070
   343
1005
0
1070
   344
1005
0
1002
}
0
DIMENSION
5
2A2
100
AcDbEntity
8
2
62
256
6
ByLayer
370
13
48
1
60
0
100
AcDbDimension
2
DimnDraft3D4
10
-49.332594
20
69.005466
30
0
11
-49.332594
21
6.502733
31
0
70
32
71
5
72
1
41
1
210
0
220
0
230
1
3
Standard
100
AcDbAlignedDimension
13
-12.5875
23
-56
33
0
14
-13.99002
24
69.005466
34
0
50
90
100
AcDbRotatedDimension
1001
ACAD
1000
DSTYLE
1002
{
1070
    74
1070
     0
1070
   279
1070
     0
1070
   173
1070
     1
1070
   340
1005
265
1070
   271
1070
     2
1070
   272
1070
     3
1070
    77
1070
     1
1070
    73
1070
     0
1070
   171
1070
     3
1070
   274
1070
     4
1070
   177
1070
     7
1070
   176
1070
     7
1070
   178
1070
     7
1070
    48
1040
-0.005
1070
    41
1041
3.175
1070
   147
1041
2.00025
1070
    42
1041
1.5875
1070
    44
1041
3.175
1070
   140
1041
4.0005
1070
   343
1005
0
1070
   344
1005
0
1002
}
0
DIMENSION
5
2B0
100
AcDbEntity
8
SK2
62
256
6
ByLayer
370
13
48
1
60
0
100
AcDbDimension
2
DimnDraft3D5
10
12.5
20
69.816779
30
0
11
0
21
69.816779
31
0
70
32
71
5
72
1
41
1
210
0
220
0
230
1
3
Standard
100
AcDbAlignedDimension
13
-12.5
23
56.0875
33
0
14
12.5
24
56.0875
34
0
50
0
100
AcDbRotatedDimension
1001
ACAD
1000
DSTYLE
1002
{
1070
   279
1070
     0
1070
   173
1070
     1
1070
   340
1005
265
1070
   271
1070
     2
1070
   272
1070
     3
1070
    77
1070
     1
1070
    73
1070
     0
1070
   171
1070
     3
1070
   274
1070
     4
1070
   177
1070
     7
1070
   176
1070
     7
1070
   178
1070
     7
1070
    48
1040
-0.005
1070
    41
1041
3.175
1070
   147
1041
2.00025
1070
    42
1041
1.5875
1070
    44
1041
3.175
1070
   140
1041
4.0005
1070
   343
1005
0
1070
   344
1005
0
1002
}
0
DIMENSION
5
2BE
100
AcDbEntity
8
SK2
62
256
6
ByLayer
370
13
48
1
60
0
100
AcDbDimension
2
DimnDraft3D6
10
-39.270196
20
69.005466
30
0
11
-39.270196
21
34.502733
31
0
70
32
71
5
72
1
41
1
210
0
220
0
230
1
3
Standard
100
AcDbAlignedDimension
13
-14.0875
23
0
33
0
14
-13.99002
24
69.005466
34
0
50
90
100
AcDbRotatedDimension
1001
ACAD
1000
DSTYLE
1002
{
1070
    74
1070
     0
1070
   279
1070
     0
1070
   173
1070
     1
1070
   340
1005
265
1070
   271
1070
     2
1070
   272
1070
     3
1070
    77
1070
     1
1070
    73
1070
     0
1070
   171
1070
     3
1070
   274
1070
     4
1070
   177
1070
     7
1070
   176
1070
     7
1070
   178
1070
     7
1070
    48
1040
-0.005
1070
    41
1041
3.175
1070
   147
1041
2.00025
1070
    42
1041
1.5875
1070
    44
1041
3.175
1070
   140
1041
4.0005
1070
   343
1005
0
1070
   344
1005
0
1002
}
0
ENDSEC
0
SECTION
2
OBJECTS
0
DICTIONARY
5
329
330
0
100
AcDbDictionary
280
0
281
1
3
ACAD_GROUP
350
32a
3
ACAD_MLINESTYLE
350
32b
0
DICTIONARY
5
32a
330
0
100
AcDbDictionary
280
0
281
1
0
DICTIONARY
5
32b
330
0
100
AcDbDictionary
280
0
281
1
3
Standard
350
18
0
MLINESTYLE
5
18
330
32b
100
AcDbMlineStyle
2
Standard
70
0
3

62
256
51
90
52
90
71
2
49
-0.5
62
256
6
ByLayer
49
0.5
62
256
6
ByLayer
0
RASTERVARIABLES
5
317
330

100
AcDbRasterVariables
90
0
70
1
71
1
72
1
0
ENDSEC
0
EOF
