0
SECTION
2
HEADER
9
$ACADVER
1
AC1015
9
$DWGCODEPAGE
3
ANSI_1252
9
$HANDSEED
5
23d
9
$ANGBASE
50
0
9
$ANGDIR
70
0
9
$ATTMODE
70
1
9
$AUNITS
70
0
9
$AUPREC
70
0
9
$CECOLOR
62
256
9
$CELTSCALE
40
1
9
$CELTYPE
6
ByLayer
9
$CELWEIGHT
370
-1
9
$CLAYER
8
0
9
$CMLJUST
70
0
9
$CMLSCALE
40
1
9
$CMLSTYLE
2
Standard
9
$DIMSTYLE
2
Standard
9
$TEXTSIZE
40
0.2
9
$TEXTSTYLE
7
Standard
9
$LUNITS
70
2
9
$LUPREC
70
4
9
$EXTNAMES
290
1
9
$INSUNITS
70
4
9
$LTSCALE
40
1
9
$LWDISPLAY
290
0
9
$PDMODE
70
0
9
$PDSIZE
40
0
9
$PLINEGEN
70
0
0
ENDSEC
0
SECTION
2
CLASSES
0
CLASS
1
RASTERVARIABLES
2
AcDbRasterVariables
3
ISM
90
0
280
0
281
0
0
ENDSEC
0
SECTION
2
TABLES
0
TABLE
2
VPORT
5
233
100
AcDbSymbolTable
0
VPORT
5
1
100
AcDbSymbolTableRecord
100
AcDbViewportTableRecord
2
*Active
70
0
10
0
20
0
11
1
21
1
12
-1
22
1
13
0
23
0
14
0.5
24
0.5
15
10
25
10
16
0
26
0
36
1
17
0
27
0
37
0
0
ENDTAB
0
TABLE
2
LTYPE
5
234
100
AcDbSymbolTable
0
LTYPE
5
14
100
AcDbSymbolTableRecord
100
AcDbLinetypeTableRecord
70
0
2
ByBlock
3

72
65
73
0
40
0
0
LTYPE
5
15
100
AcDbSymbolTableRecord
100
AcDbLinetypeTableRecord
70
0
2
ByLayer
3

72
65
73
0
40
0
0
LTYPE
5
16
100
AcDbSymbolTableRecord
100
AcDbLinetypeTableRecord
70
0
2
CONTINUOUS
3
Solid line
72
65
73
0
40
0
0
LTYPE
5
3C
100
AcDbSymbolTableRecord
100
AcDbLinetypeTableRecord
70
0
2
DASHED
3
__ __ __ __ __ __ __ __ __
72
65
73
2
40
25.72
49
12.86
74
0
49
-12.86
74
0
0
LTYPE
5
3D
100
AcDbSymbolTableRecord
100
AcDbLinetypeTableRecord
70
0
2
HIDDEN
3
_ _ _ _ _ _ _ _ _ _ _ _ _ _ _
72
65
73
2
40
0.5
49
0.25
74
0
49
-0.25
74
0
0
LTYPE
5
3E
100
AcDbSymbolTableRecord
100
AcDbLinetypeTableRecord
70
0
2
PHANTOM
3
____ _ _ ____ _ _ _____ _ _ ____
72
65
73
6
40
50.5
49
18
74
0
49
-6.5
74
0
49
6.5
74
0
49
-6.5
74
0
49
6.5
74
0
49
-6.5
74
0
0
LTYPE
5
3F
100
AcDbSymbolTableRecord
100
AcDbLinetypeTableRecord
70
0
2
CENTER
3
____ _ ____ _ ____ _ ____
72
65
73
4
40
47.5
49
22
74
0
49
-8.5
74
0
49
8.5
74
0
49
-8.5
74
0
0
LTYPE
5
40
100
AcDbSymbolTableRecord
100
AcDbLinetypeTableRecord
70
0
2
DOT
3
.........................
72
65
73
2
40
10
49
0
74
0
49
-10
74
0
0
LTYPE
5
41
100
AcDbSymbolTableRecord
100
AcDbLinetypeTableRecord
70
0
2
DASHDOT
3
_._._._._._._._._._._._._._._._.
72
65
73
4
40
70
49
31
74
0
49
-13
74
0
49
13
74
0
49
-13
74
0
0
ENDTAB
0
TABLE
2
LAYER
5
235
100
AcDbSymbolTable
0
LAYER
5
10
100
AcDbSymbolTableRecord
100
AcDbLayerTableRecord
2
0
70
0
62
7
6
CONTINUOUS
290
1
370
-3
390
0
0
LAYER
5
43
100
AcDbSymbolTableRecord
100
AcDbLayerTableRecord
2
81
70
0
62
-3
6
CONTINUOUS
290
1
370
-3
390
0
0
LAYER
5
45
100
AcDbSymbolTableRecord
100
AcDbLayerTableRecord
2
80
70
0
62
-6
6
CONTINUOUS
290
1
370
-3
390
0
0
LAYER
5
47
100
AcDbSymbolTableRecord
100
AcDbLayerTableRecord
2
2
70
0
62
7
6
CONTINUOUS
290
1
370
-3
390
0
0
LAYER
5
4D
100
AcDbSymbolTableRecord
100
AcDbLayerTableRecord
2
1
70
0
62
4
6
CONTINUOUS
290
1
370
-3
390
0
0
LAYER
5
5D
100
AcDbSymbolTableRecord
100
AcDbLayerTableRecord
2
4
70
0
62
-2
6
CENTER
290
1
370
-3
390
0
0
LAYER
5
220
100
AcDbSymbolTableRecord
100
AcDbLayerTableRecord
2
SK4
70
0
62
2
6
CENTER
290
1
370
-3
390
0
0
LAYER
5
221
100
AcDbSymbolTableRecord
100
AcDbLayerTableRecord
2
SK6
70
0
62
5
6
CONTINUOUS
290
1
370
-3
390
0
0
LAYER
5
222
100
AcDbSymbolTableRecord
100
AcDbLayerTableRecord
2
SK2
70
0
62
7
6
CONTINUOUS
290
1
370
-3
390
0
0
ENDTAB
0
TABLE
2
STYLE
5
236
100
AcDbSymbolTable
0
STYLE
5
11
100
AcDbSymbolTableRecord
100
AcDbTextStyleTableRecord
2
Standard
3
txt
70
0
71
0
40
0
41
1
42
0
50
0
0
STYLE
5
1A0
100
AcDbSymbolTableRecord
100
AcDbTextStyleTableRecord
2
DEFAULT
3
simplex.shx
70
0
71
0
40
0
41
1
42
0
50
0
0
STYLE
5
1A1
100
AcDbSymbolTableRecord
100
AcDbTextStyleTableRecord
2
DWGDirectTextStyle
3
SIMPLEX
70
0
71
0
40
0
41
1
42
0
50
0
0
ENDTAB
0
TABLE
2
DIMSTYLE
5
237
100
AcDbSymbolTable
100
AcDbDimStyleTable
0
DIMSTYLE
105
27
100
AcDbSymbolTableRecord
100
AcDbDimStyleTableRecord
2
Standard
70
0
3
<>
41
0.18
42
0.0625
44
0.18
140
0.18
147
0.09
73
0
74
0
77
1
271
2
275
0
278
52
280
0
340
11
0
ENDTAB
0
TABLE
2
VIEW
5
238
100
AcDbSymbolTable
0
ENDTAB
0
TABLE
2
UCS
5
239
100
AcDbSymbolTable
0
ENDTAB
0
TABLE
2
APPID
5
23a
100
AcDbSymbolTable
0
APPID
5
12
100
AcDbSymbolTableRecord
100
AcDbRegAppTableRecord
2
ACAD
70
0
0
ENDTAB
0
TABLE
2
BLOCK_RECORD
5
23b
100
AcDbSymbolTable
0
BLOCK_RECORD
5
1F
100
AcDbSymbolTableRecord
100
AcDbBlockTableRecord
2
*Model_Space
340
0
70
0
0
BLOCK_RECORD
5
1B
100
AcDbSymbolTableRecord
100
AcDbBlockTableRecord
2
*Paper_Space
340
0
70
0
0
BLOCK_RECORD
5
23
100
AcDbSymbolTableRecord
100
AcDbBlockTableRecord
2
*Paper_Space0
340
0
70
0
0
BLOCK_RECORD
5
1A3
100
AcDbSymbolTableRecord
100
AcDbBlockTableRecord
2
DimnDraft3D1
340
0
70
0
0
BLOCK_RECORD
5
1B1
100
AcDbSymbolTableRecord
100
AcDbBlockTableRecord
2
_CLOSED
340
0
70
0
0
BLOCK_RECORD
5
1B8
100
AcDbSymbolTableRecord
100
AcDbBlockTableRecord
2
DimnDraft3D2
340
0
70
0
0
BLOCK_RECORD
5
1C6
100
AcDbSymbolTableRecord
100
AcDbBlockTableRecord
2
DimnDraft3D3
340
0
70
0
0
BLOCK_RECORD
5
1D5
100
AcDbSymbolTableRecord
100
AcDbBlockTableRecord
2
DimnDraft3D4
340
0
70
0
0
ENDTAB
0
ENDSEC
0
SECTION
2
BLOCKS
0
BLOCK
5
20
100
AcDbEntity
8
0
100
AcDbBlockBegin
2
*Model_Space
70
0
10
0
20
0
30
0
3
*Model_Space
0
ENDBLK
5
21
100
AcDbEntity
8
0
100
AcDbBlockEnd
0
BLOCK
5
1C
100
AcDbEntity
8
0
100
AcDbBlockBegin
2
*Paper_Space
70
0
10
0
20
0
30
0
3
*Paper_Space
0
ENDBLK
5
1D
100
AcDbEntity
8
0
100
AcDbBlockEnd
0
BLOCK
5
24
100
AcDbEntity
8
0
100
AcDbBlockBegin
2
*Paper_Space0
70
0
10
0
20
0
30
0
3
*Paper_Space0
0
ENDBLK
5
25
100
AcDbEntity
8
0
100
AcDbBlockEnd
0
BLOCK
5
1AE
100
AcDbEntity
8
0
100
AcDbBlockBegin
2
DimnDraft3D1
70
0
10
0
20
0
30
0
3
DimnDraft3D1
0
MTEXT
5
1A4
100
AcDbEntity
8
2
62
256
6
ByLayer
370
-1
48
1
60
0
100
AcDbMText
10
23.185197
20
70.875
30
0
210
0
220
0
230
1
1
\W01.000;\fsimplex.shx,bigfont.shx;50\P
40
4.5
41
0
44
1.084337
50
0
71
7
72
5
7
DEFAULT
0
LINE
5
1A5
100
AcDbEntity
8
2
62
256
6
ByLayer
370
-1
48
1
60
0
100
AcDbLine
10
50
20
52
30
0
11
50
21
71.75
31
0
39
0
210
0
220
0
230
1
0
LINE
5
1A6
100
AcDbEntity
8
2
62
256
6
ByLayer
370
-1
48
1
60
0
100
AcDbLine
10
0
20
32.5
30
0
11
0
21
71.75
31
0
39
0
210
0
220
0
230
1
0
LINE
5
1A7
100
AcDbEntity
8
2
62
256
6
ByLayer
370
-1
48
1
60
0
100
AcDbLine
10
50
20
69.75
30
0
11
0
21
69.75
31
0
39
0
210
0
220
0
230
1
0
LINE
5
1A8
100
AcDbEntity
8
2
62
256
6
ByLayer
370
-1
48
1
60
0
100
AcDbLine
10
50
20
69.75
30
0
11
46.825002
21
69.332003
31
0
39
0
210
0
220
0
230
1
0
LINE
5
1A9
100
AcDbEntity
8
2
62
256
6
ByLayer
370
-1
48
1
60
0
100
AcDbLine
10
50
20
69.75
30
0
11
46.824998
21
70.167997
31
0
39
0
210
0
220
0
230
1
0
LINE
5
1AA
100
AcDbEntity
8
2
62
256
6
ByLayer
370
-1
48
1
60
0
100
AcDbLine
10
46.825002
20
69.332003
30
0
11
46.824998
21
70.167997
31
0
39
0
210
0
220
0
230
1
0
LINE
5
1AB
100
AcDbEntity
8
2
62
256
6
ByLayer
370
-1
48
1
60
0
100
AcDbLine
10
0
20
69.75
30
0
11
3.174998
21
70.167997
31
0
39
0
210
0
220
0
230
1
0
LINE
5
1AC
100
AcDbEntity
8
2
62
256
6
ByLayer
370
-1
48
1
60
0
100
AcDbLine
10
0
20
69.75
30
0
11
3.175002
21
69.332003
31
0
39
0
210
0
220
0
230
1
0
LINE
5
1AD
100
AcDbEntity
8
2
62
256
6
ByLayer
370
-1
48
1
60
0
100
AcDbLine
10
3.174998
20
70.167997
30
0
11
3.175002
21
69.332003
31
0
39
0
210
0
220
0
230
1
0
ENDBLK
5
1AF
100
AcDbEntity
8
0
100
AcDbBlockEnd
0
BLOCK
5
1B2
100
AcDbEntity
8
0
100
AcDbBlockBegin
2
_CLOSED
70
0
10
0
20
0
30
0
3
_CLOSED
0
LINE
5
1B4
100
AcDbEntity
8
0
62
256
6
ByLayer
370
-2
48
1
60
0
100
AcDbLine
10
-1
20
0.166667
30
0
11
0
21
0
31
0
39
0
210
0
220
0
230
1
0
LINE
5
1B5
100
AcDbEntity
8
0
62
256
6
ByLayer
370
-2
48
1
60
0
100
AcDbLine
10
0
20
0
30
0
11
-1
21
-0.166667
31
0
39
0
210
0
220
0
230
1
0
LINE
5
1B6
100
AcDbEntity
8
0
62
256
6
ByLayer
370
-2
48
1
60
0
100
AcDbLine
10
-1
20
0.166667
30
0
11
-1
21
-0.166667
31
0
39
0
210
0
220
0
230
1
0
LINE
5
1B7
100
AcDbEntity
8
0
62
256
6
ByLayer
370
-2
48
1
60
0
100
AcDbLine
10
0
20
0
30
0
11
-1
21
0
31
0
39
0
210
0
220
0
230
1
0
ENDBLK
5
1B3
100
AcDbEntity
8
0
100
AcDbBlockEnd
0
BLOCK
5
1C3
100
AcDbEntity
8
0
100
AcDbBlockBegin
2
DimnDraft3D2
70
0
10
0
20
0
30
0
3
DimnDraft3D2
0
MTEXT
5
1B9
100
AcDbEntity
8
2
62
256
6
ByLayer
370
-1
48
1
60
0
100
AcDbMText
10
56.51875
20
60.875
30
0
210
0
220
0
230
1
1
\W01.000;\fsimplex.shx,bigfont.shx;15.4\P
40
4.5
41
0
44
1.084337
50
0
71
7
72
5
7
DEFAULT
0
LINE
5
1BA
100
AcDbEntity
8
2
62
256
6
ByLayer
370
-1
48
1
60
0
100
AcDbLine
10
50
20
52
30
0
11
50
21
61.75
31
0
39
0
210
0
220
0
230
1
0
LINE
5
1BB
100
AcDbEntity
8
2
62
256
6
ByLayer
370
-1
48
1
60
0
100
AcDbLine
10
34.6
20
52
30
0
11
34.6
21
61.75
31
0
39
0
210
0
220
0
230
1
0
LINE
5
1BC
100
AcDbEntity
8
2
62
256
6
ByLayer
370
-1
48
1
60
0
100
AcDbLine
10
34.6
20
59.75
30
0
11
66.726645
21
59.75
31
0
39
0
210
0
220
0
230
1
0
LINE
5
1BD
100
AcDbEntity
8
2
62
256
6
ByLayer
370
-1
48
1
60
0
100
AcDbLine
10
50
20
59.75
30
0
11
46.825002
21
59.332003
31
0
39
0
210
0
220
0
230
1
0
LINE
5
1BE
100
AcDbEntity
8
2
62
256
6
ByLayer
370
-1
48
1
60
0
100
AcDbLine
10
50
20
59.75
30
0
11
46.824998
21
60.167997
31
0
39
0
210
0
220
0
230
1
0
LINE
5
1BF
100
AcDbEntity
8
2
62
256
6
ByLayer
370
-1
48
1
60
0
100
AcDbLine
10
46.825002
20
59.332003
30
0
11
46.824998
21
60.167997
31
0
39
0
210
0
220
0
230
1
0
LINE
5
1C0
100
AcDbEntity
8
2
62
256
6
ByLayer
370
-1
48
1
60
0
100
AcDbLine
10
34.6
20
59.75
30
0
11
37.774998
21
60.167997
31
0
39
0
210
0
220
0
230
1
0
LINE
5
1C1
100
AcDbEntity
8
2
62
256
6
ByLayer
370
-1
48
1
60
0
100
AcDbLine
10
34.6
20
59.75
30
0
11
37.775002
21
59.332003
31
0
39
0
210
0
220
0
230
1
0
LINE
5
1C2
100
AcDbEntity
8
2
62
256
6
ByLayer
370
-1
48
1
60
0
100
AcDbLine
10
37.774998
20
60.167997
30
0
11
37.775002
21
59.332003
31
0
39
0
210
0
220
0
230
1
0
ENDBLK
5
1C4
100
AcDbEntity
8
0
100
AcDbBlockEnd
0
BLOCK
5
1D2
100
AcDbEntity
8
0
100
AcDbBlockBegin
2
DimnDraft3D3
70
0
10
0
20
0
30
0
3
DimnDraft3D3
0
MTEXT
5
1C7
100
AcDbEntity
8
SK2
62
256
6
ByLayer
370
-1
48
1
60
0
100
AcDbMText
10
-10.875
20
-4.49852
30
0
210
0
220
0
230
1
1
\W01.000;\fsimplex.shx,bigfont.shx;%%c32\P
40
4.5
41
0
44
1.084337
50
90
71
7
72
5
7
DEFAULT
0
LINE
5
1C9
100
AcDbEntity
8
SK2
62
256
6
ByLayer
370
-1
48
1
60
0
100
AcDbLine
10
-2
20
16
30
0
11
-11.75
21
16
31
0
39
0
210
0
220
0
230
1
0
LINE
5
1CA
100
AcDbEntity
8
SK2
62
256
6
ByLayer
370
-1
48
1
60
0
100
AcDbLine
10
-2
20
-16
30
0
11
-11.75
21
-16
31
0
39
0
210
0
220
0
230
1
0
LINE
5
1CB
100
AcDbEntity
8
SK2
62
256
6
ByLayer
370
-1
48
1
60
0
100
AcDbLine
10
-9.75
20
16
30
0
11
-9.75
21
-16
31
0
39
0
210
0
220
0
230
1
0
LINE
5
1CC
100
AcDbEntity
8
SK2
62
256
6
ByLayer
370
-1
48
1
60
0
100
AcDbLine
10
-9.75
20
16
30
0
11
-9.332003
21
12.825002
31
0
39
0
210
0
220
0
230
1
0
LINE
5
1CD
100
AcDbEntity
8
SK2
62
256
6
ByLayer
370
-1
48
1
60
0
100
AcDbLine
10
-9.75
20
16
30
0
11
-10.167997
21
12.824998
31
0
39
0
210
0
220
0
230
1
0
LINE
5
1CE
100
AcDbEntity
8
SK2
62
256
6
ByLayer
370
-1
48
1
60
0
100
AcDbLine
10
-9.332003
20
12.825002
30
0
11
-10.167997
21
12.824998
31
0
39
0
210
0
220
0
230
1
0
LINE
5
1CF
100
AcDbEntity
8
SK2
62
256
6
ByLayer
370
-1
48
1
60
0
100
AcDbLine
10
-9.75
20
-16
30
0
11
-10.167997
21
-12.825002
31
0
39
0
210
0
220
0
230
1
0
LINE
5
1D0
100
AcDbEntity
8
SK2
62
256
6
ByLayer
370
-1
48
1
60
0
100
AcDbLine
10
-9.75
20
-16
30
0
11
-9.332003
21
-12.824998
31
0
39
0
210
0
220
0
230
1
0
LINE
5
1D1
100
AcDbEntity
8
SK2
62
256
6
ByLayer
370
-1
48
1
60
0
100
AcDbLine
10
-10.167997
20
-12.825002
30
0
11
-9.332003
21
-12.824998
31
0
39
0
210
0
220
0
230
1
0
ENDBLK
5
1D3
100
AcDbEntity
8
0
100
AcDbBlockEnd
0
BLOCK
5
1E0
100
AcDbEntity
8
0
100
AcDbBlockBegin
2
DimnDraft3D4
70
0
10
0
20
0
30
0
3
DimnDraft3D4
0
MTEXT
5
1D6
100
AcDbEntity
8
2
62
256
6
ByLayer
370
-1
48
1
60
0
100
AcDbMText
10
63.125
20
-5.743421
30
0
210
0
220
0
230
1
1
\W01.000;\fsimplex.shx,bigfont.shx;%%c100\P
40
4.5
41
0
44
1.084337
50
90
71
7
72
5
7
DEFAULT
0
LINE
5
1D7
100
AcDbEntity
8
2
62
256
6
ByLayer
370
-1
48
1
60
0
100
AcDbLine
10
52
20
50
30
0
11
66.25
21
50
31
0
39
0
210
0
220
0
230
1
0
LINE
5
1D8
100
AcDbEntity
8
2
62
256
6
ByLayer
370
-1
48
1
60
0
100
AcDbLine
10
52
20
-50
30
0
11
66.25
21
-50
31
0
39
0
210
0
220
0
230
1
0
LINE
5
1D9
100
AcDbEntity
8
2
62
256
6
ByLayer
370
-1
48
1
60
0
100
AcDbLine
10
64.25
20
50
30
0
11
64.25
21
-50
31
0
39
0
210
0
220
0
230
1
0
LINE
5
1DA
100
AcDbEntity
8
2
62
256
6
ByLayer
370
-1
48
1
60
0
100
AcDbLine
10
64.25
20
50
30
0
11
64.667997
21
46.825002
31
0
39
0
210
0
220
0
230
1
0
LINE
5
1DB
100
AcDbEntity
8
2
62
256
6
ByLayer
370
-1
48
1
60
0
100
AcDbLine
10
64.25
20
50
30
0
11
63.832003
21
46.824998
31
0
39
0
210
0
220
0
230
1
0
LINE
5
1DC
100
AcDbEntity
8
2
62
256
6
ByLayer
370
-1
48
1
60
0
100
AcDbLine
10
64.667997
20
46.825002
30
0
11
63.832003
21
46.824998
31
0
39
0
210
0
220
0
230
1
0
LINE
5
1DD
100
AcDbEntity
8
2
62
256
6
ByLayer
370
-1
48
1
60
0
100
AcDbLine
10
64.25
20
-50
30
0
11
63.832003
21
-46.825002
31
0
39
0
210
0
220
0
230
1
0
LINE
5
1DE
100
AcDbEntity
8
2
62
256
6
ByLayer
370
-1
48
1
60
0
100
AcDbLine
10
64.25
20
-50
30
0
11
64.667997
21
-46.824998
31
0
39
0
210
0
220
0
230
1
0
LINE
5
1DF
100
AcDbEntity
8
2
62
256
6
ByLayer
370
-1
48
1
60
0
100
AcDbLine
10
63.832003
20
-46.825002
30
0
11
64.667997
21
-46.824998
31
0
39
0
210
0
220
0
230
1
0
ENDBLK
5
1E1
100
AcDbEntity
8
0
100
AcDbBlockEnd
0
ENDSEC
0
SECTION
2
ENTITIES
0
ARC
5
B0
100
AcDbEntity
8
1
62
256
6
ByLayer
370
-1
48
1
60
0
100
AcDbCircle
39
0
10
-14.5
20
40.5
30
0
40
10
210
0
220
0
230
-1
100
AcDbArc
50
205.662459
51
270
0
ARC
5
B1
100
AcDbEntity
8
1
62
256
6
ByLayer
370
-1
48
1
60
0
100
AcDbCircle
39
0
10
-14.5
20
-40.5
30
0
40
10
210
0
220
0
230
-1
100
AcDbArc
50
90
51
154.337541
0
ARC
5
B2
100
AcDbEntity
8
1
62
256
6
ByLayer
370
-1
48
1
60
0
100
AcDbCircle
39
0
10
1
20
-29.5
30
0
40
1
210
0
220
0
230
1
100
AcDbArc
50
180
51
270
0
ARC
5
B3
100
AcDbEntity
8
1
62
256
6
ByLayer
370
-1
48
1
60
0
100
AcDbCircle
39
0
10
1
20
29.5
30
0
40
1
210
0
220
0
230
1
100
AcDbArc
50
90
51
180
0
ARC
5
B4
100
AcDbEntity
8
1
62
256
6
ByLayer
370
-1
48
1
60
0
100
AcDbCircle
39
0
10
32.477755
20
-43.281191
30
0
40
5
210
0
220
0
230
1
100
AcDbArc
50
205.662459
51
256.5
0
ARC
5
B5
100
AcDbEntity
8
1
62
256
6
ByLayer
370
-1
48
1
60
0
100
AcDbCircle
39
0
10
48.433434
20
-47.475814
30
0
40
0.8
210
0
220
0
230
1
100
AcDbArc
50
271.625398
51
0
0
ARC
5
B6
100
AcDbEntity
8
1
62
256
6
ByLayer
370
-1
48
1
60
0
100
AcDbCircle
39
0
10
33.668405
20
-48.19491
30
0
40
0.5
210
0
220
0
230
1
100
AcDbArc
50
256.5
51
271.625398
0
ELLIPSE
5
B7
100
AcDbEntity
8
1
62
256
6
ByLayer
370
-1
48
1
60
0
100
AcDbEllipse
10
43.451005
20
-0.179053
30
0
11
6.32749717870411
21
48.4163277797751
31
0
210
0
220
0
230
-1
40
0.052395
41
-0.967503008202196
42
-0.749793994634123
0
ELLIPSE
5
B8
100
AcDbEntity
8
1
62
256
6
ByLayer
370
-1
48
1
60
0
100
AcDbEllipse
10
-43.46317
20
-22.471171
30
0
11
1312.95912090103
21
30.70489559964
31
0
210
0
220
0
230
-1
40
0.021043
41
1.5012218716786
42
1.50833948521691
0
ELLIPSE
5
B9
100
AcDbEntity
8
1
62
256
6
ByLayer
370
-1
48
1
60
0
100
AcDbEllipse
10
-7.109367
20
6.167169
30
0
11
354.090680757337
21
-30.9600863036103
31
0
210
0
220
0
230
-1
40
0.10805
41
1.40378053952939
42
1.4393071506289
0
ELLIPSE
5
BA
100
AcDbEntity
8
1
62
256
6
ByLayer
370
-1
48
1
60
0
100
AcDbEllipse
10
24.763474
20
3.524024
30
0
11
14.7700900597511
21
46.5458964455335
31
0
210
0
220
0
230
-1
40
0.077296
41
1.19333530932685
42
1.20153247780275
0
ELLIPSE
5
BB
100
AcDbEntity
8
1
62
256
6
ByLayer
370
-1
48
1
60
0
100
AcDbEllipse
10
36.431717
20
-12.714824
30
0
11
1.44643274321191
21
8.13889063846422
31
0
210
0
220
0
230
-1
40
0.331897
41
-0.689098401085352
42
0.586655096578962
0
ELLIPSE
5
BC
100
AcDbEntity
8
1
62
256
6
ByLayer
370
-1
48
1
60
0
100
AcDbEllipse
10
-43.461706
20
34.986537
30
0
11
1312.94821948945
21
-47.7875381835306
31
0
210
0
220
0
230
-1
40
0.009061
41
-1.50817775306795
42
-1.50106008022275
0
ELLIPSE
5
BD
100
AcDbEntity
8
1
62
256
6
ByLayer
370
-1
48
1
60
0
100
AcDbEllipse
10
-42.90738
20
-22.653721
30
0
11
1308.28227246685
21
30.6070720523673
31
0
210
0
220
0
230
-1
40
0.020969
41
1.51106632021036
42
1.5127110170803
0
ELLIPSE
5
BE
100
AcDbEntity
8
1
62
256
6
ByLayer
370
-1
48
1
60
0
100
AcDbEllipse
10
43.451005
20
-0.116522
30
0
11
4.15830384658747
21
48.415048914137
31
0
210
0
220
0
230
-1
40
0.111576
41
2.04584476994568
42
2.26355378351596
0
ELLIPSE
5
BF
100
AcDbEntity
8
1
62
256
6
ByLayer
370
-1
48
1
60
0
100
AcDbEllipse
10
45.229129
20
8.969735
30
0
11
343.548974081437
21
-44.6286986629994
31
0
210
0
220
0
230
-1
40
0.053122
41
-1.59320418031814
42
-1.57850376393577
0
ELLIPSE
5
C0
100
AcDbEntity
8
1
62
256
6
ByLayer
370
-1
48
1
60
0
100
AcDbEllipse
10
32.652774
20
18.700696
30
0
11
-0.211519208015317
21
1.98878345343091
31
0
210
0
220
0
230
1
40
0.779641
41
-0.672442907457015
42
-0.504725389801719
0
ELLIPSE
5
C1
100
AcDbEntity
8
1
62
256
6
ByLayer
370
-1
48
1
60
0
100
AcDbEllipse
10
33.188238
20
22.169619
30
0
11
0.776743136532569
21
-1.12198039820652
31
0
210
0
220
0
230
1
40
0.236974
41
-1.14047087821736
42
-1.13243362585457
0
ELLIPSE
5
C2
100
AcDbEntity
8
1
62
256
6
ByLayer
370
-1
48
1
60
0
100
AcDbEllipse
10
36.431717
20
46.840259
30
0
11
2.32443994751839
21
-3.34821486371486
31
0
210
0
220
0
230
-1
40
0.596289
41
0.948598147859274
42
1.05863200735042
0
ELLIPSE
5
C3
100
AcDbEntity
8
1
62
256
6
ByLayer
370
-1
48
1
60
0
100
AcDbEllipse
10
35.134395
20
-41.854045
30
0
11
1.88364148075143
21
-8.54615033795903
31
0
210
0
220
0
230
-1
40
0.085322
41
2.12419214955662
42
2.28336590650448
0
ELLIPSE
5
C4
100
AcDbEntity
8
1
62
256
6
ByLayer
370
-1
48
1
60
0
100
AcDbEllipse
10
31.878633
20
15.462543
30
0
11
1.98503952555617
21
-0.293137407015911
31
0
210
0
220
0
230
-1
40
0.393601
41
1.7045379591725
42
-2.71983931178732
0
ELLIPSE
5
C5
100
AcDbEntity
8
1
62
256
6
ByLayer
370
-1
48
1
60
0
100
AcDbEllipse
10
48.695304
20
9.316263
30
0
11
-0.266937185891414
21
1.98210608666347
31
0
210
0
220
0
230
1
40
0.040672
41
-1.89158601328093
42
-1.65343897047703
0
ELLIPSE
5
C6
100
AcDbEntity
8
1
62
256
6
ByLayer
370
-1
48
1
60
0
100
AcDbEllipse
10
26.723639
20
8.407343
30
0
11
35.0368971826483
21
47.0361852920706
31
0
210
0
220
0
230
-1
40
0.019011
41
-1.3665481131001
42
-1.35217296076548
0
ELLIPSE
5
C7
100
AcDbEntity
8
1
62
256
6
ByLayer
370
-1
48
1
60
0
100
AcDbEllipse
10
24.763172
20
-0.022459
30
0
11
0.101067196277782
21
-46.4270266332406
31
0
210
0
220
0
230
-1
40
0.327438
41
-0.609754330792635
42
-0.601557304134297
0
ELLIPSE
5
C8
100
AcDbEntity
8
1
62
256
6
ByLayer
370
-1
48
1
60
0
100
AcDbEllipse
10
45.229128
20
5.983437
30
0
11
343.541819643385
21
-30.037741344526
31
0
210
0
220
0
230
-1
40
0.10805
41
1.56215589634709
42
1.57685631289236
0
ELLIPSE
5
C9
100
AcDbEntity
8
1
62
256
6
ByLayer
370
-1
48
1
60
0
100
AcDbEllipse
10
36.431717
20
-54.858971
30
0
11
1.48557125221534
21
8.31257501172513
31
0
210
0
220
0
230
-1
40
0.322397
41
-0.703644474020748
42
0.572109023640376
0
ELLIPSE
5
CA
100
AcDbEntity
8
1
62
256
6
ByLayer
370
-1
48
1
60
0
100
AcDbEllipse
10
35.12541
20
-38.27549
30
0
11
1.85228648844407
21
-3.47491505887205
31
0
210
0
220
0
230
-1
40
0.222855
41
2.25861891299972
42
2.34501662145633
0
ELLIPSE
5
CB
100
AcDbEntity
8
1
62
256
6
ByLayer
370
-1
48
1
60
0
100
AcDbEllipse
10
-43.462415
20
22.990561
30
0
11
1312.95358201587
21
-31.4131966779214
31
0
210
0
220
0
230
-1
40
0.020759
41
1.50023335787486
42
1.5073510012836
0
ELLIPSE
5
CC
100
AcDbEntity
8
1
62
256
6
ByLayer
370
-1
48
1
60
0
100
AcDbEllipse
10
26.723719
20
2.475588
30
0
11
19.1727347790456
21
44.6003635538749
31
0
210
0
220
0
230
-1
40
0.657819
41
2.3696620691729
42
2.38403731001786
0
ELLIPSE
5
CD
100
AcDbEntity
8
1
62
256
6
ByLayer
370
-1
48
1
60
0
100
AcDbEllipse
10
32.652774
20
18.700696
30
0
11
1.94518496554119
21
-0.465032740602752
31
0
210
0
220
0
230
1
40
0.259168
41
-1.48414552026695
42
-1.45372688138555
0
ELLIPSE
5
CE
100
AcDbEntity
8
1
62
256
6
ByLayer
370
-1
48
1
60
0
100
AcDbEllipse
10
-43.322228
20
22.938088
30
0
11
1311.76441383903
21
-31.381815462897
31
0
210
0
220
0
230
-1
40
0.020741
41
1.50992279179899
42
1.51156313826289
0
ELLIPSE
5
CF
100
AcDbEntity
8
1
62
256
6
ByLayer
370
-1
48
1
60
0
100
AcDbEllipse
10
38.30062
20
-0.179593
30
0
11
6.34659671808922
21
48.5624723813911
31
0
210
0
220
0
230
-1
40
0.052395
41
-0.953140854828127
42
-0.743701604823421
0
ELLIPSE
5
D0
100
AcDbEntity
8
1
62
256
6
ByLayer
370
-1
48
1
60
0
100
AcDbEllipse
10
38.30062
20
-0.116874
30
0
11
4.17085567977157
21
48.5611896553309
31
0
210
0
220
0
230
-1
40
0.111576
41
2.0397523800927
42
2.24919163010088
0
ELLIPSE
5
D1
100
AcDbEntity
8
1
62
256
6
ByLayer
370
-1
48
1
60
0
100
AcDbEllipse
10
35.185181
20
-36.406758
30
0
11
-0.719161232007261
21
1.55101167251175
31
0
210
0
220
0
230
1
40
0.47411
41
-1.09411793826482
42
-0.85378804705004
0
ELLIPSE
5
D2
100
AcDbEntity
8
1
62
256
6
ByLayer
370
-1
48
1
60
0
100
AcDbEllipse
10
34.404949
20
-36.578436
30
0
11
1.91929279848054
21
-0.440244424951333
31
0
210
0
220
0
230
1
40
0.781784
41
0.790891243254749
42
1.14659662669987
0
ELLIPSE
5
D3
100
AcDbEntity
8
1
62
256
6
ByLayer
370
-1
48
1
60
0
100
AcDbEllipse
10
42.420402
20
-28.594677
30
0
11
2.4854527477307
21
-0.570109321795336
31
0
210
0
220
0
230
1
40
0.781784
41
0.179440483344266
42
2.58020646306668
0
ELLIPSE
5
D4
100
AcDbEntity
8
1
62
256
6
ByLayer
370
-1
48
1
60
0
100
AcDbEllipse
10
26.723706
20
2.275375
30
0
11
18.128770156882
21
44.714950102688
31
0
210
0
220
0
230
-1
40
0.670812
41
-0.364908615003023
42
-0.355891754839361
0
ELLIPSE
5
D5
100
AcDbEntity
8
1
62
256
6
ByLayer
370
-1
48
1
60
0
100
AcDbEllipse
10
33.188238
20
-37.332686
30
0
11
0.574029399872529
21
-1.23800652752402
31
0
210
0
220
0
230
1
40
0.47411
41
2.25876134896922
42
2.26679860133201
0
ELLIPSE
5
D6
100
AcDbEntity
8
1
62
256
6
ByLayer
370
-1
48
1
60
0
100
AcDbEllipse
10
42.420402
20
-28.594677
30
0
11
-1.9493747041025
21
0.447144566113994
31
0
210
0
220
0
230
1
40
0.781784
41
0
42
6.28318530717959
0
ELLIPSE
5
D7
100
AcDbEntity
8
1
62
256
6
ByLayer
370
-1
48
1
60
0
100
AcDbEllipse
10
40.866987
20
44.404594
30
0
11
0.890292174619633
21
1.42057456467833
31
0
210
0
220
0
230
1
40
0.986373
41
2.13481654284227
42
2.4545028446693
0
ELLIPSE
5
D8
100
AcDbEntity
8
1
62
256
6
ByLayer
370
-1
48
1
60
0
100
AcDbEllipse
10
41.06938
20
46.157346
30
0
11
-0.36429491905104
21
-0.581278945045833
31
0
210
0
220
0
230
1
40
0.986373
41
1.04106221532656E-05
42
0.442406174830514
0
ELLIPSE
5
D9
100
AcDbEntity
8
1
62
256
6
ByLayer
370
-1
48
1
60
0
100
AcDbEllipse
10
41.065644
20
44.280094
30
0
11
-0.640702361275627
21
-1.02232222623586
31
0
210
0
220
0
230
1
40
0.986373
41
-2.50853980413053
42
-1.52897961250514
0
ELLIPSE
5
DA
100
AcDbEntity
8
1
62
256
6
ByLayer
370
-1
48
1
60
0
100
AcDbEllipse
10
40.866987
20
44.404594
30
0
11
0.890292174619633
21
1.42057456467833
31
0
210
0
220
0
230
1
40
0.986373
41
1.09040953932702
42
2.13481654284227
0
ELLIPSE
5
DB
100
AcDbEntity
8
1
62
256
6
ByLayer
370
-1
48
1
60
0
100
AcDbEllipse
10
41.065644
20
44.280094
30
0
11
0.640702361275626
21
1.02232222623586
31
0
210
0
220
0
230
1
40
0.986373
41
0.494987582635483
42
0.633052849459263
0
ELLIPSE
5
DC
100
AcDbEntity
8
1
62
256
6
ByLayer
370
-1
48
1
60
0
100
AcDbEllipse
10
39.443264
20
45.203492
30
0
11
-0.36429491905104
21
-0.581278945045833
31
0
210
0
220
0
230
1
40
0.986373
41
1.61261304108464
42
2.39660368470544
0
ELLIPSE
5
DD
100
AcDbEntity
8
1
62
256
6
ByLayer
370
-1
48
1
60
0
100
AcDbEllipse
10
40.866987
20
44.404594
30
0
11
0.955875880891942
21
1.52522172169461
31
0
210
0
220
0
230
1
40
0.986373
41
-1.39444457191603
42
-1.01712155145684
0
ELLIPSE
5
DE
100
AcDbEntity
8
1
62
256
6
ByLayer
370
-1
48
1
60
0
100
AcDbEllipse
10
40.866987
20
44.404594
30
0
11
0.955875880891942
21
1.52522172169461
31
0
210
0
220
0
230
1
40
0.986373
41
-1.01712155145684
42
0
0
ELLIPSE
5
DF
100
AcDbEntity
8
1
62
256
6
ByLayer
370
-1
48
1
60
0
100
AcDbEllipse
10
40.866987
20
44.404594
30
0
11
0.955875880891942
21
1.52522172169461
31
0
210
0
220
0
230
1
40
0.986373
41
0
42
2.42828440904249
0
ELLIPSE
5
E0
100
AcDbEntity
8
1
62
256
6
ByLayer
370
-1
48
1
60
0
100
AcDbEllipse
10
42.691767
20
45.2373
30
0
11
-0.36429491905104
21
-0.581278945045833
31
0
210
0
220
0
230
1
40
0.986373
41
-5.17860450439721E-06
42
0.228332361327442
0
ELLIPSE
5
E1
100
AcDbEntity
8
1
62
256
6
ByLayer
370
-1
48
1
60
0
100
AcDbEllipse
10
40.866987
20
44.404594
30
0
11
0.890292174619633
21
1.42057456467833
31
0
210
0
220
0
230
1
40
0.986373
41
-1.42058956958295
42
-1.00677611074752
0
ELLIPSE
5
E2
100
AcDbEntity
8
1
62
256
6
ByLayer
370
-1
48
1
60
0
100
AcDbEllipse
10
39.443264
20
45.203492
30
0
11
-0.36429491905104
21
-0.581278945045833
31
0
210
0
220
0
230
1
40
0.986373
41
0.828622397463851
42
1.61261304108464
0
ELLIPSE
5
E3
100
AcDbEntity
8
1
62
256
6
ByLayer
370
-1
48
1
60
0
100
AcDbEllipse
10
39.439522
20
43.322887
30
0
11
-0.36429491905104
21
-0.581278945045833
31
0
210
0
220
0
230
1
40
0.986373
41
2.98554841380359
42
3.14158747498531
0
ELLIPSE
5
E4
100
AcDbEntity
8
1
62
256
6
ByLayer
370
-1
48
1
60
0
100
AcDbEllipse
10
41.065644
20
44.280094
30
0
11
-0.640702361275627
21
-1.02232222623586
31
0
210
0
220
0
230
1
40
0.986373
41
2.94445963273339
42
-2.64660507095431
0
ELLIPSE
5
E5
100
AcDbEntity
8
1
62
256
6
ByLayer
370
-1
48
1
60
0
100
AcDbEllipse
10
41.065644
20
44.280094
30
0
11
-0.640702361275627
21
-1.02232222623586
31
0
210
0
220
0
230
1
40
0.986373
41
-1.52897961250514
42
-0.641364130894659
0
ELLIPSE
5
E6
100
AcDbEntity
8
1
62
256
6
ByLayer
370
-1
48
1
60
0
100
AcDbEllipse
10
40.379218
20
45.465359
30
0
11
-0.155064309566915
21
-0.247424857074903
31
0
210
0
220
0
230
1
40
0.986373
41
-2.89051671433551
42
-0.744988968884376
0
ELLIPSE
5
E7
100
AcDbEntity
8
1
62
256
6
ByLayer
370
-1
48
1
60
0
100
AcDbEllipse
10
41.062159
20
44.282278
30
0
11
1.39398565963408
21
2.2242816774713
31
0
210
0
220
0
230
1
40
0.986373
41
-1.24001578257915
42
-1.01712169485156
0
ELLIPSE
5
E8
100
AcDbEntity
8
1
62
256
6
ByLayer
370
-1
48
1
60
0
100
AcDbEllipse
10
41.062159
20
44.282278
30
0
11
1.39398565963408
21
2.2242816774713
31
0
210
0
220
0
230
1
40
0.986373
41
-1.01712169485155
42
0
0
ELLIPSE
5
E9
100
AcDbEntity
8
1
62
256
6
ByLayer
370
-1
48
1
60
0
100
AcDbEllipse
10
41.756817
20
45.479697
30
0
11
-0.155064309566915
21
-0.247424857074903
31
0
210
0
220
0
230
1
40
0.986373
41
-2.71990828872578
42
-1.78631110262115
0
ELLIPSE
5
EA
100
AcDbEntity
8
1
62
256
6
ByLayer
370
-1
48
1
60
0
100
AcDbEllipse
10
41.06938
20
46.157346
30
0
11
-0.36429491905104
21
-0.581278945045833
31
0
210
0
220
0
230
1
40
0.986373
41
0.685634257264256
42
1.35528155096861
0
ELLIPSE
5
EB
100
AcDbEntity
8
1
62
256
6
ByLayer
370
-1
48
1
60
0
100
AcDbEllipse
10
39.694667
20
44.265825
30
0
11
-0.155064309566915
21
-0.247424857074903
31
0
210
0
220
0
230
1
40
0.986373
41
-2.31297025612597
42
-0.481766919223924
0
ELLIPSE
5
EC
100
AcDbEntity
8
1
62
256
6
ByLayer
370
-1
48
1
60
0
100
AcDbEllipse
10
41.065644
20
44.280094
30
0
11
-0.640702361275627
21
-1.02232222623586
31
0
210
0
220
0
230
1
40
0.986373
41
1.95108287787016
42
2.53118565917572
0
ELLIPSE
5
ED
100
AcDbEntity
8
1
62
256
6
ByLayer
370
-1
48
1
60
0
100
AcDbEllipse
10
40.866987
20
44.404594
30
0
11
0.890292174619633
21
1.42057456467833
31
0
210
0
220
0
230
1
40
0.986373
41
-1.00677611074752
42
0.0376308927677316
0
ELLIPSE
5
EE
100
AcDbEntity
8
1
62
256
6
ByLayer
370
-1
48
1
60
0
100
AcDbEllipse
10
40.904816
20
44.380886
30
0
11
0.640702361275626
21
1.02232222623586
31
0
210
0
220
0
230
1
40
0.986373
41
0.494987582635483
42
0.633052849459271
0
ELLIPSE
5
EF
100
AcDbEntity
8
1
62
256
6
ByLayer
370
-1
48
1
60
0
100
AcDbEllipse
10
40.866987
20
44.404594
30
0
11
0.890292174619633
21
1.42057456467833
31
0
210
0
220
0
230
1
40
0.986373
41
0.0376308927677316
42
1.09040953932702
0
ELLIPSE
5
F0
100
AcDbEntity
8
1
62
256
6
ByLayer
370
-1
48
1
60
0
100
AcDbEllipse
10
40.905386
20
44.38053
30
0
11
1.39398565963408
21
2.2242816774713
31
0
210
0
220
0
230
1
40
0.986373
41
-1.27604563992233
42
-1.01712169485156
0
ELLIPSE
5
F1
100
AcDbEntity
8
1
62
256
6
ByLayer
370
-1
48
1
60
0
100
AcDbEllipse
10
40.905386
20
44.38053
30
0
11
1.39398565963408
21
2.2242816774713
31
0
210
0
220
0
230
1
40
0.986373
41
-1.01712169485156
42
0
0
ELLIPSE
5
F2
100
AcDbEntity
8
1
62
256
6
ByLayer
370
-1
48
1
60
0
100
AcDbEllipse
10
40.905386
20
44.38053
30
0
11
1.39398565963408
21
2.2242816774713
31
0
210
0
220
0
230
1
40
0.986373
41
0
42
2.42671393822729
0
ELLIPSE
5
F3
100
AcDbEntity
8
1
62
256
6
ByLayer
370
-1
48
1
60
0
100
AcDbEllipse
10
40.866987
20
15.376231
30
0
11
-1.65721250053996
21
0.253572431573474
31
0
210
0
220
0
230
1
40
0.387899
41
-3.08431129282948
42
-2.03990428931422
0
ELLIPSE
5
F4
100
AcDbEntity
8
1
62
256
6
ByLayer
370
-1
48
1
60
0
100
AcDbEllipse
10
40.866987
20
15.376231
30
0
11
-1.65721250053996
21
0.253572431573474
31
0
210
0
220
0
230
1
40
0.387899
41
-0.987125642754943
42
0.0572813607603167
0
ELLIPSE
5
F5
100
AcDbEntity
8
1
62
256
6
ByLayer
370
-1
48
1
60
0
100
AcDbEllipse
10
40.866987
20
15.376231
30
0
11
-1.77929167967309
21
0.272251939655386
31
0
210
0
220
0
230
1
40
0.387899
41
0
42
6.28318530717959
0
ELLIPSE
5
F6
100
AcDbEntity
8
1
62
256
6
ByLayer
370
-1
48
1
60
0
100
AcDbEllipse
10
40.866987
20
15.376231
30
0
11
-1.65721250053996
21
0.253572431573474
31
0
210
0
220
0
230
1
40
0.387899
41
1.10168836427557
42
2.15446701083485
0
ELLIPSE
5
F7
100
AcDbEntity
8
1
62
256
6
ByLayer
370
-1
48
1
60
0
100
AcDbEllipse
10
40.904816
20
15.623462
30
0
11
-1.19261967306977
21
0.182484425107902
31
0
210
0
220
0
230
1
40
0.387899
41
1.5590450541433
42
1.69711032096711
0
ELLIPSE
5
F8
100
AcDbEntity
8
1
62
256
6
ByLayer
370
-1
48
1
60
0
100
AcDbEllipse
10
40.866987
20
15.376231
30
0
11
-1.65721250053996
21
0.253572431573474
31
0
210
0
220
0
230
1
40
0.387899
41
0.0572813607603167
42
1.10168836427557
0
ELLIPSE
5
F9
100
AcDbEntity
8
1
62
256
6
ByLayer
370
-1
48
1
60
0
100
AcDbEllipse
10
40.866987
20
15.376231
30
0
11
-1.65721250053996
21
0.253572431573474
31
0
210
0
220
0
230
1
40
0.387899
41
2.15446701083485
42
-3.08431129282948
0
ELLIPSE
5
FA
100
AcDbEntity
8
1
62
256
6
ByLayer
370
-1
48
1
60
0
100
AcDbEllipse
10
40.866987
20
15.376231
30
0
11
-1.65721250053996
21
0.253572431573474
31
0
210
0
220
0
230
1
40
0.387899
41
-2.03990428931422
42
-0.987125642754943
0
ELLIPSE
5
FB
100
AcDbEntity
8
1
62
256
6
ByLayer
370
-1
48
1
60
0
100
AcDbEllipse
10
40.905386
20
15.627184
30
0
11
-2.59480036618992
21
0.397034078664105
31
0
210
0
220
0
230
1
40
0.387899
41
0
42
6.28318530717959
0
POINT
5
42
100
AcDbEntity
8
81
62
256
6
ByLayer
370
-1
48
1
60
0
100
AcDbPoint
10
50
20
49.92
30
0
39
0
210
0
220
0
230
1
50
360
0
POINT
5
44
100
AcDbEntity
8
80
62
256
6
ByLayer
370
-1
48
1
60
0
100
AcDbPoint
10
0
20
0
30
0
39
0
210
0
220
0
230
1
50
360
0
POINT
5
46
100
AcDbEntity
8
2
62
256
6
ByLayer
370
-1
48
1
60
0
100
AcDbPoint
10
50
20
49.92
30
0
39
0
210
0
220
0
230
1
50
360
0
SPLINE
5
FC
100
AcDbEntity
8
1
62
256
6
ByLayer
370
-1
48
1
60
0
100
AcDbSpline
70
4
71
3
72
33
73
29
40
0
40
0
40
0
40
0
40
0.0878550170261852
40
0.159624054634065
40
0.215316005614334
40
0.255499198428418
40
0.292525724055429
40
0.341685881409252
40
0.367516402429302
40
0.391420721284457
40
0.402409871618146
40
0.413365376542187
40
0.436915042916212
40
0.465149458947425
40
0.493783113183923
40
0.51808883579589
40
0.529810529285815
40
0.541905567800975
40
0.587802569308563
40
0.639589015444255
40
0.684341241677407
40
0.731319585132356
40
0.788404734973273
40
0.825434036704549
40
0.846259663195126
40
0.882228397441723
40
0.93349267632788
40
1
40
1
40
1
40
1
41
1
10
49.9913469904478
20
-40.2182693668331
30
0
41
1
10
49.9731268004032
20
-40.0646154865643
30
0
41
1
10
49.9399894200354
20
-39.78408065567
30
0
41
1
10
49.895232595899
20
-39.4023844472706
30
0
41
1
10
49.8603028928021
20
-39.1030545898578
30
0
41
1
10
49.8321475030274
20
-38.8572838495029
30
0
41
1
10
49.8054648667828
20
-38.6293062739061
30
0
41
1
10
49.7825335178848
20
-38.43903219736
30
0
41
1
10
49.7623502856376
20
-38.271534355754
30
0
41
1
10
49.7506972042387
20
-38.1816670561506
30
0
41
1
10
49.7438889159954
20
-38.1478010074653
30
0
41
1
10
49.7384257306325
20
-38.1364109252062
30
0
41
1
10
49.7347296556971
20
-38.1673544011897
30
0
41
1
10
49.7420174302165
20
-38.2671541187094
30
0
41
1
10
49.756156268164
20
-38.3704464608338
30
0
41
1
10
49.7652184077452
20
-38.3972193658797
30
0
41
1
10
49.7667559026514
20
-38.3807276535674
30
0
41
1
10
49.7643099861071
20
-38.3219926907157
30
0
41
1
10
49.7514702232697
20
-38.1579755578036
30
0
41
1
10
49.7362432192443
20
-37.9537190896556
30
0
41
1
10
49.7197266014527
20
-37.7288078754366
30
0
41
1
10
49.7030858940921
20
-37.4865071640037
30
0
41
1
10
49.6890024041015
20
-37.2629009688871
30
0
41
1
10
49.6779877292206
20
-37.0713956089682
30
0
41
1
10
49.6722220964098
20
-36.950524307114
30
0
41
1
10
49.6664341317011
20
-36.8317357954198
30
0
41
1
10
49.653353013472
20
-36.6678635117155
30
0
41
1
10
49.6487955247826
20
-36.5482770198221
30
0
41
1
10
49.646950951569
20
-36.4825795864865
30
0
0
SPLINE
5
FD
100
AcDbEntity
8
1
62
256
6
ByLayer
370
-1
48
1
60
0
100
AcDbSpline
70
4
71
3
72
15
73
11
40
0
40
0
40
0
40
0
40
0.174061947986003
40
0.315826143417806
40
0.425341642535801
40
0.50336017096657
40
0.584023045718167
40
0.694475088677043
40
0.868370079538402
40
1
40
1
40
1
40
1
41
1
10
49.6488135703904
20
11.2703629277028
30
0
41
1
10
49.6517636647543
20
11.4497055447697
30
0
41
1
10
49.6581639758523
20
11.7731066583816
30
0
41
1
10
49.6712681406152
20
12.2031682029358
30
0
41
1
10
49.680348795807
20
12.5338942990535
30
0
41
1
10
49.6810357482067
20
12.7801940933435
30
0
41
1
10
49.6831771885
20
13.0430068232161
30
0
41
1
10
49.6974784241038
20
13.4238394734812
30
0
41
1
10
49.7204639408981
20
13.862944680918
30
0
41
1
10
49.7405469167209
20
14.1879540230964
30
0
41
1
10
49.7495974539591
20
14.3282369681157
30
0
0
SPLINE
5
FE
100
AcDbEntity
8
1
62
256
6
ByLayer
370
-1
48
1
60
0
100
AcDbSpline
70
4
71
3
72
9
73
5
40
0
40
0
40
0
40
0
40
0.167176214739729
40
1
40
1
40
1
40
1
41
1
10
49.8864594772075
20
16.2427560042077
30
0
41
1
10
49.892305868295
20
16.320467197527
30
0
41
1
10
49.9273541488891
20
16.7853804771564
30
0
41
1
10
49.9625757407371
20
17.2505789772547
30
0
41
1
10
49.9923022984356
20
17.6383169605578
30
0
0
SPLINE
5
FF
100
AcDbEntity
8
1
62
256
6
ByLayer
370
-1
48
1
60
0
100
AcDbSpline
70
4
71
3
72
10
73
6
40
0
40
0
40
0
40
0
40
0.346917728236684
40
0.732461580867104
40
1
40
1
40
1
40
1
41
1
10
49.3966147202431
20
10.1243036839867
30
0
41
1
10
49.3996613651193
20
10.5528248163245
30
0
41
1
10
49.4061202680169
20
11.4576410944384
30
0
41
1
10
49.4150081511756
20
12.6931349344162
30
0
41
1
10
49.420863930083
20
13.5001116529964
30
0
41
1
10
49.4232724701622
20
13.8307098147699
30
0
0
SPLINE
5
100
100
AcDbEntity
8
1
62
256
6
ByLayer
370
-1
48
1
60
0
100
AcDbSpline
70
4
71
3
72
8
73
4
40
0
40
0
40
0
40
0
40
1
40
1
40
1
40
1
41
1
10
43.4592591050291
20
45.5890640767181
30
0
41
1
10
43.428798855369
20
45.6421419072763
30
0
41
1
10
43.3965489502013
20
45.6943411316544
30
0
41
1
10
43.3624810956482
20
45.7457073363432
30
0
0
SPLINE
5
101
100
AcDbEntity
8
1
62
256
6
ByLayer
370
-1
48
1
60
0
100
AcDbSpline
70
4
71
3
72
11
73
7
40
0
40
0
40
0
40
0
40
0.122600066924203
40
0.376570466928981
40
0.669048356179352
40
1
40
1
40
1
40
1
41
1
10
49.7738840664572
20
-38.3707678707356
30
0
41
1
10
49.7811778477616
20
-38.3129027064669
30
0
41
1
10
49.8041544086744
20
-38.1356304389706
30
0
41
1
10
49.8478376346837
20
-37.8220686640673
30
0
41
1
10
49.9097667214159
20
-37.411401848767
30
0
41
1
10
49.9563505274226
20
-37.11886834097
30
0
41
1
10
49.9819135008057
20
-36.9634731478313
30
0
0
SPLINE
5
102
100
AcDbEntity
8
1
62
256
6
ByLayer
370
-1
48
1
60
0
100
AcDbSpline
70
4
71
3
72
15
73
11
40
0
40
0
40
0
40
0
40
0.0152674516389666
40
0.0624993707211341
40
0.136510299339942
40
0.245559650422141
40
0.386120392239113
40
0.558574534847978
40
0.763197730533736
40
1
40
1
40
1
40
1
41
1
10
49.4419185674536
20
45.4652968493772
30
0
41
1
10
49.4445971231921
20
45.4837628716087
30
0
41
1
10
49.4537623064085
20
45.5451694290585
30
0
41
1
10
49.4711868438761
20
45.6519697803637
30
0
41
1
10
49.500750395031
20
45.8128695793321
30
0
41
1
10
49.5448213451338
20
46.0221642528268
30
0
41
1
10
49.6077214919428
20
46.2828574949431
30
0
41
1
10
49.6924529363176
20
46.5928554177751
30
0
41
1
10
49.8020830023289
20
46.9532386045906
30
0
41
1
10
49.8826724467709
20
47.2112006404092
30
0
41
1
10
49.9269517626762
20
47.3487956685022
30
0
0
SPLINE
5
103
100
AcDbEntity
8
1
62
256
6
ByLayer
370
-1
48
1
60
0
100
AcDbSpline
70
4
71
3
72
24
73
20
40
0
40
0
40
0
40
0
40
0.138481850561016
40
0.248179952758102
40
0.365801790687961
40
0.488754025638879
40
0.575746535072282
40
0.649836612068115
40
0.73558538121638
40
0.815125812924536
40
0.896673510868644
40
0.96800430636271
40
0.983468308375356
40
0.989903965901037
40
0.992509312745407
40
0.994796805128701
40
0.996883150041444
40
0.998923259135039
40
1
40
1
40
1
40
1
41
1
10
40.5490353560171
20
17.2177024843718
30
-6E-16
41
1
10
40.7362637022619
20
17.194305864096
30
-6E-16
41
1
10
41.0756089489165
20
17.1490347664189
30
-5E-16
41
1
10
41.5902153605616
20
17.0723499851128
30
-5E-16
41
1
10
42.0830909752394
20
16.9934287845996
30
-5E-16
41
1
10
42.5439907837109
20
16.9148699785056
30
-5E-16
41
1
10
42.9468234976711
20
16.8430540817435
30
-4E-16
41
1
10
43.2990285542573
20
16.7783237293517
30
-4E-16
41
1
10
43.6400285397577
20
16.7138741333866
30
-4E-16
41
1
10
43.9953005904278
20
16.6449349937017
30
-4E-16
41
1
10
44.3303853817103
20
16.578273405749
30
-3E-16
41
1
10
44.578085218271
20
16.5279441959008
30
-3E-16
41
1
10
44.7120481099172
20
16.5003777223463
30
-3E-16
41
1
10
44.7465607145841
20
16.4932598895671
30
-3E-16
41
1
10
44.760814744665
20
16.4903326606209
30
-3E-16
41
1
10
44.768410896336
20
16.4887807864111
30
-3E-16
41
1
10
44.7735660246033
20
16.4877404198377
30
-3E-16
41
1
10
44.7756651615348
20
16.48733442945
30
-3E-16
41
1
10
44.7759495831863
20
16.4872949998409
30
-3E-16
41
1
10
44.775946117169
20
16.4873026544671
30
-3E-16
0
SPLINE
5
104
100
AcDbEntity
8
1
62
256
6
ByLayer
370
-1
48
1
60
0
100
AcDbSpline
70
4
71
3
72
10
73
6
40
0
40
0
40
0
40
0
40
0.261942490282545
40
0.602987468481911
40
1
40
1
40
1
40
1
41
1
10
32.2560952157344
20
16.5552306464367
30
-1.1E-15
41
1
10
32.1887388411043
20
16.3768012394417
30
-1.1E-15
41
1
10
32.0336869673381
20
15.9660648314323
30
-1.1E-15
41
1
10
31.7765844381422
20
15.2847936928405
30
-1.1E-15
41
1
10
31.5869308140415
20
14.7817824217204
30
-1.1E-15
41
1
10
31.4849366024094
20
14.5111580669011
30
-1.1E-15
0
SPLINE
5
105
100
AcDbEntity
8
1
62
256
6
ByLayer
370
-1
48
1
60
0
100
AcDbSpline
70
4
71
3
72
12
73
8
40
0
40
0
40
0
40
0
40
0.297626978039947
40
0.547911035507244
40
0.749724069821535
40
0.906580503390358
40
1
40
1
40
1
40
1
41
1
10
33.8885559961981
20
21.8394310625565
30
-1E-15
41
1
10
33.8378753364881
20
21.666149129357
30
-1E-15
41
1
10
33.7440499141463
20
21.3468895176457
30
-1E-15
41
1
10
33.6145167175614
20
20.9095549653097
30
-1E-15
41
1
10
33.5081599137708
20
20.553645783465
30
-1E-15
41
1
10
33.4281901016533
20
20.288217707762
30
-1E-15
41
1
10
33.3836338783197
20
20.1412835913788
30
-1E-15
41
1
10
33.3669176967839
20
20.0863068420561
30
-1E-15
0
SPLINE
5
106
100
AcDbEntity
8
1
62
256
6
ByLayer
370
-1
48
1
60
0
100
AcDbSpline
70
4
71
3
72
10
73
6
40
0
40
0
40
0
40
0
40
0.0666245771428688
40
0.495119173823221
40
1
40
1
40
1
40
1
41
1
10
32.8137201409013
20
18.3147481025565
30
-1.1E-15
41
1
10
32.8019015385629
20
18.2777466712425
30
-1.1E-15
41
1
10
32.7139954893671
20
18.0028606919939
30
-1.1E-15
41
1
10
32.5353172246341
20
17.4488887886708
30
-1.1E-15
41
1
10
32.367585199337
20
16.9328886175399
30
-1.1E-15
41
1
10
32.2764800305523
20
16.6541849903945
30
-1.1E-15
0
SPLINE
5
107
100
AcDbEntity
8
1
62
256
6
ByLayer
370
-1
48
1
60
0
100
AcDbSpline
70
4
71
3
72
17
73
13
40
0
40
0
40
0
40
0
40
0.0396674656326246
40
0.190941317380319
40
0.271546149529399
40
0.341960335117569
40
0.403371887149579
40
0.487857951206384
40
0.614376424125062
40
0.783579261839689
40
0.995698531539616
40
1
40
1
40
1
40
1
41
1
10
49.4176474156322
20
-35.2455620281206
30
0
41
1
10
49.4173570232982
20
-35.2218170974122
30
0
41
1
10
49.415967935419
20
-35.1077774442886
30
0
41
1
10
49.4140563230165
20
-34.9478757404626
30
0
41
1
10
49.4123385379223
20
-34.7879867502412
30
0
41
1
10
49.4113475943537
20
-34.6829461424654
30
0
41
1
10
49.4107610617487
20
-34.6010284367079
30
0
41
1
10
49.4095282791208
20
-34.4646627493036
30
0
41
1
10
49.4075099340885
20
-34.2520381571624
30
0
41
1
10
49.404638479797
20
-33.9552771210511
30
0
41
1
10
49.4023686686331
20
-33.723187377766
30
0
41
1
10
49.4010845844157
20
-33.5920518231866
30
0
41
1
10
49.4010590585381
20
-33.5894450887743
30
0
0
SPLINE
5
108
100
AcDbEntity
8
1
62
256
6
ByLayer
370
-1
48
1
60
0
100
AcDbSpline
70
4
71
3
72
18
73
14
40
0
40
0
40
0
40
0
40
0.164826527152424
40
0.306352333679354
40
0.424571350433823
40
0.519482491436946
40
0.591100891070543
40
0.639482607855032
40
0.677054063238515
40
0.726547737191587
40
0.791793528579878
40
0.882086546517197
40
1
40
1
40
1
40
1
41
1
10
49.995896236347
20
14.89652156064
30
0
41
1
10
49.9701848751121
20
15.1999518088678
30
0
41
1
10
49.9236695354579
20
15.7642489848598
30
0
41
1
10
49.8622805707625
20
16.5464937978168
30
0
41
1
10
49.8136322166393
20
17.2015450485905
30
0
41
1
10
49.7767038722738
20
17.7297060376731
30
0
41
1
10
49.7505188589698
20
18.1324886433754
30
0
41
1
10
49.732611216389
20
18.431482267937
30
0
41
1
10
49.7185802001121
20
18.7032491035519
30
0
41
1
10
49.7029267748006
20
19.0002202820178
30
0
41
1
10
49.684007583788
20
19.3962715293139
30
0
41
1
10
49.6616529745009
20
19.9279684928012
30
0
41
1
10
49.6521934447116
20
20.3341401140042
30
0
41
1
10
49.6488123562754
20
20.5648106837847
30
0
0
SPLINE
5
109
100
AcDbEntity
8
1
62
256
6
ByLayer
370
-1
48
1
60
0
100
AcDbSpline
70
4
71
2
72
6
73
3
40
0
40
0
40
0
40
1
40
1
40
1
41
1
10
49.3918248638988
20
42.9913084025234
30
0
41
1
10
49.4110179960843
20
43.5692204592374
30
0
41
1
10
49.4427706829102
20
44.0877367752463
30
0
0
SPLINE
5
10A
100
AcDbEntity
8
1
62
256
6
ByLayer
370
-1
48
1
60
0
100
AcDbSpline
70
4
71
3
72
18
73
14
40
0
40
0
40
0
40
0
40
0.25
40
0.25
40
0.375
40
0.375
40
0.5
40
0.5
40
0.625
40
0.625
40
0.75
40
0.75
40
1
40
1
40
1
40
1
41
1
10
46.3528640762968
20
-22.6732619630059
30
-2E-16
41
1
10
46.4897542622182
20
-21.7225398018301
30
-2E-16
41
1
10
46.5275902381445
20
-20.7270651688069
30
-2E-16
41
1
10
46.2116270668718
20
-19.2568740916891
30
-2E-16
41
1
10
46.0433760893565
20
-18.764712341324
30
-2E-16
41
1
10
45.432905642582
20
-17.9154464395008
30
-3E-16
41
1
10
44.9347542287451
20
-17.5716666779729
30
-3E-16
41
1
10
43.8272140944804
20
-17.6127386536763
30
-4E-16
41
1
10
43.3307853213503
20
-17.9475960490422
30
-4E-16
41
1
10
42.5912768751341
20
-18.709563521256
30
-5E-16
41
1
10
42.3099997903148
20
-19.1600593299241
30
-5E-16
41
1
10
41.6334002911971
20
-20.536069745274
30
-5E-16
41
1
10
41.3860667638806
20
-21.5208916135938
30
-5E-16
41
1
10
41.2488787841905
20
-22.4794856814828
30
-5E-16
0
SPLINE
5
10B
100
AcDbEntity
8
1
62
256
6
ByLayer
370
-1
48
1
60
0
100
AcDbSpline
70
4
71
3
72
8
73
4
40
0
40
0
40
0
40
0
40
1
40
1
40
1
40
1
41
1
10
47.5855916692982
20
12.6320492251395
30
-1E-16
41
1
10
47.5878528093951
20
12.6811304202923
30
-1E-16
41
1
10
47.5901139997831
20
12.7302116085849
30
-1E-16
41
1
10
47.5923752390161
20
12.7792927902145
30
-1E-16
0
SPLINE
5
10C
100
AcDbEntity
8
1
62
256
6
ByLayer
370
-1
48
1
60
0
100
AcDbSpline
70
4
71
3
72
18
73
14
40
0
40
0
40
0
40
0
40
0.0621618920246968
40
0.0621618920246968
40
0.260831536731694
40
0.260831536731694
40
0.461044022899932
40
0.461044022899932
40
0.663434354174486
40
0.663434354174486
40
0.867697207291532
40
0.867697207291532
40
1
40
1
40
1
40
1
41
1
10
35.9413678659506
20
22.8859534497132
30
-9E-16
41
1
10
35.9244838934503
20
22.9353015878843
30
-9E-16
41
1
10
35.9047013264092
20
22.9838248164716
30
-9E-16
41
1
10
35.810108262257
20
23.1821989042826
30
-9E-16
41
1
10
35.7077749600863
20
23.3243492808664
30
-9E-16
41
1
10
35.4587623053665
20
23.5692657645037
30
-9E-16
41
1
10
35.3083694146037
20
23.6750855446742
30
-9E-16
41
1
10
34.9798079135227
20
23.8371252499715
30
-9E-16
41
1
10
34.7968663632428
20
23.8950405386219
30
-9E-16
41
1
10
34.4236450758551
20
23.9552972226095
30
-1E-15
41
1
10
34.2281667513935
20
23.9579631428319
30
-1E-15
41
1
10
33.9183429322416
20
23.9163864811837
30
-1E-15
41
1
10
33.7975203847487
20
23.8880342710072
30
-1E-15
41
1
10
33.6825876373938
20
23.8486833781211
30
-1E-15
0
SPLINE
5
10D
100
AcDbEntity
8
1
62
256
6
ByLayer
370
-1
48
1
60
0
100
AcDbSpline
70
4
71
3
72
8
73
4
40
0
40
0
40
0
40
0
40
1
40
1
40
1
40
1
41
1
10
33.5516825794212
20
-48.2475172091029
30
-1E-16
41
1
10
33.5932139764973
20
-48.2590172363479
30
-1E-16
41
1
10
33.6382148835668
20
-48.2648455490333
30
-1E-16
41
1
10
33.6825876373932
20
-48.2637533178271
30
-1E-16
0
SPLINE
5
10E
100
AcDbEntity
8
1
62
256
6
ByLayer
370
-1
48
1
60
0
100
AcDbSpline
70
4
71
3
72
12
73
8
40
0
40
0
40
0
40
0
40
0.217059004977898
40
0.217059004977898
40
0.765351095281226
40
0.765351095281226
40
1
40
1
40
1
40
1
41
1
10
47.5941468502892
20
10.2143920589813
30
-1E-16
41
1
10
47.5948548730192
20
10.2594277443733
30
-1E-16
41
1
10
47.5984412754713
20
10.3041660294619
30
-1E-16
41
1
10
47.6218618988382
20
10.4590695659514
30
-1E-16
41
1
10
47.6588533004575
20
10.5677519802151
30
-1E-16
41
1
10
47.7427402724107
20
10.7089221260686
30
-1E-16
41
1
10
47.7722384429378
20
10.7500105403525
30
-1E-16
41
1
10
47.8057096353529
20
10.7887396290478
30
-1E-16
0
SPLINE
5
10F
100
AcDbEntity
8
1
62
256
6
ByLayer
370
-1
48
1
60
0
100
AcDbSpline
70
4
71
3
72
8
73
4
40
0
40
0
40
0
40
0
40
1
40
1
40
1
40
1
41
1
10
31.3105281305662
20
43.8563870905369
30
-1.1E-15
41
1
10
32.0568566173246
20
43.9272749333459
30
-1.1E-15
41
1
10
32.8039292054891
20
43.9974678225205
30
-1.1E-15
41
1
10
33.5516825794213
20
44.0670107969379
30
-1E-15
0
SPLINE
5
110
100
AcDbEntity
8
1
62
256
6
ByLayer
370
-1
48
1
60
0
100
AcDbSpline
70
4
71
3
72
12
73
8
40
0
40
0
40
0
40
0
40
0.435174146153283
40
0.435174146153283
40
0.870851936759433
40
0.870851936759433
40
1
40
1
40
1
40
1
41
1
10
48.5518154389634
20
7.57131780278903
30
-1E-16
41
1
10
48.6066812668403
20
7.67169962327407
30
-1E-16
41
1
10
48.6595107088689
20
7.80742051943972
30
-1E-16
41
1
10
48.7527650242244
20
8.12723327049727
30
-1E-16
41
1
10
48.794470378881
20
8.31578879305587
30
-1E-16
41
1
10
48.8380014706682
20
8.57742296900267
30
-1E-16
41
1
10
48.8473509817549
20
8.63901096168058
30
-1E-16
41
1
10
48.8559776691113
20
8.70157607804703
30
-1E-16
0
SPLINE
5
111
100
AcDbEntity
8
1
62
256
6
ByLayer
370
-1
48
1
60
0
100
AcDbSpline
70
4
71
3
72
8
73
4
40
0
40
0
40
0
40
0
40
1
40
1
40
1
40
1
41
1
10
33.6825876373938
20
23.848683378121
30
-1E-15
41
1
10
33.6363150633047
20
23.8328404860955
30
-1E-15
41
1
10
33.59183936331
20
23.8085457306366
30
-1E-15
41
1
10
33.5516825794213
20
23.7792347655463
30
-1E-15
0
SPLINE
5
112
100
AcDbEntity
8
1
62
256
6
ByLayer
370
-1
48
1
60
0
100
AcDbSpline
70
4
71
3
72
8
73
4
40
0
40
0
40
0
40
0
40
1
40
1
40
1
40
1
41
1
10
31.3105281305661
20
18.6573376434033
30
-1.1E-15
41
1
10
29.8799124181811
20
18.7070480516911
30
-1.2E-15
41
1
10
28.6173994033189
20
18.472133503081
30
-1.3E-15
41
1
10
27.9709501115335
20
18.0241223583492
30
-1.3E-15
0
SPLINE
5
113
100
AcDbEntity
8
1
62
256
6
ByLayer
370
-1
48
1
60
0
100
AcDbSpline
70
4
71
3
72
8
73
4
40
0
40
0
40
0
40
0
40
1
40
1
40
1
40
1
41
1
10
31.4995928463627
20
14.7272942496681
30
-1.1E-15
41
1
10
31.5204667180061
20
14.7230733094073
30
-1.1E-15
41
1
10
31.5414331201844
20
14.7189773515089
30
-1.1E-15
41
1
10
31.562475436585
20
14.7150083880728
30
-1.1E-15
0
SPLINE
5
114
100
AcDbEntity
8
1
62
256
6
ByLayer
370
-1
48
1
60
0
100
AcDbSpline
70
4
71
3
72
10
73
6
40
0
40
0
40
0
40
0
40
0.5
40
0.5
40
1
40
1
40
1
40
1
41
1
10
27.9709501115335
20
-44.4087078753393
30
4E-16
41
1
10
28.2410035080776
20
-45.1005304725354
30
4E-16
41
1
10
28.6327531983983
20
-45.76174279038
30
5E-16
41
1
10
29.7316464797202
20
-46.9003447432564
30
-4E-16
41
1
10
30.445767213103
20
-47.3784345540535
30
-3E-16
41
1
10
31.3105281305661
20
-47.6218589396113
30
-3E-16
0
SPLINE
5
115
100
AcDbEntity
8
1
62
256
6
ByLayer
370
-1
48
1
60
0
100
AcDbSpline
70
4
71
2
72
6
73
3
40
0
40
0
40
0
40
1
40
1
40
1
41
0.500000016574462
10
33.5250090145041
20
-37.8821584594254
30
-1E-15
41
0.499999983425538
10
33.5383448449897
20
-37.8958012156312
30
-1E-15
41
0.500000016574462
10
33.5516825794212
20
-37.9094357068745
30
-1E-15
0
SPLINE
5
116
100
AcDbEntity
8
1
62
256
6
ByLayer
370
-1
48
1
60
0
100
AcDbSpline
70
4
71
3
72
10
73
6
40
0
40
0
40
0
40
0
40
0.5
40
0.5
40
1
40
1
40
1
40
1
41
1
10
27.9709501115336
20
42.559654763148
30
4E-16
41
1
10
28.2410035080777
20
42.8506716473249
30
-1.3E-15
41
1
10
28.6327531983984
20
43.1252945816677
30
-1.3E-15
41
1
10
29.7316464797203
20
43.5870248618406
30
-1.2E-15
41
1
10
30.4457672131031
20
43.7742502874106
30
-1.2E-15
41
1
10
31.3105281305662
20
43.8563870905369
30
-1.1E-15
0
SPLINE
5
117
100
AcDbEntity
8
1
62
256
6
ByLayer
370
-1
48
1
60
0
100
AcDbSpline
70
4
71
3
72
20
73
16
40
0
40
0
40
0
40
0
40
0.159883559182113
40
0.159883559182113
40
0.305072830263971
40
0.305072830263971
40
0.4246703605922
40
0.4246703605922
40
0.544350555752049
40
0.544350555752049
40
0.693981687801216
40
0.693981687801216
40
0.918708777967514
40
0.918708777967514
40
1
40
1
40
1
40
1
41
1
10
35.8305207204982
20
-48.2108449571255
30
0
41
1
10
35.9325411205626
20
-48.2332529890295
30
0
41
1
10
36.0545752333418
20
-48.2528543538336
30
0
41
1
10
36.3317919191926
20
-48.2822422199435
30
1E-16
41
1
10
36.4862194613738
20
-48.2929812833139
30
1E-16
41
1
10
36.799475250651
20
-48.3041325857504
30
1E-16
41
1
10
36.9561895486403
20
-48.3060936431859
30
1E-16
41
1
10
37.2763076646877
20
-48.3033978940076
30
1E-16
41
1
10
37.4435164631428
20
-48.2987189927504
30
1E-16
41
1
10
37.8050018802757
20
-48.2823800484476
30
1E-16
41
1
10
38.0012687983451
20
-48.2691078449726
30
2E-16
41
1
10
38.4511590563831
20
-48.2298078046229
30
2E-16
41
1
10
38.6941374890241
20
-48.2001099281622
30
2E-16
41
1
10
38.9856988739471
20
-48.1550035293407
30
2E-16
41
1
10
39.0602681662113
20
-48.1424250576769
30
2E-16
41
1
10
39.1316689011587
20
-48.1293853189278
30
2E-16
0
SPLINE
5
118
100
AcDbEntity
8
1
62
256
6
ByLayer
370
-1
48
1
60
0
100
AcDbSpline
70
4
71
3
72
10
73
6
40
0
40
0
40
0
40
0
40
0.130643670165766
40
0.130643670165766
40
1
40
1
40
1
40
1
41
1
10
33.277192327628
20
21.526721777374
30
-1E-15
41
1
10
33.2727729219362
20
21.5214165655484
30
-1E-15
41
1
10
33.2684920124638
20
21.5162277273929
30
-1E-15
41
1
10
33.2369719411467
20
21.4777105587879
30
-1E-15
41
1
10
33.2154285401415
20
21.4495224107088
30
-1E-15
41
1
10
33.1985660076042
20
21.4283138499097
30
-1E-15
0
SPLINE
5
119
100
AcDbEntity
8
1
62
256
6
ByLayer
370
-1
48
1
60
0
100
AcDbSpline
70
4
71
3
72
8
73
4
40
0
40
0
40
0
40
0
40
1
40
1
40
1
40
1
41
1
10
48.8559776691113
20
8.70157607804703
30
-1E-16
41
1
10
48.8827070132119
20
8.89543085160838
30
-1E-16
41
1
10
48.9032033536799
20
9.10120425502845
30
-1E-16
41
1
10
48.9160153250935
20
9.3056983666774
30
-1E-16
0
SPLINE
5
11A
100
AcDbEntity
8
1
62
256
6
ByLayer
370
-1
48
1
60
0
100
AcDbSpline
70
4
71
3
72
8
73
4
40
0
40
0
40
0
40
0
40
1
40
1
40
1
40
1
41
1
10
32.9545702078563
20
-38.5938099923425
30
-1E-15
41
1
10
32.406516995714
20
-38.4434904512963
30
-1.1E-15
41
1
10
31.8585026054405
20
-38.2930433862223
30
-1.1E-15
41
1
10
31.3105281305661
20
-38.1424657524016
30
-1.1E-15
0
SPLINE
5
11B
100
AcDbEntity
8
1
62
256
6
ByLayer
370
-1
48
1
60
0
100
AcDbSpline
70
4
71
3
72
16
73
12
40
0
40
0
40
0
40
0
40
0.0156572012785365
40
0.0156572012785365
40
0.156233015839911
40
0.156233015839911
40
0.334467974078354
40
0.334467974078354
40
0.6681207921017
40
0.6681207921017
40
1
40
1
40
1
40
1
41
1
10
-3.5358874726E-06
20
-8.32750353588747
30
5E-16
41
1
10
3.5358874442E-06
20
-8.32749646411256
30
5E-16
41
1
10
0.0001656767246203
20
-8.32733432327538
30
5E-16
41
1
10
0.0033924792080171
20
-8.32410752079198
30
5E-16
41
1
10
0.0192599137926521
20
-8.30824008620735
30
5E-16
41
1
10
0.0750863973192821
20
-8.25241360268072
30
5E-16
41
1
10
0.120901643986997
20
-8.20659835601299
30
5E-16
41
1
10
0.274321003303768
20
-8.05317899669623
30
5E-16
41
1
10
0.404817272795967
20
-7.92268272720403
30
5E-16
41
1
10
0.685756390870395
20
-7.64174360912958
30
5E-16
41
1
10
0.84153885680395
20
-7.48596114319605
30
5E-16
41
1
10
0.999999999999986
20
-7.32750000000001
30
6E-16
0
SPLINE
5
11C
100
AcDbEntity
8
1
62
256
6
ByLayer
370
-1
48
1
60
0
100
AcDbSpline
70
4
71
3
72
10
73
6
40
0
40
0
40
0
40
0
40
0.754525819328998
40
0.754525819328998
40
1
40
1
40
1
40
1
41
1
10
35.2668856578679
20
-35.130529796415
30
-9E-16
41
1
10
35.1836280981107
20
-35.0537888766875
30
-9E-16
41
1
10
35.0801968469355
20
-34.987009796576
30
-9E-16
41
1
10
34.927523063928
20
-34.9190042361891
30
-9E-16
41
1
10
34.8884667519622
20
-34.9037997096098
30
-9E-16
41
1
10
34.8482011056902
20
-34.8901898643612
30
-9E-16
0
SPLINE
5
11D
100
AcDbEntity
8
1
62
256
6
ByLayer
370
-1
48
1
60
0
100
AcDbSpline
70
4
71
3
72
18
73
14
40
0
40
0
40
0
40
0
40
0.055886427294438
40
0.055886427294438
40
0.271934807493471
40
0.271934807493471
40
0.49038448475583
40
0.49038448475583
40
0.710364357242762
40
0.710364357242762
40
0.93010119802993
40
0.93010119802993
40
1
40
1
40
1
40
1
41
1
10
33.5042281913615
20
-35.0310775893148
30
-1E-15
41
1
10
33.4754075283357
20
-35.0484943538659
30
-1E-15
41
1
10
33.4476203656627
20
-35.0667607194491
30
-1E-15
41
1
10
33.3182804539025
20
-35.1593338390277
30
-1E-15
41
1
10
33.2307110093492
20
-35.246235087064
30
-1E-15
41
1
10
33.0990965369185
20
-35.433748062289
30
-1E-15
41
1
10
33.0537235740899
20
-35.5370798532687
30
-1E-15
41
1
10
33.0117059947688
20
-35.7457433903974
30
-1E-15
41
1
10
33.0148205235522
20
-35.8539826178464
30
-1E-15
41
1
10
33.0691765473729
20
-36.0592717322003
30
-1E-15
41
1
10
33.1211460740454
20
-36.1592015617928
30
-1E-15
41
1
10
33.2172744818221
20
-36.2762501021157
30
-1E-15
41
1
10
33.2429447160599
20
-36.3037919022508
30
-1E-15
41
1
10
33.2706298805084
20
-36.3300781159335
30
-1E-15
0
SPLINE
5
11E
100
AcDbEntity
8
1
62
256
6
ByLayer
370
-1
48
1
60
0
100
AcDbSpline
70
4
71
3
72
8
73
4
40
0
40
0
40
0
40
0
40
1
40
1
40
1
40
1
41
1
10
31.3105281305661
20
-38.1424657524016
30
-1.1E-15
41
1
10
29.879912418181
20
-37.7493475712545
30
-1.2E-15
41
1
10
28.6173994033188
20
-36.8466979398304
30
-1.3E-15
41
1
10
27.9709501115335
20
-35.7312238188004
30
-1.3E-15
0
SPLINE
5
11F
100
AcDbEntity
8
1
62
256
6
ByLayer
370
-1
48
1
60
0
100
AcDbSpline
70
4
71
3
72
10
73
6
40
0
40
0
40
0
40
0
40
0.5
40
0.5
40
1
40
1
40
1
40
1
41
1
10
27.9709501115335
20
-2.00757778542626
30
-1.3E-15
41
1
10
28.2410035080776
20
-2.70278685173543
30
-1.3E-15
41
1
10
28.6327531983983
20
-3.37351400830053
30
-1.3E-15
41
1
10
29.7316464797202
20
-4.5484328309619
30
-1.2E-15
41
1
10
30.445767213103
20
-5.05364302411638
30
-1.2E-15
41
1
10
31.3105281305661
20
-5.33441884197382
30
-1.1E-15
0
SPLINE
5
120
100
AcDbEntity
8
1
62
256
6
ByLayer
370
-1
48
1
60
0
100
AcDbSpline
70
4
71
3
72
8
73
4
40
0
40
0
40
0
40
0
40
1
40
1
40
1
40
1
41
1
10
47.5941468502893
20
12.8982126015866
30
-1E-16
41
1
10
47.5945233519845
20
12.8417658378187
30
-1E-16
41
1
10
47.5956916306634
20
12.7853123920418
30
-1E-16
41
1
10
47.5977342042735
20
12.7288877464323
30
-1E-16
0
SPLINE
5
121
100
AcDbEntity
8
1
62
256
6
ByLayer
370
-1
48
1
60
0
100
AcDbSpline
70
4
71
3
72
8
73
4
40
0
40
0
40
0
40
0
40
1
40
1
40
1
40
1
41
1
10
47.6071260078214
20
12.5517061117369
30
-1E-16
41
1
10
47.6133722074719
20
12.4629702722825
30
-1E-16
41
1
10
47.6220028835922
20
12.3743981617648
30
-1E-16
41
1
10
47.6333406874315
20
12.2861285181058
30
-1E-16
0
SPLINE
5
122
100
AcDbEntity
8
1
62
256
6
ByLayer
370
-1
48
1
60
0
100
AcDbSpline
70
4
71
3
72
10
73
6
40
0
40
0
40
0
40
0
40
0.382061059992824
40
0.382061059992824
40
1
40
1
40
1
40
1
41
1
10
48.5245561
20
3.49470195108094
30
-1E-16
41
1
10
48.5245561
20
3.56323311156675
30
-1E-16
41
1
10
48.5178202733781
20
3.63214127755731
30
-1E-16
41
1
10
48.4823259528449
20
3.80996017266074
30
-1E-16
41
1
10
48.4427316427862
20
3.92008125985842
30
-1E-16
41
1
10
48.3781094905932
20
4.01986047966167
30
-1E-16
0
SPLINE
5
123
100
AcDbEntity
8
1
62
256
6
ByLayer
370
-1
48
1
60
0
100
AcDbSpline
70
4
71
3
72
8
73
4
40
0
40
0
40
0
40
0
40
1
40
1
40
1
40
1
41
1
10
32.9545702078564
20
48.385948941006
30
-2E-16
41
1
10
32.4065169957141
20
48.248829446168
30
-2E-16
41
1
10
31.8585026054406
20
48.1115449084777
30
2E-16
41
1
10
31.3105281305662
20
47.9740913713153
30
-3E-16
0
SPLINE
5
124
100
AcDbEntity
8
1
62
256
6
ByLayer
370
-1
48
1
60
0
100
AcDbSpline
70
4
71
3
72
8
73
4
40
0
40
0
40
0
40
0
40
1
40
1
40
1
40
1
41
1
10
33.5516825794212
20
-37.9094357068746
30
-1E-15
41
1
10
33.5676901807397
20
-37.9257994679859
30
-1E-15
41
1
10
33.5837831141499
20
-37.9415808740855
30
-1E-15
41
1
10
33.5999140848394
20
-37.9567543328106
30
-1E-15
0
SPLINE
5
125
100
AcDbEntity
8
1
62
256
6
ByLayer
370
-1
48
1
60
0
100
AcDbSpline
70
4
71
3
72
8
73
4
40
0
40
0
40
0
40
0
40
1
40
1
40
1
40
1
41
1
10
33.5516825794213
20
44.0670107969379
30
-1E-15
41
1
10
33.5932139764973
20
44.070873322986
30
-1E-15
41
1
10
33.6382148835666
20
44.0722004342085
30
-1E-15
41
1
10
33.6825876373929
20
44.0705618307695
30
-1E-15
0
SPLINE
5
126
100
AcDbEntity
8
1
62
256
6
ByLayer
370
-1
48
1
60
0
100
AcDbSpline
70
4
71
3
72
16
73
12
40
0
40
0
40
0
40
0
40
0.1423138285621
40
0.1423138285621
40
0.283767745056494
40
0.283767745056494
40
0.477963173946844
40
0.477963173946844
40
0.746498869480432
40
0.746498869480432
40
1
40
1
40
1
40
1
41
1
10
48.4561254933885
20
-47.8983437557768
30
-1E-16
41
1
10
48.5264159589679
20
-47.8965968058569
30
-1E-16
41
1
10
48.5977074894059
20
-47.8840115618574
30
-1E-16
41
1
10
48.7288746651383
20
-47.8410385276259
30
-1E-16
41
1
10
48.7906061324116
20
-47.8103518098431
30
-1E-16
41
1
10
48.9200986623308
20
-47.7244732524861
30
-1E-16
41
1
10
48.9840138704936
20
-47.6632108663385
30
-1E-16
41
1
10
49.1068271381592
20
-47.5069123743171
30
-1E-16
41
1
10
49.157319459382
20
-47.4051636861436
30
-1E-16
41
1
10
49.2192781399888
20
-47.204763074429
30
0
41
1
10
49.2336066174332
20
-47.1041199320874
30
0
41
1
10
49.2334321174999
20
-47.0046591911717
30
0
0
SPLINE
5
127
100
AcDbEntity
8
1
62
256
6
ByLayer
370
-1
48
1
60
0
100
AcDbSpline
70
4
71
3
72
8
73
4
40
0
40
0
40
0
40
0
40
1
40
1
40
1
40
1
41
1
10
31.3105281305661
20
-47.6218589396113
30
-3E-16
41
1
10
32.0568566173245
20
-47.8319453919991
30
-2E-16
41
1
10
32.803929205489
20
-48.0404645988343
30
-2E-16
41
1
10
33.5516825794212
20
-48.2475172091029
30
-1E-16
0
SPLINE
5
128
100
AcDbEntity
8
1
62
256
6
ByLayer
370
-1
48
1
60
0
100
AcDbSpline
70
4
71
3
72
16
73
12
40
0
40
0
40
0
40
0
40
0.206782905774361
40
0.206782905774361
40
0.419101179400718
40
0.419101179400718
40
0.631446032982184
40
0.631446032982184
40
0.843807536708585
40
0.843807536708585
40
1
40
1
40
1
40
1
41
1
10
47.5941468502892
20
10.2143920589813
30
-1E-16
41
1
10
47.591701241599
20
10.058832556568
30
-1E-16
41
1
10
47.5896137160626
20
9.88488108704871
30
-1E-16
41
1
10
47.5864640372972
20
9.52277917332142
30
-1E-16
41
1
10
47.5853886688547
20
9.32936643666434
30
-1E-16
41
1
10
47.5844712353774
20
8.95460171498115
30
-1E-16
41
1
10
47.5846168505402
20
8.76808286562056
30
-1E-16
41
1
10
47.5860906367241
20
8.42767007099673
30
-1E-16
41
1
10
47.5874389479281
20
8.26908336210437
30
-1E-16
41
1
10
47.5906387263355
20
8.03624638478831
30
-1E-16
41
1
10
47.5922885445161
20
7.94886581527084
30
-1E-16
41
1
10
47.5941468502892
20
7.87712351549936
30
-1E-16
0
SPLINE
5
129
100
AcDbEntity
8
1
62
256
6
ByLayer
370
-1
48
1
60
0
100
AcDbSpline
70
4
71
3
72
8
73
4
40
0
40
0
40
0
40
0
40
1
40
1
40
1
40
1
41
1
10
31.3105281305662
20
47.9740913713153
30
-3E-16
41
1
10
29.8799124181811
20
47.6152367184001
30
-3E-16
41
1
10
28.617399403319
20
46.5956855105864
30
-4E-16
41
1
10
27.9709501115337
20
45.2473831605106
30
4E-16
0
SPLINE
5
12A
100
AcDbEntity
8
1
62
256
6
ByLayer
370
-1
48
1
60
0
100
AcDbSpline
70
4
71
3
72
10
73
6
40
0
40
0
40
0
40
0
40
0.876747407556592
40
0.876747407556592
40
1
40
1
40
1
40
1
41
1
10
47.8057096353529
20
10.7887396290478
30
-1E-16
41
1
10
47.7174534239894
20
11.2212994580519
30
-1E-16
41
1
10
47.6739716172523
20
11.6612750314798
30
-1E-16
41
1
10
47.6405847814654
20
12.162383154181
30
-1E-16
41
1
10
47.6368092758152
20
12.2242483378903
30
-1E-16
41
1
10
47.6333406874315
20
12.2861285181058
30
-1E-16
0
SPLINE
5
12B
100
AcDbEntity
8
1
62
256
6
ByLayer
370
-1
48
1
60
0
100
AcDbSpline
70
4
71
3
72
16
73
12
40
0
40
0
40
0
40
0
40
0.142313828562125
40
0.142313828562125
40
0.283767745056528
40
0.283767745056528
40
0.477963173946891
40
0.477963173946891
40
0.746498869480504
40
0.746498869480504
40
1
40
1
40
1
40
1
41
1
10
48.4561254933886
20
43.524243937111
30
-1E-16
41
1
10
48.526415958968
20
43.5216410197917
30
-1E-16
41
1
10
48.597707489406
20
43.5143412415148
30
-1E-16
41
1
10
48.7288746651385
20
43.4923705662477
30
-1E-16
41
1
10
48.7906061324117
20
43.4775220064066
30
-1E-16
41
1
10
48.9200986623309
20
43.4371062671005
30
-1E-16
41
1
10
48.9840138704937
20
43.4090243525022
30
-1E-16
41
1
10
49.1068271381593
20
43.3384385763584
30
-1E-16
41
1
10
49.1573194593821
20
43.2932633295756
30
-1E-16
41
1
10
49.2192781399889
20
43.2052745142583
30
0
41
1
10
49.2336066174333
20
43.1615275424845
30
0
41
1
10
49.2334321175
20
43.1186718309404
30
0
0
SPLINE
5
12C
100
AcDbEntity
8
1
62
256
6
ByLayer
370
-1
48
1
60
0
100
AcDbSpline
70
4
71
3
72
8
73
4
40
0
40
0
40
0
40
0
40
1
40
1
40
1
40
1
41
1
10
48.5518154389634
20
7.57131780278903
30
-1E-16
41
1
10
48.5339828727629
20
7.53869156659462
30
-1E-16
41
1
10
48.5245561
20
7.50765635367293
30
-1E-16
41
1
10
48.5245561
20
7.4797533559865
30
-1E-16
0
SPLINE
5
12D
100
AcDbEntity
8
1
62
256
6
ByLayer
370
-1
48
1
60
0
100
AcDbSpline
70
4
71
3
72
8
73
4
40
0
40
0
40
0
40
0
40
1
40
1
40
1
40
1
41
1
10
33.5516825794212
20
-38.0638611685515
30
-1E-15
41
1
10
33.5679353243689
20
-38.0289903938242
30
-1E-15
41
1
10
33.5840103185888
20
-37.9932509805068
30
-1E-15
41
1
10
33.5999140848394
20
-37.9567543328106
30
-1E-15
0
SPLINE
5
12E
100
AcDbEntity
8
1
62
256
6
ByLayer
370
-1
48
1
60
0
100
AcDbSpline
70
4
71
3
72
8
73
4
40
0
40
0
40
0
40
0
40
1
40
1
40
1
40
1
41
1
10
33.5516825794213
20
19.6177504385574
30
-1E-15
41
1
10
33.567935324369
20
19.6749952153577
30
-1E-15
41
1
10
33.5840103185889
20
19.7319403983022
30
-1E-15
41
1
10
33.5999140848395
20
19.7885762103299
30
-1E-15
0
SPLINE
5
12F
100
AcDbEntity
8
1
62
256
6
ByLayer
370
-1
48
1
60
0
100
AcDbSpline
70
4
71
2
72
6
73
3
40
0
40
0
40
0
40
1
40
1
40
1
41
0.500000016398208
10
33.5250090145041
20
19.8733036500415
30
-1E-15
41
0.499999983601792
10
33.5383448449897
20
19.8584000049384
30
-1E-15
41
0.500000016398208
10
33.5516825794212
20
19.8434891274438
30
-1E-15
0
SPLINE
5
130
100
AcDbEntity
8
1
62
256
6
ByLayer
370
-1
48
1
60
0
100
AcDbSpline
70
4
71
3
72
20
73
16
40
0
40
0
40
0
40
0
40
0.0327484479802234
40
0.0327484479802234
40
0.219011298588827
40
0.219011298588827
40
0.38337276723313
40
0.38337276723313
40
0.54029961765156
40
0.54029961765156
40
0.703214995480129
40
0.703214995480129
40
0.881368065675579
40
0.881368065675579
40
1
40
1
40
1
40
1
41
1
10
23.6194776193302
20
12.6546077886962
30
-1.6E-15
41
1
10
23.6135401869119
20
12.6872064550414
30
-1.6E-15
41
1
10
23.6081618555339
20
12.7206118332545
30
-1.6E-15
41
1
10
23.5764546213415
20
12.9465290022663
30
-1.6E-15
41
1
10
23.5683616075492
20
13.166293945066
30
-1.6E-15
41
1
10
23.5933339813527
20
13.592355637212
30
-1.6E-15
41
1
10
23.6220725661852
20
13.8031079503589
30
-1.6E-15
41
1
10
23.7060051514847
20
14.1992930497462
30
-1.6E-15
41
1
10
23.7609442761592
20
14.390551561871
30
-1.6E-15
41
1
10
23.8905957995951
20
14.7470581325434
30
-1.6E-15
41
1
10
23.9675102585887
20
14.9155897488407
30
-1.6E-15
41
1
10
24.1379356294786
20
15.2203586614249
30
-1.6E-15
41
1
10
24.234410197947
20
15.3561016724266
30
-1.6E-15
41
1
10
24.3958992261611
20
15.5323745714191
30
-1.6E-15
41
1
10
24.4614679751944
20
15.5906064980158
30
-1.6E-15
41
1
10
24.5262937507155
20
15.6355853912717
30
-1.6E-15
0
SPLINE
5
131
100
AcDbEntity
8
1
62
256
6
ByLayer
370
-1
48
1
60
0
100
AcDbSpline
70
4
71
3
72
18
73
14
40
0
40
0
40
0
40
0
40
0.148256377616654
40
0.148256377616654
40
0.329101155464143
40
0.329101155464143
40
0.511360389258185
40
0.511360389258185
40
0.695603561854883
40
0.695603561854883
40
0.881543879830328
40
0.881543879830328
40
1
40
1
40
1
40
1
41
1
10
35.9993206515908
20
-35.8212155888413
30
-9E-16
41
1
10
35.9800449515295
20
-35.7198116054964
30
-9E-16
41
1
10
35.9394347665288
20
-35.6192069675234
30
-9E-16
41
1
10
35.8072080026593
20
-35.4104013684311
30
-9E-16
41
1
10
35.7043042134748
20
-35.3026005480797
30
-9E-16
41
1
10
35.4543033258572
20
-35.1181539076051
30
-9E-16
41
1
10
35.3034779372817
20
-35.0392474601028
30
-9E-16
41
1
10
34.9742480246336
20
-34.9213288128724
30
-9E-16
41
1
10
34.7910629994998
20
-34.8811455724021
30
-9E-16
41
1
10
34.4175867207053
20
-34.8455447214948
30
-1E-15
41
1
10
34.2220952031132
20
-34.8500511924657
30
-1E-15
41
1
10
33.9144250762858
20
-34.8936102431185
30
-1E-15
41
1
10
33.7956620573064
20
-34.9198305289445
30
-1E-15
41
1
10
33.6825876373938
20
-34.9543042601943
30
-1E-15
0
SPLINE
5
132
100
AcDbEntity
8
1
62
256
6
ByLayer
370
-1
48
1
60
0
100
AcDbSpline
70
4
71
3
72
8
73
4
40
0
40
0
40
0
40
0
40
1
40
1
40
1
40
1
41
1
10
48.5245561
20
3.41261332274655
30
-1E-16
41
1
10
48.5245561
20
3.31345199176809
30
-1E-16
41
1
10
48.5334442925618
20
3.21379260805929
30
-1E-16
41
1
10
48.5518154389687
20
3.11525293417054
30
-1E-16
0
SPLINE
5
133
100
AcDbEntity
8
1
62
256
6
ByLayer
370
-1
48
1
60
0
100
AcDbSpline
70
4
71
3
72
8
73
4
40
0
40
0
40
0
40
0
40
1
40
1
40
1
40
1
41
1
10
49.2334321174999
20
-47.0046591911717
30
0
41
1
10
49.2304110442801
20
-45.2827205342241
30
0
41
1
10
49.2275358400233
20
-43.5607782973529
30
0
41
1
10
49.224855353118
20
-41.838831319551
30
0
0
SPLINE
5
134
100
AcDbEntity
8
1
62
256
6
ByLayer
370
-1
48
1
60
0
100
AcDbSpline
70
4
71
3
72
8
73
4
40
0
40
0
40
0
40
0
40
1
40
1
40
1
40
1
41
1
10
33.2728012201478
20
20.6596512676116
30
-1E-15
41
1
10
33.2408920824111
20
20.5992671989652
30
-1E-15
41
1
10
33.2135191117661
20
20.5360392208478
30
-1E-15
41
1
10
33.1911217230843
20
20.4710070659164
30
-1E-15
0
SPLINE
5
135
100
AcDbEntity
8
1
62
256
6
ByLayer
370
-1
48
1
60
0
100
AcDbSpline
70
4
71
3
72
10
73
6
40
0
40
0
40
0
40
0
40
0.5
40
0.5
40
1
40
1
40
1
40
1
41
1
10
35.8305207204831
20
43.9912266235604
30
-9E-16
41
1
10
36.15057112949
20
43.7260616377419
30
-8E-16
41
1
10
36.7343241443
20
43.4766659393459
30
-8E-16
41
1
10
38.1105914523725
20
43.4633960656122
30
-7E-16
41
1
10
38.6949098990183
20
43.6579528105344
30
-7E-16
41
1
10
39.1316689011767
20
43.8692342224145
30
-7E-16
0
SPLINE
5
136
100
AcDbEntity
8
1
62
256
6
ByLayer
370
-1
48
1
60
0
100
AcDbSpline
70
4
71
3
72
12
73
8
40
0
40
0
40
0
40
0
40
0.360289288950722
40
0.360289288950722
40
0.724158958184244
40
0.724158958184244
40
1
40
1
40
1
40
1
41
1
10
33.5250090145042
20
19.8733036500415
30
-1E-15
41
1
10
33.3933017505701
20
20.0204949570467
30
-1E-15
41
1
10
33.2887582224458
20
20.1929703819105
30
-1E-15
41
1
10
33.1516268919697
20
20.562654510175
30
-1E-15
41
1
10
33.1179247940614
20
20.7652322091581
30
-1E-15
41
1
10
33.1264466134914
20
21.1209806560649
30
-1E-15
41
1
10
33.1521263455563
20
21.2771780891347
30
-1E-15
41
1
10
33.1985660076042
20
21.4283138499095
30
-1E-15
0
SPLINE
5
137
100
AcDbEntity
8
1
62
256
6
ByLayer
370
-1
48
1
60
0
100
AcDbSpline
70
4
71
3
72
10
73
6
40
0
40
0
40
0
40
0
40
0.814068782861299
40
0.814068782861299
40
1
40
1
40
1
40
1
41
1
10
48.3781094905933
20
7.37746371337818
30
-1E-16
41
1
10
48.2217968215054
20
7.3724732785461
30
-1E-16
41
1
10
48.066294466715
20
7.40548260559285
30
-1E-16
41
1
10
47.8919328222528
20
7.48946230745329
30
-1E-16
41
1
10
47.859755844711
20
7.50714655369646
30
-1E-16
41
1
10
47.8283299879086
20
7.52664623376958
30
-1E-16
0
SPLINE
5
138
100
AcDbEntity
8
1
62
256
6
ByLayer
370
-1
48
1
60
0
100
AcDbSpline
70
4
71
3
72
8
73
4
40
0
40
0
40
0
40
0
40
1
40
1
40
1
40
1
41
1
10
47.8283299879182
20
4.88479883241973
30
-1E-16
41
1
10
48.0087369869669
20
4.5954235316112
30
-1E-16
41
1
10
48.1920681835827
20
4.30711579126546
30
-1E-16
41
1
10
48.3781094905932
20
4.01986047966167
30
-1E-16
0
SPLINE
5
139
100
AcDbEntity
8
1
62
256
6
ByLayer
370
-1
48
1
60
0
100
AcDbSpline
70
4
71
3
72
20
73
16
40
0
40
0
40
0
40
0
40
0.162358208339464
40
0.162358208339464
40
0.307063603111166
40
0.307063603111166
40
0.426519179353009
40
0.426519179353009
40
0.546035494826403
40
0.546035494826403
40
0.696283741247429
40
0.696283741247429
40
0.922487289328942
40
0.922487289328942
40
1
40
1
40
1
40
1
41
1
10
35.8305207204901
20
-6.12782194640093
30
-9E-16
41
1
10
35.9341233578999
20
-6.3209700408369
30
-9E-16
41
1
10
36.0583978478263
20
-6.50563280508806
30
-9E-16
41
1
10
36.3388693940711
20
-6.81071248297468
30
-8E-16
41
1
10
36.4934577300047
20
-6.93838835596503
30
-8E-16
41
1
10
36.8068817333647
20
-7.1100899739063
30
-8E-16
41
1
10
36.9637326347659
20
-7.16598893528999
30
-8E-16
41
1
10
37.2837508182928
20
-7.22003595556575
30
-8E-16
41
1
10
37.4507098043269
20
-7.21885323734514
30
-8E-16
41
1
10
37.8125523622305
20
-7.16018598251094
30
-7E-16
41
1
10
38.0092964887032
20
-7.08845311141553
30
-7E-16
41
1
10
38.460688110243
20
-6.85133748012225
30
-7E-16
41
1
10
38.7044098705873
20
-6.65460341202564
30
-7E-16
41
1
10
38.9925889349092
20
-6.36149788650872
30
-7E-16
41
1
10
39.0635686008508
20
-6.2831659422952
30
-7E-16
41
1
10
39.131668901171
20
-6.20253446905627
30
-7E-16
0
SPLINE
5
13A
100
AcDbEntity
8
1
62
256
6
ByLayer
370
-1
48
1
60
0
100
AcDbSpline
70
4
71
3
72
8
73
4
40
0
40
0
40
0
40
0
40
1
40
1
40
1
40
1
41
1
10
24.6454077482665
20
38.3083093641726
30
2E-16
41
1
10
25.7534644621097
20
40.6215510468288
30
3E-16
41
1
10
26.8620487882574
20
42.9345424177413
30
4E-16
41
1
10
27.9709501115337
20
45.2473831605106
30
4E-16
0
SPLINE
5
13B
100
AcDbEntity
8
1
62
256
6
ByLayer
370
-1
48
1
60
0
100
AcDbSpline
70
4
71
3
72
8
73
4
40
0
40
0
40
0
40
0
40
1
40
1
40
1
40
1
41
1
10
24.5262937507155
20
15.6355853912709
30
-1.6E-15
41
1
10
25.6740163638479
20
16.4319243858839
30
-1.5E-15
41
1
10
26.8223131765517
20
17.2280782530161
30
-1.4E-15
41
1
10
27.9709501115336
20
18.0241223583492
30
-1.3E-15
0
SPLINE
5
13C
100
AcDbEntity
8
1
62
256
6
ByLayer
370
-1
48
1
60
0
100
AcDbSpline
70
4
71
3
72
16
73
12
40
0
40
0
40
0
40
0
40
0.204398760937519
40
0.204398760937519
40
0.408966495169409
40
0.408966495169409
40
0.61245836293708
40
0.61245836293708
40
0.814899201430552
40
0.814899201430552
40
1
40
1
40
1
40
1
41
1
10
33.5516825794212
20
-34.9946067983242
30
-1E-15
41
1
10
33.3901841117925
20
-35.045558467332
30
-1E-15
41
1
10
33.2454342496288
20
-35.1199753580226
30
-1E-15
41
1
10
33.0138104343667
20
-35.3030530510818
30
-1E-15
41
1
10
32.9238086058556
20
-35.414264788365
30
-1E-15
41
1
10
32.8114683762317
20
-35.6562480279859
30
-1.1E-15
41
1
10
32.7872406071571
20
-35.7902516038068
30
-1.1E-15
41
1
10
32.8065753734773
20
-36.061648556338
30
-1.1E-15
41
1
10
32.8500511265299
20
-36.2027500150043
30
-1.1E-15
41
1
10
32.9908575231179
20
-36.4618975076943
30
-1E-15
41
1
10
33.0847420554965
20
-36.5838818847946
30
-1E-15
41
1
10
33.1985660076037
20
-36.6960184239063
30
-1E-15
0
SPLINE
5
13D
100
AcDbEntity
8
1
62
256
6
ByLayer
370
-1
48
1
60
0
100
AcDbSpline
70
4
71
3
72
10
73
6
40
0
40
0
40
0
40
0
40
0.4945062180595
40
0.4945062180595
40
1
40
1
40
1
40
1
41
1
10
47.5941468502892
20
5.76323284226908
30
-1E-16
41
1
10
47.5958227989266
20
5.61562752979461
30
-1E-16
41
1
10
47.6132729770272
20
5.46702654650838
30
-1E-16
41
1
10
47.6860203043292
20
5.17168916849147
30
-1E-16
41
1
10
47.7424807893362
20
5.02250212439179
30
-1E-16
41
1
10
47.8283299879182
20
4.88479883241973
30
-1E-16
0
SPLINE
5
13E
100
AcDbEntity
8
1
62
256
6
ByLayer
370
-1
48
1
60
0
100
AcDbSpline
70
4
71
3
72
16
73
12
40
0
40
0
40
0
40
0
40
0.142313828562152
40
0.142313828562152
40
0.283767745056556
40
0.283767745056556
40
0.477963173946918
40
0.477963173946918
40
0.746498869480545
40
0.746498869480545
40
1
40
1
40
1
40
1
41
1
10
48.4561254933885
20
-6.41263114166
30
-1E-16
41
1
10
48.5264159589679
20
-6.41420969118496
30
-1E-16
41
1
10
48.597707489406
20
-6.40514266607451
30
-1E-16
41
1
10
48.7288746651384
20
-6.3689090976209
30
-1E-16
41
1
10
48.7906061324117
20
-6.34153482547941
30
-1E-16
41
1
10
48.9200986623308
20
-6.26289381774339
30
-1E-16
41
1
10
48.9840138704937
20
-6.20545747262523
30
-1E-16
41
1
10
49.1068271381593
20
-6.05702937329195
30
-1E-16
41
1
10
49.1573194593821
20
-5.959020395897
30
-1E-16
41
1
10
49.2192781399888
20
-5.76422426570488
30
0
41
1
10
49.2336066174332
20
-5.66560711381618
30
0
41
1
10
49.2334321174999
20
-5.56747516658294
30
0
0
SPLINE
5
13F
100
AcDbEntity
8
1
62
256
6
ByLayer
370
-1
48
1
60
0
100
AcDbSpline
70
4
71
3
72
8
73
4
40
0
40
0
40
0
40
0
40
1
40
1
40
1
40
1
41
1
10
49.2076496399333
20
-0.199551876571263
30
0
41
1
10
48.9773933323159
20
0.904186770175727
30
-1E-16
41
1
10
48.7580341970147
20
2.00913093625473
30
-1E-16
41
1
10
48.5518154389687
20
3.11525293417054
30
-1E-16
0
SPLINE
5
140
100
AcDbEntity
8
1
62
256
6
ByLayer
370
-1
48
1
60
0
100
AcDbSpline
70
4
71
3
72
8
73
4
40
0
40
0
40
0
40
0
40
1
40
1
40
1
40
1
41
1
10
47.5931302403838
20
12.9231898095281
30
-1E-16
41
1
10
47.5928770885844
20
12.8752241421849
30
-1E-16
41
1
10
47.5926254198537
20
12.827258469041
30
-1E-16
41
1
10
47.5923752390161
20
12.7792927902145
30
-1E-16
0
SPLINE
5
141
100
AcDbEntity
8
1
62
256
6
ByLayer
370
-1
48
1
60
0
100
AcDbSpline
70
4
71
3
72
16
73
12
40
0
40
0
40
0
40
0
40
0.204398760937336
40
0.204398760937336
40
0.408966495169229
40
0.408966495169229
40
0.6124583629369
40
0.6124583629369
40
0.814899201430374
40
0.814899201430374
40
1
40
1
40
1
40
1
41
1
10
33.5516825794213
20
23.7792347655463
30
-1E-15
41
1
10
33.3901841117927
20
23.6613549084362
30
-1E-15
41
1
10
33.2454342496291
20
23.5190456942395
30
-1E-15
41
1
10
33.013810434367
20
23.2080205644467
30
-1E-15
41
1
10
32.9238086058559
20
23.0349614145595
30
-1E-15
41
1
10
32.8114683762318
20
22.6831603285507
30
-1.1E-15
41
1
10
32.7872406071571
20
22.499580400062
30
-1.1E-15
41
1
10
32.8065753734772
20
22.1476020577732
30
-1.1E-15
41
1
10
32.8500511265298
20
21.9742975912903
30
-1.1E-15
41
1
10
32.9908575231179
20
21.6743715119303
30
-1E-15
41
1
10
33.0847420554965
20
21.5415348388414
30
-1E-15
41
1
10
33.1985660076037
20
21.4283138499091
30
-1E-15
0
SPLINE
5
142
100
AcDbEntity
8
1
62
256
6
ByLayer
370
-1
48
1
60
0
100
AcDbSpline
70
4
71
3
72
12
73
8
40
0
40
0
40
0
40
0
40
0.400346542520069
40
0.400346542520069
40
0.801422590172081
40
0.801422590172081
40
1
40
1
40
1
40
1
41
1
10
48.3781094905933
20
7.37746371337818
30
-1E-16
41
1
10
48.4149271358646
20
7.37863915271058
30
-1E-16
41
1
10
48.4465640687298
20
7.38400873340095
30
-1E-16
41
1
10
48.4940717916905
20
7.40233506679573
30
-1E-16
41
1
10
48.5105548426756
20
7.41555183126471
30
-1E-16
41
1
10
48.5225674472313
20
7.43971520939826
30
-1E-16
41
1
10
48.5245561000001
20
7.44852513683395
30
-1E-16
41
1
10
48.5245561
20
7.45794343917865
30
-1E-16
0
SPLINE
5
143
100
AcDbEntity
8
1
62
256
6
ByLayer
370
-1
48
1
60
0
100
AcDbSpline
70
4
71
3
72
8
73
4
40
0
40
0
40
0
40
0
40
1
40
1
40
1
40
1
41
1
10
33.5516825794212
20
19.8434891274438
30
-1E-15
41
1
10
33.5676901807397
20
19.825593480813
30
-1E-15
41
1
10
33.58378311415
20
19.8072677595943
30
-1E-15
41
1
10
33.5999140848395
20
19.7885762103299
30
-1E-15
0
SPLINE
5
144
100
AcDbEntity
8
1
62
256
6
ByLayer
370
-1
48
1
60
0
100
AcDbSpline
70
4
71
3
72
16
73
12
40
0
40
0
40
0
40
0
40
0.0852892595486919
40
0.0852892595486919
40
0.367921924890015
40
0.367921924890015
40
0.643580053968332
40
0.643580053968332
40
0.841658256538303
40
0.841658256538303
40
1
40
1
40
1
40
1
41
1
10
1.00000000000001
20
7.32750000000001
30
6E-16
41
1
10
0.959027433580971
20
7.36847256641906
30
5E-16
41
1
10
0.918338730209044
20
7.40916126979096
30
5E-16
41
1
10
0.7454425518237
20
7.58205744817633
30
5E-16
41
1
10
0.616445953947604
20
7.71105404605242
30
5E-16
41
1
10
0.385169189983103
20
7.94233081001693
30
5E-16
41
1
10
0.279326159281766
20
8.04817384071825
30
5E-16
41
1
10
0.131960336021237
20
8.19553966397879
30
5E-16
41
1
10
0.0793704662981014
20
8.2481295337019
30
5E-16
41
1
10
0.0168218692727038
20
8.31067813072733
30
5E-16
41
1
10
-7.7789523942E-06
20
8.32750777895242
30
5E-16
41
1
10
3.3590930997E-06
20
8.32749664090693
30
5E-16
0
SPLINE
5
145
100
AcDbEntity
8
1
62
256
6
ByLayer
370
-1
48
1
60
0
100
AcDbSpline
70
4
71
3
72
18
73
14
40
0
40
0
40
0
40
0
40
0.106882819633866
40
0.106882819633866
40
0.293632392787082
40
0.293632392787082
40
0.480264888568896
40
0.480264888568896
40
0.665615821302368
40
0.665615821302368
40
0.849109440279351
40
0.849109440279351
40
1
40
1
40
1
40
1
41
1
10
47.5556141551276
20
9.53686101181842
30
-1E-16
41
1
10
47.5546858978227
20
9.63998341759012
30
-1E-16
41
1
10
47.5539768948459
20
9.7514378420347
30
-1E-16
41
1
10
47.552693073005
20
10.0714957884858
30
-1E-16
41
1
10
47.5526053652241
20
10.2955702123183
30
-1E-16
41
1
10
47.5539074170555
20
10.74790694659
30
-1E-16
41
1
10
47.5553144743672
20
10.9824695212998
30
-1E-16
41
1
10
47.5593775780756
20
11.4275957600569
30
-1E-16
41
1
10
47.5620812384757
20
11.6445103555253
30
-1E-16
41
1
10
47.5683309561888
20
12.02973599427
30
-1E-16
41
1
10
47.5719544366564
20
12.2038453972174
30
-1E-16
41
1
10
47.5789148265474
20
12.462222644311
30
-1E-16
41
1
10
47.5822534194776
20
12.559587863222
30
-1E-16
41
1
10
47.5855916692982
20
12.6320492251395
30
-1E-16
0
SPLINE
5
146
100
AcDbEntity
8
1
62
256
6
ByLayer
370
-1
48
1
60
0
100
AcDbSpline
70
4
71
3
72
8
73
4
40
0
40
0
40
0
40
0
40
1
40
1
40
1
40
1
41
1
10
31.3105281305661
20
-5.33441884197382
30
-1.1E-15
41
1
10
32.0568566173245
20
-5.57674130015639
30
-1.1E-15
41
1
10
32.803929205489
20
-5.8175525357799
30
-1.1E-15
41
1
10
33.5516825794212
20
-6.05694887050467
30
-1E-15
0
SPLINE
5
147
100
AcDbEntity
8
1
62
256
6
ByLayer
370
-1
48
1
60
0
100
AcDbSpline
70
4
71
2
72
6
73
3
40
0
40
0
40
0
40
1
40
1
40
1
41
0.500000039804139
10
33.682587637389
20
44.0705618307685
30
-1E-15
41
0.499999960195861
10
34.7566067008566
20
44.0309003002293
30
-9E-16
41
0.500000039804139
10
35.8305207205134
20
43.9912266235633
30
-9E-16
0
SPLINE
5
148
100
AcDbEntity
8
1
62
256
6
ByLayer
370
-1
48
1
60
0
100
AcDbSpline
70
4
71
3
72
8
73
4
40
0
40
0
40
0
40
0
40
1
40
1
40
1
40
1
41
1
10
33.6825876373938
20
-34.9543042601943
30
-1E-15
41
1
10
33.6363150633047
20
-34.9684116797559
30
-1E-15
41
1
10
33.59183936331
20
-34.9819376059092
30
-1E-15
41
1
10
33.5516825794212
20
-34.9946067983242
30
-1E-15
0
SPLINE
5
149
100
AcDbEntity
8
1
62
256
6
ByLayer
370
-1
48
1
60
0
100
AcDbSpline
70
4
71
3
72
8
73
4
40
0
40
0
40
0
40
0
40
1
40
1
40
1
40
1
41
1
10
49.2246857420538
20
-0.363018415594468
30
0
41
1
10
49.224599958181
20
-0.30847971343033
30
0
41
1
10
49.2189311198664
20
-0.253629897379994
30
0
41
1
10
49.2076496399333
20
-0.199551876571263
30
0
0
SPLINE
5
14A
100
AcDbEntity
8
1
62
256
6
ByLayer
370
-1
48
1
60
0
100
AcDbSpline
70
4
71
3
72
8
73
4
40
0
40
0
40
0
40
0
40
1
40
1
40
1
40
1
41
1
10
27.9709501115335
20
-44.4087078753393
30
4E-16
41
1
10
26.098424425729
20
-39.6116729191126
30
3E-16
41
1
10
24.5253730453909
20
-34.7522744086473
30
-1.6E-15
41
1
10
23.6194776193302
20
-29.7539450591057
30
-1.6E-15
0
SPLINE
5
14B
100
AcDbEntity
8
1
62
256
6
ByLayer
370
-1
48
1
60
0
100
AcDbSpline
70
4
71
3
72
8
73
4
40
0
40
0
40
0
40
0
40
1
40
1
40
1
40
1
41
1
10
33.2732254221037
20
20.9850128981742
30
-1E-15
41
1
10
33.3842245301154
20
20.9669709939902
30
-1E-15
41
1
10
33.5054055032788
20
20.8997820717652
30
-1E-15
41
1
10
33.5792491116776
20
20.7825836540393
30
-1E-15
0
SPLINE
5
14C
100
AcDbEntity
8
1
62
256
6
ByLayer
370
-1
48
1
60
0
100
AcDbSpline
70
4
71
3
72
8
73
4
40
0
40
0
40
0
40
0
40
1
40
1
40
1
40
1
41
1
10
27.9709501115335
20
-2.00757778542626
30
-1.3E-15
41
1
10
26.098424425729
20
2.81293863957438
30
-1.5E-15
41
1
10
24.5253730453909
20
7.6809119792577
30
-1.6E-15
41
1
10
23.6194776193302
20
12.6546077886962
30
-1.6E-15
0
SPLINE
5
14D
100
AcDbEntity
8
1
62
256
6
ByLayer
370
-1
48
1
60
0
100
AcDbSpline
70
4
71
3
72
18
73
14
40
0
40
0
40
0
40
0
40
0.249999999999999
40
0.249999999999999
40
0.374999999999999
40
0.374999999999999
40
0.499999999999999
40
0.499999999999999
40
0.624999999999999
40
0.624999999999999
40
0.749999999999999
40
0.749999999999999
40
1
40
1
40
1
40
1
41
1
10
46.3528640762968
20
35.4793674334862
30
-2E-16
41
1
10
46.4905587517967
20
36.2104641092698
30
-2E-16
41
1
10
46.5266880373834
20
36.9372824729773
30
-2E-16
41
1
10
46.2097102615854
20
37.9548416724236
30
-2E-16
41
1
10
46.0412953501296
20
38.2878374242232
30
-2E-16
41
1
10
45.4278854081694
20
38.8592705149929
30
-3E-16
41
1
10
44.9290017754187
20
39.0893182698395
30
-3E-16
41
1
10
43.8168044481068
20
39.0920403722163
30
-4E-16
41
1
10
43.3255496216308
20
38.8944798760552
30
-4E-16
41
1
10
42.5885841475719
20
38.4205380361955
30
-5E-16
41
1
10
42.3078807264225
20
38.1299428853986
30
-5E-16
41
1
10
41.6327733313634
20
37.2103140480378
30
-5E-16
41
1
10
41.385985747236
20
36.5111663380721
30
-5E-16
41
1
10
41.2488787841906
20
35.7859402940066
30
-5E-16
0
SPLINE
5
14E
100
AcDbEntity
8
1
62
256
6
ByLayer
370
-1
48
1
60
0
100
AcDbSpline
70
4
71
3
72
10
73
6
40
0
40
0
40
0
40
0
40
0.130643670165783
40
0.130643670165783
40
1
40
1
40
1
40
1
41
1
10
33.2771923276279
20
-36.3363438674195
30
-1E-15
41
1
10
33.2727729219361
20
-36.3518164613308
30
-1E-15
41
1
10
33.2684920124637
20
-36.3673420411321
30
-1E-15
41
1
10
33.2369719411466
20
-36.4857225956862
30
-1E-15
41
1
10
33.2154285401414
20
-36.5908705581526
30
-1E-15
41
1
10
33.1985660076041
20
-36.6960184239066
30
-1E-15
0
SPLINE
5
14F
100
AcDbEntity
8
1
62
256
6
ByLayer
370
-1
48
1
60
0
100
AcDbSpline
70
4
71
3
72
8
73
4
40
0
40
0
40
0
40
0
40
1
40
1
40
1
40
1
41
1
10
24.5262937507155
20
-29.7847918056646
30
-1.6E-15
41
1
10
25.6740163638478
20
-31.7670840522573
30
-1.5E-15
41
1
10
26.8223131765517
20
-33.7492048240965
30
-1.4E-15
41
1
10
27.9709501115335
20
-35.7312238188004
30
-1.3E-15
0
SPLINE
5
150
100
AcDbEntity
8
1
62
256
6
ByLayer
370
-1
48
1
60
0
100
AcDbSpline
70
4
71
3
72
26
73
22
40
0
40
0
40
0
40
0
40
0.0263624140222359
40
0.0263624140222359
40
0.141741287793739
40
0.141741287793739
40
0.256723925034092
40
0.256723925034092
40
0.371849802861127
40
0.371849802861127
40
0.487797754714401
40
0.487797754714401
40
0.605008722364342
40
0.605008722364342
40
0.723522446147645
40
0.723522446147645
40
0.84286633428025
40
0.84286633428025
40
0.962078372404662
40
0.962078372404662
40
1
40
1
40
1
40
1
41
1
10
35.0420887426748
20
22.984324300209
30
-9E-16
41
1
10
35.0170742927158
20
23.0019181207235
30
-9E-16
41
1
10
34.9913437950419
20
23.0186746093172
30
-9E-16
41
1
10
34.8497019406003
20
23.1037876579197
30
-9E-16
41
1
10
34.7194354386955
20
23.1572493658432
30
-9E-16
41
1
10
34.4510868489216
20
23.223422687012
30
-1E-15
41
1
10
34.3093513723532
20
23.2371843286779
30
-1E-15
41
1
10
34.0335570509597
20
23.2241488461191
30
-1E-15
41
1
10
33.8957416154931
20
23.1971364761856
30
-1E-15
41
1
10
33.6419626543735
20
23.1067521577596
30
-1E-15
41
1
10
33.5226964572826
20
23.0419094447532
30
-1E-15
41
1
10
33.3182804539026
20
22.8834979541402
30
-1E-15
41
1
10
33.2307110093493
20
22.7874783085777
30
-1E-15
41
1
10
33.0990965369186
20
22.5774985559486
30
-1E-15
41
1
10
33.0537235740899
20
22.4604742491454
30
-1E-15
41
1
10
33.0117059947688
20
22.2219222932529
30
-1E-15
41
1
10
33.0148205235523
20
22.0970575486743
30
-1E-15
41
1
10
33.069176547373
20
21.8577180861169
30
-1E-15
41
1
10
33.1211460740454
20
21.7398760119471
30
-1E-15
41
1
10
33.2172744818222
20
21.5994793474415
30
-1E-15
41
1
10
33.2429447160599
20
21.5662371808592
30
-1E-15
41
1
10
33.2706298805085
20
21.5342795212119
30
-1E-15
0
SPLINE
5
151
100
AcDbEntity
8
1
62
256
6
ByLayer
370
-1
48
1
60
0
100
AcDbSpline
70
4
71
3
72
12
73
8
40
0
40
0
40
0
40
0
40
0.360289288950721
40
0.360289288950721
40
0.724158958184243
40
0.724158958184243
40
1
40
1
40
1
40
1
41
1
10
33.5250090145041
20
-37.8821584594254
30
-1E-15
41
1
10
33.39330175057
20
-37.7474199371924
30
-1E-15
41
1
10
33.2887582224457
20
-37.6011374766254
30
-1E-15
41
1
10
33.1516268919696
20
-37.3065814812907
30
-1E-15
41
1
10
33.1179247940613
20
-37.1541962194442
30
-1E-15
41
1
10
33.1264466134913
20
-36.9009396413631
30
-1E-15
41
1
10
33.1521263455562
20
-36.7944029009229
30
-1E-15
41
1
10
33.1985660076041
20
-36.6960184239061
30
-1E-15
0
SPLINE
5
152
100
AcDbEntity
8
1
62
256
6
ByLayer
370
-1
48
1
60
0
100
AcDbSpline
70
4
71
3
72
8
73
4
40
0
40
0
40
0
40
0
40
1
40
1
40
1
40
1
41
1
10
32.9545702078563
20
18.5999998575846
30
-1E-15
41
1
10
32.406516995714
20
18.6191836989929
30
-1.1E-15
41
1
10
31.8585026054405
20
18.6382968663159
30
-1.1E-15
41
1
10
31.3105281305661
20
18.6573376434033
30
-1.1E-15
0
SPLINE
5
153
100
AcDbEntity
8
1
62
256
6
ByLayer
370
-1
48
1
60
0
100
AcDbSpline
70
4
71
3
72
8
73
4
40
0
40
0
40
0
40
0
40
1
40
1
40
1
40
1
41
1
10
49.2334321174999
20
-5.56747516658294
30
0
41
1
10
49.2303472254823
20
-3.83265237925653
30
0
41
1
10
49.2274144303522
20
-2.09783305435212
30
0
41
1
10
49.2246857420538
20
-0.363018415594468
30
0
0
SPLINE
5
154
100
AcDbEntity
8
1
62
256
6
ByLayer
370
-1
48
1
60
0
100
AcDbSpline
70
4
71
3
72
10
73
6
40
0
40
0
40
0
40
0
40
0.53042343845473
40
0.53042343845473
40
1
40
1
40
1
40
1
41
1
10
47.8283299879086
20
7.52664623376958
30
-1E-16
41
1
10
47.7454655131411
20
7.57806347141459
30
-1E-16
41
1
10
47.6843427323496
20
7.63698136904054
30
-1E-16
41
1
10
47.6124979018863
20
7.75508218007039
30
-1E-16
41
1
10
47.5957583052444
20
7.81491121108175
30
-1E-16
41
1
10
47.5941468502892
20
7.87712351549936
30
-1E-16
0
SPLINE
5
155
100
AcDbEntity
8
1
62
256
6
ByLayer
370
-1
48
1
60
0
100
AcDbSpline
70
4
71
3
72
20
73
16
40
0
40
0
40
0
40
0
40
0.111403378028825
40
0.111403378028825
40
0.287417663333011
40
0.287417663333011
40
0.446930487909915
40
0.446930487909915
40
0.604868676543483
40
0.604868676543483
40
0.773038737967783
40
0.773038737967783
40
0.958890473602468
40
0.958890473602468
40
1
40
1
40
1
40
1
41
1
10
23.6194776193302
20
-29.7539450591056
30
-1.6E-15
41
1
10
23.5994710574787
20
-29.643557720337
30
-1.6E-15
41
1
10
23.5858023378202
20
-29.5400013688079
30
-1.6E-15
41
1
10
23.5693852282817
20
-29.3016827232764
30
-1.6E-15
41
1
10
23.5778085090015
20
-29.1804466600813
30
-1.6E-15
41
1
10
23.6290108245394
20
-29.0221561503118
30
-1.6E-15
41
1
10
23.6691596811668
20
-28.9761634958137
30
-1.6E-15
41
1
10
23.7724029832427
20
-28.9489005399493
30
-1.6E-15
41
1
10
23.8364797490475
20
-28.9664627825419
30
-1.6E-15
41
1
10
23.9830407182345
20
-29.0594434301022
30
-1.6E-15
41
1
10
24.068195048201
20
-29.139462484209
30
-1.6E-15
41
1
10
24.2535333624968
20
-29.3580896008708
30
-1.6E-15
41
1
10
24.3566738755991
20
-29.5045597987721
30
-1.6E-15
41
1
10
24.4810481311968
20
-29.7077031230926
30
-1.6E-15
41
1
10
24.5037037028698
20
-29.7457753428168
30
-1.6E-15
41
1
10
24.5262937507155
20
-29.7847918056644
30
-1.6E-15
0
SPLINE
5
156
100
AcDbEntity
8
1
62
256
6
ByLayer
370
-1
48
1
60
0
100
AcDbSpline
70
4
71
3
72
8
73
4
40
0
40
0
40
0
40
0
40
1
40
1
40
1
40
1
41
1
10
27.9709501115336
20
42.559654763148
30
4E-16
41
1
10
26.2568004734587
20
40.7124404971204
30
3E-16
41
1
10
24.7933438251793
20
38.8359184641147
30
2E-16
41
1
10
23.8630304558042
20
36.8970682463567
30
0
0
SPLINE
5
157
100
AcDbEntity
8
1
62
256
6
ByLayer
370
-1
48
1
60
0
100
AcDbSpline
70
4
71
3
72
16
73
12
40
0
40
0
40
0
40
0
40
0.219935930093085
40
0.219935930093085
40
0.440144356585644
40
0.440144356585644
40
0.658696650426127
40
0.658696650426127
40
0.87514320804163
40
0.87514320804163
40
1
40
1
40
1
40
1
41
1
10
48.4561254933885
20
-36.7067318488226
30
-1E-16
41
1
10
48.5456792513239
20
-36.7129208803773
30
-1E-16
41
1
10
48.636138564696
20
-36.7069365547225
30
-1E-16
41
1
10
48.8040211513266
20
-36.6713784177697
30
-1E-16
41
1
10
48.8837539992558
20
-36.6412715748568
30
-1E-16
41
1
10
49.0206367019487
20
-36.5615560458473
30
-1E-16
41
1
10
49.0798469220376
20
-36.510979422283
30
-1E-16
41
1
10
49.1697317761236
20
-36.3970386990217
30
-1E-16
41
1
10
49.201911478773
20
-36.3322266102797
30
0
41
1
10
49.2286272268447
20
-36.225662404401
30
0
41
1
10
49.2335342093902
20
-36.1852338326612
30
0
41
1
10
49.2334321174999
20
-36.1445725730127
30
0
0
SPLINE
5
158
100
AcDbEntity
8
1
62
256
6
ByLayer
370
-1
48
1
60
0
100
AcDbSpline
70
4
71
3
72
8
73
4
40
0
40
0
40
0
40
0
40
1
40
1
40
1
40
1
41
1
10
33.5516825794212
20
-6.05694887050467
30
-1E-15
41
1
10
33.5932139764973
20
-6.07024531901646
30
-1E-15
41
1
10
33.6382148835668
20
-6.07810928066291
30
-1E-15
41
1
10
33.6825876373932
20
-6.0791162185553
30
-1E-15
0
SPLINE
5
159
100
AcDbEntity
8
1
62
256
6
ByLayer
370
-1
48
1
60
0
100
AcDbSpline
70
4
71
3
72
8
73
4
40
0
40
0
40
0
40
0
40
1
40
1
40
1
40
1
41
1
10
47.5941468502892
20
5.76323284226908
30
-1E-16
41
1
10
47.5798643210692
20
7.02113367604889
30
-1E-16
41
1
10
47.5669366923126
20
8.27901227986874
30
-1E-16
41
1
10
47.5556141551276
20
9.53686101181842
30
-1E-16
0
SPLINE
5
15A
100
AcDbEntity
8
1
62
256
6
ByLayer
370
-1
48
1
60
0
100
AcDbSpline
70
4
71
3
72
10
73
6
40
0
40
0
40
0
40
0
40
0.300213103407037
40
0.300213103407037
40
1
40
1
40
1
40
1
41
1
10
49.2455685004599
20
42.0450150863161
30
0
41
1
10
49.268615681571
20
42.1463053790058
30
0
41
1
10
49.2920960456186
20
42.247491470188
30
0
41
1
10
49.3726143888555
20
42.5839688408183
30
0
41
1
10
49.3978086554063
20
42.8195689987637
30
0
41
1
10
49.4063503421021
20
43.0552456697818
30
0
0
SPLINE
5
15B
100
AcDbEntity
8
1
62
256
6
ByLayer
370
-1
48
1
60
0
100
AcDbSpline
70
4
71
3
72
46
73
42
40
0
40
0
40
0
40
0
40
0.0047684534200022
40
0.0047684534200022
40
0.0379981372565035
40
0.0379981372565035
40
0.104457504929507
40
0.104457504929507
40
0.137687188766008
40
0.137687188766008
40
0.17091687260251
40
0.17091687260251
40
0.204146556439012
40
0.204146556439012
40
0.237376240275513
40
0.237376240275513
40
0.270605924112015
40
0.270605924112015
40
0.303835607948517
40
0.303835607948517
40
0.37029497562152
40
0.37029497562152
40
0.503213710967527
40
0.503213710967527
40
0.636132446313533
40
0.636132446313533
40
0.702591813986537
40
0.702591813986537
40
0.735821497823038
40
0.735821497823038
40
0.76905118165954
40
0.76905118165954
40
0.802280865496041
40
0.802280865496041
40
0.835510549332543
40
0.835510549332543
40
0.901969917005545
40
0.901969917005545
40
0.968429284678547
40
0.968429284678547
40
1
40
1
40
1
40
1
41
1
10
49.2327310240821
20
42.9033281074066
30
0
41
1
10
49.2425663713412
20
42.9478142946153
30
0
41
1
10
49.2524073832488
20
42.9922820745566
30
0
41
1
10
49.3309120990492
20
43.3464991599635
30
0
41
1
10
49.4423201237361
20
43.6465040734588
30
0
41
1
10
49.4464882414047
20
44.6148966512532
30
0
41
1
10
49.4300535793965
20
45.2634247946924
30
0
41
1
10
49.4515945440709
20
46.2455233661578
30
0
41
1
10
49.5541652922133
20
46.55991207401
30
0
41
1
10
49.8380473629023
20
47.1451975836313
30
0
41
1
10
49.9913431556323
20
47.4465715326832
30
0
41
1
10
49.9925450771618
20
48.0998619749372
30
0
41
1
10
50.0081532102714
20
48.4276351767185
30
0
41
1
10
49.9818864183913
20
49.0779569677874
30
0
41
1
10
49.8541835906671
20
49.4097104857833
30
0
41
1
10
49.3631659185278
20
49.8375819376313
30
0
41
1
10
49.0281205263439
20
49.9184587364027
30
0
41
1
10
48.3958389391093
20
49.9173741880983
30
0
41
1
10
48.0786773634602
20
49.9198751676816
30
0
41
1
10
47.1274427629615
20
49.9223102145881
30
0
41
1
10
46.4930861992776
20
49.9219424828517
30
0
41
1
10
44.5898288959079
20
49.9175691430634
30
-1E-16
41
1
10
43.3209086721863
20
49.9115524011289
30
0
41
1
10
40.7836527716495
20
49.8891517642715
30
-1E-16
41
1
10
39.5150172785826
20
49.8737000273294
30
-2E-16
41
1
10
37.611405827155
20
49.8468982078562
30
1E-16
41
1
10
36.9767787250469
20
49.8365544349288
30
1E-16
41
1
10
36.0246599181611
20
49.8150139103325
30
0
41
1
10
35.7072470874299
20
49.8055141803839
30
0
41
1
10
35.0723704271164
20
49.7912541975805
30
0
41
1
10
34.7544926306757
20
49.821857331771
30
0
41
1
10
34.1255902054251
20
49.7321320619526
30
-1E-16
41
1
10
33.8161438880828
20
49.5728051959388
30
-1E-16
41
1
10
33.4131151603219
20
49.0515178241182
30
-1E-16
41
1
10
33.3491544907779
20
48.7187976524876
30
-1E-16
41
1
10
33.0936090862739
20
47.784468239974
30
-1E-16
41
1
10
32.914756469379
20
47.174533647742
30
-2E-16
41
1
10
32.5382149939218
20
45.9807691650904
30
-2E-16
41
1
10
32.2913614299004
20
45.3975624321846
30
-2E-16
41
1
10
32.1804296433093
20
44.50901620913
30
-2E-16
41
1
10
32.1639131317262
20
44.2204030037405
30
-2E-16
41
1
10
32.1490288970626
20
43.9294156107608
30
-2E-16
0
SPLINE
5
15C
100
AcDbEntity
8
1
62
256
6
ByLayer
370
-1
48
1
60
0
100
AcDbSpline
70
4
71
3
72
12
73
8
40
0
40
0
40
0
40
0
40
0.215534727201257
40
0.431069454402513
40
0.64660418160377
40
0.862138908805026
40
1
40
1
40
1
40
1
41
1
10
40.9246511105684
20
47.1868775705834
30
-1E-16
41
1
10
41.2872107098643
20
47.1906508969641
30
-1E-16
41
1
10
42.0120569203708
20
47.061032894411
30
0
41
1
10
42.9728126067292
20
46.4140526982906
30
0
41
1
10
43.5607463062559
20
45.5267079094891
30
0
41
1
10
43.7683765170373
20
44.5370322586872
30
1E-16
41
1
10
43.6838730390066
20
43.9200654787923
30
1E-16
41
1
10
43.6238906018124
20
43.68929930798
30
1E-16
0
SPLINE
5
15D
100
AcDbEntity
8
1
62
256
6
ByLayer
370
-1
48
1
60
0
100
AcDbSpline
70
4
71
3
72
12
73
8
40
0
40
0
40
0
40
0
40
0.152968742606088
40
0.364726556954566
40
0.576484371303044
40
0.788242185651522
40
1
40
1
40
1
40
1
41
1
10
38.2356499644341
20
43.5444305146845
30
2E-16
41
1
10
38.1611373131945
20
43.8003995440474
30
2E-16
41
1
10
38.0636271294316
20
44.4465661507846
30
2E-16
41
1
10
38.2818383603398
20
45.4717678592115
30
2E-16
41
1
10
38.8733285153268
20
46.3713874606313
30
2E-16
41
1
10
39.8366993245954
20
47.0383929361265
30
-2E-16
41
1
10
40.5620915112725
20
47.1831042442026
30
-1E-16
41
1
10
40.9246511105684
20
47.1868775705834
30
-1E-16
0
SPLINE
5
15E
100
AcDbEntity
8
1
62
256
6
ByLayer
370
-1
48
1
60
0
100
AcDbSpline
70
4
71
3
72
9
73
5
40
0
40
0
40
0
40
0
40
0.324029663399882
40
1
40
1
40
1
40
1
41
1
10
43.4661655450802
20
45.5770979908374
30
0
41
1
10
43.3477756637855
20
45.7856392287035
30
0
41
1
10
42.9000140357268
20
46.3847079120367
30
0
41
1
10
42.2335564955395
20
46.7480894567453
30
0
41
1
10
41.7534022424601
20
46.8596091430037
30
0
0
SPLINE
5
15F
100
AcDbEntity
8
1
62
256
6
ByLayer
370
-1
48
1
60
0
100
AcDbSpline
70
4
71
2
72
21
73
18
40
0
40
0
40
0
40
0.125
40
0.125
40
0.25
40
0.25
40
0.375
40
0.375
40
0.5
40
0.5
40
0.625
40
0.625
40
0.708333333333333
40
0.708333333333333
40
0.75
40
0.875
40
0.875
40
1
40
1
40
1
41
1
10
46.4063845421169
20
44.4292474384614
30
0
41
1
10
46.3451483459672
20
45.4151965663165
30
0
41
1
10
45.8095161727747
20
46.2644079384124
30
0
41
1
10
45.2762343972376
20
47.1098929017566
30
-1E-16
41
1
10
44.420142906695
20
47.5708889715483
30
1E-16
41
1
10
43.6441740911602
20
47.9887398416881
30
1E-16
41
1
10
42.5673144665389
20
48.0725247478777
30
0
41
1
10
42.1411430245656
20
48.105682954825
30
0
41
1
10
40.6165043732849
20
48.06465902115
30
-1E-16
41
1
10
39.5185741714066
20
48.0351166664787
30
-2E-16
41
1
10
38.6739254338648
20
48.0468625293327
30
2E-16
41
1
10
37.7379013343599
20
48.0598790771734
30
1E-16
41
1
10
37.3774479639303
20
47.9991611050795
30
1E-16
41
1
10
37.0260002193433
20
47.9399601207111
30
1E-16
41
1
10
35.9846571648456
20
47.4011185824482
30
0
41
1
10
35.660690444239
20
46.2506946966323
30
0
41
1
10
35.3607374362784
20
45.1855448431716
30
0
41
1
10
35.4217212573565
20
44.314586351327
30
0
0
SPLINE
5
160
100
AcDbEntity
8
1
62
256
6
ByLayer
370
-1
48
1
60
0
100
AcDbSpline
70
4
71
3
72
9
73
5
40
0
40
0
40
0
40
0
40
0.543912626261536
40
1
40
1
40
1
40
1
41
1
10
43.6544277186448
20
44.227001886231
30
0
41
1
10
43.6651484141875
20
44.2283185981764
30
0
41
1
10
43.6850074561243
20
44.230731036007
30
0
41
1
10
43.705015525965
20
44.2331319216739
30
0
41
1
10
43.713993499972
20
44.2342321084824
30
1E-16
0
SPLINE
5
161
100
AcDbEntity
8
1
62
256
6
ByLayer
370
-1
48
1
60
0
100
AcDbSpline
70
4
71
2
72
6
73
3
40
0
40
0
40
0
40
1
40
1
40
1
41
1
10
35.4217212573566
20
44.314586351327
30
0
41
1
10
35.4329451255488
20
44.1559057728299
30
0
41
1
10
35.4566509286983
20
44.0003736056489
30
0
0
SPLINE
5
162
100
AcDbEntity
8
1
62
256
6
ByLayer
370
-1
48
1
60
0
100
AcDbSpline
70
4
71
2
72
6
73
3
40
0
40
0
40
0
40
1
40
1
40
1
41
1
10
46.38734039626
20
43.6749622395122
30
0
41
1
10
46.4279837864469
20
44.0778985306494
30
0
41
1
10
46.4063845421169
20
44.4292474384614
30
0
0
SPLINE
5
163
100
AcDbEntity
8
1
62
256
6
ByLayer
370
-1
48
1
60
0
100
AcDbSpline
70
4
71
3
72
14
73
10
40
0
40
0
40
0
40
0
40
0.283961457856589
40
0.283961457856589
40
0.570284934646626
40
0.570284934646626
40
0.829450869060473
40
0.829450869060473
40
1
40
1
40
1
40
1
41
1
10
42.3282132632081
20
44.1293869183593
30
0
41
1
10
42.3578503834758
20
44.1399733508304
30
0
41
1
10
42.3870929231442
20
44.156448566155
30
0
41
1
10
42.4396273650994
20
44.1999107152341
30
0
41
1
10
42.4636469100795
20
44.2277066019828
30
0
41
1
10
42.499239436725
20
44.2878951248768
30
0
41
1
10
42.5122664100578
20
44.3205417742511
30
0
41
1
10
42.5245225474535
20
44.3762667378482
30
0
41
1
10
42.5270677618194
20
44.3992306388172
30
0
41
1
10
42.5271128234881
20
44.4218721700161
30
0
0
SPLINE
5
164
100
AcDbEntity
8
1
62
256
6
ByLayer
370
-1
48
1
60
0
100
AcDbSpline
70
4
71
3
72
14
73
10
40
0
40
0
40
0
40
0
40
0.282169922576106
40
0.282169922576106
40
0.56690224531796
40
0.56690224531796
40
0.82452397208026
40
0.82452397208026
40
1
40
1
40
1
40
1
41
1
10
40.4020519593138
20
45.7867953994941
30
-1E-16
41
1
10
40.3762757160432
20
45.8118810798748
30
-1E-16
41
1
10
40.345689577363
20
45.833428143615
30
-1E-16
41
1
10
40.278783940099
20
45.8649588735688
30
1E-16
41
1
10
40.2413517781037
20
45.875267071388
30
1E-16
41
1
10
40.1694392342635
20
45.8808372284047
30
1E-16
41
1
10
40.1339271971534
20
45.8774601466518
30
1E-16
41
1
10
40.078067194851
20
45.8613654597462
30
1E-16
41
1
10
40.0560197879971
20
45.8518622405769
30
1E-16
41
1
10
40.0357893931266
20
45.8398403426876
30
1E-16
0
SPLINE
5
165
100
AcDbEntity
8
1
62
256
6
ByLayer
370
-1
48
1
60
0
100
AcDbSpline
70
4
71
3
72
14
73
10
40
0
40
0
40
0
40
0
40
0.28396145785659
40
0.28396145785659
40
0.570284934646626
40
0.570284934646626
40
0.829450869060468
40
0.829450869060468
40
1
40
1
40
1
40
1
41
1
10
39.4361365538543
20
44.6607653914539
30
-2E-16
41
1
10
39.401652051733
20
44.6532168749352
30
-2E-16
41
1
10
39.3677941303566
20
44.6396341781166
30
-2E-16
41
1
10
39.3071686437244
20
44.6012427897984
30
-2E-16
41
1
10
39.2795605382427
20
44.5756958996263
30
-2E-16
41
1
10
39.238727636917
20
44.518791586295
30
0
41
1
10
39.2238224360979
20
44.4873220460108
30
0
41
1
10
39.2098109280642
20
44.432697195552
30
0
41
1
10
39.2069066846165
20
44.4099583026817
30
0
41
1
10
39.2068616229479
20
44.3873167714828
30
0
0
SPLINE
5
166
100
AcDbEntity
8
1
62
256
6
ByLayer
370
-1
48
1
60
0
100
AcDbSpline
70
4
71
3
72
18
73
14
40
0
40
0
40
0
40
0
40
0.212491592102414
40
0.212491592102414
40
0.386618191488471
40
0.386618191488471
40
0.562426295050813
40
0.562426295050813
40
0.715388354469455
40
0.715388354469455
40
0.918249128147159
40
0.918249128147159
40
1
40
1
40
1
40
1
41
1
10
39.4361365538543
20
44.6607653914539
30
-2E-16
41
1
10
39.5091382069251
20
44.6767451548316
30
-2E-16
41
1
10
39.5812706933852
20
44.7042748167454
30
-2E-16
41
1
10
39.7011586095181
20
44.775937117304
30
-2E-16
41
1
10
39.7522013161689
20
44.8171334931462
30
-2E-16
41
1
10
39.8390856880398
20
44.9142072980984
30
-2E-16
41
1
10
39.8758784292924
20
44.9718095747811
30
-2E-16
41
1
10
39.9242635492964
20
45.0853481044268
30
-2E-16
41
1
10
39.939187261344
20
45.1418333769829
30
-2E-16
41
1
10
39.9558974756779
20
45.2715577596922
30
-2E-16
41
1
10
39.9523878206582
20
45.3464330623336
30
-2E-16
41
1
10
39.9327499516533
20
45.4460313472542
30
-2E-16
41
1
10
39.925318205458
20
45.4744233020134
30
-2E-16
41
1
10
39.9163024959611
20
45.5021563715745
30
-2E-16
0
SPLINE
5
167
100
AcDbEntity
8
1
62
256
6
ByLayer
370
-1
48
1
60
0
100
AcDbSpline
70
4
71
3
72
16
73
12
40
0
40
0
40
0
40
0
40
0.0624450082614096
40
0.0624450082614096
40
0.283207995985781
40
0.283207995985781
40
0.506745688833539
40
0.506745688833539
40
0.744607284736973
40
0.744607284736973
40
1
40
1
40
1
40
1
41
1
10
41.7039325210366
20
45.8572014840934
30
-1E-16
41
1
10
41.6967201554151
20
45.8613471112646
30
-1E-16
41
1
10
41.6893409722087
20
45.8651647841143
30
-1E-16
41
1
10
41.6555253691542
20
45.8807951733868
30
-1E-16
41
1
10
41.627290366233
20
45.8886844512986
30
-1E-16
41
1
10
41.5712614595116
20
45.8950795283621
30
-1E-16
41
1
10
41.542766791601
20
45.8935715171854
30
-1E-16
41
1
10
41.4875949983384
20
45.8817347597722
30
-1E-16
41
1
10
41.4604543443847
20
45.8707307447713
30
-1E-16
41
1
10
41.410407564289
20
45.8403112694168
30
-1E-16
41
1
10
41.3873415548616
20
45.8199987787169
30
-1E-16
41
1
10
41.3683430469066
20
45.7968520402764
30
-1E-16
0
SPLINE
5
168
100
AcDbEntity
8
1
62
256
6
ByLayer
370
-1
48
1
60
0
100
AcDbSpline
70
4
71
3
72
12
73
8
40
0
40
0
40
0
40
0
40
0.322934826957826
40
0.322934826957826
40
0.805522273505375
40
0.805522273505375
40
1
40
1
40
1
40
1
41
1
10
39.8184703102648
20
43.844739491056
30
-2E-16
41
1
10
39.7870272427421
20
43.8852825078748
30
-2E-16
41
1
10
39.7504715674309
20
43.9225793937318
30
-2E-16
41
1
10
39.6527920007914
20
44.0030955369188
30
-2E-16
41
1
10
39.5868475704198
20
44.041781907339
30
-2E-16
41
1
10
39.49149562148
20
44.0813042207279
30
-2E-16
41
1
10
39.4633791843067
20
44.0911100934904
30
-2E-16
41
1
10
39.4350190656352
20
44.0992761006853
30
-2E-16
0
SPLINE
5
169
100
AcDbEntity
8
1
62
256
6
ByLayer
370
-1
48
1
60
0
100
AcDbSpline
70
4
71
3
72
14
73
10
40
0
40
0
40
0
40
0
40
0.283961749036714
40
0.283961749036714
40
0.570285189259022
40
0.570285189259022
40
0.829451094335689
40
0.829451094335689
40
1
40
1
40
1
40
1
41
1
10
41.8524940960873
20
45.5223072181034
30
-1E-16
41
1
10
41.8587267179405
20
45.556174108416
30
-1E-16
41
1
10
41.8596892476621
20
45.592455649183
30
-1E-16
41
1
10
41.8494963646816
20
45.6643341218049
30
-1E-16
41
1
10
41.8380219114876
20
45.7010288945347
30
-1E-16
41
1
10
41.8046855796973
20
45.7647009825813
30
-1E-16
41
1
10
41.7833572585559
20
45.7932025412954
30
-1E-16
41
1
10
41.7417936307103
20
45.832309022922
30
-1E-16
41
1
10
41.7233705808356
20
45.8460285967099
30
-1E-16
41
1
10
41.7039325210366
20
45.8572014840934
30
-1E-16
0
SPLINE
5
16A
100
AcDbEntity
8
1
62
256
6
ByLayer
370
-1
48
1
60
0
100
AcDbSpline
70
4
71
3
72
18
73
14
40
0
40
0
40
0
40
0
40
0.212491695755301
40
0.212491695755301
40
0.386618276853804
40
0.386618276853804
40
0.562426360907934
40
0.562426360907934
40
0.715388416645937
40
0.715388416645937
40
0.918249208689864
40
0.918249208689864
40
1
40
1
40
1
40
1
41
1
10
41.8524940960873
20
45.5223072181034
30
-1E-16
41
1
10
41.8393000109903
20
45.4506130509808
30
-1E-16
41
1
10
41.8358944376264
20
45.374013960218
30
-1E-16
41
1
10
41.8504914789255
20
45.2340267974121
30
-1E-16
41
1
10
41.8650361614859
20
45.1691992135921
30
-1E-16
41
1
10
41.9100521191955
20
45.0456902297273
30
-1E-16
41
1
10
41.9414778789186
20
44.9853346048485
30
0
41
1
10
42.0110034846784
20
44.8875167493897
30
0
41
1
10
42.0484855821887
20
44.8468670514225
30
0
41
1
10
42.1405533811266
20
44.7688848830609
30
0
41
1
10
42.198217341722
20
44.7353879885241
30
0
41
1
10
42.280730911397
20
44.7039116509526
30
0
41
1
10
42.304961151599
20
44.6965413073335
30
0
41
1
10
42.3293307514272
20
44.690876209128
30
0
0
SPLINE
5
16B
100
AcDbEntity
8
1
62
256
6
ByLayer
370
-1
48
1
60
0
100
AcDbSpline
70
4
71
3
72
12
73
8
40
0
40
0
40
0
40
0
40
0.405551975968366
40
0.405551975968366
40
0.737882237843541
40
0.737882237843541
40
1
40
1
40
1
40
1
41
1
10
42.3282132632081
20
44.1293869183593
30
0
41
1
10
42.2654732310571
20
44.1069760664412
30
0
41
1
10
42.2030321165501
20
44.073372698278
30
0
41
1
10
42.0972921177067
20
43.9928437177413
30
0
41
1
10
42.0514395433989
20
43.9483946198491
30
0
41
1
10
41.9794320710103
20
43.8586238902364
30
0
41
1
10
41.9505177942301
20
43.8145334279656
30
0
41
1
10
41.9262786796249
20
43.7687701103425
30
-1E-16
0
SPLINE
5
16C
100
AcDbEntity
8
1
62
256
6
ByLayer
370
-1
48
1
60
0
100
AcDbSpline
70
4
71
3
72
12
73
8
40
0
40
0
40
0
40
0
40
0.422118633920766
40
0.422118633920766
40
0.843213619146891
40
0.843213619146891
40
1
40
1
40
1
40
1
41
1
10
40.9896114435009
20
45.5807036862072
30
-1E-16
41
1
10
41.0553801349768
20
45.5902595610343
30
-1E-16
41
1
10
41.1184338655532
20
45.6109194050734
30
-1E-16
41
1
10
41.2298491665238
20
45.6678967329633
30
-1E-16
41
1
10
41.2798898430514
20
45.704787851901
30
-1E-16
41
1
10
41.3388968601466
20
45.7628266659763
30
-1E-16
41
1
10
41.3540949626568
20
45.7794929571215
30
-1E-16
41
1
10
41.3683430469066
20
45.7968520402764
30
-1E-16
0
SPLINE
5
16D
100
AcDbEntity
8
1
62
256
6
ByLayer
370
-1
48
1
60
0
100
AcDbSpline
70
4
71
3
72
16
73
12
40
0
40
0
40
0
40
0
40
0.0630415689509281
40
0.0630415689509281
40
0.285914332024978
40
0.285914332024978
40
0.511588305408907
40
0.511588305408907
40
0.751723061839367
40
0.751723061839367
40
1
40
1
40
1
40
1
41
1
10
42.5271128234881
20
44.4218721700161
30
0
41
1
10
42.5271295432499
20
44.4302731240865
30
0
41
1
10
42.5268078349977
20
44.4386646678495
30
0
41
1
10
42.52384341158
20
44.4762235759409
30
0
41
1
10
42.5172417497459
20
44.5051030592619
30
0
41
1
10
42.496756593141
20
44.5579694224459
30
0
41
1
10
42.4825427458551
20
44.5825728816376
30
0
41
1
10
42.4479487425457
20
44.6259543081285
30
0
41
1
10
42.4268220874902
20
44.6448223798552
30
0
41
1
10
42.3807675546869
20
44.6742467174832
30
0
41
1
10
42.3552316894199
20
44.6848551271906
30
0
41
1
10
42.3293307514272
20
44.690876209128
30
0
0
SPLINE
5
16E
100
AcDbEntity
8
1
62
256
6
ByLayer
370
-1
48
1
60
0
100
AcDbSpline
70
4
71
3
72
12
73
8
40
0
40
0
40
0
40
0
40
0.495779676780356
40
0.495779676780356
40
0.900233025448795
40
0.900233025448795
40
1
40
1
40
1
40
1
41
1
10
40.4020519593138
20
45.7867953994941
30
-1E-16
41
1
10
40.4567807719601
20
45.7335328085396
30
-1E-16
41
1
10
40.5208567543437
20
45.6867638531651
30
-1E-16
41
1
10
40.6486272032963
20
45.6218028121836
30
-1E-16
41
1
10
40.711698230443
20
45.5993636211138
30
-1E-16
41
1
10
40.7922514879692
20
45.5835306868071
30
-1E-16
41
1
10
40.8085034442653
20
45.5809500495075
30
-1E-16
41
1
10
40.824793626273
20
45.5789883505245
30
-1E-16
0
SPLINE
5
16F
100
AcDbEntity
8
1
62
256
6
ByLayer
370
-1
48
1
60
0
100
AcDbSpline
70
4
71
3
72
16
73
12
40
0
40
0
40
0
40
0
40
0.0630415689509336
40
0.0630415689509336
40
0.285914332024981
40
0.285914332024981
40
0.511588305408914
40
0.511588305408914
40
0.75172306183938
40
0.75172306183938
40
1
40
1
40
1
40
1
41
1
10
39.2068616229479
20
44.3873167714828
30
0
41
1
10
39.206844903186
20
44.3789158174125
30
0
41
1
10
39.2072153029016
20
44.3704937580891
30
0
41
1
10
39.2106173917207
20
44.3326605595159
30
0
41
1
10
39.2181769664465
20
44.3031807399839
30
0
41
1
10
39.2416605263037
20
44.2484352392888
30
0
41
1
10
39.2579647420983
20
44.222521719526
30
0
41
1
10
39.2977360487729
20
44.1758956110691
30
0
41
1
10
39.322067797899
20
44.1550188660625
30
0
41
1
10
39.3752835738618
20
44.1211064861283
30
-2E-16
41
1
10
39.4048768523714
20
44.1079552438593
30
-2E-16
41
1
10
39.4350190656352
20
44.0992761006853
30
-2E-16
0
SPLINE
5
170
100
AcDbEntity
8
1
62
256
6
ByLayer
370
-1
48
1
60
0
100
AcDbSpline
70
4
71
3
72
16
73
12
40
0
40
0
40
0
40
0
40
0.0569446172824968
40
0.0569446172824968
40
0.279906644834075
40
0.279906644834075
40
0.505321967306687
40
0.505321967306687
40
0.744915047128809
40
0.744915047128809
40
1
40
1
40
1
40
1
41
1
10
40.0357893931266
20
45.8398403426876
30
1E-16
41
1
10
40.0292549191542
20
45.8359572361363
30
1E-16
41
1
10
40.0228825446913
20
45.8318018914986
30
1E-16
41
1
10
39.9927064886938
20
45.8102811435945
30
1E-16
41
1
10
39.9713787981082
20
45.7890177061543
30
1E-16
41
1
10
39.9370291019863
20
45.7416342118072
30
-2E-16
41
1
10
39.9236444418808
20
45.7148744499341
30
-2E-16
41
1
10
39.9053742972017
20
45.6580356096992
30
-2E-16
41
1
10
39.9008170700506
20
45.6271532454525
30
-2E-16
41
1
10
39.9010638885012
20
45.5646764876265
30
-2E-16
41
1
10
39.9064626119896
20
45.5324246701205
30
-2E-16
41
1
10
39.9163024959611
20
45.5021563715746
30
-2E-16
0
SPLINE
5
171
100
AcDbEntity
8
1
62
256
6
ByLayer
370
-1
48
1
60
0
100
AcDbSpline
70
4
71
3
72
16
73
12
40
0
40
0
40
0
40
0
40
0.0222330127687401
40
0.0222330127687401
40
0.213213868564655
40
0.213213868564655
40
0.40419472436057
40
0.40419472436057
40
0.786156435952404
40
0.786156435952404
40
1
40
1
40
1
40
1
41
1
10
47.6134610768098
20
8.7850632749782
30
-1E-16
41
1
10
47.6496335934401
20
8.78974786498171
30
-1E-16
41
1
10
47.6858075681249
20
8.79444737513981
30
-1E-16
41
1
10
48.0327303872847
20
8.83967499229465
30
-1E-16
41
1
10
48.3630409421886
20
8.90625331127475
30
-1E-16
41
1
10
48.7784733065169
20
9.09105309853936
30
-1E-16
41
1
10
48.8245966780674
20
9.19003316998962
30
-1E-16
41
1
10
49.0512122119041
20
9.47267817708047
30
-1E-16
41
1
10
49.1712887199239
20
9.65922299795497
30
-1E-16
41
1
10
49.3974366262007
20
9.95273030903792
30
0
41
1
10
49.4139609758521
20
10.0496365938462
30
0
41
1
10
49.4091833059294
20
10.1437646843728
30
0
0
SPLINE
5
172
100
AcDbEntity
8
1
62
256
6
ByLayer
370
-1
48
1
60
0
100
AcDbSpline
70
4
71
3
72
10
73
6
40
0
40
0
40
0
40
0
40
0.0980926066777249
40
0.0980926066777249
40
1
40
1
40
1
40
1
41
1
10
49.4000599714472
20
10.8339587322076
30
0
41
1
10
49.4055960548364
20
10.8479421431525
30
0
41
1
10
49.4117903819588
20
10.8619972624155
30
0
41
1
10
49.4822630557602
20
11.0060735846509
30
0
41
1
10
49.6237515309279
20
11.1463560441785
30
0
41
1
10
49.650899715945
20
11.2701068048948
30
0
0
SPLINE
5
173
100
AcDbEntity
8
1
62
256
6
ByLayer
370
-1
48
1
60
0
100
AcDbSpline
70
4
71
3
72
12
73
8
40
0
40
0
40
0
40
0
40
0.290264372437196
40
0.290264372437196
40
0.693597514383212
40
0.693597514383212
40
1
40
1
40
1
40
1
41
1
10
49.8145426992088
20
17.2204680369455
30
0
41
1
10
49.9119959819488
20
17.3079913834927
30
0
41
1
10
49.9915116265242
20
17.3869526223469
30
0
41
1
10
49.9925450771618
20
17.5438157573062
30
0
41
1
10
50.0081532102714
20
17.6370082368664
30
0
41
1
10
49.9850426893641
20
17.794614451339
30
0
41
1
10
49.9089466813597
20
17.8552118450405
30
0
41
1
10
49.7653128275235
20
17.8923052110308
30
0
0
SPLINE
5
174
100
AcDbEntity
8
1
62
256
6
ByLayer
370
-1
48
1
60
0
100
AcDbSpline
70
4
71
3
72
18
73
14
40
0
40
0
40
0
40
0
40
0.0160206386426204
40
0.0160206386426204
40
0.397206546231009
40
0.397206546231009
40
0.587799500025202
40
0.587799500025202
40
0.778392453819394
40
0.778392453819394
40
0.968985407613587
40
0.968985407613587
40
1
40
1
40
1
40
1
41
1
10
49.4411178441738
20
-33.3846939162814
30
0
41
1
10
49.442698581523
20
-33.401388220065
30
0
41
1
10
49.4435927100458
20
-33.4182716995375
30
0
41
1
10
49.4464882414047
20
-33.8422377214801
30
0
41
1
10
49.4300535793964
20
-34.2527951509351
30
0
41
1
10
49.4515945440708
20
-34.9299709100574
30
0
41
1
10
49.5541652922132
20
-35.1422625299461
30
0
41
1
10
49.8380473629022
20
-35.5516002088917
30
0
41
1
10
49.9913431556322
20
-35.7741721623411
30
0
41
1
10
49.9925450771617
20
-36.3064234968247
30
0
41
1
10
50.0081532102713
20
-36.5723046219845
30
0
41
1
10
49.9928826580848
20
-36.8813382783271
30
0
41
1
10
49.9877116998392
20
-36.9250041557576
30
0
41
1
10
49.9794929931471
20
-36.968654740638
30
0
0
SPLINE
5
175
100
AcDbEntity
8
1
62
256
6
ByLayer
370
-1
48
1
60
0
100
AcDbSpline
70
4
71
3
72
20
73
16
40
0
40
0
40
0
40
0
40
0.0323228342950082
40
0.0323228342950082
40
0.225858267436006
40
0.225858267436006
40
0.419393700577004
40
0.419393700577004
40
0.612929133718002
40
0.612929133718002
40
0.709696850288502
40
0.709696850288502
40
0.806464566859001
40
0.806464566859001
40
1
40
1
40
1
40
1
41
1
10
49.2454517837526
20
-32.1739530323788
30
0
41
1
10
49.268536407393
20
-32.2561359478563
30
0
41
1
10
49.2920552388498
20
-32.3382697626868
30
0
41
1
10
49.4612486947218
20
-32.9116126803753
30
0
41
1
10
49.3999888146037
20
-33.3878369464259
30
0
41
1
10
49.3589647756779
20
-34.3463171496589
30
0
41
1
10
49.3309763789232
20
-34.8285291336021
30
0
41
1
10
49.50643008154
20
-35.7951408797627
30
0
41
1
10
49.7426126207969
20
-36.2902080082914
30
0
41
1
10
49.5612544718548
20
-36.9752179399934
30
0
41
1
10
49.2990933241045
20
-37.1546042971048
30
0
41
1
10
48.6922558101024
20
-37.183727332316
30
-1E-16
41
1
10
48.3819992542795
20
-37.1366142589179
30
-1E-16
41
1
10
47.4607132612214
20
-37.0718822561299
30
-2E-16
41
1
10
46.8465488928183
20
-37.0296215755659
30
-2E-16
41
1
10
46.23236315085
20
-36.9864676514668
30
-2E-16
0
SPLINE
5
176
100
AcDbEntity
8
1
62
256
6
ByLayer
370
-1
48
1
60
0
100
AcDbSpline
70
4
71
3
72
14
73
10
40
0
40
0
40
0
40
0
40
0.439488033593562
40
0.439488033593562
40
0.659232050390343
40
0.659232050390343
40
0.878976067187125
40
0.878976067187125
40
1
40
1
40
1
40
1
41
1
10
37.391332086147
20
-36.3712938444635
30
-8E-16
41
1
10
36.784375517443
20
-36.3307526998345
30
-8E-16
41
1
10
36.1774339897309
20
-36.2915073634713
30
-8E-16
41
1
10
35.2670131174737
20
-36.2303879464706
30
-9E-16
41
1
10
34.9380299015185
20
-36.1689425735158
30
-9E-16
41
1
10
34.5036231162558
20
-35.7936779536959
30
-9E-16
41
1
10
34.4454420230437
20
-35.5295566103212
30
-1E-15
41
1
10
34.321056857878
20
-35.1547938146602
30
-1E-15
41
1
10
34.2787627418927
20
-35.0213594371361
30
-1E-15
41
1
10
34.2383335673541
20
-34.8876908986001
30
-1E-15
0
SPLINE
5
177
100
AcDbEntity
8
1
62
256
6
ByLayer
370
-1
48
1
60
0
100
AcDbSpline
70
4
71
3
72
10
73
6
40
0
40
0
40
0
40
0
40
0.126560526058618
40
0.126560526058618
40
1
40
1
40
1
40
1
41
1
10
41.9831964451677
20
-36.4230189707351
30
-5E-16
41
1
10
42.1167079850246
20
-36.4324237357598
30
-5E-16
41
1
10
42.2502195027707
20
-36.4418286359478
30
-5E-16
41
1
10
43.3051416010216
20
-36.5161411819656
30
-4E-16
41
1
10
44.2265501439594
20
-36.581061282857
30
-4E-16
41
1
10
45.1479607097483
20
-36.6459690186426
30
-3E-16
0
SPLINE
5
178
100
AcDbEntity
8
1
62
256
6
ByLayer
370
-1
48
1
60
0
100
AcDbSpline
70
4
71
3
72
8
73
4
40
0
40
0
40
0
40
0
40
1
40
1
40
1
40
1
41
1
10
38.3894241220746
20
-39.3524015048363
30
-7E-16
41
1
10
40.63089386509
20
-39.4199373372799
30
-6E-16
41
1
10
42.8768383084771
20
-39.439694463204
30
-4E-16
41
1
10
45.123578559841
20
-39.4363768632294
30
-3E-16
0
SPLINE
5
179
100
AcDbEntity
8
1
62
256
6
ByLayer
370
-1
48
1
60
0
100
AcDbSpline
70
4
71
3
72
8
73
4
40
0
40
0
40
0
40
0
40
1
40
1
40
1
40
1
41
1
10
41.9831964451677
20
-36.4230189707351
30
-5E-16
41
1
10
41.6692464394185
20
-36.4009038334464
30
-5E-16
41
1
10
41.3552963113764
20
-36.3787894437222
30
-5E-16
41
1
10
41.0413460604429
20
-36.3566758052735
30
-5E-16
0
SPLINE
5
17A
100
AcDbEntity
8
1
62
256
6
ByLayer
370
-1
48
1
60
0
100
AcDbSpline
70
4
71
3
72
34
73
30
40
0
40
0
40
0
40
0
40
0.0024088629861627
40
0.0024088629861627
40
0.0515322052701803
40
0.0515322052701803
40
0.100655547554198
40
0.100655547554198
40
0.149778889838215
40
0.149778889838215
40
0.198902232122233
40
0.198902232122233
40
0.297148916690268
40
0.297148916690268
40
0.493642285826338
40
0.493642285826338
40
0.690135654962408
40
0.690135654962408
40
0.788382339530443
40
0.788382339530443
40
0.837505681814461
40
0.837505681814461
40
0.886629024098478
40
0.886629024098478
40
0.935752366382496
40
0.935752366382496
40
0.984875708666514
40
0.984875708666514
40
1
40
1
40
1
40
1
41
1
10
49.9907735284355
20
-40.2211123282912
30
0
41
1
10
49.9915180030553
20
-40.2338052618671
30
0
41
1
10
49.9919146470637
20
-40.2465002304446
30
0
41
1
10
49.9925450771617
20
-40.5181316752205
30
0
41
1
10
50.0081532102713
20
-40.7789245296999
30
0
41
1
10
49.9818864183912
20
-41.2930015760742
30
0
41
1
10
49.854183590667
20
-41.5467024937833
30
0
41
1
10
49.3631659185277
20
-41.8479891883554
30
0
41
1
10
49.0281205263438
20
-41.8830733896631
30
-1E-16
41
1
10
48.3958389391091
20
-41.7927658200758
30
-1E-16
41
1
10
48.0786773634601
20
-41.7525256294365
30
-1E-16
41
1
10
47.1274427629613
20
-41.6267630692075
30
-2E-16
41
1
10
46.4930861992774
20
-41.5416748340309
30
-2E-16
41
1
10
44.5898288959077
20
-41.2841431910202
30
-3E-16
41
1
10
43.320908672186
20
-41.1100551270035
30
-4E-16
41
1
10
40.7836527716492
20
-40.7519678315409
30
-6E-16
41
1
10
39.5150172785822
20
-40.5694503430104
30
-6E-16
41
1
10
37.6114058271546
20
-40.2942101136594
30
-8E-16
41
1
10
36.9767787250465
20
-40.2015028972036
30
-8E-16
41
1
10
36.0246599181607
20
-40.0580725003699
30
-9E-16
41
1
10
35.7072470874294
20
-40.008495020818
30
-9E-16
41
1
10
35.0723704271159
20
-39.9133112160405
30
-9E-16
41
1
10
34.7544926306752
20
-39.8932409001476
30
-9E-16
41
1
10
34.1255902054246
20
-39.7397796002353
30
-1E-15
41
1
10
33.8161438880823
20
-39.5866475767567
30
-1E-15
41
1
10
33.4131151603216
20
-39.1504921872682
30
-1E-15
41
1
10
33.3491544907777
20
-38.886034285658
30
-1E-15
41
1
10
33.2377465751254
20
-38.5757962731497
30
-1E-15
41
1
10
33.2113192871343
20
-38.5039168066513
30
-1E-15
41
1
10
33.1846874357918
20
-38.433102380136
30
-1E-15
0
SPLINE
5
17B
100
AcDbEntity
8
1
62
256
6
ByLayer
370
-1
48
1
60
0
100
AcDbSpline
70
4
71
3
72
14
73
10
40
0
40
0
40
0
40
0
40
0.125000000000001
40
0.125000000000001
40
0.250000000000002
40
0.250000000000002
40
0.500000000000002
40
0.500000000000002
40
1
40
1
40
1
40
1
41
1
10
38.3894241220771
20
-39.3524015048072
30
-7E-16
41
1
10
38.2063274462818
20
-39.3509054844459
30
-7E-16
41
1
10
38.1273424452402
20
-39.1880203947098
30
-7E-16
41
1
10
37.9905973830445
20
-38.9490316695321
30
-7E-16
41
1
10
37.9388552169315
20
-38.823320813351
30
-7E-16
41
1
10
37.8007515905188
20
-38.4446866062617
30
-7E-16
41
1
10
37.7329908702593
20
-38.1880722561815
30
-8E-16
41
1
10
37.552088963012
20
-37.414509635308
30
-8E-16
41
1
10
37.4650259048575
20
-36.8929943973038
30
-8E-16
41
1
10
37.3888812092064
20
-36.3713361260378
30
-8E-16
0
SPLINE
5
17C
100
AcDbEntity
8
1
62
256
6
ByLayer
370
-1
48
1
60
0
100
AcDbSpline
70
4
71
3
72
14
73
10
40
0
40
0
40
0
40
0
40
0.5
40
0.5
40
0.749999999999999
40
0.749999999999999
40
0.875
40
0.875
40
1
40
1
40
1
40
1
41
1
10
46.1936552340399
20
-36.9837310437914
30
-2E-16
41
1
10
46.1092666235411
20
-37.4214661741384
30
-2E-16
41
1
10
46.0129168196366
20
-37.8588023696272
30
-2E-16
41
1
10
45.8159944974166
20
-38.5075694842967
30
-3E-16
41
1
10
45.7428008151545
20
-38.7224289223948
30
-3E-16
41
1
10
45.5950122372557
20
-39.037721840758
30
-3E-16
41
1
10
45.5400150485382
20
-39.1426844804732
30
-3E-16
41
1
10
45.3901578767653
20
-39.3412278488786
30
-3E-16
41
1
10
45.2694571267502
20
-39.4646838620074
30
-3E-16
41
1
10
45.123578559841
20
-39.4363768632294
30
-3E-16
0
SPLINE
5
17D
100
AcDbEntity
8
1
62
256
6
ByLayer
370
-1
48
1
60
0
100
AcDbSpline
70
4
71
3
72
14
73
10
40
0
40
0
40
0
40
0
40
0.217487831850639
40
0.217487831850639
40
0.478325141833878
40
0.478325141833878
40
0.739162451490889
40
0.739162451490889
40
1
40
1
40
1
40
1
41
1
10
38.4172153584467
20
-36.1718417807106
30
-7E-16
41
1
10
38.3373648841412
20
-36.1660542468931
30
-7E-16
41
1
10
38.2574207279603
20
-36.1646906852984
30
-7E-16
41
1
10
38.0839210335545
20
-36.1714642383575
30
-7E-16
41
1
10
37.9902335278204
20
-36.1815847474739
30
-7E-16
41
1
10
37.8085549268977
20
-36.2142633010463
30
-7E-16
41
1
10
37.7199407174242
20
-36.2369334147495
30
-8E-16
41
1
10
37.5508097023365
20
-36.2940021726592
30
-8E-16
41
1
10
37.4697128223532
20
-36.3285965534957
30
-8E-16
41
1
10
37.3937535456451
20
-36.3685389521337
30
-8E-16
0
SPLINE
5
17E
100
AcDbEntity
8
1
62
256
6
ByLayer
370
-1
48
1
60
0
100
AcDbSpline
70
4
71
3
72
10
73
6
40
0
40
0
40
0
40
0
40
0.332052727953821
40
0.332052727953821
40
1
40
1
40
1
40
1
41
1
10
38.4172153584465
20
-36.1718417807079
30
-7E-16
41
1
10
38.7076650119327
20
-36.1923016200891
30
-7E-16
41
1
10
38.9981148451628
20
-36.2127603607084
30
-7E-16
41
1
10
39.8728250939071
20
-36.2743716120989
30
-6E-16
41
1
10
40.4570857904434
20
-36.3155224049105
30
-6E-16
41
1
10
41.0413460604429
20
-36.3566758052735
30
-5E-16
0
SPLINE
5
17F
100
AcDbEntity
8
1
62
256
6
ByLayer
370
-1
48
1
60
0
100
AcDbSpline
70
4
71
3
72
14
73
10
40
0
40
0
40
0
40
0
40
0.427915383507546
40
0.427915383507546
40
0.677126833193998
40
0.677126833193998
40
0.926339366110844
40
0.926339366110844
40
1
40
1
40
1
40
1
41
1
10
46.1896271659511
20
-36.9811020896777
30
-2E-16
41
1
10
46.0619442430079
20
-36.8973974461889
30
-2E-16
41
1
10
45.919829842392
20
-36.8264373685881
30
-2E-16
41
1
10
45.6848697940385
20
-36.7407647655131
30
-3E-16
41
1
10
45.5951979257227
20
-36.7145620098388
30
-3E-16
41
1
10
45.413881441784
20
-36.6741576590669
30
-3E-16
41
1
10
45.3216149410123
20
-36.6598175336527
30
-3E-16
41
1
10
45.2024069619175
20
-36.649211670808
30
-3E-16
41
1
10
45.1751643345757
20
-36.6473220334663
30
-3E-16
41
1
10
45.1479607097485
20
-36.6459690186427
30
-3E-16
0
SPLINE
5
180
100
AcDbEntity
8
1
62
256
6
ByLayer
370
-1
48
1
60
0
100
AcDbSpline
70
4
71
3
72
46
73
42
40
0
40
0
40
0
40
0
40
0.0312499999999996
40
0.0312499999999996
40
0.0624999999999992
40
0.0624999999999992
40
0.124999999999999
40
0.124999999999999
40
0.156249999999999
40
0.156249999999999
40
0.187499999999999
40
0.187499999999999
40
0.218749999999999
40
0.218749999999999
40
0.249999999999999
40
0.249999999999999
40
0.281249999999999
40
0.281249999999999
40
0.312499999999999
40
0.312499999999999
40
0.374999999999999
40
0.374999999999999
40
0.499999999999999
40
0.499999999999999
40
0.624999999999999
40
0.624999999999999
40
0.687499999999999
40
0.687499999999999
40
0.718749999999999
40
0.718749999999999
40
0.749999999999999
40
0.749999999999999
40
0.78125
40
0.78125
40
0.8125
40
0.8125
40
0.875
40
0.875
40
0.9375
40
0.9375
40
1
40
1
40
1
40
1
41
1
10
49.056157985151
20
13.6257579090881
30
-1E-16
41
1
10
49.1254718593709
20
13.6649973738927
30
-1E-16
41
1
10
49.1936060585919
20
13.6965498349448
30
0
41
1
10
49.3309120990491
20
13.752939669457
30
0
41
1
10
49.4423201237361
20
13.7666056404997
30
0
41
1
10
49.4464882414047
20
13.8871642091969
30
0
41
1
10
49.4300535793965
20
13.9705840212193
30
0
41
1
10
49.4515945440709
20
14.1776158039308
30
0
41
1
10
49.5541652922133
20
14.2373621389901
30
0
41
1
10
49.8380473629022
20
14.3691448899808
30
0
41
1
10
49.9913431556323
20
14.4541722992835
30
0
41
1
10
49.9925450771618
20
14.7109426014287
30
0
41
1
10
50.0081532102714
20
14.8380775657449
30
0
41
1
10
49.9818864183912
20
15.0962054475792
30
0
41
1
10
49.854183590667
20
15.2428953960877
30
0
41
1
10
49.3631659185278
20
15.4775890012493
30
0
41
1
10
49.0281205263439
20
15.5603393113314
30
-1E-16
41
1
10
48.3958389391093
20
15.7169532120433
30
-1E-16
41
1
10
48.0786773634603
20
15.7920650532665
30
-1E-16
41
1
10
47.1274427629617
20
16.0172075938413
30
-2E-16
41
1
10
46.4930861992779
20
16.1659374586504
30
-2E-16
41
1
10
44.5898288959084
20
16.6102705801995
30
-3E-16
41
1
10
43.3209086721869
20
16.9051718902305
30
-4E-16
41
1
10
40.7836527716505
20
17.4938722090836
30
-6E-16
41
1
10
39.5150172785837
20
17.7867334637647
30
-6E-16
41
1
10
37.6114058271563
20
18.2221272482226
30
-8E-16
41
1
10
36.9767787250483
20
18.3664285514733
30
-8E-16
41
1
10
36.0246599181626
20
18.5797990124831
30
-9E-16
41
1
10
35.7072470874314
20
18.6498854966252
30
-9E-16
41
1
10
35.0723704271179
20
18.7915453264513
30
-9E-16
41
1
10
34.7544926306772
20
18.8814015067527
30
-9E-16
41
1
10
34.1255902054267
20
18.9906889030811
30
-1E-15
41
1
10
33.8161438880842
20
18.975175511272
30
-1E-15
41
1
10
33.4131151603227
20
18.8105400188114
30
-1E-15
41
1
10
33.3491544907784
20
18.6810104457888
30
-1E-15
41
1
10
33.0936090862743
20
18.2628103608422
30
-1E-15
41
1
10
32.9147564693795
20
17.9217448902872
30
-1E-15
41
1
10
32.5382149939225
20
17.1996083752123
30
-1.1E-15
41
1
10
32.291361429901
20
16.8258126105703
30
-1.1E-15
41
1
10
32.1409493081011
20
16.0191320987426
30
-1.1E-15
41
1
10
32.1508674705863
20
15.6210213045612
30
-1.1E-15
41
1
10
32.0819420642682
20
15.2681593903934
30
-1.1E-15
0
SPLINE
5
181
100
AcDbEntity
8
1
62
256
6
ByLayer
370
-1
48
1
60
0
100
AcDbSpline
70
4
71
3
72
14
73
10
40
0
40
0
40
0
40
0
40
0.124999999999999
40
0.124999999999999
40
0.249999999999998
40
0.249999999999998
40
0.499999999999998
40
0.499999999999998
40
1
40
1
40
1
40
1
41
1
10
38.3894241220771
20
19.2398065146088
30
-7E-16
41
1
10
38.2063274462819
20
19.2530696550005
30
-7E-16
41
1
10
38.1273424452403
20
19.4425787178302
30
-7E-16
41
1
10
37.9905973830446
20
19.7218168476563
30
-7E-16
41
1
10
37.9388552169316
20
19.8673896397022
30
-7E-16
41
1
10
37.8007515905188
20
20.3046823276122
30
-7E-16
41
1
10
37.7329908702594
20
20.5993627601208
30
-8E-16
41
1
10
37.5520889630121
20
21.4864164558784
30
-8E-16
41
1
10
37.4650259048575
20
22.0825001615344
30
-8E-16
41
1
10
37.3888812092064
20
22.6794873678148
30
-8E-16
0
SPLINE
5
182
100
AcDbEntity
8
1
62
256
6
ByLayer
370
-1
48
1
60
0
100
AcDbSpline
70
4
71
3
72
8
73
4
40
0
40
0
40
0
40
0
40
1
40
1
40
1
40
1
41
1
10
41.9831964451678
20
21.913411211574
30
-5E-16
41
1
10
41.6692464394186
20
21.9565648079215
30
-5E-16
41
1
10
41.3552963113765
20
21.9997176684521
30
-5E-16
41
1
10
41.0413460604429
20
22.0428697895127
30
-5E-16
0
SPLINE
5
183
100
AcDbEntity
8
1
62
256
6
ByLayer
370
-1
48
1
60
0
100
AcDbSpline
70
4
71
2
72
10
73
7
40
0
40
0
40
0
40
0.427807485333298
40
0.427807485333298
40
0.855614970666596
40
0.855614970666596
40
1
40
1
40
1
41
1
10
46.4063845421169
20
15.0014128224672
30
-2E-16
41
1
10
46.3451483459672
20
15.397376203621
30
-2E-16
41
1
10
45.8095161727747
20
15.8033332574373
30
-3E-16
41
1
10
45.2762343972376
20
16.2075089385967
30
-3E-16
41
1
10
44.420142906695
20
16.5038724577167
30
-3E-16
41
1
10
44.1582534259499
20
16.594533898686
30
-4E-16
41
1
10
43.8620906000422
20
16.6748379323408
30
-4E-16
0
SPLINE
5
184
100
AcDbEntity
8
1
62
256
6
ByLayer
370
-1
48
1
60
0
100
AcDbSpline
70
4
71
2
72
13
73
10
40
0
40
0
40
0
40
0.243761049543927
40
0.243761049543927
40
0.411814149645277
40
0.411814149645277
40
0.495840699695951
40
0.747920349847976
40
0.747920349847976
40
1
40
1
40
1
41
1
10
40.5443170442028
20
17.2182790168371
30
-6E-16
41
1
10
39.490700856375
20
17.3491866558429
30
-6E-16
41
1
10
38.6739254338647
20
17.4634418432353
30
-7E-16
41
1
10
37.7379013343599
20
17.5943782131913
30
-8E-16
41
1
10
37.3774479639302
20
17.6189514413295
30
-8E-16
41
1
10
37.0260002193433
20
17.6429107279249
30
-8E-16
41
1
10
35.9846571648455
20
17.5709812471052
30
-9E-16
41
1
10
35.660690444239
20
17.1621146860621
30
-9E-16
41
1
10
35.3607374362784
20
16.783554954341
30
-9E-16
41
1
10
35.4217212573565
20
16.432846462742
30
-9E-16
0
SPLINE
5
185
100
AcDbEntity
8
1
62
256
6
ByLayer
370
-1
48
1
60
0
100
AcDbSpline
70
4
71
3
72
8
73
4
40
0
40
0
40
0
40
0
40
1
40
1
40
1
40
1
41
1
10
38.3894241220747
20
19.2398065145759
30
-7E-16
41
1
10
40.6308938650901
20
19.0216405219089
30
-6E-16
41
1
10
42.8768383084772
20
18.8507274320951
30
-4E-16
41
1
10
45.1235785598411
20
18.7027270713246
30
-3E-16
0
SPLINE
5
186
100
AcDbEntity
8
1
62
256
6
ByLayer
370
-1
48
1
60
0
100
AcDbSpline
70
4
71
3
72
30
73
26
40
0
40
0
40
0
40
0
40
0.0625000000000001
40
0.0625000000000001
40
0.0937500000000001
40
0.0937500000000001
40
0.125
40
0.125
40
0.1875
40
0.1875
40
0.25
40
0.25
40
0.5
40
0.5
40
0.75
40
0.75
40
0.8125
40
0.8125
40
0.84375
40
0.84375
40
0.875
40
0.875
40
0.9375
40
0.9375
40
1
40
1
40
1
40
1
41
1
10
32.081942064268
20
15.2681593903934
30
-1.1E-15
41
1
10
32.0318870280302
20
15.0119038694734
30
-1.1E-15
41
1
10
31.7389826094461
20
14.8366959780464
30
-1.1E-15
41
1
10
31.4916319350629
20
14.5822322083743
30
-1.1E-15
41
1
10
31.4818178600439
20
14.4853901738511
30
-1.1E-15
41
1
10
31.4896746987824
20
14.2941724166014
30
-1.1E-15
41
1
10
31.4659414299713
20
14.197377904787
30
-1.1E-15
41
1
10
31.5085500079449
20
13.9107278161082
30
-1.1E-15
41
1
10
31.8112179288839
20
13.6717684500848
30
-1.1E-15
41
1
10
32.740754470093
20
13.4528721135985
30
-1.1E-15
41
1
10
33.2448490158422
20
13.4810769979582
30
-1E-15
41
1
10
35.6820398791408
20
13.3861517537596
30
-9E-16
41
1
10
37.6318692776695
20
13.311254998246
30
-8E-16
41
1
10
41.5308417828957
20
13.1449645464047
30
-5E-16
41
1
10
43.4802984311722
20
13.0588833930734
30
-4E-16
41
1
10
45.9175599288974
20
12.9723206687309
30
-2E-16
41
1
10
46.4049210146962
20
12.9555342662409
30
-2E-16
41
1
10
47.1361152424611
20
12.925406749309
30
-2E-16
41
1
10
47.3803226004363
20
12.917215056444
30
-2E-16
41
1
10
47.8607277861989
20
12.9289770430855
30
-1E-16
41
1
10
48.0776974570676
20
12.9512372482007
30
-1E-16
41
1
10
48.5681062581191
20
13.0884227004901
30
-1E-16
41
1
10
48.6156829404854
20
13.275183829113
30
-1E-16
41
1
10
48.8445517771017
20
13.4901394057641
30
-1E-16
41
1
10
48.9517045220638
20
13.5666254765893
30
-1E-16
41
1
10
49.056157985151
20
13.625757909088
30
-1E-16
0
SPLINE
5
187
100
AcDbEntity
8
1
62
256
6
ByLayer
370
-1
48
1
60
0
100
AcDbSpline
70
4
71
3
72
10
73
6
40
0
40
0
40
0
40
0
40
0.332052727953821
40
0.332052727953821
40
1
40
1
40
1
40
1
41
1
10
38.4172153584466
20
22.4035524710211
30
-7E-16
41
1
10
38.7076650119328
20
22.3636289817662
30
-7E-16
41
1
10
38.9981148451628
20
22.3237065740067
30
-7E-16
41
1
10
39.8728250939071
20
22.2034791022188
30
-6E-16
41
1
10
40.4570857904434
20
22.1231757291542
30
-6E-16
41
1
10
41.0413460604429
20
22.0428697895127
30
-5E-16
0
SPLINE
5
188
100
AcDbEntity
8
1
62
256
6
ByLayer
370
-1
48
1
60
0
100
AcDbSpline
70
4
71
3
72
14
73
10
40
0
40
0
40
0
40
0
40
0.217487831850636
40
0.217487831850636
40
0.478325141833876
40
0.478325141833876
40
0.739162451490885
40
0.739162451490885
40
1
40
1
40
1
40
1
41
1
10
38.4172153584467
20
22.4035524710225
30
-7E-16
41
1
10
38.3373648841413
20
22.4144475144058
30
-7E-16
41
1
10
38.2574207279603
20
22.4275538224729
30
-7E-16
41
1
10
38.0839210335546
20
22.4608270737129
30
-7E-16
41
1
10
37.9902335278204
20
22.4820008099736
30
-7E-16
41
1
10
37.8085549268978
20
22.5295369522457
30
-7E-16
41
1
10
37.7199407174243
20
22.5560624069064
30
-8E-16
41
1
10
37.5508097023366
20
22.6135364188089
30
-8E-16
41
1
10
37.4697128223532
20
22.6446821098375
30
-8E-16
41
1
10
37.3937535456451
20
22.677595534358
30
-8E-16
0
SPLINE
5
189
100
AcDbEntity
8
1
62
256
6
ByLayer
370
-1
48
1
60
0
100
AcDbSpline
70
4
71
3
72
10
73
6
40
0
40
0
40
0
40
0
40
0.126560526058618
40
0.126560526058618
40
1
40
1
40
1
40
1
41
1
10
41.9831964451678
20
21.913411211574
30
-5E-16
41
1
10
42.1167079850247
20
21.8950595536882
30
-5E-16
41
1
10
42.2502195027708
20
21.8767077627632
30
-5E-16
41
1
10
43.3051416010217
20
21.7317026485457
30
-4E-16
41
1
10
44.2265501439595
20
21.6050370659212
30
-4E-16
41
1
10
45.1479607097484
20
21.4783836540864
30
-3E-16
0
SPLINE
5
18A
100
AcDbEntity
8
1
62
256
6
ByLayer
370
-1
48
1
60
0
100
AcDbSpline
70
4
71
3
72
16
73
12
40
0
40
0
40
0
40
0
40
0.309630516047125
40
0.309630516047125
40
0.464445774070688
40
0.464445774070688
40
0.619261032094251
40
0.619261032094251
40
0.92889154814138
40
0.92889154814138
40
1
40
1
40
1
40
1
41
1
10
37.3913320861471
20
22.6793798668746
30
-8E-16
41
1
10
36.7843755174431
20
22.7639065029469
30
-8E-16
41
1
10
36.1774339897309
20
22.8489378130548
30
-8E-16
41
1
10
35.2670131174738
20
22.9756489665122
30
-9E-16
41
1
10
34.9380299015186
20
23.0020972360294
30
-9E-16
41
1
10
34.5036231162558
20
22.8909262253848
30
-9E-16
41
1
10
34.4454420230438
20
22.7696846115272
30
-1E-15
41
1
10
34.2048129158631
20
22.4512864038836
30
-1E-15
41
1
10
34.0692031498896
20
22.2327583639811
30
-1E-15
41
1
10
33.9319910856212
20
21.9591131143665
30
-1E-15
41
1
10
33.9124959809235
20
21.906848679311
30
-1E-15
41
1
10
33.8978663003843
20
21.8536733169723
30
-1E-15
0
SPLINE
5
18B
100
AcDbEntity
8
1
62
256
6
ByLayer
370
-1
48
1
60
0
100
AcDbSpline
70
4
71
3
72
14
73
10
40
0
40
0
40
0
40
0
40
0.118227158110102
40
0.118227158110102
40
0.338670368582577
40
0.338670368582577
40
0.559113579055051
40
0.559113579055051
40
1
40
1
40
1
40
1
41
1
10
49.6516876165299
20
20.5661177142233
30
0
41
1
10
49.6608729625413
20
20.6275601994319
30
0
41
1
10
49.6541289299614
20
20.6908601485413
30
0
41
1
10
49.561254471855
20
20.8809486778907
30
0
41
1
10
49.2990933241048
20
21.0149597263758
30
0
41
1
10
48.6922558101026
20
21.1341682519
30
-1E-16
41
1
10
48.3819992542797
20
21.1643431691014
30
-1E-16
41
1
10
47.4607132612215
20
21.2910454130229
30
-2E-16
41
1
10
46.8465488928184
20
21.3759026588449
30
-2E-16
41
1
10
46.2323631508501
20
21.4603710447863
30
-2E-16
0
SPLINE
5
18C
100
AcDbEntity
8
1
62
256
6
ByLayer
370
-1
48
1
60
0
100
AcDbSpline
70
4
71
3
72
14
73
10
40
0
40
0
40
0
40
0
40
0.146222405854827
40
0.292444811709654
40
0.438667217564481
40
0.584889623419308
40
0.731112029274135
40
0.877334435128962
40
1
40
1
40
1
40
1
41
1
10
40.9246511105684
20
16.8227103431585
30
-6E-16
41
1
10
41.2872107098642
20
16.7754600752946
30
-5E-16
41
1
10
42.0120569203707
20
16.6270551613856
30
-5E-16
41
1
10
42.9728126067291
20
16.2434832887671
30
-4E-16
41
1
10
43.5607463062559
20
15.8154997588857
30
-4E-16
41
1
10
43.7967233750869
20
15.3414472745517
30
-4E-16
41
1
10
43.556259267349
20
14.9294865766661
30
-4E-16
41
1
10
42.9965260468285
20
14.6699401733839
30
-4E-16
41
1
10
42.4243938887263
20
14.5815438237182
30
-5E-16
41
1
10
42.1421984473047
20
14.5631972531961
30
-5E-16
0
SPLINE
5
18D
100
AcDbEntity
8
1
62
256
6
ByLayer
370
-1
48
1
60
0
100
AcDbSpline
70
4
71
3
72
14
73
10
40
0
40
0
40
0
40
0
40
0.0993834839633577
40
0.249486236636131
40
0.399588989308905
40
0.549691741981679
40
0.699794494654453
40
0.849897247327226
40
1
40
1
40
1
40
1
41
1
10
39.5108359302077
20
14.9434612634585
30
-6E-16
41
1
10
39.2964496878465
20
15.0210091432653
30
-7E-16
41
1
10
38.7990709057345
20
15.2376761321405
30
-7E-16
41
1
10
38.2773513214329
20
15.6174557132094
30
-7E-16
41
1
10
38.0413742526018
20
16.0915081975433
30
-7E-16
41
1
10
38.2818383603397
20
16.503468895429
30
-7E-16
41
1
10
38.8733285153268
20
16.7777450261435
30
-7E-16
41
1
10
39.8366993245954
20
16.9105567685687
30
-6E-16
41
1
10
40.5620915112725
20
16.8699606110223
30
-6E-16
41
1
10
40.9246511105684
20
16.8227103431584
30
-6E-16
0
SPLINE
5
18E
100
AcDbEntity
8
1
62
256
6
ByLayer
370
-1
48
1
60
0
100
AcDbSpline
70
4
71
2
72
21
73
18
40
0
40
0
40
0
40
0.125
40
0.25
40
0.25
40
0.375
40
0.375
40
0.5
40
0.5
40
0.625
40
0.625
40
0.6875
40
0.6875
40
0.75
40
0.75
40
0.875
40
0.875
40
1
40
1
40
1
41
1
10
35.4217212573565
20
16.432846462742
30
-9E-16
41
1
10
35.4907381467767
20
16.0398498437828
30
-9E-16
41
1
10
36.572921029654
20
15.2204395233717
30
-8E-16
41
1
10
37.4142055674185
20
14.9260759235804
30
-8E-16
41
1
10
38.1976531639837
20
14.6519493416446
30
-7E-16
41
1
10
39.2702439880933
20
14.4788233095365
30
-7E-16
41
1
10
39.5951644306448
20
14.4263781592469
30
-6E-16
41
1
10
41.2195408481766
20
14.2283128595658
30
-5E-16
41
1
10
42.281267697703
20
14.0988531823867
30
-5E-16
41
1
10
43.1638711519024
20
13.9711472402962
30
-4E-16
41
1
10
43.8905788182291
20
13.8659982215482
30
-4E-16
41
1
10
44.1366536383802
20
13.840648813349
30
-4E-16
41
1
10
44.685439512244
20
13.7841156129101
30
-3E-16
41
1
10
45.0758706409498
20
13.809957226058
30
-3E-16
41
1
10
45.8603781583011
20
13.8618817225555
30
-3E-16
41
1
10
46.1622185211527
20
14.2698960922898
30
-2E-16
41
1
10
46.4573111425967
20
14.6687891654833
30
-2E-16
41
1
10
46.4063845421169
20
15.0014128224672
30
-2E-16
0
SPLINE
5
18F
100
AcDbEntity
8
1
62
256
6
ByLayer
370
-1
48
1
60
0
100
AcDbSpline
70
4
71
3
72
14
73
10
40
0
40
0
40
0
40
0
40
0.427915383507548
40
0.427915383507548
40
0.677126833193997
40
0.677126833193997
40
0.926339366110845
40
0.926339366110845
40
1
40
1
40
1
40
1
41
1
10
46.1896271659512
20
21.4650762347294
30
-2E-16
41
1
10
46.061944243008
20
21.44555899039
30
-2E-16
41
1
10
45.9198298423921
20
21.434852475497
30
-2E-16
41
1
10
45.6848697940385
20
21.4328526570771
30
-3E-16
41
1
10
45.5951979257227
20
21.4353114013296
30
-3E-16
41
1
10
45.413881441784
20
21.4465236744433
30
-3E-16
41
1
10
45.3216149410124
20
21.4553156894408
30
-3E-16
41
1
10
45.2024069619176
20
21.4706056162401
30
-3E-16
41
1
10
45.1751643345758
20
21.4743648593326
30
-3E-16
41
1
10
45.1479607097486
20
21.4783836540864
30
-3E-16
0
SPLINE
5
190
100
AcDbEntity
8
1
62
256
6
ByLayer
370
-1
48
1
60
0
100
AcDbSpline
70
4
71
3
72
14
73
10
40
0
40
0
40
0
40
0
40
0.500000000000001
40
0.500000000000001
40
0.750000000000001
40
0.750000000000001
40
0.875
40
0.875
40
1
40
1
40
1
40
1
41
1
10
46.19365523404
20
21.4657142588671
30
-2E-16
41
1
10
46.1092666235412
20
20.9653846091008
30
-2E-16
41
1
10
46.0129168196367
20
20.4661498614451
30
-2E-16
41
1
10
45.8159944974167
20
19.729284533649
30
-3E-16
41
1
10
45.7428008151546
20
19.4858009421741
30
-3E-16
41
1
10
45.5950122372558
20
19.131355619264
30
-3E-16
41
1
10
45.5400150485382
20
19.0137723427747
30
-3E-16
41
1
10
45.3901578767654
20
18.7945398980776
30
-3E-16
41
1
10
45.2694571267503
20
18.6602181341594
30
-3E-16
41
1
10
45.1235785598411
20
18.7027270713245
30
-3E-16
0
SPLINE
5
191
100
AcDbEntity
8
1
62
256
6
ByLayer
370
-1
48
1
60
0
100
AcDbSpline
70
4
71
3
72
16
73
12
40
0
40
0
40
0
40
0
40
0.0624450082613968
40
0.0624450082613968
40
0.283207995985754
40
0.283207995985754
40
0.506745688833503
40
0.506745688833503
40
0.74460728473692
40
0.74460728473692
40
1
40
1
40
1
40
1
41
1
10
40.0300419253993
20
14.9174818716992
30
-6E-16
41
1
10
40.0372542910209
20
14.9148821071859
30
-6E-16
41
1
10
40.0446821660127
20
14.912538728988
30
-6E-16
41
1
10
40.0789354362232
20
14.9031933953445
30
-6E-16
41
1
10
40.1081283531223
20
14.8992433927481
30
-6E-16
41
1
10
40.1671556651281
20
14.8984242113386
30
-6E-16
41
1
10
40.1977407025726
20
14.901619758822
30
-6E-16
41
1
10
40.2580898012169
20
14.9147907105695
30
-6E-16
41
1
10
40.2884355502807
20
14.9253329739665
30
-6E-16
41
1
10
40.3457806486152
20
14.9530275887012
30
-6E-16
41
1
10
40.3730746804053
20
14.9709260297723
30
-6E-16
41
1
10
40.3964916796206
20
14.9910719304421
30
-6E-16
0
SPLINE
5
192
100
AcDbEntity
8
1
62
256
6
ByLayer
370
-1
48
1
60
0
100
AcDbSpline
70
4
71
3
72
14
73
10
40
0
40
0
40
0
40
0
40
0.282169922576109
40
0.282169922576109
40
0.566902245317966
40
0.566902245317966
40
0.824523972080252
40
0.824523972080252
40
1
40
1
40
1
40
1
41
1
10
41.3627827672134
20
14.8651408757634
30
-5E-16
41
1
10
41.3836774849963
20
14.83678909384
30
-5E-16
41
1
10
41.4096083093975
20
14.8098784869339
30
-5E-16
41
1
10
41.4683324016853
20
14.763308528309
30
-5E-16
41
1
10
41.5021246350603
20
14.7430221094941
30
-5E-16
41
1
10
41.5687006660457
20
14.7147433296449
30
-5E-16
41
1
10
41.6022875114946
20
14.7053735971289
30
-5E-16
41
1
10
41.6562948564252
20
14.6984932598182
30
-5E-16
41
1
10
41.6779546584388
20
14.698074156513
30
-5E-16
41
1
10
41.6981850533093
20
14.7000825536779
30
-5E-16
0
SPLINE
5
193
100
AcDbEntity
8
1
62
256
6
ByLayer
370
-1
48
1
60
0
100
AcDbSpline
70
4
71
3
72
12
73
8
40
0
40
0
40
0
40
0
40
0.495779676780363
40
0.495779676780363
40
0.900233025448792
40
0.900233025448792
40
1
40
1
40
1
40
1
41
1
10
41.3627827672134
20
14.8651408757634
30
-5E-16
41
1
10
41.3184185407109
20
14.9253381413149
30
-5E-16
41
1
10
41.2641523964237
20
14.9825310304773
30
-5E-16
41
1
10
41.1507266157577
20
15.0693947111684
30
-5E-16
41
1
10
41.0929357869545
20
15.1029456245165
30
-5E-16
41
1
10
41.0162424600614
20
15.1318779059215
30
-6E-16
41
1
10
41.000631292295
20
15.1370491934411
30
-6E-16
41
1
10
40.98483905272
20
15.141542637705
30
-6E-16
0
SPLINE
5
194
100
AcDbEntity
8
1
62
256
6
ByLayer
370
-1
48
1
60
0
100
AcDbSpline
70
4
71
3
72
14
73
10
40
0
40
0
40
0
40
0
40
0.283961457856579
40
0.283961457856579
40
0.57028493464662
40
0.57028493464662
40
0.829450869060459
40
0.829450869060459
40
1
40
1
40
1
40
1
41
1
10
42.3282132632081
20
15.1766333573467
30
-5E-16
41
1
10
42.3578503834758
20
15.160049760604
30
-5E-16
41
1
10
42.3870929231442
20
15.1466373076136
30
-5E-16
41
1
10
42.4396273650994
20
15.1286874228765
30
-5E-16
41
1
10
42.4636469100795
20
15.1239798920251
30
-5E-16
41
1
10
42.4992394367249
20
15.1247431619397
30
-5E-16
41
1
10
42.5122664100578
20
15.1293354389231
30
-5E-16
41
1
10
42.5245225474535
20
15.1435319163769
30
-5E-16
41
1
10
42.5270677618194
20
15.1509789468794
30
-5E-16
41
1
10
42.5271128234881
20
15.1598768488757
30
-5E-16
0
SPLINE
5
195
100
AcDbEntity
8
1
62
256
6
ByLayer
370
-1
48
1
60
0
100
AcDbSpline
70
4
71
3
72
18
73
14
40
0
40
0
40
0
40
0
40
0.212491695755304
40
0.212491695755304
40
0.386618276853807
40
0.386618276853807
40
0.562426360907937
40
0.562426360907937
40
0.715388416645934
40
0.715388416645934
40
0.918249208689861
40
0.918249208689861
40
1
40
1
40
1
40
1
41
1
10
39.911855720975
20
15.1626247295744
30
-6E-16
41
1
10
39.9353114320095
20
15.2206235286728
30
-6E-16
41
1
10
39.9484083819056
20
15.2801121455037
30
-6E-16
41
1
10
39.9479592576746
20
15.3806625488768
30
-6E-16
41
1
10
39.9386047049764
20
15.424083098318
30
-6E-16
41
1
10
39.8995905344637
20
15.4971741292837
30
-6E-16
41
1
10
39.8689373492942
20
15.5275110425983
30
-6E-16
41
1
10
39.7962546280089
20
15.5656087334236
30
-6E-16
41
1
10
39.7554468309833
20
15.5763986266699
30
-6E-16
41
1
10
39.6527920007914
20
15.5868618134548
30
-6E-16
41
1
10
39.5868475704197
20
15.5823043220092
30
-6E-16
41
1
10
39.49149562148
20
15.5662664224716
30
-6E-16
41
1
10
39.4633791843067
20
15.5604628610924
30
-6E-16
41
1
10
39.4350190656352
20
15.5536864020955
30
-6E-16
0
SPLINE
5
196
100
AcDbEntity
8
1
62
256
6
ByLayer
370
-1
48
1
60
0
100
AcDbSpline
70
4
71
3
72
16
73
12
40
0
40
0
40
0
40
0
40
0.0630415689509246
40
0.0630415689509246
40
0.285914332024984
40
0.285914332024984
40
0.511588305408907
40
0.511588305408907
40
0.751723061839379
40
0.751723061839379
40
1
40
1
40
1
40
1
41
1
10
39.2068616229478
20
15.5925857301339
30
-7E-16
41
1
10
39.206844903186
20
15.5892842367262
30
-7E-16
41
1
10
39.2072153029016
20
15.5860907913686
30
-7E-16
41
1
10
39.2106173917206
20
15.5722688126422
30
-7E-16
41
1
10
39.2181769664465
20
15.5629721322953
30
-7E-16
41
1
10
39.2416605263037
20
15.5486554309909
30
-7E-16
41
1
10
39.2579647420983
20
15.5435020200275
30
-7E-16
41
1
10
39.2977360487729
20
15.5377239872144
30
-7E-16
41
1
10
39.322067797899
20
15.5373271993373
30
-7E-16
41
1
10
39.3752835738617
20
15.5416025727651
30
-7E-16
41
1
10
39.4048768523714
20
15.5464841236204
30
-6E-16
41
1
10
39.4350190656351
20
15.5536864020955
30
-6E-16
0
SPLINE
5
197
100
AcDbEntity
8
1
62
256
6
ByLayer
370
-1
48
1
60
0
100
AcDbSpline
70
4
71
3
72
14
73
10
40
0
40
0
40
0
40
0
40
0.15364162195319
40
0.15364162195319
40
0.449502034535961
40
0.449502034535961
40
0.84187697576834
40
0.84187697576834
40
1
40
1
40
1
40
1
41
1
10
41.9320540571461
20
15.7317567700006
30
-5E-16
41
1
10
41.9462033152996
20
15.7202784973295
30
-5E-16
41
1
10
41.9618011402774
20
15.707359390173
30
-5E-16
41
1
10
42.0110034846783
20
15.6657963199059
30
-5E-16
41
1
10
42.0484855821886
20
15.6332714502839
30
-5E-16
41
1
10
42.1405533811266
20
15.5536171435147
30
-5E-16
41
1
10
42.198217341722
20
15.504057955405
30
-5E-16
41
1
10
42.2807309113969
20
15.4361911399377
30
-5E-16
41
1
10
42.3049611515989
20
15.4165966161997
30
-5E-16
41
1
10
42.3293307514272
20
15.3972931986514
30
-5E-16
0
SPLINE
5
198
100
AcDbEntity
8
1
62
256
6
ByLayer
370
-1
48
1
60
0
100
AcDbSpline
70
4
71
3
72
18
73
14
40
0
40
0
40
0
40
0
40
0.21249159210241
40
0.21249159210241
40
0.386618191488465
40
0.386618191488465
40
0.562426295050807
40
0.562426295050807
40
0.715388354469451
40
0.715388354469451
40
0.918249128147156
40
0.918249128147156
40
1
40
1
40
1
40
1
41
1
10
42.3282132632081
20
15.1766333573467
30
-5E-16
41
1
10
42.2654732310571
20
15.2117398516153
30
-5E-16
41
1
10
42.20303211655
20
15.2404326048911
30
-5E-16
41
1
10
42.0972921177066
20
15.2719030827585
30
-5E-16
41
1
10
42.0514395433988
20
15.2785348426241
30
-5E-16
41
1
10
41.9705569635864
20
15.2705078081837
30
-5E-16
41
1
10
41.9345367992634
20
15.255178275706
30
-5E-16
41
1
10
41.8829945668656
20
15.2073167865811
30
-5E-16
41
1
10
41.8647451565848
20
15.17687536815
30
-5E-16
41
1
10
41.8374479138346
20
15.0955270024048
30
-5E-16
41
1
10
41.8326771009188
20
15.0401285321015
30
-5E-16
41
1
10
41.8394765889201
20
14.958813622289
30
-5E-16
41
1
10
41.8430221343946
20
14.9346903382603
30
-5E-16
41
1
10
41.8480473211013
20
14.9102922250169
30
-5E-16
0
SPLINE
5
199
100
AcDbEntity
8
1
62
256
6
ByLayer
370
-1
48
1
60
0
100
AcDbSpline
70
4
71
3
72
16
73
12
40
0
40
0
40
0
40
0
40
0.0630415689509208
40
0.0630415689509208
40
0.285914332024959
40
0.285914332024959
40
0.511588305408895
40
0.511588305408895
40
0.751723061839358
40
0.751723061839358
40
1
40
1
40
1
40
1
41
1
10
42.5271128234881
20
15.1598768488757
30
-5E-16
41
1
10
42.5271295432499
20
15.1631783422834
30
-5E-16
41
1
10
42.5268078349977
20
15.1666900087557
30
-5E-16
41
1
10
42.5238434115799
20
15.1833723322345
30
-5E-16
41
1
10
42.5172417497459
20
15.1989294140333
30
-5E-16
41
1
10
42.496756593141
20
15.2328420600566
30
-5E-16
41
1
10
42.4825427458551
20
15.251656990933
30
-5E-16
41
1
10
42.4479487425456
20
15.2912710831416
30
-5E-16
41
1
10
42.4268220874902
20
15.3126146353271
30
-5E-16
41
1
10
42.3807675546868
20
15.3551412805951
30
-5E-16
41
1
10
42.3552316894199
20
15.3767767919608
30
-5E-16
41
1
10
42.3293307514272
20
15.3972931986514
30
-5E-16
0
SPLINE
5
19A
100
AcDbEntity
8
1
62
256
6
ByLayer
370
-1
48
1
60
0
100
AcDbSpline
70
4
71
3
72
16
73
12
40
0
40
0
40
0
40
0
40
0.269183418726185
40
0.269183418726185
40
0.489766232616132
40
0.489766232616132
40
0.712479168636057
40
0.712479168636057
40
0.906250835939786
40
0.906250835939786
40
1
40
1
40
1
40
1
41
1
10
39.4361365538543
20
15.7743462434003
30
-6E-16
41
1
10
39.509138206925
20
15.8063041628714
30
-6E-16
41
1
10
39.5812706933852
20
15.8409489839859
30
-6E-16
41
1
10
39.701158609518
20
15.9019416545892
30
-6E-16
41
1
10
39.7522013161689
20
15.9292297973921
30
-6E-16
41
1
10
39.8390856880398
20
15.9764813041587
30
-6E-16
41
1
10
39.8758784292924
20
15.9968599823084
30
-6E-16
41
1
10
39.9242635492964
20
16.0240882894576
30
-6E-16
41
1
10
39.939187261344
20
16.0327947398916
30
-6E-16
41
1
10
39.9498546998964
20
16.040555673855
30
-6E-16
41
1
10
39.9515920662128
20
16.0423300718186
30
-6E-16
41
1
10
39.9517215039466
20
16.0434761735202
30
-6E-16
0
SPLINE
5
19B
100
AcDbEntity
8
1
62
256
6
ByLayer
370
-1
48
1
60
0
100
AcDbSpline
70
4
71
3
72
14
73
10
40
0
40
0
40
0
40
0
40
0.283961457856585
40
0.283961457856585
40
0.570284934646626
40
0.570284934646626
40
0.829450869060459
40
0.829450869060459
40
1
40
1
40
1
40
1
41
1
10
39.4361365538543
20
15.7743462434003
30
-6E-16
41
1
10
39.401652051733
20
15.7592499696114
30
-6E-16
41
1
10
39.3677941303566
20
15.7424987797572
30
-7E-16
41
1
10
39.3071686437243
20
15.7075699651101
30
-7E-16
41
1
10
39.2795605382427
20
15.688824602107
30
-7E-16
41
1
10
39.238727636917
20
15.6538130727356
30
-7E-16
41
1
10
39.2238224360979
20
15.6369457150202
30
-7E-16
41
1
10
39.2098109280641
20
15.6112770828593
30
-7E-16
41
1
10
39.2069066846165
20
15.6014836321303
30
-7E-16
41
1
10
39.2068616229478
20
15.5925857301339
30
-7E-16
0
SPLINE
5
19C
100
AcDbEntity
8
1
62
256
6
ByLayer
370
-1
48
1
60
0
100
AcDbSpline
70
4
71
3
72
12
73
8
40
0
40
0
40
0
40
0
40
0.422118633920702
40
0.422118633920702
40
0.843213619146832
40
0.843213619146832
40
1
40
1
40
1
40
1
41
1
10
40.8200212354921
20
15.1630223779405
30
-6E-16
41
1
10
40.7521798331088
20
15.1617265467512
30
-6E-16
41
1
10
40.6844705611016
20
15.14775093316
30
-6E-16
41
1
10
40.5607674314402
20
15.102507026049
30
-6E-16
41
1
10
40.5029959370372
20
15.0709356389388
30
-6E-16
41
1
10
40.4324950430015
20
15.0206729532125
30
-6E-16
41
1
10
40.414053447023
20
15.0061805111113
30
-6E-16
41
1
10
40.3964916796206
20
14.9910719304421
30
-6E-16
0
SPLINE
5
19D
100
AcDbEntity
8
1
62
256
6
ByLayer
370
-1
48
1
60
0
100
AcDbSpline
70
4
71
3
72
14
73
10
40
0
40
0
40
0
40
0
40
0.283961749036719
40
0.283961749036719
40
0.570285189259034
40
0.570285189259034
40
0.829451094335672
40
0.829451094335672
40
1
40
1
40
1
40
1
41
1
10
39.911855720975
20
15.1626247295744
30
-6E-16
41
1
10
39.900775712312
20
15.1352272571417
30
-6E-16
41
1
10
39.8951977963334
20
15.1068857481847
30
-6E-16
41
1
10
39.8972996332051
20
15.0523503717565
30
-6E-16
41
1
10
39.905185527663
20
15.0253344625303
30
-6E-16
41
1
10
39.9332814880717
20
14.9796877967183
30
-6E-16
41
1
10
39.9527315833365
20
14.9598325991166
30
-6E-16
41
1
10
39.9925398438463
20
14.9334650359459
30
-6E-16
41
1
10
40.0106038656004
20
14.9244885018012
30
-6E-16
41
1
10
40.0300419253993
20
14.9174818716992
30
-6E-16
0
SPLINE
5
19E
100
AcDbEntity
8
1
62
256
6
ByLayer
370
-1
48
1
60
0
100
AcDbSpline
70
4
71
3
72
16
73
12
40
0
40
0
40
0
40
0
40
0.0569446172824937
40
0.0569446172824937
40
0.279906644834074
40
0.279906644834074
40
0.505321967306675
40
0.505321967306675
40
0.744915047128819
40
0.744915047128819
40
1
40
1
40
1
40
1
41
1
10
41.6981850533093
20
14.7000825536779
30
-5E-16
41
1
10
41.7047195272818
20
14.7007312715643
30
-5E-16
41
1
10
41.7111316672194
20
14.7016312080942
30
-5E-16
41
1
10
41.7416951504059
20
14.7072304632225
30
-5E-16
41
1
10
41.7639490953589
20
14.7155760277624
30
-5E-16
41
1
10
41.8012380120277
20
14.7386376145564
30
-5E-16
41
1
10
41.8166831984371
20
14.7537028152401
30
-5E-16
41
1
10
41.8400719745922
20
14.7893508382459
30
-5E-16
41
1
10
41.8478040543803
20
14.8106529483891
30
-5E-16
41
1
10
41.8547679412227
20
14.8574450417922
30
-5E-16
41
1
10
41.8535318871407
20
14.883663749075
30
-5E-16
41
1
10
41.8480473211013
20
14.9102922250169
30
-5E-16
0
LINE
5
48
100
AcDbEntity
8
SK4
62
256
6
ByLayer
370
-1
48
0.05
60
0
100
AcDbLine
10
60
20
0
30
0
11
-10
21
0
31
0
39
0
210
0
220
0
230
1
0
LINE
5
4A
100
AcDbEntity
8
81
62
256
6
ByLayer
370
-1
48
1
60
0
100
AcDbLine
10
50
20
49.92
30
0
11
55
21
49.92
31
0
39
0
210
0
220
0
230
1
0
LINE
5
4B
100
AcDbEntity
8
80
62
256
6
ByLayer
370
-1
48
1
60
0
100
AcDbLine
10
0
20
0
30
0
11
-5
21
0
31
0
39
0
210
0
220
0
230
1
0
LINE
5
4C
100
AcDbEntity
8
1
62
256
6
ByLayer
370
-1
48
1
60
0
100
AcDbLine
10
39.943041
20
15.271918
30
0
11
40.062849
21
16.054925
31
0
39
0
210
0
220
0
230
1
0
LINE
5
4E
100
AcDbEntity
8
1
62
256
6
ByLayer
370
-1
48
1
60
0
100
AcDbLine
10
41.937846
20
15.726085
30
0
11
41.839664
21
15.084417
31
0
39
0
210
0
220
0
230
1
0
LINE
5
4F
100
AcDbEntity
8
1
62
256
6
ByLayer
370
-1
48
1
60
0
100
AcDbLine
10
39.95112
20
16.039318
30
0
11
39.951636
21
16.042691
31
0
39
0
210
0
220
0
230
1
0
LINE
5
50
100
AcDbEntity
8
1
62
256
6
ByLayer
370
-1
48
1
60
0
100
AcDbLine
10
43.500186
20
15.23015
30
0
11
43.574428
21
15.715355
31
0
39
0
210
0
220
0
230
1
0
LINE
5
51
100
AcDbEntity
8
1
62
256
6
ByLayer
370
-1
48
1
60
0
100
AcDbLine
10
38.385312
20
16.512593
30
0
11
38.310586
21
16.024218
31
0
39
0
210
0
220
0
230
1
0
LINE
5
52
100
AcDbEntity
8
1
62
256
6
ByLayer
370
-1
48
1
60
0
100
AcDbLine
10
23.864741
20
36.900137
30
0
11
23.51361
21
36.169314
31
0
39
0
210
0
220
0
230
1
0
LINE
5
53
100
AcDbEntity
8
1
62
256
6
ByLayer
370
-1
48
1
60
0
100
AcDbLine
10
23.51361
20
-36.169314
30
0
11
27.97095
21
-45.446534
31
0
39
0
210
0
220
0
230
1
0
LINE
5
54
100
AcDbEntity
8
1
62
256
6
ByLayer
370
-1
48
1
60
0
100
AcDbLine
10
14.5
20
30.5
30
0
11
1
21
30.5
31
0
39
0
210
0
220
0
230
1
0
LINE
5
55
100
AcDbEntity
8
1
62
256
6
ByLayer
370
-1
48
1
60
0
100
AcDbLine
10
1
20
-30.5
30
0
11
14.5
21
-30.5
31
0
39
0
210
0
220
0
230
1
0
LINE
5
56
100
AcDbEntity
8
1
62
256
6
ByLayer
370
-1
48
1
60
0
100
AcDbLine
10
31.310528
20
-48.143041
30
0
11
33.551683
21
-48.681095
31
0
39
0
210
0
220
0
230
1
0
LINE
5
57
100
AcDbEntity
8
1
62
256
6
ByLayer
370
-1
48
1
60
0
100
AcDbLine
10
33.682588
20
-48.694708
30
0
11
48.456125
21
-48.275492
31
0
39
0
210
0
220
0
230
1
0
LINE
5
58
100
AcDbEntity
8
1
62
256
6
ByLayer
370
-1
48
1
60
0
100
AcDbLine
10
42.456145
20
46.50656
30
0
11
42.299372
21
46.604811
31
0
39
0
210
0
220
0
230
1
0
LINE
5
59
100
AcDbEntity
8
1
62
256
6
ByLayer
370
-1
48
1
60
0
100
AcDbLine
10
42.156478
20
44.763185
30
0
11
42.327472
21
44.656021
31
0
39
0
210
0
220
0
230
1
0
LINE
5
5A
100
AcDbEntity
8
1
62
256
6
ByLayer
370
-1
48
1
60
0
100
AcDbLine
10
39.803817
20
43.904166
30
0
11
39.632823
21
44.01133
31
0
39
0
210
0
220
0
230
1
0
LINE
5
5B
100
AcDbEntity
8
1
62
256
6
ByLayer
370
-1
48
1
60
0
100
AcDbLine
10
40.531804
20
45.684665
30
0
11
40.705085
21
45.576067
31
0
39
0
210
0
220
0
230
1
0
LINE
5
5C
100
AcDbEntity
8
4
62
256
6
ByLayer
370
-1
48
0.05
60
0
100
AcDbLine
10
0
20
0
30
0
11
50
21
0
31
0
39
0
210
0
220
0
230
1
0
LINE
5
5E
100
AcDbEntity
8
1
62
256
6
ByLayer
370
-1
48
1
60
0
100
AcDbLine
10
49.233434
20
-47.475814
30
0
11
49.233434
21
-47.006258
31
0
39
0
210
0
220
0
230
1
0
LINE
5
5F
100
AcDbEntity
8
1
62
256
6
ByLayer
370
-1
48
1
60
0
100
AcDbLine
10
48.524556
20
7.457943
30
0
11
48.524556
21
3.496295
31
0
39
0
210
0
220
0
230
1
0
LINE
5
60
100
AcDbEntity
8
1
62
256
6
ByLayer
370
-1
48
1
60
0
100
AcDbLine
10
33.267887
20
-35.237703
30
0
11
33.27063
21
-36.330078
31
0
39
0
210
0
220
0
230
1
0
LINE
5
61
100
AcDbEntity
8
1
62
256
6
ByLayer
370
-1
48
1
60
0
100
AcDbLine
10
32.114634
20
17.341546
30
0
11
30.114769
21
16.049832
31
0
39
0
210
0
220
0
230
1
0
LINE
5
62
100
AcDbEntity
8
1
62
256
6
ByLayer
370
-1
48
1
60
0
100
AcDbLine
10
32.114634
20
44.928893
30
0
11
32.95457
21
48.385949
31
0
39
0
210
0
220
0
230
1
0
LINE
5
63
100
AcDbEntity
8
1
62
256
6
ByLayer
370
-1
48
1
60
0
100
AcDbLine
10
49.233432
20
-5.567475
30
0
11
49.233432
21
-36.144573
31
0
39
0
210
0
220
0
230
1
0
LINE
5
64
100
AcDbEntity
8
1
62
256
6
ByLayer
370
-1
48
1
60
0
100
AcDbLine
10
1.1
20
-7.2275
30
0
11
1
21
-7.3275
31
0
39
0
210
0
220
0
230
1
0
LINE
5
65
100
AcDbEntity
8
1
62
256
6
ByLayer
370
-1
48
1
60
0
100
AcDbLine
10
23.619478
20
-29.753945
30
0
11
24.554483
21
-29.832869
31
0
39
0
210
0
220
0
230
1
0
LINE
5
66
100
AcDbEntity
8
1
62
256
6
ByLayer
370
-1
48
1
60
0
100
AcDbLine
10
0
20
8.3275
30
0
11
0
21
29.5
31
0
39
0
210
0
220
0
230
1
0
LINE
5
67
100
AcDbEntity
8
1
62
256
6
ByLayer
370
-1
48
1
60
0
100
AcDbLine
10
48.378109
20
4.019682
30
0
11
48.378109
21
7.377464
31
0
39
0
210
0
220
0
230
1
0
LINE
5
68
100
AcDbEntity
8
1
62
256
6
ByLayer
370
-1
48
1
60
0
100
AcDbLine
10
47.82833
20
7.526646
30
0
11
47.82833
21
4.884399
31
0
39
0
210
0
220
0
230
1
0
LINE
5
69
100
AcDbEntity
8
1
62
256
6
ByLayer
370
-1
48
1
60
0
100
AcDbLine
10
33.449708
20
19.259079
30
0
11
33.140009
21
18.769501
31
0
39
0
210
0
220
0
230
1
0
LINE
5
6A
100
AcDbEntity
8
1
62
256
6
ByLayer
370
-1
48
1
60
0
100
AcDbLine
10
44.945496
20
-28.808832
30
0
11
46.352864
21
-22.673262
31
0
39
0
210
0
220
0
230
1
0
LINE
5
6B
100
AcDbEntity
8
1
62
256
6
ByLayer
370
-1
48
1
60
0
100
AcDbLine
10
49.233432
20
43.118672
30
0
11
49.233432
21
21.012707
31
0
39
0
210
0
220
0
230
1
0
LINE
5
6C
100
AcDbEntity
8
1
62
256
6
ByLayer
370
-1
48
1
60
0
100
AcDbLine
10
31.310528
20
-5.334419
30
0
11
31.310528
21
-38.142466
31
0
39
0
210
0
220
0
230
1
0
LINE
5
6D
100
AcDbEntity
8
1
62
256
6
ByLayer
370
-1
48
1
60
0
100
AcDbLine
10
33.262946
20
20.634884
30
0
11
33.563186
21
20.7383
31
0
39
0
210
0
220
0
230
1
0
LINE
5
6E
100
AcDbEntity
8
1
62
256
6
ByLayer
370
-1
48
1
60
0
100
AcDbLine
10
49.233432
20
-5.56726
30
0
11
49.233432
21
9.735256
31
0
39
0
210
0
220
0
230
1
0
LINE
5
6F
100
AcDbEntity
8
1
62
256
6
ByLayer
370
-1
48
1
60
0
100
AcDbLine
10
8.3
20
-6.4275
30
0
11
7.5
21
-7.2275
31
0
39
0
210
0
220
0
230
1
0
LINE
5
70
100
AcDbEntity
8
1
62
256
6
ByLayer
370
-1
48
1
60
0
100
AcDbLine
10
47.594147
20
10.214392
30
0
11
47.594147
21
12.898213
31
0
39
0
210
0
220
0
230
1
0
LINE
5
71
100
AcDbEntity
8
1
62
256
6
ByLayer
370
-1
48
1
60
0
100
AcDbLine
10
49.233432
20
-47.006186
30
0
11
49.233432
21
-41.848735
31
0
39
0
210
0
220
0
230
1
0
LINE
5
72
100
AcDbEntity
8
1
62
256
6
ByLayer
370
-1
48
1
60
0
100
AcDbLine
10
49.224686
20
9.723
30
0
11
49.224686
21
-0.363343
31
0
39
0
210
0
220
0
230
1
0
LINE
5
73
100
AcDbEntity
8
1
62
256
6
ByLayer
370
-1
48
1
60
0
100
AcDbLine
10
48.551815
20
7.571318
30
0
11
48.551815
21
3.56938
31
0
39
0
210
0
220
0
230
1
0
LINE
5
74
100
AcDbEntity
8
1
62
256
6
ByLayer
370
-1
48
1
60
0
100
AcDbLine
10
32.114634
20
44.928893
30
0
11
31.582327
21
43.881911
31
0
39
0
210
0
220
0
230
1
0
LINE
5
75
100
AcDbEntity
8
1
62
256
6
ByLayer
370
-1
48
1
60
0
100
AcDbLine
10
23.619478
20
12.654608
30
0
11
47.555614
21
9.536861
31
0
39
0
210
0
220
0
230
1
0
LINE
5
76
100
AcDbEntity
8
1
62
256
6
ByLayer
370
-1
48
1
60
0
100
AcDbLine
10
44.606611
20
13.02007
30
0
11
47.585592
21
12.632049
31
0
39
0
210
0
220
0
230
1
0
LINE
5
77
100
AcDbEntity
8
1
62
256
6
ByLayer
370
-1
48
1
60
0
100
AcDbLine
10
44.951988
20
-31.394363
30
0
11
44.945496
21
-28.808832
31
0
39
0
210
0
220
0
230
1
0
LINE
5
78
100
AcDbEntity
8
1
62
256
6
ByLayer
370
-1
48
1
60
0
100
AcDbLine
10
48.524556
20
7.457943
30
0
11
48.524556
21
7.479753
31
0
39
0
210
0
220
0
230
1
0
LINE
5
79
100
AcDbEntity
8
1
62
256
6
ByLayer
370
-1
48
1
60
0
100
AcDbLine
10
1
20
30.5
30
0
11
1
21
7.3275
31
0
39
0
210
0
220
0
230
1
0
LINE
5
7A
100
AcDbEntity
8
1
62
256
6
ByLayer
370
-1
48
1
60
0
100
AcDbLine
10
33.524047
20
-37.499095
30
0
11
33.599914
21
-37.956754
31
0
39
0
210
0
220
0
230
1
0
LINE
5
7B
100
AcDbEntity
8
1
62
256
6
ByLayer
370
-1
48
1
60
0
100
AcDbLine
10
33.682588
20
44.070562
30
0
11
33.682588
21
23.848683
31
0
39
0
210
0
220
0
230
1
0
LINE
5
7C
100
AcDbEntity
8
1
62
256
6
ByLayer
370
-1
48
1
60
0
100
AcDbLine
10
33.551683
20
-38.063861
30
0
11
33.551683
21
-37.909436
31
0
39
0
210
0
220
0
230
1
0
LINE
5
7D
100
AcDbEntity
8
1
62
256
6
ByLayer
370
-1
48
1
60
0
100
AcDbLine
10
31.310528
20
-48.143041
30
0
11
31.310528
21
-47.621859
31
0
39
0
210
0
220
0
230
1
0
LINE
5
7E
100
AcDbEntity
8
1
62
256
6
ByLayer
370
-1
48
1
60
0
100
AcDbLine
10
1.1
20
-7.2275
30
0
11
7.5
21
-7.2275
31
0
39
0
210
0
220
0
230
1
0
LINE
5
7F
100
AcDbEntity
8
1
62
256
6
ByLayer
370
-1
48
1
60
0
100
AcDbLine
10
27.97095
20
18.024122
30
0
11
27.97095
21
42.559655
31
0
39
0
210
0
220
0
230
1
0
LINE
5
80
100
AcDbEntity
8
1
62
256
6
ByLayer
370
-1
48
1
60
0
100
AcDbLine
10
48.456125
20
-36.706732
30
0
11
48.456125
21
-6.412631
31
0
39
0
210
0
220
0
230
1
0
LINE
5
81
100
AcDbEntity
8
1
62
256
6
ByLayer
370
-1
48
1
60
0
100
AcDbLine
10
41.248879
20
35.78594
30
0
11
40.086838
21
28.191472
31
0
39
0
210
0
220
0
230
1
0
LINE
5
82
100
AcDbEntity
8
1
62
256
6
ByLayer
370
-1
48
1
60
0
100
AcDbLine
10
33.551683
20
19.61775
30
0
11
33.551683
21
19.843489
31
0
39
0
210
0
220
0
230
1
0
LINE
5
83
100
AcDbEntity
8
1
62
256
6
ByLayer
370
-1
48
1
60
0
100
AcDbLine
10
1.1
20
7.2275
30
0
11
7.5
21
7.2275
31
0
39
0
210
0
220
0
230
1
0
LINE
5
84
100
AcDbEntity
8
1
62
256
6
ByLayer
370
-1
48
1
60
0
100
AcDbLine
10
33.274418
20
-35.231219
30
0
11
33.277192
21
-36.336344
31
0
39
0
210
0
220
0
230
1
0
LINE
5
85
100
AcDbEntity
8
1
62
256
6
ByLayer
370
-1
48
1
60
0
100
AcDbLine
10
33.524047
20
-37.499095
30
0
11
33.525009
21
-37.882158
31
0
39
0
210
0
220
0
230
1
0
LINE
5
86
100
AcDbEntity
8
1
62
256
6
ByLayer
370
-1
48
1
60
0
100
AcDbLine
10
49.20765
20
-0.199492
30
0
11
49.20765
21
9.699221
31
0
39
0
210
0
220
0
230
1
0
LINE
5
87
100
AcDbEntity
8
1
62
256
6
ByLayer
370
-1
48
1
60
0
100
AcDbLine
10
48.456125
20
-47.898344
30
0
11
48.456125
21
-48.275492
31
0
39
0
210
0
220
0
230
1
0
LINE
5
88
100
AcDbEntity
8
1
62
256
6
ByLayer
370
-1
48
1
60
0
100
AcDbLine
10
0
20
-29.5
30
0
11
0
21
-8.3275
31
0
39
0
210
0
220
0
230
1
0
LINE
5
89
100
AcDbEntity
8
1
62
256
6
ByLayer
370
-1
48
1
60
0
100
AcDbLine
10
7.5
20
7.2275
30
0
11
8.3
21
6.4275
31
0
39
0
210
0
220
0
230
1
0
LINE
5
8A
100
AcDbEntity
8
1
62
256
6
ByLayer
370
-1
48
1
60
0
100
AcDbLine
10
33.682588
20
-6.079116
30
0
11
33.682588
21
-34.954304
31
0
39
0
210
0
220
0
230
1
0
LINE
5
8B
100
AcDbEntity
8
1
62
256
6
ByLayer
370
-1
48
1
60
0
100
AcDbLine
10
24.526294
20
15.635585
30
0
11
31.499593
21
14.727294
31
0
39
0
210
0
220
0
230
1
0
LINE
5
8C
100
AcDbEntity
8
1
62
256
6
ByLayer
370
-1
48
1
60
0
100
AcDbLine
10
33.551683
20
-48.247517
30
0
11
33.551683
21
-48.681095
31
0
39
0
210
0
220
0
230
1
0
LINE
5
8D
100
AcDbEntity
8
1
62
256
6
ByLayer
370
-1
48
1
60
0
100
AcDbLine
10
14.5
20
30.5
30
0
11
14.5
21
-30.5
31
0
39
0
210
0
220
0
230
1
0
LINE
5
8E
100
AcDbEntity
8
1
62
256
6
ByLayer
370
-1
48
1
60
0
100
AcDbLine
10
33.272801
20
20.659651
30
0
11
33.277192
21
21.526722
31
0
39
0
210
0
220
0
230
1
0
LINE
5
8F
100
AcDbEntity
8
1
62
256
6
ByLayer
370
-1
48
1
60
0
100
AcDbLine
10
1
20
7.3275
30
0
11
1.1
21
7.2275
31
0
39
0
210
0
220
0
230
1
0
LINE
5
90
100
AcDbEntity
8
1
62
256
6
ByLayer
370
-1
48
1
60
0
100
AcDbLine
10
33.551683
20
23.779235
30
0
11
33.551683
21
44.067011
31
0
39
0
210
0
220
0
230
1
0
LINE
5
91
100
AcDbEntity
8
1
62
256
6
ByLayer
370
-1
48
1
60
0
100
AcDbLine
10
33.52928
20
20.624871
30
0
11
33.247003
21
20.59485
31
0
39
0
210
0
220
0
230
1
0
LINE
5
92
100
AcDbEntity
8
1
62
256
6
ByLayer
370
-1
48
1
60
0
100
AcDbLine
10
48.456125
20
21.157629
30
0
11
48.456125
21
43.524244
31
0
39
0
210
0
220
0
230
1
0
LINE
5
93
100
AcDbEntity
8
1
62
256
6
ByLayer
370
-1
48
1
60
0
100
AcDbLine
10
33.551683
20
-34.994607
30
0
11
33.551683
21
-6.056949
31
0
39
0
210
0
220
0
230
1
0
LINE
5
94
100
AcDbEntity
8
1
62
256
6
ByLayer
370
-1
48
1
60
0
100
AcDbLine
10
32.294812
20
45.215881
30
0
11
32.114634
21
44.928893
31
0
39
0
210
0
220
0
230
1
0
LINE
5
95
100
AcDbEntity
8
1
62
256
6
ByLayer
370
-1
48
1
60
0
100
AcDbLine
10
27.97095
20
-35.731224
30
0
11
27.97095
21
-2.007578
31
0
39
0
210
0
220
0
230
1
0
LINE
5
96
100
AcDbEntity
8
1
62
256
6
ByLayer
370
-1
48
1
60
0
100
AcDbLine
10
32.114634
20
17.341546
30
0
11
32.95457
21
18.6
31
0
39
0
210
0
220
0
230
1
0
LINE
5
97
100
AcDbEntity
8
1
62
256
6
ByLayer
370
-1
48
1
60
0
100
AcDbLine
10
31.310528
20
43.856387
30
0
11
31.310528
21
18.657338
31
0
39
0
210
0
220
0
230
1
0
LINE
5
98
100
AcDbEntity
8
1
62
256
6
ByLayer
370
-1
48
1
60
0
100
AcDbLine
10
1
20
-30.5
30
0
11
1
21
-7.3275
31
0
39
0
210
0
220
0
230
1
0
LINE
5
99
100
AcDbEntity
8
1
62
256
6
ByLayer
370
-1
48
1
60
0
100
AcDbLine
10
33.682588
20
-48.694708
30
0
11
33.682588
21
-48.263753
31
0
39
0
210
0
220
0
230
1
0
LINE
5
9A
100
AcDbEntity
8
1
62
256
6
ByLayer
370
-1
48
1
60
0
100
AcDbLine
10
23.51361
20
36.169314
30
0
11
23.51361
21
-36.169314
31
0
39
0
210
0
220
0
230
1
0
LINE
5
9B
100
AcDbEntity
8
1
62
256
6
ByLayer
370
-1
48
1
60
0
100
AcDbLine
10
27.97095
20
-44.408708
30
0
11
27.97095
21
-45.446534
31
0
39
0
210
0
220
0
230
1
0
LINE
5
9C
100
AcDbEntity
8
1
62
256
6
ByLayer
370
-1
48
1
60
0
100
AcDbLine
10
8.3
20
6.4275
30
0
11
8.3
21
-6.4275
31
0
39
0
210
0
220
0
230
1
0
LINE
5
9D
100
AcDbEntity
8
1
62
256
6
ByLayer
370
-1
48
1
60
0
100
AcDbLine
10
46.287939
20
12.958597
30
0
11
47.592375
21
12.779293
31
0
39
0
210
0
220
0
230
1
0
LINE
5
9E
100
AcDbEntity
8
1
62
256
6
ByLayer
370
-1
48
1
60
0
100
AcDbLine
10
48.524556
20
3.412613
30
0
11
48.524556
21
3.494702
31
0
39
0
210
0
220
0
230
1
0
LINE
5
9F
100
AcDbEntity
8
1
62
256
6
ByLayer
370
-1
48
1
60
0
100
AcDbLine
10
33.140009
20
18.769501
30
0
11
32.114634
21
17.341546
31
0
39
0
210
0
220
0
230
1
0
LINE
5
A0
100
AcDbEntity
8
1
62
256
6
ByLayer
370
-1
48
1
60
0
100
AcDbLine
10
40.099772
20
45.387174
30
0
11
39.916302
21
45.502156
31
0
39
0
210
0
220
0
230
1
0
LINE
5
A1
100
AcDbEntity
8
1
62
256
6
ByLayer
370
-1
48
1
60
0
100
AcDbLine
10
42.459402
20
44.609359
30
0
11
42.329331
21
44.690876
31
0
39
0
210
0
220
0
230
1
0
LINE
5
A2
100
AcDbEntity
8
1
62
256
6
ByLayer
370
-1
48
1
60
0
100
AcDbLine
10
40.824794
20
45.578988
30
0
11
40.985621
21
45.478195
31
0
39
0
210
0
220
0
230
1
0
LINE
5
A3
100
AcDbEntity
8
1
62
256
6
ByLayer
370
-1
48
1
60
0
100
AcDbLine
10
41.150439
20
45.479911
30
0
11
40.989611
21
45.580704
31
0
39
0
210
0
220
0
230
1
0
LINE
5
A4
100
AcDbEntity
8
1
62
256
6
ByLayer
370
-1
48
1
60
0
100
AcDbLine
10
39.619606
20
44.545783
30
0
11
39.436137
21
44.660765
31
0
39
0
210
0
220
0
230
1
0
LINE
5
A5
100
AcDbEntity
8
1
62
256
6
ByLayer
370
-1
48
1
60
0
100
AcDbLine
10
41.55157
20
45.682021
30
0
11
41.368343
21
45.796852
31
0
39
0
210
0
220
0
230
1
0
LINE
5
A6
100
AcDbEntity
8
1
62
256
6
ByLayer
370
-1
48
1
60
0
100
AcDbLine
10
45.123579
20
-39.436377
30
0
11
45.147961
21
-36.645969
31
0
39
0
210
0
220
0
230
1
0
LINE
5
A7
100
AcDbEntity
8
1
62
256
6
ByLayer
370
-1
48
1
60
0
100
AcDbLine
10
38.385001
20
-39.352526
30
0
11
38.412792
21
-36.171966
31
0
39
0
210
0
220
0
230
1
0
LINE
5
A8
100
AcDbEntity
8
1
62
256
6
ByLayer
370
-1
48
1
60
0
100
AcDbLine
10
38.385001
20
19.239981
30
0
11
38.412792
21
22.403727
31
0
39
0
210
0
220
0
230
1
0
LINE
5
A9
100
AcDbEntity
8
1
62
256
6
ByLayer
370
-1
48
1
60
0
100
AcDbLine
10
45.123579
20
18.702727
30
0
11
45.147961
21
21.478384
31
0
39
0
210
0
220
0
230
1
0
LINE
5
AA
100
AcDbEntity
8
1
62
256
6
ByLayer
370
-1
48
1
60
0
100
AcDbLine
10
40.984839
20
15.141543
30
0
11
41.115185
21
15.993413
31
0
39
0
210
0
220
0
230
1
0
LINE
5
AB
100
AcDbEntity
8
1
62
256
6
ByLayer
370
-1
48
1
60
0
100
AcDbLine
10
41.520409
20
15.895303
30
0
11
41.362783
21
14.865141
31
0
39
0
210
0
220
0
230
1
0
LINE
5
AC
100
AcDbEntity
8
1
62
256
6
ByLayer
370
-1
48
1
60
0
100
AcDbLine
10
42.358213
20
15.372698
30
0
11
42.328213
21
15.176633
31
0
39
0
210
0
220
0
230
1
0
LINE
5
AD
100
AcDbEntity
8
1
62
256
6
ByLayer
370
-1
48
1
60
0
100
AcDbLine
10
39.47134
20
15.791062
30
0
11
39.435019
21
15.553686
31
0
39
0
210
0
220
0
230
1
0
LINE
5
AE
100
AcDbEntity
8
1
62
256
6
ByLayer
370
-1
48
1
60
0
100
AcDbLine
10
40.560259
20
16.061368
30
0
11
40.396492
21
14.991072
31
0
39
0
210
0
220
0
230
1
0
LINE
5
AF
100
AcDbEntity
8
1
62
256
6
ByLayer
370
-1
48
1
60
0
100
AcDbLine
10
40.95133
20
16.021183
30
0
11
40.820021
21
15.163022
31
0
39
0
210
0
220
0
230
1
0
MTEXT
5
19F
100
AcDbEntity
8
SK6
62
256
6
ByLayer
370
-1
48
1
60
0
100
AcDbMText
10
0.873386
20
-60.938367
30
0
210
0
220
0
230
1
1
\W00.710;\fsimplex.shx,bigfont.shx;R390-100Q32-18L\P
40
3.5
41
0
44
1.084337
50
0
71
7
72
5
7
DEFAULT
0
DIMENSION
5
1B0
100
AcDbEntity
8
2
62
256
6
ByLayer
370
-3
48
1
60
0
100
AcDbDimension
2
DimnDraft3D1
10
0
20
69.75
30
0
11
21.666447
21
69.75
31
0
70
32
71
5
72
1
41
1
210
0
220
0
230
1
3
Standard
100
AcDbAlignedDimension
13
50
23
52
33
0
14
0
24
32.5
34
0
50
0
100
AcDbRotatedDimension
1001
ACAD
1000
DSTYLE
1002
{
1070
   279
1070
     0
1070
   172
1070
     1
1070
   173
1070
     1
1070
   340
1005
1A0
1070
   271
1070
     2
1070
   272
1070
     2
1070
    77
1070
     1
1070
    73
1070
     0
1070
   171
1070
     4
1070
   274
1070
     4
1070
   177
1070
     2
1070
   176
1070
     2
1070
   178
1070
     7
1070
    78
1070
     8
1070
    41
1041
3.175
1070
   147
1041
2.25
1070
    42
1041
2.0
1070
    44
1041
2.0
1070
   140
1041
4.5
1070
   343
1005
1B1
1070
   344
1005
1B1
1002
}
0
DIMENSION
5
1C5
100
AcDbEntity
8
2
62
256
6
ByLayer
370
-3
48
1
60
0
100
AcDbDimension
2
DimnDraft3D2
10
34.6
20
59.75
30
0
11
55
21
59.75
31
0
70
32
71
5
72
1
41
1
210
0
220
0
230
1
3
Standard
100
AcDbAlignedDimension
13
50
23
52
33
0
14
34.6
24
52
34
0
50
0
100
AcDbRotatedDimension
1001
ACAD
1000
DSTYLE
1002
{
1070
   279
1070
     0
1070
   172
1070
     1
1070
   173
1070
     1
1070
   340
1005
1A0
1070
   271
1070
     2
1070
   272
1070
     2
1070
    77
1070
     1
1070
    73
1070
     0
1070
   171
1070
     4
1070
   274
1070
     4
1070
   177
1070
     2
1070
   176
1070
     2
1070
   178
1070
     7
1070
    78
1070
     8
1070
    41
1041
3.175
1070
   147
1041
2.25
1070
    42
1041
2.0
1070
    44
1041
2.0
1070
   140
1041
4.5
1070
   343
1005
1B1
1070
   344
1005
1B1
1002
}
0
DIMENSION
5
1D4
100
AcDbEntity
8
SK2
62
256
6
ByLayer
370
-3
48
1
60
0
100
AcDbDimension
2
DimnDraft3D3
10
-9.75
20
-16
30
0
11
-9.75
21
-6.01727
31
0
70
32
71
5
72
1
41
1
210
0
220
0
230
1
3
Standard
100
AcDbAlignedDimension
13
-2
23
16
33
0
14
-2
24
-16
34
0
50
90
100
AcDbRotatedDimension
1001
ACAD
1000
DSTYLE
1002
{
1070
    74
1070
     0
1070
   279
1070
     0
1070
   172
1070
     1
1070
   173
1070
     1
1070
   340
1005
1A0
1070
   271
1070
     2
1070
   272
1070
     2
1070
    77
1070
     1
1070
    73
1070
     0
1070
   171
1070
     4
1070
   274
1070
     4
1070
   177
1070
     2
1070
   176
1070
     2
1070
   178
1070
     7
1070
    78
1070
     8
1070
    41
1041
3.175
1070
   147
1041
2.25
1070
    42
1041
2.0
1070
    44
1041
2.0
1070
   140
1041
4.5
1070
   343
1005
1B1
1070
   344
1005
1B1
1002
}
0
DIMENSION
5
1E2
100
AcDbEntity
8
2
62
256
6
ByLayer
370
-3
48
1
60
0
100
AcDbDimension
2
DimnDraft3D4
10
64.25
20
-50
30
0
11
64.25
21
-7.262171
31
0
70
32
71
5
72
1
41
1
210
0
220
0
230
1
3
Standard
100
AcDbAlignedDimension
13
52
23
50
33
0
14
52
24
-50
34
0
50
90
100
AcDbRotatedDimension
1001
ACAD
1000
DSTYLE
1002
{
1070
    74
1070
     0
1070
   279
1070
     0
1070
   172
1070
     1
1070
   173
1070
     1
1070
   340
1005
1A0
1070
   271
1070
     2
1070
   272
1070
     2
1070
    77
1070
     1
1070
    73
1070
     0
1070
   171
1070
     4
1070
   274
1070
     4
1070
   177
1070
     2
1070
   176
1070
     2
1070
   178
1070
     7
1070
    78
1070
     8
1070
    41
1041
3.175
1070
   147
1041
2.25
1070
    42
1041
2.0
1070
    44
1041
2.0
1070
   140
1041
4.5
1070
   343
1005
1B1
1070
   344
1005
1B1
1002
}
0
ENDSEC
0
SECTION
2
OBJECTS
0
DICTIONARY
5
230
330
0
100
AcDbDictionary
280
0
281
1
3
ACAD_GROUP
350
231
3
ACAD_MLINESTYLE
350
232
0
DICTIONARY
5
231
330
0
100
AcDbDictionary
280
0
281
1
0
DICTIONARY
5
232
330
0
100
AcDbDictionary
280
0
281
1
3
Standard
350
18
0
MLINESTYLE
5
18
330
232
100
AcDbMlineStyle
2
Standard
70
0
3

62
256
51
90
52
90
71
2
49
-0.5
62
256
6
ByLayer
49
0.5
62
256
6
ByLayer
0
RASTERVARIABLES
5
21f
330

100
AcDbRasterVariables
90
0
70
1
71
1
72
1
0
ENDSEC
0
EOF
