0
SECTION
2
HEADER
9
$ACADVER
1
AC1015
9
$DWGCODEPAGE
3
ANSI_1252
9
$HANDSEED
5
2df
9
$ANGBASE
50
0
9
$ANGDIR
70
0
9
$ATTMODE
70
1
9
$AUNITS
70
0
9
$AUPREC
70
0
9
$CECOLOR
62
256
9
$CELTSCALE
40
1
9
$CELTYPE
6
ByLayer
9
$CELWEIGHT
370
-1
9
$CLAYER
8
0
9
$CMLJUST
70
0
9
$CMLSCALE
40
1
9
$CMLSTYLE
2
Standard
9
$DIMSTYLE
2
Standard
9
$TEXTSIZE
40
0.2
9
$TEXTSTYLE
7
Standard
9
$LUNITS
70
2
9
$LUPREC
70
4
9
$EXTNAMES
290
1
9
$INSUNITS
70
4
9
$LTSCALE
40
1
9
$LWDISPLAY
290
0
9
$PDMODE
70
0
9
$PDSIZE
40
0
9
$PLINEGEN
70
0
0
ENDSEC
0
SECTION
2
CLASSES
0
CLASS
1
RASTERVARIABLES
2
AcDbRasterVariables
3
ISM
90
0
280
0
281
0
0
ENDSEC
0
SECTION
2
TABLES
0
TABLE
2
VPORT
5
2d5
100
AcDbSymbolTable
0
VPORT
5
1
100
AcDbSymbolTableRecord
100
AcDbViewportTableRecord
2
*Active
70
0
10
0
20
0
11
1
21
1
12
-1
22
1
13
0
23
0
14
0.5
24
0.5
15
10
25
10
16
0
26
0
36
1
17
0
27
0
37
0
0
ENDTAB
0
TABLE
2
LTYPE
5
2d6
100
AcDbSymbolTable
0
LTYPE
5
14
100
AcDbSymbolTableRecord
100
AcDbLinetypeTableRecord
70
0
2
ByBlock
3

72
65
73
0
40
0
0
LTYPE
5
15
100
AcDbSymbolTableRecord
100
AcDbLinetypeTableRecord
70
0
2
ByLayer
3

72
65
73
0
40
0
0
LTYPE
5
16
100
AcDbSymbolTableRecord
100
AcDbLinetypeTableRecord
70
0
2
CONTINUOUS
3
Solid line
72
65
73
0
40
0
0
LTYPE
5
3C
100
AcDbSymbolTableRecord
100
AcDbLinetypeTableRecord
70
0
2
DASHED
3
__ __ __ __ __ __ __ __ __
72
65
73
2
40
25.72
49
12.86
74
0
49
-12.86
74
0
0
LTYPE
5
3D
100
AcDbSymbolTableRecord
100
AcDbLinetypeTableRecord
70
0
2
HIDDEN
3
_ _ _ _ _ _ _ _ _ _ _ _ _ _ _
72
65
73
2
40
0.5
49
0.25
74
0
49
-0.25
74
0
0
LTYPE
5
3E
100
AcDbSymbolTableRecord
100
AcDbLinetypeTableRecord
70
0
2
PHANTOM
3
____ _ _ ____ _ _ _____ _ _ ____
72
65
73
6
40
50.5
49
18
74
0
49
-6.5
74
0
49
6.5
74
0
49
-6.5
74
0
49
6.5
74
0
49
-6.5
74
0
0
LTYPE
5
3F
100
AcDbSymbolTableRecord
100
AcDbLinetypeTableRecord
70
0
2
CENTER
3
____ _ ____ _ ____ _ ____
72
65
73
4
40
47.5
49
22
74
0
49
-8.5
74
0
49
8.5
74
0
49
-8.5
74
0
0
LTYPE
5
40
100
AcDbSymbolTableRecord
100
AcDbLinetypeTableRecord
70
0
2
DOT
3
.........................
72
65
73
2
40
10
49
0
74
0
49
-10
74
0
0
LTYPE
5
41
100
AcDbSymbolTableRecord
100
AcDbLinetypeTableRecord
70
0
2
DASHDOT
3
_._._._._._._._._._._._._._._._.
72
65
73
4
40
70
49
31
74
0
49
-13
74
0
49
13
74
0
49
-13
74
0
0
ENDTAB
0
TABLE
2
LAYER
5
2d7
100
AcDbSymbolTable
0
LAYER
5
10
100
AcDbSymbolTableRecord
100
AcDbLayerTableRecord
2
0
70
0
62
7
6
CONTINUOUS
290
1
370
-3
390
0
0
LAYER
5
43
100
AcDbSymbolTableRecord
100
AcDbLayerTableRecord
2
2
70
0
62
7
6
CONTINUOUS
290
1
370
-3
390
0
0
LAYER
5
45
100
AcDbSymbolTableRecord
100
AcDbLayerTableRecord
2
81
70
0
62
-3
6
CONTINUOUS
290
1
370
-3
390
0
0
LAYER
5
47
100
AcDbSymbolTableRecord
100
AcDbLayerTableRecord
2
80
70
0
62
-6
6
CONTINUOUS
290
1
370
-3
390
0
0
LAYER
5
49
100
AcDbSymbolTableRecord
100
AcDbLayerTableRecord
2
4
70
0
62
-2
6
CENTER
290
1
370
-3
390
0
0
LAYER
5
4B
100
AcDbSymbolTableRecord
100
AcDbLayerTableRecord
2
1
70
0
62
4
6
CONTINUOUS
290
1
370
-3
390
0
0
LAYER
5
2c2
100
AcDbSymbolTableRecord
100
AcDbLayerTableRecord
2
SK4
70
0
62
2
6
CENTER
290
1
370
-3
390
0
0
LAYER
5
2c3
100
AcDbSymbolTableRecord
100
AcDbLayerTableRecord
2
SK6
70
0
62
5
6
CONTINUOUS
290
1
370
-3
390
0
0
LAYER
5
2c4
100
AcDbSymbolTableRecord
100
AcDbLayerTableRecord
2
SK2
70
0
62
7
6
CONTINUOUS
290
1
370
-3
390
0
0
ENDTAB
0
TABLE
2
STYLE
5
2d8
100
AcDbSymbolTable
0
STYLE
5
11
100
AcDbSymbolTableRecord
100
AcDbTextStyleTableRecord
2
Standard
3
txt
70
0
71
0
40
0
41
1
42
0
50
0
0
STYLE
5
242
100
AcDbSymbolTableRecord
100
AcDbTextStyleTableRecord
2
DEFAULT
3
simplex.shx
70
0
71
0
40
0
41
1
42
0
50
0
0
STYLE
5
243
100
AcDbSymbolTableRecord
100
AcDbTextStyleTableRecord
2
DWGDirectTextStyle
3
SIMPLEX
70
0
71
0
40
0
41
1
42
0
50
0
0
ENDTAB
0
TABLE
2
DIMSTYLE
5
2d9
100
AcDbSymbolTable
100
AcDbDimStyleTable
0
DIMSTYLE
105
27
100
AcDbSymbolTableRecord
100
AcDbDimStyleTableRecord
2
Standard
70
0
3
<>
41
0.18
42
0.0625
44
0.18
140
0.18
147
0.09
73
0
74
0
77
1
271
2
275
0
278
52
280
0
340
11
0
ENDTAB
0
TABLE
2
VIEW
5
2da
100
AcDbSymbolTable
0
ENDTAB
0
TABLE
2
UCS
5
2db
100
AcDbSymbolTable
0
ENDTAB
0
TABLE
2
APPID
5
2dc
100
AcDbSymbolTable
0
APPID
5
12
100
AcDbSymbolTableRecord
100
AcDbRegAppTableRecord
2
ACAD
70
0
0
ENDTAB
0
TABLE
2
BLOCK_RECORD
5
2dd
100
AcDbSymbolTable
0
BLOCK_RECORD
5
1F
100
AcDbSymbolTableRecord
100
AcDbBlockTableRecord
2
*Model_Space
340
0
70
0
0
BLOCK_RECORD
5
1B
100
AcDbSymbolTableRecord
100
AcDbBlockTableRecord
2
*Paper_Space
340
0
70
0
0
BLOCK_RECORD
5
23
100
AcDbSymbolTableRecord
100
AcDbBlockTableRecord
2
*Paper_Space0
340
0
70
0
0
BLOCK_RECORD
5
245
100
AcDbSymbolTableRecord
100
AcDbBlockTableRecord
2
DimnDraft3D1
340
0
70
0
0
BLOCK_RECORD
5
253
100
AcDbSymbolTableRecord
100
AcDbBlockTableRecord
2
_CLOSED
340
0
70
0
0
BLOCK_RECORD
5
25A
100
AcDbSymbolTableRecord
100
AcDbBlockTableRecord
2
DimnDraft3D2
340
0
70
0
0
BLOCK_RECORD
5
268
100
AcDbSymbolTableRecord
100
AcDbBlockTableRecord
2
DimnDraft3D3
340
0
70
0
0
BLOCK_RECORD
5
277
100
AcDbSymbolTableRecord
100
AcDbBlockTableRecord
2
DimnDraft3D4
340
0
70
0
0
ENDTAB
0
ENDSEC
0
SECTION
2
BLOCKS
0
BLOCK
5
20
100
AcDbEntity
8
0
100
AcDbBlockBegin
2
*Model_Space
70
0
10
0
20
0
30
0
3
*Model_Space
0
ENDBLK
5
21
100
AcDbEntity
8
0
100
AcDbBlockEnd
0
BLOCK
5
1C
100
AcDbEntity
8
0
100
AcDbBlockBegin
2
*Paper_Space
70
0
10
0
20
0
30
0
3
*Paper_Space
0
ENDBLK
5
1D
100
AcDbEntity
8
0
100
AcDbBlockEnd
0
BLOCK
5
24
100
AcDbEntity
8
0
100
AcDbBlockBegin
2
*Paper_Space0
70
0
10
0
20
0
30
0
3
*Paper_Space0
0
ENDBLK
5
25
100
AcDbEntity
8
0
100
AcDbBlockEnd
0
BLOCK
5
250
100
AcDbEntity
8
0
100
AcDbBlockBegin
2
DimnDraft3D1
70
0
10
0
20
0
30
0
3
DimnDraft3D1
0
MTEXT
5
246
100
AcDbEntity
8
2
62
256
6
ByLayer
370
-1
48
1
60
0
100
AcDbMText
10
23.185197
20
60.875
30
0
210
0
220
0
230
1
1
\W01.000;\fsimplex.shx,bigfont.shx;50\P
40
4.5
41
0
44
1.084337
50
0
71
7
72
5
7
DEFAULT
0
LINE
5
247
100
AcDbEntity
8
2
62
256
6
ByLayer
370
-1
48
1
60
0
100
AcDbLine
10
50
20
42
30
0
11
50
21
61.75
31
0
39
0
210
0
220
0
230
1
0
LINE
5
248
100
AcDbEntity
8
2
62
256
6
ByLayer
370
-1
48
1
60
0
100
AcDbLine
10
0
20
27
30
0
11
0
21
61.75
31
0
39
0
210
0
220
0
230
1
0
LINE
5
249
100
AcDbEntity
8
2
62
256
6
ByLayer
370
-1
48
1
60
0
100
AcDbLine
10
50
20
59.75
30
0
11
0
21
59.75
31
0
39
0
210
0
220
0
230
1
0
LINE
5
24A
100
AcDbEntity
8
2
62
256
6
ByLayer
370
-1
48
1
60
0
100
AcDbLine
10
50
20
59.75
30
0
11
46.825002
21
59.332003
31
0
39
0
210
0
220
0
230
1
0
LINE
5
24B
100
AcDbEntity
8
2
62
256
6
ByLayer
370
-1
48
1
60
0
100
AcDbLine
10
50
20
59.75
30
0
11
46.824998
21
60.167997
31
0
39
0
210
0
220
0
230
1
0
LINE
5
24C
100
AcDbEntity
8
2
62
256
6
ByLayer
370
-1
48
1
60
0
100
AcDbLine
10
46.825002
20
59.332003
30
0
11
46.824998
21
60.167997
31
0
39
0
210
0
220
0
230
1
0
LINE
5
24D
100
AcDbEntity
8
2
62
256
6
ByLayer
370
-1
48
1
60
0
100
AcDbLine
10
0
20
59.75
30
0
11
3.174998
21
60.167997
31
0
39
0
210
0
220
0
230
1
0
LINE
5
24E
100
AcDbEntity
8
2
62
256
6
ByLayer
370
-1
48
1
60
0
100
AcDbLine
10
0
20
59.75
30
0
11
3.175002
21
59.332003
31
0
39
0
210
0
220
0
230
1
0
LINE
5
24F
100
AcDbEntity
8
2
62
256
6
ByLayer
370
-1
48
1
60
0
100
AcDbLine
10
3.174998
20
60.167997
30
0
11
3.175002
21
59.332003
31
0
39
0
210
0
220
0
230
1
0
ENDBLK
5
251
100
AcDbEntity
8
0
100
AcDbBlockEnd
0
BLOCK
5
254
100
AcDbEntity
8
0
100
AcDbBlockBegin
2
_CLOSED
70
0
10
0
20
0
30
0
3
_CLOSED
0
LINE
5
256
100
AcDbEntity
8
0
62
256
6
ByLayer
370
-2
48
1
60
0
100
AcDbLine
10
-1
20
0.166667
30
0
11
0
21
0
31
0
39
0
210
0
220
0
230
1
0
LINE
5
257
100
AcDbEntity
8
0
62
256
6
ByLayer
370
-2
48
1
60
0
100
AcDbLine
10
0
20
0
30
0
11
-1
21
-0.166667
31
0
39
0
210
0
220
0
230
1
0
LINE
5
258
100
AcDbEntity
8
0
62
256
6
ByLayer
370
-2
48
1
60
0
100
AcDbLine
10
-1
20
0.166667
30
0
11
-1
21
-0.166667
31
0
39
0
210
0
220
0
230
1
0
LINE
5
259
100
AcDbEntity
8
0
62
256
6
ByLayer
370
-2
48
1
60
0
100
AcDbLine
10
0
20
0
30
0
11
-1
21
0
31
0
39
0
210
0
220
0
230
1
0
ENDBLK
5
255
100
AcDbEntity
8
0
100
AcDbBlockEnd
0
BLOCK
5
265
100
AcDbEntity
8
0
100
AcDbBlockBegin
2
DimnDraft3D2
70
0
10
0
20
0
30
0
3
DimnDraft3D2
0
MTEXT
5
25B
100
AcDbEntity
8
2
62
256
6
ByLayer
370
-1
48
1
60
0
100
AcDbMText
10
56.51875
20
50.875
30
0
210
0
220
0
230
1
1
\W01.000;\fsimplex.shx,bigfont.shx;10\P
40
4.5
41
0
44
1.084337
50
0
71
7
72
5
7
DEFAULT
0
LINE
5
25C
100
AcDbEntity
8
2
62
256
6
ByLayer
370
-1
48
1
60
0
100
AcDbLine
10
50
20
42
30
0
11
50
21
51.75
31
0
39
0
210
0
220
0
230
1
0
LINE
5
25D
100
AcDbEntity
8
2
62
256
6
ByLayer
370
-1
48
1
60
0
100
AcDbLine
10
39.8
20
42
30
0
11
39.8
21
51.75
31
0
39
0
210
0
220
0
230
1
0
LINE
5
25E
100
AcDbEntity
8
2
62
256
6
ByLayer
370
-1
48
1
60
0
100
AcDbLine
10
39.8
20
49.75
30
0
11
60.148355
21
49.75
31
0
39
0
210
0
220
0
230
1
0
LINE
5
25F
100
AcDbEntity
8
2
62
256
6
ByLayer
370
-1
48
1
60
0
100
AcDbLine
10
50
20
49.75
30
0
11
46.825002
21
49.332003
31
0
39
0
210
0
220
0
230
1
0
LINE
5
260
100
AcDbEntity
8
2
62
256
6
ByLayer
370
-1
48
1
60
0
100
AcDbLine
10
50
20
49.75
30
0
11
46.824998
21
50.167997
31
0
39
0
210
0
220
0
230
1
0
LINE
5
261
100
AcDbEntity
8
2
62
256
6
ByLayer
370
-1
48
1
60
0
100
AcDbLine
10
46.825002
20
49.332003
30
0
11
46.824998
21
50.167997
31
0
39
0
210
0
220
0
230
1
0
LINE
5
262
100
AcDbEntity
8
2
62
256
6
ByLayer
370
-1
48
1
60
0
100
AcDbLine
10
39.8
20
49.75
30
0
11
42.974998
21
50.167997
31
0
39
0
210
0
220
0
230
1
0
LINE
5
263
100
AcDbEntity
8
2
62
256
6
ByLayer
370
-1
48
1
60
0
100
AcDbLine
10
39.8
20
49.75
30
0
11
42.975002
21
49.332003
31
0
39
0
210
0
220
0
230
1
0
LINE
5
264
100
AcDbEntity
8
2
62
256
6
ByLayer
370
-1
48
1
60
0
100
AcDbLine
10
42.974998
20
50.167997
30
0
11
42.975002
21
49.332003
31
0
39
0
210
0
220
0
230
1
0
ENDBLK
5
266
100
AcDbEntity
8
0
100
AcDbBlockEnd
0
BLOCK
5
274
100
AcDbEntity
8
0
100
AcDbBlockBegin
2
DimnDraft3D3
70
0
10
0
20
0
30
0
3
DimnDraft3D3
0
MTEXT
5
269
100
AcDbEntity
8
SK2
62
256
6
ByLayer
370
-1
48
1
60
0
100
AcDbMText
10
-10.875
20
-4.49852
30
0
210
0
220
0
230
1
1
\W01.000;\fsimplex.shx,bigfont.shx;%%c27\P
40
4.5
41
0
44
1.084337
50
90
71
7
72
5
7
DEFAULT
0
LINE
5
26B
100
AcDbEntity
8
SK2
62
256
6
ByLayer
370
-1
48
1
60
0
100
AcDbLine
10
-2
20
13.5
30
0
11
-11.75
21
13.5
31
0
39
0
210
0
220
0
230
1
0
LINE
5
26C
100
AcDbEntity
8
SK2
62
256
6
ByLayer
370
-1
48
1
60
0
100
AcDbLine
10
-2
20
-13.5
30
0
11
-11.75
21
-13.5
31
0
39
0
210
0
220
0
230
1
0
LINE
5
26D
100
AcDbEntity
8
SK2
62
256
6
ByLayer
370
-1
48
1
60
0
100
AcDbLine
10
-9.75
20
13.5
30
0
11
-9.75
21
-13.5
31
0
39
0
210
0
220
0
230
1
0
LINE
5
26E
100
AcDbEntity
8
SK2
62
256
6
ByLayer
370
-1
48
1
60
0
100
AcDbLine
10
-9.75
20
13.5
30
0
11
-9.332003
21
10.325002
31
0
39
0
210
0
220
0
230
1
0
LINE
5
26F
100
AcDbEntity
8
SK2
62
256
6
ByLayer
370
-1
48
1
60
0
100
AcDbLine
10
-9.75
20
13.5
30
0
11
-10.167997
21
10.324998
31
0
39
0
210
0
220
0
230
1
0
LINE
5
270
100
AcDbEntity
8
SK2
62
256
6
ByLayer
370
-1
48
1
60
0
100
AcDbLine
10
-9.332003
20
10.325002
30
0
11
-10.167997
21
10.324998
31
0
39
0
210
0
220
0
230
1
0
LINE
5
271
100
AcDbEntity
8
SK2
62
256
6
ByLayer
370
-1
48
1
60
0
100
AcDbLine
10
-9.75
20
-13.5
30
0
11
-10.167997
21
-10.325002
31
0
39
0
210
0
220
0
230
1
0
LINE
5
272
100
AcDbEntity
8
SK2
62
256
6
ByLayer
370
-1
48
1
60
0
100
AcDbLine
10
-9.75
20
-13.5
30
0
11
-9.332003
21
-10.324998
31
0
39
0
210
0
220
0
230
1
0
LINE
5
273
100
AcDbEntity
8
SK2
62
256
6
ByLayer
370
-1
48
1
60
0
100
AcDbLine
10
-10.167997
20
-10.325002
30
0
11
-9.332003
21
-10.324998
31
0
39
0
210
0
220
0
230
1
0
ENDBLK
5
275
100
AcDbEntity
8
0
100
AcDbBlockEnd
0
BLOCK
5
282
100
AcDbEntity
8
0
100
AcDbBlockBegin
2
DimnDraft3D4
70
0
10
0
20
0
30
0
3
DimnDraft3D4
0
MTEXT
5
278
100
AcDbEntity
8
2
62
256
6
ByLayer
370
-1
48
1
60
0
100
AcDbMText
10
63.125
20
-4.49852
30
0
210
0
220
0
230
1
1
\W01.000;\fsimplex.shx,bigfont.shx;%%c80\P
40
4.5
41
0
44
1.084337
50
90
71
7
72
5
7
DEFAULT
0
LINE
5
279
100
AcDbEntity
8
2
62
256
6
ByLayer
370
-1
48
1
60
0
100
AcDbLine
10
52
20
40
30
0
11
66.25
21
40
31
0
39
0
210
0
220
0
230
1
0
LINE
5
27A
100
AcDbEntity
8
2
62
256
6
ByLayer
370
-1
48
1
60
0
100
AcDbLine
10
52
20
-40
30
0
11
66.25
21
-40
31
0
39
0
210
0
220
0
230
1
0
LINE
5
27B
100
AcDbEntity
8
2
62
256
6
ByLayer
370
-1
48
1
60
0
100
AcDbLine
10
64.25
20
40
30
0
11
64.25
21
-40
31
0
39
0
210
0
220
0
230
1
0
LINE
5
27C
100
AcDbEntity
8
2
62
256
6
ByLayer
370
-1
48
1
60
0
100
AcDbLine
10
64.25
20
40
30
0
11
64.667997
21
36.825002
31
0
39
0
210
0
220
0
230
1
0
LINE
5
27D
100
AcDbEntity
8
2
62
256
6
ByLayer
370
-1
48
1
60
0
100
AcDbLine
10
64.25
20
40
30
0
11
63.832003
21
36.824998
31
0
39
0
210
0
220
0
230
1
0
LINE
5
27E
100
AcDbEntity
8
2
62
256
6
ByLayer
370
-1
48
1
60
0
100
AcDbLine
10
64.667997
20
36.825002
30
0
11
63.832003
21
36.824998
31
0
39
0
210
0
220
0
230
1
0
LINE
5
27F
100
AcDbEntity
8
2
62
256
6
ByLayer
370
-1
48
1
60
0
100
AcDbLine
10
64.25
20
-40
30
0
11
63.832003
21
-36.825002
31
0
39
0
210
0
220
0
230
1
0
LINE
5
280
100
AcDbEntity
8
2
62
256
6
ByLayer
370
-1
48
1
60
0
100
AcDbLine
10
64.25
20
-40
30
0
11
64.667997
21
-36.824998
31
0
39
0
210
0
220
0
230
1
0
LINE
5
281
100
AcDbEntity
8
2
62
256
6
ByLayer
370
-1
48
1
60
0
100
AcDbLine
10
63.832003
20
-36.825002
30
0
11
64.667997
21
-36.824998
31
0
39
0
210
0
220
0
230
1
0
ENDBLK
5
283
100
AcDbEntity
8
0
100
AcDbBlockEnd
0
ENDSEC
0
SECTION
2
ENTITIES
0
ARC
5
D6
100
AcDbEntity
8
1
62
256
6
ByLayer
370
-1
48
1
60
0
100
AcDbCircle
39
0
10
45.18818
20
-2.60205
30
0
40
4
210
0
220
0
230
1
100
AcDbArc
50
273.476885
51
276.84973
0
ARC
5
D7
100
AcDbEntity
8
1
62
256
6
ByLayer
370
-1
48
1
60
0
100
AcDbCircle
39
0
10
45.18818
20
-2.60205
30
0
40
4
210
0
220
0
230
1
100
AcDbArc
50
231.02423
51
237.95777
0
ARC
5
D8
100
AcDbEntity
8
1
62
256
6
ByLayer
370
-1
48
1
60
0
100
AcDbCircle
39
0
10
-13.5
20
35
30
0
40
10
210
0
220
0
230
-1
100
AcDbArc
50
239.05902
51
270
0
ARC
5
D9
100
AcDbEntity
8
1
62
256
6
ByLayer
370
-1
48
1
60
0
100
AcDbCircle
39
0
10
-13.5
20
-35
30
0
40
10
210
0
220
0
230
-1
100
AcDbArc
50
90
51
120.94098
0
ARC
5
DA
100
AcDbEntity
8
1
62
256
6
ByLayer
370
-1
48
1
60
0
100
AcDbCircle
39
0
10
0.5
20
-24.5
30
0
40
0.5
210
0
220
0
230
1
100
AcDbArc
50
180
51
270
0
ARC
5
DB
100
AcDbEntity
8
1
62
256
6
ByLayer
370
-1
48
1
60
0
100
AcDbCircle
39
0
10
0.5
20
24.5
30
0
40
0.5
210
0
220
0
230
1
100
AcDbArc
50
90
51
180
0
ARC
5
DC
100
AcDbEntity
8
1
62
256
6
ByLayer
370
-1
48
1
60
0
100
AcDbCircle
39
0
10
40.257198
20
-33.551171
30
0
40
5
210
0
220
0
230
1
100
AcDbArc
50
239.05902
51
260.543056
0
ELLIPSE
5
DD
100
AcDbEntity
8
1
62
256
6
ByLayer
370
-1
48
1
60
0
100
AcDbEllipse
10
85.178004
20
-3.978227
30
0
11
162.45527490372
21
-20.6864628614031
31
0
210
0
220
0
230
-1
40
0.213746
41
1.77056881732286
42
1.80799314472392
0
ELLIPSE
5
DE
100
AcDbEntity
8
1
62
256
6
ByLayer
370
-1
48
1
60
0
100
AcDbEllipse
10
39.72448
20
30.361049
30
0
11
-16.6441013218368
21
3.30783034793747
31
0
210
0
220
0
230
1
40
0.659255
41
1.53917620191887
42
1.76606900467813
0
ELLIPSE
5
DF
100
AcDbEntity
8
1
62
256
6
ByLayer
370
-1
48
1
60
0
100
AcDbEllipse
10
38.115991
20
32.522713
30
0
11
-14.7122673309197
21
2.92389979027205
31
0
210
0
220
0
230
1
40
0.659255
41
1.2802969778815
42
1.53917620191887
0
ELLIPSE
5
E0
100
AcDbEntity
8
1
62
256
6
ByLayer
370
-1
48
1
60
0
100
AcDbEllipse
10
40.449307
20
34.808003
30
0
11
2.58779984789658
21
-1.00381438455857
31
0
210
0
220
0
230
-1
40
0.155763
41
2.50997907408623
42
2.53347242826523
0
ELLIPSE
5
E1
100
AcDbEntity
8
1
62
256
6
ByLayer
370
-1
48
1
60
0
100
AcDbEllipse
10
43.218699
20
0.240795
30
0
11
4.96564175629954
21
38.9108294427501
31
0
210
0
220
0
230
-1
40
0.218228
41
2.24272792413156
42
2.47195733733
0
ELLIPSE
5
E2
100
AcDbEntity
8
1
62
256
6
ByLayer
370
-1
48
1
60
0
100
AcDbEllipse
10
46.313507
20
0.376279
30
0
11
7.58930430790135
21
39.0653255955082
31
0
210
0
220
0
230
-1
40
0.161795
41
-0.755465019704008
42
-0.642143775804186
0
ELLIPSE
5
E3
100
AcDbEntity
8
1
62
256
6
ByLayer
370
-1
48
1
60
0
100
AcDbEllipse
10
46.050314
20
1.132946
30
0
11
1.45363557752685
21
-0.370058924697366
31
0
210
0
220
0
230
1
40
0.117801
41
0.0299800567429061
42
2.84229434423187
0
ELLIPSE
5
E4
100
AcDbEntity
8
1
62
256
6
ByLayer
370
-1
48
1
60
0
100
AcDbEllipse
10
48.249188
20
-39.005249
30
0
11
1.5713766351492
21
0.230253160380887
31
0
210
0
220
0
230
-1
40
0.677014
41
-2.90579614040974
42
-0.61147379565895
0
ELLIPSE
5
E5
100
AcDbEntity
8
1
62
256
6
ByLayer
370
-1
48
1
60
0
100
AcDbEllipse
10
35.431093
20
21.445866
30
0
11
0.430665063053509
21
1.95308156600412
31
0
210
0
220
0
230
1
40
0.023772
41
0.720076032414766
42
2.46540528440916
0
ELLIPSE
5
E6
100
AcDbEntity
8
1
62
256
6
ByLayer
370
-1
48
1
60
0
100
AcDbEllipse
10
37.383623
20
21.015323
30
0
11
0.430665063053509
21
1.95308156600412
31
0
210
0
220
0
230
1
40
0.023772
41
0.720076032414766
42
2.46540528440916
0
ELLIPSE
5
E7
100
AcDbEntity
8
1
62
256
6
ByLayer
370
-1
48
1
60
0
100
AcDbEllipse
10
39.939465
20
23.14318
30
0
11
1.69351573695312
21
-0.139592734421632
31
0
210
0
220
0
230
-1
40
0.596067
41
2.45258117987368
42
2.73081998936413
0
ELLIPSE
5
E8
100
AcDbEntity
8
1
62
256
6
ByLayer
370
-1
48
1
60
0
100
AcDbEllipse
10
38.916912
20
23.601274
30
0
11
-0.970819764076172
21
0.23981031186979
31
0
210
0
220
0
230
1
40
0.647441
41
-0.691942906014676
42
-0.589058424428877
0
ELLIPSE
5
E9
100
AcDbEntity
8
1
62
256
6
ByLayer
370
-1
48
1
60
0
100
AcDbEllipse
10
48.609425
20
35.843943
30
0
11
1.5754860378288
21
-0.00332564415974882
31
0
210
0
220
0
230
-1
40
0.27489
41
1.02782770893521
42
2.64342439722989
0
ELLIPSE
5
EA
100
AcDbEntity
8
1
62
256
6
ByLayer
370
-1
48
1
60
0
100
AcDbEllipse
10
40.068521
20
32.09217
30
0
11
-14.7122673309197
21
2.92389979027205
31
0
210
0
220
0
230
1
40
0.659255
41
1.53917620191887
42
1.60300459536515
0
ELLIPSE
5
EB
100
AcDbEntity
8
1
62
256
6
ByLayer
370
-1
48
1
60
0
100
AcDbEllipse
10
37.77195
20
30.791592
30
0
11
-16.6441013218368
21
3.30783034793747
31
0
210
0
220
0
230
1
40
0.659255
41
1.21102649417907
42
1.53917620191887
0
ELLIPSE
5
EC
100
AcDbEntity
8
1
62
256
6
ByLayer
370
-1
48
1
60
0
100
AcDbEllipse
10
48.793845
20
-23.928685
30
0
11
0.977088878996801
21
1.42331705427111
31
0
210
0
220
0
230
-1
40
0.866881
41
-1.44633837059999
42
-0.324991144660793
0
ELLIPSE
5
ED
100
AcDbEntity
8
1
62
256
6
ByLayer
370
-1
48
1
60
0
100
AcDbEllipse
10
101.578081
20
-8.384364
30
0
11
165.817354442144
21
-41.6251361239106
31
0
210
0
220
0
230
-1
40
0.028291
41
1.89586378505452
42
1.91447928993404
0
ELLIPSE
5
EE
100
AcDbEntity
8
1
62
256
6
ByLayer
370
-1
48
1
60
0
100
AcDbEllipse
10
37.77195
20
-42.950313
30
0
11
-16.2252753988946
21
4.97074326960571
31
0
210
0
220
0
230
1
40
0.865811
41
-0.893351563626797
42
-0.821471411661957
0
ELLIPSE
5
EF
100
AcDbEntity
8
1
62
256
6
ByLayer
370
-1
48
1
60
0
100
AcDbEllipse
10
101.578136
20
-4.05914
30
0
11
165.760241216379
21
-21.1072977834965
31
0
210
0
220
0
230
-1
40
0.213746
41
1.87575482825292
42
1.89437032393294
0
ELLIPSE
5
F0
100
AcDbEntity
8
1
62
256
6
ByLayer
370
-1
48
1
60
0
100
AcDbEllipse
10
49.5452
20
2.889659
30
0
11
19.0629760204814
21
39.7371670919095
31
0
210
0
220
0
230
-1
40
0.283072
41
2.53661606735431
42
2.55297730352718
0
ELLIPSE
5
F1
100
AcDbEntity
8
1
62
256
6
ByLayer
370
-1
48
1
60
0
100
AcDbEllipse
10
101.578076
20
-6.317465
30
0
11
165.743179038773
21
-32.1605231544689
31
0
210
0
220
0
230
-1
40
0.158482
41
-1.95232290622891
42
-1.93370740062802
0
ELLIPSE
5
F2
100
AcDbEntity
8
1
62
256
6
ByLayer
370
-1
48
1
60
0
100
AcDbEllipse
10
40.449304
20
24.45236
30
0
11
2.4893538843198
21
1.65482771085885
31
0
210
0
220
0
230
-1
40
0.437541
41
-2.31076861457297
42
-2.28727524222179
0
ELLIPSE
5
F3
100
AcDbEntity
8
1
62
256
6
ByLayer
370
-1
48
1
60
0
100
AcDbEllipse
10
41.263082
20
-2.543129
30
0
11
0.612526944572097
21
-0.851966699471482
31
0
210
0
220
0
230
-1
40
0.927794
41
1.88842832047976
42
2.13413921891969
0
ELLIPSE
5
F4
100
AcDbEntity
8
1
62
256
6
ByLayer
370
-1
48
1
60
0
100
AcDbEllipse
10
38.115991
20
47.915716
30
0
11
7.19255455629054
21
13.1630983797427
31
0
210
0
220
0
230
1
40
0.985953
41
-3.05630535209508
42
-3.01740473298197
0
ELLIPSE
5
F5
100
AcDbEntity
8
1
62
256
6
ByLayer
370
-1
48
1
60
0
100
AcDbEllipse
10
46.050314
20
-29.146155
30
0
11
-0.907220743737799
21
0.477048762844886
31
0
210
0
220
0
230
1
40
0.850244
41
0.926965857972438
42
-0.70813454900388
0
ELLIPSE
5
F6
100
AcDbEntity
8
1
62
256
6
ByLayer
370
-1
48
1
60
0
100
AcDbEllipse
10
41.263083
20
-4.585322
30
0
11
0.777655458560899
21
-3.60846407055198
31
0
210
0
220
0
230
-1
40
0.174227
41
2.08592115921466
42
2.12010234936734
0
ELLIPSE
5
F7
100
AcDbEntity
8
1
62
256
6
ByLayer
370
-1
48
1
60
0
100
AcDbEllipse
10
50.617779
20
-9.144006
30
0
11
1.9122730956713
21
0.498930268823581
31
0
210
0
220
0
230
1
40
0.241458
41
-2.91466782153295
42
-2.43900019769982
0
ELLIPSE
5
F8
100
AcDbEntity
8
1
62
256
6
ByLayer
370
-1
48
1
60
0
100
AcDbEllipse
10
43.218699
20
0.497372
30
0
11
9.77230266910589
21
38.92732542794
31
0
210
0
220
0
230
-1
40
0.028881
41
1.3529394281404
42
1.54486035573198
0
ELLIPSE
5
F9
100
AcDbEntity
8
1
62
256
6
ByLayer
370
-1
48
1
60
0
100
AcDbEllipse
10
46.313507
20
0.24177
30
0
11
4.98575126734674
21
39.0684078189406
31
0
210
0
220
0
230
-1
40
0.218228
41
2.3782238608274
42
2.49154510471471
0
ELLIPSE
5
FA
100
AcDbEntity
8
1
62
256
6
ByLayer
370
-1
48
1
60
0
100
AcDbEllipse
10
39.616601
20
34.655314
30
0
11
1.59259957842342
21
0.676903241863427
31
0
210
0
220
0
230
-1
40
0.859571
41
-2.48516353344157
42
-2.17183648196198
0
ELLIPSE
5
FB
100
AcDbEntity
8
1
62
256
6
ByLayer
370
-1
48
1
60
0
100
AcDbEllipse
10
39.642446
20
39.236402
30
0
11
1.12176447027039
21
6.7643705778751
31
0
210
0
220
0
230
-1
40
0.144017
41
-2.19611060371041
42
-1.77179147884699
0
ELLIPSE
5
FC
100
AcDbEntity
8
1
62
256
6
ByLayer
370
-1
48
1
60
0
100
AcDbEllipse
10
46.050314
20
-29.146155
30
0
11
1.32764011278702
21
-0.698120140748611
31
0
210
0
220
0
230
1
40
0.850244
41
0.420430095744682
42
2.17162277240441
0
ELLIPSE
5
FD
100
AcDbEntity
8
1
62
256
6
ByLayer
370
-1
48
1
60
0
100
AcDbEllipse
10
39.071099
20
24.225468
30
0
11
1.11424291874947
21
0.604606887646982
31
0
210
0
220
0
230
-1
40
0.40979
41
-1.33079983668485
42
-1.12352508373174
0
ELLIPSE
5
FE
100
AcDbEntity
8
1
62
256
6
ByLayer
370
-1
48
1
60
0
100
AcDbEllipse
10
35.431093
20
-4.942991
30
0
11
0.253250635856078
21
1.98390123631155
31
0
210
0
220
0
230
1
40
0.177133
41
0.609722562452706
42
1.62645839970288
0
ELLIPSE
5
FF
100
AcDbEntity
8
1
62
256
6
ByLayer
370
-1
48
1
60
0
100
AcDbEllipse
10
37.77195
20
-7.382753
30
0
11
-16.7838061110017
21
2.50433680853996
31
0
210
0
220
0
230
1
40
0.116716
41
-1.39148498752435
42
-1.06333527978455
0
ELLIPSE
5
100
100
AcDbEntity
8
1
62
256
6
ByLayer
370
-1
48
1
60
0
100
AcDbEllipse
10
41.263082
20
-2.139451
30
0
11
0.926875731593645
21
0.790082364344923
31
0
210
0
220
0
230
-1
40
0.4751
41
-3.13260122334984
42
-2.7516324532131
0
ELLIPSE
5
101
100
AcDbEntity
8
1
62
256
6
ByLayer
370
-1
48
1
60
0
100
AcDbEllipse
10
40.739101
20
-5.666536
30
0
11
0.306144369355272
21
1.97643002029216
31
0
210
0
220
0
230
1
40
0.047238
41
-1.62821546531151
42
-1.39496845077138
0
ELLIPSE
5
102
100
AcDbEntity
8
1
62
256
6
ByLayer
370
-1
48
1
60
0
100
AcDbEllipse
10
49.54519
20
3.545757
30
0
11
21.632056627578
21
40.0746353709795
31
0
210
0
220
0
230
-1
40
0.116985
41
-1.80647021746546
42
-1.79010897276506
0
ELLIPSE
5
103
100
AcDbEntity
8
1
62
256
6
ByLayer
370
-1
48
1
60
0
100
AcDbEllipse
10
46.313507
20
0.499386
30
0
11
9.81187786192673
21
39.0849706076463
31
0
210
0
220
0
230
-1
40
0.028881
41
1.45112687924742
42
1.56444812311432
0
ELLIPSE
5
104
100
AcDbEntity
8
1
62
256
6
ByLayer
370
-1
48
1
60
0
100
AcDbEllipse
10
39.72448
20
-7.631999
30
0
11
-16.7838061110017
21
2.50433680853996
31
0
210
0
220
0
230
1
40
0.116716
41
-1.61837779028361
42
-1.39148498752435
0
ELLIPSE
5
105
100
AcDbEntity
8
1
62
256
6
ByLayer
370
-1
48
1
60
0
100
AcDbEllipse
10
39.939465
20
-3.720414
30
0
11
1.69532932004055
21
-0.269640486564446
31
0
210
0
220
0
230
-1
40
0.103403
41
-2.20469462440796
42
-1.96342862189777
0
ELLIPSE
5
106
100
AcDbEntity
8
1
62
256
6
ByLayer
370
-1
48
1
60
0
100
AcDbEllipse
10
39.616601
20
23.478368
30
0
11
1.69351573695356
21
-0.139592734421431
31
0
210
0
220
0
230
-1
40
0.596067
41
2.36206760729232
42
-2.57120778155949
0
ELLIPSE
5
107
100
AcDbEntity
8
1
62
256
6
ByLayer
370
-1
48
1
60
0
100
AcDbEllipse
10
41.521027
20
-34.014558
30
0
11
-1.69257396516278
21
0.890015271010744
31
0
210
0
220
0
230
1
40
0.850244
41
-1.84416519862204
42
-1.43451497715184
0
ELLIPSE
5
108
100
AcDbEntity
8
1
62
256
6
ByLayer
370
-1
48
1
60
0
100
AcDbEllipse
10
48.069149
20
9.063168
30
0
11
1.56102701191356
21
0.388918894964501
31
0
210
0
220
0
230
-1
40
0.646373
41
-2.83700326466078
42
-0.353861039736859
0
ELLIPSE
5
109
100
AcDbEntity
8
1
62
256
6
ByLayer
370
-1
48
1
60
0
100
AcDbEllipse
10
37.383623
20
-5.192237
30
0
11
0.253250635856078
21
1.98390123631155
31
0
210
0
220
0
230
1
40
0.177133
41
0.753712148461331
42
1.62645839970288
0
ELLIPSE
5
10A
100
AcDbEntity
8
1
62
256
6
ByLayer
370
-1
48
1
60
0
100
AcDbEllipse
10
43.218699
20
0.374762
30
0
11
7.55869363602883
21
38.9077596598292
31
0
210
0
220
0
230
-1
40
0.161795
41
-0.735877252267701
42
-0.506647839076092
0
ELLIPSE
5
10B
100
AcDbEntity
8
1
62
256
6
ByLayer
370
-1
48
1
60
0
100
AcDbEllipse
10
46.050314
20
1.132946
30
0
11
-0.99331764464335
21
0.2528735985432
31
0
210
0
220
0
230
1
40
0.117801
41
0
42
6.28318530717959
0
ELLIPSE
5
10C
100
AcDbEntity
8
1
62
256
6
ByLayer
370
-1
48
1
60
0
100
AcDbEllipse
10
46.313507
20
-0.182584
30
0
11
3.79204039674943
21
-39.0732114776498
31
0
210
0
220
0
230
-1
40
0.233399
41
0.159848281393781
42
0.26850916857596
0
ELLIPSE
5
10D
100
AcDbEntity
8
1
62
256
6
ByLayer
370
-1
48
1
60
0
100
AcDbEllipse
10
50.604979
20
-10.001327
30
0
11
-1.82124016317626
21
0.281740151892108
31
0
210
0
220
0
230
1
40
0.671463
41
0.0117919736614458
42
0.160445416812354
0
ELLIPSE
5
10E
100
AcDbEntity
8
1
62
256
6
ByLayer
370
-1
48
1
60
0
100
AcDbEllipse
10
39.642446
20
26.538441
30
0
11
1.12732383786107
21
4.38871512087343
31
0
210
0
220
0
230
-1
40
0.220508
41
-2.20183620224908
42
-1.77751707738623
0
ELLIPSE
5
10F
100
AcDbEntity
8
1
62
256
6
ByLayer
370
-1
48
1
60
0
100
AcDbEllipse
10
85.178004
20
-6.191522
30
0
11
162.438649623261
21
-31.5193216048428
31
0
210
0
220
0
230
-1
40
0.158482
41
-1.86594590148114
42
-1.82852157416949
0
ELLIPSE
5
110
100
AcDbEntity
8
1
62
256
6
ByLayer
370
-1
48
1
60
0
100
AcDbEllipse
10
40.739101
20
20.535034
30
0
11
0.13293803329459
21
1.99557697904735
31
0
210
0
220
0
230
1
40
0.145898
41
-2.47468047251815
42
-1.11523238337073
0
ELLIPSE
5
111
100
AcDbEntity
8
1
62
256
6
ByLayer
370
-1
48
1
60
0
100
AcDbEllipse
10
44.304034
20
36.513516
30
0
11
0.50541649000721
21
1.64929656873129
31
0
210
0
220
0
230
1
40
0.966615
41
1.41847816216104
42
2.53139556235887
0
ELLIPSE
5
112
100
AcDbEntity
8
1
62
256
6
ByLayer
370
-1
48
1
60
0
100
AcDbEllipse
10
43.523798
20
35.849462
30
0
11
-0.123643918135097
21
-0.40348008811861
31
0
210
0
220
0
230
1
40
0.966615
41
2.40097047577464
42
3.14158184339968
0
ELLIPSE
5
113
100
AcDbEntity
8
1
62
256
6
ByLayer
370
-1
48
1
60
0
100
AcDbEllipse
10
44.506413
20
36.451499
30
0
11
-0.219160309869792
21
-0.715173236760001
31
0
210
0
220
0
230
1
40
0.966615
41
-2.79685693846136
42
-1.78696174935186
0
ELLIPSE
5
114
100
AcDbEntity
8
1
62
256
6
ByLayer
370
-1
48
1
60
0
100
AcDbEllipse
10
44.304034
20
36.513516
30
0
11
0.50541649000721
21
1.64929656873129
31
0
210
0
220
0
230
1
40
0.966615
41
-1.86782020695057
42
-1.28281722988722
0
ELLIPSE
5
115
100
AcDbEntity
8
1
62
256
6
ByLayer
370
-1
48
1
60
0
100
AcDbEllipse
10
44.304034
20
36.513516
30
0
11
0.50541649000721
21
1.64929656873129
31
0
210
0
220
0
230
1
40
0.966615
41
-1.28281722988721
42
0
0
ELLIPSE
5
116
100
AcDbEntity
8
1
62
256
6
ByLayer
370
-1
48
1
60
0
100
AcDbEllipse
10
44.304034
20
36.513516
30
0
11
0.50541649000721
21
1.64929656873129
31
0
210
0
220
0
230
1
40
0.966615
41
0
42
1.43772413611397
0
ELLIPSE
5
117
100
AcDbEntity
8
1
62
256
6
ByLayer
370
-1
48
1
60
0
100
AcDbEllipse
10
44.506413
20
35.286484
30
0
11
-0.123643918135097
21
-0.40348008811861
31
0
210
0
220
0
230
1
40
0.966615
41
2.84136351037458
42
3.1415882905908
0
ELLIPSE
5
118
100
AcDbEntity
8
1
62
256
6
ByLayer
370
-1
48
1
60
0
100
AcDbEllipse
10
44.919074
20
37.193121
30
0
11
-0.0542040873341064
21
-0.176881081284225
31
0
210
0
220
0
230
1
40
0.966615
41
-2.35792016408703
42
-2.05750209048648
0
ELLIPSE
5
119
100
AcDbEntity
8
1
62
256
6
ByLayer
370
-1
48
1
60
0
100
AcDbEllipse
10
44.506413
20
36.451499
30
0
11
-0.219160309869792
21
-0.715173236760001
31
0
210
0
220
0
230
1
40
0.966615
41
-1.78696174935186
42
-0.740622177815172
0
ELLIPSE
5
11A
100
AcDbEntity
8
1
62
256
6
ByLayer
370
-1
48
1
60
0
100
AcDbEllipse
10
44.261425
20
36.526574
30
0
11
0.303249894004326
21
0.989577941238771
31
0
210
0
220
0
230
1
40
0.966615
41
-0.217452392046815
42
0.831461118469599
0
ELLIPSE
5
11B
100
AcDbEntity
8
1
62
256
6
ByLayer
370
-1
48
1
60
0
100
AcDbEllipse
10
44.093752
20
37.176972
30
0
11
-0.0542040873341064
21
-0.176881081284225
31
0
210
0
220
0
230
1
40
0.966615
41
-2.52536165139845
42
-1.01206202149937
0
ELLIPSE
5
11C
100
AcDbEntity
8
1
62
256
6
ByLayer
370
-1
48
1
60
0
100
AcDbEllipse
10
43.523798
20
35.849462
30
0
11
-0.123643918135097
21
-0.40348008811861
31
0
210
0
220
0
230
1
40
0.966615
41
1.62607074792216
42
2.40097047577464
0
ELLIPSE
5
11D
100
AcDbEntity
8
1
62
256
6
ByLayer
370
-1
48
1
60
0
100
AcDbEllipse
10
43.682316
20
36.435374
30
0
11
-0.0542040873341064
21
-0.176881081284225
31
0
210
0
220
0
230
1
40
0.966615
41
-2.56186147720427
42
-0.0621043544944328
0
ELLIPSE
5
11E
100
AcDbEntity
8
1
62
256
6
ByLayer
370
-1
48
1
60
0
100
AcDbEllipse
10
44.261425
20
36.526574
30
0
11
0.303249894004326
21
0.989577941238771
31
0
210
0
220
0
230
1
40
0.966615
41
-2.31013153512019
42
-1.2637919635835
0
ELLIPSE
5
11F
100
AcDbEntity
8
1
62
256
6
ByLayer
370
-1
48
1
60
0
100
AcDbEllipse
10
44.261425
20
36.526574
30
0
11
0.303249894004326
21
0.989577941238771
31
0
210
0
220
0
230
1
40
0.966615
41
0.831461118469599
42
1.87780069000629
0
ELLIPSE
5
120
100
AcDbEntity
8
1
62
256
6
ByLayer
370
-1
48
1
60
0
100
AcDbEllipse
10
44.261425
20
36.526574
30
0
11
0.3808935866721
21
1.24294813875401
31
0
210
0
220
0
230
1
40
0.966615
41
-2.16862815020316
42
-1.28281739755587
0
ELLIPSE
5
121
100
AcDbEntity
8
1
62
256
6
ByLayer
370
-1
48
1
60
0
100
AcDbEllipse
10
44.261425
20
36.526574
30
0
11
0.3808935866721
21
1.24294813875401
31
0
210
0
220
0
230
1
40
0.966615
41
-1.28281739755587
42
0
0
ELLIPSE
5
122
100
AcDbEntity
8
1
62
256
6
ByLayer
370
-1
48
1
60
0
100
AcDbEllipse
10
44.261425
20
36.526574
30
0
11
0.3808935866721
21
1.24294813875401
31
0
210
0
220
0
230
1
40
0.966615
41
0
42
2.82316640469756
0
ELLIPSE
5
123
100
AcDbEntity
8
1
62
256
6
ByLayer
370
-1
48
1
60
0
100
AcDbEllipse
10
44.506413
20
36.451499
30
0
11
0.219160309869793
21
0.71517323676
31
0
210
0
220
0
230
1
40
0.966615
41
-2.7517746777418
42
-2.30992986273581
0
ELLIPSE
5
124
100
AcDbEntity
8
1
62
256
6
ByLayer
370
-1
48
1
60
0
100
AcDbEllipse
10
44.261425
20
36.526574
30
0
11
0.303249894004326
21
0.989577941238771
31
0
210
0
220
0
230
1
40
0.966615
41
-2.69128069685097
42
-2.31013153512019
0
ELLIPSE
5
125
100
AcDbEntity
8
1
62
256
6
ByLayer
370
-1
48
1
60
0
100
AcDbEllipse
10
44.261425
20
36.526574
30
0
11
0.303249894004326
21
0.989577941238771
31
0
210
0
220
0
230
1
40
0.966615
41
2.92414026154299
42
-2.7674742010053
0
ELLIPSE
5
126
100
AcDbEntity
8
1
62
256
6
ByLayer
370
-1
48
1
60
0
100
AcDbEllipse
10
43.523798
20
37.015082
30
0
11
-0.123643918135097
21
-0.40348008811861
31
0
210
0
220
0
230
1
40
0.966615
41
0.579731176385484
42
1.35463090423794
0
ELLIPSE
5
127
100
AcDbEntity
8
1
62
256
6
ByLayer
370
-1
48
1
60
0
100
AcDbEllipse
10
44.261425
20
36.526574
30
0
11
0.303249894004326
21
0.989577941238771
31
0
210
0
220
0
230
1
40
0.966615
41
1.87780069000629
42
2.92414026154299
0
ELLIPSE
5
128
100
AcDbEntity
8
1
62
256
6
ByLayer
370
-1
48
1
60
0
100
AcDbEllipse
10
44.506413
20
37.616513
30
0
11
-0.123643918135097
21
-0.40348008811861
31
0
210
0
220
0
230
1
40
0.966615
41
-1.91148695148941E-06
42
0.240091040895234
0
ELLIPSE
5
129
100
AcDbEntity
8
1
62
256
6
ByLayer
370
-1
48
1
60
0
100
AcDbEllipse
10
44.302019
20
36.514134
30
0
11
0.219160309869793
21
0.71517323676
31
0
210
0
220
0
230
1
40
0.966615
41
0.269273011294354
42
0.344735715128424
0
ELLIPSE
5
12A
100
AcDbEntity
8
1
62
256
6
ByLayer
370
-1
48
1
60
0
100
AcDbEllipse
10
44.506413
20
36.451499
30
0
11
-0.219160309869792
21
-0.715173236760001
31
0
210
0
220
0
230
1
40
0.966615
41
2.91940992760005
42
-2.87231964229545
0
ELLIPSE
5
12B
100
AcDbEntity
8
1
62
256
6
ByLayer
370
-1
48
1
60
0
100
AcDbEllipse
10
44.506413
20
37.616513
30
0
11
-0.123643918135097
21
-0.40348008811861
31
0
210
0
220
0
230
1
40
0.966615
41
0.373917685527532
42
1.08409056310336
0
ELLIPSE
5
12C
100
AcDbEntity
8
1
62
256
6
ByLayer
370
-1
48
1
60
0
100
AcDbEllipse
10
44.302019
20
36.514134
30
0
11
0.219160309869793
21
0.71517323676
31
0
210
0
220
0
230
1
40
0.966615
41
-2.87231964229544
42
-2.79685693846135
0
ELLIPSE
5
12D
100
AcDbEntity
8
1
62
256
6
ByLayer
370
-1
48
1
60
0
100
AcDbEllipse
10
44.506413
20
36.451499
30
0
11
-0.219160309869792
21
-0.715173236760001
31
0
210
0
220
0
230
1
40
0.966615
41
1.81995791746232
42
2.2021658151284
0
ELLIPSE
5
12E
100
AcDbEntity
8
1
62
256
6
ByLayer
370
-1
48
1
60
0
100
AcDbEllipse
10
44.506413
20
36.451499
30
0
11
0.219160309869793
21
0.71517323676
31
0
210
0
220
0
230
1
40
0.966615
41
0.269273011294354
42
0.344735715128433
0
ELLIPSE
5
12F
100
AcDbEntity
8
1
62
256
6
ByLayer
370
-1
48
1
60
0
100
AcDbEllipse
10
43.523798
20
37.015082
30
0
11
-0.123643918135097
21
-0.40348008811861
31
0
210
0
220
0
230
1
40
0.966615
41
1.35463090423794
42
2.12953063209038
0
ELLIPSE
5
130
100
AcDbEntity
8
1
62
256
6
ByLayer
370
-1
48
1
60
0
100
AcDbEllipse
10
44.506413
20
36.451499
30
0
11
-0.219160309869792
21
-0.715173236760001
31
0
210
0
220
0
230
1
40
0.966615
41
-0.740622177815172
42
-0.0635189959857904
0
ELLIPSE
5
131
100
AcDbEntity
8
1
62
256
6
ByLayer
370
-1
48
1
60
0
100
AcDbEllipse
10
44.261425
20
36.526574
30
0
11
0.303249894004326
21
0.989577941238771
31
0
210
0
220
0
230
1
40
0.966615
41
-1.2637919635835
42
-0.217452392046815
0
ELLIPSE
5
132
100
AcDbEntity
8
1
62
256
6
ByLayer
370
-1
48
1
60
0
100
AcDbEllipse
10
44.093752
20
35.709877
30
0
11
-0.0542040873341064
21
-0.176881081284225
31
0
210
0
220
0
230
1
40
0.966615
41
-1.51552190566762
42
-0.761270800205361
0
ELLIPSE
5
133
100
AcDbEntity
8
1
62
256
6
ByLayer
370
-1
48
1
60
0
100
AcDbEllipse
10
44.304034
20
22.989505
30
0
11
-1.6342439476109
21
0.552151899115777
31
0
210
0
220
0
230
1
40
0.643582
41
0.0546758151567023
42
0.907304543024871
0
ELLIPSE
5
134
100
AcDbEntity
8
1
62
256
6
ByLayer
370
-1
48
1
60
0
100
AcDbEllipse
10
44.304034
20
22.989505
30
0
11
-1.6342439476109
21
0.552151899115777
31
0
210
0
220
0
230
1
40
0.643582
41
2.89570862522361
42
-3.08692142399765
0
ELLIPSE
5
135
100
AcDbEntity
8
1
62
256
6
ByLayer
370
-1
48
1
60
0
100
AcDbEllipse
10
45.412869
20
-30.690722
30
0
11
-0.840838738098447
21
0.442142755807455
31
0
210
0
220
0
230
1
40
0.850244
41
0
42
6.28318530717959
0
ELLIPSE
5
136
100
AcDbEntity
8
1
62
256
6
ByLayer
370
-1
48
1
60
0
100
AcDbEllipse
10
45.412869
20
-30.690722
30
0
11
-0.840838738098447
21
0.442142755807455
31
0
210
0
220
0
230
1
40
0.850244
41
-1.60685175038266
42
-1.37682826065011
0
ELLIPSE
5
137
100
AcDbEntity
8
1
62
256
6
ByLayer
370
-1
48
1
60
0
100
AcDbEllipse
10
44.304034
20
-6.075078
30
0
11
-1.67168091415588
21
0.42556776340197
31
0
210
0
220
0
230
1
40
0.117801
41
0.2507211449571
42
2.50402862605522
0
ELLIPSE
5
138
100
AcDbEntity
8
1
62
256
6
ByLayer
370
-1
48
1
60
0
100
AcDbEllipse
10
44.304034
20
-6.075078
30
0
11
-1.67168091415588
21
0.42556776340197
31
0
210
0
220
0
230
1
40
0.117801
41
3.09258842370136
42
0
0
ELLIPSE
5
139
100
AcDbEntity
8
1
62
256
6
ByLayer
370
-1
48
1
60
0
100
AcDbEllipse
10
44.261425
20
-6.242454
30
0
11
-1.25981750052327
21
0.320717734737717
31
0
210
0
220
0
230
1
40
0.117801
41
0.352431498969787
42
2.78912929005361
0
ELLIPSE
5
13A
100
AcDbEntity
8
1
62
256
6
ByLayer
370
-1
48
1
60
0
100
AcDbEllipse
10
44.261425
20
-6.242454
30
0
11
-1.25981750052327
21
0.320717734737717
31
0
210
0
220
0
230
1
40
0.117801
41
3.0925887735921
42
0
0
ELLIPSE
5
13B
100
AcDbEntity
8
1
62
256
6
ByLayer
370
-1
48
1
60
0
100
AcDbEllipse
10
44.304034
20
22.989505
30
0
11
-1.6342439476109
21
0.552151899115777
31
0
210
0
220
0
230
1
40
0.643582
41
-3.08692040208562
42
0
0
ELLIPSE
5
13C
100
AcDbEntity
8
1
62
256
6
ByLayer
370
-1
48
1
60
0
100
AcDbEllipse
10
44.304034
20
22.989505
30
0
11
-1.6342439476109
21
0.552151899115777
31
0
210
0
220
0
230
1
40
0.643582
41
0.907221516303652
42
-3.1415064916551
0
ELLIPSE
5
13D
100
AcDbEntity
8
1
62
256
6
ByLayer
370
-1
48
1
60
0
100
AcDbEllipse
10
44.304034
20
22.989505
30
0
11
-1.6342439476109
21
0.552151899115777
31
0
210
0
220
0
230
1
40
0.643582
41
0
42
0.0750928495628947
0
ELLIPSE
5
13E
100
AcDbEntity
8
1
62
256
6
ByLayer
370
-1
48
1
60
0
100
AcDbEllipse
10
44.261425
20
22.863389
30
0
11
-0.980546368566536
21
0.331291139469466
31
0
210
0
220
0
230
1
40
0.643582
41
-2.9274826758861
42
-1.88114310434941
0
ELLIPSE
5
13F
100
AcDbEntity
8
1
62
256
6
ByLayer
370
-1
48
1
60
0
100
AcDbEllipse
10
44.261425
20
22.863389
30
0
11
-0.980546368566536
21
0.331291139469466
31
0
210
0
220
0
230
1
40
0.643582
41
1.26044954924038
42
2.3093630597568
0
ELLIPSE
5
140
100
AcDbEntity
8
1
62
256
6
ByLayer
370
-1
48
1
60
0
100
AcDbEllipse
10
44.261425
20
22.863389
30
0
11
-0.980546368566536
21
0.331291139469466
31
0
210
0
220
0
230
1
40
0.643582
41
0.214109977703682
42
1.26044954924038
0
ELLIPSE
5
141
100
AcDbEntity
8
1
62
256
6
ByLayer
370
-1
48
1
60
0
100
AcDbEllipse
10
44.302019
20
22.983539
30
0
11
-0.708646071195912
21
0.239425866978899
31
0
210
0
220
0
230
1
40
0.643582
41
-1.39441770100825
42
-1.31895499717416
0
ELLIPSE
5
142
100
AcDbEntity
8
1
62
256
6
ByLayer
370
-1
48
1
60
0
100
AcDbEllipse
10
43.523798
20
23.386158
30
0
11
0.399797649792346
21
-0.135077160247454
31
0
210
0
220
0
230
1
40
0.643582
41
0.737279763472047
42
1.14686319622911
0
ELLIPSE
5
143
100
AcDbEntity
8
1
62
256
6
ByLayer
370
-1
48
1
60
0
100
AcDbEllipse
10
43.523798
20
23.386158
30
0
11
0.399797649792346
21
-0.135077160247454
31
0
210
0
220
0
230
1
40
0.643582
41
1.24424275531971E-05
42
0.737279763472047
0
ELLIPSE
5
144
100
AcDbEntity
8
1
62
256
6
ByLayer
370
-1
48
1
60
0
100
AcDbEllipse
10
44.506413
20
22.81282
30
0
11
0.399797649792346
21
-0.135077160247454
31
0
210
0
220
0
230
1
40
0.643582
41
1.00782010460663
42
1.71799298218242
0
ELLIPSE
5
145
100
AcDbEntity
8
1
62
256
6
ByLayer
370
-1
48
1
60
0
100
AcDbEllipse
10
44.093752
20
23.178082
30
0
11
0.175266742207545
21
-0.0592162906298081
31
0
210
0
220
0
230
1
40
0.643582
41
-3.07339989070531
42
-0.579600149199247
0
ELLIPSE
5
146
100
AcDbEntity
8
1
62
256
6
ByLayer
370
-1
48
1
60
0
100
AcDbEllipse
10
44.506413
20
22.81282
30
0
11
0.399797649792346
21
-0.135077160247454
31
0
210
0
220
0
230
1
40
0.643582
41
1.85181962681474
42
2.56199250439054
0
ELLIPSE
5
147
100
AcDbEntity
8
1
62
256
6
ByLayer
370
-1
48
1
60
0
100
AcDbEllipse
10
44.261425
20
22.863389
30
0
11
-0.980546368566536
21
0.331291139469466
31
0
210
0
220
0
230
1
40
0.643582
41
2.3093630597568
42
-2.9274826758861
0
ELLIPSE
5
148
100
AcDbEntity
8
1
62
256
6
ByLayer
370
-1
48
1
60
0
100
AcDbEllipse
10
44.261425
20
22.863389
30
0
11
-0.980546368566536
21
0.331291139469466
31
0
210
0
220
0
230
1
40
0.643582
41
-0.832229593833008
42
0.214109977703682
0
ELLIPSE
5
149
100
AcDbEntity
8
1
62
256
6
ByLayer
370
-1
48
1
60
0
100
AcDbEllipse
10
44.261425
20
22.863389
30
0
11
-0.980546368566536
21
0.331291139469466
31
0
210
0
220
0
230
1
40
0.643582
41
-1.88114310434941
42
-0.832229593833008
0
ELLIPSE
5
14A
100
AcDbEntity
8
1
62
256
6
ByLayer
370
-1
48
1
60
0
100
AcDbEllipse
10
44.506413
20
23.588498
30
0
11
-0.708646071195912
21
0.239425866978899
31
0
210
0
220
0
230
1
40
0.643582
41
1.82263765641564
42
2.41798692609792
0
ELLIPSE
5
14B
100
AcDbEntity
8
1
62
256
6
ByLayer
370
-1
48
1
60
0
100
AcDbEllipse
10
44.506413
20
23.588498
30
0
11
-0.708646071195912
21
0.239425866978899
31
0
210
0
220
0
230
1
40
0.643582
41
1.74717495258155
42
1.82263765641564
0
ELLIPSE
5
14C
100
AcDbEntity
8
1
62
256
6
ByLayer
370
-1
48
1
60
0
100
AcDbEllipse
10
44.506413
20
23.588498
30
0
11
0.708646071195912
21
-0.239425866978899
31
0
210
0
220
0
230
1
40
0.643582
41
-2.40431289011775
42
-1.39441770100825
0
ELLIPSE
5
14D
100
AcDbEntity
8
1
62
256
6
ByLayer
370
-1
48
1
60
0
100
AcDbEllipse
10
44.919074
20
23.022108
30
0
11
0.175266742207545
21
-0.0592162906298081
31
0
210
0
220
0
230
1
40
0.643582
41
-2.13377254898315
42
-0.862685205050324
0
ELLIPSE
5
14E
100
AcDbEntity
8
1
62
256
6
ByLayer
370
-1
48
1
60
0
100
AcDbEllipse
10
44.506413
20
23.588498
30
0
11
0.708646071195912
21
-0.239425866978899
31
0
210
0
220
0
230
1
40
0.643582
41
-2.60171157176396
42
-2.40431289011775
0
ELLIPSE
5
14F
100
AcDbEntity
8
1
62
256
6
ByLayer
370
-1
48
1
60
0
100
AcDbEllipse
10
44.261425
20
22.863389
30
0
11
-1.2316041344314
21
0.416114474695948
31
0
210
0
220
0
230
1
40
0.643582
41
0
42
6.28318530717959
0
ELLIPSE
5
150
100
AcDbEntity
8
1
62
256
6
ByLayer
370
-1
48
1
60
0
100
AcDbEllipse
10
44.302019
20
22.983539
30
0
11
-0.708646071195912
21
0.239425866978899
31
0
210
0
220
0
230
1
40
0.643582
41
1.74717495258155
42
1.82263765641563
0
POINT
5
42
100
AcDbEntity
8
2
62
256
6
ByLayer
370
-1
48
1
60
0
100
AcDbPoint
10
50
20
39.935
30
0
39
0
210
0
220
0
230
1
50
360
0
POINT
5
44
100
AcDbEntity
8
81
62
256
6
ByLayer
370
-1
48
1
60
0
100
AcDbPoint
10
50
20
39.935
30
0
39
0
210
0
220
0
230
1
50
360
0
POINT
5
46
100
AcDbEntity
8
80
62
256
6
ByLayer
370
-1
48
1
60
0
100
AcDbPoint
10
0
20
0
30
0
39
0
210
0
220
0
230
1
50
360
0
SPLINE
5
151
100
AcDbEntity
8
1
62
256
6
ByLayer
370
-1
48
1
60
0
100
AcDbSpline
70
4
71
1
72
4
73
2
40
0
40
0
40
1
40
1
41
1
10
49.5089291565361
20
-10.2527849605759
30
0
41
1
10
49.7958143399333
20
-7.91766182165003
30
0
0
SPLINE
5
152
100
AcDbEntity
8
1
62
256
6
ByLayer
370
-1
48
1
60
0
100
AcDbSpline
70
4
71
1
72
4
73
2
40
0
40
0
40
1
40
1
41
1
10
49.8914934058028
20
-7.138874998375
30
0
41
1
10
49.9716356160965
20
-6.48655155857443
30
0
0
SPLINE
5
153
100
AcDbEntity
8
1
62
256
6
ByLayer
370
-1
48
1
60
0
100
AcDbSpline
70
4
71
3
72
13
73
9
40
0
40
0
40
0
40
0
40
0.0584441167553946
40
0.120713931704245
40
0.192612387282982
40
0.434836168336846
40
0.764046093418958
40
1
40
1
40
1
40
1
41
1
10
49.2901192951734
20
-8.79154188668119
30
0
41
1
10
49.2910580306693
20
-8.79151547821874
30
0
41
1
10
49.2933095692972
20
-8.78362887630203
30
0
41
1
10
49.2975676130106
20
-8.74467430358601
30
0
41
1
10
49.3057991724724
20
-8.6372412131025
30
0
41
1
10
49.3184824093358
20
-8.41208660768618
30
0
41
1
10
49.3340105584002
20
-8.12953502135898
30
0
41
1
10
49.3450006159244
20
-7.92800181254927
30
0
41
1
10
49.3496264932595
20
-7.84351132783306
30
0
0
SPLINE
5
154
100
AcDbEntity
8
1
62
256
6
ByLayer
370
-1
48
1
60
0
100
AcDbSpline
70
4
71
3
72
8
73
4
40
0
40
0
40
0
40
0
40
1
40
1
40
1
40
1
41
1
10
49.4313771752113
20
-36.3729611374508
30
0
41
1
10
49.4359979347288
20
-36.3619245796469
30
0
41
1
10
49.4406908051344
20
-36.3508717297402
30
0
41
1
10
49.44545927235
20
-36.3398004976446
30
0
0
SPLINE
5
155
100
AcDbEntity
8
1
62
256
6
ByLayer
370
-1
48
1
60
0
100
AcDbSpline
70
4
71
3
72
8
73
4
40
0
40
0
40
0
40
0
40
1
40
1
40
1
40
1
41
1
10
49.4279475866804
20
-30.7845342363197
30
0
41
1
10
49.4286798340314
20
-30.7762102538066
30
0
41
1
10
49.4294132480577
20
-30.7678888226243
30
0
41
1
10
49.430147825606
20
-30.7595700086396
30
0
0
SPLINE
5
156
100
AcDbEntity
8
1
62
256
6
ByLayer
370
-1
48
1
60
0
100
AcDbSpline
70
4
71
1
72
4
73
2
40
0
40
0
40
1
40
1
41
1
10
39.4140577287103
20
-3.33385302675382
30
-6E-16
41
1
10
38.5877376292368
20
-4.49173961153059
30
-7E-16
0
SPLINE
5
157
100
AcDbEntity
8
1
62
256
6
ByLayer
370
-1
48
1
60
0
100
AcDbSpline
70
4
71
3
72
12
73
8
40
0
40
0
40
0
40
0
40
0.0062568151712308
40
0.100560578299882
40
0.323181610073612
40
0.61860532722811
40
1
40
1
40
1
40
1
41
1
10
39.8090923026166
20
-4.01852978253575
30
-6E-16
41
1
10
39.8090395164924
20
-4.01849813690072
30
-6E-16
41
1
10
39.808054804481
20
-4.01822787388471
30
-6E-16
41
1
10
39.7978179227387
20
-4.0297449807278
30
-6E-16
41
1
10
39.7491608609628
20
-4.10429084006449
30
-6E-16
41
1
10
39.6567705338153
20
-4.25360769287971
30
-6E-16
41
1
10
39.5821978138818
20
-4.37530949756584
30
-6E-16
41
1
10
39.5370743593107
20
-4.4497324542065
30
-6E-16
0
SPLINE
5
158
100
AcDbEntity
8
1
62
256
6
ByLayer
370
-1
48
1
60
0
100
AcDbSpline
70
4
71
3
72
12
73
8
40
0
40
0
40
0
40
0
40
0.295054270561288
40
0.552796401605328
40
0.773080978935969
40
0.956273228036434
40
1
40
1
40
1
40
1
41
1
10
39.1662849595001
20
-4.94874888012455
30
-7E-16
41
1
10
39.5240827462402
20
-5.03546399928933
30
-6E-16
41
1
10
40.1952346031273
20
-5.19398264850599
30
-6E-16
41
1
10
41.1397401223481
20
-5.38798120030461
30
-5E-16
41
1
10
41.9431041584003
20
-5.57378504739728
30
-5E-16
41
1
10
42.4843080746103
20
-5.70812181722351
30
-5E-16
41
1
10
42.7577870739263
20
-5.77931983497376
30
-4E-16
41
1
10
42.8104523614383
20
-5.79314289417638
30
-4E-16
0
SPLINE
5
159
100
AcDbEntity
8
1
62
256
6
ByLayer
370
-1
48
1
60
0
100
AcDbSpline
70
4
71
1
72
4
73
2
40
0
40
0
40
1
40
1
41
1
10
49.9718910655513
20
-7.8180431380986
30
0
41
1
10
49.5101278345166
20
-3.9168259964006
30
0
0
SPLINE
5
15A
100
AcDbEntity
8
1
62
256
6
ByLayer
370
-1
48
1
60
0
100
AcDbSpline
70
4
71
3
72
9
73
5
40
0
40
0
40
0
40
0
40
0.84924554278388
40
1
40
1
40
1
40
1
41
1
10
49.434949218391
20
20.8105162094992
30
0
41
1
10
49.4212488993333
20
21.0271293784513
30
0
41
1
10
49.4053921786792
20
21.2844318213031
30
0
41
1
10
49.3898508306314
20
21.5436300990733
30
0
41
1
10
49.387515218675
20
21.5827603974546
30
0
0
SPLINE
5
15B
100
AcDbEntity
8
1
62
256
6
ByLayer
370
-1
48
1
60
0
100
AcDbSpline
70
4
71
3
72
10
73
6
40
0
40
0
40
0
40
0
40
0.306982816463361
40
0.64015359257897
40
1
40
1
40
1
40
1
41
1
10
49.9649026404315
20
23.5134233864127
30
0
41
1
10
49.9120091584931
20
23.7698860071001
30
0
41
1
10
49.8055478001754
20
24.306977104159
30
0
41
1
10
49.6578076579747
20
25.1514585197485
30
0
41
1
10
49.556059090874
20
25.7451352650643
30
0
41
1
10
49.5045619829683
20
26.0552954436559
30
0
0
SPLINE
5
15C
100
AcDbEntity
8
1
62
256
6
ByLayer
370
-1
48
1
60
0
100
AcDbSpline
70
4
71
2
72
6
73
3
40
0
40
0
40
0
40
1
40
1
40
1
41
1
10
40.1135790975247
20
26.6853912572726
30
-6E-16
41
1
10
40.0427942429709
20
26.6993871251376
30
-6E-16
41
1
10
39.9722777665457
20
26.7065367240157
30
-6E-16
0
SPLINE
5
15D
100
AcDbEntity
8
1
62
256
6
ByLayer
370
-1
48
1
60
0
100
AcDbSpline
70
4
71
2
72
6
73
3
40
0
40
0
40
0
40
1
40
1
40
1
41
1
10
48.8412515607003
20
20.6001894062459
30
-1E-16
41
1
10
48.9478432603107
20
20.5819751638413
30
-1E-16
41
1
10
49.0529175850425
20
20.5702886340828
30
-1E-16
0
SPLINE
5
15E
100
AcDbEntity
8
1
62
256
6
ByLayer
370
-1
48
1
60
0
100
AcDbSpline
70
4
71
3
72
10
73
6
40
0
40
0
40
0
40
0
40
0.285183237247224
40
0.618838823531767
40
1
40
1
40
1
40
1
41
1
10
41.1835913513505
20
27.7717742810106
30
-5E-16
41
1
10
41.0361410186973
20
27.6605696696621
30
-5E-16
41
1
10
40.718459256554
20
27.4222522892418
30
-6E-16
41
1
10
40.2126886621596
20
27.0486485176973
30
-6E-16
41
1
10
39.8583981966503
20
26.7887178159021
30
-6E-16
41
1
10
39.6714505583091
20
26.652356041803
30
-6E-16
0
SPLINE
5
15F
100
AcDbEntity
8
1
62
256
6
ByLayer
370
-1
48
1
60
0
100
AcDbSpline
70
4
71
1
72
4
73
2
40
0
40
0
40
1
40
1
41
1
10
49.507412226752
20
20.7651850030491
30
0
41
1
10
49.7113751804765
20
22.1919762537665
30
0
0
SPLINE
5
160
100
AcDbEntity
8
1
62
256
6
ByLayer
370
-1
48
1
60
0
100
AcDbSpline
70
4
71
1
72
4
73
2
40
0
40
0
40
1
40
1
41
1
10
49.9274420133346
20
23.7034383161784
30
0
41
1
10
49.9726660734677
20
24.0197962240313
30
0
0
SPLINE
5
161
100
AcDbEntity
8
1
62
256
6
ByLayer
370
-1
48
1
60
0
100
AcDbSpline
70
4
71
1
72
4
73
2
40
0
40
0
40
1
40
1
41
1
10
49.2717471546364
20
18.815368572778
30
0
41
1
10
49.4440448038637
20
20.6706350568671
30
0
0
SPLINE
5
162
100
AcDbEntity
8
1
62
256
6
ByLayer
370
-1
48
1
60
0
100
AcDbSpline
70
4
71
2
72
6
73
3
40
0
40
0
40
0
40
1
40
1
40
1
41
1
10
48.9363537495683
20
20.1830651086493
30
-1E-16
41
1
10
49.0079579712649
20
20.1972751218632
30
-1E-16
41
1
10
49.0783757886799
20
20.2175005917955
30
-1E-16
0
SPLINE
5
163
100
AcDbEntity
8
1
62
256
6
ByLayer
370
-1
48
1
60
0
100
AcDbSpline
70
4
71
3
72
13
73
9
40
0
40
0
40
0
40
0
40
0.253504418901925
40
0.472223949051951
40
0.656674024528696
40
0.807389617355053
40
0.925234074300762
40
1
40
1
40
1
40
1
41
1
10
49.9343174883036
20
-34.4009601276829
30
0
41
1
10
49.9018408984041
20
-34.2900494721451
30
0
41
1
10
49.8384445638633
20
-34.0747472798209
30
0
41
1
10
49.7447929859785
20
-33.756130590775
30
0
41
1
10
49.657254368009
20
-33.4660003134511
30
0
41
1
10
49.5764580203056
20
-33.2059193229548
30
0
41
1
10
49.507574668072
20
-32.9839133817014
30
0
41
1
10
49.4639702164204
20
-32.8375840707084
30
0
41
1
10
49.4465912661015
20
-32.7750097181198
30
0
0
SPLINE
5
164
100
AcDbEntity
8
1
62
256
6
ByLayer
370
-1
48
1
60
0
100
AcDbSpline
70
4
71
2
72
6
73
3
40
0
40
0
40
0
40
1
40
1
40
1
41
1
10
39.9844338246305
20
-34.7521181967621
30
-6E-16
41
1
10
40.0706801953194
20
-34.7716785000432
30
-6E-16
41
1
10
40.1571706710836
20
-34.7836534003658
30
-6E-16
0
SPLINE
5
165
100
AcDbEntity
8
1
62
256
6
ByLayer
370
-1
48
1
60
0
100
AcDbSpline
70
4
71
2
72
6
73
3
40
0
40
0
40
0
40
1
40
1
40
1
41
1
10
40.1411838972563
20
39.6905563126727
30
-2E-16
41
1
10
40.0604451555222
20
39.6881333410178
30
-2E-16
41
1
10
39.9799606667759
20
39.6766648656061
30
-2E-16
0
SPLINE
5
166
100
AcDbEntity
8
1
62
256
6
ByLayer
370
-1
48
1
60
0
100
AcDbSpline
70
4
71
3
72
8
73
4
40
0
40
0
40
0
40
0
40
1
40
1
40
1
40
1
41
1
10
39.6584955747165
20
26.6000779834857
30
-6E-16
41
1
10
39.5847106744044
20
26.5989946599413
30
-6E-16
41
1
10
39.5096700679809
20
26.5922782268158
30
-6E-16
41
1
10
39.4356665157814
20
26.5802121743724
30
-6E-16
0
SPLINE
5
167
100
AcDbEntity
8
1
62
256
6
ByLayer
370
-1
48
1
60
0
100
AcDbSpline
70
4
71
3
72
18
73
14
40
0
40
0
40
0
40
0
40
0.153997632794878
40
0.153997632794878
40
0.306653035640067
40
0.306653035640067
40
0.481090753968711
40
0.481090753968711
40
0.69306618508868
40
0.69306618508868
40
0.9236917617164
40
0.9236917617164
40
1
40
1
40
1
40
1
41
1
10
48.6826849894068
20
17.9045475925322
30
-1E-16
41
1
10
48.6531696931952
20
17.9112811527366
30
-1E-16
41
1
10
48.6303755559234
20
17.9241285315558
30
-1E-16
41
1
10
48.5973224185671
20
17.9614579812055
30
-1E-16
41
1
10
48.5862834696095
20
17.9862252922695
30
-1E-16
41
1
10
48.5700554274723
20
18.048864618847
30
-1E-16
41
1
10
48.5656042515321
20
18.0887580315066
30
-1E-16
41
1
10
48.5610932561274
20
18.1857444383383
30
-1E-16
41
1
10
48.5620110007935
20
18.2460020410923
30
-1E-16
41
1
10
48.5719377634306
20
18.3771911154769
30
-1E-16
41
1
10
48.5819025444186
20
18.4508284261445
30
-1E-16
41
1
10
48.6080207661363
20
18.5452681592418
30
-1E-16
41
1
10
48.6156918167646
20
18.5687419927948
30
-1E-16
41
1
10
48.6246787101658
20
18.5916124886057
30
-1E-16
0
SPLINE
5
168
100
AcDbEntity
8
1
62
256
6
ByLayer
370
-1
48
1
60
0
100
AcDbSpline
70
4
71
3
72
12
73
8
40
0
40
0
40
0
40
0
40
0.512336362103726
40
0.512336362103726
40
0.75725906728243
40
0.75725906728243
40
1
40
1
40
1
40
1
41
1
10
49.0897917706043
20
-10.299562383272
30
-1E-16
41
1
10
49.1244104393364
20
-10.3754147620957
30
-1E-16
41
1
10
49.1601917715301
20
-10.4513476471258
30
-1E-16
41
1
10
49.2022354823439
20
-10.551780550625
30
0
41
1
10
49.2143225318208
20
-10.5830773102378
30
0
41
1
10
49.2312339278059
20
-10.6371354952613
30
0
41
1
10
49.23623838
20
-10.6606276296981
30
0
41
1
10
49.23623838
20
-10.6774017785687
30
0
0
SPLINE
5
169
100
AcDbEntity
8
1
62
256
6
ByLayer
370
-1
48
1
60
0
100
AcDbSpline
70
4
71
3
72
8
73
4
40
0
40
0
40
0
40
0
40
1
40
1
40
1
40
1
41
1
10
48.53623838
20
17.0498150872847
30
-1E-16
41
1
10
48.53623838
20
17.4062488490713
30
-1E-16
41
1
10
48.477019454024
20
17.7570752994468
30
-1E-16
41
1
10
48.3019238049492
20
18.0969296347257
30
-1E-16
0
SPLINE
5
16A
100
AcDbEntity
8
1
62
256
6
ByLayer
370
-1
48
1
60
0
100
AcDbSpline
70
4
71
3
72
8
73
4
40
0
40
0
40
0
40
0
40
1
40
1
40
1
40
1
41
1
10
41.5909172495132
20
-22.7131530926696
30
-5E-16
41
1
10
41.6095391939095
20
-22.7171246935128
30
-5E-16
41
1
10
41.6285931826367
20
-22.7194641670913
30
-5E-16
41
1
10
41.647633428414
20
-22.7200674211536
30
-5E-16
0
SPLINE
5
16B
100
AcDbEntity
8
1
62
256
6
ByLayer
370
-1
48
1
60
0
100
AcDbSpline
70
4
71
3
72
8
73
4
40
0
40
0
40
0
40
0
40
1
40
1
40
1
40
1
41
1
10
38.4639195520875
20
-33.1799763390923
30
-7E-16
41
1
10
38.1962482029263
20
-33.070266556954
30
-7E-16
41
1
10
37.9369264918935
20
-32.9409722054887
30
-7E-16
41
1
10
37.6864242580455
20
-32.7909912494425
30
-8E-16
0
SPLINE
5
16C
100
AcDbEntity
8
1
62
256
6
ByLayer
370
-1
48
1
60
0
100
AcDbSpline
70
4
71
3
72
8
73
4
40
0
40
0
40
0
40
0
40
1
40
1
40
1
40
1
41
1
10
33.7593144897801
20
13.0378747108101
30
-1E-15
41
1
10
34.2984758420135
20
12.4202292937139
30
-1E-15
41
1
10
34.8619134657308
20
11.8095299548278
30
-9E-16
41
1
10
35.4458486828723
20
11.2046955152173
30
-9E-16
0
SPLINE
5
16D
100
AcDbEntity
8
1
62
256
6
ByLayer
370
-1
48
1
60
0
100
AcDbSpline
70
4
71
3
72
16
73
12
40
0
40
0
40
0
40
0
40
0.0593316008865331
40
0.0593316008865331
40
0.352234560420246
40
0.352234560420246
40
0.637597309221835
40
0.637597309221835
40
0.840262441265366
40
0.840262441265366
40
1
40
1
40
1
40
1
41
1
10
0.500000000000014
20
6.82750000000001
30
5E-16
41
1
10
0.485654265376255
20
6.84184573462377
30
5E-16
41
1
10
0.471391494495137
20
6.85610850550486
30
5E-16
41
1
10
0.387802419559378
20
6.93969758044065
30
5E-16
41
1
10
0.32035452089518
20
7.00714547910485
30
5E-16
41
1
10
0.199583129529728
20
7.1279168704703
30
5E-16
41
1
10
0.144350666125419
20
7.18314933387461
30
5E-16
41
1
10
0.0678563903671403
20
7.25964360963289
30
5E-16
41
1
10
0.0406926464080186
20
7.28680735359202
30
5E-16
41
1
10
0.0086187907377138
20
7.31888120926232
30
5E-16
41
1
10
-7.7789523942E-06
20
7.32750777895242
30
5E-16
41
1
10
3.3590930997E-06
20
7.32749664090693
30
5E-16
0
SPLINE
5
16E
100
AcDbEntity
8
1
62
256
6
ByLayer
370
-1
48
1
60
0
100
AcDbSpline
70
4
71
3
72
16
73
12
40
0
40
0
40
0
40
0
40
0.413415648582429
40
0.413415648582429
40
0.768805160139449
40
0.768805160139449
40
0.946955670949518
40
0.946955670949518
40
0.985093597376961
40
0.985093597376961
40
1
40
1
40
1
40
1
41
1
10
48.6056470237006
20
-38.8985413489395
30
-1E-16
41
1
10
48.7332548461014
20
-38.9695442877469
30
-1E-16
41
1
10
48.8590904549474
20
-39.0015222917003
30
-1E-16
41
1
10
49.0849297892107
20
-38.9796456435232
30
-1E-16
41
1
10
49.1874751936025
20
-38.9402580348944
30
0
41
1
10
49.3285383173348
20
-38.7894272785262
30
0
41
1
10
49.3750933319878
20
-38.7263692005687
30
0
41
1
10
49.4192765283281
20
-38.5900984391255
30
0
41
1
10
49.4266233497031
20
-38.5630152025799
30
0
41
1
10
49.4351155719178
20
-38.5192290389539
30
0
41
1
10
49.437310103531
20
-38.5062243520244
30
0
41
1
10
49.4392253455803
20
-38.4923727327144
30
0
0
SPLINE
5
16F
100
AcDbEntity
8
1
62
256
6
ByLayer
370
-1
48
1
60
0
100
AcDbSpline
70
4
71
3
72
8
73
4
40
0
40
0
40
0
40
0
40
1
40
1
40
1
40
1
41
1
10
49.4463462499999
20
-37.9982871748576
30
0
41
1
10
49.3782726008094
20
-37.6547374992734
30
0
41
1
10
49.3116807918881
20
-37.3111106469148
30
0
41
1
10
49.2466950339699
20
-36.9674090676567
30
0
0
SPLINE
5
170
100
AcDbEntity
8
1
62
256
6
ByLayer
370
-1
48
1
60
0
100
AcDbSpline
70
4
71
3
72
8
73
4
40
0
40
0
40
0
40
0
40
1
40
1
40
1
40
1
41
1
10
49.4463462499999
20
9.86677153022833
30
0
41
1
10
49.3782726008095
20
10.194490380858
30
0
41
1
10
49.3116807918882
20
10.5223699387639
30
0
41
1
10
49.2466950339699
20
10.8504150639473
30
0
0
SPLINE
5
171
100
AcDbEntity
8
1
62
256
6
ByLayer
370
-1
48
1
60
0
100
AcDbSpline
70
4
71
3
72
8
73
4
40
0
40
0
40
0
40
0
40
1
40
1
40
1
40
1
41
1
10
41.647633428414
20
28.2072836447463
30
-5E-16
41
1
10
41.6288116708408
20
28.2085048841297
30
-5E-16
41
1
10
41.6097032459011
20
28.2078223140991
30
-5E-16
41
1
10
41.5909172495118
20
28.2052075268882
30
-5E-16
0
SPLINE
5
172
100
AcDbEntity
8
1
62
256
6
ByLayer
370
-1
48
1
60
0
100
AcDbSpline
70
4
71
3
72
8
73
4
40
0
40
0
40
0
40
0
40
1
40
1
40
1
40
1
41
1
10
35.4458486828723
20
11.2046955152173
30
-9E-16
41
1
10
36.1123803063287
20
10.5143085183015
30
-9E-16
41
1
10
36.8529020696903
20
9.89101875967836
30
-8E-16
41
1
10
37.6864242580452
20
9.37233334155147
30
-8E-16
0
SPLINE
5
173
100
AcDbEntity
8
1
62
256
6
ByLayer
370
-1
48
1
60
0
100
AcDbSpline
70
4
71
2
72
6
73
3
40
0
40
0
40
0
40
1
40
1
40
1
41
0.500000023251684
10
39.9355903977798
20
-3.35092263680053
30
-6E-16
41
0.499999976748316
10
39.8425243801909
20
-3.32841211518242
30
-6E-16
41
0.500000023251684
10
39.7495190286113
20
-3.30591746033929
30
-6E-16
0
SPLINE
5
174
100
AcDbEntity
8
1
62
256
6
ByLayer
370
-1
48
1
60
0
100
AcDbSpline
70
4
71
3
72
10
73
6
40
0
40
0
40
0
40
0
40
0.761874699906536
40
0.761874699906536
40
1
40
1
40
1
40
1
41
1
10
42.0407884749344
20
-32.4678822750687
30
-5E-16
41
1
10
41.9776528070596
20
-32.4266315099203
30
-5E-16
41
1
10
41.9017102707656
20
-32.3911230262285
30
-5E-16
41
1
10
41.7919585477288
20
-32.3552177604148
30
-5E-16
41
1
10
41.7648769429139
20
-32.3474050363315
30
-5E-16
41
1
10
41.7370426122825
20
-32.34036842182
30
-5E-16
0
SPLINE
5
175
100
AcDbEntity
8
1
62
256
6
ByLayer
370
-1
48
1
60
0
100
AcDbSpline
70
4
71
3
72
12
73
8
40
0
40
0
40
0
40
0
40
0.383134909706847
40
0.383134909706847
40
0.773486884692858
40
0.773486884692858
40
1
40
1
40
1
40
1
41
1
10
41.1777960687189
20
-32.3046676632669
30
-5E-16
41
1
10
41.0682226704552
20
-32.3160916744401
30
-5E-16
41
1
10
40.9589433042488
20
-32.3382371743148
30
-6E-16
41
1
10
40.7564840700399
20
-32.4010234159207
30
-6E-16
41
1
10
40.6608525283289
20
-32.4428669882422
30
-6E-16
41
1
10
40.5321803427687
20
-32.519723582046
30
-6E-16
41
1
10
40.4890155389164
20
-32.5505815802898
30
-6E-16
41
1
10
40.4511940240344
20
-32.5831784382484
30
-6E-16
0
SPLINE
5
176
100
AcDbEntity
8
1
62
256
6
ByLayer
370
-1
48
1
60
0
100
AcDbSpline
70
4
71
3
72
12
73
8
40
0
40
0
40
0
40
0
40
0.275812061917117
40
0.275812061917117
40
0.637953299488751
40
0.637953299488751
40
1
40
1
40
1
40
1
41
1
10
48.8494244323437
20
18.4362073878009
30
-1E-16
41
1
10
48.8621787909949
20
18.3759619212788
30
-1E-16
41
1
10
48.8753087740282
20
18.317828443257
30
-1E-16
41
1
10
48.9050776882029
20
18.1948837700702
30
-1E-16
41
1
10
48.9219946422669
20
18.1317527702378
30
-1E-16
41
1
10
48.953056189531
20
18.0292860630973
30
-1E-16
41
1
10
48.9676297698951
20
17.9885313599699
30
-1E-16
41
1
10
48.9800417922954
20
17.9616228404985
30
-1E-16
0
SPLINE
5
177
100
AcDbEntity
8
1
62
256
6
ByLayer
370
-1
48
1
60
0
100
AcDbSpline
70
4
71
3
72
8
73
4
40
0
40
0
40
0
40
0
40
1
40
1
40
1
40
1
41
1
10
48.991902348134
20
17.9389492289974
30
-1E-16
41
1
10
48.995314129727
20
17.9334049483171
30
-1E-16
41
1
10
48.9985203296197
20
17.9291477757579
30
-1E-16
41
1
10
49.0014934301606
20
17.9262231220491
30
-1E-16
0
SPLINE
5
178
100
AcDbEntity
8
1
62
256
6
ByLayer
370
-1
48
1
60
0
100
AcDbSpline
70
4
71
3
72
18
73
14
40
0
40
0
40
0
40
0
40
0.228940747268681
40
0.228940747268681
40
0.43656185360095
40
0.43656185360095
40
0.611967564200687
40
0.611967564200687
40
0.788746087219684
40
0.788746087219684
40
0.944742164187326
40
0.944742164187326
40
1
40
1
40
1
40
1
41
1
10
32.0551136301006
20
-2.56979373742863
30
-1.1E-15
41
1
10
31.8130293104645
20
-2.51685107478775
30
-1.1E-15
41
1
10
31.5624663831073
20
-2.50418118718932
30
-1.1E-15
41
1
10
31.1005795651005
20
-2.56964166944911
30
-1.2E-15
41
1
10
30.8823729213639
20
-2.64096009308955
30
-1.2E-15
41
1
10
30.5196523843393
20
-2.84940207035888
30
-1.2E-15
41
1
10
30.3650382414432
20
-2.97737429094212
30
-1.2E-15
41
1
10
30.11010614571
20
-3.28731990257995
30
-1.2E-15
41
1
10
30.0067006959671
20
-3.47486371876161
30
-1.2E-15
41
1
10
29.8845580913182
20
-3.85589936695715
30
-1.2E-15
41
1
10
29.8557655687701
20
-4.05133256394211
30
-1.2E-15
41
1
10
29.8585017468535
20
-4.31482493805336
30
-1.2E-15
41
1
10
29.8630133952807
20
-4.3844637727652
30
-1.2E-15
41
1
10
29.8711555383682
20
-4.45367364830048
30
-1.2E-15
0
SPLINE
5
179
100
AcDbEntity
8
1
62
256
6
ByLayer
370
-1
48
1
60
0
100
AcDbSpline
70
4
71
3
72
8
73
4
40
0
40
0
40
0
40
0
40
1
40
1
40
1
40
1
41
1
10
41.6476334284146
20
35.3865038436872
30
-5E-16
41
1
10
43.5067515497225
20
35.4709792521939
30
-4E-16
41
1
10
45.3658697099435
20
35.5554543653031
30
-3E-16
41
1
10
47.2249879081882
20
35.6399291897521
30
-2E-16
0
SPLINE
5
17A
100
AcDbEntity
8
1
62
256
6
ByLayer
370
-1
48
1
60
0
100
AcDbSpline
70
4
71
3
72
8
73
4
40
0
40
0
40
0
40
0
40
1
40
1
40
1
40
1
41
1
10
47.6908342185583
20
-22.91153079284
30
-1E-16
41
1
10
47.2538729302879
20
-23.5220547040187
30
-2E-16
41
1
10
46.9752691615465
20
-24.1730640731496
30
-2E-16
41
1
10
46.7731575828739
20
-24.8292320689131
30
-2E-16
0
SPLINE
5
17B
100
AcDbEntity
8
1
62
256
6
ByLayer
370
-1
48
1
60
0
100
AcDbSpline
70
4
71
3
72
8
73
4
40
0
40
0
40
0
40
0
40
1
40
1
40
1
40
1
41
1
10
49.4226643551136
20
35.4714269229715
30
0
41
1
10
49.4385588642503
20
35.4449899395172
30
0
41
1
10
49.44634625
20
35.4178582654095
30
0
41
1
10
49.44634625
20
35.3905250492523
30
0
0
SPLINE
5
17C
100
AcDbEntity
8
1
62
256
6
ByLayer
370
-1
48
1
60
0
100
AcDbSpline
70
4
71
3
72
8
73
4
40
0
40
0
40
0
40
0
40
1
40
1
40
1
40
1
41
1
10
48.3019238049635
20
19.168470975621
30
-1E-16
41
1
10
48.2295186197888
20
19.2100078596315
30
-1E-16
41
1
10
48.1666860321092
20
19.2692949390641
30
-1E-16
41
1
10
48.1207164707342
20
19.3462592485325
30
-1E-16
0
SPLINE
5
17D
100
AcDbEntity
8
1
62
256
6
ByLayer
370
-1
48
1
60
0
100
AcDbSpline
70
4
71
3
72
8
73
4
40
0
40
0
40
0
40
0
40
1
40
1
40
1
40
1
41
1
10
33.7593144897801
20
-35.0785042404387
30
-1E-16
41
1
10
34.2984758420134
20
-35.5175787295822
30
-1E-16
41
1
10
34.8619134657307
20
-35.9430886173465
30
0
41
1
10
35.4458486828723
20
-36.3571452766274
30
0
0
SPLINE
5
17E
100
AcDbEntity
8
1
62
256
6
ByLayer
370
-1
48
1
60
0
100
AcDbSpline
70
4
71
3
72
8
73
4
40
0
40
0
40
0
40
0
40
1
40
1
40
1
40
1
41
1
10
41.6476334284145
20
8.59247037384444
30
-5E-16
41
1
10
43.2412774909911
20
8.60680189681912
30
-4E-16
41
1
10
44.8349215821615
20
8.6211339337593
30
-3E-16
41
1
10
46.4285657013641
20
8.63546647459469
30
-2E-16
0
SPLINE
5
17F
100
AcDbEntity
8
1
62
256
6
ByLayer
370
-1
48
1
60
0
100
AcDbSpline
70
4
71
3
72
8
73
4
40
0
40
0
40
0
40
0
40
1
40
1
40
1
40
1
41
1
10
38.2946988937235
20
-38.145296819667
30
-1E-16
41
1
10
38.0748343823943
20
-38.0498503478951
30
0
41
1
10
37.8713135284613
20
-37.941766591695
30
0
41
1
10
37.6864242580451
20
-37.8271946159399
30
0
0
SPLINE
5
180
100
AcDbEntity
8
1
62
256
6
ByLayer
370
-1
48
1
60
0
100
AcDbSpline
70
4
71
3
72
8
73
4
40
0
40
0
40
0
40
0
40
1
40
1
40
1
40
1
41
1
10
32.0551136301007
20
-29.4092458312434
30
-1.1E-15
41
1
10
33.9303640678103
20
-30.5390996228724
30
-1E-15
41
1
10
35.8076355407415
20
-31.6661209291198
30
-9E-16
41
1
10
37.6864242580455
20
-32.7909912494425
30
-8E-16
0
SPLINE
5
181
100
AcDbEntity
8
1
62
256
6
ByLayer
370
-1
48
1
60
0
100
AcDbSpline
70
4
71
3
72
16
73
12
40
0
40
0
40
0
40
0
40
0.270059499640893
40
0.270059499640893
40
0.470462662388081
40
0.470462662388081
40
0.672970450336415
40
0.672970450336415
40
0.844850928901014
40
0.844850928901014
40
1
40
1
40
1
40
1
41
1
10
32.0551136301007
20
24.0674494789937
30
-1.1E-15
41
1
10
31.7696329084301
20
23.9835934568923
30
-1.1E-15
41
1
10
31.4712163404879
20
23.8535832125949
30
-1.1E-15
41
1
10
30.9792562707056
20
23.555740317853
30
-1.2E-15
41
1
10
30.7729619046199
20
23.4024360821416
30
-1.2E-15
41
1
10
30.4053916784397
20
23.0584104904595
30
-1.2E-15
41
1
10
30.2388494872161
20
22.8612068159964
30
-1.2E-15
41
1
10
30.0089987148524
20
22.4862716754291
30
-1.2E-15
41
1
10
29.9309272068732
20
22.3044094916163
30
-1.2E-15
41
1
10
29.8547360978391
20
21.9758518105542
30
-1.2E-15
41
1
10
29.8484508729733
20
21.8229471385272
30
-1.2E-15
41
1
10
29.8711555383683
20
21.685924602123
30
-1.2E-15
0
SPLINE
5
182
100
AcDbEntity
8
1
62
256
6
ByLayer
370
-1
48
1
60
0
100
AcDbSpline
70
4
71
3
72
8
73
4
40
0
40
0
40
0
40
0
40
1
40
1
40
1
40
1
41
1
10
39.4356665157811
20
-22.2515384655654
30
-6E-16
41
1
10
40.1539455405158
20
-22.4060438809564
30
-6E-16
41
1
10
40.8723655584593
20
-22.5599037626607
30
-6E-16
41
1
10
41.5909172495137
20
-22.7131530926655
30
-5E-16
0
SPLINE
5
183
100
AcDbEntity
8
1
62
256
6
ByLayer
370
-1
48
1
60
0
100
AcDbSpline
70
4
71
3
72
10
73
6
40
0
40
0
40
0
40
0
40
0.408137415610179
40
0.408137415610179
40
1
40
1
40
1
40
1
41
1
10
38.2946988937236
20
-38.145296819667
30
-1E-16
41
1
10
38.4368720194929
20
-38.2070162993294
30
0
41
1
10
38.5852379640011
20
-38.2632501693429
30
0
41
1
10
38.9610329147605
20
-38.3844408261459
30
0
41
1
10
39.1959606788952
20
-38.442238238254
30
0
41
1
10
39.4356665157808
20
-38.4823936358895
30
0
0
SPLINE
5
184
100
AcDbEntity
8
1
62
256
6
ByLayer
370
-1
48
1
60
0
100
AcDbSpline
70
4
71
3
72
10
73
6
40
0
40
0
40
0
40
0
40
0.636309201851681
40
0.636309201851681
40
1
40
1
40
1
40
1
41
1
10
48.3019238049492
20
19.7449037632521
30
-1E-16
41
1
10
48.3896469067281
20
19.9010755775701
30
-1E-16
41
1
10
48.4596635320615
20
20.072303810974
30
-1E-16
41
1
10
48.5228935387521
20
20.3451254800054
30
-1E-16
41
1
10
48.5362383800002
20
20.4469998860058
30
-1E-16
41
1
10
48.5362383800002
20
20.5466569921573
30
-1E-16
0
SPLINE
5
185
100
AcDbEntity
8
1
62
256
6
ByLayer
370
-1
48
1
60
0
100
AcDbSpline
70
4
71
3
72
8
73
4
40
0
40
0
40
0
40
0
40
1
40
1
40
1
40
1
41
1
10
48.6246787101662
20
18.5916124886068
30
-1E-16
41
1
10
48.6252755080044
20
18.5931312628759
30
-1E-16
41
1
10
48.6258760805034
20
18.5946485475845
30
-1E-16
41
1
10
48.6264804554971
20
18.5961642982912
30
-1E-16
0
SPLINE
5
186
100
AcDbEntity
8
1
62
256
6
ByLayer
370
-1
48
1
60
0
100
AcDbSpline
70
4
71
3
72
8
73
4
40
0
40
0
40
0
40
0
40
1
40
1
40
1
40
1
41
1
10
49.4392253455803
20
-25.6436078774166
30
0
41
1
10
49.4438672684554
20
-25.5969105178302
30
0
41
1
10
49.4463462499999
20
-25.5500240362115
30
0
41
1
10
49.4463462499999
20
-25.5034436987959
30
0
0
SPLINE
5
187
100
AcDbEntity
8
1
62
256
6
ByLayer
370
-1
48
1
60
0
100
AcDbSpline
70
4
71
3
72
10
73
6
40
0
40
0
40
0
40
0
40
0.654822867615992
40
0.654822867615992
40
1
40
1
40
1
40
1
41
1
10
48.3019238049635
20
19.168470975621
30
-1E-16
41
1
10
48.3896469067356
20
19.1181466197781
30
-1E-16
41
1
10
48.4596635320636
20
19.0800774713912
30
-1E-16
41
1
10
48.5210998907498
20
19.0510404195464
30
-1E-16
41
1
10
48.5341047746181
20
19.0461058409963
30
-1E-16
41
1
10
48.535998139442
20
19.0463817708195
30
-1E-16
0
SPLINE
5
188
100
AcDbEntity
8
1
62
256
6
ByLayer
370
-1
48
1
60
0
100
AcDbSpline
70
4
71
3
72
12
73
8
40
0
40
0
40
0
40
0
40
0.099656521300468
40
0.099656521300468
40
0.640727150315899
40
0.640727150315899
40
1
40
1
40
1
40
1
41
1
10
40.4511940240344
20
27.5280565362381
30
-6E-16
41
1
10
40.4391514150761
20
27.514939547439
30
-6E-16
41
1
10
40.4276190698595
20
27.5016012660965
30
-6E-16
41
1
10
40.3575414394618
20
27.415362317131
30
-6E-16
41
1
10
40.313672448349
20
27.3359819411159
30
-6E-16
41
1
10
40.2721099472152
20
27.2035871079702
30
-6E-16
41
1
10
40.2634763270325
20
27.1498566920669
30
-6E-16
41
1
10
40.2630956197484
20
27.0972339166449
30
-6E-16
0
SPLINE
5
189
100
AcDbEntity
8
1
62
256
6
ByLayer
370
-1
48
1
60
0
100
AcDbSpline
70
4
71
3
72
8
73
4
40
0
40
0
40
0
40
0
40
1
40
1
40
1
40
1
41
1
10
38.2946988937235
20
9.07616068292617
30
-7E-16
41
1
10
38.0748343823944
20
9.15551977467197
30
-7E-16
41
1
10
37.8713135284613
20
9.2572801733541
30
-7E-16
41
1
10
37.6864242580451
20
9.37233334155147
30
-8E-16
0
SPLINE
5
18A
100
AcDbEntity
8
1
62
256
6
ByLayer
370
-1
48
1
60
0
100
AcDbSpline
70
4
71
3
72
10
73
6
40
0
40
0
40
0
40
0
40
0.471376074963219
40
0.471376074963219
40
1
40
1
40
1
40
1
41
1
10
40.4511940240344
20
-32.5831784382484
30
-6E-16
41
1
10
40.3947436036004
20
-32.6172387482883
30
-6E-16
41
1
10
40.3492762700393
20
-32.6576949847795
30
-6E-16
41
1
10
40.2823375441591
20
-32.7514092666689
30
-6E-16
41
1
10
40.263655581844
20
-32.8068886953188
30
-6E-16
41
1
10
40.2630956197484
20
-32.8638187092799
30
-6E-16
0
SPLINE
5
18B
100
AcDbEntity
8
1
62
256
6
ByLayer
370
-1
48
1
60
0
100
AcDbSpline
70
4
71
2
72
6
73
3
40
0
40
0
40
0
40
1
40
1
40
1
41
0.500000028535967
10
39.9355903977798
20
-33.156169272831
30
-6E-16
41
0.499999971464033
10
39.8425243802192
20
-33.1319910865295
30
-6E-16
41
0.500000028535967
10
39.7495190286114
20
-33.1078101945621
30
-6E-16
0
SPLINE
5
18C
100
AcDbEntity
8
1
62
256
6
ByLayer
370
-1
48
1
60
0
100
AcDbSpline
70
4
71
3
72
14
73
10
40
0
40
0
40
0
40
0
40
0.301700488585326
40
0.301700488585326
40
0.602573742373799
40
0.602573742373799
40
0.919039537151757
40
0.919039537151757
40
1
40
1
40
1
40
1
41
1
10
39.435666515781
20
-3.27691643454696
30
-6E-16
41
1
10
39.3079188947239
20
-3.28355273174711
30
-7E-16
41
1
10
39.1809072462832
20
-3.31286775287913
30
-7E-16
41
1
10
38.9488316983774
20
-3.40830404062558
30
-7E-16
41
1
10
38.8404026092059
20
-3.4755420995493
30
-7E-16
41
1
10
38.6496467114391
20
-3.64369185859965
30
-7E-16
41
1
10
38.5659048150673
20
-3.7489317792934
30
-7E-16
41
1
10
38.4903369700629
20
-3.89613907451289
30
-7E-16
41
1
10
38.4762985479184
20
-3.92728780871789
30
-7E-16
41
1
10
38.4639195520877
20
-3.95915131470903
30
-7E-16
0
SPLINE
5
18D
100
AcDbEntity
8
1
62
256
6
ByLayer
370
-1
48
1
60
0
100
AcDbSpline
70
4
71
3
72
8
73
4
40
0
40
0
40
0
40
0
40
1
40
1
40
1
40
1
41
1
10
33.7593144897801
20
34.1793550996991
30
8E-16
41
1
10
34.2984758420135
20
34.2778228614464
30
8E-16
41
1
10
34.8619134657308
20
34.3681300502678
30
8E-16
41
1
10
35.4458486828724
20
34.4515468850226
30
9E-16
0
SPLINE
5
18E
100
AcDbEntity
8
1
62
256
6
ByLayer
370
-1
48
1
60
0
100
AcDbSpline
70
4
71
3
72
14
73
10
40
0
40
0
40
0
40
0
40
0.0116044801548432
40
0.0116044801548432
40
0.393087466552683
40
0.393087466552683
40
0.77714146766711
40
0.77714146766711
40
1
40
1
40
1
40
1
41
1
10
41.191874762236
20
27.7760038717023
30
-5E-16
41
1
10
41.1884957699928
20
27.7759819161644
30
-5E-16
41
1
10
41.1851194949068
20
27.7759480358141
30
-5E-16
41
1
10
41.0708502505573
20
27.7743956079856
30
-5E-16
41
1
10
40.9601483962028
20
27.7599445543712
30
-6E-16
41
1
10
40.7564840700399
20
27.7076366965821
30
-6E-16
41
1
10
40.660852528329
20
27.6689161510003
30
-6E-16
41
1
10
40.5321803427688
20
27.5931264606159
30
-6E-16
41
1
10
40.4890155389165
20
27.5618520113391
30
-6E-16
41
1
10
40.4511940240344
20
27.5280565362381
30
-6E-16
0
SPLINE
5
18F
100
AcDbEntity
8
1
62
256
6
ByLayer
370
-1
48
1
60
0
100
AcDbSpline
70
4
71
3
72
8
73
4
40
0
40
0
40
0
40
0
40
1
40
1
40
1
40
1
41
1
10
49.23623838
20
10.9580793639466
30
0
41
1
10
49.23623838
20
10.9220236469717
30
0
41
1
10
49.2396456322456
20
10.886000120507
30
0
41
1
10
49.2466950339699
20
10.8504150639473
30
0
0
SPLINE
5
190
100
AcDbEntity
8
1
62
256
6
ByLayer
370
-1
48
1
60
0
100
AcDbSpline
70
4
71
3
72
12
73
8
40
0
40
0
40
0
40
0
40
0.5
40
0.5
40
0.75
40
0.75
40
1
40
1
40
1
40
1
41
1
10
48.6056470237006
20
4.88415256446791
30
-1E-16
41
1
10
48.7604926336788
20
5.51016777830506
30
-1E-16
41
1
10
48.912097417491
20
6.13019926699249
30
-1E-16
41
1
10
49.1287534256432
20
7.02931552410627
30
-1E-16
41
1
10
49.1988982111943
20
7.32264892052464
30
0
41
1
10
49.331860898985
20
7.88680381301032
30
0
41
1
10
49.4066810290395
20
8.20298852939914
30
0
41
1
10
49.4392253455803
20
8.36761159427311
30
0
0
SPLINE
5
191
100
AcDbEntity
8
1
62
256
6
ByLayer
370
-1
48
1
60
0
100
AcDbSpline
70
4
71
3
72
8
73
4
40
0
40
0
40
0
40
0
40
1
40
1
40
1
40
1
41
1
10
39.4356665157811
20
-38.4823936358888
30
0
41
1
10
40.1539455405159
20
-38.6027193660679
30
0
41
1
10
40.8723655584593
20
-38.722639136275
30
0
41
1
10
41.5909172495137
20
-38.8421748940783
30
0
0
SPLINE
5
192
100
AcDbEntity
8
1
62
256
6
ByLayer
370
-1
48
1
60
0
100
AcDbSpline
70
4
71
3
72
10
73
6
40
0
40
0
40
0
40
0
40
0.699875084679839
40
0.699875084679839
40
1
40
1
40
1
40
1
41
1
10
32.0551136301007
20
34.1963785407303
30
-2E-16
41
1
10
31.8698046298959
20
34.0821346915808
30
-2E-16
41
1
10
31.680083677779
20
33.9682060528042
30
-2E-16
41
1
10
31.4131229757583
20
33.812631150751
30
-2E-16
41
1
10
31.3328182181395
20
33.766468179115
30
-3E-16
41
1
10
31.2532728423364
20
33.7213745377187
30
-3E-16
0
SPLINE
5
193
100
AcDbEntity
8
1
62
256
6
ByLayer
370
-1
48
1
60
0
100
AcDbSpline
70
4
71
3
72
10
73
6
40
0
40
0
40
0
40
0
40
0.5
40
0.5
40
1
40
1
40
1
40
1
41
1
10
29.8711555383682
20
-4.45367364830048
30
-1.2E-15
41
1
10
30.1148306488811
20
-6.52496174633271
30
-1.2E-15
41
1
10
30.5325957816478
20
-8.53859370500794
30
-1.2E-15
41
1
10
31.7909105929227
20
-12.4428641406835
30
-1.1E-15
41
1
10
32.6462406111663
20
-14.3583812193648
30
-1.1E-15
41
1
10
33.7593144897801
20
-16.1176904563856
30
-1E-15
0
SPLINE
5
194
100
AcDbEntity
8
1
62
256
6
ByLayer
370
-1
48
1
60
0
100
AcDbSpline
70
4
71
3
72
16
73
12
40
0
40
0
40
0
40
0
40
0.0079237465431575
40
0.0079237465431575
40
0.293760777611853
40
0.293760777611853
40
0.58243311649554
40
0.58243311649554
40
0.876242922797635
40
0.876242922797635
40
1
40
1
40
1
40
1
41
1
10
42.7066135587497
20
-2.28202198372566
30
-4E-16
41
1
10
42.7055250024029
20
-2.27823484119904
30
-4E-16
41
1
10
42.7044186752385
20
-2.27445268389843
30
-4E-16
41
1
10
42.663282147561
20
-2.13622604627525
30
-4E-16
41
1
10
42.5996694791582
20
-2.00675317669334
30
-5E-16
41
1
10
42.4353161986459
20
-1.77737346450763
30
-5E-16
41
1
10
42.3320179451475
20
-1.67465217387118
30
-5E-16
41
1
10
42.0990275427713
20
-1.50869554648295
30
-5E-16
41
1
10
41.9657526216125
20
-1.44391435780403
30
-5E-16
41
1
10
41.7686119980528
20
-1.38548805479758
30
-5E-16
41
1
10
41.7083629371645
20
-1.37212077442788
30
-5E-16
41
1
10
41.647633428414
20
-1.36302044114564
30
-5E-16
0
SPLINE
5
195
100
AcDbEntity
8
1
62
256
6
ByLayer
370
-1
48
1
60
0
100
AcDbSpline
70
4
71
3
72
8
73
4
40
0
40
0
40
0
40
0
40
1
40
1
40
1
40
1
41
1
10
41.5909172495132
20
8.59510055634465
30
-5E-16
41
1
10
41.6095391939095
20
8.5931929402071
30
-5E-16
41
1
10
41.6285931826367
20
8.59229914632238
30
-5E-16
41
1
10
41.647633428414
20
8.59247037384188
30
-5E-16
0
SPLINE
5
196
100
AcDbEntity
8
1
62
256
6
ByLayer
370
-1
48
1
60
0
100
AcDbSpline
70
4
71
3
72
12
73
8
40
0
40
0
40
0
40
0
40
0.512336362107129
40
0.512336362107129
40
0.757259067284863
40
0.757259067284863
40
1
40
1
40
1
40
1
41
1
10
49.0897917706039
20
17.7996684747951
30
-1E-16
41
1
10
49.1244104393363
20
17.7588298286325
30
-1E-16
41
1
10
49.1601917715304
20
17.7264142712042
30
-1E-16
41
1
10
49.2022354823442
20
17.7060962525559
30
0
41
1
10
49.2143225318212
20
17.7038661882011
30
0
41
1
10
49.231233927806
20
17.7114211293983
30
0
41
1
10
49.2362383800001
20
17.7213584595078
30
0
41
1
10
49.2362383800001
20
17.7376106396997
30
0
0
SPLINE
5
197
100
AcDbEntity
8
1
62
256
6
ByLayer
370
-1
48
1
60
0
100
AcDbSpline
70
4
71
3
72
8
73
4
40
0
40
0
40
0
40
0
40
1
40
1
40
1
40
1
41
1
10
49.0897917705932
20
-14.3928135679704
30
-1E-16
41
1
10
48.9518770256982
20
-14.1133231383606
30
-1E-16
41
1
10
48.8161214428262
20
-13.8327544797659
30
-1E-16
41
1
10
48.6826849894067
20
-13.5510959679851
30
-1E-16
0
SPLINE
5
198
100
AcDbEntity
8
1
62
256
6
ByLayer
370
-1
48
1
60
0
100
AcDbSpline
70
4
71
3
72
8
73
4
40
0
40
0
40
0
40
0
40
1
40
1
40
1
40
1
41
1
10
47.2249879081882
20
35.6399291897521
30
-2E-16
41
1
10
47.0372943988622
20
35.4330881046658
30
-2E-16
41
1
10
46.8904153453123
20
35.2159081165925
30
-2E-16
41
1
10
46.773157582874
20
34.9882143525212
30
-2E-16
0
SPLINE
5
199
100
AcDbEntity
8
1
62
256
6
ByLayer
370
-1
48
1
60
0
100
AcDbSpline
70
4
71
3
72
18
73
14
40
0
40
0
40
0
40
0
40
0.0610393724313087
40
0.0610393724313087
40
0.260509512523338
40
0.260509512523338
40
0.460047826554832
40
0.460047826554832
40
0.663349959098883
40
0.663349959098883
40
0.872529668646489
40
0.872529668646489
40
1
40
1
40
1
40
1
41
1
10
49.44634625
20
26.0492673242724
30
0
41
1
10
49.44634625
20
26.0670673500922
30
0
41
1
10
49.4449947172968
20
26.0851466973873
30
0
41
1
10
49.4335602697106
20
26.162483175412
30
0
41
1
10
49.4101470464737
20
26.2241231174098
30
0
41
1
10
49.3381170961621
20
26.3422924911037
30
0
41
1
10
49.2885456917331
20
26.4004095340865
30
0
41
1
10
49.1696696679944
20
26.5065567208699
30
-1E-16
41
1
10
49.0984429765171
20
26.555807470268
30
-1E-16
41
1
10
48.9429459453794
20
26.639493819277
30
-1E-16
41
1
10
48.856273206431
20
26.6746049936217
30
-1E-16
41
1
10
48.7148359024391
20
26.7153076160625
30
-1E-16
41
1
10
48.6599578888907
20
26.727322298638
30
-1E-16
41
1
10
48.6056470237007
20
26.735525421401
30
-1E-16
0
SPLINE
5
19A
100
AcDbEntity
8
1
62
256
6
ByLayer
370
-1
48
1
60
0
100
AcDbSpline
70
4
71
3
72
10
73
6
40
0
40
0
40
0
40
0
40
0.786800603079041
40
0.786800603079041
40
1
40
1
40
1
40
1
41
1
10
48.6826849894068
20
-9.82428769410029
30
-1E-16
41
1
10
48.7584670155621
20
-9.91057704225938
30
-1E-16
41
1
10
48.8436898592866
20
-9.98044627571625
30
-1E-16
41
1
10
48.9537316456251
20
-10.0524768142652
30
-1E-16
41
1
10
48.9775481930717
20
-10.0669900809243
30
-1E-16
41
1
10
49.0014934301605
20
-10.0806111963861
30
-1E-16
0
SPLINE
5
19B
100
AcDbEntity
8
1
62
256
6
ByLayer
370
-1
48
1
60
0
100
AcDbSpline
70
4
71
3
72
10
73
6
40
0
40
0
40
0
40
0
40
0.5
40
0.5
40
1
40
1
40
1
40
1
41
1
10
29.8711555383681
20
-29.2792795530527
30
5E-16
41
1
10
30.1131515844016
20
-30.3720704529971
30
6E-16
41
1
10
30.5278312108781
20
-31.3703874540291
30
6E-16
41
1
10
31.7909585207951
20
-33.271059356655
30
7E-16
41
1
10
32.649368063122
20
-34.1746019888348
30
-2E-16
41
1
10
33.7593144897801
20
-35.0785042404387
30
-1E-16
0
SPLINE
5
19C
100
AcDbEntity
8
1
62
256
6
ByLayer
370
-1
48
1
60
0
100
AcDbSpline
70
4
71
3
72
10
73
6
40
0
40
0
40
0
40
0
40
0.408137415610187
40
0.408137415610187
40
1
40
1
40
1
40
1
41
1
10
38.2946988937236
20
9.07616068292629
30
-7E-16
41
1
10
38.4368720194929
20
9.02484394215941
30
-7E-16
41
1
10
38.5852379640012
20
8.9791834913554
30
-7E-16
41
1
10
38.9610329147605
20
8.88404011034652
30
-7E-16
41
1
10
39.1959606788953
20
8.84190536499068
30
-7E-16
41
1
10
39.4356665157808
20
8.81708096654148
30
-6E-16
0
SPLINE
5
19D
100
AcDbEntity
8
1
62
256
6
ByLayer
370
-1
48
1
60
0
100
AcDbSpline
70
4
71
3
72
8
73
4
40
0
40
0
40
0
40
0
40
1
40
1
40
1
40
1
41
1
10
49.0014934301605
20
17.926223122049
30
-1E-16
41
1
10
49.0277484298747
20
17.8803547151966
30
-1E-16
41
1
10
49.0573050238678
20
17.8379921539981
30
-1E-16
41
1
10
49.0897917706039
20
17.7996684747951
30
-1E-16
0
SPLINE
5
19E
100
AcDbEntity
8
1
62
256
6
ByLayer
370
-1
48
1
60
0
100
AcDbSpline
70
4
71
3
72
14
73
10
40
0
40
0
40
0
40
0
40
0.30170048858541
40
0.30170048858541
40
0.602573742373836
40
0.602573742373836
40
0.919039537151749
40
0.919039537151749
40
1
40
1
40
1
40
1
41
1
10
39.4356665157812
20
38.2331550876531
30
2E-16
41
1
10
39.3079188947241
20
38.2129794482601
30
2E-16
41
1
10
39.1809072462834
20
38.1902522897418
30
2E-16
41
1
10
38.9488316983775
20
38.1448541709266
30
2E-16
41
1
10
38.840402609206
20
38.1215889991566
30
2E-16
41
1
10
38.6496467114392
20
38.0800276055931
30
2E-16
41
1
10
38.5659048150674
20
38.0614564996588
30
2E-16
41
1
10
38.490336970063
20
38.0480962810846
30
2E-16
41
1
10
38.4762985479185
20
38.0458646295286
30
2E-16
41
1
10
38.4639195520877
20
38.0442333299312
30
2E-16
0
SPLINE
5
19F
100
AcDbEntity
8
1
62
256
6
ByLayer
370
-1
48
1
60
0
100
AcDbSpline
70
4
71
3
72
8
73
4
40
0
40
0
40
0
40
0
40
1
40
1
40
1
40
1
41
1
10
49.23623838
20
-36.8552613523624
30
0
41
1
10
49.23623838
20
-36.8926075323286
30
0
41
1
10
49.2396456322456
20
-36.930125659983
30
0
41
1
10
49.2466950339699
20
-36.9674090676567
30
0
0
SPLINE
5
1A0
100
AcDbEntity
8
1
62
256
6
ByLayer
370
-1
48
1
60
0
100
AcDbSpline
70
4
71
3
72
18
73
14
40
0
40
0
40
0
40
0
40
0.252130221439202
40
0.252130221439202
40
0.455792955246089
40
0.455792955246089
40
0.628579621620118
40
0.628579621620118
40
0.802641312836241
40
0.802641312836241
40
0.957291452654262
40
0.957291452654262
40
1
40
1
40
1
40
1
41
1
10
32.0551136301007
20
-29.4092458312434
30
-1.1E-15
41
1
10
31.7887074400076
20
-29.2487339135084
30
-1.1E-15
41
1
10
31.5114882680548
20
-29.1085156758066
30
-1.1E-15
41
1
10
31.0324032135866
20
-28.9202822884986
30
-1.2E-15
41
1
10
30.8208000027185
20
-28.8579314712722
30
-1.2E-15
41
1
10
30.4710305095204
20
-28.800094270545
30
-1.2E-15
41
1
10
30.322827233145
20
-28.7955186390266
30
-1.2E-15
41
1
10
30.0814324098867
20
-28.8370865615914
30
-1.2E-15
41
1
10
29.9853718951528
20
-28.8845383514866
30
-1.2E-15
41
1
10
29.875392013949
20
-29.0181933571358
30
-1.2E-15
41
1
10
29.8521186844108
20
-29.1013163929991
30
5E-16
41
1
10
29.8607245690257
20
-29.2232117107686
30
5E-16
41
1
10
29.8648536109288
20
-29.2508216957009
30
5E-16
41
1
10
29.871155538368
20
-29.2792795530527
30
5E-16
0
SPLINE
5
1A1
100
AcDbEntity
8
1
62
256
6
ByLayer
370
-1
48
1
60
0
100
AcDbSpline
70
4
71
3
72
10
73
6
40
0
40
0
40
0
40
0
40
0.680260154418284
40
0.680260154418284
40
1
40
1
40
1
40
1
41
1
10
48.53623838
20
14.8919255066951
30
-1E-16
41
1
10
48.53623838
20
14.7815389115162
30
-1E-16
41
1
10
48.5539429148067
20
14.6704949697525
30
-1E-16
41
1
10
48.6189867603411
20
14.5146189680658
30
-1E-16
41
1
10
48.6461567566676
20
14.4652262497611
30
-1E-16
41
1
10
48.6826849894067
20
14.418950882247
30
-1E-16
0
SPLINE
5
1A2
100
AcDbEntity
8
1
62
256
6
ByLayer
370
-1
48
1
60
0
100
AcDbSpline
70
4
71
3
72
14
73
10
40
0
40
0
40
0
40
0
40
0.301700488585562
40
0.301700488585562
40
0.602573742373937
40
0.602573742373937
40
0.919039537151787
40
0.919039537151787
40
1
40
1
40
1
40
1
41
1
10
39.4356665157814
20
26.5802121743724
30
-6E-16
41
1
10
39.3079188947242
20
26.5593833161705
30
-7E-16
41
1
10
39.1809072462834
20
26.5181614396371
30
-7E-16
41
1
10
38.9488316983774
20
26.4058314539936
30
-7E-16
41
1
10
38.8404026092059
20
26.3333607012571
30
-7E-16
41
1
10
38.6496467114391
20
26.1648380635806
30
-7E-16
41
1
10
38.5659048150673
20
26.0650563989994
30
-7E-16
41
1
10
38.4903369700629
20
25.9351345631712
30
-7E-16
41
1
10
38.4762985479184
20
25.9080987745812
30
-7E-16
41
1
10
38.4639195520877
20
25.8809409792067
30
-7E-16
0
SPLINE
5
1A3
100
AcDbEntity
8
1
62
256
6
ByLayer
370
-1
48
1
60
0
100
AcDbSpline
70
4
71
3
72
8
73
4
40
0
40
0
40
0
40
0
40
1
40
1
40
1
40
1
41
1
10
41.5909172495132
20
-38.8421748940809
30
0
41
1
10
41.6095391939095
20
-38.8452727759214
30
0
41
1
10
41.6285931826367
20
-38.8473465810974
30
0
41
1
10
41.647633428414
20
-38.8483164188737
30
0
0
SPLINE
5
1A4
100
AcDbEntity
8
1
62
256
6
ByLayer
370
-1
48
1
60
0
100
AcDbSpline
70
4
71
3
72
8
73
4
40
0
40
0
40
0
40
0
40
1
40
1
40
1
40
1
41
1
10
39.4356665157812
20
35.1820655578053
30
-6E-16
41
1
10
40.1539455405159
20
35.2490678983523
30
-6E-16
41
1
10
40.8723655584593
20
35.3159071007176
30
-6E-16
41
1
10
41.5909172495138
20
35.3825919430534
30
-5E-16
0
SPLINE
5
1A5
100
AcDbEntity
8
1
62
256
6
ByLayer
370
-1
48
1
60
0
100
AcDbSpline
70
4
71
3
72
8
73
4
40
0
40
0
40
0
40
0
40
1
40
1
40
1
40
1
41
1
10
39.4356665157811
20
8.81708096654205
30
-6E-16
41
1
10
40.1539455405159
20
8.74269460641256
30
-6E-16
41
1
10
40.8723655584593
20
8.66870838012474
30
-6E-16
41
1
10
41.5909172495138
20
8.59510055634718
30
-5E-16
0
SPLINE
5
1A6
100
AcDbEntity
8
1
62
256
6
ByLayer
370
-1
48
1
60
0
100
AcDbSpline
70
4
71
3
72
8
73
4
40
0
40
0
40
0
40
0
40
1
40
1
40
1
40
1
41
1
10
41.6476334284145
20
-38.8483164188711
30
0
41
1
10
43.3185903089206
20
-38.9334286135473
30
0
41
1
10
44.9895472208619
20
-39.0185402248534
30
0
41
1
10
46.6605041635916
20
-39.1036512647661
30
0
0
SPLINE
5
1A7
100
AcDbEntity
8
1
62
256
6
ByLayer
370
-1
48
1
60
0
100
AcDbSpline
70
4
71
3
72
8
73
4
40
0
40
0
40
0
40
0
40
1
40
1
40
1
40
1
41
1
10
49.24669503397
20
-10.0043641964917
30
0
41
1
10
49.3132410262904
20
-10.0679469635142
30
0
41
1
10
49.3797915427591
20
-10.1315283746343
30
0
41
1
10
49.44634625
20
-10.1951085297183
30
0
0
SPLINE
5
1A8
100
AcDbEntity
8
1
62
256
6
ByLayer
370
-1
48
1
60
0
100
AcDbSpline
70
4
71
3
72
8
73
4
40
0
40
0
40
0
40
0
40
1
40
1
40
1
40
1
41
1
10
41.5909172495133
20
35.3825919430545
30
-5E-16
41
1
10
41.6095391939096
20
35.3843201436022
30
-5E-16
41
1
10
41.6285931826368
20
35.3856386848145
30
-5E-16
41
1
10
41.6476334284141
20
35.3865038436883
30
-5E-16
0
SPLINE
5
1A9
100
AcDbEntity
8
1
62
256
6
ByLayer
370
-1
48
1
60
0
100
AcDbSpline
70
4
71
3
72
10
73
6
40
0
40
0
40
0
40
0
40
0.500136381081139
40
0.500136381081139
40
1
40
1
40
1
40
1
41
1
10
49.23623838
20
13.4767194693566
30
0
41
1
10
49.23623838
20
13.5521340953338
30
0
41
1
10
49.2254725835844
20
13.6276023309321
30
0
41
1
10
49.1795434767166
20
13.7747135341762
30
-1E-16
41
1
10
49.1443532902899
20
13.8477166326556
30
-1E-16
41
1
10
49.0897917705933
20
13.9140160978404
30
-1E-16
0
SPLINE
5
1AA
100
AcDbEntity
8
1
62
256
6
ByLayer
370
-1
48
1
60
0
100
AcDbSpline
70
4
71
3
72
10
73
6
40
0
40
0
40
0
40
0
40
0.193003604195108
40
0.193003604195108
40
1
40
1
40
1
40
1
41
1
10
49.3258185582989
20
-22.309420067613
30
0
41
1
10
49.3419790674143
20
-22.2671517886406
30
0
41
1
10
49.3563575042162
20
-22.2241721880471
30
0
41
1
10
49.4216520604946
20
-22.0008482890863
30
0
41
1
10
49.4463462499999
20
-21.811309634546
30
0
41
1
10
49.4463462499999
20
-21.6240203925426
30
0
0
SPLINE
5
1AB
100
AcDbEntity
8
1
62
256
6
ByLayer
370
-1
48
1
60
0
100
AcDbSpline
70
4
71
3
72
8
73
4
40
0
40
0
40
0
40
0
40
1
40
1
40
1
40
1
41
1
10
41.6476334284145
20
-22.7200674211495
30
-5E-16
41
1
10
43.6620336464879
20
-22.7838898701302
30
-4E-16
41
1
10
45.6764339102459
20
-22.8477109830352
30
-3E-16
41
1
10
47.6908342185583
20
-22.91153079284
30
-1E-16
0
SPLINE
5
1AC
100
AcDbEntity
8
1
62
256
6
ByLayer
370
-1
48
1
60
0
100
AcDbSpline
70
4
71
3
72
12
73
8
40
0
40
0
40
0
40
0
40
0.233237920374288
40
0.233237920374288
40
0.882999836558492
40
0.882999836558492
40
1
40
1
40
1
40
1
41
1
10
39.0952925945781
20
24.812701529572
30
-7E-16
41
1
10
39.0235021348182
20
24.7825848175581
30
-7E-16
41
1
10
38.9532567825184
20
24.7460086849898
30
-7E-16
41
1
10
38.6963025413521
20
24.5912168986862
30
-7E-16
41
1
10
38.5196814202058
20
24.4410002564282
30
-7E-16
41
1
10
38.3268795130862
20
24.247992857651
30
-7E-16
41
1
10
38.2974202830728
20
24.2176153853084
30
-7E-16
41
1
10
38.2684358506052
20
24.1869656363954
30
-7E-16
0
SPLINE
5
1AD
100
AcDbEntity
8
1
62
256
6
ByLayer
370
-1
48
1
60
0
100
AcDbSpline
70
4
71
3
72
14
73
10
40
0
40
0
40
0
40
0
40
0.298008710880828
40
0.298008710880828
40
0.596322864423566
40
0.596322864423566
40
0.894099609335033
40
0.894099609335033
40
1
40
1
40
1
40
1
41
1
10
41.5909172495118
20
28.2052075268795
30
-5E-16
41
1
10
41.4474790546245
20
28.1852426365553
30
-5E-16
41
1
10
41.3027237381343
20
28.148084159461
30
-5E-16
41
1
10
41.0340755774895
20
28.0449411689188
30
-5E-16
41
1
10
40.9065150033131
20
27.9774837124222
30
-6E-16
41
1
10
40.6870027820682
20
27.8213140730246
30
-6E-16
41
1
10
40.5919228123311
20
27.7304088050477
30
-6E-16
41
1
10
40.4942480687207
20
27.5994624618753
30
-6E-16
41
1
10
40.4712218164608
20
27.5640261956271
30
-6E-16
41
1
10
40.4511940240344
20
27.5280565362381
30
-6E-16
0
SPLINE
5
1AE
100
AcDbEntity
8
1
62
256
6
ByLayer
370
-1
48
1
60
0
100
AcDbSpline
70
4
71
3
72
8
73
4
40
0
40
0
40
0
40
0
40
1
40
1
40
1
40
1
41
1
10
48.53623838
20
-9.25699476788273
30
-1E-16
41
1
10
48.53623838
20
-8.67614234026163
30
-1E-16
41
1
10
48.477019454024
20
-8.10168361568455
30
-1E-16
41
1
10
48.3019238049492
20
-7.53973577922301
30
-1E-16
0
SPLINE
5
1AF
100
AcDbEntity
8
1
62
256
6
ByLayer
370
-1
48
1
60
0
100
AcDbSpline
70
4
71
3
72
8
73
4
40
0
40
0
40
0
40
0
40
1
40
1
40
1
40
1
41
1
10
49.44634625
20
35.0268418038905
30
0
41
1
10
49.4463462499999
20
35.174116463947
30
0
41
1
10
49.4395593670678
20
35.3221784006664
30
0
41
1
10
49.4226643551135
20
35.4714269229714
30
0
0
SPLINE
5
1B0
100
AcDbEntity
8
1
62
256
6
ByLayer
370
-1
48
1
60
0
100
AcDbSpline
70
4
71
3
72
8
73
4
40
0
40
0
40
0
40
0
40
1
40
1
40
1
40
1
41
1
10
48.6264804554971
20
18.5961642982912
30
-1E-16
41
1
10
48.5553512971286
20
18.7868456060521
30
-1E-16
41
1
10
48.5362383800001
20
18.9893348550955
30
-1E-16
41
1
10
48.5362383800001
20
19.1910030926875
30
-1E-16
0
SPLINE
5
1B1
100
AcDbEntity
8
1
62
256
6
ByLayer
370
-1
48
1
60
0
100
AcDbSpline
70
4
71
3
72
8
73
4
40
0
40
0
40
0
40
0
40
1
40
1
40
1
40
1
41
1
10
39.7495190286115
20
-3.30591746033934
30
-6E-16
41
1
10
39.6471548446605
20
-3.2811592400094
30
-6E-16
41
1
10
39.5403726486181
20
-3.27147710808097
30
-6E-16
41
1
10
39.435666515781
20
-3.27691643454696
30
-6E-16
0
SPLINE
5
1B2
100
AcDbEntity
8
1
62
256
6
ByLayer
370
-1
48
1
60
0
100
AcDbSpline
70
4
71
3
72
8
73
4
40
0
40
0
40
0
40
0
40
1
40
1
40
1
40
1
41
1
10
49.4392253455803
20
33.7207580910249
30
0
41
1
10
49.4438672684555
20
33.7058321777195
30
0
41
1
10
49.44634625
20
33.6897235207784
30
0
41
1
10
49.44634625
20
33.6721841505056
30
0
0
SPLINE
5
1B3
100
AcDbEntity
8
1
62
256
6
ByLayer
370
-1
48
1
60
0
100
AcDbSpline
70
4
71
3
72
14
73
10
40
0
40
0
40
0
40
0
40
0.214143504105593
40
0.214143504105593
40
0.501634309456271
40
0.501634309456271
40
0.793808733119598
40
0.793808733119598
40
1
40
1
40
1
40
1
41
1
10
42.7066135587495
20
-32.8691781838961
30
-4E-16
41
1
10
42.6775501878284
20
-32.8137952987139
30
-4E-16
41
1
10
42.6354042043443
20
-32.7590779548231
30
-5E-16
41
1
10
42.51092085718
20
-32.6386153771183
30
-5E-16
41
1
10
42.4178669529983
20
-32.5739230087914
30
-5E-16
41
1
10
42.2020712740501
20
-32.4630139910747
30
-5E-16
41
1
10
42.0759676038703
20
-32.4156130602096
30
-5E-16
41
1
10
41.8481164726571
20
-32.3557293708209
30
-5E-16
41
1
10
41.7484101405775
20
-32.3366260982013
30
-5E-16
41
1
10
41.647633428414
20
-32.3240728885332
30
-5E-16
0
SPLINE
5
1B4
100
AcDbEntity
8
1
62
256
6
ByLayer
370
-1
48
1
60
0
100
AcDbSpline
70
4
71
3
72
14
73
10
40
0
40
0
40
0
40
0
40
0.289377151155256
40
0.289377151155256
40
0.581483326269558
40
0.581483326269558
40
0.85237388659895
40
0.85237388659895
40
1
40
1
40
1
40
1
41
1
10
48.3019238049492
20
19.7449037632521
30
-1E-16
41
1
10
48.2279328462501
20
19.6131790290731
30
-1E-16
41
1
10
48.1639383829429
20
19.474705426443
30
-1E-16
41
1
10
48.0712202460765
20
19.2014297313211
30
-1E-16
41
1
10
48.0420211248298
20
19.0631760792323
30
-1E-16
41
1
10
48.026674619592
20
18.8198119930349
30
-1E-16
41
1
10
48.0372090635429
20
18.7100745654999
30
-1E-16
41
1
10
48.0762575605251
20
18.5621823735215
30
-1E-16
41
1
10
48.0944282664406
20
18.5134926268584
30
-1E-16
41
1
10
48.1161454199203
20
18.4686481318848
30
-1E-16
0
SPLINE
5
1B5
100
AcDbEntity
8
1
62
256
6
ByLayer
370
-1
48
1
60
0
100
AcDbSpline
70
4
71
3
72
8
73
4
40
0
40
0
40
0
40
0
40
1
40
1
40
1
40
1
41
1
10
49.0897917705933
20
13.9140160978404
30
-1E-16
41
1
10
48.9518770256983
20
14.0816007596769
30
-1E-16
41
1
10
48.8161214428262
20
14.2499084605707
30
-1E-16
41
1
10
48.6826849894067
20
14.418950882247
30
-1E-16
0
SPLINE
5
1B6
100
AcDbEntity
8
1
62
256
6
ByLayer
370
-1
48
1
60
0
100
AcDbSpline
70
4
71
3
72
14
73
10
40
0
40
0
40
0
40
0
40
0.298008710880842
40
0.298008710880842
40
0.596322864423588
40
0.596322864423588
40
0.89409960933507
40
0.89409960933507
40
1
40
1
40
1
40
1
41
1
10
41.5909172495118
20
-32.3170310840234
30
-5E-16
41
1
10
41.4474790546245
20
-32.2992626184628
30
-5E-16
41
1
10
41.3027237381342
20
-32.2950851906971
30
-5E-16
41
1
10
41.0340755774895
20
-32.3145454618058
30
-5E-16
41
1
10
40.9065150033131
20
-32.3384839249465
30
-6E-16
41
1
10
40.6870027820681
20
-32.410566356318
30
-6E-16
41
1
10
40.591922812331
20
-32.4596858395529
30
-6E-16
41
1
10
40.4942480687206
20
-32.5382936119347
30
-6E-16
41
1
10
40.4712218164608
20
-32.5602469463253
30
-6E-16
41
1
10
40.4511940240344
20
-32.5831784382484
30
-6E-16
0
SPLINE
5
1B7
100
AcDbEntity
8
1
62
256
6
ByLayer
370
-1
48
1
60
0
100
AcDbSpline
70
4
71
3
72
8
73
4
40
0
40
0
40
0
40
0
40
1
40
1
40
1
40
1
41
1
10
41.647633428414
20
-1.36302044113876
30
-5E-16
41
1
10
41.6288116708407
20
-1.36019999568487
30
-5E-16
41
1
10
41.6097032459011
20
-1.35894572979419
30
-5E-16
41
1
10
41.5909172495117
20
-1.35933411778751
30
-5E-16
0
SPLINE
5
1B8
100
AcDbEntity
8
1
62
256
6
ByLayer
370
-1
48
1
60
0
100
AcDbSpline
70
4
71
3
72
16
73
12
40
0
40
0
40
0
40
0
40
0.413415648582458
40
0.413415648582458
40
0.768805160139483
40
0.768805160139483
40
0.946955670949554
40
0.946955670949554
40
0.985093597376962
40
0.985093597376962
40
1
40
1
40
1
40
1
41
1
10
48.6056470237007
20
32.3957387348479
30
-1E-16
41
1
10
48.7332548461014
20
32.6934535486562
30
-1E-16
41
1
10
48.8590904549474
20
32.9599357203084
30
-1E-16
41
1
10
49.0849297892107
20
33.3817271020457
30
-1E-16
41
1
10
49.1874751936026
20
33.5522646845077
30
0
41
1
10
49.3285383173349
20
33.7180088005603
30
0
41
1
10
49.3750933319879
20
33.7632493009294
30
0
41
1
10
49.4192765283282
20
33.7517413694308
30
0
41
1
10
49.4266233497031
20
33.7466762569869
30
0
41
1
10
49.4351155719179
20
33.7319306300984
30
0
41
1
10
49.437310103531
20
33.7269164735651
30
0
41
1
10
49.4392253455803
20
33.720758091025
30
0
0
SPLINE
5
1B9
100
AcDbEntity
8
1
62
256
6
ByLayer
370
-1
48
1
60
0
100
AcDbSpline
70
4
71
3
72
8
73
4
40
0
40
0
40
0
40
0
40
1
40
1
40
1
40
1
41
1
10
49.2362383799999
20
-19.2166602293125
30
0
41
1
10
49.2362383799999
20
-19.2754174318555
30
0
41
1
10
49.2396456322456
20
-19.334280061877
30
0
41
1
10
49.2466950339699
20
-19.3925969221007
30
0
0
SPLINE
5
1BA
100
AcDbEntity
8
1
62
256
6
ByLayer
370
-1
48
1
60
0
100
AcDbSpline
70
4
71
3
72
8
73
4
40
0
40
0
40
0
40
0
40
1
40
1
40
1
40
1
41
1
10
49.4463462499999
20
-21.0048158908416
30
0
41
1
10
49.3782726008094
20
-20.4676035157462
30
0
41
1
10
49.3116807918881
20
-19.9301979142552
30
0
41
1
10
49.2466950339699
20
-19.3925969221007
30
0
0
SPLINE
5
1BB
100
AcDbEntity
8
1
62
256
6
ByLayer
370
-1
48
1
60
0
100
AcDbSpline
70
4
71
3
72
12
73
8
40
0
40
0
40
0
40
0
40
0.406200525462248
40
0.406200525462248
40
0.945626442285378
40
0.945626442285378
40
1
40
1
40
1
40
1
41
1
10
40.4511940240344
20
-2.12809809902819
30
-6E-16
41
1
10
40.4025376458324
20
-2.19482390725867
30
-6E-16
41
1
10
40.3620523057317
20
-2.26847604334628
30
-6E-16
41
1
10
40.2913925521417
20
-2.44784484004092
30
-6E-16
41
1
10
40.2681559621134
20
-2.55873306866906
30
-6E-16
41
1
10
40.2634030975562
20
-2.680283099576
30
-6E-16
41
1
10
40.2631538933475
20
-2.69154806254156
30
-6E-16
41
1
10
40.2630956197483
20
-2.70281426736804
30
-6E-16
0
SPLINE
5
1BC
100
AcDbEntity
8
1
62
256
6
ByLayer
370
-1
48
1
60
0
100
AcDbSpline
70
4
71
3
72
8
73
4
40
0
40
0
40
0
40
0
40
1
40
1
40
1
40
1
41
1
10
49.0014934301605
20
-10.0806111963861
30
-1E-16
41
1
10
49.0277484298748
20
-10.1551042771112
30
-1E-16
41
1
10
49.0573050238681
20
-10.2283812226328
30
-1E-16
41
1
10
49.0897917706043
20
-10.299562383272
30
-1E-16
0
SPLINE
5
1BD
100
AcDbEntity
8
1
62
256
6
ByLayer
370
-1
48
1
60
0
100
AcDbSpline
70
4
71
3
72
8
73
4
40
0
40
0
40
0
40
0
40
1
40
1
40
1
40
1
41
1
10
38.2946988937235
20
-21.776466008768
30
-7E-16
41
1
10
38.0748343823944
20
-21.6369525381057
30
-7E-16
41
1
10
37.8713135284613
20
-21.4690593897035
30
-7E-16
41
1
10
37.6864242580451
20
-21.2851032283837
30
-8E-16
0
SPLINE
5
1BE
100
AcDbEntity
8
1
62
256
6
ByLayer
370
-1
48
1
60
0
100
AcDbSpline
70
4
71
3
72
8
73
4
40
0
40
0
40
0
40
0
40
1
40
1
40
1
40
1
41
1
10
48.6246787101671
20
-8.97965353446557
30
-1E-16
41
1
10
48.6252755080049
20
-8.97867796556554
30
-1E-16
41
1
10
48.6258760805036
20
-8.97770372621338
30
-1E-16
41
1
10
48.6264804554971
20
-8.97673084882814
30
-1E-16
0
SPLINE
5
1BF
100
AcDbEntity
8
1
62
256
6
ByLayer
370
-1
48
1
60
0
100
AcDbSpline
70
4
71
3
72
10
73
6
40
0
40
0
40
0
40
0
40
0.680260154422298
40
0.680260154422298
40
1
40
1
40
1
40
1
41
1
10
48.5362383799999
20
-12.7735398761274
30
-1E-16
41
1
10
48.5362383799999
20
-12.9534283397383
30
-1E-16
41
1
10
48.5539429148069
20
-13.135208425888
30
-1E-16
41
1
10
48.6189867603418
20
-13.3922414565798
30
-1E-16
41
1
10
48.646156756668
20
-13.4739919427545
30
-1E-16
41
1
10
48.6826849894067
20
-13.5510959679851
30
-1E-16
0
SPLINE
5
1C0
100
AcDbEntity
8
1
62
256
6
ByLayer
370
-1
48
1
60
0
100
AcDbSpline
70
4
71
3
72
8
73
4
40
0
40
0
40
0
40
0
40
1
40
1
40
1
40
1
41
1
10
32.0551136301007
20
-2.56979373742863
30
-1.1E-15
41
1
10
33.9303640678103
20
-2.97990188255761
30
-1E-15
41
1
10
35.8076355407415
20
-3.38990603327929
30
-9E-16
41
1
10
37.6864242580455
20
-3.79982880123063
30
-8E-16
0
SPLINE
5
1C1
100
AcDbEntity
8
1
62
256
6
ByLayer
370
-1
48
1
60
0
100
AcDbSpline
70
4
71
3
72
8
73
4
40
0
40
0
40
0
40
0
40
1
40
1
40
1
40
1
41
1
10
48.6264804554971
20
-8.97673084882811
30
-1E-16
41
1
10
48.5553512971286
20
-8.66575229395855
30
-1E-16
41
1
10
48.53623838
20
-8.34265033875968
30
-1E-16
41
1
10
48.53623838
20
-8.02326529898329
30
-1E-16
0
SPLINE
5
1C2
100
AcDbEntity
8
1
62
256
6
ByLayer
370
-1
48
1
60
0
100
AcDbSpline
70
4
71
3
72
10
73
6
40
0
40
0
40
0
40
0
40
0.408137415610185
40
0.408137415610185
40
1
40
1
40
1
40
1
41
1
10
38.2946988937236
20
-21.7764660087679
30
-7E-16
41
1
10
38.4368720194929
20
-21.8666809601989
30
-7E-16
41
1
10
38.5852379640011
20
-21.9479652589626
30
-7E-16
41
1
10
38.9610329147605
20
-22.1204266924434
30
-7E-16
41
1
10
39.1959606788952
20
-22.1999765395956
30
-7E-16
41
1
10
39.4356665157808
20
-22.2515384655663
30
-6E-16
0
SPLINE
5
1C3
100
AcDbEntity
8
1
62
256
6
ByLayer
370
-1
48
1
60
0
100
AcDbSpline
70
4
71
3
72
14
73
10
40
0
40
0
40
0
40
0
40
0.282549503318257
40
0.282549503318257
40
0.571039329725082
40
0.571039329725082
40
0.864612547163903
40
0.864612547163903
40
1
40
1
40
1
40
1
41
1
10
42.7066135587495
20
27.6073285703644
30
-4E-16
41
1
10
42.6683073097283
20
27.6999194549248
30
-4E-16
41
1
10
42.6069043462468
20
27.7877998155273
30
-5E-16
41
1
10
42.4465234409291
20
27.9424006229195
30
-5E-16
41
1
10
42.3446284530629
20
28.0107470054133
30
-5E-16
41
1
10
42.1139640289206
20
28.1188896317971
30
-5E-16
41
1
10
41.9816400219128
20
28.1596621007729
30
-5E-16
41
1
10
41.7798919396836
20
28.1951269382196
30
-5E-16
41
1
10
41.7140420480298
20
28.2029747579955
30
-5E-16
41
1
10
41.6476334284141
20
28.2072836447381
30
-5E-16
0
SPLINE
5
1C4
100
AcDbEntity
8
1
62
256
6
ByLayer
370
-1
48
1
60
0
100
AcDbSpline
70
4
71
3
72
10
73
6
40
0
40
0
40
0
40
0
40
0.5
40
0.5
40
1
40
1
40
1
40
1
41
1
10
29.8711555383683
20
21.685924602123
30
-1.2E-15
41
1
10
30.113960008697
20
20.2206008989974
30
-1.2E-15
41
1
10
30.5300790258122
20
18.7271442029456
30
-1.2E-15
41
1
10
31.789809841692
20
15.7812528075524
30
-1.1E-15
41
1
10
32.6477433426951
20
14.3112538614661
30
-1.1E-15
41
1
10
33.7593144897801
20
13.0378747108101
30
-1E-15
0
SPLINE
5
1C5
100
AcDbEntity
8
1
62
256
6
ByLayer
370
-1
48
1
60
0
100
AcDbSpline
70
4
71
3
72
10
73
6
40
0
40
0
40
0
40
0
40
0.500136381081125
40
0.500136381081125
40
1
40
1
40
1
40
1
41
1
10
49.23623838
20
-15.1122279998894
30
0
41
1
10
49.23623838
20
-14.9893306392201
30
0
41
1
10
49.2254725835843
20
-14.8658470477465
30
0
41
1
10
49.1795434767165
20
-14.6239830706876
30
-1E-16
41
1
10
49.1443532902898
20
-14.5033849401017
30
-1E-16
41
1
10
49.0897917705932
20
-14.3928135679704
30
-1E-16
0
SPLINE
5
1C6
100
AcDbEntity
8
1
62
256
6
ByLayer
370
-1
48
1
60
0
100
AcDbSpline
70
4
71
3
72
8
73
4
40
0
40
0
40
0
40
0
40
1
40
1
40
1
40
1
41
1
10
41.647633428414
20
-32.3240728885331
30
-5E-16
41
1
10
41.6288116708407
20
-32.3217283640486
30
-5E-16
41
1
10
41.6097032459011
20
-32.3193582070755
30
-5E-16
41
1
10
41.5909172495117
20
-32.3170310840234
30
-5E-16
0
SPLINE
5
1C7
100
AcDbEntity
8
1
62
256
6
ByLayer
370
-1
48
1
60
0
100
AcDbSpline
70
4
71
3
72
18
73
14
40
0
40
0
40
0
40
0
40
0.154035677383581
40
0.154035677383581
40
0.306728793224129
40
0.306728793224129
40
0.481209605794706
40
0.481209605794706
40
0.693237404720206
40
0.693237404720206
40
0.923919956608149
40
0.923919956608149
40
1
40
1
40
1
40
1
41
1
10
48.6826849894068
20
-9.82428769410032
30
-1E-16
41
1
10
48.6531696931952
20
-9.7906800459543
30
-1E-16
41
1
10
48.6303755559234
20
-9.74939552008479
30
-1E-16
41
1
10
48.5973224185671
20
-9.66114039330247
30
-1E-16
41
1
10
48.5862834696095
20
-9.61313975272333
30
-1E-16
41
1
10
48.5700554274723
20
-9.50957056103377
30
-1E-16
41
1
10
48.565604251532
20
-9.45267944681453
30
-1E-16
41
1
10
48.5610932561274
20
-9.33068938888169
30
-1E-16
41
1
10
48.5620110007935
20
-9.26476060663728
30
-1E-16
41
1
10
48.5719377634306
20
-9.13877585025759
30
-1E-16
41
1
10
48.5819025444186
20
-9.07777188619997
30
-1E-16
41
1
10
48.6080207661367
20
-9.01024022910639
30
-1E-16
41
1
10
48.6156918167603
20
-8.99434416025753
30
-1E-16
41
1
10
48.624678710162
20
-8.97965353446321
30
-1E-16
0
SPLINE
5
1C8
100
AcDbEntity
8
1
62
256
6
ByLayer
370
-1
48
1
60
0
100
AcDbSpline
70
4
71
3
72
8
73
4
40
0
40
0
40
0
40
0
40
1
40
1
40
1
40
1
41
1
10
39.7495190286114
20
-33.1078101945617
30
-6E-16
41
1
10
39.6471548446605
20
-33.0811960564432
30
-6E-16
41
1
10
39.5403726486179
20
-33.0617153657895
30
-6E-16
41
1
10
39.4356665157808
20
-33.0502968208144
30
-6E-16
0
SPLINE
5
1C9
100
AcDbEntity
8
1
62
256
6
ByLayer
370
-1
48
1
60
0
100
AcDbSpline
70
4
71
3
72
10
73
6
40
0
40
0
40
0
40
0
40
0.806989731316375
40
0.806989731316375
40
1
40
1
40
1
40
1
41
1
10
38.7473857297868
20
35.7087261414188
30
2E-16
41
1
10
38.6098373409086
20
35.6133799113162
30
2E-16
41
1
10
38.4793982841145
20
35.5171673985478
30
2E-16
41
1
10
38.3268795130862
20
35.4160708845154
30
2E-16
41
1
10
38.2974202830728
20
35.3972836191487
30
2E-16
41
1
10
38.2684358506052
20
35.3801582590116
30
2E-16
0
SPLINE
5
1CA
100
AcDbEntity
8
1
62
256
6
ByLayer
370
-1
48
1
60
0
100
AcDbSpline
70
4
71
3
72
8
73
4
40
0
40
0
40
0
40
0
40
1
40
1
40
1
40
1
41
1
10
48.1161454199203
20
18.4686481318848
30
-1E-16
41
1
10
48.1763292094778
20
18.3443725609251
30
-1E-16
41
1
10
48.2382790844072
20
18.2204617402241
30
-1E-16
41
1
10
48.3019238049492
20
18.0969296347257
30
-1E-16
0
SPLINE
5
1CB
100
AcDbEntity
8
1
62
256
6
ByLayer
370
-1
48
1
60
0
100
AcDbSpline
70
4
71
3
72
8
73
4
40
0
40
0
40
0
40
0
40
1
40
1
40
1
40
1
41
1
10
35.4458486828724
20
34.4515468850226
30
9E-16
41
1
10
36.1123803063287
20
34.546762855323
30
-9E-16
41
1
10
36.8529020696904
20
34.6770537609037
30
-8E-16
41
1
10
37.6864242580452
20
34.8805781259601
30
-8E-16
0
SPLINE
5
1CC
100
AcDbEntity
8
1
62
256
6
ByLayer
370
-1
48
1
60
0
100
AcDbSpline
70
4
71
3
72
8
73
4
40
0
40
0
40
0
40
0
40
1
40
1
40
1
40
1
41
1
10
49.4463462499999
20
-23.1535042596083
30
0
41
1
10
49.4463462499999
20
-22.8644608621428
30
0
41
1
10
49.4261788612523
20
-22.5772957151324
30
0
41
1
10
49.3258185582989
20
-22.309420067613
30
0
0
SPLINE
5
1CD
100
AcDbEntity
8
1
62
256
6
ByLayer
370
-1
48
1
60
0
100
AcDbSpline
70
4
71
3
72
8
73
4
40
0
40
0
40
0
40
0
40
1
40
1
40
1
40
1
41
1
10
38.2946988937236
20
35.0157341112848
30
-7E-16
41
1
10
38.0742851141714
20
34.9710591074504
30
-7E-16
41
1
10
37.8730284980741
20
34.9261420113602
30
-7E-16
41
1
10
37.6864242580452
20
34.8805781259601
30
-8E-16
0
SPLINE
5
1CE
100
AcDbEntity
8
1
62
256
6
ByLayer
370
-1
48
1
60
0
100
AcDbSpline
70
4
71
3
72
8
73
4
40
0
40
0
40
0
40
0
40
1
40
1
40
1
40
1
41
1
10
33.7593144897801
20
-16.1176904563856
30
-1E-15
41
1
10
34.2984758420134
20
-16.9698814613619
30
-1E-15
41
1
10
34.8619134657307
20
-17.805853969476
30
-9E-16
41
1
10
35.4458486828723
20
-18.6281324408079
30
-9E-16
0
SPLINE
5
1CF
100
AcDbEntity
8
1
62
256
6
ByLayer
370
-1
48
1
60
0
100
AcDbSpline
70
4
71
3
72
18
73
14
40
0
40
0
40
0
40
0
40
0.0610393724313023
40
0.0610393724313023
40
0.260509512523321
40
0.260509512523321
40
0.460047826554816
40
0.460047826554816
40
0.663349959098874
40
0.663349959098874
40
0.872529668646481
40
0.872529668646481
40
1
40
1
40
1
40
1
41
1
10
49.44634625
20
-33.3119223418184
30
0
41
1
10
49.44634625
20
-33.3354381949486
30
0
41
1
10
49.4449947172967
20
-33.3588215086435
30
0
41
1
10
49.4335602697106
20
-33.456748436274
30
0
41
1
10
49.4101470464736
20
-33.5294931268728
30
0
41
1
10
49.338117096162
20
-33.6588779053512
30
0
41
1
10
49.288545691733
20
-33.7172611263475
30
0
41
1
10
49.1696696679943
20
-33.8133786197303
30
-1E-16
41
1
10
49.0984429765171
20
-33.8520121681575
30
-1E-16
41
1
10
48.9429459453794
20
-33.9048662641915
30
-1E-16
41
1
10
48.856273206431
20
-33.919087790496
30
-1E-16
41
1
10
48.7148359024391
20
-33.920373083327
30
-1E-16
41
1
10
48.6599578888907
20
-33.9158805703514
30
-1E-16
41
1
10
48.6056470237006
20
-33.9065630237014
30
-1E-16
0
SPLINE
5
1D0
100
AcDbEntity
8
1
62
256
6
ByLayer
370
-1
48
1
60
0
100
AcDbSpline
70
4
71
3
72
16
73
12
40
0
40
0
40
0
40
0
40
0.413415648582464
40
0.413415648582464
40
0.768805160139493
40
0.768805160139493
40
0.946955670949567
40
0.946955670949567
40
0.98509359737696
40
0.98509359737696
40
1
40
1
40
1
40
1
41
1
10
48.6056470237006
20
-28.7378066378831
30
-1E-16
41
1
10
48.7332548461014
20
-28.389473827311
30
-1E-16
41
1
10
48.8590904549474
20
-28.0101791365511
30
-1E-16
41
1
10
49.0849297892107
20
-27.2548507847273
30
-1E-16
41
1
10
49.1874751936025
20
-26.8841634682729
30
0
41
1
10
49.3285383173348
20
-26.2832811149224
30
0
41
1
10
49.3750933319879
20
-26.0724744182436
30
0
41
1
10
49.4192765283281
20
-25.8004814503962
30
0
41
1
10
49.4266233497031
20
-25.7510906440093
30
0
41
1
10
49.4351155719178
20
-25.6822537894407
30
0
41
1
10
49.437310103531
20
-25.6628750537737
30
0
41
1
10
49.4392253455803
20
-25.6436078774166
30
0
0
SPLINE
5
1D1
100
AcDbEntity
8
1
62
256
6
ByLayer
370
-1
48
1
60
0
100
AcDbSpline
70
4
71
3
72
10
73
6
40
0
40
0
40
0
40
0
40
0.786800603079047
40
0.786800603079047
40
1
40
1
40
1
40
1
41
1
10
48.6826849894068
20
17.9045475925322
30
-1E-16
41
1
10
48.7584670155622
20
17.8872588337858
30
-1E-16
41
1
10
48.8436898592867
20
17.8918061601483
30
-1E-16
41
1
10
48.9537316456251
20
17.9138652169468
30
-1E-16
41
1
10
48.9775481930718
20
17.9195965360575
30
-1E-16
41
1
10
49.0014934301605
20
17.926223122049
30
-1E-16
0
SPLINE
5
1D2
100
AcDbEntity
8
1
62
256
6
ByLayer
370
-1
48
1
60
0
100
AcDbSpline
70
4
71
3
72
8
73
4
40
0
40
0
40
0
40
0
40
1
40
1
40
1
40
1
41
1
10
32.0551136301007
20
24.0674494789937
30
-1.1E-15
41
1
10
33.9303640678103
20
24.6182784149372
30
-1E-15
41
1
10
35.8076355407415
20
25.1666170704554
30
-9E-16
41
1
10
37.6864242580456
20
25.7130675026475
30
-8E-16
0
SPLINE
5
1D3
100
AcDbEntity
8
1
62
256
6
ByLayer
370
-1
48
1
60
0
100
AcDbSpline
70
4
71
3
72
8
73
4
40
0
40
0
40
0
40
0
40
1
40
1
40
1
40
1
41
1
10
35.4458486828723
20
-36.3571452766274
30
0
41
1
10
36.1123803063286
20
-36.8297693780892
30
0
41
1
10
36.8529020696903
20
-37.310678520979
30
1E-16
41
1
10
37.6864242580451
20
-37.8271946159399
30
0
0
SPLINE
5
1D4
100
AcDbEntity
8
1
62
256
6
ByLayer
370
-1
48
1
60
0
100
AcDbSpline
70
4
71
3
72
16
73
12
40
0
40
0
40
0
40
0
40
0.0078029997421951
40
0.0078029997421951
40
0.147119825748069
40
0.147119825748069
40
0.322910463976943
40
0.322910463976943
40
0.662681005182766
40
0.662681005182766
40
1
40
1
40
1
40
1
41
1
10
-3.5358874726E-06
20
-7.32750353588747
30
5E-16
41
1
10
3.5358874442E-06
20
-7.32749646411256
30
5E-16
41
1
10
2.08159301138E-05
20
-7.32747918406989
30
5E-16
41
1
10
0.0007906385217353
20
-7.32670936147827
30
5E-16
41
1
10
0.0080248689650801
20
-7.31947513103492
30
5E-16
41
1
10
0.034350718303827
20
-7.29314928169617
30
5E-16
41
1
10
0.0562888334706031
20
-7.27121116652938
30
5E-16
41
1
10
0.131781036068631
20
-7.19571896393137
30
5E-16
41
1
10
0.197625316658517
20
-7.12987468334148
30
5E-16
41
1
10
0.339908622700591
20
-6.9875913772994
30
5E-16
41
1
10
0.419071491866802
20
-6.9084285081332
30
5E-16
41
1
10
0.499999999999986
20
-6.82750000000001
30
5E-16
0
SPLINE
5
1D5
100
AcDbEntity
8
1
62
256
6
ByLayer
370
-1
48
1
60
0
100
AcDbSpline
70
4
71
3
72
8
73
4
40
0
40
0
40
0
40
0
40
1
40
1
40
1
40
1
41
1
10
38.4639195520876
20
38.0442333299296
30
2E-16
41
1
10
38.1962482029264
20
37.9379323527835
30
2E-16
41
1
10
37.9369264918936
20
37.8087479776787
30
1E-16
41
1
10
37.6864242580457
20
37.6553925423307
30
1E-16
0
SPLINE
5
1D6
100
AcDbEntity
8
1
62
256
6
ByLayer
370
-1
48
1
60
0
100
AcDbSpline
70
4
71
3
72
8
73
4
40
0
40
0
40
0
40
0
40
1
40
1
40
1
40
1
41
1
10
35.4458486828723
20
-18.6281324408079
30
-9E-16
41
1
10
36.1123803063286
20
-19.5667204696529
30
-9E-16
41
1
10
36.8529020696903
20
-20.4557877045599
30
-8E-16
41
1
10
37.6864242580451
20
-21.2851032283837
30
-8E-16
0
SPLINE
5
1D7
100
AcDbEntity
8
1
62
256
6
ByLayer
370
-1
48
1
60
0
100
AcDbSpline
70
4
71
3
72
18
73
14
40
0
40
0
40
0
40
0
40
0.164278320100446
40
0.164278320100446
40
0.346084695567544
40
0.346084695567544
40
0.527724096788569
40
0.527724096788569
40
0.71000458910511
40
0.71000458910511
40
0.893513565639827
40
0.893513565639827
40
1
40
1
40
1
40
1
41
1
10
42.0407884749345
20
-2.07062466014861
30
-5E-16
41
1
10
41.9776528070597
20
-1.99258029150988
30
-5E-16
41
1
10
41.9017102707656
20
-1.92347203676326
30
-5E-16
41
1
10
41.7255573071372
20
-1.80665349627381
30
-5E-16
41
1
10
41.6211359811794
20
-1.76048204885265
30
-5E-16
41
1
10
41.4059532470354
20
-1.70615648033353
30
-5E-16
41
1
10
41.2922489949223
20
-1.69721762765047
30
-5E-16
41
1
10
41.0708502505573
20
-1.71707413748234
30
-5E-16
41
1
10
40.9601483962027
20
-1.74626470640899
30
-6E-16
41
1
10
40.7564840700399
20
-1.83841312325288
30
-6E-16
41
1
10
40.6608525283289
20
-1.90284903608159
30
-6E-16
41
1
10
40.5321803427687
20
-2.02509194857572
30
-6E-16
41
1
10
40.4890155389165
20
-2.07487633728871
30
-6E-16
41
1
10
40.4511940240344
20
-2.12809809902819
30
-6E-16
0
SPLINE
5
1D8
100
AcDbEntity
8
1
62
256
6
ByLayer
370
-1
48
1
60
0
100
AcDbSpline
70
4
71
3
72
8
73
4
40
0
40
0
40
0
40
0
40
1
40
1
40
1
40
1
41
1
10
49.4392253455803
20
-38.4923727327144
30
0
41
1
10
49.4438672684555
20
-38.4588009193992
30
0
41
1
10
49.4463462499999
20
-38.4242112597937
30
0
41
1
10
49.4463462499999
20
-38.3886405698122
30
0
0
SPLINE
5
1D9
100
AcDbEntity
8
1
62
256
6
ByLayer
370
-1
48
1
60
0
100
AcDbSpline
70
4
71
3
72
10
73
6
40
0
40
0
40
0
40
0
40
0.837652576570158
40
0.837652576570158
40
1
40
1
40
1
40
1
41
1
10
49.4392253455804
20
8.36761159427331
30
0
41
1
10
49.4431108110475
20
8.38726593953666
30
0
41
1
10
49.4454781477957
20
8.40631758434739
30
0
41
1
10
49.4462799990467
20
8.42798494671058
30
0
41
1
10
49.4463462499999
20
8.43148533971092
30
0
41
1
10
49.4463462499999
20
8.4349472610545
30
0
0
SPLINE
5
1DA
100
AcDbEntity
8
1
62
256
6
ByLayer
370
-1
48
1
60
0
100
AcDbSpline
70
4
71
3
72
8
73
4
40
0
40
0
40
0
40
0
40
1
40
1
40
1
40
1
41
1
10
38.4639195520875
20
25.8809409792058
30
-7E-16
41
1
10
38.1962482029264
20
25.84157897965
30
-7E-16
41
1
10
37.9369264918936
20
25.7859267085234
30
-7E-16
41
1
10
37.6864242580456
20
25.7130675026475
30
-8E-16
0
SPLINE
5
1DB
100
AcDbEntity
8
1
62
256
6
ByLayer
370
-1
48
1
60
0
100
AcDbSpline
70
4
71
3
72
14
73
10
40
0
40
0
40
0
40
0
40
0.301700488585243
40
0.301700488585243
40
0.602573742373752
40
0.602573742373752
40
0.919039537151748
40
0.919039537151748
40
1
40
1
40
1
40
1
41
1
10
39.4356665157808
20
-33.0502968208144
30
-6E-16
41
1
10
39.3079188947238
20
-33.0363655264673
30
-7E-16
41
1
10
39.1809072462832
20
-33.0298340919718
30
-7E-16
41
1
10
38.9488316983774
20
-33.0322580551331
30
-7E-16
41
1
10
38.8404026092059
20
-33.0411896530025
30
-7E-16
41
1
10
38.649646711439
20
-33.077295693926
30
-7E-16
41
1
10
38.5659048150673
20
-33.1060580941062
30
-7E-16
41
1
10
38.4903369700629
20
-33.1567430141693
30
-7E-16
41
1
10
38.4762985479184
20
-33.167961061204
30
-7E-16
41
1
10
38.4639195520876
20
-33.1799763390938
30
-7E-16
0
SPLINE
5
1DC
100
AcDbEntity
8
1
62
256
6
ByLayer
370
-1
48
1
60
0
100
AcDbSpline
70
4
71
3
72
8
73
4
40
0
40
0
40
0
40
0
40
1
40
1
40
1
40
1
41
1
10
38.4639195520875
20
-3.95915131470864
30
-7E-16
41
1
10
38.1962482029263
20
-3.90756404598648
30
-7E-16
41
1
10
37.9369264918935
20
-3.85448453134612
30
-7E-16
41
1
10
37.6864242580455
20
-3.79982880123063
30
-8E-16
0
SPLINE
5
1DD
100
AcDbEntity
8
1
62
256
6
ByLayer
370
-1
48
1
60
0
100
AcDbSpline
70
4
71
3
72
10
73
6
40
0
40
0
40
0
40
0
40
0.393689268701223
40
0.393689268701223
40
1
40
1
40
1
40
1
41
1
10
30.1910133509948
20
33.3462780869645
30
0
41
1
10
30.4301678048488
20
33.4896781970235
30
-1E-16
41
1
10
30.7488885859853
20
33.6035464095952
30
-1E-16
41
1
10
31.7927851447313
20
33.8578702187199
30
-2E-16
41
1
10
32.6501461715772
20
33.9767862003483
30
-2E-16
41
1
10
33.7593144897801
20
34.1793550996991
30
8E-16
0
SPLINE
5
1DE
100
AcDbEntity
8
1
62
256
6
ByLayer
370
-1
48
1
60
0
100
AcDbSpline
70
4
71
3
72
8
73
4
40
0
40
0
40
0
40
0
40
1
40
1
40
1
40
1
41
1
10
32.0551136301007
20
34.1963785407303
30
-2E-16
41
1
10
33.9303640678103
20
35.3524790425202
30
-1E-16
41
1
10
35.8076355407416
20
36.5052133313782
30
0
41
1
10
37.6864242580456
20
37.6553925423307
30
1E-16
0
SPLINE
5
1DF
100
AcDbEntity
8
1
62
256
6
ByLayer
370
-1
48
1
60
0
100
AcDbSpline
70
4
71
3
72
10
73
6
40
0
40
0
40
0
40
0
40
0.408137415610682
40
0.408137415610682
40
1
40
1
40
1
40
1
41
1
10
38.2946988937236
20
35.0157341112848
30
-7E-16
41
1
10
38.4368720194931
20
35.044550753111
30
-7E-16
41
1
10
38.5852379640016
20
35.0712681578967
30
-7E-16
41
1
10
38.9610329147609
20
35.1302225044042
30
-7E-16
41
1
10
39.1959606788955
20
35.1597053724722
30
-7E-16
41
1
10
39.4356665157808
20
35.1820655578055
30
-6E-16
0
SPLINE
5
1E0
100
AcDbEntity
8
1
62
256
6
ByLayer
370
-1
48
1
60
0
100
AcDbSpline
70
4
71
3
72
14
73
10
40
0
40
0
40
0
40
0
40
0.298008710880826
40
0.298008710880826
40
0.596322864423569
40
0.596322864423569
40
0.894099609335043
40
0.894099609335043
40
1
40
1
40
1
40
1
41
1
10
41.5909172495118
20
-1.35933411779479
30
-5E-16
41
1
10
41.4474790546245
20
-1.36229960716884
30
-5E-16
41
1
10
41.3027237381343
20
-1.39004020703044
30
-5E-16
41
1
10
41.0340755774895
20
-1.49092601283468
30
-5E-16
41
1
10
40.9065150033131
20
-1.56552950923441
30
-6E-16
41
1
10
40.6870027820682
20
-1.75105801942101
30
-6E-16
41
1
10
40.591922812331
20
-1.86456015065301
30
-6E-16
41
1
10
40.4942480687207
20
-2.03409593793748
30
-6E-16
41
1
10
40.4712218164608
20
-2.08049871396091
30
-6E-16
41
1
10
40.4511940240344
20
-2.12809809902819
30
-6E-16
0
SPLINE
5
1E1
100
AcDbEntity
8
1
62
256
6
ByLayer
370
-1
48
1
60
0
100
AcDbSpline
70
4
71
3
72
8
73
4
40
0
40
0
40
0
40
0
40
1
40
1
40
1
40
1
41
1
10
45.5876410921711
20
37.6411033364594
30
0
41
1
10
45.5771689565225
20
37.6541702621057
30
0
41
1
10
45.5664952130659
20
37.6670668921574
30
0
41
1
10
45.5556274924953
20
37.6797862453157
30
-1E-16
0
SPLINE
5
1E2
100
AcDbEntity
8
1
62
256
6
ByLayer
370
-1
48
1
60
0
100
AcDbSpline
70
4
71
3
72
10
73
6
40
0
40
0
40
0
40
0
40
0.786956405442187
40
0.786956405442187
40
1
40
1
40
1
40
1
41
1
10
44.8380089013967
20
38.1539523578091
30
-1E-16
41
1
10
44.7898878462756
20
38.1687538325176
30
-1E-16
41
1
10
44.7410199175507
20
38.1811787487626
30
-1E-16
41
1
10
44.6783251768479
20
38.1937983720485
30
-1E-16
41
1
10
44.6649119081461
20
38.1963079945675
30
-1E-16
41
1
10
44.6514413322535
20
38.1986399521704
30
-1E-16
0
SPLINE
5
1E3
100
AcDbEntity
8
1
62
256
6
ByLayer
370
-1
48
1
60
0
100
AcDbSpline
70
4
71
3
72
8
73
4
40
0
40
0
40
0
40
0
40
1
40
1
40
1
40
1
41
1
10
43.0202207237738
20
37.570958388897
30
0
41
1
10
42.9364402472131
20
37.4712249902128
30
0
41
1
10
42.8633961177187
20
37.3621076144529
30
0
41
1
10
42.8049444652569
20
37.2466505267738
30
0
0
SPLINE
5
1E4
100
AcDbEntity
8
1
62
256
6
ByLayer
370
-1
48
1
60
0
100
AcDbSpline
70
4
71
3
72
14
73
10
40
0
40
0
40
0
40
0
40
0.258374536041623
40
0.258374536041623
40
0.520163709547353
40
0.520163709547353
40
0.808397479016399
40
0.808397479016399
40
1
40
1
40
1
40
1
41
1
10
45.8026261280037
20
35.7793371464922
30
0
41
1
10
45.8744171007636
20
35.932641691536
30
0
41
1
10
45.9246300058289
20
36.100722220424
30
0
41
1
10
45.9763643976471
20
36.440769213322
30
0
41
1
10
45.9772064531712
20
36.6177027047221
30
0
41
1
10
45.9226407334346
20
36.9759293677756
30
0
41
1
10
45.8625138629351
20
37.1601261994176
30
0
41
1
10
45.7261020584114
20
37.4385856523678
30
0
41
1
10
45.6610124245771
20
37.5442893627929
30
0
41
1
10
45.587641092171
20
37.6411033364594
30
0
0
SPLINE
5
1E5
100
AcDbEntity
8
1
62
256
6
ByLayer
370
-1
48
1
60
0
100
AcDbSpline
70
4
71
3
72
14
73
10
40
0
40
0
40
0
40
0
40
0.313165359977944
40
0.313165359977944
40
0.625434047882819
40
0.625434047882819
40
0.933580618570282
40
0.933580618570282
40
1
40
1
40
1
40
1
41
1
10
42.8049444652569
20
37.2466505267738
30
0
41
1
10
42.7180705749575
20
37.0677738327087
30
0
41
1
10
42.6599077063565
20
36.8713040795101
30
0
41
1
10
42.6148227831132
20
36.4766244140763
30
0
41
1
10
42.6244740599948
20
36.2738707540761
30
0
41
1
10
42.7085788432896
20
35.8932461291178
30
0
41
1
10
42.7860489828323
20
35.7086213291302
30
0
41
1
10
42.9182787640396
20
35.5127815862773
30
0
41
1
10
42.9435617555357
20
35.4785466011524
30
0
41
1
10
42.9702174721057
20
35.4454296401575
30
0
0
SPLINE
5
1E6
100
AcDbEntity
8
1
62
256
6
ByLayer
370
-1
48
1
60
0
100
AcDbSpline
70
4
71
3
72
9
73
5
40
0
40
0
40
0
40
0
40
0.968454924579175
40
1
40
1
40
1
40
1
41
1
10
49.447550741246
20
33.6755688400052
30
0
41
1
10
49.4467806040208
20
33.696002842606
30
0
41
1
10
49.4455124001144
20
33.7171092801805
30
0
41
1
10
49.4441953455866
20
33.7381037167682
30
0
41
1
10
49.4441537504317
20
33.7387658768267
30
0
0
SPLINE
5
1E7
100
AcDbEntity
8
1
62
256
6
ByLayer
370
-1
48
1
60
0
100
AcDbSpline
70
4
71
3
72
19
73
15
40
0
40
0
40
0
40
0
40
0.0579368581219296
40
0.152143172309737
40
0.246349486497544
40
0.340555800685351
40
0.434762114873158
40
0.528968429060965
40
0.623174743248772
40
0.717381057436579
40
0.811587371624386
40
0.858690528718289
40
0.905793685812193
40
1
40
1
40
1
40
1
41
1
10
49.3224065988415
20
35.4674567042134
30
0
41
1
10
49.32470499369
20
35.5602574685801
30
0
41
1
10
49.3387706907692
20
35.8058213409831
30
0
41
1
10
49.4050021049254
20
36.2125693308598
30
0
41
1
10
49.531572880408
20
36.6760719256577
30
0
41
1
10
49.6976171774625
20
37.1203731906437
30
0
41
1
10
49.9524524699416
20
37.5305574084583
30
0
41
1
10
49.9759699440039
20
38.012099352745
30
0
41
1
10
49.970133329908
20
38.484118012761
30
0
41
1
10
49.9737358222632
20
38.9559728542591
30
0
41
1
10
49.9627884295858
20
39.3571734728289
30
0
41
1
10
49.7939225620952
20
39.6270004004198
30
0
41
1
10
49.5685298529298
20
39.8423599095833
30
0
41
1
10
49.3465096726759
20
39.924648315953
30
0
41
1
10
49.1930592634412
20
39.9273909062005
30
0
0
SPLINE
5
1E8
100
AcDbEntity
8
1
62
256
6
ByLayer
370
-1
48
1
60
0
100
AcDbSpline
70
4
71
3
72
15
73
11
40
0
40
0
40
0
40
0
40
0.0625
40
0.125
40
0.25
40
0.5
40
0.75
40
0.875
40
0.9375
40
1
40
1
40
1
40
1
41
1
10
49.1930592634412
20
39.9273909062005
30
0
41
1
10
48.9940057405945
20
39.9281925397634
30
0
41
1
10
48.5948632988264
20
39.9300256216123
30
0
41
1
10
47.8221755730431
20
39.9346255270829
30
0
41
1
10
46.4988313627284
20
39.9326574370067
30
0
41
1
10
44.5862973042088
20
39.8975698443074
30
-1E-16
41
1
10
42.6953921773317
20
39.8027721444564
30
0
41
1
10
41.3313350967295
20
39.7378649354705
30
-1E-16
41
1
10
40.5353367356836
20
39.6961104843522
30
-1E-16
41
1
10
40.13976844631
20
39.6969164464949
30
-2E-16
41
1
10
39.9416681354056
20
39.6749198759998
30
-2E-16
0
SPLINE
5
1E9
100
AcDbEntity
8
1
62
256
6
ByLayer
370
-1
48
1
60
0
100
AcDbSpline
70
4
71
3
72
8
73
4
40
0
40
0
40
0
40
0
40
1
40
1
40
1
40
1
41
1
10
45.6917827260872
20
35.5680148755468
30
0
41
1
10
45.7329486439225
20
35.6357667569028
30
0
41
1
10
45.7700084826635
20
35.7065101290269
30
0
41
1
10
45.8026261280037
20
35.7793371464922
30
0
0
SPLINE
5
1EA
100
AcDbEntity
8
1
62
256
6
ByLayer
370
-1
48
1
60
0
100
AcDbSpline
70
4
71
3
72
19
73
15
40
0
40
0
40
0
40
0
40
0.0915604144778811
40
0.137340621716822
40
0.183120828955762
40
0.274681243433643
40
0.366241657911525
40
0.457802072389406
40
0.549362486867287
40
0.640922901345168
40
0.732483315823049
40
0.82404373030093
40
0.915604144778811
40
1
40
1
40
1
40
1
41
1
10
39.9416681354056
20
39.6749198759998
30
-2E-16
41
1
10
39.7890902291352
20
39.6677323320753
30
-2E-16
41
1
10
39.568191688014
20
39.4777563446206
30
-2E-16
41
1
10
39.5525207806485
20
39.1698702818359
30
-2E-16
41
1
10
39.5250117622614
20
38.879518613806
30
-2E-16
41
1
10
39.4817627028028
20
38.5353529148942
30
-2E-16
41
1
10
39.4150499989135
20
38.1332480060387
30
-2E-16
41
1
10
39.3328900883059
20
37.7228927390595
30
-2E-16
41
1
10
39.242279806417
20
37.2926692402536
30
-2E-16
41
1
10
39.1502159886832
20
36.8309596359181
30
-2E-16
41
1
10
39.0312363378829
20
36.3650882059524
30
2E-16
41
1
10
38.8598785567941
20
35.9223792302559
30
2E-16
41
1
10
38.6143339243689
20
35.5220602654025
30
2E-16
41
1
10
38.5930233483147
20
35.2154894859954
30
2E-16
41
1
10
38.5892746398051
20
35.0688757500224
30
2E-16
0
SPLINE
5
1EB
100
AcDbEntity
8
1
62
256
6
ByLayer
370
-1
48
1
60
0
100
AcDbSpline
70
4
71
3
72
18
73
14
40
0
40
0
40
0
40
0
40
0.213394464779715
40
0.213394464779715
40
0.389004322610667
40
0.389004322610667
40
0.566252444177968
40
0.566252444177968
40
0.721175490823055
40
0.721175490823055
40
0.92741643549918
40
0.92741643549918
40
1
40
1
40
1
40
1
41
1
10
44.8644426920228
20
37.2205515834855
30
0
41
1
10
44.8594448101921
20
37.1768029709702
30
-1E-16
41
1
10
44.8601443340928
20
37.1301548942167
30
-1E-16
41
1
10
44.8729638994361
20
37.0448843197689
30
-1E-16
41
1
10
44.883250440932
20
37.0053583786793
30
-1E-16
41
1
10
44.9122626347848
20
36.9301868796687
30
-1E-16
41
1
10
44.9315502010716
20
36.8935299450835
30
-1E-16
41
1
10
44.9729592862714
20
36.8340510524627
30
-1E-16
41
1
10
44.9948918929612
20
36.8093187593349
30
-1E-16
41
1
10
45.0482204605302
20
36.7618463761694
30
0
41
1
10
45.0812288024936
20
36.7415206930245
30
0
41
1
10
45.1264502493474
20
36.7232882511395
30
0
41
1
10
45.1384422257702
20
36.7193250234429
30
0
41
1
10
45.1504824930114
20
36.7161698316604
30
0
0
SPLINE
5
1EC
100
AcDbEntity
8
1
62
256
6
ByLayer
370
-1
48
1
60
0
100
AcDbSpline
70
4
71
3
72
16
73
12
40
0
40
0
40
0
40
0
40
0.0668638488455377
40
0.0668638488455377
40
0.290854271538809
40
0.290854271538809
40
0.517824973971682
40
0.517824973971682
40
0.75932867428176
40
0.75932867428176
40
1
40
1
40
1
40
1
41
1
10
43.75894938897
20
35.6235398617992
30
1E-16
41
1
10
43.7636835350922
20
35.620816215401
30
1E-16
41
1
10
43.7685794067772
20
35.6183056933851
30
1E-16
41
1
10
43.7903093061796
20
35.6084410013683
30
1E-16
41
1
10
43.8087173431396
20
35.6033654008153
30
1E-16
41
1
10
43.8461586687728
20
35.598769161489
30
1E-16
41
1
10
43.8656709036184
20
35.5992502640515
30
1E-16
41
1
10
43.9043798544919
20
35.6054372412319
30
1E-16
41
1
10
43.923963632628
20
35.6115337811684
30
1E-16
41
1
10
43.9598605693537
20
35.6280800547265
30
1E-16
41
1
10
43.9765703114408
20
35.6386755689866
30
1E-16
41
1
10
43.9912627546606
20
35.6507845545093
30
1E-16
0
SPLINE
5
1ED
100
AcDbEntity
8
1
62
256
6
ByLayer
370
-1
48
1
60
0
100
AcDbSpline
70
4
71
3
72
18
73
14
40
0
40
0
40
0
40
0
40
0.213394464779719
40
0.213394464779719
40
0.389004322610661
40
0.389004322610661
40
0.566252444177969
40
0.566252444177969
40
0.721175490823057
40
0.721175490823057
40
0.92741643549918
40
0.92741643549918
40
1
40
1
40
1
40
1
41
1
10
43.6917024744013
20
35.8223924644509
30
1E-16
41
1
10
43.7076461752965
20
35.8627868000236
30
1E-16
41
1
10
43.7172562890272
20
35.9062755536065
30
1E-16
41
1
10
43.7194518527159
20
35.9869448368394
30
1E-16
41
1
10
43.7146492737221
20
36.0247902523452
30
1E-16
41
1
10
43.6918812768577
20
36.0980482567274
30
1E-16
41
1
10
43.6733130527942
20
36.1344847534433
30
1E-16
41
1
10
43.6283448876055
20
36.1950543035903
30
1E-16
41
1
10
43.602757196861
20
36.2209066740824
30
1E-16
41
1
10
43.5378555866983
20
36.2719255428692
30
0
41
1
10
43.4958183770216
20
36.2950180653534
30
0
41
1
10
43.4371324125273
20
36.3173766234109
30
0
41
1
10
43.4214671732831
20
36.3224654992397
30
0
41
1
10
43.4056626734127
20
36.3267742162759
30
0
0
SPLINE
5
1EE
100
AcDbEntity
8
1
62
256
6
ByLayer
370
-1
48
1
60
0
100
AcDbSpline
70
4
71
3
72
12
73
8
40
0
40
0
40
0
40
0
40
0.464390992171653
40
0.464390992171653
40
0.846401077318508
40
0.846401077318508
40
1
40
1
40
1
40
1
41
1
10
44.5650447587754
20
35.6620116896957
30
0
41
1
10
44.5405272194556
20
35.690089724201
30
0
41
1
10
44.5100492522065
20
35.7143511818054
30
0
41
1
10
44.4449611820314
20
35.747563175647
30
1E-16
41
1
10
44.4112358139
20
35.7587609285305
30
1E-16
41
1
10
44.3602013385329
20
35.7671485350873
30
1E-16
41
1
10
44.3449277140512
20
35.768740389737
30
1E-16
41
1
10
44.3293754637833
20
35.7694458045559
30
1E-16
0
SPLINE
5
1EF
100
AcDbEntity
8
1
62
256
6
ByLayer
370
-1
48
1
60
0
100
AcDbSpline
70
4
71
3
72
14
73
10
40
0
40
0
40
0
40
0
40
0.284519249123234
40
0.284519249123234
40
0.571733062184453
40
0.571733062184453
40
0.831996244286517
40
0.831996244286517
40
1
40
1
40
1
40
1
41
1
10
45.1504824930114
20
36.3609149314775
30
0
41
1
10
45.1675701140859
20
36.3678031233833
30
0
41
1
10
45.184444618269
20
36.378398889863
30
0
41
1
10
45.2147685382689
20
36.4061883484517
30
0
41
1
10
45.22863167569
20
36.4239039060854
30
0
41
1
10
45.2491284440117
20
36.4621655396982
30
0
41
1
10
45.2565989757748
20
36.482885243135
30
0
41
1
10
45.2634849073651
20
36.5179202420851
30
0
41
1
10
45.2648840138573
20
36.5321629621091
30
0
41
1
10
45.2648840138573
20
36.5462083019002
30
0
0
SPLINE
5
1F0
100
AcDbEntity
8
1
62
256
6
ByLayer
370
-1
48
1
60
0
100
AcDbSpline
70
4
71
3
72
14
73
10
40
0
40
0
40
0
40
0
40
0.284523597312309
40
0.284523597312309
40
0.571736866218057
40
0.571736866218057
40
0.831999616286249
40
0.831999616286249
40
1
40
1
40
1
40
1
41
1
10
43.6917024744013
20
35.8223924644509
30
1E-16
41
1
10
43.6839208650658
20
35.8026772840887
30
1E-16
41
1
10
43.6796054397408
20
35.7814140123805
30
1E-16
41
1
10
43.6794210858021
20
35.7390176114979
30
1E-16
41
1
10
43.6836689024881
20
35.7172367542099
30
1E-16
41
1
10
43.7001825467736
20
35.6792071201852
30
1E-16
41
1
10
43.7119417045694
20
35.6620750688294
30
1E-16
41
1
10
43.7361995027902
20
35.6385672766098
30
1E-16
41
1
10
43.7471270254246
20
35.6303414976288
30
1E-16
41
1
10
43.75894938897
20
35.6235398617992
30
1E-16
0
SPLINE
5
1F1
100
AcDbEntity
8
1
62
256
6
ByLayer
370
-1
48
1
60
0
100
AcDbSpline
70
4
71
3
72
16
73
12
40
0
40
0
40
0
40
0
40
0.0670553612811457
40
0.0670553612811457
40
0.291697905104271
40
0.291697905104271
40
0.519329228663784
40
0.519329228663784
40
0.761535715028722
40
0.761535715028722
40
1
40
1
40
1
40
1
41
1
10
45.2648840138573
20
36.5462083019002
30
0
41
1
10
45.2648840138573
20
36.5518322423652
30
0
41
1
10
45.2646631742012
20
36.5574492259442
30
0
41
1
10
45.2627613583507
20
36.5815492687418
30
0
41
1
10
45.2587831295784
20
36.5998320979389
30
0
41
1
10
45.2465834844352
20
36.6332685329537
30
0
41
1
10
45.2381634510725
20
36.6488092716521
30
0
41
1
10
45.2177564816082
20
36.6761578722754
30
0
41
1
10
45.2053339627837
20
36.68801914707
30
0
41
1
10
45.1789879201331
20
36.706003447965
30
0
41
1
10
45.164825556098
20
36.7124111846239
30
0
41
1
10
45.1504824930114
20
36.7161698316604
30
0
0
SPLINE
5
1F2
100
AcDbEntity
8
1
62
256
6
ByLayer
370
-1
48
1
60
0
100
AcDbSpline
70
4
71
3
72
18
73
14
40
0
40
0
40
0
40
0
40
0.213393079737795
40
0.213393079737795
40
0.389003177496046
40
0.389003177496046
40
0.566251555260782
40
0.566251555260782
40
0.721174645896038
40
0.721174645896038
40
0.927415342089924
40
0.927415342089924
40
1
40
1
40
1
40
1
41
1
10
43.4056626734127
20
36.6820291164589
30
0
41
1
10
43.4516194693055
20
36.6927881669056
30
0
41
1
10
43.4968676996724
20
36.7105511254727
30
0
41
1
10
43.5716422340238
20
36.7558933576283
30
1E-16
41
1
10
43.6032941805105
20
36.7817798137257
30
1E-16
41
1
10
43.6563485439867
20
36.8422615842248
30
1E-16
41
1
10
43.6783050923631
20
36.8779080656706
30
1E-16
41
1
10
43.7061357509776
20
36.9479558245128
30
1E-16
41
1
10
43.7140915878935
20
36.9827544972741
30
1E-16
41
1
10
43.7211296519356
20
37.0626369118656
30
1E-16
41
1
10
43.7167175848092
20
37.108660487564
30
1E-16
41
1
10
43.7019092684094
20
37.1674827676023
30
1E-16
41
1
10
43.6971855456764
20
37.1827003735524
30
1E-16
41
1
10
43.6917024744013
20
37.1976046927375
30
1E-16
0
SPLINE
5
1F3
100
AcDbEntity
8
1
62
256
6
ByLayer
370
-1
48
1
60
0
100
AcDbSpline
70
4
71
3
72
14
73
10
40
0
40
0
40
0
40
0
40
0.284523597312296
40
0.284523597312296
40
0.571736866218039
40
0.571736866218039
40
0.831999616286241
40
0.831999616286241
40
1
40
1
40
1
40
1
41
1
10
44.8644426920228
20
37.2205515834855
30
0
41
1
10
44.8668819979385
20
37.2419038789027
30
0
41
1
10
44.866119910435
20
37.264723122266
30
0
41
1
10
44.8574122852605
20
37.3098444138432
30
0
41
1
10
44.8492278432661
20
37.3328316250299
30
0
41
1
10
44.8269774154147
20
37.3726192600526
30
0
41
1
10
44.8131702677778
20
37.3903789049271
30
0
41
1
10
44.7870296825945
20
37.4144636652895
30
0
41
1
10
44.7757220596663
20
37.4228059235986
30
0
41
1
10
44.7638996961209
20
37.4296075594283
30
0
0
SPLINE
5
1F4
100
AcDbEntity
8
1
62
256
6
ByLayer
370
-1
48
1
60
0
100
AcDbSpline
70
4
71
3
72
14
73
10
40
0
40
0
40
0
40
0
40
0.283738489034223
40
0.283738489034223
40
0.570489531030772
40
0.570489531030772
40
0.830294403552181
40
0.830294403552181
40
1
40
1
40
1
40
1
41
1
10
43.9912627546607
20
37.3808826080269
30
1E-16
41
1
10
43.9739632805623
20
37.3962072400671
30
1E-16
41
1
10
43.9538031279601
20
37.4092555423373
30
1E-16
41
1
10
43.9103129213387
20
37.42806384977
30
1E-16
41
1
10
43.8862645150097
20
37.4339991962656
30
1E-16
41
1
10
43.8405687019407
20
37.4364991584173
30
1E-16
41
1
10
43.8182195896279
20
37.4338915863349
30
1E-16
41
1
10
43.7840072350256
20
37.4232229432147
30
1E-16
41
1
10
43.7709251036042
20
37.4173023140263
30
1E-16
41
1
10
43.75894938897
20
37.4099437971057
30
1E-16
0
SPLINE
5
1F5
100
AcDbEntity
8
1
62
256
6
ByLayer
370
-1
48
1
60
0
100
AcDbSpline
70
4
71
3
72
18
73
14
40
0
40
0
40
0
40
0
40
0.213393079737802
40
0.213393079737802
40
0.389003177496052
40
0.389003177496052
40
0.56625155526079
40
0.56625155526079
40
0.721174645896045
40
0.721174645896045
40
0.927415342089928
40
0.927415342089928
40
1
40
1
40
1
40
1
41
1
10
45.1504824930114
20
36.3609149314775
30
0
41
1
10
45.1154714449785
20
36.3468016259084
30
0
41
1
10
45.080532787657
20
36.3258793639627
30
0
41
1
10
45.0207733863909
20
36.2759358393502
30
0
41
1
10
44.9946054377994
20
36.2483688468228
30
0
41
1
10
44.9477953404874
20
36.185973560497
30
0
41
1
10
44.9265581680197
20
36.1501066308591
30
0
41
1
10
44.8951684740967
20
36.0811495158511
30
0
41
1
10
44.8835575715749
20
36.0474709148005
30
0
41
1
10
44.8649465059944
20
35.9711349732492
30
0
41
1
10
44.8603297319407
20
35.9278782287592
30
0
41
1
10
44.8616735045792
20
35.8731820728979
30
0
41
1
10
44.8627239102618
20
35.8590901316982
30
0
41
1
10
44.8644426920228
20
35.8453393551989
30
0
0
SPLINE
5
1F6
100
AcDbEntity
8
1
62
256
6
ByLayer
370
-1
48
1
60
0
100
AcDbSpline
70
4
71
3
72
16
73
12
40
0
40
0
40
0
40
0
40
0.0650212293342938
40
0.0650212293342938
40
0.28969152326947
40
0.28969152326947
40
0.51723642232611
40
0.51723642232611
40
0.759263521180969
40
0.759263521180969
40
1
40
1
40
1
40
1
41
1
10
44.7638996961209
20
35.6432036241217
30
0
41
1
10
44.7684909951124
20
35.6460247627634
30
0
41
1
10
44.7729979037763
20
35.6490483403967
30
0
41
1
10
44.7924599816644
20
35.663250111296
30
0
41
1
10
44.8063753901275
20
35.6766195690753
30
0
41
1
10
44.8299819300383
20
35.7059733209887
30
0
41
1
10
44.8399278957308
20
35.7223541674517
30
0
41
1
10
44.8553817089323
20
35.7567800635508
30
0
41
1
10
44.8607776932267
20
35.7752897514591
30
0
41
1
10
44.8662911577611
20
35.8111112009135
30
0
41
1
10
44.8665093381705
20
35.8288055578756
30
0
41
1
10
44.8644426920228
20
35.8453393551989
30
0
0
SPLINE
5
1F7
100
AcDbEntity
8
1
62
256
6
ByLayer
370
-1
48
1
60
0
100
AcDbSpline
70
4
71
3
72
16
73
12
40
0
40
0
40
0
40
0
40
0.0668638488454655
40
0.0668638488454655
40
0.29085427153857
40
0.29085427153857
40
0.517824973971263
40
0.517824973971263
40
0.759328674281158
40
0.759328674281158
40
1
40
1
40
1
40
1
41
1
10
44.7638996961209
20
37.4296075594283
30
0
41
1
10
44.7591655499986
20
37.4323312058264
30
0
41
1
10
44.7543297854531
20
37.4348233083901
30
0
41
1
10
44.733118035358
20
37.4445292168326
30
0
41
1
10
44.7157926622873
20
37.4492730418923
30
0
41
1
10
44.6817161505292
20
37.4528381553129
30
0
41
1
10
44.6645427957394
20
37.4516403177672
30
0
41
1
10
44.6316177320774
20
37.4436809049748
30
-1E-16
41
1
10
44.6156105729578
20
37.4364883327882
30
-1E-16
41
1
10
44.587557250263
20
37.4175384333767
30
-1E-16
41
1
10
44.5751938048289
20
37.4056110240283
30
-1E-16
41
1
10
44.5650447587755
20
37.3921097432131
30
-1E-16
0
SPLINE
5
1F8
100
AcDbEntity
8
1
62
256
6
ByLayer
370
-1
48
1
60
0
100
AcDbSpline
70
4
71
3
72
16
73
12
40
0
40
0
40
0
40
0
40
0.0670553612811586
40
0.0670553612811586
40
0.291697905104261
40
0.291697905104261
40
0.519329228663783
40
0.519329228663783
40
0.761535715028728
40
0.761535715028728
40
1
40
1
40
1
40
1
41
1
10
43.2579650712336
20
36.5069391193272
30
0
41
1
10
43.2579650712336
20
36.5013151788622
30
0
41
1
10
43.2582460124224
20
36.4956797775491
30
0
41
1
10
43.2606659480708
20
36.4714209602203
30
0
41
1
10
43.2657268228197
20
36.452806361019
30
0
41
1
10
43.2812912482725
20
36.4183388103844
30
0
41
1
10
43.2920501447483
20
36.4020813418949
30
0
41
1
10
43.3182409680905
20
36.3729603158745
30
0
41
1
10
43.3342400887526
20
36.3600030140941
30
0
41
1
10
43.368383511964
20
36.3396292552998
30
0
41
1
10
43.3868354385887
20
36.3319070093473
30
0
41
1
10
43.4056626734127
20
36.3267742162759
30
0
0
SPLINE
5
1F9
100
AcDbEntity
8
1
62
256
6
ByLayer
370
-1
48
1
60
0
100
AcDbSpline
70
4
71
3
72
12
73
8
40
0
40
0
40
0
40
0
40
0.377026290846267
40
0.377026290846267
40
0.761056372063249
40
0.761056372063249
40
1
40
1
40
1
40
1
41
1
10
44.2746624807227
20
35.7683752410791
30
1E-16
41
1
10
44.2358525662616
20
35.7651719410414
30
1E-16
41
1
10
44.1959717569358
20
35.756623542823
30
1E-16
41
1
10
44.1203268388086
20
35.7310150571234
30
1E-16
41
1
10
44.0836351151974
20
35.7135338463245
30
1E-16
41
1
10
44.0294644999548
20
35.6801455593519
30
1E-16
41
1
10
44.0096931069807
20
35.6659741908471
30
1E-16
41
1
10
43.9912627546607
20
35.6507845545094
30
1E-16
0
SPLINE
5
1FA
100
AcDbEntity
8
1
62
256
6
ByLayer
370
-1
48
1
60
0
100
AcDbSpline
70
4
71
3
72
14
73
10
40
0
40
0
40
0
40
0
40
0.284519249123238
40
0.284519249123238
40
0.571733062184442
40
0.571733062184442
40
0.831996244286524
40
0.831996244286524
40
1
40
1
40
1
40
1
41
1
10
43.4056626734127
20
36.6820291164589
30
0
41
1
10
43.3832328303164
20
36.6767780146643
30
0
41
1
10
43.3612808877257
20
36.6677381970339
30
0
41
1
10
43.3220650115511
20
36.6426736221102
30
0
41
1
10
43.3042652197331
20
36.6261644272893
30
0
41
1
10
43.2780316136559
20
36.5896608112805
30
0
41
1
10
43.2685130656542
20
36.5695687094518
30
0
41
1
10
43.2597442934663
20
36.5351106950806
30
0
41
1
10
43.2579650712336
20
36.5209844591184
30
0
41
1
10
43.2579650712336
20
36.5069391193272
30
0
0
SPLINE
5
1FB
100
AcDbEntity
8
1
62
256
6
ByLayer
370
-1
48
1
60
0
100
AcDbSpline
70
4
71
3
72
16
73
12
40
0
40
0
40
0
40
0
40
0.0650212293342999
40
0.0650212293342999
40
0.289691523269469
40
0.289691523269469
40
0.517236422326119
40
0.517236422326119
40
0.759263521180995
40
0.759263521180995
40
1
40
1
40
1
40
1
41
1
10
43.75894938897
20
37.4099437971057
30
1E-16
41
1
10
43.7543580899785
20
37.4071226584641
30
1E-16
41
1
10
43.7499077067616
20
37.4040817589654
30
1E-16
41
1
10
43.7309447408889
20
37.3897270383494
30
1E-16
41
1
10
43.7181003734153
20
37.3760293668407
30
1E-16
41
1
10
43.6978368742163
20
37.3456511612697
30
1E-16
41
1
10
43.6902188001177
20
37.3285569471682
30
1E-16
41
1
10
43.680527257887
20
37.2923652396172
30
1E-16
41
1
10
43.6786967525139
20
37.2727629332704
30
1E-16
41
1
10
43.6809995908041
20
37.2345462273088
30
1E-16
41
1
10
43.6851096838649
20
37.2155254983488
30
1E-16
41
1
10
43.6917024744013
20
37.1976046927375
30
1E-16
0
SPLINE
5
1FC
100
AcDbEntity
8
1
62
256
6
ByLayer
370
-1
48
1
60
0
100
AcDbSpline
70
4
71
3
72
14
73
10
40
0
40
0
40
0
40
0
40
0.283738489034217
40
0.283738489034217
40
0.570489531030764
40
0.570489531030764
40
0.830294403552168
40
0.830294403552168
40
1
40
1
40
1
40
1
41
1
10
44.5650447587754
20
35.6620116896957
30
0
41
1
10
44.5769946541535
20
35.6483264021803
30
0
41
1
10
44.5920677458142
20
35.636836997524
30
0
41
1
10
44.6266366293957
20
35.6207625730463
30
0
41
1
10
44.646729545519
20
35.6160393614777
30
0
41
1
10
44.6866534126211
20
35.6153081756191
30
0
41
1
10
44.7069374006893
20
35.6185485919498
30
0
41
1
10
44.7392320409203
20
35.6298049064959
30
0
41
1
10
44.7519239814867
20
35.6358451072011
30
0
41
1
10
44.7638996961209
20
35.6432036241217
30
0
0
SPLINE
5
1FD
100
AcDbEntity
8
1
62
256
6
ByLayer
370
-1
48
1
60
0
100
AcDbSpline
70
4
71
3
72
12
73
8
40
0
40
0
40
0
40
0
40
0.377026290639698
40
0.377026290639698
40
0.761056371823047
40
0.761056371823047
40
1
40
1
40
1
40
1
41
1
10
44.3293754637834
20
37.2598923682751
30
1E-16
41
1
10
44.3670177297029
20
37.2634534868064
30
1E-16
41
1
10
44.4031734323024
20
37.2731434203787
30
1E-16
41
1
10
44.467865412729
20
37.3021083644583
30
1E-16
41
1
10
44.4971884677274
20
37.3218476570886
30
1E-16
41
1
10
44.5380432757565
20
37.3593164888768
30
1E-16
41
1
10
44.5523136907111
20
37.3751735972828
30
1E-16
41
1
10
44.5650447587755
20
37.3921097432131
30
-1E-16
0
SPLINE
5
1FE
100
AcDbEntity
8
1
62
256
6
ByLayer
370
-1
48
1
60
0
100
AcDbSpline
70
4
71
3
72
12
73
8
40
0
40
0
40
0
40
0
40
0.464390992172113
40
0.464390992172113
40
0.846401077319353
40
0.846401077319353
40
1
40
1
40
1
40
1
41
1
10
43.9912627546607
20
37.3808826080269
30
1E-16
41
1
10
44.0267559973213
20
37.3494411387318
30
1E-16
41
1
10
44.0675787785046
20
37.3220095784015
30
1E-16
41
1
10
44.1477497709492
20
37.2841755185367
30
1E-16
41
1
10
44.1869926044354
20
37.2712869733322
30
1E-16
41
1
10
44.2424515574903
20
37.2615435136042
30
1E-16
41
1
10
44.2586278056706
20
37.2596750556375
30
1E-16
41
1
10
44.2746624807228
20
37.2588218047982
30
1E-16
0
SPLINE
5
1FF
100
AcDbEntity
8
1
62
256
6
ByLayer
370
-1
48
1
60
0
100
AcDbSpline
70
4
71
3
72
8
73
4
40
0
40
0
40
0
40
0
40
1
40
1
40
1
40
1
41
1
10
48.9132125422593
20
18.4522249905951
30
-1E-16
41
1
10
48.8010170840729
20
18.4241607457577
30
-1E-16
41
1
10
48.6888221565426
20
18.3961042225806
30
-1E-16
41
1
10
48.5766275994374
20
18.3680573919727
30
-1E-16
0
SPLINE
5
200
100
AcDbEntity
8
1
62
256
6
ByLayer
370
-1
48
1
60
0
100
AcDbSpline
70
4
71
1
72
4
73
2
40
0
40
0
40
1
40
1
41
1
10
49.1057266240884
20
20.2230259204392
30
-1E-16
41
1
10
48.9132125422593
20
18.4522249905951
30
-1E-16
0
SPLINE
5
201
100
AcDbEntity
8
1
62
256
6
ByLayer
370
-1
48
1
60
0
100
AcDbSpline
70
4
71
3
72
9
73
5
40
0
40
0
40
0
40
0
40
0.526146494790893
40
1
40
1
40
1
40
1
41
1
10
49.5076498717287
20
20.7678364102587
30
0
41
1
10
49.5050027985203
20
20.7375412070287
30
0
41
1
10
49.4955008570311
20
20.6794292437622
30
0
41
1
10
49.4722932048266
20
20.6197134795669
30
0
41
1
10
49.4599489733814
20
20.5912454512654
30
0
0
SPLINE
5
202
100
AcDbEntity
8
1
62
256
6
ByLayer
370
-1
48
1
60
0
100
AcDbSpline
70
4
71
3
72
9
73
5
40
0
40
0
40
0
40
0
40
0.482937288776521
40
1
40
1
40
1
40
1
41
1
10
49.2715086990901
20
18.811968712838
30
0
41
1
10
49.2668394293337
20
18.7477368722336
30
0
41
1
10
49.2372532290948
20
18.6110553044732
30
0
41
1
10
49.029194842521
20
18.4815710307409
30
-1E-16
41
1
10
48.9132125422593
20
18.4522249905951
30
-1E-16
0
SPLINE
5
203
100
AcDbEntity
8
1
62
256
6
ByLayer
370
-1
48
1
60
0
100
AcDbSpline
70
4
71
3
72
9
73
5
40
0
40
0
40
0
40
0
40
0.0840390576946406
40
1
40
1
40
1
40
1
41
1
10
48.4508348526662
20
20.0882763709926
30
-1E-16
41
1
10
48.4691785487404
20
20.091973560585
30
-1E-16
41
1
10
48.6875477504395
20
20.135439325527
30
-1E-16
41
1
10
48.9072815125984
20
20.1714256777887
30
-1E-16
41
1
10
49.1057266240884
20
20.2230259204392
30
-1E-16
0
SPLINE
5
204
100
AcDbEntity
8
1
62
256
6
ByLayer
370
-1
48
1
60
0
100
AcDbSpline
70
4
71
3
72
10
73
6
40
0
40
0
40
0
40
0
40
0.662032494263516
40
0.993048741395274
40
1
40
1
40
1
40
1
41
1
10
49.1057266240884
20
20.2230259204392
30
-1E-16
41
1
10
49.2596795062292
20
20.255006631528
30
0
41
1
10
49.4617858201568
20
20.4361528274646
30
0
41
1
10
49.4490713083583
20
20.6091883285596
30
0
41
1
10
49.4440730813719
20
20.6702905031804
30
0
41
1
10
49.4439699826862
20
20.6715483421217
30
0
0
SPLINE
5
205
100
AcDbEntity
8
1
62
256
6
ByLayer
370
-1
48
1
60
0
100
AcDbSpline
70
4
71
3
72
13
73
9
40
0
40
0
40
0
40
0
40
0.1467446800162
40
0.377838383035972
40
0.608932086055743
40
0.840025789075516
40
0.955572640585401
40
1
40
1
40
1
40
1
41
1
10
49.9509269884727
20
23.7217541453665
30
0
41
1
10
49.965362420895
20
23.7801852961149
30
0
41
1
10
49.9752598241258
20
23.9298553358563
30
0
41
1
10
49.970133329908
20
24.1619760399042
30
0
41
1
10
49.9737358222632
20
24.4283500502253
30
0
41
1
10
49.9627884295857
20
24.6520017925908
30
0
41
1
10
49.8199069454237
20
24.7521910840433
30
0
41
1
10
49.7479143479174
20
24.7831465572392
30
0
41
1
10
49.7269433264236
20
24.790919320326
30
0
0
SPLINE
5
206
100
AcDbEntity
8
1
62
256
6
ByLayer
370
-1
48
1
60
0
100
AcDbSpline
70
4
71
3
72
19
73
15
40
0
40
0
40
0
40
0
40
0.0096181285487428
40
0.0858013494296087
40
0.161984570310475
40
0.238167791191341
40
0.390534232953072
40
0.542900674714804
40
0.61908389559567
40
0.695267116476536
40
0.771450337357402
40
0.847633558238268
40
0.923816779119134
40
1
40
1
40
1
40
1
41
1
10
49.4532049168988
20
-10.3602433315714
30
0
41
1
10
49.4584634860382
20
-10.3554822517812
30
0
41
1
10
49.5014955504913
20
-10.3136386152068
30
0
41
1
10
49.5120832126082
20
-10.2468075482916
30
0
41
1
10
49.5105648823756
20
-10.1570620096597
30
0
41
1
10
49.3536999300215
20
-10.0816254542046
30
0
41
1
10
49.2766515965767
20
-9.9518776239367
30
0
41
1
10
49.2482218392225
20
-9.80977955082182
30
0
41
1
10
49.2504404604311
20
-9.68961783263461
30
0
41
1
10
49.2577336962335
20
-9.59813119652728
30
0
41
1
10
49.2666424296508
20
-9.50635095869069
30
0
41
1
10
49.2807996558376
20
-9.41348297054736
30
0
41
1
10
49.2443533094302
20
-9.33152728957381
30
0
41
1
10
49.029194842521
20
-9.34472911121122
30
-1E-16
41
1
10
48.9132125422593
20
-9.3708547678394
30
-1E-16
0
SPLINE
5
207
100
AcDbEntity
8
1
62
256
6
ByLayer
370
-1
48
1
60
0
100
AcDbSpline
70
4
71
3
72
11
73
7
40
0
40
0
40
0
40
0
40
0.235198170369744
40
0.582994757324784
40
0.930791344279825
40
1
40
1
40
1
40
1
41
1
10
49.7833879620159
20
-6.20094604278142
30
0
41
1
10
49.8335230286604
20
-6.21254827298668
30
0
41
1
10
49.9549903809321
20
-6.24368851287946
30
0
41
1
10
49.9759699440039
20
-6.34438822463653
30
0
41
1
10
49.9716917218985
20
-6.43212733379832
30
0
41
1
10
49.971620618227
20
-6.47929519739176
30
0
41
1
10
49.9716367325583
20
-6.48711738796672
30
0
0
SPLINE
5
208
100
AcDbEntity
8
1
62
256
6
ByLayer
370
-1
48
1
60
0
100
AcDbSpline
70
4
71
1
72
4
73
2
40
0
40
0
40
1
40
1
41
1
10
49.0173957520362
20
-7.75045954016144
30
-1E-16
41
1
10
48.9132125422593
20
-9.3708547678394
30
-1E-16
0
SPLINE
5
209
100
AcDbEntity
8
1
62
256
6
ByLayer
370
-1
48
1
60
0
100
AcDbSpline
70
4
71
3
72
8
73
4
40
0
40
0
40
0
40
0
40
1
40
1
40
1
40
1
41
1
10
48.9132125422593
20
-9.3708547678394
30
-1E-16
41
1
10
48.7822362132446
20
-9.40007926281734
30
-1E-16
41
1
10
48.651260607413
20
-9.42933471174703
30
-1E-16
41
1
10
48.5202854698471
20
-9.45862221627769
30
-1E-16
0
SPLINE
5
20A
100
AcDbEntity
8
1
62
256
6
ByLayer
370
-1
48
1
60
0
100
AcDbSpline
70
4
71
3
72
9
73
5
40
0
40
0
40
0
40
0
40
0.356491583339734
40
1
40
1
40
1
40
1
41
1
10
49.3887672086734
20
-30.3244864640544
30
0
41
1
10
49.4087320543187
20
-30.3500061766881
30
0
41
1
10
49.4518108149822
20
-30.4292212361448
30
0
41
1
10
49.4498136070721
20
-30.5206876987022
30
0
41
1
10
49.4459070808063
20
-30.5778361587721
30
0
0
SPLINE
5
20B
100
AcDbEntity
8
1
62
256
6
ByLayer
370
-1
48
1
60
0
100
AcDbSpline
70
4
71
3
72
15
73
11
40
0
40
0
40
0
40
0
40
0.104034758071938
40
0.246988906147145
40
0.389943054222351
40
0.532897202297558
40
0.675851350372765
40
0.818805498447972
40
0.961759646523179
40
1
40
1
40
1
40
1
41
1
10
49.4428435689201
20
-32.6324146257906
30
0
41
1
10
49.470652664952
20
-32.7346772677507
30
0
41
1
10
49.5466414480615
20
-32.9775344847266
30
0
41
1
10
49.6976171774624
20
-33.3341591346629
30
0
41
1
10
49.9524524699416
20
-33.6920749390861
30
0
41
1
10
49.9759699440038
20
-34.1388756253005
30
0
41
1
10
49.970133329908
20
-34.5808279369931
30
0
41
1
10
49.9737358222631
20
-35.0214101327388
30
0
41
1
10
49.9638065334636
20
-35.3626101619944
30
0
41
1
10
49.8725152781977
20
-35.5371757881059
30
0
41
1
10
49.8503908304983
20
-35.5728269945409
30
0
0
SPLINE
5
20C
100
AcDbEntity
8
1
62
256
6
ByLayer
370
-1
48
1
60
0
100
AcDbSpline
70
4
71
3
72
8
73
4
40
0
40
0
40
0
40
0
40
1
40
1
40
1
40
1
41
1
10
49.4317124045569
20
-36.372255923876
30
0
41
1
10
49.4394994673548
20
-36.355854025726
30
0
41
1
10
49.4466860528814
20
-36.3392881219852
30
0
41
1
10
49.4532045655714
20
-36.3225771157468
30
0
0
SPLINE
5
20D
100
AcDbEntity
8
1
62
256
6
ByLayer
370
-1
48
1
60
0
100
AcDbSpline
70
4
71
3
72
10
73
6
40
0
40
0
40
0
40
0
40
0.0540755473922952
40
0.36938369826153
40
1
40
1
40
1
40
1
41
1
10
41.1029507742195
20
-32.3216632003876
30
-5E-16
41
1
10
41.104275404619
20
-32.3306675524166
30
-5E-16
41
1
10
41.1148457309458
20
-32.3920018426499
30
-5E-16
41
1
10
41.1764428486135
20
-32.5539304301403
30
-5E-16
41
1
10
41.3378206707939
20
-32.6779285618123
30
-5E-16
41
1
10
41.4538342140276
20
-32.6997120435343
30
-5E-16
0
SPLINE
5
20E
100
AcDbEntity
8
1
62
256
6
ByLayer
370
-1
48
1
60
0
100
AcDbSpline
70
4
71
3
72
8
73
4
40
0
40
0
40
0
40
0
40
1
40
1
40
1
40
1
41
1
10
41.4538342140276
20
-32.6997120435343
30
-5E-16
41
1
10
43.8661867693205
20
-33.1528069894565
30
-4E-16
41
1
10
46.27953755751
20
-33.5957829565101
30
-2E-16
41
1
10
48.6955376669994
20
-33.9951905286165
30
-1E-16
0
SPLINE
5
20F
100
AcDbEntity
8
1
62
256
6
ByLayer
370
-1
48
1
60
0
100
AcDbSpline
70
4
71
3
72
14
73
10
40
0
40
0
40
0
40
0
40
0.194165284122755
40
0.291247926184132
40
0.38833056824551
40
0.582495852368265
40
0.77666113649102
40
0.970826420613774
40
1
40
1
40
1
40
1
41
1
10
48.6955376669994
20
-33.9951905286165
30
-1E-16
41
1
10
48.8117280529052
20
-34.01434934534
30
-1E-16
41
1
10
48.9835852320805
20
-33.9836022467477
30
-1E-16
41
1
10
49.1735964462843
20
-33.8843543152676
30
-1E-16
41
1
10
49.3371764378799
20
-33.7535516733016
30
0
41
1
10
49.4971447119822
20
-33.5446859260129
30
0
41
1
10
49.5120832126082
20
-33.2273348693516
30
0
41
1
10
49.5109949487742
20
-32.9997567908532
30
0
41
1
10
49.4848045362126
20
-32.8785937455491
30
0
41
1
10
49.4810390408029
20
-32.8627734577893
30
0
0
SPLINE
5
210
100
AcDbEntity
8
1
62
256
6
ByLayer
370
-1
48
1
60
0
100
AcDbSpline
70
4
71
1
72
4
73
2
40
0
40
0
40
1
40
1
41
1
10
49.1930592634411
20
-36.3543590292703
30
0
41
1
10
48.6955376669994
20
-33.9951905286165
30
-1E-16
0
SPLINE
5
211
100
AcDbEntity
8
1
62
256
6
ByLayer
370
-1
48
1
60
0
100
AcDbSpline
70
4
71
3
72
14
73
10
40
0
40
0
40
0
40
0
40
0.171932104774645
40
0.257898157161968
40
0.34386420954929
40
0.515796314323935
40
0.68772841909858
40
0.859660523873225
40
1
40
1
40
1
40
1
41
1
10
39.9416681354055
20
-34.7455205725478
30
-6E-16
41
1
10
39.7890902291351
20
-34.7220749074121
30
-6E-16
41
1
10
39.5681916880139
20
-34.5482216038059
30
-6E-16
41
1
10
39.5525207806485
20
-34.3039341265578
30
-6E-16
41
1
10
39.5250117622613
20
-34.0886425596746
30
-6E-16
41
1
10
39.4817627028027
20
-33.8516381449183
30
-6E-16
41
1
10
39.4150499989134
20
-33.5872478150152
30
-6E-16
41
1
10
39.3379223994594
20
-33.3284002648207
30
-7E-16
41
1
10
39.2835354764647
20
-33.1362834505155
30
-7E-16
41
1
10
39.2587890150344
20
-33.0417342996807
30
-7E-16
0
SPLINE
5
212
100
AcDbEntity
8
1
62
256
6
ByLayer
370
-1
48
1
60
0
100
AcDbSpline
70
4
71
3
72
14
73
10
40
0
40
0
40
0
40
0
40
0.141815151096413
40
0.31345212087713
40
0.485089090657847
40
0.656726060438565
40
0.742544545328924
40
0.828363030219282
40
1
40
1
40
1
40
1
41
1
10
49.9347662621791
20
-34.4027653074727
30
0
41
1
10
49.962868031438
20
-34.5163002030368
30
0
41
1
10
49.9756319079589
20
-34.7753843605538
30
0
41
1
10
49.970133329908
20
-35.1658261226054
30
0
41
1
10
49.9737358222631
20
-35.5812801043715
30
0
41
1
10
49.9627884295857
20
-35.933033338037
30
0
41
1
10
49.7939225620951
20
-36.1527687409824
30
0
41
1
10
49.5685298529297
20
-36.3187042525429
30
0
41
1
10
49.3465096726758
20
-36.3679424099209
30
0
41
1
10
49.1930592634411
20
-36.3543590292703
30
0
0
SPLINE
5
213
100
AcDbEntity
8
1
62
256
6
ByLayer
370
-1
48
1
60
0
100
AcDbSpline
70
4
71
1
72
4
73
2
40
0
40
0
40
1
40
1
41
1
10
39.9416681354055
20
-34.7455205725478
30
-6E-16
41
1
10
41.4538342140276
20
-32.6997120435343
30
-5E-16
0
SPLINE
5
214
100
AcDbEntity
8
1
62
256
6
ByLayer
370
-1
48
1
60
0
100
AcDbSpline
70
4
71
3
72
15
73
11
40
0
40
0
40
0
40
0
40
0.0625
40
0.125
40
0.25
40
0.5
40
0.75
40
0.875
40
0.9375
40
1
40
1
40
1
40
1
41
1
10
49.1930592634411
20
-36.3543590292703
30
0
41
1
10
48.9940057405944
20
-36.3343192431281
30
-1E-16
41
1
10
48.5948632988263
20
-36.2956047299944
30
-1E-16
41
1
10
47.8221755730431
20
-36.1841214244429
30
-1E-16
41
1
10
46.4988313627283
20
-35.9514459432524
30
-2E-16
41
1
10
44.5862973042088
20
-35.6118854048935
30
-3E-16
41
1
10
42.6953921773316
20
-35.1973433048745
30
-4E-16
41
1
10
41.3313350967294
20
-34.9518452369085
30
-5E-16
41
1
10
40.5353367356836
20
-34.8322278186316
30
-6E-16
41
1
10
40.1397684463099
20
-34.7859055946878
30
-6E-16
41
1
10
39.9416681354055
20
-34.7455205725478
30
-6E-16
0
SPLINE
5
215
100
AcDbEntity
8
1
62
256
6
ByLayer
370
-1
48
1
60
0
100
AcDbSpline
70
4
71
1
72
4
73
2
40
0
40
0
40
1
40
1
41
1
10
49.1930592634411
20
-7.80708429325693
30
0
41
1
10
48.6955376669995
20
-3.83952836942726
30
-1E-16
0
SPLINE
5
216
100
AcDbEntity
8
1
62
256
6
ByLayer
370
-1
48
1
60
0
100
AcDbSpline
70
4
71
3
72
21
73
17
40
0
40
0
40
0
40
0
40
0.08023915356942
40
0.12035873035413
40
0.16047830713884
40
0.24071746070826
40
0.32095661427768
40
0.4011957678471
40
0.48143492141652
40
0.56167407498594
40
0.64191322855536
40
0.72215238212478
40
0.8023915356942
40
0.88263068926362
40
0.96286984283304
40
1
40
1
40
1
40
1
41
1
10
39.9416681354055
20
-4.47057651113855
30
-6E-16
41
1
10
39.7890902291352
20
-4.42888204777066
30
-6E-16
41
1
10
39.5681916880139
20
-4.38964285490025
30
-6E-16
41
1
10
39.5525207806485
20
-4.41536803657141
30
-6E-16
41
1
10
39.5250117622614
20
-4.47558395496603
30
-6E-16
41
1
10
39.4817627028027
20
-4.59032009710981
30
-6E-16
41
1
10
39.4150499989134
20
-4.7542000450365
30
-6E-16
41
1
10
39.3328900883059
20
-4.90732715703072
30
-7E-16
41
1
10
39.2422798064169
20
-4.99051163587342
30
-7E-16
41
1
10
39.1502159886832
20
-4.94456368434558
30
-7E-16
41
1
10
39.0312363378829
20
-4.84231012656247
30
-7E-16
41
1
10
38.8598785567941
20
-4.75657778663941
30
-7E-16
41
1
10
38.6077578146411
20
-4.63803895390527
30
-7E-16
41
1
10
38.5834016031778
20
-4.57486080524293
30
-7E-16
41
1
10
38.5882439854117
20
-4.52856659307417
30
-7E-16
41
1
10
38.5876838305142
20
-4.50037001844356
30
-7E-16
41
1
10
38.587739103911
20
-4.4914932607262
30
-7E-16
0
SPLINE
5
217
100
AcDbEntity
8
1
62
256
6
ByLayer
370
-1
48
1
60
0
100
AcDbSpline
70
4
71
3
72
8
73
4
40
0
40
0
40
0
40
0
40
1
40
1
40
1
40
1
41
1
10
41.4538342140277
20
-1.96553518250099
30
-5E-16
41
1
10
43.8661867693206
20
-2.59278399078181
30
-4E-16
41
1
10
46.27953755751
20
-3.21886440197835
30
-2E-16
41
1
10
48.6955376669995
20
-3.83952836942726
30
-1E-16
0
SPLINE
5
218
100
AcDbEntity
8
1
62
256
6
ByLayer
370
-1
48
1
60
0
100
AcDbSpline
70
4
71
3
72
13
73
9
40
0
40
0
40
0
40
0
40
0.0272362776748169
40
0.270427208256112
40
0.513618138837408
40
0.635213604128056
40
0.756809069418704
40
1
40
1
40
1
40
1
41
1
10
49.9718817348161
20
-7.81831629248563
30
0
41
1
10
49.9718096505614
20
-7.82043985414003
30
0
41
1
10
49.9711996731091
20
-7.8415508803478
30
0
41
1
10
49.9737358222631
20
-7.88271484983997
30
0
41
1
10
49.9627884295857
20
-7.92887493628629
30
0
41
1
10
49.7939225620951
20
-7.91978707172356
30
0
41
1
10
49.5685298529297
20
-7.8900213058711
30
0
41
1
10
49.3465096726758
20
-7.84488053529279
30
0
41
1
10
49.1930592634411
20
-7.80708429325693
30
0
0
SPLINE
5
219
100
AcDbEntity
8
1
62
256
6
ByLayer
370
-1
48
1
60
0
100
AcDbSpline
70
4
71
3
72
18
73
14
40
0
40
0
40
0
40
0
40
0.162600988457446
40
0.162600988457446
40
0.332996094284669
40
0.332996094284669
40
0.503772203001935
40
0.503772203001935
40
0.669272814739437
40
0.669272814739437
40
0.830144082047365
40
0.830144082047365
40
1
40
1
40
1
40
1
41
1
10
45.587641092171
20
-6.53138459078443
30
-3E-16
41
1
10
45.476946283952
20
-6.50242826687006
30
-3E-16
41
1
10
45.3437250994761
20
-6.46012947504809
30
-3E-16
41
1
10
45.0434126728807
20
-6.36027064764252
30
-3E-16
41
1
10
44.8706843869633
20
-6.30090469347962
30
-3E-16
41
1
10
44.5123876730948
20
-6.1822232099573
30
-3E-16
41
1
10
44.3216001167809
20
-6.12121053767765
30
-3E-16
41
1
10
43.9539852602043
20
-6.015457264296
30
-4E-16
41
1
10
43.771731655951
20
-5.96915438989473
30
-4E-16
41
1
10
43.4402595681622
20
-5.89888993742596
30
-4E-16
41
1
10
43.2859239060437
20
-5.87355316315373
30
-4E-16
41
1
10
43.0128914020641
20
-5.83257329741102
30
-4E-16
41
1
10
42.8925342280348
20
-5.81624417191068
30
-4E-16
41
1
10
42.8049444652568
20
-5.79200246509015
30
-4E-16
0
SPLINE
5
21A
100
AcDbEntity
8
1
62
256
6
ByLayer
370
-1
48
1
60
0
100
AcDbSpline
70
4
71
3
72
13
73
9
40
0
40
0
40
0
40
0
40
0.0040437314015935
40
0.253032798551195
40
0.502021865700797
40
0.626516399275598
40
0.751010932850398
40
1
40
1
40
1
40
1
41
1
10
41.1092047058976
20
-1.72636841932149
30
-5E-16
41
1
10
41.1091738803969
20
-1.72659719253485
30
-5E-16
41
1
10
41.1072418339338
20
-1.74091149392632
30
-5E-16
41
1
10
41.1030372061549
20
-1.76919575761141
30
-5E-16
41
1
10
41.0920806774766
20
-1.80285960165264
30
-5E-16
41
1
10
41.0987545555308
20
-1.83397828370474
30
-5E-16
41
1
10
41.1764428486136
20
-1.88050745107807
30
-5E-16
41
1
10
41.3378206707939
20
-1.93541132232312
30
-5E-16
41
1
10
41.4538342140277
20
-1.96553518250099
30
-5E-16
0
SPLINE
5
21B
100
AcDbEntity
8
1
62
256
6
ByLayer
370
-1
48
1
60
0
100
AcDbSpline
70
4
71
3
72
14
73
10
40
0
40
0
40
0
40
0
40
0.194165343935198
40
0.291248015902797
40
0.388330687870396
40
0.582496031805594
40
0.776661375740792
40
0.97082671967599
40
1
40
1
40
1
40
1
41
1
10
48.6955376669995
20
-3.83952836942726
30
-1E-16
41
1
10
48.8117280529052
20
-3.86937049961531
30
-1E-16
41
1
10
48.9835852320805
20
-3.90532382439511
30
-1E-16
41
1
10
49.1735964462843
20
-3.93603432397035
30
-1E-16
41
1
10
49.3371764378799
20
-3.95618823279813
30
0
41
1
10
49.4971447119822
20
-3.96468144559285
30
0
41
1
10
49.5120832126082
20
-3.9242082071458
30
0
41
1
10
49.5109949495772
20
-3.89242282231859
30
0
41
1
10
49.484804608461
20
-3.86950745440163
30
0
41
1
10
49.4810391600844
20
-3.86643450199051
30
0
0
SPLINE
5
21C
100
AcDbEntity
8
1
62
256
6
ByLayer
370
-1
48
1
60
0
100
AcDbSpline
70
4
71
3
72
15
73
11
40
0
40
0
40
0
40
0
40
0.0625
40
0.125
40
0.25
40
0.5
40
0.75
40
0.875
40
0.9375
40
1
40
1
40
1
40
1
41
1
10
49.1930592634411
20
-7.80708429325693
30
0
41
1
10
48.9940057405944
20
-7.75773064026012
30
-1E-16
41
1
10
48.5948632988264
20
-7.66182346991786
30
-1E-16
41
1
10
47.8221755730431
20
-7.38698707416646
30
-1E-16
41
1
10
46.4988313627284
20
-6.83622627018161
30
-2E-16
41
1
10
44.5862973042088
20
-6.09608346739611
30
-3E-16
41
1
10
42.6953921773316
20
-5.29512421827158
30
-4E-16
41
1
10
41.3313350967294
20
-4.83809748943676
30
-5E-16
41
1
10
40.5353367356836
20
-4.63541773156456
30
-6E-16
41
1
10
40.1397684463099
20
-4.52340392558955
30
-6E-16
41
1
10
39.9416681354055
20
-4.47057651113855
30
-6E-16
0
SPLINE
5
21D
100
AcDbEntity
8
1
62
256
6
ByLayer
370
-1
48
1
60
0
100
AcDbSpline
70
4
71
3
72
8
73
4
40
0
40
0
40
0
40
0
40
1
40
1
40
1
40
1
41
1
10
45.6858108763054
20
-6.55444805567504
30
-3E-16
41
1
10
45.6550793322545
20
-6.54818632604452
30
-3E-16
41
1
10
45.6222833106255
20
-6.54043652864328
30
-3E-16
41
1
10
45.587641092171
20
-6.53138459078443
30
-3E-16
0
SPLINE
5
21E
100
AcDbEntity
8
1
62
256
6
ByLayer
370
-1
48
1
60
0
100
AcDbSpline
70
4
71
1
72
4
73
2
40
0
40
0
40
1
40
1
41
1
10
39.9416681354055
20
-4.47057651113855
30
-6E-16
41
1
10
41.4538342140277
20
-1.96553518250099
30
-5E-16
0
SPLINE
5
21F
100
AcDbEntity
8
1
62
256
6
ByLayer
370
-1
48
1
60
0
100
AcDbSpline
70
4
71
3
72
12
73
8
40
0
40
0
40
0
40
0
40
0.276376690478348
40
0.414565035717522
40
0.552753380956696
40
0.829130071435044
40
1
40
1
40
1
40
1
41
1
10
48.6955376669995
20
26.777199275502
30
-1E-16
41
1
10
48.8117280529053
20
26.759063419065
30
-1E-16
41
1
10
48.9835852320806
20
26.6875151225211
30
-1E-16
41
1
10
49.1735964462844
20
26.5590165363775
30
-1E-16
41
1
10
49.3371764378799
20
26.4140575491073
30
0
41
1
10
49.4727175657129
20
26.2420274088797
30
0
41
1
10
49.4990021742639
20
26.1102674119478
30
0
41
1
10
49.5040908675876
20
26.0600871647902
30
0
0
SPLINE
5
220
100
AcDbEntity
8
1
62
256
6
ByLayer
370
-1
48
1
60
0
100
AcDbSpline
70
4
71
3
72
8
73
4
40
0
40
0
40
0
40
0
40
1
40
1
40
1
40
1
41
1
10
41.1837989656626
20
27.7719295599274
30
-5E-16
41
1
10
41.2471239401694
20
27.8192388540755
30
-5E-16
41
1
10
41.3468986184803
20
27.8455933850422
30
-5E-16
41
1
10
41.4538342140277
20
27.8307985319657
30
-5E-16
0
SPLINE
5
221
100
AcDbEntity
8
1
62
256
6
ByLayer
370
-1
48
1
60
0
100
AcDbSpline
70
4
71
1
72
4
73
2
40
0
40
0
40
1
40
1
41
1
10
49.1930592634412
20
24.1924140190735
30
0
41
1
10
48.6955376669995
20
26.777199275502
30
-1E-16
0
SPLINE
5
222
100
AcDbEntity
8
1
62
256
6
ByLayer
370
-1
48
1
60
0
100
AcDbSpline
70
4
71
3
72
25
73
21
40
0
40
0
40
0
40
0
40
0.0625
40
0.09375
40
0.125
40
0.1875
40
0.25
40
0.3125
40
0.375
40
0.4375
40
0.5
40
0.5625
40
0.625
40
0.6875
40
0.75
40
0.8125
40
0.875
40
0.90625
40
0.9375
40
1
40
1
40
1
40
1
41
1
10
39.9416681354056
20
26.7123981365628
30
-6E-16
41
1
10
39.7890902291352
20
26.740804427519
30
-6E-16
41
1
10
39.5681916880139
20
26.6273978089479
30
-6E-16
41
1
10
39.5525207806485
20
26.370974628536
30
-6E-16
41
1
10
39.5250117622614
20
26.099917302394
30
-6E-16
41
1
10
39.4817627028027
20
25.7433637325053
30
-6E-16
41
1
10
39.4150499989134
20
25.3025304017869
30
-6E-16
41
1
10
39.3328900883059
20
24.8641300369027
30
-7E-16
41
1
10
39.2422798064169
20
24.4674065684896
30
-7E-16
41
1
10
39.1502159886832
20
24.1516039271847
30
-7E-16
41
1
10
39.0312363378829
20
23.8784031121638
30
-7E-16
41
1
10
38.8598785567941
20
23.6094851226031
30
-7E-16
41
1
10
38.6077578146411
20
23.3914676385424
30
-7E-16
41
1
10
38.5834016031778
20
23.0746675619802
30
-7E-16
41
1
10
38.5893003684924
20
22.7594358989536
30
-7E-16
41
1
10
38.5855629822915
20
22.4459664621285
30
-7E-16
41
1
10
38.6035026501553
20
22.1747185959675
30
-7E-16
41
1
10
38.7589710369209
20
21.9646298580483
30
-7E-16
41
1
10
38.9862800749424
20
21.775189881479
30
-7E-16
41
1
10
39.2125658294282
20
21.6743874458321
30
-7E-16
41
1
10
39.3659876491225
20
21.6415737897576
30
-7E-16
0
SPLINE
5
223
100
AcDbEntity
8
1
62
256
6
ByLayer
370
-1
48
1
60
0
100
AcDbSpline
70
4
71
3
72
25
73
21
40
0
40
0
40
0
40
0
40
0.0625
40
0.09375
40
0.125
40
0.1875
40
0.25
40
0.3125
40
0.375
40
0.4375
40
0.5
40
0.5625
40
0.625
40
0.6875
40
0.75
40
0.8125
40
0.875
40
0.90625
40
0.9375
40
1
40
1
40
1
40
1
41
1
10
49.1057266240884
20
20.5620893394556
30
-1E-16
41
1
10
49.2596795062292
20
20.5378559108032
30
0
41
1
10
49.4617858201568
20
20.5957957767162
30
0
41
1
10
49.4449509802382
20
20.7562141459844
30
0
41
1
10
49.4227354195701
20
20.880823823705
30
0
41
1
10
49.3858625495057
20
20.9977826378746
30
0
41
1
10
49.3407596325154
20
21.1106587097354
30
0
41
1
10
49.314776136648
20
21.2293818952625
30
0
41
1
10
49.3290195952826
20
21.399959316315
30
0
41
1
10
49.4050021049254
20
21.6683051947963
30
0
41
1
10
49.531572880408
20
21.9642881088692
30
0
41
1
10
49.6976171774624
20
22.2177929899215
30
0
41
1
10
49.9524524699416
20
22.444145195378
30
0
41
1
10
49.9759699440039
20
22.7587664399937
30
0
41
1
10
49.970133329908
20
23.074489802457
30
0
41
1
10
49.9737358222632
20
23.3878688799377
30
0
41
1
10
49.9627884295857
20
23.6572151990089
30
0
41
1
10
49.7939225620951
20
23.8709978981684
30
0
41
1
10
49.5685298529298
20
24.059932378016
30
0
41
1
10
49.3465096726759
20
24.1595819484291
30
0
41
1
10
49.1930592634412
20
24.1924140190735
30
0
0
SPLINE
5
224
100
AcDbEntity
8
1
62
256
6
ByLayer
370
-1
48
1
60
0
100
AcDbSpline
70
4
71
3
72
8
73
4
40
0
40
0
40
0
40
0
40
1
40
1
40
1
40
1
41
1
10
43.0175849375759
20
22.5009264063903
30
-4E-16
41
1
10
43.0446635123924
20
22.4774590723448
30
-4E-16
41
1
10
43.0730437270853
20
22.4545820200942
30
-4E-16
41
1
10
43.1025881733921
20
22.4323406770483
30
-4E-16
0
SPLINE
5
225
100
AcDbEntity
8
1
62
256
6
ByLayer
370
-1
48
1
60
0
100
AcDbSpline
70
4
71
3
72
8
73
4
40
0
40
0
40
0
40
0
40
1
40
1
40
1
40
1
41
1
10
45.6962282660996
20
22.1064974424369
30
-3E-16
41
1
10
45.7356205856694
20
22.1332738199695
30
-3E-16
41
1
10
45.7711868682624
20
22.1636211606655
30
-3E-16
41
1
10
45.8026261280037
20
22.1979447642893
30
-3E-16
0
SPLINE
5
226
100
AcDbEntity
8
1
62
256
6
ByLayer
370
-1
48
1
60
0
100
AcDbSpline
70
4
71
3
72
14
73
10
40
0
40
0
40
0
40
0
40
0.301632841810065
40
0.301632841810065
40
0.602402032079645
40
0.602402032079645
40
0.899200904780735
40
0.899200904780735
40
1
40
1
40
1
40
1
41
1
10
42.8049444652568
20
23.7804694037091
30
-4E-16
41
1
10
42.7180705749574
20
23.6632552886632
30
-4E-16
41
1
10
42.6599077063564
20
23.5411655548343
30
-4E-16
41
1
10
42.6148227831131
20
23.2868031322462
30
-5E-16
41
1
10
42.6244740599948
20
23.1450420339665
30
-5E-16
41
1
10
42.7085788432896
20
22.8691083555287
30
-4E-16
41
1
10
42.7860489828323
20
22.7345751842077
30
-4E-16
41
1
10
42.9319537402735
20
22.5768382734741
30
-4E-16
41
1
10
42.9731754787909
20
22.5379541360878
30
-4E-16
41
1
10
43.0175849375759
20
22.5009264063903
30
-4E-16
0
SPLINE
5
227
100
AcDbEntity
8
1
62
256
6
ByLayer
370
-1
48
1
60
0
100
AcDbSpline
70
4
71
3
72
15
73
11
40
0
40
0
40
0
40
0
40
0.0625
40
0.125
40
0.25
40
0.5
40
0.75
40
0.875
40
0.9375
40
1
40
1
40
1
40
1
41
1
10
39.3659876491225
20
21.6415737897576
30
-7E-16
41
1
10
39.5648198200535
20
21.6000349134953
30
-6E-16
41
1
10
39.9652516929152
20
21.52477033219
30
-6E-16
41
1
10
40.774725297987
20
21.4058386836559
30
-6E-16
41
1
10
42.2074467929496
20
21.2815569498201
30
-5E-16
41
1
10
44.2454150399675
20
21.0777500096752
30
-4E-16
41
1
10
46.2913231296092
20
20.9568895499935
30
-2E-16
41
1
10
47.7088350095693
20
20.7918440749755
30
-1E-16
41
1
10
48.5047464249116
20
20.6589803650598
30
-1E-16
41
1
10
48.9072815125984
20
20.5864102665944
30
-1E-16
41
1
10
49.1057266240884
20
20.5620893394556
30
-1E-16
0
SPLINE
5
228
100
AcDbEntity
8
1
62
256
6
ByLayer
370
-1
48
1
60
0
100
AcDbSpline
70
4
71
3
72
18
73
14
40
0
40
0
40
0
40
0
40
0.162600988457447
40
0.162600988457447
40
0.33299609428467
40
0.33299609428467
40
0.503772203001936
40
0.503772203001936
40
0.669272814739438
40
0.669272814739438
40
0.830144082047366
40
0.830144082047366
40
1
40
1
40
1
40
1
41
1
10
45.587641092171
20
23.4809566129072
30
-3E-16
41
1
10
45.476946283952
20
23.6101539023642
30
-3E-16
41
1
10
45.3437250994762
20
23.7356462175168
30
-3E-16
41
1
10
45.0434126728808
20
23.9605926829087
30
-3E-16
41
1
10
44.8706843869633
20
24.0615169593827
30
-3E-16
41
1
10
44.5123876730948
20
24.2131890063264
30
-3E-16
41
1
10
44.321600116781
20
24.2659226118635
30
-3E-16
41
1
10
43.9539852602043
20
24.3090853430982
30
-4E-16
41
1
10
43.771731655951
20
24.3016590247472
30
-4E-16
41
1
10
43.4402595681622
20
24.2308002687203
30
-4E-16
41
1
10
43.2859239060437
20
24.1680683916263
30
-4E-16
41
1
10
43.0128914020642
20
24.0012670723966
30
-4E-16
41
1
10
42.8925342280348
20
23.8930957066687
30
-4E-16
41
1
10
42.8049444652568
20
23.7804694037091
30
-4E-16
0
SPLINE
5
229
100
AcDbEntity
8
1
62
256
6
ByLayer
370
-1
48
1
60
0
100
AcDbSpline
70
4
71
1
72
4
73
2
40
0
40
0
40
1
40
1
41
1
10
39.9416681354056
20
26.7123981365628
30
-6E-16
41
1
10
41.4538342140277
20
27.8307985319657
30
-5E-16
0
SPLINE
5
22A
100
AcDbEntity
8
1
62
256
6
ByLayer
370
-1
48
1
60
0
100
AcDbSpline
70
4
71
3
72
15
73
11
40
0
40
0
40
0
40
0
40
0.0625
40
0.125
40
0.25
40
0.5
40
0.75
40
0.875
40
0.9375
40
1
40
1
40
1
40
1
41
1
10
49.1930592634412
20
24.1924140190735
30
0
41
1
10
48.9940057405945
20
24.2331594138795
30
-1E-16
41
1
10
48.5948632988264
20
24.3125490435896
30
-1E-16
41
1
10
47.8221755730431
20
24.5395524113655
30
-1E-16
41
1
10
46.4988313627284
20
24.9859014509709
30
-2E-16
41
1
10
44.5862973042088
20
25.5609142163345
30
-3E-16
41
1
10
42.6953921773316
20
26.1397074848597
30
-4E-16
41
1
10
41.3313350967294
20
26.4616934472066
30
-5E-16
41
1
10
40.5353367356836
20
26.5945653819443
30
-6E-16
41
1
10
40.13976844631
20
26.6862665665771
30
-6E-16
41
1
10
39.9416681354056
20
26.7123981365628
30
-6E-16
0
SPLINE
5
22B
100
AcDbEntity
8
1
62
256
6
ByLayer
370
-1
48
1
60
0
100
AcDbSpline
70
4
71
3
72
8
73
4
40
0
40
0
40
0
40
0
40
1
40
1
40
1
40
1
41
1
10
41.4538342140277
20
27.8307985319657
30
-5E-16
41
1
10
43.8661867693206
20
27.4961329125408
30
-4E-16
41
1
10
46.27953755751
20
27.1535274588119
30
-2E-16
41
1
10
48.6955376669995
20
26.777199275502
30
-1E-16
0
SPLINE
5
22C
100
AcDbEntity
8
1
62
256
6
ByLayer
370
-1
48
1
60
0
100
AcDbSpline
70
4
71
3
72
14
73
10
40
0
40
0
40
0
40
0
40
0.258374536041623
40
0.258374536041623
40
0.520163709547355
40
0.520163709547355
40
0.8083974790164
40
0.8083974790164
40
1
40
1
40
1
40
1
41
1
10
45.8026261280037
20
22.1979447642893
30
-3E-16
41
1
10
45.8744171007636
20
22.2722962899593
30
-3E-16
41
1
10
45.9246300058289
20
22.3692317868543
30
-2E-16
41
1
10
45.9763643976471
20
22.5834314936711
30
-2E-16
41
1
10
45.9772064531712
20
22.7004368259551
30
-2E-16
41
1
10
45.9226407334345
20
22.9421856631946
30
-2E-16
41
1
10
45.8625138629351
20
23.0750255218582
30
-3E-16
41
1
10
45.7261020584113
20
23.2996196541123
30
-3E-16
41
1
10
45.6610124245771
20
23.3913131621336
30
-3E-16
41
1
10
45.587641092171
20
23.4809566129072
30
-3E-16
0
SPLINE
5
22D
100
AcDbEntity
8
1
62
256
6
ByLayer
370
-1
48
1
60
0
100
AcDbSpline
70
4
71
3
72
18
73
14
40
0
40
0
40
0
40
0
40
0.213394464779713
40
0.213394464779713
40
0.389004322610665
40
0.389004322610665
40
0.566252444177964
40
0.566252444177964
40
0.721175490823054
40
0.721175490823054
40
0.927416435499181
40
0.927416435499181
40
1
40
1
40
1
40
1
41
1
10
44.8644426920228
20
23.2596625027573
30
-3E-16
41
1
10
44.8594448101921
20
23.2499647209013
30
-3E-16
41
1
10
44.8601443340928
20
23.2361148569708
30
-3E-16
41
1
10
44.8729638994361
20
23.2020202622365
30
-3E-16
41
1
10
44.883250440932
20
23.1828544990663
30
-3E-16
41
1
10
44.9122626347848
20
23.1374521442499
30
-3E-16
41
1
10
44.9315502010716
20
23.1103598358762
30
-3E-16
41
1
10
44.9729592862714
20
23.0564033960545
30
-3E-16
41
1
10
44.9948918929612
20
23.0293545297892
30
-3E-16
41
1
10
45.0482204605302
20
22.9674974638014
30
-3E-16
41
1
10
45.0812288024936
20
22.932101516337
30
-3E-16
41
1
10
45.1264502493474
20
22.8881672543914
30
-3E-16
41
1
10
45.1384422257702
20
22.8769241841135
30
-3E-16
41
1
10
45.1504824930114
20
22.8660562625572
30
-3E-16
0
SPLINE
5
22E
100
AcDbEntity
8
1
62
256
6
ByLayer
370
-1
48
1
60
0
100
AcDbSpline
70
4
71
3
72
16
73
12
40
0
40
0
40
0
40
0
40
0.0650212293343012
40
0.0650212293343012
40
0.289691523269465
40
0.289691523269465
40
0.517236422326123
40
0.517236422326123
40
0.759263521180998
40
0.759263521180998
40
1
40
1
40
1
40
1
41
1
10
43.75894938897
20
23.5530523332674
30
-4E-16
41
1
10
43.7543580899785
20
23.5521014979563
30
-4E-16
41
1
10
43.7499077067616
20
23.5510710040303
30
-4E-16
41
1
10
43.7309447408889
20
23.5461842348641
30
-4E-16
41
1
10
43.7181003734153
20
23.5414613984918
30
-4E-16
41
1
10
43.6978368742163
20
23.5309548393832
30
-4E-16
41
1
10
43.6902188001177
20
23.5250299345746
30
-4E-16
41
1
10
43.680527257887
20
23.5125883540273
30
-4E-16
41
1
10
43.6786967525138
20
23.505907115842
30
-4E-16
41
1
10
43.6809995908041
20
23.4931509908794
30
-4E-16
41
1
10
43.6851096838649
20
23.4869406036748
30
-4E-16
41
1
10
43.6917024744013
20
23.4812940156447
30
-4E-16
0
SPLINE
5
22F
100
AcDbEntity
8
1
62
256
6
ByLayer
370
-1
48
1
60
0
100
AcDbSpline
70
4
71
3
72
14
73
10
40
0
40
0
40
0
40
0
40
0.284523597312289
40
0.284523597312289
40
0.571736866218047
40
0.571736866218047
40
0.831999616286232
40
0.831999616286232
40
1
40
1
40
1
40
1
41
1
10
43.6917024744013
20
22.5656644453995
30
-4E-16
41
1
10
43.6839208650658
20
22.5451192667601
30
-4E-16
41
1
10
43.6796054397408
20
22.5232887554207
30
-4E-16
41
1
10
43.6794210858021
20
22.4801336668015
30
-4E-16
41
1
10
43.6836689024881
20
22.4581486591199
30
-4E-16
41
1
10
43.7001825467736
20
22.4198376881809
30
-4E-16
41
1
10
43.7119417045694
20
22.4026089083047
30
-4E-16
41
1
10
43.7361995027902
20
22.3788882216178
30
-4E-16
41
1
10
43.7471270254246
20
22.3705642331445
30
-4E-16
41
1
10
43.75894938897
20
22.36364735713
30
-4E-16
0
SPLINE
5
230
100
AcDbEntity
8
1
62
256
6
ByLayer
370
-1
48
1
60
0
100
AcDbSpline
70
4
71
3
72
16
73
12
40
0
40
0
40
0
40
0
40
0.0668638488455306
40
0.0668638488455306
40
0.290854271538806
40
0.290854271538806
40
0.517824973971679
40
0.517824973971679
40
0.759328674281762
40
0.759328674281762
40
1
40
1
40
1
40
1
41
1
10
43.75894938897
20
22.36364735713
30
-4E-16
41
1
10
43.7636835350922
20
22.3608775639634
30
-4E-16
41
1
10
43.7685794067772
20
22.3583181551499
30
-4E-16
41
1
10
43.7903093061796
20
22.34823240574
30
-4E-16
41
1
10
43.8087173431396
20
22.3429563689427
30
-4E-16
41
1
10
43.8461586687728
20
22.3379951597746
30
-4E-16
41
1
10
43.8656709036184
20
22.338309864624
30
-4E-16
41
1
10
43.9043798544919
20
22.344343229167
30
-4E-16
41
1
10
43.923963632628
20
22.350465296567
30
-4E-16
41
1
10
43.9598605693537
20
22.367430380656
30
-4E-16
41
1
10
43.9765703114408
20
22.3784238016356
30
-4E-16
41
1
10
43.9912627546606
20
22.3911641310744
30
-4E-16
0
SPLINE
5
231
100
AcDbEntity
8
1
62
256
6
ByLayer
370
-1
48
1
60
0
100
AcDbSpline
70
4
71
3
72
16
73
12
40
0
40
0
40
0
40
0
40
0.0668638488454727
40
0.0668638488454727
40
0.29085427153857
40
0.29085427153857
40
0.517824973971259
40
0.517824973971259
40
0.759328674281157
40
0.759328674281157
40
1
40
1
40
1
40
1
41
1
10
44.7638996961209
20
23.3631307687097
30
-3E-16
41
1
10
44.7591655499986
20
23.3659005618764
30
-3E-16
41
1
10
44.754329785453
20
23.3686378741415
30
-3E-16
41
1
10
44.733118035358
20
23.3802572275668
30
-3E-16
41
1
10
44.7157926622873
20
23.3887377030542
30
-3E-16
41
1
10
44.6817161505292
20
23.4036579954364
30
-3E-16
41
1
10
44.6645427957394
20
23.4102658432063
30
-3E-16
41
1
10
44.6316177320774
20
23.4213514683548
30
-3E-16
41
1
10
44.6156105729577
20
23.4258153791789
30
-3E-16
41
1
10
44.5875572502629
20
23.4320656073581
30
-3E-16
41
1
10
44.5751938048288
20
23.4339362352229
30
-3E-16
41
1
10
44.5650447587754
20
23.4346433272866
30
-3E-16
0
SPLINE
5
232
100
AcDbEntity
8
1
62
256
6
ByLayer
370
-1
48
1
60
0
100
AcDbSpline
70
4
71
3
72
12
73
8
40
0
40
0
40
0
40
0
40
0.377026290846269
40
0.377026290846269
40
0.761056372063253
40
0.761056372063253
40
1
40
1
40
1
40
1
41
1
10
44.2746624807227
20
22.4925324785752
30
-4E-16
41
1
10
44.2358525662616
20
22.4962747839755
30
-4E-16
41
1
10
44.1959717569358
20
22.4923706358476
30
-4E-16
41
1
10
44.1203268388086
20
22.4721687755502
30
-4E-16
41
1
10
44.0836351151974
20
22.4555410494371
30
-4E-16
41
1
10
44.0294644999548
20
22.4218447195653
30
-4E-16
41
1
10
44.0096931069807
20
22.4071457317326
30
-4E-16
41
1
10
43.9912627546607
20
22.3911641310746
30
-4E-16
0
SPLINE
5
233
100
AcDbEntity
8
1
62
256
6
ByLayer
370
-1
48
1
60
0
100
AcDbSpline
70
4
71
3
72
14
73
10
40
0
40
0
40
0
40
0
40
0.283738489034223
40
0.283738489034223
40
0.570489531030767
40
0.570489531030767
40
0.830294403552176
40
0.830294403552176
40
1
40
1
40
1
40
1
41
1
10
43.9912627546607
20
23.5430801078529
30
-4E-16
41
1
10
43.9739632805622
20
23.5477752712839
30
-4E-16
41
1
10
43.9538031279601
20
23.5519745228046
30
-4E-16
41
1
10
43.9103129213386
20
23.5582691186465
30
-4E-16
41
1
10
43.8862645150097
20
23.560422308082
30
-4E-16
41
1
10
43.8405687019407
20
23.5616043305758
30
-4E-16
41
1
10
43.8182195896279
20
23.5609075966711
30
-4E-16
41
1
10
43.7840072350256
20
23.5574883407249
30
-4E-16
41
1
10
43.7709251036042
20
23.5555324445326
30
-4E-16
41
1
10
43.75894938897
20
23.5530523332674
30
-4E-16
0
SPLINE
5
234
100
AcDbEntity
8
1
62
256
6
ByLayer
370
-1
48
1
60
0
100
AcDbSpline
70
4
71
3
72
12
73
8
40
0
40
0
40
0
40
0
40
0.3770262906397
40
0.3770262906397
40
0.761056371823047
40
0.761056371823047
40
1
40
1
40
1
40
1
41
1
10
44.3293754637833
20
23.474546191961
30
-3E-16
41
1
10
44.3670177297028
20
23.4673479127076
30
-3E-16
41
1
10
44.4031734323024
20
23.4602265928472
30
-3E-16
41
1
10
44.467865412729
20
23.4480102505575
30
-3E-16
41
1
10
44.4971884677273
20
23.4428283947317
30
-3E-16
41
1
10
44.5380432757565
20
23.4371129659572
30
-3E-16
41
1
10
44.5523136907111
20
23.4355303108654
30
-3E-16
41
1
10
44.5650447587754
20
23.4346433272866
30
-3E-16
0
SPLINE
5
235
100
AcDbEntity
8
1
62
256
6
ByLayer
370
-1
48
1
60
0
100
AcDbSpline
70
4
71
3
72
14
73
10
40
0
40
0
40
0
40
0
40
0.28451924912325
40
0.28451924912325
40
0.571733062184457
40
0.571733062184457
40
0.831996244286532
40
0.831996244286532
40
1
40
1
40
1
40
1
41
1
10
43.4056626734127
20
23.1958028257968
30
-4E-16
41
1
10
43.3832328303164
20
23.1878472534033
30
-4E-16
41
1
10
43.3612808877257
20
23.1777181818397
30
-4E-16
41
1
10
43.322065011551
20
23.1539877371082
30
-4E-16
41
1
10
43.3042652197331
20
23.13996652663
30
-4E-16
41
1
10
43.2780316136559
20
23.111307038918
30
-4E-16
41
1
10
43.2685130656542
20
23.0964057758602
30
-4E-16
41
1
10
43.2597442934663
20
23.0720660602076
30
-4E-16
41
1
10
43.2579650712335
20
23.062380403086
30
-4E-16
41
1
10
43.2579650712335
20
23.0530288803375
30
-4E-16
0
SPLINE
5
236
100
AcDbEntity
8
1
62
256
6
ByLayer
370
-1
48
1
60
0
100
AcDbSpline
70
4
71
3
72
12
73
8
40
0
40
0
40
0
40
0
40
0.46439099217165
40
0.46439099217165
40
0.846401077318507
40
0.846401077318507
40
1
40
1
40
1
40
1
41
1
10
44.5650447587754
20
22.2827273505082
30
-3E-16
41
1
10
44.5405272194556
20
22.3248459770807
30
-3E-16
41
1
10
44.5100492522065
20
22.3645658490596
30
-3E-16
41
1
10
44.4449611820314
20
22.4252106032707
30
-3E-16
41
1
10
44.4112358139
20
22.4487645628283
30
-3E-16
41
1
10
44.3602013385329
20
22.4721047798079
30
-3E-16
41
1
10
44.3449277140512
20
22.4777691699564
30
-3E-16
41
1
10
44.3293754637833
20
22.4821924893533
30
-3E-16
0
SPLINE
5
237
100
AcDbEntity
8
1
62
256
6
ByLayer
370
-1
48
1
60
0
100
AcDbSpline
70
4
71
3
72
16
73
12
40
0
40
0
40
0
40
0
40
0.0670553612811717
40
0.0670553612811717
40
0.291697905104275
40
0.291697905104275
40
0.5193292286638
40
0.5193292286638
40
0.761535715028734
40
0.761535715028734
40
1
40
1
40
1
40
1
41
1
10
43.2579650712335
20
23.0530288803375
30
-4E-16
41
1
10
43.2579650712335
20
23.0492844065136
30
-4E-16
41
1
10
43.2582460124224
20
23.0455766933858
30
-4E-16
41
1
10
43.2606659480707
20
23.0298080270491
30
-4E-16
41
1
10
43.2657268228197
20
23.0182138758891
30
-4E-16
41
1
10
43.2812912482724
20
22.9977834399287
30
-4E-16
41
1
10
43.2920501447483
20
22.9887217097996
30
-4E-16
41
1
10
43.3182409680905
20
22.973775444267
30
-4E-16
41
1
10
43.3342400887526
20
22.9679354015826
30
-4E-16
41
1
10
43.368383511964
20
22.9605951991831
30
-4E-16
41
1
10
43.3868354385887
20
22.9589450549521
30
-4E-16
41
1
10
43.4056626734127
20
22.9592706855996
30
-4E-16
0
SPLINE
5
238
100
AcDbEntity
8
1
62
256
6
ByLayer
370
-1
48
1
60
0
100
AcDbSpline
70
4
71
3
72
14
73
10
40
0
40
0
40
0
40
0
40
0.284519249123239
40
0.284519249123239
40
0.571733062184465
40
0.571733062184465
40
0.831996244286529
40
0.831996244286529
40
1
40
1
40
1
40
1
41
1
10
45.1504824930114
20
22.62952412236
30
-3E-16
41
1
10
45.1675701140859
20
22.6216679334974
30
-3E-16
41
1
10
45.184444618269
20
22.6167689430362
30
-3E-16
41
1
10
45.2147685382689
20
22.614181221364
30
-3E-16
41
1
10
45.22863167569
20
22.6165508308388
30
-3E-16
41
1
10
45.2491284440117
20
22.6282305845402
30
-3E-16
41
1
10
45.2565989757748
20
22.637070185675
30
-3E-16
41
1
10
45.263484907365
20
22.6558371217068
30
-3E-16
41
1
10
45.2648840138573
20
22.6643977227537
30
-3E-16
41
1
10
45.2648840138573
20
22.6737492455023
30
-3E-16
0
SPLINE
5
239
100
AcDbEntity
8
1
62
256
6
ByLayer
370
-1
48
1
60
0
100
AcDbSpline
70
4
71
3
72
16
73
12
40
0
40
0
40
0
40
0
40
0.0670553612811638
40
0.0670553612811638
40
0.291697905104281
40
0.291697905104281
40
0.519329228663785
40
0.519329228663785
40
0.761535715028717
40
0.761535715028717
40
1
40
1
40
1
40
1
41
1
10
45.2648840138573
20
22.6737492455023
30
-3E-16
41
1
10
45.2648840138573
20
22.6774937193261
30
-3E-16
41
1
10
45.2646631742011
20
22.6813793193111
30
-3E-16
41
1
10
45.2627613583507
20
22.6986815023217
30
-3E-16
41
1
10
45.2587831295783
20
22.7134800391544
30
-3E-16
41
1
10
45.2465834844352
20
22.7438694589828
30
-3E-16
41
1
10
45.2381634510724
20
22.7598536915846
30
-3E-16
41
1
10
45.2177564816082
20
22.7919188481489
30
-3E-16
41
1
10
45.2053339627836
20
22.8083448182122
30
-3E-16
41
1
10
45.1789879201331
20
22.8387634923315
30
-3E-16
41
1
10
45.164825556098
20
22.8531097654919
30
-3E-16
41
1
10
45.1504824930114
20
22.8660562625572
30
-3E-16
0
SPLINE
5
23A
100
AcDbEntity
8
1
62
256
6
ByLayer
370
-1
48
1
60
0
100
AcDbSpline
70
4
71
3
72
18
73
14
40
0
40
0
40
0
40
0
40
0.213394464779729
40
0.213394464779729
40
0.389004322610666
40
0.389004322610666
40
0.566252444177973
40
0.566252444177973
40
0.72117549082306
40
0.72117549082306
40
0.927416435499181
40
0.927416435499181
40
1
40
1
40
1
40
1
41
1
10
43.6917024744013
20
22.5656644453995
30
-4E-16
41
1
10
43.7076461752965
20
22.6077593603389
30
-4E-16
41
1
10
43.7172562890272
20
22.6521234051101
30
-4E-16
41
1
10
43.7194518527159
20
22.7306593642269
30
-4E-16
41
1
10
43.7146492737221
20
22.7660564082136
30
-4E-16
41
1
10
43.6918812768577
20
22.8299401648913
30
-4E-16
41
1
10
43.6733130527942
20
22.8591615625187
30
-4E-16
41
1
10
43.6283448876055
20
22.9025839356453
30
-4E-16
41
1
10
43.602757196861
20
22.9188145850325
30
-4E-16
41
1
10
43.5378555866983
20
22.9464180790512
30
-4E-16
41
1
10
43.4958183770216
20
22.9550906331199
30
-4E-16
41
1
10
43.4371324125273
20
22.9591729874714
30
-4E-16
41
1
10
43.4214671732831
20
22.9595440358591
30
-4E-16
41
1
10
43.4056626734127
20
22.9592706855996
30
-4E-16
0
SPLINE
5
23B
100
AcDbEntity
8
1
62
256
6
ByLayer
370
-1
48
1
60
0
100
AcDbSpline
70
4
71
3
72
12
73
8
40
0
40
0
40
0
40
0
40
0.464390992172109
40
0.464390992172109
40
0.846401077319353
40
0.846401077319353
40
1
40
1
40
1
40
1
41
1
10
43.9912627546607
20
23.5430801078529
30
-4E-16
41
1
10
44.0267559973212
20
23.5334470650194
30
-4E-16
41
1
10
44.0675787785045
20
23.5243454877312
30
-4E-16
41
1
10
44.1477497709492
20
23.5083427504555
30
-4E-16
41
1
10
44.1869926044354
20
23.5011192325331
30
-4E-16
41
1
10
44.2424515574902
20
23.4908744624659
30
-4E-16
41
1
10
44.2586278056706
20
23.4878816330219
30
-4E-16
41
1
10
44.2746624807227
20
23.4848861811829
30
-4E-16
0
SPLINE
5
23C
100
AcDbEntity
8
1
62
256
6
ByLayer
370
-1
48
1
60
0
100
AcDbSpline
70
4
71
3
72
18
73
14
40
0
40
0
40
0
40
0
40
0.213393079737805
40
0.213393079737805
40
0.389003177496053
40
0.389003177496053
40
0.566251555260791
40
0.566251555260791
40
0.721174645896043
40
0.721174645896043
40
0.927415342089929
40
0.927415342089929
40
1
40
1
40
1
40
1
41
1
10
45.1504824930114
20
22.62952412236
30
-3E-16
41
1
10
45.1154714449785
20
22.6456207694255
30
-3E-16
41
1
10
45.080532787657
20
22.6560986989464
30
-3E-16
41
1
10
45.0207733863909
20
22.6601871586171
30
-3E-16
41
1
10
44.9946054377994
20
22.6563481504813
30
-3E-16
41
1
10
44.9477953404874
20
22.6347695912118
30
-3E-16
41
1
10
44.9265581680197
20
22.6163898912071
30
-3E-16
41
1
10
44.8951684740967
20
22.5708291967896
30
-3E-16
41
1
10
44.8835575715749
20
22.5446000770986
30
-3E-16
41
1
10
44.8649465059944
20
22.4780582472762
30
-3E-16
41
1
10
44.8603297319407
20
22.4349954173639
30
-3E-16
41
1
10
44.8616735045792
20
22.3756471170628
30
-3E-16
41
1
10
44.8627239102618
20
22.3598705092482
30
-3E-16
41
1
10
44.8644426920228
20
22.3440329325121
30
-3E-16
0
SPLINE
5
23D
100
AcDbEntity
8
1
62
256
6
ByLayer
370
-1
48
1
60
0
100
AcDbSpline
70
4
71
3
72
16
73
12
40
0
40
0
40
0
40
0
40
0.0650212293342847
40
0.0650212293342847
40
0.289691523269479
40
0.289691523269479
40
0.517236422326116
40
0.517236422326116
40
0.759263521180976
40
0.759263521180976
40
1
40
1
40
1
40
1
41
1
10
44.7638996961209
20
22.1737257925723
30
-3E-16
41
1
10
44.7684909951124
20
22.1746766278834
30
-3E-16
41
1
10
44.7729979037763
20
22.1758744242671
30
-3E-16
41
1
10
44.7924599816644
20
22.1822384513973
30
-3E-16
41
1
10
44.8063753901275
20
22.1901313253219
30
-3E-16
41
1
10
44.8299819300383
20
22.2105325240369
30
-3E-16
41
1
10
44.8399278957308
20
22.2233474581187
30
-3E-16
41
1
10
44.8553817089323
20
22.2528440492049
30
-3E-16
41
1
10
44.8607776932267
20
22.2700782934685
30
-3E-16
41
1
10
44.8662911577611
20
22.3059688957448
30
-3E-16
41
1
10
44.8665093381705
20
22.3249899872747
30
-3E-16
41
1
10
44.8644426920228
20
22.3440329325121
30
-3E-16
0
SPLINE
5
23E
100
AcDbEntity
8
1
62
256
6
ByLayer
370
-1
48
1
60
0
100
AcDbSpline
70
4
71
3
72
18
73
14
40
0
40
0
40
0
40
0
40
0.213393079737794
40
0.213393079737794
40
0.389003177496042
40
0.389003177496042
40
0.566251555260781
40
0.566251555260781
40
0.721174645896035
40
0.721174645896035
40
0.927415342089922
40
0.927415342089922
40
1
40
1
40
1
40
1
41
1
10
43.4056626734127
20
23.1958028257968
30
-4E-16
41
1
10
43.4516194693055
20
23.2121031010652
30
-4E-16
41
1
10
43.4968676996723
20
23.232139161225
30
-4E-16
41
1
10
43.5716422340237
20
23.2724920779334
30
-4E-16
41
1
10
43.6032941805104
20
23.2925624716416
30
-4E-16
41
1
10
43.6563485439867
20
23.332622637517
30
-4E-16
41
1
10
43.6783050923631
20
23.3531315264762
30
-4E-16
41
1
10
43.7061357509776
20
23.3881582864431
30
-4E-16
41
1
10
43.7140915878935
20
23.40356924386
30
-4E-16
41
1
10
43.7211296519356
20
23.4358576232274
30
-4E-16
41
1
10
43.7167175848092
20
23.4521971382764
30
-4E-16
41
1
10
43.7019092684094
20
23.4716934536719
30
-4E-16
41
1
10
43.6971855456764
20
23.4765978790907
30
-4E-16
41
1
10
43.6917024744013
20
23.4812940156447
30
-4E-16
0
SPLINE
5
23F
100
AcDbEntity
8
1
62
256
6
ByLayer
370
-1
48
1
60
0
100
AcDbSpline
70
4
71
3
72
14
73
10
40
0
40
0
40
0
40
0
40
0.283738489034208
40
0.283738489034208
40
0.570489531030768
40
0.570489531030768
40
0.830294403552169
40
0.830294403552169
40
1
40
1
40
1
40
1
41
1
10
44.5650447587754
20
22.2827273505082
30
-3E-16
41
1
10
44.5769946541535
20
22.2621986516677
30
-3E-16
41
1
10
44.5920677458142
20
22.2429428576121
30
-3E-16
41
1
10
44.6266366293957
20
22.2102431761299
30
-3E-16
41
1
10
44.646729545519
20
22.1963826359838
30
-3E-16
41
1
10
44.6866534126211
20
22.1781169671648
30
-3E-16
41
1
10
44.7069374006893
20
22.1727014033428
30
-3E-16
41
1
10
44.7392320409203
20
22.1704446612354
30
-3E-16
41
1
10
44.7519239814867
20
22.1712456813071
30
-3E-16
41
1
10
44.7638996961209
20
22.1737257925723
30
-3E-16
0
SPLINE
5
240
100
AcDbEntity
8
1
62
256
6
ByLayer
370
-1
48
1
60
0
100
AcDbSpline
70
4
71
3
72
14
73
10
40
0
40
0
40
0
40
0
40
0.284523597312304
40
0.284523597312304
40
0.57173686621805
40
0.57173686621805
40
0.831999616286251
40
0.831999616286251
40
1
40
1
40
1
40
1
41
1
10
44.8644426920228
20
23.2596625027573
30
-3E-16
41
1
10
44.8668819979385
20
23.2643956792211
30
-3E-16
41
1
10
44.866119910435
20
23.2711979082666
30
-3E-16
41
1
10
44.8574122852604
20
23.2880347625895
30
-3E-16
41
1
10
44.8492278432661
20
23.2983682553626
30
-3E-16
41
1
10
44.8269774154146
20
23.3196996526803
30
-3E-16
41
1
10
44.8131702677778
20
23.3308668487641
30
-3E-16
41
1
10
44.7870296825945
20
23.349014914578
30
-3E-16
41
1
10
44.7757220596662
20
23.3562138926953
30
-3E-16
41
1
10
44.7638996961209
20
23.3631307687097
30
-3E-16
0
LINE
5
48
100
AcDbEntity
8
4
62
256
6
ByLayer
370
-1
48
0.05
60
0
100
AcDbLine
10
0
20
0
30
0
11
50
21
0
31
0
39
0
210
0
220
0
230
1
0
LINE
5
4A
100
AcDbEntity
8
1
62
256
6
ByLayer
370
-1
48
1
60
0
100
AcDbLine
10
45.949663
20
22.472902
30
0
11
45.955252
21
22.495642
31
0
39
0
210
0
220
0
230
1
0
LINE
5
4C
100
AcDbEntity
8
1
62
256
6
ByLayer
370
-1
48
1
60
0
100
AcDbLine
10
42.652816
20
23.483367
30
0
11
42.647338
21
23.461076
31
0
39
0
210
0
220
0
230
1
0
LINE
5
4D
100
AcDbEntity
8
1
62
256
6
ByLayer
370
-1
48
1
60
0
100
AcDbLine
10
43.714478
20
23.408223
30
0
11
43.762614
21
23.550695
31
0
39
0
210
0
220
0
230
1
0
LINE
5
4E
100
AcDbEntity
8
1
62
256
6
ByLayer
370
-1
48
1
60
0
100
AcDbLine
10
45.033791
20
22.985748
30
0
11
44.880113
21
22.530895
31
0
39
0
210
0
220
0
230
1
0
LINE
5
4F
100
AcDbEntity
8
1
62
256
6
ByLayer
370
-1
48
1
60
0
100
AcDbLine
10
43.696993
20
22.58039
30
0
11
43.923595
21
23.251081
31
0
39
0
210
0
220
0
230
1
0
LINE
5
50
100
AcDbEntity
8
1
62
256
6
ByLayer
370
-1
48
1
60
0
100
AcDbLine
10
30.195345
20
33.349059
30
0
11
18.641548
21
26.423026
31
0
39
0
210
0
220
0
230
1
0
LINE
5
51
100
AcDbEntity
8
1
62
256
6
ByLayer
370
-1
48
1
60
0
100
AcDbLine
10
18.641548
20
-26.423026
30
0
11
37.686424
21
-37.839658
31
0
39
0
210
0
220
0
230
1
0
LINE
5
52
100
AcDbEntity
8
1
62
256
6
ByLayer
370
-1
48
1
60
0
100
AcDbLine
10
13.5
20
25
30
0
11
0.5
21
25
31
0
39
0
210
0
220
0
230
1
0
LINE
5
53
100
AcDbEntity
8
1
62
256
6
ByLayer
370
-1
48
1
60
0
100
AcDbLine
10
0.5
20
-25
30
0
11
13.5
21
-25
31
0
39
0
210
0
220
0
230
1
0
LINE
5
54
100
AcDbEntity
8
1
62
256
6
ByLayer
370
-1
48
1
60
0
100
AcDbLine
10
40.263082
20
-32.863825
30
0
11
40.263082
21
-32.866423
31
0
39
0
210
0
220
0
230
1
0
LINE
5
55
100
AcDbEntity
8
1
62
256
6
ByLayer
370
-1
48
1
60
0
100
AcDbLine
10
39.435667
20
-38.483218
30
0
11
41.18716
21
-38.774964
31
0
39
0
210
0
220
0
230
1
0
LINE
5
56
100
AcDbEntity
8
1
62
256
6
ByLayer
370
-1
48
1
60
0
100
AcDbLine
10
44.98733
20
38.108303
30
0
11
44.809451
21
38.162813
31
0
39
0
210
0
220
0
230
1
0
LINE
5
57
100
AcDbEntity
8
1
62
256
6
ByLayer
370
-1
48
1
60
0
100
AcDbLine
10
45.138804
20
36.71949
30
0
11
45.365384
21
36.650055
31
0
39
0
210
0
220
0
230
1
0
LINE
5
58
100
AcDbEntity
8
1
62
256
6
ByLayer
370
-1
48
1
60
0
100
AcDbLine
10
44.630057
20
35.689964
30
0
11
44.420853
21
35.754073
31
0
39
0
210
0
220
0
230
1
0
LINE
5
59
100
AcDbEntity
8
1
62
256
6
ByLayer
370
-1
48
1
60
0
100
AcDbLine
10
43.647441
20
36.252942
30
0
11
43.420861
21
36.322376
31
0
39
0
210
0
220
0
230
1
0
LINE
5
5A
100
AcDbEntity
8
1
62
256
6
ByLayer
370
-1
48
1
60
0
100
AcDbLine
10
44.173566
20
37.277142
30
0
11
44.382769
21
37.213033
31
0
39
0
210
0
220
0
230
1
0
LINE
5
5B
100
AcDbEntity
8
81
62
256
6
ByLayer
370
-1
48
1
60
0
100
AcDbLine
10
50
20
39.935
30
0
11
55
21
39.935
31
0
39
0
210
0
220
0
230
1
0
LINE
5
5C
100
AcDbEntity
8
80
62
256
6
ByLayer
370
-1
48
1
60
0
100
AcDbLine
10
0
20
0
30
0
11
-5
21
0
31
0
39
0
210
0
220
0
230
1
0
LINE
5
5D
100
AcDbEntity
8
SK4
62
256
6
ByLayer
370
-1
48
0.05
60
0
100
AcDbLine
10
60
20
0
30
0
11
-10
21
0
31
0
39
0
210
0
220
0
230
1
0
LINE
5
5F
100
AcDbEntity
8
1
62
256
6
ByLayer
370
-1
48
1
60
0
100
AcDbLine
10
1.1
20
6.2275
30
0
11
6.2
21
6.2275
31
0
39
0
210
0
220
0
230
1
0
LINE
5
60
100
AcDbEntity
8
1
62
256
6
ByLayer
370
-1
48
1
60
0
100
AcDbLine
10
38.294699
20
9.076161
30
0
11
40.814741
21
18.955041
31
0
39
0
210
0
220
0
230
1
0
LINE
5
61
100
AcDbEntity
8
1
62
256
6
ByLayer
370
-1
48
1
60
0
100
AcDbLine
10
48.643989
20
-9.75741
30
0
11
48.781635
21
-9.734027
31
0
39
0
210
0
220
0
230
1
0
LINE
5
62
100
AcDbEntity
8
1
62
256
6
ByLayer
370
-1
48
1
60
0
100
AcDbLine
10
40.814741
20
18.955041
30
0
11
48.116145
21
18.468648
31
0
39
0
210
0
220
0
230
1
0
LINE
5
63
100
AcDbEntity
8
1
62
256
6
ByLayer
370
-1
48
1
60
0
100
AcDbLine
10
49.236238
20
-10.677402
30
0
11
49.236238
21
-15.115996
31
0
39
0
210
0
220
0
230
1
0
LINE
5
64
100
AcDbEntity
8
1
62
256
6
ByLayer
370
-1
48
1
60
0
100
AcDbLine
10
49.246695
20
-36.346822
30
0
11
49.246695
21
-36.970824
31
0
39
0
210
0
220
0
230
1
0
LINE
5
65
100
AcDbEntity
8
1
62
256
6
ByLayer
370
-1
48
1
60
0
100
AcDbLine
10
49.439225
20
8.367612
30
0
11
47.504603
21
0.768186
31
0
39
0
210
0
220
0
230
1
0
LINE
5
66
100
AcDbEntity
8
1
62
256
6
ByLayer
370
-1
48
1
60
0
100
AcDbLine
10
49.089792
20
-14.400542
30
0
11
49.089792
21
-10.299562
31
0
39
0
210
0
220
0
230
1
0
LINE
5
67
100
AcDbEntity
8
1
62
256
6
ByLayer
370
-1
48
1
60
0
100
AcDbLine
10
49.236238
20
10.958079
30
0
11
49.236238
21
13.476719
31
0
39
0
210
0
220
0
230
1
0
LINE
5
68
100
AcDbEntity
8
1
62
256
6
ByLayer
370
-1
48
1
60
0
100
AcDbLine
10
48.536238
20
14.891926
30
0
11
48.536238
21
17.049815
31
0
39
0
210
0
220
0
230
1
0
LINE
5
69
100
AcDbEntity
8
1
62
256
6
ByLayer
370
-1
48
1
60
0
100
AcDbLine
10
37.018664
20
-5.257819
30
0
11
35.066134
21
-5.008573
31
0
39
0
210
0
220
0
230
1
0
LINE
5
6A
100
AcDbEntity
8
1
62
256
6
ByLayer
370
-1
48
1
60
0
100
AcDbLine
10
48.536238
20
19.383991
30
0
11
48.147362
21
19.321902
31
0
39
0
210
0
220
0
230
1
0
LINE
5
6B
100
AcDbEntity
8
1
62
256
6
ByLayer
370
-1
48
1
60
0
100
AcDbLine
10
48.605647
20
26.735525
30
0
11
48.605647
21
32.395739
31
0
39
0
210
0
220
0
230
1
0
LINE
5
6C
100
AcDbEntity
8
1
62
256
6
ByLayer
370
-1
48
1
60
0
100
AcDbLine
10
48.682685
20
-9.824288
30
0
11
48.682685
21
-13.559846
31
0
39
0
210
0
220
0
230
1
0
LINE
5
6D
100
AcDbEntity
8
1
62
256
6
ByLayer
370
-1
48
1
60
0
100
AcDbLine
10
39.329627
20
-3.315457
30
0
11
39.987686
21
-3.459197
31
0
39
0
210
0
220
0
230
1
0
LINE
5
6E
100
AcDbEntity
8
1
62
256
6
ByLayer
370
-1
48
1
60
0
100
AcDbLine
10
48.536238
20
19.046563
30
0
11
48.536238
21
19.383544
31
0
39
0
210
0
220
0
230
1
0
LINE
5
6F
100
AcDbEntity
8
1
62
256
6
ByLayer
370
-1
48
1
60
0
100
AcDbLine
10
33.759314
20
-16.11769
30
0
11
35.066134
21
-5.008573
31
0
39
0
210
0
220
0
230
1
0
LINE
5
70
100
AcDbEntity
8
1
62
256
6
ByLayer
370
-1
48
1
60
0
100
AcDbLine
10
1.1
20
-6.2275
30
0
11
6.2
21
-6.2275
31
0
39
0
210
0
220
0
230
1
0
LINE
5
71
100
AcDbEntity
8
1
62
256
6
ByLayer
370
-1
48
1
60
0
100
AcDbLine
10
37.686424
20
-32.790991
30
0
11
37.686424
21
-21.285103
31
0
39
0
210
0
220
0
230
1
0
LINE
5
72
100
AcDbEntity
8
1
62
256
6
ByLayer
370
-1
48
1
60
0
100
AcDbLine
10
47.504603
20
-29.322748
30
0
11
47.504603
21
-31.517334
31
0
39
0
210
0
220
0
230
1
0
LINE
5
73
100
AcDbEntity
8
1
62
256
6
ByLayer
370
-1
48
1
60
0
100
AcDbLine
10
39.749519
20
-3.305917
30
0
11
39.329627
21
-3.315457
31
0
39
0
210
0
220
0
230
1
0
LINE
5
74
100
AcDbEntity
8
1
62
256
6
ByLayer
370
-1
48
1
60
0
100
AcDbLine
10
49.446346
20
33.672185
30
0
11
49.446346
21
35.026842
31
0
39
0
210
0
220
0
230
1
0
LINE
5
75
100
AcDbEntity
8
1
62
256
6
ByLayer
370
-1
48
1
60
0
100
AcDbLine
10
49.236238
20
-10.67741
30
0
11
49.236238
21
-9.823145
31
0
39
0
210
0
220
0
230
1
0
LINE
5
76
100
AcDbEntity
8
1
62
256
6
ByLayer
370
-1
48
1
60
0
100
AcDbLine
10
49.446346
20
-25.503444
30
0
11
49.446346
21
-23.153504
31
0
39
0
210
0
220
0
230
1
0
LINE
5
77
100
AcDbEntity
8
1
62
256
6
ByLayer
370
-1
48
1
60
0
100
AcDbLine
10
39.435667
20
8.817081
30
0
11
39.435667
21
-3.276916
31
0
39
0
210
0
220
0
230
1
0
LINE
5
78
100
AcDbEntity
8
1
62
256
6
ByLayer
370
-1
48
1
60
0
100
AcDbLine
10
49.089792
20
13.916833
30
0
11
49.089792
21
17.799668
31
0
39
0
210
0
220
0
230
1
0
LINE
5
79
100
AcDbEntity
8
1
62
256
6
ByLayer
370
-1
48
1
60
0
100
AcDbLine
10
48.605647
20
-3.806081
30
0
11
48.605647
21
4.884153
31
0
39
0
210
0
220
0
230
1
0
LINE
5
7A
100
AcDbEntity
8
1
62
256
6
ByLayer
370
-1
48
1
60
0
100
AcDbLine
10
40.067919
20
-3.444439
30
0
11
40.066967
21
-3.444208
31
0
39
0
210
0
220
0
230
1
0
LINE
5
7B
100
AcDbEntity
8
1
62
256
6
ByLayer
370
-1
48
1
60
0
100
AcDbLine
10
49.446346
20
8.434947
30
0
11
49.446346
21
9.777633
31
0
39
0
210
0
220
0
230
1
0
LINE
5
7C
100
AcDbEntity
8
1
62
256
6
ByLayer
370
-1
48
1
60
0
100
AcDbLine
10
39.435667
20
-38.483218
30
0
11
39.435667
21
-38.482394
31
0
39
0
210
0
220
0
230
1
0
LINE
5
7D
100
AcDbEntity
8
1
62
256
6
ByLayer
370
-1
48
1
60
0
100
AcDbLine
10
38.294699
20
-21.776466
30
0
11
40.814741
21
-5.794396
31
0
39
0
210
0
220
0
230
1
0
LINE
5
7E
100
AcDbEntity
8
1
62
256
6
ByLayer
370
-1
48
1
60
0
100
AcDbLine
10
46.428566
20
8.635466
30
0
11
46.504584
21
8.994753
31
0
39
0
210
0
220
0
230
1
0
LINE
5
7F
100
AcDbEntity
8
1
62
256
6
ByLayer
370
-1
48
1
60
0
100
AcDbLine
10
41.647633
20
-22.720067
30
0
11
41.647633
21
-32.324073
31
0
39
0
210
0
220
0
230
1
0
LINE
5
80
100
AcDbEntity
8
1
62
256
6
ByLayer
370
-1
48
1
60
0
100
AcDbLine
10
40.332869
20
-2.925542
30
0
11
40.082371
21
-3.415302
31
0
39
0
210
0
220
0
230
1
0
LINE
5
81
100
AcDbEntity
8
1
62
256
6
ByLayer
370
-1
48
1
60
0
100
AcDbLine
10
7
20
5.4275
30
0
11
7
21
-5.4275
31
0
39
0
210
0
220
0
230
1
0
LINE
5
82
100
AcDbEntity
8
1
62
256
6
ByLayer
370
-1
48
1
60
0
100
AcDbLine
10
49.446346
20
-25.503444
30
0
11
49.446346
21
-33.311922
31
0
39
0
210
0
220
0
230
1
0
LINE
5
83
100
AcDbEntity
8
1
62
256
6
ByLayer
370
-1
48
1
60
0
100
AcDbLine
10
6.2
20
6.2275
30
0
11
7
21
5.4275
31
0
39
0
210
0
220
0
230
1
0
LINE
5
84
100
AcDbEntity
8
1
62
256
6
ByLayer
370
-1
48
1
60
0
100
AcDbLine
10
1.1
20
6.2275
30
0
11
0.5
21
6.8275
31
0
39
0
210
0
220
0
230
1
0
LINE
5
85
100
AcDbEntity
8
1
62
256
6
ByLayer
370
-1
48
1
60
0
100
AcDbLine
10
41.590917
20
-32.317031
30
0
11
41.590917
21
-22.713153
31
0
39
0
210
0
220
0
230
1
0
LINE
5
86
100
AcDbEntity
8
1
62
256
6
ByLayer
370
-1
48
1
60
0
100
AcDbLine
10
0
20
-24.5
30
0
11
0
21
-7.3275
31
0
39
0
210
0
220
0
230
1
0
LINE
5
87
100
AcDbEntity
8
1
62
256
6
ByLayer
370
-1
48
1
60
0
100
AcDbLine
10
49.446346
20
-38.205991
30
0
11
49.446346
21
-37.998287
31
0
39
0
210
0
220
0
230
1
0
LINE
5
88
100
AcDbEntity
8
1
62
256
6
ByLayer
370
-1
48
1
60
0
100
AcDbLine
10
41.590917
20
-1.359334
30
0
11
41.590917
21
8.595101
31
0
39
0
210
0
220
0
230
1
0
LINE
5
89
100
AcDbEntity
8
1
62
256
6
ByLayer
370
-1
48
1
60
0
100
AcDbLine
10
18.641548
20
26.423026
30
0
11
18.641548
21
-26.423026
31
0
39
0
210
0
220
0
230
1
0
LINE
5
8A
100
AcDbEntity
8
1
62
256
6
ByLayer
370
-1
48
1
60
0
100
AcDbLine
10
46.660504
20
-39.103651
30
0
11
46.684876
21
-38.980598
31
0
39
0
210
0
220
0
230
1
0
LINE
5
8B
100
AcDbEntity
8
1
62
256
6
ByLayer
370
-1
48
1
60
0
100
AcDbLine
10
0.5
20
-25
30
0
11
0.5
21
-6.8275
31
0
39
0
210
0
220
0
230
1
0
LINE
5
8C
100
AcDbEntity
8
1
62
256
6
ByLayer
370
-1
48
1
60
0
100
AcDbLine
10
35.445849
20
-18.628132
30
0
11
37.018664
21
-5.257819
31
0
39
0
210
0
220
0
230
1
0
LINE
5
8D
100
AcDbEntity
8
1
62
256
6
ByLayer
370
-1
48
1
60
0
100
AcDbLine
10
39.358816
20
25.01682
30
0
11
39.329627
21
24.898654
31
0
39
0
210
0
220
0
230
1
0
LINE
5
8E
100
AcDbEntity
8
1
62
256
6
ByLayer
370
-1
48
1
60
0
100
AcDbLine
10
49.236238
20
-19.21666
30
0
11
49.236238
21
-15.112228
31
0
39
0
210
0
220
0
230
1
0
LINE
5
8F
100
AcDbEntity
8
1
62
256
6
ByLayer
370
-1
48
1
60
0
100
AcDbLine
10
49.446346
20
8.434947
30
0
11
49.446346
21
-3.920411
31
0
39
0
210
0
220
0
230
1
0
LINE
5
90
100
AcDbEntity
8
1
62
256
6
ByLayer
370
-1
48
1
60
0
100
AcDbLine
10
48.605647
20
-33.906563
30
0
11
48.605647
21
-28.737807
31
0
39
0
210
0
220
0
230
1
0
LINE
5
91
100
AcDbEntity
8
1
62
256
6
ByLayer
370
-1
48
1
60
0
100
AcDbLine
10
37.676761
20
22.490314
30
0
11
35.724231
21
22.920857
31
0
39
0
210
0
220
0
230
1
0
LINE
5
92
100
AcDbEntity
8
1
62
256
6
ByLayer
370
-1
48
1
60
0
100
AcDbLine
10
41.647633
20
35.386504
30
0
11
41.647633
21
28.207284
31
0
39
0
210
0
220
0
230
1
0
LINE
5
93
100
AcDbEntity
8
1
62
256
6
ByLayer
370
-1
48
1
60
0
100
AcDbLine
10
37.686424
20
-37.827195
30
0
11
37.686424
21
-37.839658
31
0
39
0
210
0
220
0
230
1
0
LINE
5
94
100
AcDbEntity
8
1
62
256
6
ByLayer
370
-1
48
1
60
0
100
AcDbLine
10
49.236238
20
17.737611
30
0
11
49.236238
21
13.480162
31
0
39
0
210
0
220
0
230
1
0
LINE
5
95
100
AcDbEntity
8
1
62
256
6
ByLayer
370
-1
48
1
60
0
100
AcDbLine
10
37.018664
20
19.498396
30
0
11
35.066134
21
19.928939
31
0
39
0
210
0
220
0
230
1
0
LINE
5
96
100
AcDbEntity
8
1
62
256
6
ByLayer
370
-1
48
1
60
0
100
AcDbLine
10
1.1
20
-6.2275
30
0
11
0.5
21
-6.8275
31
0
39
0
210
0
220
0
230
1
0
LINE
5
97
100
AcDbEntity
8
1
62
256
6
ByLayer
370
-1
48
1
60
0
100
AcDbLine
10
40.082371
20
-3.415302
30
0
11
40.067919
21
-3.444439
31
0
39
0
210
0
220
0
230
1
0
LINE
5
98
100
AcDbEntity
8
1
62
256
6
ByLayer
370
-1
48
1
60
0
100
AcDbLine
10
49.446346
20
9.777633
30
0
11
49.446346
21
9.866772
31
0
39
0
210
0
220
0
230
1
0
LINE
5
99
100
AcDbEntity
8
1
62
256
6
ByLayer
370
-1
48
1
60
0
100
AcDbLine
10
48.536238
20
-12.77354
30
0
11
48.536238
21
-9.256995
31
0
39
0
210
0
220
0
230
1
0
LINE
5
9A
100
AcDbEntity
8
1
62
256
6
ByLayer
370
-1
48
1
60
0
100
AcDbLine
10
37.686424
20
-3.799829
30
0
11
37.686424
21
9.372333
31
0
39
0
210
0
220
0
230
1
0
LINE
5
9B
100
AcDbEntity
8
1
62
256
6
ByLayer
370
-1
48
1
60
0
100
AcDbLine
10
35.445849
20
-36.357145
30
0
11
36.272387
21
-31.941956
31
0
39
0
210
0
220
0
230
1
0
LINE
5
9C
100
AcDbEntity
8
1
62
256
6
ByLayer
370
-1
48
1
60
0
100
AcDbLine
10
49.439225
20
-25.643608
30
0
11
47.504603
21
-29.322748
31
0
39
0
210
0
220
0
230
1
0
LINE
5
9D
100
AcDbEntity
8
1
62
256
6
ByLayer
370
-1
48
1
60
0
100
AcDbLine
10
39.435667
20
35.182066
30
0
11
39.435667
21
26.580212
31
0
39
0
210
0
220
0
230
1
0
LINE
5
9E
100
AcDbEntity
8
1
62
256
6
ByLayer
370
-1
48
1
60
0
100
AcDbLine
10
39.987686
20
-3.459197
30
0
11
40.067919
21
-3.444439
31
0
39
0
210
0
220
0
230
1
0
LINE
5
9F
100
AcDbEntity
8
1
62
256
6
ByLayer
370
-1
48
1
60
0
100
AcDbLine
10
40.066967
20
-3.444208
30
0
11
39.93559
21
-3.350923
31
0
39
0
210
0
220
0
230
1
0
LINE
5
A0
100
AcDbEntity
8
1
62
256
6
ByLayer
370
-1
48
1
60
0
100
AcDbLine
10
49.246695
20
-10.004364
30
0
11
49.246695
21
-19.394985
31
0
39
0
210
0
220
0
230
1
0
LINE
5
A1
100
AcDbEntity
8
1
62
256
6
ByLayer
370
-1
48
1
60
0
100
AcDbLine
10
39.435667
20
-22.251538
30
0
11
39.435667
21
-33.050297
31
0
39
0
210
0
220
0
230
1
0
LINE
5
A2
100
AcDbEntity
8
1
62
256
6
ByLayer
370
-1
48
1
60
0
100
AcDbLine
10
38.236108
20
24.14092
30
0
11
38.19597
21
24.149876
31
0
39
0
210
0
220
0
230
1
0
LINE
5
A3
100
AcDbEntity
8
1
62
256
6
ByLayer
370
-1
48
1
60
0
100
AcDbLine
10
48.682685
20
17.904548
30
0
11
48.682685
21
14.428402
31
0
39
0
210
0
220
0
230
1
0
LINE
5
A4
100
AcDbEntity
8
1
62
256
6
ByLayer
370
-1
48
1
60
0
100
AcDbLine
10
49.446346
20
9.871364
30
0
11
49.446346
21
20.714663
31
0
39
0
210
0
220
0
230
1
0
LINE
5
A5
100
AcDbEntity
8
1
62
256
6
ByLayer
370
-1
48
1
60
0
100
AcDbLine
10
48.536238
20
19.046563
30
0
11
48.536238
21
17.050107
31
0
39
0
210
0
220
0
230
1
0
LINE
5
A6
100
AcDbEntity
8
1
62
256
6
ByLayer
370
-1
48
1
60
0
100
AcDbLine
10
49.439225
20
-38.492373
30
0
11
49.120768
21
-38.03501
31
0
39
0
210
0
220
0
230
1
0
LINE
5
A7
100
AcDbEntity
8
1
62
256
6
ByLayer
370
-1
48
1
60
0
100
AcDbLine
10
41.647633
20
8.59247
30
0
11
41.647633
21
-1.36302
31
0
39
0
210
0
220
0
230
1
0
LINE
5
A8
100
AcDbEntity
8
1
62
256
6
ByLayer
370
-1
48
1
60
0
100
AcDbLine
10
35.445849
20
11.204696
30
0
11
37.018664
21
19.498396
31
0
39
0
210
0
220
0
230
1
0
LINE
5
A9
100
AcDbEntity
8
1
62
256
6
ByLayer
370
-1
48
1
60
0
100
AcDbLine
10
40.066967
20
-3.444208
30
0
11
40.082371
21
-3.415302
31
0
39
0
210
0
220
0
230
1
0
LINE
5
AA
100
AcDbEntity
8
1
62
256
6
ByLayer
370
-1
48
1
60
0
100
AcDbLine
10
48.536238
20
19.383544
30
0
11
48.536238
21
19.383991
31
0
39
0
210
0
220
0
230
1
0
LINE
5
AB
100
AcDbEntity
8
1
62
256
6
ByLayer
370
-1
48
1
60
0
100
AcDbLine
10
48.301924
20
18.106459
30
0
11
48.301924
21
19.168471
31
0
39
0
210
0
220
0
230
1
0
LINE
5
AC
100
AcDbEntity
8
1
62
256
6
ByLayer
370
-1
48
1
60
0
100
AcDbLine
10
48.536238
20
-6.918998
30
0
11
48.536238
21
-9.257505
31
0
39
0
210
0
220
0
230
1
0
LINE
5
AD
100
AcDbEntity
8
1
62
256
6
ByLayer
370
-1
48
1
60
0
100
AcDbLine
10
7
20
-5.4275
30
0
11
6.2
21
-6.2275
31
0
39
0
210
0
220
0
230
1
0
LINE
5
AE
100
AcDbEntity
8
1
62
256
6
ByLayer
370
-1
48
1
60
0
100
AcDbLine
10
38.294699
20
-38.145297
30
0
11
39.422693
21
-33.633118
31
0
39
0
210
0
220
0
230
1
0
LINE
5
AF
100
AcDbEntity
8
1
62
256
6
ByLayer
370
-1
48
1
60
0
100
AcDbLine
10
49.236238
20
-36.855261
30
0
11
49.236238
21
-36.338029
31
0
39
0
210
0
220
0
230
1
0
LINE
5
B0
100
AcDbEntity
8
1
62
256
6
ByLayer
370
-1
48
1
60
0
100
AcDbLine
10
49.236238
20
17.737611
30
0
11
49.236238
21
18.682124
31
0
39
0
210
0
220
0
230
1
0
LINE
5
B1
100
AcDbEntity
8
1
62
256
6
ByLayer
370
-1
48
1
60
0
100
AcDbLine
10
49.446346
20
-37.998284
30
0
11
49.446346
21
-36.342494
31
0
39
0
210
0
220
0
230
1
0
LINE
5
B2
100
AcDbEntity
8
1
62
256
6
ByLayer
370
-1
48
1
60
0
100
AcDbLine
10
38.236108
20
35.401566
30
0
11
38.19597
21
35.407848
31
0
39
0
210
0
220
0
230
1
0
LINE
5
B3
100
AcDbEntity
8
1
62
256
6
ByLayer
370
-1
48
1
60
0
100
AcDbLine
10
38.353603
20
22.868069
30
0
11
38.593957
21
23.149207
31
0
39
0
210
0
220
0
230
1
0
LINE
5
B4
100
AcDbEntity
8
1
62
256
6
ByLayer
370
-1
48
1
60
0
100
AcDbLine
10
49.446346
20
-21.62402
30
0
11
49.446346
21
-21.004816
31
0
39
0
210
0
220
0
230
1
0
LINE
5
B5
100
AcDbEntity
8
1
62
256
6
ByLayer
370
-1
48
1
60
0
100
AcDbLine
10
37.686424
20
25.713068
30
0
11
37.686424
21
34.880578
31
0
39
0
210
0
220
0
230
1
0
LINE
5
B6
100
AcDbEntity
8
1
62
256
6
ByLayer
370
-1
48
1
60
0
100
AcDbLine
10
49.446346
20
-21.62402
30
0
11
49.446346
21
-23.153504
31
0
39
0
210
0
220
0
230
1
0
LINE
5
B7
100
AcDbEntity
8
1
62
256
6
ByLayer
370
-1
48
1
60
0
100
AcDbLine
10
33.759314
20
13.037875
30
0
11
35.066134
21
19.928939
31
0
39
0
210
0
220
0
230
1
0
LINE
5
B8
100
AcDbEntity
8
1
62
256
6
ByLayer
370
-1
48
1
60
0
100
AcDbLine
10
49.446346
20
-21.011513
30
0
11
49.446346
21
-10.195109
31
0
39
0
210
0
220
0
230
1
0
LINE
5
B9
100
AcDbEntity
8
1
62
256
6
ByLayer
370
-1
48
1
60
0
100
AcDbLine
10
13.5
20
-25
30
0
11
13.5
21
25
31
0
39
0
210
0
220
0
230
1
0
LINE
5
BA
100
AcDbEntity
8
1
62
256
6
ByLayer
370
-1
48
1
60
0
100
AcDbLine
10
46.773158
20
34.988214
30
0
11
45.078838
21
29.973415
31
0
39
0
210
0
220
0
230
1
0
LINE
5
BB
100
AcDbEntity
8
1
62
256
6
ByLayer
370
-1
48
1
60
0
100
AcDbLine
10
33.759314
20
-35.078504
30
0
11
34.541119
21
-30.902275
31
0
39
0
210
0
220
0
230
1
0
LINE
5
BC
100
AcDbEntity
8
1
62
256
6
ByLayer
370
-1
48
1
60
0
100
AcDbLine
10
41.590917
20
28.205208
30
0
11
41.590917
21
35.382592
31
0
39
0
210
0
220
0
230
1
0
LINE
5
BD
100
AcDbEntity
8
1
62
256
6
ByLayer
370
-1
48
1
60
0
100
AcDbLine
10
49.246695
20
18.716712
30
0
11
49.246695
21
10.852043
31
0
39
0
210
0
220
0
230
1
0
LINE
5
BE
100
AcDbEntity
8
1
62
256
6
ByLayer
370
-1
48
1
60
0
100
AcDbLine
10
49.446346
20
33.672184
30
0
11
49.446346
21
26.049267
31
0
39
0
210
0
220
0
230
1
0
LINE
5
BF
100
AcDbEntity
8
1
62
256
6
ByLayer
370
-1
48
1
60
0
100
AcDbLine
10
48.147725
20
19.321513
30
0
11
48.536238
21
19.383544
31
0
39
0
210
0
220
0
230
1
0
LINE
5
C0
100
AcDbEntity
8
1
62
256
6
ByLayer
370
-1
48
1
60
0
100
AcDbLine
10
49.446346
20
35.390525
30
0
11
49.446346
21
35.026842
31
0
39
0
210
0
220
0
230
1
0
LINE
5
C1
100
AcDbEntity
8
1
62
256
6
ByLayer
370
-1
48
1
60
0
100
AcDbLine
10
49.446346
20
-38.388641
30
0
11
49.446346
21
-38.205991
31
0
39
0
210
0
220
0
230
1
0
LINE
5
C2
100
AcDbEntity
8
1
62
256
6
ByLayer
370
-1
48
1
60
0
100
AcDbLine
10
40.814741
20
-5.794396
30
0
11
43.689099
21
-6.239627
31
0
39
0
210
0
220
0
230
1
0
LINE
5
C3
100
AcDbEntity
8
1
62
256
6
ByLayer
370
-1
48
1
60
0
100
AcDbLine
10
48.536238
20
20.546657
30
0
11
48.536238
21
20.656023
31
0
39
0
210
0
220
0
230
1
0
LINE
5
C4
100
AcDbEntity
8
1
62
256
6
ByLayer
370
-1
48
1
60
0
100
AcDbLine
10
0.5
20
25
30
0
11
0.5
21
6.8275
31
0
39
0
210
0
220
0
230
1
0
LINE
5
C5
100
AcDbEntity
8
1
62
256
6
ByLayer
370
-1
48
1
60
0
100
AcDbLine
10
49.446346
20
35.392527
30
0
11
49.446346
21
36.338664
31
0
39
0
210
0
220
0
230
1
0
LINE
5
C6
100
AcDbEntity
8
1
62
256
6
ByLayer
370
-1
48
1
60
0
100
AcDbLine
10
47.504603
20
0.768186
30
0
11
47.504603
21
0.464128
31
0
39
0
210
0
220
0
230
1
0
LINE
5
C7
100
AcDbEntity
8
1
62
256
6
ByLayer
370
-1
48
1
60
0
100
AcDbLine
10
0
20
7.3275
30
0
11
0
21
24.5
31
0
39
0
210
0
220
0
230
1
0
LINE
5
C8
100
AcDbEntity
8
1
62
256
6
ByLayer
370
-1
48
1
60
0
100
AcDbLine
10
44.533769
20
37.197257
30
0
11
44.329375
21
37.259892
31
0
39
0
210
0
220
0
230
1
0
LINE
5
C9
100
AcDbEntity
8
1
62
256
6
ByLayer
370
-1
48
1
60
0
100
AcDbLine
10
44.793304
20
37.322161
30
0
11
44.565045
21
37.39211
31
0
39
0
210
0
220
0
230
1
0
LINE
5
CA
100
AcDbEntity
8
1
62
256
6
ByLayer
370
-1
48
1
60
0
100
AcDbLine
10
44.699293
20
35.620872
30
0
11
44.565045
21
35.662012
31
0
39
0
210
0
220
0
230
1
0
LINE
5
CB
100
AcDbEntity
8
1
62
256
6
ByLayer
370
-1
48
1
60
0
100
AcDbLine
10
43.634003
20
36.612056
30
0
11
43.405663
21
36.682029
31
0
39
0
210
0
220
0
230
1
0
LINE
5
CC
100
AcDbEntity
8
1
62
256
6
ByLayer
370
-1
48
1
60
0
100
AcDbLine
10
43.920043
20
35.752419
30
0
11
43.691702
21
35.822392
31
0
39
0
210
0
220
0
230
1
0
LINE
5
CD
100
AcDbEntity
8
1
62
256
6
ByLayer
370
-1
48
1
60
0
100
AcDbLine
10
43.920043
20
37.127631
30
0
11
43.691702
21
37.197605
31
0
39
0
210
0
220
0
230
1
0
LINE
5
CE
100
AcDbEntity
8
1
62
256
6
ByLayer
370
-1
48
1
60
0
100
AcDbLine
10
44.274662
20
37.258822
30
0
11
44.479056
21
37.196187
31
0
39
0
210
0
220
0
230
1
0
LINE
5
CF
100
AcDbEntity
8
1
62
256
6
ByLayer
370
-1
48
1
60
0
100
AcDbLine
10
44.329375
20
22.482192
30
0
11
44.533769
21
23.087152
31
0
39
0
210
0
220
0
230
1
0
LINE
5
D0
100
AcDbEntity
8
1
62
256
6
ByLayer
370
-1
48
1
60
0
100
AcDbLine
10
44.219522
20
23.066759
30
0
11
43.991263
21
22.391164
31
0
39
0
210
0
220
0
230
1
0
LINE
5
D1
100
AcDbEntity
8
1
62
256
6
ByLayer
370
-1
48
1
60
0
100
AcDbLine
10
44.793304
20
22.958322
30
0
11
44.565045
21
22.282727
31
0
39
0
210
0
220
0
230
1
0
LINE
5
D2
100
AcDbEntity
8
1
62
256
6
ByLayer
370
-1
48
1
60
0
100
AcDbLine
10
43.499618
20
23.237356
30
0
11
43.405663
21
22.959271
31
0
39
0
210
0
220
0
230
1
0
LINE
5
D3
100
AcDbEntity
8
1
62
256
6
ByLayer
370
-1
48
1
60
0
100
AcDbLine
10
45.20862
20
22.801598
30
0
11
45.150482
21
22.629524
31
0
39
0
210
0
220
0
230
1
0
LINE
5
D4
100
AcDbEntity
8
1
62
256
6
ByLayer
370
-1
48
1
60
0
100
AcDbLine
10
43.710583
20
23.537177
30
0
11
43.691702
21
23.481294
31
0
39
0
210
0
220
0
230
1
0
LINE
5
D5
100
AcDbEntity
8
1
62
256
6
ByLayer
370
-1
48
1
60
0
100
AcDbLine
10
44.479056
20
23.097492
30
0
11
44.274662
21
22.492532
31
0
39
0
210
0
220
0
230
1
0
MTEXT
5
241
100
AcDbEntity
8
SK6
62
256
6
ByLayer
370
-1
48
1
60
0
100
AcDbMText
10
0.873386
20
-50.938367
30
0
210
0
220
0
230
1
1
\W00.717;\fsimplex.shx,bigfont.shx;R390-080Q27-11M\P
40
3.5
41
0
44
1.084337
50
0
71
7
72
5
7
DEFAULT
0
DIMENSION
5
252
100
AcDbEntity
8
2
62
256
6
ByLayer
370
-3
48
1
60
0
100
AcDbDimension
2
DimnDraft3D1
10
0
20
59.75
30
0
11
21.666447
21
59.75
31
0
70
32
71
5
72
1
41
1
210
0
220
0
230
1
3
Standard
100
AcDbAlignedDimension
13
50
23
42
33
0
14
0
24
27
34
0
50
0
100
AcDbRotatedDimension
1001
ACAD
1000
DSTYLE
1002
{
1070
   279
1070
     0
1070
   172
1070
     1
1070
   173
1070
     1
1070
   340
1005
242
1070
   271
1070
     2
1070
   272
1070
     2
1070
    77
1070
     1
1070
    73
1070
     0
1070
   171
1070
     4
1070
   274
1070
     4
1070
   177
1070
     2
1070
   176
1070
     2
1070
   178
1070
     7
1070
    78
1070
     8
1070
    41
1041
3.175
1070
   147
1041
2.25
1070
    42
1041
2.0
1070
    44
1041
2.0
1070
   140
1041
4.5
1070
   343
1005
253
1070
   344
1005
253
1002
}
0
DIMENSION
5
267
100
AcDbEntity
8
2
62
256
6
ByLayer
370
-3
48
1
60
0
100
AcDbDimension
2
DimnDraft3D2
10
39.8
20
49.75
30
0
11
55
21
49.75
31
0
70
32
71
5
72
1
41
1
210
0
220
0
230
1
3
Standard
100
AcDbAlignedDimension
13
50
23
42
33
0
14
39.8
24
42
34
0
50
0
100
AcDbRotatedDimension
1001
ACAD
1000
DSTYLE
1002
{
1070
   279
1070
     0
1070
   172
1070
     1
1070
   173
1070
     1
1070
   340
1005
242
1070
   271
1070
     2
1070
   272
1070
     2
1070
    77
1070
     1
1070
    73
1070
     0
1070
   171
1070
     4
1070
   274
1070
     4
1070
   177
1070
     2
1070
   176
1070
     2
1070
   178
1070
     7
1070
    78
1070
     8
1070
    41
1041
3.175
1070
   147
1041
2.25
1070
    42
1041
2.0
1070
    44
1041
2.0
1070
   140
1041
4.5
1070
   343
1005
253
1070
   344
1005
253
1002
}
0
DIMENSION
5
276
100
AcDbEntity
8
SK2
62
256
6
ByLayer
370
-3
48
1
60
0
100
AcDbDimension
2
DimnDraft3D3
10
-9.75
20
-13.5
30
0
11
-9.75
21
-6.01727
31
0
70
32
71
5
72
1
41
1
210
0
220
0
230
1
3
Standard
100
AcDbAlignedDimension
13
-2
23
13.5
33
0
14
-2
24
-13.5
34
0
50
90
100
AcDbRotatedDimension
1001
ACAD
1000
DSTYLE
1002
{
1070
    74
1070
     0
1070
   279
1070
     0
1070
   172
1070
     1
1070
   173
1070
     1
1070
   340
1005
242
1070
   271
1070
     2
1070
   272
1070
     2
1070
    77
1070
     1
1070
    73
1070
     0
1070
   171
1070
     4
1070
   274
1070
     4
1070
   177
1070
     2
1070
   176
1070
     2
1070
   178
1070
     7
1070
    78
1070
     8
1070
    41
1041
3.175
1070
   147
1041
2.25
1070
    42
1041
2.0
1070
    44
1041
2.0
1070
   140
1041
4.5
1070
   343
1005
253
1070
   344
1005
253
1002
}
0
DIMENSION
5
284
100
AcDbEntity
8
2
62
256
6
ByLayer
370
-3
48
1
60
0
100
AcDbDimension
2
DimnDraft3D4
10
64.25
20
-40
30
0
11
64.25
21
-6.01727
31
0
70
32
71
5
72
1
41
1
210
0
220
0
230
1
3
Standard
100
AcDbAlignedDimension
13
52
23
40
33
0
14
52
24
-40
34
0
50
90
100
AcDbRotatedDimension
1001
ACAD
1000
DSTYLE
1002
{
1070
    74
1070
     0
1070
   279
1070
     0
1070
   172
1070
     1
1070
   173
1070
     1
1070
   340
1005
242
1070
   271
1070
     2
1070
   272
1070
     2
1070
    77
1070
     1
1070
    73
1070
     0
1070
   171
1070
     4
1070
   274
1070
     4
1070
   177
1070
     2
1070
   176
1070
     2
1070
   178
1070
     7
1070
    78
1070
     8
1070
    41
1041
3.175
1070
   147
1041
2.25
1070
    42
1041
2.0
1070
    44
1041
2.0
1070
   140
1041
4.5
1070
   343
1005
253
1070
   344
1005
253
1002
}
0
ENDSEC
0
SECTION
2
OBJECTS
0
DICTIONARY
5
2d2
330
0
100
AcDbDictionary
280
0
281
1
3
ACAD_GROUP
350
2d3
3
ACAD_MLINESTYLE
350
2d4
0
DICTIONARY
5
2d3
330
0
100
AcDbDictionary
280
0
281
1
0
DICTIONARY
5
2d4
330
0
100
AcDbDictionary
280
0
281
1
3
Standard
350
18
0
MLINESTYLE
5
18
330
2d4
100
AcDbMlineStyle
2
Standard
70
0
3

62
256
51
90
52
90
71
2
49
-0.5
62
256
6
ByLayer
49
0.5
62
256
6
ByLayer
0
RASTERVARIABLES
5
2c1
330

100
AcDbRasterVariables
90
0
70
1
71
1
72
1
0
ENDSEC
0
EOF
