0
SECTION
2
HEADER
9
$ACADVER
1
AC1015
9
$DWGCODEPAGE
3
ANSI_1252
9
$HANDSEED
5
250
9
$ANGBASE
50
0
9
$ANGDIR
70
0
9
$ATTMODE
70
1
9
$AUNITS
70
0
9
$AUPREC
70
0
9
$CECOLOR
62
256
9
$CELTSCALE
40
1
9
$CELTYPE
6
ByLayer
9
$CELWEIGHT
370
-1
9
$CLAYER
8
0
9
$CMLJUST
70
0
9
$CMLSCALE
40
1
9
$CMLSTYLE
2
Standard
9
$DIMSTYLE
2
Standard
9
$TEXTSIZE
40
0.2
9
$TEXTSTYLE
7
Standard
9
$LUNITS
70
2
9
$LUPREC
70
4
9
$EXTNAMES
290
1
9
$INSUNITS
70
4
9
$LTSCALE
40
1
9
$LWDISPLAY
290
0
9
$PDMODE
70
0
9
$PDSIZE
40
0
9
$PLINEGEN
70
0
0
ENDSEC
0
SECTION
2
CLASSES
0
CLASS
1
RASTERVARIABLES
2
AcDbRasterVariables
3
ISM
90
0
280
0
281
0
0
ENDSEC
0
SECTION
2
TABLES
0
TABLE
2
VPORT
5
246
100
AcDbSymbolTable
0
VPORT
5
1
100
AcDbSymbolTableRecord
100
AcDbViewportTableRecord
2
*Active
70
0
10
0
20
0
11
1
21
1
12
-1
22
1
13
0
23
0
14
0.5
24
0.5
15
10
25
10
16
0
26
0
36
1
17
0
27
0
37
0
0
ENDTAB
0
TABLE
2
LTYPE
5
247
100
AcDbSymbolTable
0
LTYPE
5
14
100
AcDbSymbolTableRecord
100
AcDbLinetypeTableRecord
70
0
2
ByBlock
3

72
65
73
0
40
0
0
LTYPE
5
15
100
AcDbSymbolTableRecord
100
AcDbLinetypeTableRecord
70
0
2
ByLayer
3

72
65
73
0
40
0
0
LTYPE
5
16
100
AcDbSymbolTableRecord
100
AcDbLinetypeTableRecord
70
0
2
CONTINUOUS
3
Solid line
72
65
73
0
40
0
0
LTYPE
5
3C
100
AcDbSymbolTableRecord
100
AcDbLinetypeTableRecord
70
0
2
DASHED
3
__ __ __ __ __ __ __ __ __
72
65
73
2
40
25.72
49
12.86
74
0
49
-12.86
74
0
0
LTYPE
5
3D
100
AcDbSymbolTableRecord
100
AcDbLinetypeTableRecord
70
0
2
HIDDEN
3
_ _ _ _ _ _ _ _ _ _ _ _ _ _ _
72
65
73
2
40
0.5
49
0.25
74
0
49
-0.25
74
0
0
LTYPE
5
3E
100
AcDbSymbolTableRecord
100
AcDbLinetypeTableRecord
70
0
2
PHANTOM
3
____ _ _ ____ _ _ _____ _ _ ____
72
65
73
6
40
50.5
49
18
74
0
49
-6.5
74
0
49
6.5
74
0
49
-6.5
74
0
49
6.5
74
0
49
-6.5
74
0
0
LTYPE
5
3F
100
AcDbSymbolTableRecord
100
AcDbLinetypeTableRecord
70
0
2
CENTER
3
____ _ ____ _ ____ _ ____
72
65
73
4
40
47.5
49
22
74
0
49
-8.5
74
0
49
8.5
74
0
49
-8.5
74
0
0
LTYPE
5
40
100
AcDbSymbolTableRecord
100
AcDbLinetypeTableRecord
70
0
2
DOT
3
.........................
72
65
73
2
40
10
49
0
74
0
49
-10
74
0
0
LTYPE
5
41
100
AcDbSymbolTableRecord
100
AcDbLinetypeTableRecord
70
0
2
DASHDOT
3
_._._._._._._._._._._._._._._._.
72
65
73
4
40
70
49
31
74
0
49
-13
74
0
49
13
74
0
49
-13
74
0
0
ENDTAB
0
TABLE
2
LAYER
5
248
100
AcDbSymbolTable
0
LAYER
5
10
100
AcDbSymbolTableRecord
100
AcDbLayerTableRecord
2
0
70
0
62
7
6
CONTINUOUS
290
1
370
-3
390
0
0
LAYER
5
43
100
AcDbSymbolTableRecord
100
AcDbLayerTableRecord
2
2
70
0
62
7
6
CONTINUOUS
290
1
370
-3
390
0
0
LAYER
5
45
100
AcDbSymbolTableRecord
100
AcDbLayerTableRecord
2
81
70
0
62
-3
6
CONTINUOUS
290
1
370
-3
390
0
0
LAYER
5
47
100
AcDbSymbolTableRecord
100
AcDbLayerTableRecord
2
80
70
0
62
-6
6
CONTINUOUS
290
1
370
-3
390
0
0
LAYER
5
49
100
AcDbSymbolTableRecord
100
AcDbLayerTableRecord
2
1
70
0
62
4
6
CONTINUOUS
290
1
370
-3
390
0
0
LAYER
5
57
100
AcDbSymbolTableRecord
100
AcDbLayerTableRecord
2
4
70
0
62
-2
6
CENTER
290
1
370
-3
390
0
0
LAYER
5
233
100
AcDbSymbolTableRecord
100
AcDbLayerTableRecord
2
SK4
70
0
62
2
6
CENTER
290
1
370
-3
390
0
0
LAYER
5
234
100
AcDbSymbolTableRecord
100
AcDbLayerTableRecord
2
SK6
70
0
62
5
6
CONTINUOUS
290
1
370
-3
390
0
0
LAYER
5
235
100
AcDbSymbolTableRecord
100
AcDbLayerTableRecord
2
SK2
70
0
62
7
6
CONTINUOUS
290
1
370
-3
390
0
0
ENDTAB
0
TABLE
2
STYLE
5
249
100
AcDbSymbolTable
0
STYLE
5
11
100
AcDbSymbolTableRecord
100
AcDbTextStyleTableRecord
2
Standard
3
txt
70
0
71
0
40
0
41
1
42
0
50
0
0
STYLE
5
1B3
100
AcDbSymbolTableRecord
100
AcDbTextStyleTableRecord
2
DEFAULT
3
simplex.shx
70
0
71
0
40
0
41
1
42
0
50
0
0
STYLE
5
1B4
100
AcDbSymbolTableRecord
100
AcDbTextStyleTableRecord
2
DWGDirectTextStyle
3
SIMPLEX
70
0
71
0
40
0
41
1
42
0
50
0
0
ENDTAB
0
TABLE
2
DIMSTYLE
5
24a
100
AcDbSymbolTable
100
AcDbDimStyleTable
0
DIMSTYLE
105
27
100
AcDbSymbolTableRecord
100
AcDbDimStyleTableRecord
2
Standard
70
0
3
<>
41
0.18
42
0.0625
44
0.18
140
0.18
147
0.09
73
0
74
0
77
1
271
2
275
0
278
52
280
0
340
11
0
ENDTAB
0
TABLE
2
VIEW
5
24b
100
AcDbSymbolTable
0
ENDTAB
0
TABLE
2
UCS
5
24c
100
AcDbSymbolTable
0
ENDTAB
0
TABLE
2
APPID
5
24d
100
AcDbSymbolTable
0
APPID
5
12
100
AcDbSymbolTableRecord
100
AcDbRegAppTableRecord
2
ACAD
70
0
0
ENDTAB
0
TABLE
2
BLOCK_RECORD
5
24e
100
AcDbSymbolTable
0
BLOCK_RECORD
5
1F
100
AcDbSymbolTableRecord
100
AcDbBlockTableRecord
2
*Model_Space
340
0
70
0
0
BLOCK_RECORD
5
1B
100
AcDbSymbolTableRecord
100
AcDbBlockTableRecord
2
*Paper_Space
340
0
70
0
0
BLOCK_RECORD
5
23
100
AcDbSymbolTableRecord
100
AcDbBlockTableRecord
2
*Paper_Space0
340
0
70
0
0
BLOCK_RECORD
5
1B6
100
AcDbSymbolTableRecord
100
AcDbBlockTableRecord
2
DimnDraft3D1
340
0
70
0
0
BLOCK_RECORD
5
1C4
100
AcDbSymbolTableRecord
100
AcDbBlockTableRecord
2
_CLOSED
340
0
70
0
0
BLOCK_RECORD
5
1CB
100
AcDbSymbolTableRecord
100
AcDbBlockTableRecord
2
DimnDraft3D2
340
0
70
0
0
BLOCK_RECORD
5
1D9
100
AcDbSymbolTableRecord
100
AcDbBlockTableRecord
2
DimnDraft3D3
340
0
70
0
0
BLOCK_RECORD
5
1E8
100
AcDbSymbolTableRecord
100
AcDbBlockTableRecord
2
DimnDraft3D4
340
0
70
0
0
ENDTAB
0
ENDSEC
0
SECTION
2
BLOCKS
0
BLOCK
5
20
100
AcDbEntity
8
0
100
AcDbBlockBegin
2
*Model_Space
70
0
10
0
20
0
30
0
3
*Model_Space
0
ENDBLK
5
21
100
AcDbEntity
8
0
100
AcDbBlockEnd
0
BLOCK
5
1C
100
AcDbEntity
8
0
100
AcDbBlockBegin
2
*Paper_Space
70
0
10
0
20
0
30
0
3
*Paper_Space
0
ENDBLK
5
1D
100
AcDbEntity
8
0
100
AcDbBlockEnd
0
BLOCK
5
24
100
AcDbEntity
8
0
100
AcDbBlockBegin
2
*Paper_Space0
70
0
10
0
20
0
30
0
3
*Paper_Space0
0
ENDBLK
5
25
100
AcDbEntity
8
0
100
AcDbBlockEnd
0
BLOCK
5
1C1
100
AcDbEntity
8
0
100
AcDbBlockBegin
2
DimnDraft3D1
70
0
10
0
20
0
30
0
3
DimnDraft3D1
0
MTEXT
5
1B7
100
AcDbEntity
8
2
62
256
6
ByLayer
370
-1
48
1
60
0
100
AcDbMText
10
17.865461
20
52.375
30
0
210
0
220
0
230
1
1
\W01.000;\fsimplex.shx,bigfont.shx;40\P
40
4.5
41
0
44
1.084337
50
0
71
7
72
5
7
DEFAULT
0
LINE
5
1B8
100
AcDbEntity
8
2
62
256
6
ByLayer
370
-1
48
1
60
0
100
AcDbLine
10
40
20
33.5
30
0
11
40
21
53.25
31
0
39
0
210
0
220
0
230
1
0
LINE
5
1B9
100
AcDbEntity
8
2
62
256
6
ByLayer
370
-1
48
1
60
0
100
AcDbLine
10
0
20
23
30
0
11
0
21
53.25
31
0
39
0
210
0
220
0
230
1
0
LINE
5
1BA
100
AcDbEntity
8
2
62
256
6
ByLayer
370
-1
48
1
60
0
100
AcDbLine
10
40
20
51.25
30
0
11
0
21
51.25
31
0
39
0
210
0
220
0
230
1
0
LINE
5
1BB
100
AcDbEntity
8
2
62
256
6
ByLayer
370
-1
48
1
60
0
100
AcDbLine
10
40
20
51.25
30
0
11
36.825002
21
50.832003
31
0
39
0
210
0
220
0
230
1
0
LINE
5
1BC
100
AcDbEntity
8
2
62
256
6
ByLayer
370
-1
48
1
60
0
100
AcDbLine
10
40
20
51.25
30
0
11
36.824998
21
51.667997
31
0
39
0
210
0
220
0
230
1
0
LINE
5
1BD
100
AcDbEntity
8
2
62
256
6
ByLayer
370
-1
48
1
60
0
100
AcDbLine
10
36.825002
20
50.832003
30
0
11
36.824998
21
51.667997
31
0
39
0
210
0
220
0
230
1
0
LINE
5
1BE
100
AcDbEntity
8
2
62
256
6
ByLayer
370
-1
48
1
60
0
100
AcDbLine
10
0
20
51.25
30
0
11
3.174998
21
51.667997
31
0
39
0
210
0
220
0
230
1
0
LINE
5
1BF
100
AcDbEntity
8
2
62
256
6
ByLayer
370
-1
48
1
60
0
100
AcDbLine
10
0
20
51.25
30
0
11
3.175002
21
50.832003
31
0
39
0
210
0
220
0
230
1
0
LINE
5
1C0
100
AcDbEntity
8
2
62
256
6
ByLayer
370
-1
48
1
60
0
100
AcDbLine
10
3.174998
20
51.667997
30
0
11
3.175002
21
50.832003
31
0
39
0
210
0
220
0
230
1
0
ENDBLK
5
1C2
100
AcDbEntity
8
0
100
AcDbBlockEnd
0
BLOCK
5
1C5
100
AcDbEntity
8
0
100
AcDbBlockBegin
2
_CLOSED
70
0
10
0
20
0
30
0
3
_CLOSED
0
LINE
5
1C7
100
AcDbEntity
8
0
62
256
6
ByLayer
370
-2
48
1
60
0
100
AcDbLine
10
-1
20
0.166667
30
0
11
0
21
0
31
0
39
0
210
0
220
0
230
1
0
LINE
5
1C8
100
AcDbEntity
8
0
62
256
6
ByLayer
370
-2
48
1
60
0
100
AcDbLine
10
0
20
0
30
0
11
-1
21
-0.166667
31
0
39
0
210
0
220
0
230
1
0
LINE
5
1C9
100
AcDbEntity
8
0
62
256
6
ByLayer
370
-2
48
1
60
0
100
AcDbLine
10
-1
20
0.166667
30
0
11
-1
21
-0.166667
31
0
39
0
210
0
220
0
230
1
0
LINE
5
1CA
100
AcDbEntity
8
0
62
256
6
ByLayer
370
-2
48
1
60
0
100
AcDbLine
10
0
20
0
30
0
11
-1
21
0
31
0
39
0
210
0
220
0
230
1
0
ENDBLK
5
1C6
100
AcDbEntity
8
0
100
AcDbBlockEnd
0
BLOCK
5
1D6
100
AcDbEntity
8
0
100
AcDbBlockBegin
2
DimnDraft3D2
70
0
10
0
20
0
30
0
3
DimnDraft3D2
0
MTEXT
5
1CC
100
AcDbEntity
8
2
62
256
6
ByLayer
370
-1
48
1
60
0
100
AcDbMText
10
46.51875
20
42.375
30
0
210
0
220
0
230
1
1
\W01.000;\fsimplex.shx,bigfont.shx;15.4\P
40
4.5
41
0
44
1.084337
50
0
71
7
72
5
7
DEFAULT
0
LINE
5
1CD
100
AcDbEntity
8
2
62
256
6
ByLayer
370
-1
48
1
60
0
100
AcDbLine
10
40
20
33.5
30
0
11
40
21
43.25
31
0
39
0
210
0
220
0
230
1
0
LINE
5
1CE
100
AcDbEntity
8
2
62
256
6
ByLayer
370
-1
48
1
60
0
100
AcDbLine
10
24.6
20
33.5
30
0
11
24.6
21
43.25
31
0
39
0
210
0
220
0
230
1
0
LINE
5
1CF
100
AcDbEntity
8
2
62
256
6
ByLayer
370
-1
48
1
60
0
100
AcDbLine
10
24.6
20
41.25
30
0
11
56.726645
21
41.25
31
0
39
0
210
0
220
0
230
1
0
LINE
5
1D0
100
AcDbEntity
8
2
62
256
6
ByLayer
370
-1
48
1
60
0
100
AcDbLine
10
40
20
41.25
30
0
11
36.825002
21
40.832003
31
0
39
0
210
0
220
0
230
1
0
LINE
5
1D1
100
AcDbEntity
8
2
62
256
6
ByLayer
370
-1
48
1
60
0
100
AcDbLine
10
40
20
41.25
30
0
11
36.824998
21
41.667997
31
0
39
0
210
0
220
0
230
1
0
LINE
5
1D2
100
AcDbEntity
8
2
62
256
6
ByLayer
370
-1
48
1
60
0
100
AcDbLine
10
36.825002
20
40.832003
30
0
11
36.824998
21
41.667997
31
0
39
0
210
0
220
0
230
1
0
LINE
5
1D3
100
AcDbEntity
8
2
62
256
6
ByLayer
370
-1
48
1
60
0
100
AcDbLine
10
24.6
20
41.25
30
0
11
27.774998
21
41.667997
31
0
39
0
210
0
220
0
230
1
0
LINE
5
1D4
100
AcDbEntity
8
2
62
256
6
ByLayer
370
-1
48
1
60
0
100
AcDbLine
10
24.6
20
41.25
30
0
11
27.775002
21
40.832003
31
0
39
0
210
0
220
0
230
1
0
LINE
5
1D5
100
AcDbEntity
8
2
62
256
6
ByLayer
370
-1
48
1
60
0
100
AcDbLine
10
27.774998
20
41.667997
30
0
11
27.775002
21
40.832003
31
0
39
0
210
0
220
0
230
1
0
ENDBLK
5
1D7
100
AcDbEntity
8
0
100
AcDbBlockEnd
0
BLOCK
5
1E5
100
AcDbEntity
8
0
100
AcDbBlockBegin
2
DimnDraft3D3
70
0
10
0
20
0
30
0
3
DimnDraft3D3
0
MTEXT
5
1DA
100
AcDbEntity
8
SK2
62
256
6
ByLayer
370
-1
48
1
60
0
100
AcDbMText
10
-10.875
20
-4.49852
30
0
210
0
220
0
230
1
1
\W01.000;\fsimplex.shx,bigfont.shx;%%c22\P
40
4.5
41
0
44
1.084337
50
90
71
7
72
5
7
DEFAULT
0
LINE
5
1DC
100
AcDbEntity
8
SK2
62
256
6
ByLayer
370
-1
48
1
60
0
100
AcDbLine
10
-2
20
11
30
0
11
-11.75
21
11
31
0
39
0
210
0
220
0
230
1
0
LINE
5
1DD
100
AcDbEntity
8
SK2
62
256
6
ByLayer
370
-1
48
1
60
0
100
AcDbLine
10
-2
20
-11
30
0
11
-11.75
21
-11
31
0
39
0
210
0
220
0
230
1
0
LINE
5
1DE
100
AcDbEntity
8
SK2
62
256
6
ByLayer
370
-1
48
1
60
0
100
AcDbLine
10
-9.75
20
11
30
0
11
-9.75
21
-11
31
0
39
0
210
0
220
0
230
1
0
LINE
5
1DF
100
AcDbEntity
8
SK2
62
256
6
ByLayer
370
-1
48
1
60
0
100
AcDbLine
10
-9.75
20
11
30
0
11
-9.332003
21
7.825002
31
0
39
0
210
0
220
0
230
1
0
LINE
5
1E0
100
AcDbEntity
8
SK2
62
256
6
ByLayer
370
-1
48
1
60
0
100
AcDbLine
10
-9.75
20
11
30
0
11
-10.167997
21
7.824998
31
0
39
0
210
0
220
0
230
1
0
LINE
5
1E1
100
AcDbEntity
8
SK2
62
256
6
ByLayer
370
-1
48
1
60
0
100
AcDbLine
10
-9.332003
20
7.825002
30
0
11
-10.167997
21
7.824998
31
0
39
0
210
0
220
0
230
1
0
LINE
5
1E2
100
AcDbEntity
8
SK2
62
256
6
ByLayer
370
-1
48
1
60
0
100
AcDbLine
10
-9.75
20
-11
30
0
11
-10.167997
21
-7.825002
31
0
39
0
210
0
220
0
230
1
0
LINE
5
1E3
100
AcDbEntity
8
SK2
62
256
6
ByLayer
370
-1
48
1
60
0
100
AcDbLine
10
-9.75
20
-11
30
0
11
-9.332003
21
-7.824998
31
0
39
0
210
0
220
0
230
1
0
LINE
5
1E4
100
AcDbEntity
8
SK2
62
256
6
ByLayer
370
-1
48
1
60
0
100
AcDbLine
10
-10.167997
20
-7.825002
30
0
11
-9.332003
21
-7.824998
31
0
39
0
210
0
220
0
230
1
0
ENDBLK
5
1E6
100
AcDbEntity
8
0
100
AcDbBlockEnd
0
BLOCK
5
1F3
100
AcDbEntity
8
0
100
AcDbBlockBegin
2
DimnDraft3D4
70
0
10
0
20
0
30
0
3
DimnDraft3D4
0
MTEXT
5
1E9
100
AcDbEntity
8
2
62
256
6
ByLayer
370
-1
48
1
60
0
100
AcDbMText
10
53.125
20
-4.49852
30
0
210
0
220
0
230
1
1
\W01.000;\fsimplex.shx,bigfont.shx;%%c63\P
40
4.5
41
0
44
1.084337
50
90
71
7
72
5
7
DEFAULT
0
LINE
5
1EA
100
AcDbEntity
8
2
62
256
6
ByLayer
370
-1
48
1
60
0
100
AcDbLine
10
42
20
31.5
30
0
11
56.25
21
31.5
31
0
39
0
210
0
220
0
230
1
0
LINE
5
1EB
100
AcDbEntity
8
2
62
256
6
ByLayer
370
-1
48
1
60
0
100
AcDbLine
10
42
20
-31.5
30
0
11
56.25
21
-31.5
31
0
39
0
210
0
220
0
230
1
0
LINE
5
1EC
100
AcDbEntity
8
2
62
256
6
ByLayer
370
-1
48
1
60
0
100
AcDbLine
10
54.25
20
31.5
30
0
11
54.25
21
-31.5
31
0
39
0
210
0
220
0
230
1
0
LINE
5
1ED
100
AcDbEntity
8
2
62
256
6
ByLayer
370
-1
48
1
60
0
100
AcDbLine
10
54.25
20
31.5
30
0
11
54.667997
21
28.325002
31
0
39
0
210
0
220
0
230
1
0
LINE
5
1EE
100
AcDbEntity
8
2
62
256
6
ByLayer
370
-1
48
1
60
0
100
AcDbLine
10
54.25
20
31.5
30
0
11
53.832003
21
28.324998
31
0
39
0
210
0
220
0
230
1
0
LINE
5
1EF
100
AcDbEntity
8
2
62
256
6
ByLayer
370
-1
48
1
60
0
100
AcDbLine
10
54.667997
20
28.325002
30
0
11
53.832003
21
28.324998
31
0
39
0
210
0
220
0
230
1
0
LINE
5
1F0
100
AcDbEntity
8
2
62
256
6
ByLayer
370
-1
48
1
60
0
100
AcDbLine
10
54.25
20
-31.5
30
0
11
53.832003
21
-28.325002
31
0
39
0
210
0
220
0
230
1
0
LINE
5
1F1
100
AcDbEntity
8
2
62
256
6
ByLayer
370
-1
48
1
60
0
100
AcDbLine
10
54.25
20
-31.5
30
0
11
54.667997
21
-28.324998
31
0
39
0
210
0
220
0
230
1
0
LINE
5
1F2
100
AcDbEntity
8
2
62
256
6
ByLayer
370
-1
48
1
60
0
100
AcDbLine
10
53.832003
20
-28.325002
30
0
11
54.667997
21
-28.324998
31
0
39
0
210
0
220
0
230
1
0
ENDBLK
5
1F4
100
AcDbEntity
8
0
100
AcDbBlockEnd
0
ENDSEC
0
SECTION
2
ENTITIES
0
ARC
5
A9
100
AcDbEntity
8
1
62
256
6
ByLayer
370
-1
48
1
60
0
100
AcDbCircle
39
0
10
-13.5
20
24
30
0
40
3
210
0
220
0
230
-1
100
AcDbArc
50
202.749206
51
270
0
ARC
5
AA
100
AcDbEntity
8
1
62
256
6
ByLayer
370
-1
48
1
60
0
100
AcDbCircle
39
0
10
-13.5
20
-24
30
0
40
3
210
0
220
0
230
-1
100
AcDbArc
50
90
51
155.431988
0
ARC
5
AB
100
AcDbEntity
8
1
62
256
6
ByLayer
370
-1
48
1
60
0
100
AcDbCircle
39
0
10
0.5
20
-20.5
30
0
40
0.5
210
0
220
0
230
1
100
AcDbArc
50
180
51
270
0
ARC
5
AC
100
AcDbEntity
8
1
62
256
6
ByLayer
370
-1
48
1
60
0
100
AcDbCircle
39
0
10
0.5
20
20.5
30
0
40
0.5
210
0
220
0
230
1
100
AcDbArc
50
90
51
180
0
ARC
5
AD
100
AcDbEntity
8
1
62
256
6
ByLayer
370
-1
48
1
60
0
100
AcDbCircle
39
0
10
31.81231
20
7.816266
30
0
40
7
210
0
220
0
230
1
100
AcDbArc
50
275.915131
51
282.138287
0
ARC
5
AE
100
AcDbEntity
8
1
62
256
6
ByLayer
370
-1
48
1
60
0
100
AcDbCircle
39
0
10
31.81231
20
7.816266
30
0
40
7
210
0
220
0
230
1
100
AcDbArc
50
240.510641
51
247.961157
0
ELLIPSE
5
AF
100
AcDbEntity
8
1
62
256
6
ByLayer
370
-1
48
1
60
0
100
AcDbEllipse
10
38.696901
20
-3.962405
30
0
11
-0.279120736888946
21
1.98042712924222
31
0
210
0
220
0
230
1
40
0.005721
41
1.80146073304662
42
2.27402277909437
0
ELLIPSE
5
B0
100
AcDbEntity
8
1
62
256
6
ByLayer
370
-1
48
1
60
0
100
AcDbEllipse
10
31.586151
20
-25.401154
30
0
11
0.507051357774459
21
-1.93465731347417
31
0
210
0
220
0
230
1
40
0.989523
41
0.220738211378946
42
1.31704440206657
0
ELLIPSE
5
B1
100
AcDbEntity
8
1
62
256
6
ByLayer
370
-1
48
1
60
0
100
AcDbEllipse
10
31.586151
20
-25.401154
30
0
11
0.507051357774459
21
-1.93465731347417
31
0
210
0
220
0
230
1
40
0.989523
41
1.31704440206657
42
2.9209370152303
0
ELLIPSE
5
B2
100
AcDbEntity
8
1
62
256
6
ByLayer
370
-1
48
1
60
0
100
AcDbEllipse
10
31.44649
20
24.99555
30
0
11
-1.56869256504626
21
-2.01039887494213
31
0
210
0
220
0
230
1
40
0.984184
41
-0.456951327592771
42
-0.216619524840093
0
ELLIPSE
5
B3
100
AcDbEntity
8
1
62
256
6
ByLayer
370
-1
48
1
60
0
100
AcDbEllipse
10
24.2561
20
6.58445
30
0
11
-1.24970709122633
21
0.0270589382389385
31
0
210
0
220
0
230
1
40
0.995799
41
-1.5278313121287
42
-1.07219137222394
0
ELLIPSE
5
B4
100
AcDbEntity
8
1
62
256
6
ByLayer
370
-1
48
1
60
0
100
AcDbEllipse
10
38.745782
20
-4.308445
30
0
11
-1.94977976721146
21
-0.275424870650422
31
0
210
0
220
0
230
1
40
0.05473
41
0.917208523768593
42
1.56506704870072
0
ELLIPSE
5
B5
100
AcDbEntity
8
1
62
256
6
ByLayer
370
-1
48
1
60
0
100
AcDbEllipse
10
18.576986
20
5.045928
30
0
11
21.487987164834
21
29.093799418469
31
0
210
0
220
0
230
-1
40
0.128043
41
1.51506734639216
42
1.53711313817903
0
ELLIPSE
5
B6
100
AcDbEntity
8
1
62
256
6
ByLayer
370
-1
48
1
60
0
100
AcDbEllipse
10
27.565811
20
2.871573
30
0
11
-12.8718522897919
21
1.82082910504496
31
0
210
0
220
0
230
1
40
0.094404
41
0.648568121365991
42
0.952550336435287
0
ELLIPSE
5
B7
100
AcDbEntity
8
1
62
256
6
ByLayer
370
-1
48
1
60
0
100
AcDbEllipse
10
0.492174
20
8.491229
30
0
11
222.302804075259
21
-31.2266699413729
31
0
210
0
220
0
230
-1
40
0.012222
41
-1.44709603556521
42
-1.40716392174509
0
ELLIPSE
5
B8
100
AcDbEntity
8
1
62
256
6
ByLayer
370
-1
48
1
60
0
100
AcDbEllipse
10
23.190123
20
6.767858
30
0
11
0.818376772143637
21
-1.09198414499747
31
0
210
0
220
0
230
1
40
0.056634
41
-1.39484641637207
42
-1.38680916400928
0
ELLIPSE
5
B9
100
AcDbEntity
8
1
62
256
6
ByLayer
370
-1
48
1
60
0
100
AcDbEllipse
10
33.360064
20
-0.003687
30
0
11
0.0980590090741745
21
30.0932077235897
31
0
210
0
220
0
230
-1
40
0.141022
41
2.5510583583417
42
2.73357378572162
0
ELLIPSE
5
BA
100
AcDbEntity
8
1
62
256
6
ByLayer
370
-1
48
1
60
0
100
AcDbEllipse
10
24.028425
20
6.397282
30
0
11
0.350097432631925
21
-1.13811950927197
31
0
210
0
220
0
230
1
40
0.447175
41
3.10022366422106
42
-2.05339596371162
0
ELLIPSE
5
BB
100
AcDbEntity
8
1
62
256
6
ByLayer
370
-1
48
1
60
0
100
AcDbEllipse
10
28.209425
20
-0.003711
30
0
11
0.098702788929864
21
30.2907764999853
31
0
210
0
220
0
230
-1
40
0.141022
41
2.54121452214686
42
2.71073942753482
0
ELLIPSE
5
BC
100
AcDbEntity
8
1
62
256
6
ByLayer
370
-1
48
1
60
0
100
AcDbEllipse
10
32.424119
20
-25.181532
30
0
11
-0.507051357774461
21
1.93465731347417
31
0
210
0
220
0
230
1
40
0.989523
41
1.42632401827422
42
0
0
ELLIPSE
5
BD
100
AcDbEntity
8
1
62
256
6
ByLayer
370
-1
48
1
60
0
100
AcDbEllipse
10
32.424119
20
-25.181532
30
0
11
-0.507051357774461
21
1.93465731347417
31
0
210
0
220
0
230
1
40
0.989523
41
0
42
0.44006054635059
0
ELLIPSE
5
BE
100
AcDbEntity
8
1
62
256
6
ByLayer
370
-1
48
1
60
0
100
AcDbEllipse
10
26.128744
20
-0.171848
30
0
11
0.294494060769176
21
1.97819949655518
31
0
210
0
220
0
230
1
40
0.076321
41
1.07231527326073
42
1.84015096248183
0
ELLIPSE
5
BF
100
AcDbEntity
8
1
62
256
6
ByLayer
370
-1
48
1
60
0
100
AcDbEllipse
10
26.227365
20
-0.18653
30
0
11
0.294494060769176
21
1.97819949655518
31
0
210
0
220
0
230
1
40
0.076321
41
1.06609764486642
42
1.84015096248183
0
ELLIPSE
5
C0
100
AcDbEntity
8
1
62
256
6
ByLayer
370
-1
48
1
60
0
100
AcDbEllipse
10
17.806817
20
-1.341694
30
0
11
5.99582530219101
21
-28.9737395683232
31
0
210
0
220
0
230
-1
40
0.254182
41
0.0336545670723843
42
0.0413145258733364
0
ELLIPSE
5
C1
100
AcDbEntity
8
1
62
256
6
ByLayer
370
-1
48
1
60
0
100
AcDbEllipse
10
54.616744
20
7.928976
30
0
11
207.582974684949
21
-29.1589892152573
31
0
210
0
220
0
230
-1
40
0.012222
41
-1.69184690441766
42
-1.667377679514
0
ELLIPSE
5
C2
100
AcDbEntity
8
1
62
256
6
ByLayer
370
-1
48
1
60
0
100
AcDbEllipse
10
21.879678
20
2.618632
30
0
11
1.98814220650822
21
-0.278964610861117
31
0
210
0
220
0
230
-1
40
0.094902
41
-2.88166552152775
42
-2.67509499488571
0
ELLIPSE
5
C3
100
AcDbEntity
8
1
62
256
6
ByLayer
370
-1
48
1
60
0
100
AcDbEllipse
10
24.27215
20
7.325673
30
0
11
1.24396437902029
21
-0.225245033208093
31
0
210
0
220
0
230
-1
40
0.303723
41
-2.1955286330742
42
-2.1393183584521
0
ELLIPSE
5
C4
100
AcDbEntity
8
1
62
256
6
ByLayer
370
-1
48
1
60
0
100
AcDbEllipse
10
27.565811
20
32.576121
30
0
11
8.16081400246773
21
10.1193435961592
31
0
210
0
220
0
230
1
40
0.983825
41
2.89265872037437
42
2.96464553733862
0
ELLIPSE
5
C5
100
AcDbEntity
8
1
62
256
6
ByLayer
370
-1
48
1
60
0
100
AcDbEllipse
10
22.654669
20
5.974701
30
0
11
0.542127549065803
21
1.92512278064125
31
0
210
0
220
0
230
1
40
0.7626
41
-0.358763605552207
42
-0.22904244813407
0
ELLIPSE
5
C6
100
AcDbEntity
8
1
62
256
6
ByLayer
370
-1
48
1
60
0
100
AcDbEllipse
10
27.521765
20
-0.373763
30
0
11
0.278159275542929
21
1.98056239927676
31
0
210
0
220
0
230
1
40
0.01048
41
-1.83987877357182
42
-0.980331497514243
0
ELLIPSE
5
C7
100
AcDbEntity
8
1
62
256
6
ByLayer
370
-1
48
1
60
0
100
AcDbEllipse
10
24.118108
20
6.531909
30
0
11
-0.441667199881968
21
1.15998416455532
31
0
210
0
220
0
230
1
40
0.054228
41
0.302488024361793
42
0.495661467972686
0
ELLIPSE
5
C8
100
AcDbEntity
8
1
62
256
6
ByLayer
370
-1
48
1
60
0
100
AcDbEllipse
10
27.238508
20
0.557795
30
0
11
-14.8220522791173
21
2.09670089266935
31
0
210
0
220
0
230
1
40
0.094404
41
0.747181213001029
42
1.49405734377879
0
ELLIPSE
5
C9
100
AcDbEntity
8
1
62
256
6
ByLayer
370
-1
48
1
60
0
100
AcDbEllipse
10
23.190123
20
-30.938927
30
0
11
0.0403718274209738
21
-1.36401613980949
31
0
210
0
220
0
230
1
40
0.600958
41
2.98381880119357
42
2.99185605355636
0
ELLIPSE
5
CA
100
AcDbEntity
8
1
62
256
6
ByLayer
370
-1
48
1
60
0
100
AcDbEllipse
10
32.424119
20
-25.181532
30
0
11
0.646490481162433
21
-2.46668807467956
31
0
210
0
220
0
230
1
40
0.989523
41
1.31387985032658
42
2.92468248250579
0
ELLIPSE
5
CB
100
AcDbEntity
8
1
62
256
6
ByLayer
370
-1
48
1
60
0
100
AcDbEllipse
10
28.209425
20
-0.163406
30
0
11
4.26045022110721
21
30.2911857555023
31
0
210
0
220
0
230
-1
40
0.010726
41
-1.08693477540879
42
-0.917409870024082
0
ELLIPSE
5
CC
100
AcDbEntity
8
1
62
256
6
ByLayer
370
-1
48
1
60
0
100
AcDbEllipse
10
25.18745
20
8.264735
30
0
11
-1.02528694145568
21
1.36807045636194
31
0
210
0
220
0
230
1
40
0.056634
41
1.72574023200999
42
1.88020489410473
0
ELLIPSE
5
CD
100
AcDbEntity
8
1
62
256
6
ByLayer
370
-1
48
1
60
0
100
AcDbEllipse
10
54.616732
20
0.294342
30
0
11
207.583166606577
21
-1.10258055246889
31
0
210
0
220
0
230
-1
40
0.135631
41
1.6649404685035
42
1.68940970041345
0
ELLIPSE
5
CE
100
AcDbEntity
8
1
62
256
6
ByLayer
370
-1
48
1
60
0
100
AcDbEllipse
10
18.576987
20
1.304361
30
0
11
10.666802958227
21
27.879995983491
31
0
210
0
220
0
230
-1
40
0.682275
41
-0.305729608156847
42
-0.290849047466951
0
ELLIPSE
5
CF
100
AcDbEntity
8
1
62
256
6
ByLayer
370
-1
48
1
60
0
100
AcDbEllipse
10
24.304817
20
6.54087
30
0
11
-0.788876483178589
21
-0.88185820531862
31
0
210
0
220
0
230
1
40
0.986766
41
-2.01894791020815
42
-1.86390753667835
0
ELLIPSE
5
D0
100
AcDbEntity
8
1
62
256
6
ByLayer
370
-1
48
1
60
0
100
AcDbEllipse
10
33.360064
20
-0.16234
30
0
11
4.23266183049902
21
30.0936143117991
31
0
210
0
220
0
230
-1
40
0.010726
41
-1.10976913354121
42
-0.927253706175494
0
ELLIPSE
5
D1
100
AcDbEntity
8
1
62
256
6
ByLayer
370
-1
48
1
60
0
100
AcDbEllipse
10
17.807262
20
1.914324
30
0
11
8.21070237933382
21
29.013252780083
31
0
210
0
220
0
230
-1
40
0.164441
41
1.44754607616077
42
1.45520633324255
0
ELLIPSE
5
D2
100
AcDbEntity
8
1
62
256
6
ByLayer
370
-1
48
1
60
0
100
AcDbEllipse
10
27.515313
20
0.708034
30
0
11
-16.8023372467776
21
2.37682844729165
31
0
210
0
220
0
230
1
40
0.094404
41
1.49405734377879
42
1.58132380637851
0
ELLIPSE
5
D3
100
AcDbEntity
8
1
62
256
6
ByLayer
370
-1
48
1
60
0
100
AcDbEllipse
10
18.576988
20
-1.672231
30
0
11
12.5774658751032
21
-27.6727774684032
31
0
210
0
220
0
230
-1
40
0.643818
41
0.387324079520313
42
0.409369877601964
0
ELLIPSE
5
D4
100
AcDbEntity
8
1
62
256
6
ByLayer
370
-1
48
1
60
0
100
AcDbEllipse
10
0.492175
20
0.315218
30
0
11
222.303071743115
21
-1.18076516049874
31
0
210
0
220
0
230
-1
40
0.135631
41
1.39841510699409
42
1.45506142362613
0
ELLIPSE
5
D5
100
AcDbEntity
8
1
62
256
6
ByLayer
370
-1
48
1
60
0
100
AcDbEllipse
10
31.070308
20
27.585386
30
0
11
-0.42200905867519
21
-0.540836716945217
31
0
210
0
220
0
230
1
40
0.984184
41
1.57601327484411E-06
42
0.546736816670596
0
ELLIPSE
5
D6
100
AcDbEntity
8
1
62
256
6
ByLayer
370
-1
48
1
60
0
100
AcDbEllipse
10
30.906024
20
25.837494
30
0
11
1.61483058166529
21
2.06952825361688
31
0
210
0
220
0
230
1
40
0.984184
41
-2.24854256524401
42
-0.915906914426562
0
ELLIPSE
5
D7
100
AcDbEntity
8
1
62
256
6
ByLayer
370
-1
48
1
60
0
100
AcDbEllipse
10
30.906024
20
25.837494
30
0
11
1.61483058166529
21
2.06952825361688
31
0
210
0
220
0
230
1
40
0.984184
41
-0.915906914426547
42
0
0
ELLIPSE
5
D8
100
AcDbEntity
8
1
62
256
6
ByLayer
370
-1
48
1
60
0
100
AcDbEllipse
10
30.906024
20
25.837494
30
0
11
1.61483058166529
21
2.06952825361688
31
0
210
0
220
0
230
1
40
0.984184
41
0
42
-2.78428235134848
0
ELLIPSE
5
D9
100
AcDbEntity
8
1
62
256
6
ByLayer
370
-1
48
1
60
0
100
AcDbEllipse
10
31.066573
20
25.71222
30
0
11
-0.742206894011102
21
-0.95119460494811
31
0
210
0
220
0
230
1
40
0.984184
41
3.03890334178366
42
-2.54227442911421
0
ELLIPSE
5
DA
100
AcDbEntity
8
1
62
256
6
ByLayer
370
-1
48
1
60
0
100
AcDbEllipse
10
31.066573
20
25.71222
30
0
11
-0.742206894011102
21
-0.95119460494811
31
0
210
0
220
0
230
1
40
0.984184
41
-2.40420916229044
42
-1.42464897066506
0
ELLIPSE
5
DB
100
AcDbEntity
8
1
62
256
6
ByLayer
370
-1
48
1
60
0
100
AcDbEllipse
10
31.066573
20
25.71222
30
0
11
-0.742206894011102
21
-0.95119460494811
31
0
210
0
220
0
230
1
40
0.984184
41
0.82999814832777
42
1.35335902524518
0
ELLIPSE
5
DC
100
AcDbEntity
8
1
62
256
6
ByLayer
370
-1
48
1
60
0
100
AcDbEllipse
10
31.066573
20
25.71222
30
0
11
0.742206894011111
21
0.951194604948103
31
0
210
0
220
0
230
1
40
0.984184
41
0.599318224475579
42
0.737383491299354
0
ELLIPSE
5
DD
100
AcDbEntity
8
1
62
256
6
ByLayer
370
-1
48
1
60
0
100
AcDbEllipse
10
30.380171
20
26.892751
30
0
11
-0.17963067803667
21
-0.230210380973766
31
0
210
0
220
0
230
1
40
0.984184
41
-2.80114732384949
42
-0.640658327044272
0
ELLIPSE
5
DE
100
AcDbEntity
8
1
62
256
6
ByLayer
370
-1
48
1
60
0
100
AcDbEllipse
10
31.066573
20
25.71222
30
0
11
0.742206894011111
21
0.951194604948103
31
0
210
0
220
0
230
1
40
0.984184
41
2.76135068643999
42
-2.82639315070206
0
ELLIPSE
5
DF
100
AcDbEntity
8
1
62
256
6
ByLayer
370
-1
48
1
60
0
100
AcDbEllipse
10
31.066573
20
25.71222
30
0
11
-0.742206894011102
21
-0.95119460494811
31
0
210
0
220
0
230
1
40
0.984184
41
2.08617429991868
42
2.66368223004085
0
ELLIPSE
5
E0
100
AcDbEntity
8
1
62
256
6
ByLayer
370
-1
48
1
60
0
100
AcDbEllipse
10
30.905453
20
25.837939
30
0
11
0.742206894011111
21
0.951194604948103
31
0
210
0
220
0
230
1
40
0.984184
41
0.599318224475566
42
0.737383491299365
0
ELLIPSE
5
E1
100
AcDbEntity
8
1
62
256
6
ByLayer
370
-1
48
1
60
0
100
AcDbEllipse
10
32.692637
20
26.672423
30
0
11
-0.42200905867519
21
-0.540836716945217
31
0
210
0
220
0
230
1
40
0.984184
41
6.19258788265406E-06
42
0.403748676470998
0
ELLIPSE
5
E2
100
AcDbEntity
8
1
62
256
6
ByLayer
370
-1
48
1
60
0
100
AcDbEllipse
10
29.444251
20
26.628527
30
0
11
-0.42200905867519
21
-0.540836716945217
31
0
210
0
220
0
230
1
40
0.984184
41
0.932953039303931
42
1.71694368292474
0
ELLIPSE
5
E3
100
AcDbEntity
8
1
62
256
6
ByLayer
370
-1
48
1
60
0
100
AcDbEllipse
10
31.75772
20
26.911366
30
0
11
-0.17963067803667
21
-0.230210380973766
31
0
210
0
220
0
230
1
40
0.984184
41
-2.69461947249435
42
-1.68198046078109
0
ELLIPSE
5
E4
100
AcDbEntity
8
1
62
256
6
ByLayer
370
-1
48
1
60
0
100
AcDbEllipse
10
30.867556
20
25.867511
30
0
11
1.03133846482356
21
1.32173871130998
31
0
210
0
220
0
230
1
40
0.984184
41
-2.99963111898197
42
-1.94685247242269
0
ELLIPSE
5
E5
100
AcDbEntity
8
1
62
256
6
ByLayer
370
-1
48
1
60
0
100
AcDbEllipse
10
30.867556
20
25.867511
30
0
11
1.03133846482356
21
1.32173871130998
31
0
210
0
220
0
230
1
40
0.984184
41
-1.94685247242269
42
-0.902445468907432
0
ELLIPSE
5
E6
100
AcDbEntity
8
1
62
256
6
ByLayer
370
-1
48
1
60
0
100
AcDbEllipse
10
30.867556
20
25.867511
30
0
11
1.03133846482356
21
1.32173871130998
31
0
210
0
220
0
230
1
40
0.984184
41
0.14196153460783
42
1.19474018116711
0
ELLIPSE
5
E7
100
AcDbEntity
8
1
62
256
6
ByLayer
370
-1
48
1
60
0
100
AcDbEllipse
10
31.070308
20
27.585386
30
0
11
-0.42200905867519
21
-0.540836716945217
31
0
210
0
220
0
230
1
40
0.984184
41
0.789964899104336
42
1.4596121928087
0
ELLIPSE
5
E8
100
AcDbEntity
8
1
62
256
6
ByLayer
370
-1
48
1
60
0
100
AcDbEllipse
10
30.867556
20
25.867511
30
0
11
1.03133846482356
21
1.32173871130998
31
0
210
0
220
0
230
1
40
0.984184
41
2.23914718468236
42
-2.99963111898197
0
ELLIPSE
5
E9
100
AcDbEntity
8
1
62
256
6
ByLayer
370
-1
48
1
60
0
100
AcDbEllipse
10
30.867556
20
25.867511
30
0
11
1.03133846482356
21
1.32173871130998
31
0
210
0
220
0
230
1
40
0.984184
41
-0.902445468907432
42
0.14196153460783
0
ELLIPSE
5
EA
100
AcDbEntity
8
1
62
256
6
ByLayer
370
-1
48
1
60
0
100
AcDbEllipse
10
31.063081
20
25.714944
30
0
11
1.61483058166529
21
2.06952825361688
31
0
210
0
220
0
230
1
40
0.984184
41
-1.60716656164935
42
-0.915906531237214
0
ELLIPSE
5
EB
100
AcDbEntity
8
1
62
256
6
ByLayer
370
-1
48
1
60
0
100
AcDbEllipse
10
31.063081
20
25.714944
30
0
11
1.61483058166529
21
2.06952825361688
31
0
210
0
220
0
230
1
40
0.984184
41
-3.14154017108815
42
-2.91573813734903
0
ELLIPSE
5
EC
100
AcDbEntity
8
1
62
256
6
ByLayer
370
-1
48
1
60
0
100
AcDbEllipse
10
31.063081
20
25.714944
30
0
11
1.61483058166529
21
2.06952825361688
31
0
210
0
220
0
230
1
40
0.984184
41
0
42
0.641428359158288
0
ELLIPSE
5
ED
100
AcDbEntity
8
1
62
256
6
ByLayer
370
-1
48
1
60
0
100
AcDbEllipse
10
31.063081
20
25.714944
30
0
11
1.61483058166529
21
2.06952825361688
31
0
210
0
220
0
230
1
40
0.984184
41
-0.915906914426548
42
0
0
ELLIPSE
5
EE
100
AcDbEntity
8
1
62
256
6
ByLayer
370
-1
48
1
60
0
100
AcDbEllipse
10
30.867556
20
25.867511
30
0
11
1.1073123988562
21
1.41910508819444
31
0
210
0
220
0
230
1
40
0.984184
41
0
42
6.28318530717959
0
ELLIPSE
5
EF
100
AcDbEntity
8
1
62
256
6
ByLayer
370
-1
48
1
60
0
100
AcDbEllipse
10
29.444251
20
26.628527
30
0
11
-0.42200905867519
21
-0.540836716945217
31
0
210
0
220
0
230
1
40
0.984184
41
1.71694368292474
42
2.50093432654553
0
ELLIPSE
5
F0
100
AcDbEntity
8
1
62
256
6
ByLayer
370
-1
48
1
60
0
100
AcDbEllipse
10
30.905453
20
25.837939
30
0
11
0.742206894011111
21
0.951194604948103
31
0
210
0
220
0
230
1
40
0.984184
41
-2.54227442911423
42
-2.40420916229043
0
ELLIPSE
5
F1
100
AcDbEntity
8
1
62
256
6
ByLayer
370
-1
48
1
60
0
100
AcDbEllipse
10
29.440509
20
24.752016
30
0
11
-0.42200905867519
21
-0.540836716945217
31
0
210
0
220
0
230
1
40
0.984184
41
2.76135068643998
42
-3.14158691983542
0
ELLIPSE
5
F2
100
AcDbEntity
8
1
62
256
6
ByLayer
370
-1
48
1
60
0
100
AcDbEllipse
10
31.066573
20
25.71222
30
0
11
-0.742206894011102
21
-0.95119460494811
31
0
210
0
220
0
230
1
40
0.984184
41
-1.42464897066506
42
-0.380241967149802
0
ELLIPSE
5
F3
100
AcDbEntity
8
1
62
256
6
ByLayer
370
-1
48
1
60
0
100
AcDbEllipse
10
30.375426
20
24.513073
30
0
11
-0.17963067803667
21
-0.230210380973766
31
0
210
0
220
0
230
1
40
0.984184
41
-1.16423261077059
42
-0.452393405611681
0
ELLIPSE
5
F4
100
AcDbEntity
8
1
62
256
6
ByLayer
370
-1
48
1
60
0
100
AcDbEllipse
10
29.440509
20
24.752016
30
0
11
-0.42200905867519
21
-0.540836716945217
31
0
210
0
220
0
230
1
40
0.984184
41
1.97736004281919
42
2.76135068643998
0
ELLIPSE
5
F5
100
AcDbEntity
8
1
62
256
6
ByLayer
370
-1
48
1
60
0
100
AcDbEllipse
10
29.695645
20
25.693694
30
0
11
-0.17963067803667
21
-0.230210380973766
31
0
210
0
220
0
230
1
40
0.984184
41
-2.20863961428587
42
-0.491525861936385
0
ELLIPSE
5
F6
100
AcDbEntity
8
1
62
256
6
ByLayer
370
-1
48
1
60
0
100
AcDbEllipse
10
30.867556
20
25.867511
30
0
11
1.03133846482356
21
1.32173871130998
31
0
210
0
220
0
230
1
40
0.984184
41
1.19474018116711
42
2.23914718468236
0
ELLIPSE
5
F7
100
AcDbEntity
8
1
62
256
6
ByLayer
370
-1
48
1
60
0
100
AcDbEllipse
10
31.733455
20
-25.689786
30
0
11
-0.443669938052652
21
1.69282514928989
31
0
210
0
220
0
230
1
40
0.989523
41
-2.17659192295092
42
0
0
ELLIPSE
5
F8
100
AcDbEntity
8
1
62
256
6
ByLayer
370
-1
48
1
60
0
100
AcDbEllipse
10
31.733455
20
-25.689786
30
0
11
-0.443669938052652
21
1.69282514928989
31
0
210
0
220
0
230
1
40
0.989523
41
0
42
0.308604743855163
0
ELLIPSE
5
F9
100
AcDbEntity
8
1
62
256
6
ByLayer
370
-1
48
1
60
0
100
AcDbEllipse
10
31.426201
20
-25.770314
30
0
11
-0.443669938052652
21
1.69282514928989
31
0
210
0
220
0
230
1
40
0.989523
41
0
42
0.0703911520302418
0
ELLIPSE
5
FA
100
AcDbEntity
8
1
62
256
6
ByLayer
370
-1
48
1
60
0
100
AcDbEllipse
10
31.258307
20
-25.814317
30
0
11
-0.460896803193592
21
1.75855435033066
31
0
210
0
220
0
230
1
40
0.989523
41
-0.256882424069337
42
-0.0574894028732793
0
ELLIPSE
5
FB
100
AcDbEntity
8
1
62
256
6
ByLayer
370
-1
48
1
60
0
100
AcDbEllipse
10
31.78932
20
-25.675145
30
0
11
-0.34225966649776
21
1.30589368659506
31
0
210
0
220
0
230
1
40
0.989523
41
2.77593310104404
42
0
0
ELLIPSE
5
FC
100
AcDbEntity
8
1
62
256
6
ByLayer
370
-1
48
1
60
0
100
AcDbEllipse
10
31.78932
20
-25.675145
30
0
11
-0.34225966649776
21
1.30589368659506
31
0
210
0
220
0
230
1
40
0.989523
41
0
42
1.16724070749752
0
ELLIPSE
5
FD
100
AcDbEntity
8
1
62
256
6
ByLayer
370
-1
48
1
60
0
100
AcDbEllipse
10
30.867556
20
1.146247
30
0
11
-1.78221103375585
21
0.252435796112404
31
0
210
0
220
0
230
1
40
0.090923
41
0
42
6.28318530717959
0
ELLIPSE
5
FE
100
AcDbEntity
8
1
62
256
6
ByLayer
370
-1
48
1
60
0
100
AcDbEllipse
10
30.906024
20
1.417836
30
0
11
-2.59905775756061
21
0.368135535997255
31
0
210
0
220
0
230
1
40
0.090923
41
-1.29999741609644
42
-2.79099086888317E-15
0
ELLIPSE
5
FF
100
AcDbEntity
8
1
62
256
6
ByLayer
370
-1
48
1
60
0
100
AcDbEllipse
10
30.906024
20
1.417836
30
0
11
-2.59905775756061
21
0.368135535997255
31
0
210
0
220
0
230
1
40
0.090923
41
0
42
0.227601125286157
0
ELLIPSE
5
100
100
AcDbEntity
8
1
62
256
6
ByLayer
370
-1
48
1
60
0
100
AcDbEllipse
10
30.867556
20
1.146247
30
0
11
-1.65993155449538
21
0.235115895656914
31
0
210
0
220
0
230
1
40
0.090923
41
-1.03353099767183
42
0.0108760058434284
0
ELLIPSE
5
101
100
AcDbEntity
8
1
62
256
6
ByLayer
370
-1
48
1
60
0
100
AcDbEllipse
10
30.867556
20
1.146247
30
0
11
-1.65993155449538
21
0.235115895656914
31
0
210
0
220
0
230
1
40
0.090923
41
1.05528300935868
42
2.10806165591796
0
ELLIPSE
5
102
100
AcDbEntity
8
1
62
256
6
ByLayer
370
-1
48
1
60
0
100
AcDbEllipse
10
30.867556
20
1.146247
30
0
11
-1.65993155449538
21
0.235115895656914
31
0
210
0
220
0
230
1
40
0.090923
41
2.10806165591796
42
-3.13071664774637
0
ELLIPSE
5
103
100
AcDbEntity
8
1
62
256
6
ByLayer
370
-1
48
1
60
0
100
AcDbEllipse
10
30.867556
20
1.146247
30
0
11
-1.65993155449538
21
0.235115895656914
31
0
210
0
220
0
230
1
40
0.090923
41
0.0108760058434284
42
1.05528300935868
0
ELLIPSE
5
104
100
AcDbEntity
8
1
62
256
6
ByLayer
370
-1
48
1
60
0
100
AcDbEllipse
10
30.867556
20
1.146247
30
0
11
-1.65993155449538
21
0.235115895656914
31
0
210
0
220
0
230
1
40
0.090923
41
-3.13071664774637
42
-2.08630964423111
0
ELLIPSE
5
105
100
AcDbEntity
8
1
62
256
6
ByLayer
370
-1
48
1
60
0
100
AcDbEllipse
10
30.867556
20
1.146247
30
0
11
-1.65993155449538
21
0.235115895656914
31
0
210
0
220
0
230
1
40
0.090923
41
-2.08630964423111
42
-1.03353099767183
0
POINT
5
42
100
AcDbEntity
8
2
62
256
6
ByLayer
370
-1
48
1
60
0
100
AcDbPoint
10
40
20
31.42
30
0
39
0
210
0
220
0
230
1
50
360
0
POINT
5
44
100
AcDbEntity
8
81
62
256
6
ByLayer
370
-1
48
1
60
0
100
AcDbPoint
10
40
20
31.42
30
0
39
0
210
0
220
0
230
1
50
360
0
POINT
5
46
100
AcDbEntity
8
80
62
256
6
ByLayer
370
-1
48
1
60
0
100
AcDbPoint
10
0
20
0
30
0
39
0
210
0
220
0
230
1
50
360
0
SPLINE
5
106
100
AcDbEntity
8
1
62
256
6
ByLayer
370
-1
48
1
60
0
100
AcDbSpline
70
4
71
2
72
6
73
3
40
0
40
0
40
0
40
1
40
1
40
1
41
1
10
23.6029171506837
20
7.30519432225969
30
-1E-15
41
1
10
23.4039680780489
20
6.73551619078319
30
-1E-15
41
1
10
23.2050123207769
20
6.16593152471111
30
-1E-15
0
SPLINE
5
107
100
AcDbEntity
8
1
62
256
6
ByLayer
370
-1
48
1
60
0
100
AcDbSpline
70
4
71
2
72
6
73
3
40
0
40
0
40
0
40
1
40
1
40
1
41
1
10
22.1152687103981
20
3.04698062466983
30
-1.1E-15
41
1
10
21.7990934294137
20
2.1423015866219
30
-1.1E-15
41
1
10
21.4829012696619
20
1.23785854953846
30
-1.1E-15
0
SPLINE
5
108
100
AcDbEntity
8
1
62
256
6
ByLayer
370
-1
48
1
60
0
100
AcDbSpline
70
4
71
3
72
19
73
15
40
0
40
0
40
0
40
0
40
0.154841431032631
40
0.291452514326127
40
0.409833342243661
40
0.509977033953104
40
0.591879998890653
40
0.655548057538011
40
0.701009683096975
40
0.735916799154627
40
0.782440788741501
40
0.841994974600303
40
0.914552804506417
40
1
40
1
40
1
40
1
41
1
10
39.9943666373106
20
-0.704900732723502
30
0
41
1
10
39.9701165986051
20
-0.378434700178786
30
0
41
1
10
39.9257286875277
20
0.236028754355033
30
0
41
1
10
39.8666055685671
20
1.09986945065799
30
0
41
1
10
39.8179493058152
20
1.84854604167157
30
0
41
1
10
39.7790065542625
20
2.48232394429894
30
0
41
1
10
39.7490093726117
20
3.00140755282391
30
0
41
1
10
39.727325393468
20
3.40609814293447
30
0
41
1
10
39.7122347763002
20
3.71251505541451
30
0
41
1
10
39.7005012394093
20
3.98543729601386
30
0
41
1
10
39.6883857551073
20
4.2892000334196
30
0
41
1
10
39.6745887883055
20
4.67446275904993
30
0
41
1
10
39.6591503137792
20
5.14386465857189
30
0
41
1
10
39.652808779427
20
5.48508199925257
30
0
41
1
10
39.650464655069
20
5.66968550941476
30
0
0
SPLINE
5
109
100
AcDbEntity
8
1
62
256
6
ByLayer
370
-1
48
1
60
0
100
AcDbSpline
70
4
71
3
72
9
73
5
40
0
40
0
40
0
40
0
40
0.113455735350529
40
1
40
1
40
1
40
1
41
1
10
22.5265946601033
20
3.15127166169361
30
-1.1E-15
41
1
10
22.5145992909271
20
3.11149371017939
30
-1.1E-15
41
1
10
22.4087862038648
20
2.76052961122448
30
-1.1E-15
41
1
10
22.3022387885239
20
2.40719847666188
30
-1.1E-15
41
1
10
22.207164829133
20
2.0906807952461
30
-1.1E-15
0
SPLINE
5
10A
100
AcDbEntity
8
1
62
256
6
ByLayer
370
-1
48
1
60
0
100
AcDbSpline
70
4
71
3
72
8
73
4
40
0
40
0
40
0
40
0
40
1
40
1
40
1
40
1
41
1
10
39.4344644364067
20
-0.689794897634556
30
0
41
1
10
39.4347078133065
20
-0.692674243577187
30
0
41
1
10
39.4432026639538
20
-0.695027965737012
30
0
41
1
10
39.4580899517804
20
-0.696544695539529
30
0
0
SPLINE
5
10B
100
AcDbEntity
8
1
62
256
6
ByLayer
370
-1
48
1
60
0
100
AcDbSpline
70
4
71
2
72
6
73
3
40
0
40
0
40
0
40
1
40
1
40
1
41
1
10
28.0971853042951
20
2.25344085116649
30
-7E-16
41
1
10
28.2856492888577
20
2.22602555402807
30
-7E-16
41
1
10
28.6619125371306
20
2.13318465976676
30
-7E-16
0
SPLINE
5
10C
100
AcDbEntity
8
1
62
256
6
ByLayer
370
-1
48
1
60
0
100
AcDbSpline
70
4
71
3
72
17
73
13
40
0
40
0
40
0
40
0
40
0.143857220313588
40
0.26574604135816
40
0.365477543916963
40
0.443010037338121
40
0.500758435494657
40
0.576550144540428
40
0.683435141085073
40
0.821459556892299
40
0.99063222204619
40
1
40
1
40
1
40
1
41
1
10
39.6504647963861
20
-4.61170753682666
30
0
41
1
10
39.6528344396289
20
-4.42667579691067
30
0
41
1
10
39.6591780808667
20
-4.08497862948147
30
0
41
1
10
39.6744852949908
20
-3.61537152701354
30
0
41
1
10
39.6880617878078
20
-3.23110960815882
30
0
41
1
10
39.6999246089287
20
-2.92945997445651
30
0
41
1
10
39.7114302470833
20
-2.65890230481273
30
0
41
1
10
39.7263539794831
20
-2.35340092630611
30
0
41
1
10
39.7479118283606
20
-1.94729968263968
30
0
41
1
10
39.7778575732418
20
-1.42413816580708
30
0
41
1
10
39.8021729476079
20
-1.02463914683773
30
0
41
1
10
39.8162671656217
20
-0.799384058012691
30
0
41
1
10
39.8170077102014
20
-0.78756538320107
30
0
0
SPLINE
5
10D
100
AcDbEntity
8
1
62
256
6
ByLayer
370
-1
48
1
60
0
100
AcDbSpline
70
4
71
3
72
9
73
5
40
0
40
0
40
0
40
0
40
0.210092739657054
40
1
40
1
40
1
40
1
41
1
10
39.9046623318281
20
0.546450362410695
30
0
41
1
10
39.9107010237415
20
0.634529058469298
30
0
41
1
10
39.9396746877494
20
1.05377179556882
30
0
41
1
10
39.9697403986107
20
1.47306938357426
30
0
41
1
10
39.9941748349583
20
1.80429095690786
30
0
0
SPLINE
5
10E
100
AcDbEntity
8
1
62
256
6
ByLayer
370
-1
48
1
60
0
100
AcDbSpline
70
4
71
2
72
6
73
3
40
0
40
0
40
0
40
1
40
1
40
1
41
1
10
39.3942991297624
20
24.3851939941906
30
0
41
1
10
39.4119380430577
20
25.0222526770833
30
0
41
1
10
39.4427881866058
20
25.5945996640574
30
0
0
SPLINE
5
10F
100
AcDbEntity
8
1
62
256
6
ByLayer
370
-1
48
1
60
0
100
AcDbSpline
70
4
71
3
72
16
73
12
40
0
40
0
40
0
40
0
40
0.0141437534296106
40
0.0522050928005332
40
0.107371335598064
40
0.180218165229769
40
0.291393229925497
40
0.428804482799945
40
0.592665320243174
40
0.783069037725134
40
1
40
1
40
1
40
1
41
1
10
39.4432237780482
20
26.8765865143281
30
0
41
1
10
39.4458756014074
20
26.8950739720001
30
0
41
1
10
39.4551467678208
20
26.9576009092282
30
0
41
1
10
39.471423386155
20
27.0580345587478
30
0
41
1
10
39.4958883149533
20
27.1941163123257
30
0
41
1
10
39.531161546033
20
27.3704540684539
30
0
41
1
10
39.5802395357381
20
27.590283269101
30
0
41
1
10
39.6463474843138
20
27.8569839649251
30
0
41
1
10
39.7287764135702
20
28.162865607663
30
0
41
1
10
39.8275490997635
20
28.5084456860377
30
0
41
1
10
39.8979286418991
20
28.7513573637802
30
0
41
1
10
39.9356220754731
20
28.8793165636813
30
0
0
SPLINE
5
110
100
AcDbEntity
8
1
62
256
6
ByLayer
370
-1
48
1
60
0
100
AcDbSpline
70
4
71
3
72
8
73
4
40
0
40
0
40
0
40
0
40
1
40
1
40
1
40
1
41
1
10
33.5281247487413
20
26.8902221094521
30
0
41
1
10
33.5105590407126
20
26.9244454478935
30
0
41
1
10
33.492213570175
20
26.9584387730517
30
0
41
1
10
33.4730807987693
20
26.9922100116415
30
0
0
SPLINE
5
111
100
AcDbEntity
8
1
62
256
6
ByLayer
370
-1
48
1
60
0
100
AcDbSpline
70
4
71
3
72
24
73
20
40
0
40
0
40
0
40
0
40
0.187452816847446
40
0.350540756344393
40
0.489357252002943
40
0.587356928920428
40
0.668633696508208
40
0.72107005030492
40
0.762858404746319
40
0.779006348410696
40
0.785184217864294
40
0.790500871401737
40
0.795480738990878
40
0.800745082757578
40
0.806824160633205
40
0.814067868961955
40
0.857583288325142
40
0.927173511511582
40
1
40
1
40
1
40
1
41
1
10
39.9033294754337
20
-28.6947870444265
30
0
41
1
10
39.8751866478515
20
-28.6167170480155
30
0
41
1
10
39.8212031481386
20
-28.464129807068
30
0
41
1
10
39.7426222148192
20
-28.237256611972
30
0
41
1
10
39.6754307016622
20
-28.0346622832201
30
0
41
1
10
39.6195811363248
20
-27.8554284138732
30
0
41
1
10
39.5771432770405
20
-27.7094116140612
30
0
41
1
10
39.5424579986149
20
-27.5803906446811
30
0
41
1
10
39.5200381368519
20
-27.4907271731436
30
0
41
1
10
39.5036537155913
20
-27.4217155937463
30
0
41
1
10
39.4951914601796
20
-27.3853705396062
30
0
41
1
10
39.4896768526681
20
-27.3615060849559
30
0
41
1
10
39.4844765171116
20
-27.3389338553734
30
0
41
1
10
39.4797729071352
20
-27.3185751762611
30
0
41
1
10
39.4755431876199
20
-27.3004421997368
30
0
41
1
10
39.465619886661
20
-27.2586578543306
30
0
41
1
10
39.456422503735
20
-27.22521368617
30
0
41
1
10
39.4482704416409
20
-27.204933875429
30
0
41
1
10
39.4445993163897
20
-27.2023920879504
30
0
41
1
10
39.4431263870823
20
-27.2028547286274
30
0
0
SPLINE
5
112
100
AcDbEntity
8
1
62
256
6
ByLayer
370
-1
48
1
60
0
100
AcDbSpline
70
4
71
3
72
9
73
5
40
0
40
0
40
0
40
0
40
0.107358432996065
40
1
40
1
40
1
40
1
41
1
10
31.0290204296539
20
-23.7693239224224
30
-1E-16
41
1
10
31.0385121418913
20
-23.7679292867403
30
-1E-16
41
1
10
31.1271313793325
20
-23.7555654600519
30
-1E-16
41
1
10
31.2177612873581
20
-23.7489987520883
30
-1E-16
41
1
10
31.2991090397954
20
-23.7483678641374
30
-1E-16
0
SPLINE
5
113
100
AcDbEntity
8
1
62
256
6
ByLayer
370
-1
48
1
60
0
100
AcDbSpline
70
4
71
3
72
12
73
8
40
0
40
0
40
0
40
0
40
0.405951051175525
40
0.405951051175525
40
0.812361885953474
40
0.812361885953474
40
1
40
1
40
1
40
1
41
1
10
38.5534825789686
20
-5.95295740053342
30
-1E-16
41
1
10
38.6080092548701
20
-5.94280655559737
30
-1E-16
41
1
10
38.6603451260096
20
-5.89446388483336
30
-1E-16
41
1
10
38.7526696466434
20
-5.72934544660026
30
-1E-16
41
1
10
38.7939332072674
20
-5.61021762179408
30
-1E-16
41
1
10
38.842682989615
20
-5.39685370727565
30
-1E-16
41
1
10
38.8565953454275
20
-5.32304068489293
30
-1E-16
41
1
10
38.8687614358081
20
-5.24432967042335
30
-1E-16
0
SPLINE
5
114
100
AcDbEntity
8
1
62
256
6
ByLayer
370
-1
48
1
60
0
100
AcDbSpline
70
4
71
3
72
8
73
4
40
0
40
0
40
0
40
0
40
1
40
1
40
1
40
1
41
1
10
23.5855019404881
20
23.6110733039603
30
-1E-15
41
1
10
23.5740094847435
20
23.6114331741686
30
-1E-15
41
1
10
23.5626396448742
20
23.6116517435294
30
-1E-15
41
1
10
23.5514412352301
20
23.6117327998373
30
-1E-15
0
SPLINE
5
115
100
AcDbEntity
8
1
62
256
6
ByLayer
370
-1
48
1
60
0
100
AcDbSpline
70
4
71
3
72
8
73
4
40
0
40
0
40
0
40
0
40
1
40
1
40
1
40
1
41
1
10
37.8209025189423
20
-7.59306720556026
30
-1E-16
41
1
10
38.0039433216032
20
-7.89653895931627
30
-1E-16
41
1
10
38.1903750334183
20
-8.19814215159852
30
-1E-16
41
1
10
38.3797766305933
20
-8.49798909581443
30
-1E-16
0
SPLINE
5
116
100
AcDbEntity
8
1
62
256
6
ByLayer
370
-1
48
1
60
0
100
AcDbSpline
70
4
71
3
72
16
73
12
40
0
40
0
40
0
40
0
40
0.0095519896307626
40
0.0095519896307626
40
0.149389215248239
40
0.149389215248239
40
0.326426577590698
40
0.326426577590698
40
0.664380414408667
40
0.664380414408667
40
1
40
1
40
1
40
1
41
1
10
-3.5358875436E-06
20
-6.12750353588751
30
1.1E-15
41
1
10
3.5358873731E-06
20
-6.1274964641126
30
1.1E-15
41
1
10
3.11125053685E-05
20
-6.12746888749462
30
1.1E-15
41
1
10
0.0009844163715371
20
-6.12651558362845
30
1.1E-15
41
1
10
0.0083958510778785
20
-6.11910414892211
30
1.1E-15
41
1
10
0.0351663116528869
20
-6.09233368834708
30
1.1E-15
41
1
10
0.0574261952951218
20
-6.07007380470486
30
1.1E-15
41
1
10
0.133306932581803
20
-5.99419306741819
30
1.1E-15
41
1
10
0.198931594691217
20
-5.92856840530877
30
1.1E-15
41
1
10
0.340676444506926
20
-5.78682355549304
30
1.1E-15
41
1
10
0.419489874176691
20
-5.70801012582331
30
1.1E-15
41
1
10
0.499999999999943
20
-5.62750000000005
30
1.1E-15
0
SPLINE
5
117
100
AcDbEntity
8
1
62
256
6
ByLayer
370
-1
48
1
60
0
100
AcDbSpline
70
4
71
3
72
10
73
6
40
0
40
0
40
0
40
0
40
0.5
40
0.5
40
1
40
1
40
1
40
1
41
1
10
21.4639325993587
20
23.7764966641295
30
-1.1E-15
41
1
10
20.4384916888264
20
23.9376951215318
30
-1.2E-15
41
1
10
19.7212825761901
20
24.0630670983026
30
-1.2E-15
41
1
10
18.6397850506135
20
24.190236845628
30
5E-16
41
1
10
18.269929836459
20
24.1930464432481
30
4E-16
41
1
10
18.0201277842029
20
24.1144837761236
30
4E-16
0
SPLINE
5
118
100
AcDbEntity
8
1
62
256
6
ByLayer
370
-1
48
1
60
0
100
AcDbSpline
70
4
71
3
72
18
73
14
40
0
40
0
40
0
40
0
40
0.25
40
0.25
40
0.375
40
0.375
40
0.5
40
0.5
40
0.625
40
0.625
40
0.75
40
0.75
40
1
40
1
40
1
40
1
41
1
10
35.6415908958667
20
-25.008107699541
30
-3E-16
41
1
10
35.7505822245876
20
-24.4982850032668
30
-3E-16
41
1
10
35.738083446372
20
-23.9437714412024
30
-3E-16
41
1
10
35.300981306932
20
-23.1282373109365
30
-3E-16
41
1
10
35.0832427642414
20
-22.8631816977599
30
-3E-16
41
1
10
34.4203201273811
20
-22.4465937678781
30
-3E-16
41
1
10
33.9695009515753
20
-22.3157279218304
30
-4E-16
41
1
10
33.0362174033554
20
-22.3447019848834
30
-4E-16
41
1
10
32.5840865110907
20
-22.4961206691174
30
-5E-16
41
1
10
31.862361893166
20
-22.8992901518933
30
-5E-16
41
1
10
31.5729315948689
20
-23.1521998835814
30
-5E-16
41
1
10
30.8863367065374
20
-23.9324991875801
30
-6E-16
41
1
10
30.6498104954049
20
-24.4868177163123
30
-6E-16
41
1
10
30.5412879475581
20
-25.0051620426492
30
-6E-16
0
SPLINE
5
119
100
AcDbEntity
8
1
62
256
6
ByLayer
370
-1
48
1
60
0
100
AcDbSpline
70
4
71
3
72
10
73
6
40
0
40
0
40
0
40
0
40
0.0915266176299373
40
0.0915266176299373
40
1
40
1
40
1
40
1
41
1
10
23.2790470198025
20
-29.5880409686792
30
-1E-16
41
1
10
23.2746249042706
20
-29.5997817647686
30
-1E-16
41
1
10
23.270341303697
20
-29.6116440587025
30
-1E-16
41
1
10
23.2254278320367
20
-29.7413435093233
30
-1E-16
41
1
10
23.1975787357134
20
-29.8714649829363
30
-1E-16
41
1
10
23.1786714781723
20
-30.0098201452093
30
-1E-16
0
SPLINE
5
11A
100
AcDbEntity
8
1
62
256
6
ByLayer
370
-1
48
1
60
0
100
AcDbSpline
70
4
71
3
72
8
73
4
40
0
40
0
40
0
40
0
40
1
40
1
40
1
40
1
41
1
10
23.55144123523
20
4.58128301753675
30
-1E-15
41
1
10
23.5731645612773
20
4.55320014685793
30
-1E-15
41
1
10
23.5950806303328
20
4.52471906437529
30
-1E-15
41
1
10
23.6170718104977
20
4.49599702448586
30
-1E-15
0
SPLINE
5
11B
100
AcDbEntity
8
1
62
256
6
ByLayer
370
-1
48
1
60
0
100
AcDbSpline
70
4
71
3
72
12
73
8
40
0
40
0
40
0
40
0
40
0.383381910748542
40
0.383381910748542
40
0.770178422259851
40
0.770178422259851
40
1
40
1
40
1
40
1
41
1
10
23.5267944146547
20
-30.3018176416013
30
-1E-16
41
1
10
23.3933793023782
20
-30.2525427679115
30
-1E-16
41
1
10
23.2879351710065
20
-30.2058040138845
30
-1E-16
41
1
10
23.1509814475797
20
-30.1228833472667
30
-1E-16
41
1
10
23.1182898893886
20
-30.0856119474341
30
-1E-16
41
1
10
23.1293211900756
20
-30.037864311363
30
-1E-16
41
1
10
23.1472930811474
20
-30.0223771228698
30
-1E-16
41
1
10
23.1786714781723
20
-30.0098201452093
30
-1E-16
0
SPLINE
5
11C
100
AcDbEntity
8
1
62
256
6
ByLayer
370
-1
48
1
60
0
100
AcDbSpline
70
4
71
3
72
8
73
4
40
0
40
0
40
0
40
0
40
1
40
1
40
1
40
1
41
1
10
23.0237807530002
20
3.27588586605751
30
-1E-15
41
1
10
22.5037684062898
20
3.33678528960874
30
-1.1E-15
41
1
10
21.9838181071031
20
3.3976510473735
30
-1.1E-15
41
1
10
21.4639325993587
20
3.45848182510841
30
-1.1E-15
0
SPLINE
5
11D
100
AcDbEntity
8
1
62
256
6
ByLayer
370
-1
48
1
60
0
100
AcDbSpline
70
4
71
3
72
10
73
6
40
0
40
0
40
0
40
0
40
0.0484800004282744
40
0.0484800004282744
40
1
40
1
40
1
40
1
41
1
10
16.2261061056977
20
-22.7474867348512
30
0
41
1
10
16.2261166193194
20
-22.747472467674
30
0
41
1
10
16.2261601729262
20
-22.7475238779692
30
0
41
1
10
16.2277371268179
20
-22.749930037408
30
0
41
1
10
16.242471928822
20
-22.7776133090461
30
0
41
1
10
16.2666189857525
20
-22.8299372692449
30
0
0
SPLINE
5
11E
100
AcDbEntity
8
1
62
256
6
ByLayer
370
-1
48
1
60
0
100
AcDbSpline
70
4
71
3
72
8
73
4
40
0
40
0
40
0
40
0
40
1
40
1
40
1
40
1
41
1
10
23.6873291604635
20
23.6046829599915
30
-1E-15
41
1
10
23.6529877127845
20
23.6079052434205
30
-1E-15
41
1
10
23.6185384302217
20
23.6100388124028
30
-1E-15
41
1
10
23.5855019404881
20
23.6110733039603
30
-1E-15
0
SPLINE
5
11F
100
AcDbEntity
8
1
62
256
6
ByLayer
370
-1
48
1
60
0
100
AcDbSpline
70
4
71
3
72
8
73
4
40
0
40
0
40
0
40
0
40
1
40
1
40
1
40
1
41
1
10
23.4895760263322
20
-19.6346356308001
30
-1E-15
41
1
10
22.7831723191124
20
-19.3597727811278
30
-1.1E-15
41
1
10
22.1083495523971
20
-19.0296169280454
30
-1.1E-15
41
1
10
21.4639325993587
20
-18.6448636248594
30
-1.1E-15
0
SPLINE
5
120
100
AcDbEntity
8
1
62
256
6
ByLayer
370
-1
48
1
60
0
100
AcDbSpline
70
4
71
3
72
8
73
4
40
0
40
0
40
0
40
0
40
1
40
1
40
1
40
1
41
1
10
37.5872540645962
20
-0.250994692788026
30
-1E-16
41
1
10
37.5886713232727
20
-0.358112927564292
30
-1E-16
41
1
10
37.5923730396166
20
-0.464882465051403
30
-1E-16
41
1
10
37.5987766554565
20
-0.571239587354199
30
-1E-16
0
SPLINE
5
121
100
AcDbEntity
8
1
62
256
6
ByLayer
370
-1
48
1
60
0
100
AcDbSpline
70
4
71
3
72
8
73
4
40
0
40
0
40
0
40
0
40
1
40
1
40
1
40
1
41
1
10
24.7716386383532
20
23.5357011110499
30
-9E-16
41
1
10
29.3363508155468
20
23.3814274457058
30
-7E-16
41
1
10
33.9010615206649
20
23.227138975384
30
-4E-16
41
1
10
38.4657706821729
20
23.0728350002816
30
-1E-16
0
SPLINE
5
122
100
AcDbEntity
8
1
62
256
6
ByLayer
370
-1
48
1
60
0
100
AcDbSpline
70
4
71
3
72
10
73
6
40
0
40
0
40
0
40
0
40
0.550902908038902
40
0.550902908038902
40
1
40
1
40
1
40
1
41
1
10
23.2746567363812
20
6.31975000726277
30
-1E-15
41
1
10
23.2304202975005
20
6.21773096298847
30
-1E-15
41
1
10
23.1948900199904
20
6.11059814437002
30
-1E-15
41
1
10
23.1481833141149
20
5.91123032962321
30
-1E-15
41
1
10
23.1336646884006
20
5.81921792154381
30
-1E-15
41
1
10
23.1259480793223
20
5.7267031521813
30
-1E-15
0
SPLINE
5
123
100
AcDbEntity
8
1
62
256
6
ByLayer
370
-1
48
1
60
0
100
AcDbSpline
70
4
71
3
72
8
73
4
40
0
40
0
40
0
40
0
40
1
40
1
40
1
40
1
41
1
10
35.6415908958668
20
17.9311448591239
30
-3E-16
41
1
10
35.6435979765921
20
17.9446275774766
30
-3E-16
41
1
10
35.6455638187339
20
17.9581108587478
30
-3E-16
41
1
10
35.6474874101609
20
17.9715942734163
30
-3E-16
0
SPLINE
5
124
100
AcDbEntity
8
1
62
256
6
ByLayer
370
-1
48
1
60
0
100
AcDbSpline
70
4
71
3
72
18
73
14
40
0
40
0
40
0
40
0
40
0.242551652211989
40
0.242551652211989
40
0.368793043509991
40
0.368793043509991
40
0.495034434807993
40
0.495034434807993
40
0.621275826105995
40
0.621275826105995
40
0.747517217403997
40
0.747517217403997
40
1
40
1
40
1
40
1
41
1
10
35.6538298655463
20
18.0171906921084
30
-3E-16
41
1
10
35.7487525875753
20
18.717695267232
30
-3E-16
41
1
10
35.7265518849863
20
19.4172530382273
30
-3E-16
41
1
10
35.2989030904109
20
20.3878874895603
30
-3E-16
41
1
10
35.0794645003493
20
20.6991013183824
30
-3E-16
41
1
10
34.4212067684729
20
21.1881880921263
30
-3E-16
41
1
10
33.968221343509
20
21.3506629158676
30
-4E-16
41
1
10
33.0406481014097
20
21.3740307570047
30
-4E-16
41
1
10
32.5876490808863
20
21.2428944662426
30
-5E-16
41
1
10
31.8653513799541
20
20.8471892779603
30
-5E-16
41
1
10
31.5769099593006
20
20.583582208952
30
-5E-16
41
1
10
30.8868394095879
20
19.7077649480868
30
-6E-16
41
1
10
30.6501450603441
20
19.0166709105376
30
-6E-16
41
1
10
30.5412879475581
20
18.2862485215996
30
-6E-16
0
SPLINE
5
125
100
AcDbEntity
8
1
62
256
6
ByLayer
370
-1
48
1
60
0
100
AcDbSpline
70
4
71
3
72
8
73
4
40
0
40
0
40
0
40
0
40
1
40
1
40
1
40
1
41
1
10
39.2351047023027
20
-4.65743711574493
30
0
41
1
10
39.2321847283681
20
-4.5764935159647
30
0
41
1
10
39.2292671582244
20
-4.49554957739446
30
0
41
1
10
39.2263535483095
20
-4.41460508067161
30
0
0
SPLINE
5
126
100
AcDbEntity
8
1
62
256
6
ByLayer
370
-1
48
1
60
0
100
AcDbSpline
70
4
71
3
72
8
73
4
40
0
40
0
40
0
40
0
40
1
40
1
40
1
40
1
41
1
10
23.0237807530002
20
30.0820021295891
30
-2E-16
41
1
10
22.5037684062898
20
29.9487119923168
30
-2E-16
41
1
10
21.9838181071032
20
29.815162639105
30
-2E-16
41
1
10
21.4639325993587
20
29.6813444257941
30
-2E-16
0
SPLINE
5
127
100
AcDbEntity
8
1
62
256
6
ByLayer
370
-1
48
1
60
0
100
AcDbSpline
70
4
71
3
72
8
73
4
40
0
40
0
40
0
40
0
40
1
40
1
40
1
40
1
41
1
10
39.209317456416
20
-12.9213198087991
30
0
41
1
10
38.979283493903
20
-11.7833426182974
30
-1E-16
41
1
10
38.7593435087372
20
-10.6434546570936
30
-1E-16
41
1
10
38.5534825789687
20
-9.50134380994533
30
-1E-16
0
SPLINE
5
128
100
AcDbEntity
8
1
62
256
6
ByLayer
370
-1
48
1
60
0
100
AcDbSpline
70
4
71
3
72
8
73
4
40
0
40
0
40
0
40
0
40
1
40
1
40
1
40
1
41
1
10
23.585501940488
20
-19.670475584183
30
-1E-15
41
1
10
23.5740094847435
20
-19.6669915690156
30
-1E-15
41
1
10
23.5626396448741
20
-19.6630553008164
30
-1E-15
41
1
10
23.55144123523
20
-19.658700506604
30
-1E-15
0
SPLINE
5
129
100
AcDbEntity
8
1
62
256
6
ByLayer
370
-1
48
1
60
0
100
AcDbSpline
70
4
71
3
72
12
73
8
40
0
40
0
40
0
40
0
40
0.383406120997429
40
0.383406120997429
40
0.77020228792552
40
0.77020228792552
40
1
40
1
40
1
40
1
41
1
10
23.5267944146547
20
4.61314354107728
30
-1E-15
41
1
10
23.3933709225847
20
4.78560860172919
30
-1E-15
41
1
10
23.2879219162175
20
4.98414757510901
30
-1E-15
41
1
10
23.1509730480989
20
5.40336755980107
30
-1E-15
41
1
10
23.118286404932
20
5.63009022259743
30
-1E-15
41
1
10
23.1293248946493
20
5.98700127297877
30
-1E-15
41
1
10
23.1472963269476
20
6.12095848694423
30
-1E-15
41
1
10
23.1786714781724
20
6.25143209682719
30
-1E-15
0
SPLINE
5
12A
100
AcDbEntity
8
1
62
256
6
ByLayer
370
-1
48
1
60
0
100
AcDbSpline
70
4
71
3
72
10
73
6
40
0
40
0
40
0
40
0
40
0.621431873637805
40
0.621431873637805
40
1
40
1
40
1
40
1
41
1
10
37.5872540645962
20
-2.61356960378922
30
-1E-16
41
1
10
37.5911163602345
20
-2.53407405423951
30
-1E-16
41
1
10
37.6123558286533
20
-2.45752389445755
30
-1E-16
41
1
10
37.6793571206816
20
-2.34368953310235
30
-1E-16
41
1
10
37.7125624556742
20
-2.30222387208613
30
-1E-16
41
1
10
37.7535543771055
20
-2.26343128137194
30
-1E-16
0
SPLINE
5
12B
100
AcDbEntity
8
1
62
256
6
ByLayer
370
-1
48
1
60
0
100
AcDbSpline
70
4
71
3
72
8
73
4
40
0
40
0
40
0
40
0
40
1
40
1
40
1
40
1
41
1
10
23.4895760263322
20
23.6121786340926
30
-1E-15
41
1
10
22.7831723191124
20
23.6172469800195
30
-1.1E-15
41
1
10
22.1083495523971
20
23.6751948556229
30
-1.1E-15
41
1
10
21.4639325993587
20
23.7764966641295
30
-1.1E-15
0
SPLINE
5
12C
100
AcDbEntity
8
1
62
256
6
ByLayer
370
-1
48
1
60
0
100
AcDbSpline
70
4
71
3
72
8
73
4
40
0
40
0
40
0
40
0
40
1
40
1
40
1
40
1
41
1
10
23.6873291604635
20
-19.6884984358102
30
-1E-15
41
1
10
23.6529877127844
20
-19.6866921889579
30
-1E-15
41
1
10
23.6185384302216
20
-19.6804908179911
30
-1E-15
41
1
10
23.585501940488
20
-19.670475584183
30
-1E-15
0
SPLINE
5
12D
100
AcDbEntity
8
1
62
256
6
ByLayer
370
-1
48
1
60
0
100
AcDbSpline
70
4
71
3
72
16
73
12
40
0
40
0
40
0
40
0
40
0.224981640246186
40
0.224981640246186
40
0.452644622607537
40
0.452644622607537
40
0.680425954336711
40
0.680425954336711
40
0.908256207295628
40
0.908256207295628
40
1
40
1
40
1
40
1
41
1
10
37.5872540645962
20
-2.61356960378919
30
-1E-16
41
1
10
37.5817708367113
20
-2.72642792817078
30
-1E-16
41
1
10
37.5771811865411
20
-2.86641918782138
30
-1E-16
41
1
10
37.570595290652
20
-3.179813708924
30
-1E-16
41
1
10
37.5685430189956
20
-3.35792900076032
30
-1E-16
41
1
10
37.5673546557733
20
-3.72574537827634
30
-1E-16
41
1
10
37.5682041872513
20
-3.92052602917531
30
-1E-16
41
1
10
37.5726265943412
20
-4.29952933196222
30
-1E-16
41
1
10
37.5762593498635
20
-4.48898152944679
30
-1E-16
41
1
10
37.5828845334997
20
-4.7334169874099
30
-1E-16
41
1
10
37.5849915205499
20
-4.80217703646622
30
-1E-16
41
1
10
37.5872540645962
20
-4.86796531035407
30
-1E-16
0
SPLINE
5
12E
100
AcDbEntity
8
1
62
256
6
ByLayer
370
-1
48
1
60
0
100
AcDbSpline
70
4
71
3
72
8
73
4
40
0
40
0
40
0
40
0
40
1
40
1
40
1
40
1
41
1
10
23.55144123523
20
-19.658700506604
30
-1E-15
41
1
10
23.5308187214639
20
-19.6506809032453
30
-1E-15
41
1
10
23.5101969842894
20
-19.6426592796133
30
-1E-15
41
1
10
23.4895760263322
20
-19.6346356308001
30
-1E-15
0
SPLINE
5
12F
100
AcDbEntity
8
1
62
256
6
ByLayer
370
-1
48
1
60
0
100
AcDbSpline
70
4
71
3
72
10
73
6
40
0
40
0
40
0
40
0
40
0.737895412041785
40
0.737895412041785
40
1
40
1
40
1
40
1
41
1
10
37.5872540645961
20
-6.69987436426885
30
-1E-16
41
1
10
37.5926941319576
20
-6.92668232482654
30
-1E-16
41
1
10
37.63084628396
20
-7.15723121816211
30
-1E-16
41
1
10
37.7425204595644
20
-7.44715601322127
30
-1E-16
41
1
10
37.7781645228108
20
-7.52220991882638
30
-1E-16
41
1
10
37.8209025189424
20
-7.59306720556043
30
-1E-16
0
SPLINE
5
130
100
AcDbEntity
8
1
62
256
6
ByLayer
370
-1
48
1
60
0
100
AcDbSpline
70
4
71
3
72
18
73
14
40
0
40
0
40
0
40
0
40
0.173091121355952
40
0.173091121355952
40
0.345567414066696
40
0.345567414066696
40
0.528332841248947
40
0.528332841248947
40
0.741050516846367
40
0.741050516846367
40
0.991925612573265
40
0.991925612573265
40
1
40
1
40
1
40
1
41
1
10
38.4657706821729
20
23.0728350002816
30
-1E-16
41
1
10
38.5437012145427
20
23.0702006613783
30
-1E-16
41
1
10
38.6223181764733
20
23.0635008425987
30
-1E-16
41
1
10
38.7671574989459
20
23.0435392760019
30
-1E-16
41
1
10
38.8353491038482
20
23.0300740683681
30
-1E-16
41
1
10
38.9586522136545
20
22.9979038698579
30
-1E-16
41
1
10
39.0142928747862
20
22.9785809667006
30
-1E-16
41
1
10
39.1133945615951
20
22.9340521075585
30
-1E-16
41
1
10
39.1546687328224
20
22.9078864625118
30
-1E-16
41
1
10
39.2170887991993
20
22.8499071379845
30
0
41
1
10
39.2342132623183
20
22.8171921738245
30
0
41
1
10
39.2350997526275
20
22.7841966549973
30
0
41
1
10
39.2351106995891
20
22.7831583035799
30
0
41
1
10
39.2351047023027
20
22.7821204095622
30
0
0
SPLINE
5
131
100
AcDbEntity
8
1
62
256
6
ByLayer
370
-1
48
1
60
0
100
AcDbSpline
70
4
71
3
72
8
73
4
40
0
40
0
40
0
40
0
40
1
40
1
40
1
40
1
41
1
10
17.2037632013481
20
-24.9763983100409
30
-1E-16
41
1
10
17.4757892469373
20
-25.6287461574625
30
0
41
1
10
17.7479176296478
20
-26.2810510419407
30
0
41
1
10
18.0201277842029
20
-26.933321555055
30
0
0
SPLINE
5
132
100
AcDbEntity
8
1
62
256
6
ByLayer
370
-1
48
1
60
0
100
AcDbSpline
70
4
71
3
72
8
73
4
40
0
40
0
40
0
40
0
40
1
40
1
40
1
40
1
41
1
10
23.5514412352301
20
23.6117327998373
30
-1E-15
41
1
10
23.530818721464
20
23.6118820696782
30
-1E-15
41
1
10
23.5101969842895
20
23.6120306816581
30
-1E-15
41
1
10
23.4895760263322
20
23.6121786340926
30
-1E-15
0
SPLINE
5
133
100
AcDbEntity
8
1
62
256
6
ByLayer
370
-1
48
1
60
0
100
AcDbSpline
70
4
71
3
72
18
73
14
40
0
40
0
40
0
40
0
40
0.0293007458974459
40
0.0293007458974459
40
0.217832144199146
40
0.217832144199146
40
0.407952741758885
40
0.407952741758885
40
0.601082586741917
40
0.601082586741917
40
0.797312791956343
40
0.797312791956343
40
1
40
1
40
1
40
1
41
1
10
25.9926876409897
20
7.71547566843211
30
-9E-16
41
1
10
25.9865613657777
20
7.74297426227972
30
-9E-16
41
1
10
25.9796900410846
20
7.77031783965569
30
-9E-16
41
1
10
25.9235429971977
20
7.97070425354178
30
-9E-16
41
1
10
25.8435764138717
20
8.13808184076595
30
-9E-16
41
1
10
25.6336437819205
20
8.43572279645895
30
-9E-16
41
1
10
25.5004513788387
20
8.56972532431521
30
-9E-16
41
1
10
25.1982817076772
20
8.78812273488387
30
-9E-16
41
1
10
25.0246857639684
20
8.87471110324276
30
-9E-16
41
1
10
24.6602457753684
20
8.98903115184075
30
-9E-16
41
1
10
24.4641732512145
20
9.01739478220563
30
-1E-15
41
1
10
24.0729696523209
20
9.01132818178752
30
-1E-15
41
1
10
23.8723964800565
20
8.97471502823245
30
-1E-15
41
1
10
23.6873291604641
20
8.90742997469718
30
-1E-15
0
SPLINE
5
134
100
AcDbEntity
8
1
62
256
6
ByLayer
370
-1
48
1
60
0
100
AcDbSpline
70
4
71
3
72
8
73
4
40
0
40
0
40
0
40
0
40
1
40
1
40
1
40
1
41
1
10
21.4639325993587
20
3.45848182510841
30
-1.1E-15
41
1
10
19.9474719911179
20
3.63591988950807
30
-1.2E-15
41
1
10
18.6328894888659
20
3.71438657763696
30
-1.3E-15
41
1
10
18.0201277842029
20
3.66051711979236
30
-1.3E-15
0
SPLINE
5
135
100
AcDbEntity
8
1
62
256
6
ByLayer
370
-1
48
1
60
0
100
AcDbSpline
70
4
71
3
72
12
73
8
40
0
40
0
40
0
40
0
40
0.107711534402051
40
0.107711534402051
40
0.849151266005492
40
0.849151266005492
40
1
40
1
40
1
40
1
41
1
10
38.8687614358081
20
-5.24432967042333
30
-1E-16
41
1
10
38.8728789183337
20
-5.21769077357848
30
-1E-16
41
1
10
38.8768138238623
20
-5.19048903868901
30
-1E-16
41
1
10
38.9060556231345
20
-4.97408257800271
30
-1E-16
41
1
10
38.9229580640818
20
-4.75756337298387
30
-1E-16
41
1
10
38.9310280631385
20
-4.48524474563013
30
-1E-16
41
1
10
38.9319883454513
20
-4.43828665139594
30
-1E-16
41
1
10
38.9325271221217
20
-4.39096375045116
30
-1E-16
0
SPLINE
5
136
100
AcDbEntity
8
1
62
256
6
ByLayer
370
-1
48
1
60
0
100
AcDbSpline
70
4
71
3
72
14
73
10
40
0
40
0
40
0
40
0
40
0.137493572415422
40
0.137493572415422
40
0.438809089635509
40
0.438809089635509
40
0.728859335741265
40
0.728859335741265
40
1
40
1
40
1
40
1
41
1
10
17.2037632013482
20
3.58867696285654
30
-1.4E-15
41
1
10
17.150770622395
20
3.58400861154141
30
-1.4E-15
41
1
10
17.0972173870575
20
3.56873346019913
30
-1.4E-15
41
1
10
16.9282023473173
20
3.48698440650435
30
-1.4E-15
41
1
10
16.8115297554245
20
3.37903493638595
30
-1.4E-15
41
1
10
16.6032833218607
20
3.07673161604967
30
-1.4E-15
41
1
10
16.5077495826893
20
2.88058666120921
30
-1.4E-15
41
1
10
16.3590429185802
20
2.43829541159454
30
-1.4E-15
41
1
10
16.3012509943839
20
2.18854335286355
30
-1.5E-15
41
1
10
16.2666189857525
20
1.92820803809065
30
-1.5E-15
0
SPLINE
5
137
100
AcDbEntity
8
1
62
256
6
ByLayer
370
-1
48
1
60
0
100
AcDbSpline
70
4
71
3
72
20
73
16
40
0
40
0
40
0
40
0
40
0.0187285973070105
40
0.0187285973070105
40
0.203668061560313
40
0.203668061560313
40
0.389856161372294
40
0.389856161372294
40
0.57885671270801
40
0.57885671270801
40
0.770977137845068
40
0.770977137845068
40
0.965215180268587
40
0.965215180268587
40
1
40
1
40
1
40
1
41
1
10
26.0039245364497
20
-29.7705598722423
30
0
41
1
10
26.0005714809646
20
-29.7669777250522
30
0
41
1
10
25.9968972282822
20
-29.7634016644636
30
0
41
1
10
25.9539307860054
20
-29.7250149065222
30
0
41
1
10
25.8832350757838
20
-29.6905840294724
30
0
41
1
10
25.6899494225221
20
-29.6289463878291
30
0
41
1
10
25.5644268976541
20
-29.6009848814107
30
0
41
1
10
25.2750822033908
20
-29.5565808295953
30
0
41
1
10
25.1068055479601
20
-29.539745118249
30
0
41
1
10
24.7497810466444
20
-29.5209330180506
30
0
41
1
10
24.5558574253063
20
-29.5189679593926
30
-1E-16
41
1
10
24.1695477618571
20
-29.53100478279
30
-1E-16
41
1
10
23.9718472769311
20
-29.5453516959329
30
-1E-16
41
1
10
23.7534216445247
20
-29.5704496731941
30
-1E-16
41
1
10
23.720170854346
20
-29.5745375521597
30
-1E-16
41
1
10
23.6873291604641
20
-29.5788419525782
30
-1E-16
0
SPLINE
5
138
100
AcDbEntity
8
1
62
256
6
ByLayer
370
-1
48
1
60
0
100
AcDbSpline
70
4
71
3
72
8
73
4
40
0
40
0
40
0
40
0
40
1
40
1
40
1
40
1
41
1
10
37.5872540645962
20
-0.250994692788026
30
-1E-16
41
1
10
37.5864467099537
20
-0.189973789852218
30
-1E-16
41
1
10
37.5856504711647
20
-0.128952649845132
30
-1E-16
41
1
10
37.5848654422768
20
-0.0679312765890074
30
-1E-16
0
SPLINE
5
139
100
AcDbEntity
8
1
62
256
6
ByLayer
370
-1
48
1
60
0
100
AcDbSpline
70
4
71
3
72
8
73
4
40
0
40
0
40
0
40
0
40
1
40
1
40
1
40
1
41
1
10
23.67775412741
20
7.63209315994638
30
-1E-15
41
1
10
23.6726231063124
20
7.65852330619455
30
-1E-15
41
1
10
23.6734357050935
20
7.67783569108488
30
-1E-15
41
1
10
23.6821540737675
20
7.69033495869922
30
-1E-15
0
SPLINE
5
13A
100
AcDbEntity
8
1
62
256
6
ByLayer
370
-1
48
1
60
0
100
AcDbSpline
70
4
71
3
72
10
73
6
40
0
40
0
40
0
40
0
40
0.799533258224979
40
0.799533258224979
40
1
40
1
40
1
40
1
41
1
10
38.3797766305933
20
-5.86451606303993
30
-1E-16
41
1
10
38.2233753411436
20
-5.79833794173152
30
-1E-16
41
1
10
38.0677803032422
20
-5.69530199891176
30
-1E-16
41
1
10
37.8903792201362
20
-5.53048163942077
30
-1E-16
41
1
10
37.8551708497658
20
-5.49515514994158
30
-1E-16
41
1
10
37.8209025189449
20
-5.45808830364791
30
-1E-16
0
SPLINE
5
13B
100
AcDbEntity
8
1
62
256
6
ByLayer
370
-1
48
1
60
0
100
AcDbSpline
70
4
71
3
72
16
73
12
40
0
40
0
40
0
40
0
40
0.20280068537671
40
0.20280068537671
40
0.405814562136108
40
0.405814562136108
40
0.60714249811549
40
0.60714249811549
40
0.806767980137549
40
0.806767980137549
40
1
40
1
40
1
40
1
41
1
10
23.5514412352301
20
8.83479535136996
30
-1E-15
41
1
10
23.386626285562
20
8.7167192893526
30
-1E-15
41
1
10
23.2381557422558
20
8.57044380162819
30
-1E-15
41
1
10
22.9991464844893
20
8.24429463924767
30
-1E-15
41
1
10
22.9053991042395
20
8.05983862342771
30
-1E-15
41
1
10
22.7867632298839
20
7.68023392211083
30
-1.1E-15
41
1
10
22.7596945099645
20
7.47991730467916
30
-1.1E-15
41
1
10
22.7743980585561
20
7.09186018589432
30
-1.1E-15
41
1
10
22.8157881970449
20
6.89871053739614
30
-1.1E-15
41
1
10
22.9570818021765
20
6.55022816322042
30
-1E-15
41
1
10
23.0567930313871
20
6.38941100520196
30
-1E-15
41
1
10
23.1786714781724
20
6.25143209682719
30
-1E-15
0
SPLINE
5
13C
100
AcDbEntity
8
1
62
256
6
ByLayer
370
-1
48
1
60
0
100
AcDbSpline
70
4
71
3
72
8
73
4
40
0
40
0
40
0
40
0
40
1
40
1
40
1
40
1
41
1
10
16.3152374523118
20
22.9554854822937
30
0
41
1
10
16.5749502595168
20
23.5709186295404
30
0
41
1
10
17.1549592807963
20
23.8423885530224
30
4E-16
41
1
10
18.0201277842029
20
24.1144837761236
30
4E-16
0
SPLINE
5
13D
100
AcDbEntity
8
1
62
256
6
ByLayer
370
-1
48
1
60
0
100
AcDbSpline
70
4
71
3
72
16
73
12
40
0
40
0
40
0
40
0
40
0.0626187683773211
40
0.0626187683773211
40
0.353938638556823
40
0.353938638556823
40
0.637918935707467
40
0.637918935707467
40
0.840262201082175
40
0.840262201082175
40
1
40
1
40
1
40
1
41
1
10
0.499999999999943
20
5.62750000000008
30
1.1E-15
41
1
10
0.484864752606313
20
5.64263524739371
30
1.1E-15
41
1
10
0.469819783128742
20
5.65768021687129
30
1.1E-15
41
1
10
0.3858928318582
20
5.74160716814183
30
1.1E-15
41
1
10
0.318853032810637
20
5.80864696718939
30
1.1E-15
41
1
10
0.19878570757588
20
5.92871429242413
30
1.1E-15
41
1
10
0.143869069111815
20
5.98363093088821
30
1.1E-15
41
1
10
0.0677011919270427
20
6.05979880807297
30
1.1E-15
41
1
10
0.0406140099785972
20
6.08688599002144
30
1.1E-15
41
1
10
0.008604014683371
20
6.11889598531667
30
1.1E-15
41
1
10
-7.7789524511E-06
20
6.12750777895249
30
1.1E-15
41
1
10
3.3590930428E-06
20
6.127496640907
30
1.1E-15
0
SPLINE
5
13E
100
AcDbEntity
8
1
62
256
6
ByLayer
370
-1
48
1
60
0
100
AcDbSpline
70
4
71
3
72
26
73
22
40
0
40
0
40
0
40
0
40
0.105859074330631
40
0.105859074330631
40
0.211817363618672
40
0.211817363618672
40
0.317411768742984
40
0.317411768742984
40
0.42313771898492
40
0.42313771898492
40
0.529618621625343
40
0.529618621625343
40
0.637259415923431
40
0.637259415923431
40
0.746096597452028
40
0.746096597452028
40
0.855696161134348
40
0.855696161134348
40
0.965174640246727
40
0.965174640246727
40
1
40
1
40
1
40
1
41
1
10
25.2691266410877
20
7.99623817358344
30
-9E-16
41
1
10
25.1858973028102
20
8.10527033227899
30
-9E-16
41
1
10
25.0824910846043
20
8.20213960927893
30
-9E-16
41
1
10
24.8520356849486
20
8.35534599100529
30
-9E-16
41
1
10
24.7217841891395
20
8.41374783716867
30
-9E-16
41
1
10
24.4534535499375
20
8.48415255901654
30
-1E-15
41
1
10
24.3117213060695
20
8.49728283327272
30
-1E-15
41
1
10
24.0359215153644
20
8.47757400480262
30
-1E-15
41
1
10
23.8980972916541
20
8.44442176967959
30
-1E-15
41
1
10
23.6442901013746
20
8.33704634919036
30
-1E-15
41
1
10
23.5250040077614
20
8.2610872087146
30
-1E-15
41
1
10
23.3205398390108
20
8.07685168647907
30
-1E-15
41
1
10
23.2329413831087
20
7.9657329863856
30
-1E-15
41
1
10
23.101263727552
20
7.72351725612711
30
-1E-15
41
1
10
23.0558556725947
20
7.58889060754305
30
-1E-15
41
1
10
23.0137667619694
20
7.31506846683305
30
-1E-15
41
1
10
23.0168440549082
20
7.17204603430577
30
-1E-15
41
1
10
23.0711289302785
20
6.8985796983431
30
-1E-15
41
1
10
23.1230635441982
20
6.76429094240845
30
-1E-15
41
1
10
23.2191505641592
20
6.60492558100128
30
-1E-15
41
1
10
23.2448110166344
20
6.5672458095222
30
-1E-15
41
1
10
23.2724867970466
20
6.53108173277926
30
-1E-15
0
SPLINE
5
13F
100
AcDbEntity
8
1
62
256
6
ByLayer
370
-1
48
1
60
0
100
AcDbSpline
70
4
71
3
72
10
73
6
40
0
40
0
40
0
40
0
40
0.1509098097861
40
0.1509098097861
40
1
40
1
40
1
40
1
41
1
10
23.0290283065192
20
7.10937075357876
30
-1E-15
41
1
10
23.037954007482
20
7.16935019960584
30
-1E-15
41
1
10
23.0530410818077
20
7.22801016281335
30
-1E-15
41
1
10
23.196033053838
20
7.59897370967076
30
-1E-15
41
1
10
23.4830507276975
20
7.75960122372376
30
-1E-15
41
1
10
23.6000697572982
20
7.76387127386062
30
-1E-15
0
SPLINE
5
140
100
AcDbEntity
8
1
62
256
6
ByLayer
370
-1
48
1
60
0
100
AcDbSpline
70
4
71
3
72
8
73
4
40
0
40
0
40
0
40
0
40
1
40
1
40
1
40
1
41
1
10
37.5872540645961
20
-6.69987436426885
30
-1E-16
41
1
10
37.5521724115851
20
-5.23724575258305
30
-1E-16
41
1
10
37.5217590162764
20
-3.77453286450927
30
-2E-16
41
1
10
37.4979300033264
20
-2.31177372933573
30
-2E-16
0
SPLINE
5
141
100
AcDbEntity
8
1
62
256
6
ByLayer
370
-1
48
1
60
0
100
AcDbSpline
70
4
71
3
72
10
73
6
40
0
40
0
40
0
40
0
40
0.591962041861167
40
0.591962041861167
40
1
40
1
40
1
40
1
41
1
10
23.6600657078889
20
7.76532972294746
30
-1E-15
41
1
10
23.6917186878396
20
7.76572643883259
30
-1E-15
41
1
10
23.7051458729651
20
7.75459364729741
30
-1E-15
41
1
10
23.7028456697828
20
7.72446384010621
30
-1E-15
41
1
10
23.6950110264133
20
7.70876759189392
30
-1E-15
41
1
10
23.6821540737675
20
7.69033495869922
30
-1E-15
0
SPLINE
5
142
100
AcDbEntity
8
1
62
256
6
ByLayer
370
-1
48
1
60
0
100
AcDbSpline
70
4
71
2
72
6
73
3
40
0
40
0
40
0
40
1
40
1
40
1
41
0.500000034831241
10
23.5267944146547
20
4.61314354107726
30
-1E-15
41
0.499999965168759
10
23.5391162431574
20
4.59721617426135
30
-1E-15
41
0.500000034831241
10
23.5514412352301
20
4.58128301753671
30
-1E-15
0
SPLINE
5
143
100
AcDbEntity
8
1
62
256
6
ByLayer
370
-1
48
1
60
0
100
AcDbSpline
70
4
71
3
72
8
73
4
40
0
40
0
40
0
40
0
40
1
40
1
40
1
40
1
41
1
10
39.2093174564161
20
-4.40983445071095
30
0
41
1
10
39.1170035156594
20
-4.40355208153588
30
-1E-16
41
1
10
39.0247378636509
20
-4.3972621914013
30
-1E-16
41
1
10
38.9325271221217
20
-4.39096375045116
30
-1E-16
0
SPLINE
5
144
100
AcDbEntity
8
1
62
256
6
ByLayer
370
-1
48
1
60
0
100
AcDbSpline
70
4
71
3
72
8
73
4
40
0
40
0
40
0
40
0
40
1
40
1
40
1
40
1
41
1
10
21.4639325993587
20
-29.8948115873135
30
0
41
1
10
19.9474719911179
20
-29.5179972802449
30
1E-16
41
1
10
18.6328894888659
20
-28.4016223690736
30
0
41
1
10
18.0201277842029
20
-26.933321555055
30
0
0
SPLINE
5
145
100
AcDbEntity
8
1
62
256
6
ByLayer
370
-1
48
1
60
0
100
AcDbSpline
70
4
71
3
72
16
73
12
40
0
40
0
40
0
40
0
40
0.202800685376718
40
0.202800685376718
40
0.405814562136113
40
0.405814562136113
40
0.607142498115492
40
0.607142498115492
40
0.806767980137548
40
0.806767980137548
40
1
40
1
40
1
40
1
41
1
10
23.55144123523
20
-29.5828956060574
30
-1E-16
41
1
10
23.386626285562
20
-29.5708657262467
30
-1E-16
41
1
10
23.2381557422558
20
-29.5692625671659
30
-1E-16
41
1
10
22.9991464844893
20
-29.5856074213623
30
-2E-16
41
1
10
22.9053991042395
20
-29.6037683889014
30
-2E-16
41
1
10
22.7867632298839
20
-29.6554603928889
30
-2E-16
41
1
10
22.7596945099644
20
-29.6895568337101
30
-2E-16
41
1
10
22.7743980585561
20
-29.7679650338615
30
-2E-16
41
1
10
22.8157881970448
20
-29.813266332627
30
-2E-16
41
1
10
22.9570818021764
20
-29.9080376006245
30
-2E-16
41
1
10
23.056793031387
20
-29.9585583698235
30
-1E-16
41
1
10
23.1786714781723
20
-30.0098201452093
30
-1E-16
0
SPLINE
5
146
100
AcDbEntity
8
1
62
256
6
ByLayer
370
-1
48
1
60
0
100
AcDbSpline
70
4
71
3
72
10
73
6
40
0
40
0
40
0
40
0
40
0.28387032542608
40
0.28387032542608
40
1
40
1
40
1
40
1
41
1
10
16.2304294713687
20
1.14505431021124
30
-1.5E-15
41
1
10
16.2270476955891
20
1.2188572140802
30
-1.5E-15
41
1
10
16.2256404436913
20
1.29348601615533
30
-1.5E-15
41
1
10
16.2277371268174
20
1.55591992266082
30
-1.5E-15
41
1
10
16.2424719288215
20
1.74669007492886
30
-1.5E-15
41
1
10
16.2666189857525
20
1.92820803809065
30
-1.5E-15
0
SPLINE
5
147
100
AcDbEntity
8
1
62
256
6
ByLayer
370
-1
48
1
60
0
100
AcDbSpline
70
4
71
3
72
16
73
12
40
0
40
0
40
0
40
0
40
0.0944615904564325
40
0.0944615904564325
40
0.359391468156458
40
0.359391468156458
40
0.623076060211857
40
0.623076060211857
40
0.884002282724636
40
0.884002282724636
40
1
40
1
40
1
40
1
41
1
10
37.4979300033264
20
-2.31177372933573
30
-2E-16
41
1
10
37.4966387828755
20
-2.23251133965633
30
-2E-16
41
1
10
37.4955517583511
20
-2.15179006268926
30
-2E-16
41
1
10
37.4922639514056
20
-1.84382244726126
30
-2E-16
41
1
10
37.4915477133205
20
-1.60815829054704
30
-2E-16
41
1
10
37.493691212315
20
-1.15933543545151
30
-2E-16
41
1
10
37.4965643025557
20
-0.939815152653495
30
-2E-16
41
1
10
37.5053116739012
20
-0.5489653916419
30
-2E-16
41
1
10
37.5112728972769
20
-0.371729484394223
30
-2E-16
41
1
10
37.5213708053693
20
-0.162503723600821
30
-2E-16
41
1
10
37.5247202280372
20
-0.103708585554699
30
-2E-16
41
1
10
37.5282428216436
20
-0.0514075363295774
30
-2E-16
0
SPLINE
5
148
100
AcDbEntity
8
1
62
256
6
ByLayer
370
-1
48
1
60
0
100
AcDbSpline
70
4
71
3
72
8
73
4
40
0
40
0
40
0
40
0
40
1
40
1
40
1
40
1
41
1
10
24.7716386383532
20
23.5357011110499
30
-9E-16
41
1
10
24.4112384625601
20
23.5478815627305
30
-1E-15
41
1
10
24.0498253926813
20
23.5706696704799
30
-1E-15
41
1
10
23.6873291604635
20
23.6046829599915
30
-1E-15
0
SPLINE
5
149
100
AcDbEntity
8
1
62
256
6
ByLayer
370
-1
48
1
60
0
100
AcDbSpline
70
4
71
3
72
8
73
4
40
0
40
0
40
0
40
0
40
1
40
1
40
1
40
1
41
1
10
39.2351047023026
20
-18.5141230473971
30
0
41
1
10
39.2320460891033
20
-16.7062840012652
30
0
41
1
10
39.2291039080665
20
-14.8984455945149
30
0
41
1
10
39.2263535483094
20
-13.0906082893796
30
0
0
SPLINE
5
14A
100
AcDbEntity
8
1
62
256
6
ByLayer
370
-1
48
1
60
0
100
AcDbSpline
70
4
71
3
72
8
73
4
40
0
40
0
40
0
40
0
40
1
40
1
40
1
40
1
41
1
10
23.6170718104977
20
4.49599702448586
30
-1E-15
41
1
10
23.6064555059509
20
4.42128908606574
30
-1E-15
41
1
10
23.5958340036608
20
4.34649614912306
30
-1E-15
41
1
10
23.5852094100264
20
4.27163228913534
30
-1E-15
0
SPLINE
5
14B
100
AcDbEntity
8
1
62
256
6
ByLayer
370
-1
48
1
60
0
100
AcDbSpline
70
4
71
3
72
22
73
18
40
0
40
0
40
0
40
0
40
0.0161817168204854
40
0.0161817168204854
40
0.149224994055394
40
0.149224994055394
40
0.249823531509404
40
0.249823531509404
40
0.350867081065475
40
0.350867081065475
40
0.493774470218226
40
0.493774470218226
40
0.708968720874978
40
0.708968720874978
40
0.885974734151007
40
0.885974734151007
40
1
40
1
40
1
40
1
41
1
10
21.7228091366037
20
1.9247508906995
30
-1.1E-15
41
1
10
21.70245195214
20
1.91962313427513
30
-1.1E-15
41
1
10
21.6820868787277
20
1.91456694549848
30
-1.1E-15
41
1
10
21.4938329395516
20
1.86860753496362
30
-1.1E-15
41
1
10
21.322343217047
20
1.83256374333158
30
-1.1E-15
41
1
10
21.0289554979203
20
1.80604166691578
30
-1.2E-15
41
1
10
20.9026841833529
20
1.80753667264909
30
-1.2E-15
41
1
10
20.6714914700366
20
1.84819158310827
30
-1.2E-15
41
1
10
20.5644492223356
20
1.88811437182372
30
-1.2E-15
41
1
10
20.343725158539
20
2.01196322960917
30
-1.2E-15
41
1
10
20.2399229852068
20
2.10686407171491
30
-1.2E-15
41
1
10
20.0333771985218
20
2.34510188197601
30
-1.2E-15
41
1
10
19.9513734387608
20
2.49434414241213
30
-1.2E-15
41
1
10
19.8730966753041
20
2.72048567376157
30
-1.2E-15
41
1
10
19.8642850969373
20
2.80881702362211
30
-1.2E-15
41
1
10
19.8993386765243
20
2.90367934685022
30
-1.2E-15
41
1
10
19.9259515988532
20
2.92864042593038
30
-1.2E-15
41
1
10
19.9651242096617
20
2.93671827002151
30
-1.2E-15
0
SPLINE
5
14C
100
AcDbEntity
8
1
62
256
6
ByLayer
370
-1
48
1
60
0
100
AcDbSpline
70
4
71
3
72
8
73
4
40
0
40
0
40
0
40
0
40
1
40
1
40
1
40
1
41
1
10
23.6873291604641
20
-29.5788419525782
30
-1E-16
41
1
10
23.6394749084523
20
-29.5851139756695
30
-1E-16
41
1
10
23.5932344551049
20
-29.5859461024657
30
-1E-16
41
1
10
23.55144123523
20
-29.5828956060574
30
-1E-16
0
SPLINE
5
14D
100
AcDbEntity
8
1
62
256
6
ByLayer
370
-1
48
1
60
0
100
AcDbSpline
70
4
71
3
72
8
73
4
40
0
40
0
40
0
40
0
40
1
40
1
40
1
40
1
41
1
10
24.7716386383532
20
-19.7058975606691
30
-9E-16
41
1
10
29.3363508155468
20
-19.6151069716671
30
-7E-16
41
1
10
33.9010615206649
20
-19.5242656858361
30
-4E-16
41
1
10
38.4657706821729
20
-19.433371306648
30
-1E-16
0
SPLINE
5
14E
100
AcDbEntity
8
1
62
256
6
ByLayer
370
-1
48
1
60
0
100
AcDbSpline
70
4
71
3
72
8
73
4
40
0
40
0
40
0
40
0
40
1
40
1
40
1
40
1
41
1
10
23.55144123523
20
-30.3503078668062
30
-1E-16
41
1
10
23.5627953546195
20
-30.3494847011217
30
-1E-16
41
1
10
23.5740505173523
20
-30.3481213590943
30
-1E-16
41
1
10
23.585209410029
20
-30.3462575744861
30
-1E-16
0
SPLINE
5
14F
100
AcDbEntity
8
1
62
256
6
ByLayer
370
-1
48
1
60
0
100
AcDbSpline
70
4
71
3
72
12
73
8
40
0
40
0
40
0
40
0
40
0.101561205134941
40
0.101561205134941
40
0.752959255329556
40
0.752959255329556
40
1
40
1
40
1
40
1
41
1
10
38.52622324
20
-9.04257012068149
30
-1E-16
41
1
10
38.52622324
20
-9.02328397992576
30
-1E-16
41
1
10
38.5257311331188
20
-9.00398857458788
30
-1E-16
41
1
10
38.5185261976228
20
-8.86228846991241
30
-1E-16
41
1
10
38.4927550485799
20
-8.73860642110924
30
-1E-16
41
1
10
38.4269044433179
20
-8.58092233205784
30
-1E-16
41
1
10
38.4052284748473
20
-8.53828261939836
30
-1E-16
41
1
10
38.3797766305976
20
-8.49798909581236
30
-1E-16
0
SPLINE
5
150
100
AcDbEntity
8
1
62
256
6
ByLayer
370
-1
48
1
60
0
100
AcDbSpline
70
4
71
3
72
8
73
4
40
0
40
0
40
0
40
0
40
1
40
1
40
1
40
1
41
1
10
16.2666189857525
20
0.412768868898013
30
-1.5E-15
41
1
10
16.4972296831915
20
-3.96080389827827
30
-1.4E-15
41
1
10
17.0960059586472
20
-8.31865455156205
30
-1.4E-15
41
1
10
18.0201277842029
20
-12.6326573243755
30
-1.3E-15
0
SPLINE
5
151
100
AcDbEntity
8
1
62
256
6
ByLayer
370
-1
48
1
60
0
100
AcDbSpline
70
4
71
2
72
6
73
3
40
0
40
0
40
0
40
1
40
1
40
1
41
0.500000035083587
10
23.5267944146547
20
-30.3018176416014
30
-1E-16
41
0.499999964916413
10
23.5391162431624
20
-30.3063685244285
30
-1E-16
41
0.500000035083587
10
23.55144123523
20
-30.3109025296658
30
-1E-16
0
SPLINE
5
152
100
AcDbEntity
8
1
62
256
6
ByLayer
370
-1
48
1
60
0
100
AcDbSpline
70
4
71
3
72
8
73
4
40
0
40
0
40
0
40
0
40
1
40
1
40
1
40
1
41
1
10
23.55144123523
20
4.14123638300342
30
-1E-15
41
1
10
23.562795354618
20
4.1847183646143
30
-1E-15
41
1
10
23.5740505173493
20
4.22818918064334
30
-1E-15
41
1
10
23.5852094100245
20
4.27163228913619
30
-1E-15
0
SPLINE
5
153
100
AcDbEntity
8
1
62
256
6
ByLayer
370
-1
48
1
60
0
100
AcDbSpline
70
4
71
3
72
8
73
4
40
0
40
0
40
0
40
0
40
1
40
1
40
1
40
1
41
1
10
24.7716386383532
20
-19.7058975606691
30
-9E-16
41
1
10
24.41123846256
20
-19.713065798877
30
-1E-15
41
1
10
24.0498253926812
20
-19.7075645417161
30
-1E-15
41
1
10
23.6873291604635
20
-19.6884984358102
30
-1E-15
0
SPLINE
5
154
100
AcDbEntity
8
1
62
256
6
ByLayer
370
-1
48
1
60
0
100
AcDbSpline
70
4
71
3
72
8
73
4
40
0
40
0
40
0
40
0
40
1
40
1
40
1
40
1
41
1
10
17.2037632013482
20
24.7467661029677
30
4E-16
41
1
10
17.4757892469374
20
25.3982336361771
30
4E-16
41
1
10
17.7479176296479
20
26.049659505596
30
4E-16
41
1
10
18.0201277842029
20
26.7010520419691
30
4E-16
0
SPLINE
5
155
100
AcDbEntity
8
1
62
256
6
ByLayer
370
-1
48
1
60
0
100
AcDbSpline
70
4
71
3
72
8
73
4
40
0
40
0
40
0
40
0
40
1
40
1
40
1
40
1
41
1
10
23.55144123523
20
-30.3109025296659
30
-1E-16
41
1
10
23.5731645612774
20
-30.3188939079587
30
-1E-16
41
1
10
23.5950806303328
20
-30.3253746461676
30
-1E-16
41
1
10
23.6170718104977
20
-30.330356496443
30
-1E-16
0
SPLINE
5
156
100
AcDbEntity
8
1
62
256
6
ByLayer
370
-1
48
1
60
0
100
AcDbSpline
70
4
71
3
72
12
73
8
40
0
40
0
40
0
40
0
40
0.400370278678251
40
0.400370278678251
40
0.801470973944218
40
0.801470973944218
40
1
40
1
40
1
40
1
41
1
10
38.3797766305933
20
-5.86451606303993
30
-1E-16
41
1
10
38.4165954348786
20
-5.88009521398553
30
-1E-16
41
1
10
38.4482336935102
20
-5.89460906991133
30
-1E-16
41
1
10
38.4957423664766
20
-5.91914778540172
30
-1E-16
41
1
10
38.5122252759628
20
-5.92949465880525
30
-1E-16
41
1
10
38.5242352599008
20
-5.94082518906097
30
-1E-16
41
1
10
38.52622324
20
-5.94395328732628
30
-1E-16
41
1
10
38.52622324
20
-5.94639047846141
30
-1E-16
0
SPLINE
5
157
100
AcDbEntity
8
1
62
256
6
ByLayer
370
-1
48
1
60
0
100
AcDbSpline
70
4
71
3
72
8
73
4
40
0
40
0
40
0
40
0
40
1
40
1
40
1
40
1
41
1
10
23.0237807530001
20
-30.2815558779388
30
1E-16
41
1
10
22.5037684062898
20
-30.1529056906815
30
0
41
1
10
21.9838181071031
20
-30.0239941696312
30
0
41
1
10
21.4639325993587
20
-29.8948115873135
30
0
0
SPLINE
5
158
100
AcDbEntity
8
1
62
256
6
ByLayer
370
-1
48
1
60
0
100
AcDbSpline
70
4
71
3
72
10
73
6
40
0
40
0
40
0
40
0
40
0.0915266176299375
40
0.0915266176299375
40
1
40
1
40
1
40
1
41
1
10
23.2790470198025
20
6.52251362925233
30
-1E-15
41
1
10
23.2746249042706
20
6.51300121683735
30
-1E-15
41
1
10
23.270341303697
20
6.50357343294351
30
-1E-15
41
1
10
23.2254278320367
20
6.40250721767057
30
-1E-15
41
1
10
23.1975787357134
20
6.31916434581524
30
-1E-15
41
1
10
23.1786714781724
20
6.25143209682719
30
-1E-15
0
SPLINE
5
159
100
AcDbEntity
8
1
62
256
6
ByLayer
370
-1
48
1
60
0
100
AcDbSpline
70
4
71
3
72
10
73
6
40
0
40
0
40
0
40
0
40
0.5
40
0.5
40
1
40
1
40
1
40
1
41
1
10
21.4639325993587
20
-18.6448636248594
30
-1.1E-15
41
1
10
20.4384916888264
20
-18.0326175073586
30
-1.2E-15
41
1
10
19.7212825761901
20
-17.044040837334
30
-1.2E-15
41
1
10
18.6397850506135
20
-14.9462341004972
30
-1.3E-15
41
1
10
18.2699298364589
20
-13.7987879321438
30
-1.3E-15
41
1
10
18.0201277842029
20
-12.6326573243755
30
-1.3E-15
0
SPLINE
5
15A
100
AcDbEntity
8
1
62
256
6
ByLayer
370
-1
48
1
60
0
100
AcDbSpline
70
4
71
3
72
16
73
12
40
0
40
0
40
0
40
0
40
0.219255846131729
40
0.219255846131729
40
0.438824605258324
40
0.438824605258324
40
0.656276900601385
40
0.656276900601385
40
0.872235937922197
40
0.872235937922197
40
1
40
1
40
1
40
1
41
1
10
38.4657706821729
20
-29.5915830505752
30
-1E-16
41
1
10
38.5544263158292
20
-29.589960585387
30
-1E-16
41
1
10
38.6439598919634
20
-29.5730490525088
30
-1E-16
41
1
10
38.8100994534589
20
-29.5109684169876
30
-1E-16
41
1
10
38.8889827807997
20
-29.4648827707447
30
-1E-16
41
1
10
39.0241638248257
20
-29.3507118360248
30
-1E-16
41
1
10
39.0825339177005
20
-29.2812590374712
30
-1E-16
41
1
10
39.171353182873
20
-29.1291993142226
30
-1E-16
41
1
10
39.2032088028619
20
-29.0446089081244
30
0
41
1
10
39.2301866810148
20
-28.9069630711361
30
0
41
1
10
39.235208502438
20
-28.8544379241078
30
0
41
1
10
39.2351047023026
20
-28.8021496954678
30
0
0
SPLINE
5
15B
100
AcDbEntity
8
1
62
256
6
ByLayer
370
-1
48
1
60
0
100
AcDbSpline
70
4
71
3
72
18
73
14
40
0
40
0
40
0
40
0
40
0.173091121356079
40
0.173091121356079
40
0.345567414066833
40
0.345567414066833
40
0.528332841249105
40
0.528332841249105
40
0.741050516846547
40
0.741050516846547
40
0.991925612573482
40
0.991925612573482
40
1
40
1
40
1
40
1
41
1
10
38.4657706821729
20
-19.433371306648
30
-1E-16
41
1
10
38.5437012145427
20
-19.4318195216144
30
-1E-16
41
1
10
38.6223181764734
20
-19.4164504555691
30
-1E-16
41
1
10
38.767157498946
20
-19.3621206274383
30
-1E-16
41
1
10
38.8353491038483
20
-19.3226531921378
30
-1E-16
41
1
10
38.9586522136546
20
-19.2245760253963
30
-1E-16
41
1
10
39.0142928747862
20
-19.1639067851336
30
-1E-16
41
1
10
39.1133945615951
20
-19.02131537689
30
-1E-16
41
1
10
39.1546687328224
20
-18.9359071611286
30
-1E-16
41
1
10
39.2170887991993
20
-18.7438810849804
30
0
41
1
10
39.2342132623182
20
-18.6338013764755
30
0
41
1
10
39.2350997526275
20
-18.5212125623482
30
0
41
1
10
39.235110699589
20
-18.5176678331697
30
0
41
1
10
39.2351047023026
20
-18.5141230473971
30
0
0
SPLINE
5
15C
100
AcDbEntity
8
1
62
256
6
ByLayer
370
-1
48
1
60
0
100
AcDbSpline
70
4
71
3
72
8
73
4
40
0
40
0
40
0
40
0
40
1
40
1
40
1
40
1
41
1
10
23.6873291604641
20
8.90742997469715
30
-1E-15
41
1
10
23.6394749084523
20
8.8900315711563
30
-1E-15
41
1
10
23.5932344551049
20
8.86473668152104
30
-1E-15
41
1
10
23.5514412352301
20
8.83479535136996
30
-1E-15
0
SPLINE
5
15D
100
AcDbEntity
8
1
62
256
6
ByLayer
370
-1
48
1
60
0
100
AcDbSpline
70
4
71
3
72
8
73
4
40
0
40
0
40
0
40
0
40
1
40
1
40
1
40
1
41
1
10
38.52622324
20
-9.19260894635926
30
-1E-16
41
1
10
38.52622324
20
-9.29582851206058
30
-1E-16
41
1
10
38.5351297500524
20
-9.39952281358239
30
-1E-16
41
1
10
38.5534825789687
20
-9.50134380994533
30
-1E-16
0
SPLINE
5
15E
100
AcDbEntity
8
1
62
256
6
ByLayer
370
-1
48
1
60
0
100
AcDbSpline
70
4
71
3
72
10
73
6
40
0
40
0
40
0
40
0
40
0.538591138658944
40
0.538591138658944
40
1
40
1
40
1
40
1
41
1
10
37.8209025189449
20
-5.45808830364791
30
-1E-16
41
1
10
37.7386579663735
20
-5.36912726832378
30
-1E-16
41
1
10
37.6781369018393
20
-5.26581376940692
30
-1E-16
41
1
10
37.6076136870448
20
-5.06543172706972
30
-1E-16
41
1
10
37.5906713269329
20
-4.96732947121134
30
-1E-16
41
1
10
37.5872540645962
20
-4.86796531035409
30
-1E-16
0
SPLINE
5
15F
100
AcDbEntity
8
1
62
256
6
ByLayer
370
-1
48
1
60
0
100
AcDbSpline
70
4
71
3
72
8
73
4
40
0
40
0
40
0
40
0
40
1
40
1
40
1
40
1
41
1
10
16.2666189857525
20
0.412768868898013
30
-1.5E-15
41
1
10
16.2537440378426
20
0.656944538902678
30
-1.5E-15
41
1
10
16.2416099318333
20
0.90105515040085
30
-1.5E-15
41
1
10
16.2304294713687
20
1.14505431021121
30
-1.5E-15
0
SPLINE
5
160
100
AcDbEntity
8
1
62
256
6
ByLayer
370
-1
48
1
60
0
100
AcDbSpline
70
4
71
3
72
10
73
6
40
0
40
0
40
0
40
0
40
0.276742718116357
40
0.276742718116357
40
1
40
1
40
1
40
1
41
1
10
39.2263535483095
20
-4.41460508067161
30
0
41
1
10
39.2263296310395
20
-4.41394062268299
30
0
41
1
10
39.2258739571589
20
-4.41333658631803
30
0
41
1
10
39.2226773353166
20
-4.41137844146559
30
0
41
1
10
39.2173979166245
20
-4.41038436152309
30
0
41
1
10
39.2093174564161
20
-4.40983445071095
30
0
0
SPLINE
5
161
100
AcDbEntity
8
1
62
256
6
ByLayer
370
-1
48
1
60
0
100
AcDbSpline
70
4
71
3
72
8
73
4
40
0
40
0
40
0
40
0
40
1
40
1
40
1
40
1
41
1
10
21.4639325993587
20
29.6813444257942
30
-2E-16
41
1
10
19.9474719911179
20
29.2910083880931
30
-3E-16
41
1
10
18.632889488866
20
28.1673764766514
30
-4E-16
41
1
10
18.0201277842029
20
26.7010520419691
30
4E-16
0
SPLINE
5
162
100
AcDbEntity
8
1
62
256
6
ByLayer
370
-1
48
1
60
0
100
AcDbSpline
70
4
71
3
72
8
73
4
40
0
40
0
40
0
40
0
40
1
40
1
40
1
40
1
41
1
10
17.2037632013482
20
3.58867696285665
30
-1.4E-15
41
1
10
17.4757892469373
20
3.61264094371509
30
-1.4E-15
41
1
10
17.7479176296478
20
3.63658642481894
30
-1.4E-15
41
1
10
18.0201277842029
20
3.66051711979236
30
-1.3E-15
0
SPLINE
5
163
100
AcDbEntity
8
1
62
256
6
ByLayer
370
-1
48
1
60
0
100
AcDbSpline
70
4
71
3
72
8
73
4
40
0
40
0
40
0
40
0
40
1
40
1
40
1
40
1
41
1
10
23.6170718104976
20
-30.330356496443
30
-1E-16
41
1
10
23.6064555059517
20
-30.336281851663
30
-1E-16
41
1
10
23.5958340036625
20
-30.3415858151625
30
-1E-16
41
1
10
23.585209410029
20
-30.3462575744861
30
-1E-16
0
SPLINE
5
164
100
AcDbEntity
8
1
62
256
6
ByLayer
370
-1
48
1
60
0
100
AcDbSpline
70
4
71
3
72
10
73
6
40
0
40
0
40
0
40
0
40
0.760174907885573
40
0.760174907885573
40
1
40
1
40
1
40
1
41
1
10
37.7535543771073
20
-2.26343128137225
30
-1E-16
41
1
10
37.6725201338962
20
-1.8406291098519
30
-1E-16
41
1
10
37.6366484773753
20
-1.4094167785758
30
-1E-16
41
1
10
37.6079647337568
20
-0.843470816432074
30
-1E-16
41
1
10
37.6027566862062
20
-0.707369094383438
30
-1E-16
41
1
10
37.5987766554565
20
-0.571239587354199
30
-1E-16
0
SPLINE
5
165
100
AcDbEntity
8
1
62
256
6
ByLayer
370
-1
48
1
60
0
100
AcDbSpline
70
4
71
3
72
10
73
6
40
0
40
0
40
0
40
0
40
0.424055131209747
40
0.424055131209747
40
1
40
1
40
1
40
1
41
1
10
39.2263535483094
20
-13.0906082893796
30
0
41
1
10
39.2263170251108
20
-13.0666012478274
30
0
41
1
10
39.2252747848627
20
-13.0425690510242
30
0
41
1
10
39.2204556303879
20
-12.9860080061574
30
0
41
1
10
39.2158164829735
20
-12.9534704699263
30
0
41
1
10
39.2093174564215
20
-12.9213198087984
30
0
0
SPLINE
5
166
100
AcDbEntity
8
1
62
256
6
ByLayer
370
-1
48
1
60
0
100
AcDbSpline
70
4
71
3
72
14
73
10
40
0
40
0
40
0
40
0
40
0.134930674567151
40
0.134930674567151
40
0.436202702199412
40
0.436202702199412
40
0.726437991355011
40
0.726437991355011
40
1
40
1
40
1
40
1
41
1
10
17.2037632013481
20
-24.9763983100409
30
-1E-16
41
1
10
17.1517491881991
20
-24.851663086838
30
-1E-16
41
1
10
17.0991980616731
20
-24.7265448581614
30
-1E-16
41
1
10
16.9311477306733
20
-24.3293856614941
30
-1E-16
41
1
10
16.8144106053982
20
-24.0582763195005
30
-1E-16
41
1
10
16.6058031998379
20
-23.5813733265354
30
-1E-16
41
1
10
16.5099871584591
20
-23.3662162546679
30
-1E-16
41
1
10
16.360061471919
20
-23.0334448764179
30
1E-16
41
1
10
16.3015507333335
20
-22.9056304427592
30
0
41
1
10
16.2666189857525
20
-22.8299372692449
30
0
0
SPLINE
5
167
100
AcDbEntity
8
1
62
256
6
ByLayer
370
-1
48
1
60
0
100
AcDbSpline
70
4
71
3
72
12
73
8
40
0
40
0
40
0
40
0
40
0.259406455959956
40
0.259406455959956
40
0.827892597344589
40
0.827892597344589
40
1
40
1
40
1
40
1
41
1
10
17.2037632013482
20
24.7467661029677
30
4E-16
41
1
10
17.1507706223949
20
24.6198556646147
30
4E-16
41
1
10
17.0972173870573
20
24.493317985642
30
4E-16
41
1
10
16.928202347317
20
24.0994494785104
30
-1E-16
41
1
10
16.8115297554242
20
23.836124385414
30
-1E-16
41
1
10
16.6732616496089
20
23.5344117362838
30
-1E-16
41
1
10
16.6418035139538
20
23.4665681712608
30
-1E-16
41
1
10
16.6113699994856
20
23.4016835741993
30
-1E-16
0
SPLINE
5
168
100
AcDbEntity
8
1
62
256
6
ByLayer
370
-1
48
1
60
0
100
AcDbSpline
70
4
71
2
72
21
73
18
40
0
40
0
40
0
40
0.125
40
0.125
40
0.25
40
0.25
40
0.375
40
0.375
40
0.5
40
0.5
40
0.625
40
0.625
40
0.708333333333333
40
0.708333333333333
40
0.75
40
0.875
40
0.875
40
1
40
1
40
1
41
1
10
36.4068500938696
20
25.9011337611516
30
0
41
1
10
36.3456158028548
20
26.8847389483724
30
0
41
1
10
35.8100026411104
20
27.7304209807381
30
0
41
1
10
35.2767397935976
20
28.5723920913825
30
-1E-16
41
1
10
34.4206789593094
20
29.0297039276915
30
1E-16
41
1
10
33.6447379308717
20
29.4442153763754
30
1E-16
41
1
10
32.5679170178852
20
29.5244489657955
30
0
41
1
10
32.1417608961938
20
29.5562017251303
30
0
41
1
10
30.6171771017914
20
29.5104982915672
30
-1E-16
41
1
10
29.5192864037151
20
29.477586112674
30
-2E-16
41
1
10
28.6746680464376
20
29.4866642787734
30
2E-16
41
1
10
27.7386776137795
20
29.4967245344402
30
1E-16
41
1
10
27.3782372279546
20
29.4350116184648
30
1E-16
41
1
10
27.026802143563
20
29.3748405480553
30
1E-16
41
1
10
25.9854967110664
20
28.8339180246332
30
0
41
1
10
25.661541991548
20
27.6849922273302
30
0
41
1
10
25.3616000951069
20
26.6212294180537
30
0
41
1
10
25.4225819854126
20
25.752363045004
30
0
0
SPLINE
5
169
100
AcDbEntity
8
1
62
256
6
ByLayer
370
-1
48
1
60
0
100
AcDbSpline
70
4
71
3
72
46
73
42
40
0
40
0
40
0
40
0
40
0.0312500000000002
40
0.0312500000000002
40
0.0625000000000003
40
0.0625000000000003
40
0.125000000000001
40
0.125000000000001
40
0.156250000000001
40
0.156250000000001
40
0.187500000000001
40
0.187500000000001
40
0.218750000000001
40
0.218750000000001
40
0.250000000000001
40
0.250000000000001
40
0.281250000000001
40
0.281250000000001
40
0.312500000000001
40
0.312500000000001
40
0.375000000000001
40
0.375000000000001
40
0.500000000000001
40
0.500000000000001
40
0.625000000000001
40
0.625000000000001
40
0.687500000000001
40
0.687500000000001
40
0.71875
40
0.71875
40
0.75
40
0.75
40
0.78125
40
0.78125
40
0.8125
40
0.8125
40
0.875
40
0.875
40
0.9375
40
0.9375
40
1
40
1
40
1
40
1
41
1
10
39.056500791192
20
23.5920537282374
30
0
41
1
10
39.1257922520957
20
23.9053246413512
30
0
41
1
10
39.1939021367691
20
24.2173020011994
30
0
41
1
10
39.3311579211521
20
24.8398027393833
30
0
41
1
10
39.4425379610207
20
25.1415613038173
30
0
41
1
10
39.4466361970543
20
26.1138416291648
30
0
41
1
10
39.4301554534279
20
26.764910981418
30
0
41
1
10
39.4516482112699
20
27.7489981294825
30
0
41
1
10
39.5542017787994
20
28.0641766810697
30
0
41
1
10
39.8380573579002
20
28.6504612562926
30
0
41
1
10
39.9913441002423
20
28.9519539088788
30
0
41
1
10
39.9925457867306
20
29.6038214652007
30
0
41
1
10
40.0081533486197
20
29.9309202453905
30
0
41
1
10
39.9818869986147
20
30.5797666253137
30
0
41
1
10
39.8541884131067
20
30.9104181284725
30
0
41
1
10
39.3631883893673
20
31.3358097223086
30
0
41
1
10
39.028156604997
20
31.4153256809935
30
0
41
1
10
38.3959170271424
20
31.4106042633854
30
0
41
1
10
38.0787752810222
20
31.411381410789
30
0
41
1
10
37.1276006519055
20
31.4086145244977
30
0
41
1
10
36.4932839140997
20
31.4047966023869
30
0
41
1
10
34.5901459368307
20
31.3900929797195
30
-1E-16
41
1
10
33.3213052377219
20
31.3771984840822
30
0
41
1
10
30.7842091848675
20
31.34099639422
30
-1E-16
41
1
10
29.5156536658545
20
31.3186489918271
30
-2E-16
41
1
10
27.6121615154497
20
31.281568590149
30
1E-16
41
1
10
26.9775741071082
20
31.2678080519685
30
1E-16
41
1
10
26.0255146522821
20
31.2411719494163
30
0
41
1
10
25.7081215728988
20
31.2299816343836
30
0
41
1
10
25.073284313059
20
31.2123388262344
30
0
41
1
10
24.7554273250826
20
31.2410716012607
30
0
41
1
10
24.1265636022906
20
31.1481905698871
30
-1E-16
41
1
10
23.8171299479627
20
30.9881156380249
30
-1E-16
41
1
10
23.4141121832043
20
30.4670240320803
30
-1E-16
41
1
10
23.3501519678529
20
30.1349980663069
30
-1E-16
41
1
10
23.0945932798046
20
29.2038717836292
30
-1E-16
41
1
10
22.9157137936306
20
28.5975973590199
30
-2E-16
41
1
10
22.5391051310932
20
27.4122549257382
30
-2E-16
41
1
10
22.2922131303791
20
26.8336452043438
30
-2E-16
41
1
10
22.1417123706138
20
25.6391698743641
30
-2E-16
41
1
10
22.1515887570998
20
25.0308566670944
30
-2E-16
41
1
10
22.0826347430186
20
24.4113064587122
30
0
0
SPLINE
5
16A
100
AcDbEntity
8
1
62
256
6
ByLayer
370
-1
48
1
60
0
100
AcDbSpline
70
4
71
3
72
10
73
6
40
0
40
0
40
0
40
0
40
0.470376104010643
40
0.470376104010643
40
1
40
1
40
1
40
1
41
1
10
39.1475528945161
20
22.9720240815309
30
-1E-16
41
1
10
39.2027255346003
20
23.2222854403676
30
0
41
1
10
39.258216495223
20
23.4725129209666
30
0
41
1
10
39.3851704897436
20
24.0022984589621
30
0
41
1
10
39.4080473813205
20
24.2829424536403
30
0
41
1
10
39.4112024564014
20
24.5636166700878
30
0
0
SPLINE
5
16B
100
AcDbEntity
8
1
62
256
6
ByLayer
370
-1
48
1
60
0
100
AcDbSpline
70
4
71
3
72
8
73
4
40
0
40
0
40
0
40
0
40
1
40
1
40
1
40
1
41
1
10
22.0826347430184
20
24.4113064587123
30
0
41
1
10
22.0573287059456
20
24.1839323057975
30
0
41
1
10
21.9700070175882
20
23.9707932547775
30
0
41
1
10
21.8685304310696
20
23.758914758702
30
0
0
SPLINE
5
16C
100
AcDbEntity
8
1
62
256
6
ByLayer
370
-1
48
1
60
0
100
AcDbSpline
70
4
71
3
72
8
73
4
40
0
40
0
40
0
40
0
40
1
40
1
40
1
40
1
41
1
10
38.9243326695946
20
23.0010958529772
30
0
41
1
10
38.969078111097
20
23.1984182110316
30
0
41
1
10
39.0130237995326
20
23.3954916021269
30
0
41
1
10
39.056500791192
20
23.5920537282374
30
0
0
SPLINE
5
16D
100
AcDbEntity
8
1
62
256
6
ByLayer
370
-1
48
1
60
0
100
AcDbSpline
70
4
71
2
72
7
73
4
40
0
40
0
40
0
40
0.770045344471636
40
1
40
1
40
1
41
1
10
25.4225819854126
20
25.752363045004
30
0
41
1
10
25.4915966867293
20
24.7789634543042
30
0
41
1
10
26.1941679896009
20
23.6709536841173
30
0
41
1
10
26.3825383249021
20
23.4514083802481
30
1E-16
0
SPLINE
5
16E
100
AcDbEntity
8
1
62
256
6
ByLayer
370
-1
48
1
60
0
100
AcDbSpline
70
4
71
2
72
8
73
5
40
0
40
0
40
0
40
0.309868909071105
40
0.309868909071105
40
1
40
1
40
1
41
1
10
35.7943480568328
20
23.0867129853318
30
0
41
1
10
36.0271721281949
20
23.4495332331695
30
0
41
1
10
36.162693442856
20
23.9610107454341
30
0
41
1
10
36.4577751125107
20
25.0746926683644
30
0
41
1
10
36.4068500938696
20
25.9011337611516
30
0
0
SPLINE
5
16F
100
AcDbEntity
8
1
62
256
6
ByLayer
370
-1
48
1
60
0
100
AcDbSpline
70
4
71
3
72
9
73
5
40
0
40
0
40
0
40
0
40
0.41048655665307
40
1
40
1
40
1
40
1
41
1
10
33.5352935241126
20
26.8756956207796
30
0
41
1
10
33.4061784847744
20
27.1316793572474
30
0
41
1
10
32.9951684084984
20
27.7116799058943
30
0
41
1
10
32.3875680177551
20
28.0796562571976
30
0
41
1
10
32.0007900338228
20
28.2081192501116
30
0
0
SPLINE
5
170
100
AcDbEntity
8
1
62
256
6
ByLayer
370
-1
48
1
60
0
100
AcDbSpline
70
4
71
3
72
9
73
5
40
0
40
0
40
0
40
0
40
0.503924785973842
40
1
40
1
40
1
40
1
41
1
10
28.8513035926435
20
24.2366015510028
30
2E-16
41
1
10
28.9609316878064
20
24.057419316969
30
2E-16
41
1
10
29.2186416488237
20
23.7259198265749
30
2E-16
41
1
10
29.5460847247189
20
23.4696280479671
30
1E-16
41
1
10
29.720680229
20
23.3628565628515
30
1E-16
0
SPLINE
5
171
100
AcDbEntity
8
1
62
256
6
ByLayer
370
-1
48
1
60
0
100
AcDbSpline
70
4
71
3
72
14
73
10
40
0
40
0
40
0
40
0
40
0.144343867929638
40
0.288687735859276
40
0.433031603788914
40
0.577375471718552
40
0.72171933964819
40
0.866063207577828
40
1
40
1
40
1
40
1
41
1
10
30.9253130193868
20
28.6355969784752
30
-1E-16
41
1
10
31.2878595755041
20
28.6404961510559
30
-1E-16
41
1
10
32.0126797508838
20
28.5134284268087
30
0
41
1
10
32.9734010721435
20
27.8708658690182
30
0
41
1
10
33.5613138903376
20
26.9872972665709
30
0
41
1
10
33.7972828101502
20
25.8656990952169
30
1E-16
41
1
10
33.5568276934926
20
24.7376628994577
30
0
41
1
10
32.9795670395605
20
23.8597747782353
30
0
41
1
10
32.3691314907047
20
23.4247841749192
30
0
41
1
10
32.0523131954265
20
23.2775055655263
30
0
0
SPLINE
5
172
100
AcDbEntity
8
1
62
256
6
ByLayer
370
-1
48
1
60
0
100
AcDbSpline
70
4
71
3
72
14
73
10
40
0
40
0
40
0
40
0
40
0.101305216397582
40
0.251087680331318
40
0.400870144265055
40
0.550652608198791
40
0.700435072132527
40
0.850217536066264
40
1
40
1
40
1
40
1
41
1
10
29.5254106152233
20
23.3728460125717
30
1E-16
41
1
10
29.3057101400219
20
23.4972383020325
30
1E-16
41
1
10
28.8026025419198
20
23.8780844565845
30
2E-16
41
1
10
28.2781096577025
20
24.6663304037392
30
2E-16
41
1
10
28.0421407378899
20
25.7879285750933
30
2E-16
41
1
10
28.2825958545474
20
26.9159647708524
30
2E-16
41
1
10
28.8740644607783
20
27.8154706178802
30
2E-16
41
1
10
29.8374004141801
20
28.4840333913247
30
-2E-16
41
1
10
30.5627664632696
20
28.6306978058946
30
-1E-16
41
1
10
30.9253130193868
20
28.6355969784752
30
-1E-16
0
SPLINE
5
173
100
AcDbEntity
8
1
62
256
6
ByLayer
370
-1
48
1
60
0
100
AcDbSpline
70
4
71
3
72
14
73
10
40
0
40
0
40
0
40
0
40
0.283961457856589
40
0.283961457856589
40
0.570284934646614
40
0.570284934646614
40
0.829450869060459
40
0.829450869060459
40
1
40
1
40
1
40
1
41
1
10
32.3287574170847
20
25.5950523013989
30
0
41
1
10
32.3583889860473
20
25.606094876428
30
0
41
1
10
32.3876262013391
20
25.6229936438709
30
0
41
1
10
32.4401512592344
20
25.6671704503057
30
0
41
1
10
32.4641666137245
20
25.695266955234
30
0
41
1
10
32.499752996491
20
25.7558533031521
30
0
41
1
10
32.5127777547082
20
25.7886192079807
30
0
41
1
10
32.5250318113457
20
25.8444008372519
30
0
41
1
10
32.5275765952555
20
25.8673511982206
30
0
41
1
10
32.5276216484677
20
25.889943442363
30
0
0
SPLINE
5
174
100
AcDbEntity
8
1
62
256
6
ByLayer
370
-1
48
1
60
0
100
AcDbSpline
70
4
71
3
72
14
73
10
40
0
40
0
40
0
40
0
40
0.28216992257611
40
0.28216992257611
40
0.566902245317967
40
0.566902245317967
40
0.824523972080263
40
0.824523972080263
40
1
40
1
40
1
40
1
41
1
10
30.402665349288
20
27.2427788603874
30
1E-16
41
1
10
30.3768855121013
20
27.2681184206481
30
1E-16
41
1
10
30.3462961627555
20
27.2898940050469
30
1E-16
41
1
10
30.2793853578687
20
27.3217990486532
30
1E-16
41
1
10
30.2419511737153
20
27.3322579172966
30
1E-16
41
1
10
30.17003628078
20
27.3380165263554
30
1E-16
41
1
10
30.1345237420572
20
27.3346892577752
30
1E-16
41
1
10
30.0786640410079
20
27.3186027150029
30
1E-16
41
1
10
30.056617071727
20
27.3090821869849
30
1E-16
41
1
10
30.0363874082162
20
27.2970232532007
30
1E-16
0
SPLINE
5
175
100
AcDbEntity
8
1
62
256
6
ByLayer
370
-1
48
1
60
0
100
AcDbSpline
70
4
71
3
72
18
73
14
40
0
40
0
40
0
40
0
40
0.212491592102414
40
0.212491592102414
40
0.386618191488473
40
0.386618191488473
40
0.562426295050812
40
0.562426295050812
40
0.715388354469454
40
0.715388354469454
40
0.918249128147155
40
0.918249128147155
40
1
40
1
40
1
40
1
41
1
10
29.4367845814526
20
26.1162243453625
30
0
41
1
10
29.5097930918012
20
26.1315792715101
30
0
41
1
10
29.581931936053
20
26.158501637065
30
-2E-16
41
1
10
29.701828599412
20
26.2292542933359
30
-2E-16
41
1
10
29.7528742564246
20
26.2701065148532
30
-2E-16
41
1
10
29.8397610229659
20
26.3667615688368
30
-2E-16
41
1
10
29.8765531376571
20
26.4242915749852
30
-2E-16
41
1
10
29.9249335637303
20
26.5379853507724
30
-2E-16
41
1
10
29.9398536468713
20
26.5946591972812
30
-2E-16
41
1
10
29.9565534319331
20
26.7249969023862
30
-2E-16
41
1
10
29.95303622425
20
26.8003580851562
30
-2E-16
41
1
10
29.9333871609345
20
26.9007012947485
30
-2E-16
41
1
10
29.9259520802342
20
26.9293179220042
30
0
41
1
10
29.9169329969512
20
26.9572804668694
30
0
0
SPLINE
5
176
100
AcDbEntity
8
1
62
256
6
ByLayer
370
-1
48
1
60
0
100
AcDbSpline
70
4
71
3
72
12
73
8
40
0
40
0
40
0
40
0
40
0.495779676780363
40
0.495779676780363
40
0.900233025448793
40
0.900233025448793
40
1
40
1
40
1
40
1
41
1
10
31.3633624380792
20
24.468118730588
30
-1E-16
41
1
10
31.319009376664
20
24.5138183251668
30
-1E-16
41
1
10
31.26475424258
20
24.5533986335111
30
-1E-16
41
1
10
31.1513457885874
20
24.6077488058113
30
-1E-16
41
1
10
31.0935619150586
20
24.6262352346841
30
-1E-16
41
1
10
31.016874911917
20
24.639072116134
30
-1E-16
41
1
10
31.0012648975472
20
24.6411464755495
30
-1E-16
41
1
10
30.9854736859634
20
24.6427034005689
30
-1E-16
0
SPLINE
5
177
100
AcDbEntity
8
1
62
256
6
ByLayer
370
-1
48
1
60
0
100
AcDbSpline
70
4
71
3
72
16
73
12
40
0
40
0
40
0
40
0
40
0.0630415689509363
40
0.0630415689509363
40
0.285914332024974
40
0.285914332024974
40
0.51158830540891
40
0.51158830540891
40
0.751723061839376
40
0.751723061839376
40
1
40
1
40
1
40
1
41
1
10
29.2074898948529
20
25.8450777604884
30
0
41
1
10
29.2074731782287
20
25.8366950939753
30
0
41
1
10
29.2078436121842
20
25.8282886963464
30
0
41
1
10
29.2112459947201
20
25.7905138308232
30
0
41
1
10
29.21880619212
20
25.7610456264023
30
0
41
1
10
29.242291696143
20
25.7062539911182
30
0
41
1
10
29.2585972660656
20
25.6802813478156
30
0
41
1
10
29.2983719432102
20
25.6334685736948
30
0
41
1
10
29.3227057868768
20
25.6124579271051
30
0
41
1
10
29.3759262802407
20
25.5782149738139
30
0
41
1
10
29.4055222497637
20
25.5648614554925
30
0
41
1
10
29.4356673029473
20
25.5559573285701
30
0
0
SPLINE
5
178
100
AcDbEntity
8
1
62
256
6
ByLayer
370
-1
48
1
60
0
100
AcDbSpline
70
4
71
3
72
14
73
10
40
0
40
0
40
0
40
0
40
0.283961749036711
40
0.283961749036711
40
0.570285189259025
40
0.570285189259025
40
0.829451094335681
40
0.829451094335681
40
1
40
1
40
1
40
1
41
1
10
31.8530549420664
20
26.9834437151096
30
-1E-16
41
1
10
31.859282847491
20
27.0176427164555
30
-1E-16
41
1
10
31.8602410641442
20
27.0542161114895
30
-1E-16
41
1
10
31.8500410449587
20
27.1265509962178
30
-1E-16
41
1
10
31.8385636753844
20
27.1634159351582
30
-1E-16
41
1
10
31.805223678184
20
27.2272626341677
30
-1E-16
41
1
10
31.7838943790128
20
27.2557850341279
30
-1E-16
41
1
10
31.7423306114406
20
27.294816112636
30
-1E-16
41
1
10
31.7239078881746
20
27.3084767387757
30
-1E-16
41
1
10
31.7044705242308
20
27.3195644328819
30
-1E-16
0
SPLINE
5
179
100
AcDbEntity
8
1
62
256
6
ByLayer
370
-1
48
1
60
0
100
AcDbSpline
70
4
71
3
72
14
73
10
40
0
40
0
40
0
40
0
40
0.282169922576106
40
0.282169922576106
40
0.566902245317964
40
0.566902245317964
40
0.82452397208026
40
0.82452397208026
40
1
40
1
40
1
40
1
41
1
10
31.3633624380792
20
24.468118730588
30
-1E-16
41
1
10
31.3842518973156
20
24.4465950795115
30
-1E-16
41
1
10
31.4101774901454
20
24.4284585740354
30
-1E-16
41
1
10
31.4688919131324
20
24.4029490788482
30
-1E-16
41
1
10
31.502679567792
20
24.3953355578501
30
-1E-16
41
1
10
31.5692482703075
20
24.3937485235308
30
-1E-16
41
1
10
31.6028321261065
20
24.3985807226005
30
-1E-16
41
1
10
31.6568358100597
20
24.4161154955004
30
-1E-16
41
1
10
31.6784944715936
20
24.4259390158665
30
-1E-16
41
1
10
31.6987241351044
20
24.4379979496507
30
-1E-16
0
SPLINE
5
17A
100
AcDbEntity
8
1
62
256
6
ByLayer
370
-1
48
1
60
0
100
AcDbSpline
70
4
71
3
72
18
73
14
40
0
40
0
40
0
40
0
40
0.212491695755302
40
0.212491695755302
40
0.386618276853804
40
0.386618276853804
40
0.562426360907933
40
0.562426360907933
40
0.715388416645937
40
0.715388416645937
40
0.918249208689863
40
0.918249208689863
40
1
40
1
40
1
40
1
41
1
10
29.9124870564709
20
24.7278329316517
30
0
41
1
10
29.9359513921819
20
24.7922086012984
30
0
41
1
10
29.949056810527
20
24.8618481609225
30
1E-16
41
1
10
29.9486207443506
20
24.991552785012
30
1E-16
41
1
10
29.9392713084773
20
25.0525500844185
30
1E-16
41
1
10
29.9002640546233
20
25.171435613132
30
0
41
1
10
29.8696126683786
20
25.2310188612707
30
0
41
1
10
29.7969296123759
20
25.3306218682385
30
0
41
1
10
29.7561201953749
20
25.3734000908412
30
0
41
1
10
29.6534592433407
20
25.4583557082985
30
0
41
1
10
29.5875095171411
20
25.4974116664092
30
0
41
1
10
29.4921491156258
20
25.5375732212223
30
0
41
1
10
29.4640300936344
20
25.547579639315
30
0
41
1
10
29.4356673029473
20
25.5559573285701
30
0
0
SPLINE
5
17B
100
AcDbEntity
8
1
62
256
6
ByLayer
370
-1
48
1
60
0
100
AcDbSpline
70
4
71
3
72
18
73
14
40
0
40
0
40
0
40
0
40
0.212491695755302
40
0.212491695755302
40
0.386618276853805
40
0.386618276853805
40
0.562426360907933
40
0.562426360907933
40
0.715388416645937
40
0.715388416645937
40
0.918249208689864
40
0.918249208689864
40
1
40
1
40
1
40
1
41
1
10
31.8530549420664
20
26.9834437151096
30
-1E-16
41
1
10
31.8398708413648
20
26.9110464889314
30
-1E-16
41
1
10
31.8364743744982
20
26.8338311391552
30
-1E-16
41
1
10
31.8510840144575
20
26.6930670282691
30
-1E-16
41
1
10
31.865632992298
20
26.6280125823296
30
-1E-16
41
1
10
31.9106529173638
20
26.5044354311009
30
-1E-16
41
1
10
31.942078279197
20
26.4442482581559
30
0
41
1
10
32.0115984943641
20
26.3471131817888
30
0
41
1
10
32.0490761808189
20
26.306934672607
30
0
41
1
10
32.1411309024168
20
26.2302549823977
30
0
41
1
10
32.1987851425201
20
26.1976719026421
30
0
41
1
10
32.2812838828535
20
26.1675461633688
30
0
41
1
10
32.3055096604018
20
26.1605776019363
30
0
41
1
10
32.32987469559
20
26.1553193181912
30
0
0
SPLINE
5
17C
100
AcDbEntity
8
1
62
256
6
ByLayer
370
-1
48
1
60
0
100
AcDbSpline
70
4
71
3
72
16
73
12
40
0
40
0
40
0
40
0
40
0.056944617282495
40
0.056944617282495
40
0.279906644834069
40
0.279906644834069
40
0.505321967306681
40
0.505321967306681
40
0.744915047128815
40
0.744915047128815
40
1
40
1
40
1
40
1
41
1
10
31.6987241351044
20
24.4379979496507
30
-1E-16
41
1
10
31.7052583728455
20
24.4418930188994
30
-1E-16
41
1
10
31.7116703176459
20
24.4460313110848
30
-1E-16
41
1
10
31.742233053199
20
24.4673275096461
30
-1E-16
41
1
10
31.7644870478218
20
24.4879610465009
30
-1E-16
41
1
10
31.8017773270497
20
24.5332853285511
30
-1E-16
41
1
10
31.8172238553832
20
24.5585821312491
30
-1E-16
41
1
10
31.8406165068055
20
24.6117609606065
30
-1E-16
41
1
10
31.848351235272
20
24.6403615406374
30
-1E-16
41
1
10
31.8553215212922
20
24.6976395057029
30
-1E-16
41
1
10
31.8540893516227
20
24.7268819989762
30
-1E-16
41
1
10
31.8486090015862
20
24.7539961798919
30
-1E-16
0
SPLINE
5
17D
100
AcDbEntity
8
1
62
256
6
ByLayer
370
-1
48
1
60
0
100
AcDbSpline
70
4
71
3
72
16
73
12
40
0
40
0
40
0
40
0
40
0.0569446172824973
40
0.0569446172824973
40
0.279906644834075
40
0.279906644834075
40
0.505321967306687
40
0.505321967306687
40
0.74491504712881
40
0.74491504712881
40
1
40
1
40
1
40
1
41
1
10
30.0363874082162
20
27.2970232532007
30
1E-16
41
1
10
30.029853170475
20
27.293128183952
30
1E-16
41
1
10
30.0234810632626
20
27.2889588069262
30
1E-16
41
1
10
29.993306457483
20
27.2673597548876
30
1E-16
41
1
10
29.9719803969551
20
27.2460021610641
30
1E-16
41
1
10
29.9376346684398
20
27.1983802778424
30
0
41
1
10
29.9242524030971
20
27.1714727529905
30
0
41
1
10
29.9059876655962
20
27.1142926676918
30
0
41
1
10
29.9014335472423
20
27.0832102918849
30
0
41
1
10
29.9016870428575
20
27.0202956878995
30
0
41
1
10
29.9070894307776
20
26.9877992182906
30
0
41
1
10
29.9169329969512
20
26.9572804668694
30
0
0
SPLINE
5
17E
100
AcDbEntity
8
1
62
256
6
ByLayer
370
-1
48
1
60
0
100
AcDbSpline
70
4
71
3
72
18
73
14
40
0
40
0
40
0
40
0
40
0.212491592102413
40
0.212491592102413
40
0.386618191488472
40
0.386618191488472
40
0.562426295050808
40
0.562426295050808
40
0.715388354469453
40
0.715388354469453
40
0.918249128147155
40
0.918249128147155
40
1
40
1
40
1
40
1
41
1
10
32.3287574170847
20
25.5950523013989
30
0
41
1
10
32.2660291367188
20
25.571675822642
30
0
41
1
10
32.2035992393582
20
25.5371776705144
30
0
41
1
10
32.0978761500036
20
25.455365527274
30
0
41
1
10
32.0520300374435
20
25.4104561572843
30
0
41
1
10
31.9711559469846
20
25.3091094769853
30
0
41
1
10
31.9351378102621
20
25.2509755441733
30
0
41
1
10
31.8835945464907
20
25.1397496965387
30
-1E-16
41
1
10
31.8653427340879
20
25.0856755624486
30
-1E-16
41
1
10
31.8380367214327
20
24.9636137823734
30
-1E-16
41
1
10
31.8332584448636
20
24.8947254765196
30
-1E-16
41
1
10
31.8400458452552
20
24.8044180838263
30
-1E-16
41
1
10
31.8435876777562
20
24.7788393161616
30
-1E-16
41
1
10
31.8486090015862
20
24.7539961798919
30
-1E-16
0
SPLINE
5
17F
100
AcDbEntity
8
1
62
256
6
ByLayer
370
-1
48
1
60
0
100
AcDbSpline
70
4
71
3
72
14
73
10
40
0
40
0
40
0
40
0
40
0.283961749036716
40
0.283961749036716
40
0.570285189259031
40
0.570285189259031
40
0.829451094335686
40
0.829451094335686
40
1
40
1
40
1
40
1
41
1
10
29.9124870564709
20
24.7278329316517
30
0
41
1
10
29.9014029736831
20
24.6974231531407
30
0
41
1
10
29.8958210009438
20
24.6644576251252
30
0
41
1
10
29.8979153012132
20
24.5984475454675
30
0
41
1
10
29.9057976043353
20
24.5643877981159
30
0
41
1
10
29.9338877269379
20
24.5046375196485
30
0
41
1
10
29.9533353941406
20
24.4775833368246
30
1E-16
41
1
10
29.9931406110846
20
24.4399244364103
30
1E-16
41
1
10
30.011203655146
20
24.4265444640757
30
1E-16
41
1
10
30.0306410190897
20
24.4154567699695
30
1E-16
0
SPLINE
5
180
100
AcDbEntity
8
1
62
256
6
ByLayer
370
-1
48
1
60
0
100
AcDbSpline
70
4
71
3
72
12
73
8
40
0
40
0
40
0
40
0
40
0.42211863392071
40
0.42211863392071
40
0.843213619146836
40
0.843213619146836
40
1
40
1
40
1
40
1
41
1
10
30.8206617981006
20
24.6404762607207
30
1E-16
41
1
10
30.752820922134
20
24.6321904840717
30
1E-16
41
1
10
30.6851097865108
20
24.6146465160985
30
1E-16
41
1
10
30.5613997599862
20
24.5660706367409
30
1E-16
41
1
10
30.5036232053323
20
24.534530254915
30
1E-16
41
1
10
30.4331142352125
20
24.4845018166757
30
1E-16
41
1
10
30.4146703080278
20
24.4701011736583
30
1E-16
41
1
10
30.3971061130668
20
24.4550614930732
30
1E-16
0
SPLINE
5
181
100
AcDbEntity
8
1
62
256
6
ByLayer
370
-1
48
1
60
0
100
AcDbSpline
70
4
71
3
72
16
73
12
40
0
40
0
40
0
40
0
40
0.0630415689509219
40
0.0630415689509219
40
0.285914332024967
40
0.285914332024967
40
0.511588305408895
40
0.511588305408895
40
0.751723061839367
40
0.751723061839367
40
1
40
1
40
1
40
1
41
1
10
32.5276216484677
20
25.889943442363
30
0
41
1
10
32.5276383650918
20
25.8983261088762
30
0
41
1
10
32.5273167108999
20
25.9066944441815
30
0
41
1
10
32.5243527874549
20
25.9441271848037
30
0
41
1
10
32.5177522400858
20
25.972846584653
30
0
41
1
10
32.4972705768065
20
26.0252943553936
30
0
41
1
10
32.4830591661971
20
26.0496329487643
30
0
41
1
10
32.4484711812622
20
26.0923986028793
30
0
41
1
10
32.4273482439836
20
26.1109038138359
30
0
41
1
10
32.3813019804239
20
26.1395487929668
30
0
41
1
10
32.3557707821096
20
26.1497306141424
30
0
41
1
10
32.32987469559
20
26.1553193181912
30
0
0
SPLINE
5
182
100
AcDbEntity
8
1
62
256
6
ByLayer
370
-1
48
1
60
0
100
AcDbSpline
70
4
71
3
72
16
73
12
40
0
40
0
40
0
40
0
40
0.0624450082614027
40
0.0624450082614027
40
0.283207995985773
40
0.283207995985773
40
0.506745688833535
40
0.506745688833535
40
0.744607284736972
40
0.744607284736972
40
1
40
1
40
1
40
1
41
1
10
31.7044705242308
20
27.3195644328819
30
-1E-16
41
1
10
31.6972584168018
20
27.3236784496419
30
-1E-16
41
1
10
31.6898795429093
20
27.3274608233535
30
-1E-16
41
1
10
31.656065556232
20
27.3429164142194
30
-1E-16
41
1
10
31.627832452311
20
27.3506237627009
30
-1E-16
41
1
10
31.5718083315312
20
27.3565905165743
30
-1E-16
41
1
10
31.5433166218926
20
27.3548299723214
30
-1E-16
41
1
10
31.4881516039038
20
27.3424336202701
30
-1E-16
41
1
10
31.4610148930828
20
27.3311131454796
30
-1E-16
41
1
10
31.41097667065
20
27.3000215361489
30
-1E-16
41
1
10
31.3879154064135
20
27.2793440800205
30
-1E-16
41
1
10
31.3689216743004
20
27.2558360979022
30
-1E-16
0
SPLINE
5
183
100
AcDbEntity
8
1
62
256
6
ByLayer
370
-1
48
1
60
0
100
AcDbSpline
70
4
71
3
72
16
73
12
40
0
40
0
40
0
40
0
40
0.0624450082613981
40
0.0624450082613981
40
0.283207995985755
40
0.283207995985755
40
0.5067456888335
40
0.5067456888335
40
0.744607284736918
40
0.744607284736918
40
1
40
1
40
1
40
1
41
1
10
30.0306410190897
20
24.4154567699695
30
1E-16
41
1
10
30.0378531265187
20
24.4113427532096
30
1E-16
41
1
10
30.0452807804974
20
24.4075223169227
30
1E-16
41
1
10
30.0795332280236
20
24.3917245997841
30
1E-16
41
1
10
30.1087259830634
20
24.3832684458819
30
1E-16
41
1
10
30.1677539466227
20
24.3749578258766
30
1E-16
41
1
10
30.1983398166017
20
24.3750843193962
30
1E-16
41
1
10
30.2586915288203
20
24.3834335498653
30
1E-16
41
1
10
30.2890391470707
20
24.3922485882102
30
1E-16
41
1
10
30.3463889229675
20
24.4176350712096
30
1E-16
41
1
10
30.3736858769259
20
24.4350074643191
30
1E-16
41
1
10
30.3971061130668
20
24.4550614930732
30
1E-16
0
SPLINE
5
184
100
AcDbEntity
8
1
62
256
6
ByLayer
370
-1
48
1
60
0
100
AcDbSpline
70
4
71
3
72
12
73
8
40
0
40
0
40
0
40
0
40
0.495779676780354
40
0.495779676780354
40
0.900233025448793
40
0.900233025448793
40
1
40
1
40
1
40
1
41
1
10
30.402665349288
20
27.2427788603874
30
1E-16
41
1
10
30.4574017926336
20
27.1889772248468
30
1E-16
41
1
10
30.5214845545858
20
27.1417285244431
30
1E-16
41
1
10
30.6492636903806
20
27.0761650640841
30
-1E-16
41
1
10
30.7123373376937
20
27.0535510817643
30
-1E-16
41
1
10
30.7928912713071
20
27.0376968761623
30
-1E-16
41
1
10
30.8091432362525
20
27.0351216096345
30
-1E-16
41
1
10
30.8254332932689
20
27.0331754409028
30
-1E-16
0
SPLINE
5
185
100
AcDbEntity
8
1
62
256
6
ByLayer
370
-1
48
1
60
0
100
AcDbSpline
70
4
71
3
72
12
73
8
40
0
40
0
40
0
40
0
40
0.422118633920765
40
0.422118633920765
40
0.843213619146895
40
0.843213619146895
40
1
40
1
40
1
40
1
41
1
10
30.9902451811317
20
27.0354025807511
30
-1E-16
41
1
10
31.0560095874075
20
27.0453086043102
30
-1E-16
41
1
10
31.1190567389511
20
27.0664918287715
30
-1E-16
41
1
10
31.2304566532705
20
27.1246731559494
30
-1E-16
41
1
10
31.2804883705018
20
27.1622567509076
30
-1E-16
41
1
10
31.3394826199685
20
27.2212700015155
30
-1E-16
41
1
10
31.3546771717316
20
27.238206097138
30
-1E-16
41
1
10
31.3689216743004
20
27.2558360979022
30
-1E-16
0
SPLINE
5
186
100
AcDbEntity
8
1
62
256
6
ByLayer
370
-1
48
1
60
0
100
AcDbSpline
70
4
71
3
72
14
73
10
40
0
40
0
40
0
40
0
40
0.283961457856588
40
0.283961457856588
40
0.57028493464662
40
0.57028493464662
40
0.829450869060466
40
0.829450869060466
40
1
40
1
40
1
40
1
41
1
10
29.4367845814526
20
26.1162243453625
30
0
41
1
10
29.4022968400921
20
26.108970989294
30
0
41
1
10
29.3684358732714
20
26.0956800853135
30
0
41
1
10
29.3078050978943
20
26.0578280828301
30
0
41
1
10
29.2801946751833
20
26.0325367708707
30
0
41
1
10
29.2393584145145
20
25.9760468460731
30
0
41
1
10
29.2244520227163
20
25.9447491596391
30
0
41
1
10
29.2104394121423
20
25.8903397110431
30
0
41
1
10
29.207534948065
20
25.8676700046308
30
0
41
1
10
29.2074898948529
20
25.8450777604884
30
0
0
SPLINE
5
187
100
AcDbEntity
8
1
62
256
6
ByLayer
370
-1
48
1
60
0
100
AcDbSpline
70
4
71
3
72
22
73
18
40
0
40
0
40
0
40
0
40
0.0117840372176771
40
0.0117840372176771
40
0.104049710075769
40
0.104049710075769
40
0.19631538293386
40
0.19631538293386
40
0.380846728650043
40
0.380846728650043
40
0.565378074366225
40
0.565378074366225
40
0.749909420082408
40
0.749909420082408
40
0.934440765798591
40
0.934440765798591
40
1
40
1
40
1
40
1
41
1
10
37.6046507010247
20
-4.46004656075985
30
-1E-16
41
1
10
37.6443337646403
20
-4.45441254047441
30
-1E-16
41
1
10
37.6840185637149
20
-4.44878200892342
30
-1E-16
41
1
10
38.0344413616349
20
-4.39910070305197
30
-1E-16
41
1
10
38.3647400633686
20
-4.35719344306492
30
-1E-16
41
1
10
38.7801573682306
20
-4.32438529981496
30
-1E-16
41
1
10
38.8262789274895
20
-4.33608603522279
30
-1E-16
41
1
10
39.0528860121364
20
-4.354172452965
30
-1E-16
41
1
10
39.1729580311376
20
-4.37119945603266
30
-1E-16
41
1
10
39.4629072099703
20
-4.39740397874024
30
0
41
1
10
39.4016493501694
20
-4.43974103767556
30
0
41
1
10
39.3606264206745
20
-4.51286916906582
30
0
41
1
10
39.3326388462263
20
-4.55073936661682
30
0
41
1
10
39.5080858743252
20
-4.59264222935946
30
0
41
1
10
39.7442597376593
20
-4.59262021249009
30
0
41
1
10
39.5804053805017
20
-4.66004825928343
30
0
41
1
10
39.4356175448517
20
-4.69086217818855
30
0
41
1
10
39.2465532646287
20
-4.72359297696872
30
0
0
SPLINE
5
188
100
AcDbEntity
8
1
62
256
6
ByLayer
370
-1
48
1
60
0
100
AcDbSpline
70
4
71
3
72
10
73
6
40
0
40
0
40
0
40
0
40
0.467812994633002
40
0.467812994633002
40
1
40
1
40
1
40
1
41
1
10
39.8224053256795
20
1.83581147013311
30
0
41
1
10
39.9162358116766
20
1.85230424331206
30
0
41
1
10
39.9915242082837
20
1.85759188090242
30
0
41
1
10
39.9924235744995
20
1.83057290033426
30
0
41
1
10
40.0024250139159
20
1.81728597278874
30
0
41
1
10
39.9998350350092
20
1.80272033238649
30
0
0
SPLINE
5
189
100
AcDbEntity
8
1
62
256
6
ByLayer
370
-1
48
1
60
0
100
AcDbSpline
70
4
71
3
72
10
73
6
40
0
40
0
40
0
40
0
40
0.126560526058618
40
0.126560526058618
40
1
40
1
40
1
40
1
41
1
10
31.9851224067969
20
-29.9054904273443
30
4E-16
41
1
10
32.1186291442712
20
-29.9034884782405
30
4E-16
41
1
10
32.252135859593
20
-29.9014865793194
30
4E-16
41
1
10
33.3070200118421
20
-29.8856692548977
30
-4E-16
41
1
10
34.2283954073571
20
-29.8718584536487
30
-4E-16
41
1
10
35.1497728295409
20
-29.8580430615464
30
-3E-16
0
SPLINE
5
18A
100
AcDbEntity
8
1
62
256
6
ByLayer
370
-1
48
1
60
0
100
AcDbSpline
70
4
71
3
72
12
73
8
40
0
40
0
40
0
40
0
40
0.543999554024306
40
0.543999554024306
40
0.815999331036459
40
0.815999331036459
40
1
40
1
40
1
40
1
41
1
10
27.3934231071796
20
-30.3182790145623
30
1E-16
41
1
10
26.7864883696837
20
-30.3301821343941
30
1E-16
41
1
10
26.1795686438853
20
-30.3436419067042
30
0
41
1
10
25.2691805339438
20
-30.3611517423557
30
0
41
1
10
24.9402092113122
20
-30.3177734594543
30
0
41
1
10
24.5760866880261
20
-29.9576058785613
30
-1E-16
41
1
10
24.5019282691638
20
-29.760310078482
30
-1E-16
41
1
10
24.4444933703906
20
-29.555743297694
30
-1E-16
0
SPLINE
5
18B
100
AcDbEntity
8
1
62
256
6
ByLayer
370
-1
48
1
60
0
100
AcDbSpline
70
4
71
3
72
20
73
16
40
0
40
0
40
0
40
0
40
0.0322689660387864
40
0.0322689660387864
40
0.225815172831029
40
0.225815172831029
40
0.419361379623271
40
0.419361379623271
40
0.612907586415513
40
0.612907586415513
40
0.709680689811635
40
0.709680689811635
40
0.806453793207757
40
0.806453793207757
40
1
40
1
40
1
40
1
41
1
10
39.2472375994552
20
-23.7712538956126
30
0
41
1
10
39.2702831028812
20
-23.8727006010204
30
0
41
1
10
39.2937617510758
20
-23.9740395933297
30
0
41
1
10
39.4629072099703
20
-24.6819629309251
30
0
41
1
10
39.4016493501694
20
-25.2911333836752
30
0
41
1
10
39.3606264206744
20
-26.5086214593062
30
0
41
1
10
39.3326388462263
20
-27.121905935323
30
0
41
1
10
39.5080858743251
20
-28.3271389119461
30
0
41
1
10
39.7442597376593
20
-28.9291847677873
30
0
41
1
10
39.5629078548471
20
-29.8151639977116
30
0
41
1
10
39.3007560213684
20
-30.0694150759035
30
0
41
1
10
38.6939403363005
20
-30.1695673882291
30
-1E-16
41
1
10
38.3836949627431
20
-30.1422856792205
30
-1E-16
41
1
10
37.4624421052287
20
-30.156300331891
30
-2E-16
41
1
10
36.8482998154974
20
-30.1667420948775
30
-2E-16
41
1
10
36.2341361638607
20
-30.1760860507426
30
-2E-16
0
SPLINE
5
18C
100
AcDbEntity
8
1
62
256
6
ByLayer
370
-1
48
1
60
0
100
AcDbSpline
70
4
71
3
72
9
73
5
40
0
40
0
40
0
40
0
40
0.798545614703457
40
1
40
1
40
1
40
1
41
1
10
32.3617558572345
20
-24.044177650023
30
0
41
1
10
32.047768858032
20
-23.8553309970051
30
0
41
1
10
31.5920448293882
20
-23.7228999105875
30
-1E-16
41
1
10
31.1366532042788
20
-23.7544878138517
30
-1E-16
41
1
10
31.0457296617529
20
-23.7671678547174
30
-1E-16
0
SPLINE
5
18D
100
AcDbEntity
8
1
62
256
6
ByLayer
370
-1
48
1
60
0
100
AcDbSpline
70
4
71
3
72
14
73
10
40
0
40
0
40
0
40
0
40
0.217487831850636
40
0.217487831850636
40
0.478325141833876
40
0.478325141833876
40
0.739162451490885
40
0.739162451490885
40
1
40
1
40
1
40
1
41
1
10
28.4192695826478
20
-29.9589667074806
30
2E-16
41
1
10
28.339421980619
20
-29.9599580682422
30
2E-16
41
1
10
28.2594806984099
20
-29.9665589549286
30
2E-16
41
1
10
28.0859872375628
20
-29.9932041223648
30
2E-16
41
1
10
27.99230309539
20
-30.0157726310003
30
2E-16
41
1
10
27.8106310120247
20
-30.0760591414031
30
1E-16
41
1
10
27.7220199789041
20
-30.1139839081363
30
1E-16
41
1
10
27.5528950209622
20
-30.2038355156903
30
1E-16
41
1
10
27.4718010425483
20
-30.2560705373761
30
1E-16
41
1
10
27.3958444807006
20
-30.314539765735
30
1E-16
0
SPLINE
5
18E
100
AcDbEntity
8
1
62
256
6
ByLayer
370
-1
48
1
60
0
100
AcDbSpline
70
4
71
3
72
10
73
6
40
0
40
0
40
0
40
0
40
0.332052727953821
40
0.332052727953821
40
1
40
1
40
1
40
1
41
1
10
28.4192695826477
20
-29.9589667074771
30
2E-16
41
1
10
28.7097087886872
20
-29.9546115757099
30
2E-16
41
1
10
29.0001481748097
20
-29.9502560360002
30
2E-16
41
1
10
29.8748269618772
20
-29.9371384014636
30
3E-16
41
1
10
30.4590666443745
20
-29.9283756688025
30
3E-16
41
1
10
31.0433058995298
20
-29.9196139042581
30
3E-16
0
SPLINE
5
18F
100
AcDbEntity
8
1
62
256
6
ByLayer
370
-1
48
1
60
0
100
AcDbSpline
70
4
71
3
72
14
73
10
40
0
40
0
40
0
40
0
40
0.499999999999999
40
0.499999999999999
40
0.749999999999999
40
0.749999999999999
40
0.875
40
0.875
40
1
40
1
40
1
40
1
41
1
10
36.1954296451209
20
-30.1766705332798
30
-2E-16
41
1
10
36.1108914174068
20
-30.2972145447237
30
-2E-16
41
1
10
36.0143922661162
20
-30.4180346163771
30
2E-16
41
1
10
35.8172491719708
20
-30.5995156571465
30
2E-16
41
1
10
35.7439824895108
20
-30.6599523875313
30
2E-16
41
1
10
35.5960873836565
20
-30.7503621933531
30
0
41
1
10
35.5410548175293
20
-30.7807098049114
30
-1E-16
41
1
10
35.3911313918013
20
-30.840037315649
30
-1E-16
41
1
10
35.2703898617436
20
-30.8781351520265
30
-1E-16
41
1
10
35.1245230900726
20
-30.8764736040266
30
-1E-16
0
SPLINE
5
190
100
AcDbEntity
8
1
62
256
6
ByLayer
370
-1
48
1
60
0
100
AcDbSpline
70
4
71
3
72
8
73
4
40
0
40
0
40
0
40
0
40
1
40
1
40
1
40
1
41
1
10
28.390489451258
20
-31.1197931334487
30
0
41
1
10
30.6319066737917
20
-31.0532373183042
30
1E-16
41
1
10
32.8778133949405
20
-30.9690784015755
30
0
41
1
10
35.1245230900725
20
-30.8764736040266
30
-1E-16
0
SPLINE
5
191
100
AcDbEntity
8
1
62
256
6
ByLayer
370
-1
48
1
60
0
100
AcDbSpline
70
4
71
3
72
14
73
10
40
0
40
0
40
0
40
0
40
0.125
40
0.125
40
0.249999999999999
40
0.249999999999999
40
0.499999999999999
40
0.499999999999999
40
1
40
1
40
1
40
1
41
1
10
28.3904894512605
20
-31.1197931334404
30
0
41
1
10
28.2073956992057
20
-31.1263598209852
30
-1E-16
41
1
10
28.1284670696687
20
-31.0835164581014
30
2E-16
41
1
10
27.9918049647668
20
-31.0213721384916
30
2E-16
41
1
10
27.9401061616968
20
-30.9878923642924
30
1E-16
41
1
10
27.8021328992424
20
-30.8863496517681
30
1E-16
41
1
10
27.7344601788087
20
-30.8165102131744
30
1E-16
41
1
10
27.5538232835918
20
-30.6052191692158
30
1E-16
41
1
10
27.4669384833705
20
-30.4615980604041
30
1E-16
41
1
10
27.3909722483245
20
-30.3183847861008
30
1E-16
0
SPLINE
5
192
100
AcDbEntity
8
1
62
256
6
ByLayer
370
-1
48
1
60
0
100
AcDbSpline
70
4
71
3
72
8
73
4
40
0
40
0
40
0
40
0
40
1
40
1
40
1
40
1
41
1
10
39.4441540621151
20
-25.4870726853801
30
0
41
1
10
39.4452600026205
20
-26.0903438374191
30
0
41
1
10
39.4311410379363
20
-26.6965625658241
30
0
41
1
10
39.4439711125575
20
-27.3107842929674
30
0
0
SPLINE
5
193
100
AcDbEntity
8
1
62
256
6
ByLayer
370
-1
48
1
60
0
100
AcDbSpline
70
4
71
3
72
32
73
28
40
0
40
0
40
0
40
0
40
0.0251468242218524
40
0.0251468242218524
40
0.0746646352700584
40
0.0746646352700584
40
0.124182446318265
40
0.124182446318265
40
0.173700257366471
40
0.173700257366471
40
0.223218068414677
40
0.223218068414677
40
0.32225369051109
40
0.32225369051109
40
0.520324934703916
40
0.520324934703916
40
0.718396178896741
40
0.718396178896741
40
0.817431800993154
40
0.817431800993154
40
0.86694961204136
40
0.86694961204136
40
0.916467423089567
40
0.916467423089567
40
0.965985234137773
40
0.965985234137773
40
1
40
1
40
1
40
1
41
1
10
39.8943832563143
20
-28.701407624612
30
0
41
1
10
39.9519577116513
20
-28.8561144609302
30
0
41
1
10
39.9916398149049
20
-29.0155263504605
30
0
41
1
10
39.9925457867306
20
-29.5096377443796
30
0
41
1
10
40.0081533486197
20
-29.8383742298737
30
0
41
1
10
39.9818869986146
20
-30.4909243840692
30
0
41
1
10
39.8541884131066
20
-30.8246239251541
30
0
41
1
10
39.3631883893673
20
-31.2574588259673
30
0
41
1
10
39.0281566049969
20
-31.3413440838305
30
-1E-16
41
1
10
38.3959170271424
20
-31.3487286518533
30
-1E-16
41
1
10
38.0787752810221
20
-31.3552368835964
30
1E-16
41
1
10
37.1276006519055
20
-31.3697745091236
30
0
41
1
10
36.4932839140997
20
-31.3774373010667
30
0
41
1
10
34.5901459368307
20
-31.3971141711587
30
-1E-16
41
1
10
33.3213052377219
20
-31.4071154235595
30
0
41
1
10
30.7842091848675
20
-31.4168779102237
30
0
41
1
10
29.5156536658545
20
-31.4175038872497
30
0
41
1
10
27.6121615154497
20
-31.4146734179764
30
0
41
1
10
26.9775741071082
20
-31.4123006656556
30
0
41
1
10
26.0255146522821
20
-31.4026587649574
30
0
41
1
10
25.7081215728989
20
-31.3971110134957
30
0
41
1
10
25.0732843130591
20
-31.3907499378814
30
0
41
1
10
24.7554273250827
20
-31.4256504464183
30
0
41
1
10
24.1265636022906
20
-31.3434349489337
30
-1E-16
41
1
10
23.8171299479628
20
-31.1861359036062
30
-1E-16
41
1
10
23.4772006203297
20
-30.7468660171824
30
1E-16
41
1
10
23.4036837294595
20
-30.5333939613187
30
1E-16
41
1
10
23.3436068843596
20
-30.3156889476979
30
1E-16
0
SPLINE
5
194
100
AcDbEntity
8
1
62
256
6
ByLayer
370
-1
48
1
60
0
100
AcDbSpline
70
4
71
3
72
8
73
4
40
0
40
0
40
0
40
0
40
1
40
1
40
1
40
1
41
1
10
31.9851224067969
20
-29.9054904273442
30
4E-16
41
1
10
31.6711836937648
20
-29.9101979749713
30
4E-16
41
1
10
31.357244858209
20
-29.9149058001501
30
4E-16
41
1
10
31.0433058995298
20
-29.9196139042581
30
3E-16
0
SPLINE
5
195
100
AcDbEntity
8
1
62
256
6
ByLayer
370
-1
48
1
60
0
100
AcDbSpline
70
4
71
3
72
14
73
10
40
0
40
0
40
0
40
0
40
0.427915383507546
40
0.427915383507546
40
0.677126833193998
40
0.677126833193998
40
0.926339366110845
40
0.926339366110845
40
1
40
1
40
1
40
1
41
1
10
36.1914017169674
20
-30.1737454761571
30
-2E-16
41
1
10
36.0637234155172
20
-30.0810946921282
30
-2E-16
41
1
10
35.9216141500791
20
-30.0060782426107
30
-2E-16
41
1
10
35.6866625795708
20
-29.9221094421778
30
-3E-16
41
1
10
35.5969939442969
20
-29.8982827452354
30
-3E-16
41
1
10
35.4156839927848
20
-29.8660255549532
30
-3E-16
41
1
10
35.3234208138042
20
-29.8574844910734
30
-3E-16
41
1
10
35.2042171234835
20
-29.8564764398799
30
-3E-16
41
1
10
35.1769754760562
20
-29.8569221559303
30
-3E-16
41
1
10
35.1497728295411
20
-29.8580430615465
30
-3E-16
0
SPLINE
5
196
100
AcDbEntity
8
1
62
256
6
ByLayer
370
-1
48
1
60
0
100
AcDbSpline
70
4
71
3
72
18
73
14
40
0
40
0
40
0
40
0
40
0.138132378126107
40
0.138132378126107
40
0.334279253148968
40
0.334279253148968
40
0.530673400768432
40
0.530673400768432
40
0.732693790766731
40
0.732693790766731
40
0.925982041617282
40
0.925982041617282
40
1
40
1
40
1
40
1
41
1
10
31.0780271136863
20
-23.745323977058
30
3E-16
41
1
10
31.2333779878279
20
-23.7094307410287
30
4E-16
41
1
10
31.3934962525569
20
-23.6915981988221
30
4E-16
41
1
10
31.7772394613339
20
-23.6976430329052
30
4E-16
41
1
10
32.0048910127075
20
-23.7419977711606
30
4E-16
41
1
10
32.4289743550946
20
-23.8988842528512
30
4E-16
41
1
10
32.6314859394888
20
-24.013660883023
30
4E-16
41
1
10
32.9882672566892
20
-24.3042408356196
30
-4E-16
41
1
10
33.144824945765
20
-24.4870344356728
30
-4E-16
41
1
10
33.3794651890401
20
-24.8802455417401
30
-4E-16
41
1
10
33.4644860381353
20
-25.0940870122985
30
-4E-16
41
1
10
33.5317989725201
20
-25.3975645623553
30
-4E-16
41
1
10
33.545307463175
20
-25.4835227673754
30
-4E-16
41
1
10
33.5532774979706
20
-25.5699075412823
30
-4E-16
0
SPLINE
5
197
100
AcDbEntity
8
1
62
256
6
ByLayer
370
-1
48
1
60
0
100
AcDbSpline
70
4
71
3
72
8
73
4
40
0
40
0
40
0
40
0
40
1
40
1
40
1
40
1
41
1
10
31.985122406797
20
6.82987622976719
30
-5E-16
41
1
10
31.6711836937649
20
6.87455114888033
30
-5E-16
41
1
10
31.3572448582091
20
6.91922519053117
30
-5E-16
41
1
10
31.0433058995299
20
6.96389835036362
30
-5E-16
0
SPLINE
5
198
100
AcDbEntity
8
1
62
256
6
ByLayer
370
-1
48
1
60
0
100
AcDbSpline
70
4
71
3
72
14
73
10
40
0
40
0
40
0
40
0
40
0.5
40
0.5
40
0.75
40
0.75
40
0.875
40
0.875
40
1
40
1
40
1
40
1
41
1
10
36.195429645121
20
6.26144642967455
30
-2E-16
41
1
10
36.1108914174068
20
5.68711233612584
30
-2E-16
41
1
10
36.0143922661163
20
5.11386150088265
30
-2E-16
41
1
10
35.8172491719708
20
4.26673163145784
30
-3E-16
41
1
10
35.7439824895109
20
3.98666151686888
30
-3E-16
41
1
10
35.5960873836565
20
3.57817133874866
30
-3E-16
41
1
10
35.5410548175293
20
3.44254457216769
30
-3E-16
41
1
10
35.3911313918013
20
3.18878405750778
30
-3E-16
41
1
10
35.2703898617436
20
3.03274242447409
30
-3E-16
41
1
10
35.1245230900726
20
3.07876991394875
30
-3E-16
0
SPLINE
5
199
100
AcDbEntity
8
1
62
256
6
ByLayer
370
-1
48
1
60
0
100
AcDbSpline
70
4
71
2
72
11
73
8
40
0
40
0
40
0
40
0.138236143219249
40
0.138236143219249
40
0.261345265616499
40
0.630672632808249
40
0.630672632808249
40
1
40
1
40
1
41
1
10
27.9643869758487
20
2.27142907679399
30
-7E-16
41
1
10
27.5806019586368
20
2.32477031228558
30
-8E-16
41
1
10
27.3782372279546
20
2.35028125673179
30
-8E-16
41
1
10
27.026802143563
20
2.39458463353139
30
-8E-16
41
1
10
25.9854967110664
20
2.49235433153936
30
-9E-16
41
1
10
25.661541991548
20
2.43217540660743
30
-9E-16
41
1
10
25.3616000951069
20
2.37645718494761
30
-9E-16
41
1
10
25.4225819854125
20
2.28753575955625
30
-9E-16
0
SPLINE
5
19A
100
AcDbEntity
8
1
62
256
6
ByLayer
370
-1
48
1
60
0
100
AcDbSpline
70
4
71
3
72
13
73
9
40
0
40
0
40
0
40
0
40
0.0017791863194624
40
0.0017791863194624
40
0.326349142038686
40
0.650919097757909
40
0.975489053477133
40
1
40
1
40
1
40
1
41
1
10
30.9198642502038
20
1.25497153211194
30
-6E-16
41
1
10
30.9179457670778
20
1.25524095470524
30
-6E-16
41
1
10
30.9160278571803
20
1.25551048675132
30
-6E-16
41
1
10
30.5643396488884
20
1.30496956286808
30
-6E-16
41
1
10
29.8267157252568
20
1.42134799745554
30
-6E-16
41
1
10
28.8660294938715
20
1.61701421410399
30
-7E-16
41
1
10
28.4592833825233
20
1.73119713925274
30
-7E-16
41
1
10
28.3163631347719
20
1.78497831445807
30
-7E-16
41
1
10
28.3066713591744
20
1.78872522980504
30
-7E-16
0
SPLINE
5
19B
100
AcDbEntity
8
1
62
256
6
ByLayer
370
-1
48
1
60
0
100
AcDbSpline
70
4
71
3
72
11
73
7
40
0
40
0
40
0
40
0
40
0.264439864419219
40
0.550481051167827
40
0.836522237916436
40
1
40
1
40
1
40
1
41
1
10
28.3066713591735
20
1.78872522980532
30
-7E-16
41
1
10
28.1880262231969
20
1.83459435629931
30
-7E-16
41
1
10
28.04819365232
20
1.92091847245658
30
-7E-16
41
1
10
28.2825958545474
20
1.98925009063757
30
-7E-16
41
1
10
28.7895866287738
20
1.98854825860502
30
-7E-16
41
1
10
29.2524861177601
20
1.95762033795771
30
-7E-16
41
1
10
29.4333843891693
20
1.94280446877838
30
-6E-16
0
SPLINE
5
19C
100
AcDbEntity
8
1
62
256
6
ByLayer
370
-1
48
1
60
0
100
AcDbSpline
70
4
71
3
72
14
73
10
40
0
40
0
40
0
40
0
40
0.121955612154124
40
0.121955612154124
40
0.341466709115593
40
0.341466709115593
40
0.560977806077062
40
0.560977806077062
40
1
40
1
40
1
40
1
41
1
10
39.6522871011176
20
5.66849299392703
30
0
41
1
10
39.6629742487921
20
5.68220740819061
30
0
41
1
10
39.6569435421434
20
5.6982193521869
30
0
41
1
10
39.5629078548474
20
5.75370126551576
30
0
41
1
10
39.3007560213688
20
5.81384979064578
30
0
41
1
10
38.693940336301
20
5.90868049895664
30
-1E-16
41
1
10
38.3836949627436
20
5.94994564316389
30
-1E-16
41
1
10
37.4624421052292
20
6.08105135378895
30
-2E-16
41
1
10
36.8482998154974
20
6.16851164776097
30
-2E-16
41
1
10
36.2341361638608
20
6.25591541291519
30
-2E-16
0
SPLINE
5
19D
100
AcDbEntity
8
1
62
256
6
ByLayer
370
-1
48
1
60
0
100
AcDbSpline
70
4
71
3
72
40
73
36
40
0
40
0
40
0
40
0
40
0.0278163295405935
40
0.0278163295405935
40
0.0638231321502011
40
0.0638231321502011
40
0.0998299347598087
40
0.0998299347598087
40
0.135836737369416
40
0.135836737369416
40
0.171843539979024
40
0.171843539979024
40
0.207850342588631
40
0.207850342588631
40
0.279863947807847
40
0.279863947807847
40
0.423891158246277
40
0.423891158246277
40
0.567918368684707
40
0.567918368684707
40
0.639931973903922
40
0.639931973903922
40
0.67593877651353
40
0.67593877651353
40
0.711945579123137
40
0.711945579123137
40
0.747952381732745
40
0.747952381732745
40
0.783959184342353
40
0.783959184342353
40
0.855972789561569
40
0.855972789561569
40
0.927986394780784
40
0.927986394780784
40
1
40
1
40
1
40
1
41
1
10
39.4635207211415
20
-0.698018682292371
30
0
41
1
10
39.5003412911148
20
-0.724429376296399
30
0
41
1
10
39.5864861154749
20
-0.751595483710474
30
0
41
1
10
39.8380573579002
20
-0.795525029110337
30
0
41
1
10
39.9913441002423
20
-0.802996187027247
30
0
41
1
10
39.9925457867306
20
-0.742923279466368
30
0
41
1
10
40.0081533486197
20
-0.714567588516218
30
0
41
1
10
39.9818869986147
20
-0.652106404107514
30
0
41
1
10
39.8541884131067
20
-0.604432008972026
30
0
41
1
10
39.3631883893673
20
-0.495017075509736
30
0
41
1
10
39.0281566049969
20
-0.433910240952173
30
-1E-16
41
1
10
38.3959170271424
20
-0.268728511761765
30
-1E-16
41
1
10
38.0787752810222
20
-0.190474732663603
30
-1E-16
41
1
10
37.1276006519055
20
0.0457119964817139
30
-2E-16
41
1
10
36.4932839140997
20
0.20237422047137
30
-2E-16
41
1
10
34.5901459368308
20
0.671459674663453
30
-3E-16
41
1
10
33.3213052377219
20
0.983791043295014
30
-4E-16
41
1
10
30.7842091848675
20
1.61062569000546
30
-6E-16
41
1
10
29.5156536658546
20
1.92384352523311
30
-6E-16
41
1
10
27.6121615154498
20
2.39073626908396
30
-8E-16
41
1
10
26.9775741071083
20
2.54594753718544
30
-8E-16
41
1
10
26.0255146522822
20
2.77746028585787
30
-9E-16
41
1
10
25.7081215728989
20
2.85428614818795
30
-9E-16
41
1
10
25.0732843130591
20
3.00797840901174
30
-9E-16
41
1
10
24.7554273250827
20
3.0927058577395
30
-9E-16
41
1
10
24.1265636022907
20
3.23660624557016
30
-1E-15
41
1
10
23.8171299479628
20
3.27156671680484
30
-1E-15
41
1
10
23.4141121832044
20
3.26605757733233
30
-1E-15
41
1
10
23.3501519678529
20
3.23678586861522
30
-1E-15
41
1
10
23.0945932798046
20
3.09734227222805
30
-1E-15
41
1
10
22.9157137936306
20
2.93475121394474
30
-1E-15
41
1
10
22.5391051310933
20
2.55912208734728
30
-1.1E-15
41
1
10
22.2922131303792
20
2.35354592156583
30
-1.1E-15
41
1
10
22.1417123706137
20
1.89250368248264
30
-1.1E-15
41
1
10
22.1515887570997
20
1.67095611602457
30
-1.1E-15
41
1
10
22.0826347430185
20
1.5002579655272
30
-1.1E-15
0
SPLINE
5
19E
100
AcDbEntity
8
1
62
256
6
ByLayer
370
-1
48
1
60
0
100
AcDbSpline
70
4
71
3
72
10
73
6
40
0
40
0
40
0
40
0
40
0.126560526058618
40
0.126560526058618
40
1
40
1
40
1
40
1
41
1
10
31.985122406797
20
6.82987622976719
30
-5E-16
41
1
10
32.1186291442712
20
6.8108776085391
30
-5E-16
41
1
10
32.252135859593
20
6.7918788286616
30
-5E-16
41
1
10
33.3070200118421
20
6.64176142153184
30
-4E-16
41
1
10
34.2283954073571
20
6.51062817501571
30
-4E-16
41
1
10
35.149772829541
20
6.37950944217675
30
-3E-16
0
SPLINE
5
19F
100
AcDbEntity
8
1
62
256
6
ByLayer
370
-1
48
1
60
0
100
AcDbSpline
70
4
71
3
72
14
73
10
40
0
40
0
40
0
40
0
40
0.217487831850635
40
0.217487831850635
40
0.478325141833876
40
0.478325141833876
40
0.739162451490886
40
0.739162451490886
40
1
40
1
40
1
40
1
41
1
10
28.4192695826479
20
7.33729429239977
30
-7E-16
41
1
10
28.339421980619
20
7.34863808444049
30
-7E-16
41
1
10
28.25948069841
20
7.36051056456114
30
-7E-16
41
1
10
28.0859872375629
20
7.38740891743177
30
-7E-16
41
1
10
27.99230309539
20
7.40268527595157
30
-7E-16
41
1
10
27.8106310120247
20
7.43382694272049
30
-7E-16
41
1
10
27.7220199789041
20
7.44979907234773
30
-8E-16
41
1
10
27.5528950209623
20
7.4818886317681
30
-8E-16
41
1
10
27.4718010425483
20
7.49811612984217
30
-8E-16
41
1
10
27.3958444807006
20
7.5141924176944
30
-8E-16
0
SPLINE
5
1A0
100
AcDbEntity
8
1
62
256
6
ByLayer
370
-1
48
1
60
0
100
AcDbSpline
70
4
71
3
72
8
73
4
40
0
40
0
40
0
40
0
40
1
40
1
40
1
40
1
41
1
10
28.3904894512581
20
3.57504884728064
30
-7E-16
41
1
10
30.6319066737918
20
3.36301745590481
30
-6E-16
41
1
10
32.8778133949406
20
3.20726378873655
30
-4E-16
41
1
10
35.1245230900726
20
3.0787699139488
30
-3E-16
0
SPLINE
5
1A1
100
AcDbEntity
8
1
62
256
6
ByLayer
370
-1
48
1
60
0
100
AcDbSpline
70
4
71
2
72
9
73
6
40
0
40
0
40
0
40
0.353481806292532
40
0.706963612585065
40
0.706963612585065
40
1
40
1
40
1
41
1
10
25.4225819854125
20
2.28753575955625
30
-9E-16
41
1
10
25.4915966867293
20
2.18781744532473
30
-9E-16
41
1
10
26.5737411585755
20
1.8766162497077
30
-8E-16
41
1
10
27.4149955727158
20
1.71500738566394
30
-8E-16
41
1
10
28.0644503081093
20
1.5902441270461
30
-7E-16
41
1
10
28.9126088618037
20
1.45987742968435
30
-7E-16
0
SPLINE
5
1A2
100
AcDbEntity
8
1
62
256
6
ByLayer
370
-1
48
1
60
0
100
AcDbSpline
70
4
71
2
72
10
73
7
40
0
40
0
40
0
40
0.16206362526798
40
0.16206362526798
40
0.703628788311381
40
0.703628788311381
40
1
40
1
40
1
41
1
10
32.8963344587239
20
0.896728871515165
30
-4E-16
41
1
10
33.0323994729793
20
0.877262124457246
30
-4E-16
41
1
10
33.1644544692869
20
0.858246017061873
30
-4E-16
41
1
10
33.8911360001268
20
0.753602842482536
30
-4E-16
41
1
10
34.1372019625114
20
0.720573002381485
30
-4E-16
41
1
10
34.4375138933921
20
0.680261636431879
30
-3E-16
41
1
10
34.6904031349423
20
0.65095347322395
30
-3E-16
0
SPLINE
5
1A3
100
AcDbEntity
8
1
62
256
6
ByLayer
370
-1
48
1
60
0
100
AcDbSpline
70
4
71
3
72
22
73
18
40
0
40
0
40
0
40
0
40
0.170839417542184
40
0.170839417542184
40
0.256259126313276
40
0.256259126313276
40
0.341678835084368
40
0.341678835084368
40
0.512518252626551
40
0.512518252626551
40
0.683357670168735
40
0.683357670168735
40
0.768777378939826
40
0.768777378939826
40
0.854197087710918
40
0.854197087710918
40
1
40
1
40
1
40
1
41
1
10
27.3934231071797
20
7.51487720538987
30
-8E-16
41
1
10
26.7864883696837
20
7.60150406991858
30
-8E-16
41
1
10
26.1795686438854
20
7.68816114931971
30
-8E-16
41
1
10
25.2691805339438
20
7.81813002867383
30
-9E-16
41
1
10
24.9402092113123
20
7.86068245920583
30
-9E-16
41
1
10
24.5058182101061
20
7.88252582687662
30
-9E-16
41
1
10
24.4476392622945
20
7.860368614706
30
-1E-15
41
1
10
24.2070190466554
20
7.81211973131249
30
-1E-15
41
1
10
24.0714143643236
20
7.77589543039895
30
-1E-15
41
1
10
23.8482512640491
20
7.69613842981406
30
-1E-15
41
1
10
23.852915122199
20
7.63831558707048
30
-1E-15
41
1
10
23.8775302114445
20
7.549080155269
30
-1E-15
41
1
10
23.8780639677517
20
7.52040443173735
30
-1E-15
41
1
10
23.8699327555317
20
7.46433533738679
30
-1E-15
41
1
10
23.8963822359043
20
7.43169668041841
30
-1E-15
41
1
10
23.7716917780369
20
7.37306132961854
30
-1E-15
41
1
10
23.5643276445618
20
7.35417227969
30
-1E-15
41
1
10
23.5926801717463
20
7.30185519874709
30
-1E-15
0
SPLINE
5
1A4
100
AcDbEntity
8
1
62
256
6
ByLayer
370
-1
48
1
60
0
100
AcDbSpline
70
4
71
3
72
10
73
6
40
0
40
0
40
0
40
0
40
0.332052727953821
40
0.332052727953821
40
1
40
1
40
1
40
1
41
1
10
28.4192695826478
20
7.33729429239949
30
-7E-16
41
1
10
28.7097087886872
20
7.29596333756606
30
-7E-16
41
1
10
29.0001481748098
20
7.25463367241673
30
-7E-16
41
1
10
29.8748269618772
20
7.13016846419742
30
-6E-16
41
1
10
30.4590666443745
20
7.04703493760263
30
-6E-16
41
1
10
31.0433058995299
20
6.96389835036362
30
-5E-16
0
SPLINE
5
1A5
100
AcDbEntity
8
1
62
256
6
ByLayer
370
-1
48
1
60
0
100
AcDbSpline
70
4
71
3
72
14
73
10
40
0
40
0
40
0
40
0
40
0.125
40
0.125
40
0.25
40
0.25
40
0.5
40
0.5
40
1
40
1
40
1
40
1
41
1
10
28.3904894512605
20
3.57504884731841
30
-7E-16
41
1
10
28.2073956992058
20
3.58712608326343
30
-7E-16
41
1
10
28.1284670696687
20
3.80377250151739
30
-7E-16
41
1
10
27.9918049647668
20
4.12267997885712
30
-7E-16
41
1
10
27.9401061616968
20
4.28928257472668
30
-7E-16
41
1
10
27.8021328992424
20
4.79006110405845
30
-7E-16
41
1
10
27.7344601788087
20
5.12797881487606
30
-8E-16
41
1
10
27.5538232835918
20
6.14552698805613
30
-8E-16
41
1
10
27.4669384833706
20
6.82982768230232
30
-8E-16
41
1
10
27.3909722483246
20
7.5149581435347
30
-8E-16
0
SPLINE
5
1A6
100
AcDbEntity
8
1
62
256
6
ByLayer
370
-1
48
1
60
0
100
AcDbSpline
70
4
71
3
72
22
73
18
40
0
40
0
40
0
40
0
40
0.0819470731335773
40
0.0819470731335773
40
0.122920609700366
40
0.122920609700366
40
0.163894146267154
40
0.163894146267154
40
0.245841219400732
40
0.245841219400732
40
0.32778829253431
40
0.32778829253431
40
0.655576585068621
40
0.655576585068621
40
0.983364877602931
40
0.983364877602931
40
1
40
1
40
1
40
1
41
1
10
22.0826347430183
20
1.50025796552717
30
-1.1E-15
41
1
10
22.0325589312392
20
1.37629348616741
30
-1.1E-15
41
1
10
21.7396493810369
20
1.31922265528894
30
-1.1E-15
41
1
10
21.4923002518192
20
1.26372599551632
30
-1.1E-15
41
1
10
21.4824863915863
20
1.24145504462317
30
-1.1E-15
41
1
10
21.490343568337
20
1.19721378356667
30
-1.1E-15
41
1
10
21.466610193324
20
1.17397816176938
30
-1.1E-15
41
1
10
21.5092187336541
20
1.10599366197076
30
-1.1E-15
41
1
10
21.8118728858169
20
1.00741954168183
30
-1.1E-15
41
1
10
22.7413825523215
20
0.873563295465402
30
-1.1E-15
41
1
10
23.2454782508999
20
0.883675368729968
30
-1E-15
41
1
10
25.6826498752274
20
0.802201949835251
30
-9E-16
41
1
10
27.6324599320622
20
0.725232675107776
30
-8E-16
41
1
10
31.5313912136949
20
0.559648430672411
30
-5E-16
41
1
10
33.4808267797482
20
0.474727815651875
30
-4E-16
41
1
10
35.5295676074897
20
0.395043235607233
30
-3E-16
41
1
10
35.6285148476348
20
0.391080530093689
30
-3E-16
41
1
10
35.7274599261927
20
0.387064006760255
30
-3E-16
0
SPLINE
5
1A7
100
AcDbEntity
8
1
62
256
6
ByLayer
370
-1
48
1
60
0
100
AcDbSpline
70
4
71
3
72
14
73
10
40
0
40
0
40
0
40
0
40
0.427915383507546
40
0.427915383507546
40
0.677126833193997
40
0.677126833193997
40
0.926339366110845
40
0.926339366110845
40
1
40
1
40
1
40
1
41
1
10
36.1914017169675
20
6.26172239883601
30
-2E-16
41
1
10
36.0637234155172
20
6.27120362853148
30
-2E-16
41
1
10
35.9216141500791
20
6.28433823761688
30
-2E-16
41
1
10
35.6866625795708
20
6.30973389039727
30
-3E-16
41
1
10
35.5969939442969
20
6.32018122777683
30
-3E-16
41
1
10
35.4156839927849
20
6.34276862426415
30
-3E-16
41
1
10
35.3234208138042
20
6.3549861646768
30
-3E-16
41
1
10
35.2042171234835
20
6.37169271031905
30
-3E-16
41
1
10
35.1769754760562
20
6.37557279657642
30
-3E-16
41
1
10
35.1497728295411
20
6.37950944217673
30
-3E-16
0
SPLINE
5
1A8
100
AcDbEntity
8
1
62
256
6
ByLayer
370
-1
48
1
60
0
100
AcDbSpline
70
4
71
3
72
14
73
10
40
0
40
0
40
0
40
0
40
0.282169922576108
40
0.282169922576108
40
0.566902245317965
40
0.566902245317965
40
0.824523972080259
40
0.824523972080259
40
1
40
1
40
1
40
1
41
1
10
31.3633624380792
20
1.05906296112579
30
-5E-16
41
1
10
31.3842518973156
20
1.03632432682738
30
-5E-16
41
1
10
31.4101774901453
20
1.0140082997217
30
-5E-16
41
1
10
31.4688919131324
20
0.973510790349962
30
-5E-16
41
1
10
31.5026795677919
20
0.954751101305646
30
-5E-16
41
1
10
31.5692482703075
20
0.925715443429453
30
-5E-16
41
1
10
31.6028321261065
20
0.914382282144828
30
-5E-16
41
1
10
31.6568358100597
20
0.90158971972636
30
-5E-16
41
1
10
31.6784944715935
20
0.898012006239128
30
-5E-16
41
1
10
31.6987241351043
20
0.89625583754605
30
-5E-16
0
SPLINE
5
1A9
100
AcDbEntity
8
1
62
256
6
ByLayer
370
-1
48
1
60
0
100
AcDbSpline
70
4
71
3
72
8
73
4
40
0
40
0
40
0
40
0
40
1
40
1
40
1
40
1
41
1
10
29.9124870564709
20
1.28714221815056
30
-6E-16
41
1
10
29.9308814568183
20
1.31850526632772
30
-6E-16
41
1
10
29.9429098208685
20
1.34979350826615
30
-6E-16
41
1
10
29.9471335753555
20
1.37868175228291
30
-6E-16
0
SPLINE
5
1AA
100
AcDbEntity
8
1
62
256
6
ByLayer
370
-1
48
1
60
0
100
AcDbSpline
70
4
71
3
72
16
73
12
40
0
40
0
40
0
40
0
40
0.0624450082614052
40
0.0624450082614052
40
0.283207995985759
40
0.283207995985759
40
0.506745688833503
40
0.506745688833503
40
0.74460728473692
40
0.74460728473692
40
1
40
1
40
1
40
1
41
1
10
30.0306410190897
20
1.13084388417039
30
-6E-16
41
1
10
30.0378531265187
20
1.12944054936656
30
-6E-16
41
1
10
30.0452807804974
20
1.12821116831196
30
-6E-16
41
1
10
30.0795332280236
20
1.12348660617576
30
-6E-16
41
1
10
30.1087259830634
20
1.12205373906195
30
-6E-16
41
1
10
30.1677539466227
20
1.12383599661854
30
-6E-16
41
1
10
30.1983398166016
20
1.12712459383403
30
-6E-16
41
1
10
30.2586915288203
20
1.13819719408801
30
-6E-16
41
1
10
30.2890391470707
20
1.14638389884234
30
-6E-16
41
1
10
30.3463889229674
20
1.16718452483064
30
-6E-16
41
1
10
30.3736858769259
20
1.18032177009829
30
-6E-16
41
1
10
30.3971061130668
20
1.19495078448836
30
-6E-16
0
SPLINE
5
1AB
100
AcDbEntity
8
1
62
256
6
ByLayer
370
-1
48
1
60
0
100
AcDbSpline
70
4
71
3
72
10
73
6
40
0
40
0
40
0
40
0
40
0.561936170580841
40
0.561936170580841
40
1
40
1
40
1
40
1
41
1
10
31.3633624380792
20
1.05906296112579
30
-5E-16
41
1
10
31.319009376664
20
1.10734224074344
30
-5E-16
41
1
10
31.26475424258
20
1.15443983588983
30
-5E-16
41
1
10
31.1536099627337
20
1.22635286952891
30
-5E-16
41
1
10
31.0986810907333
20
1.25436676257326
30
-5E-16
41
1
10
31.0403653643738
20
1.27503376992806
30
-5E-16
0
SPLINE
5
1AC
100
AcDbEntity
8
1
62
256
6
ByLayer
370
-1
48
1
60
0
100
AcDbSpline
70
4
71
3
72
14
73
10
40
0
40
0
40
0
40
0
40
0.0904031558342758
40
0.0904031558342758
40
0.41000816355675
40
0.41000816355675
40
0.73363017555724
40
0.73363017555724
40
1
40
1
40
1
40
1
41
1
10
32.5276216484676
20
0.912786737222063
30
-5E-16
41
1
10
32.5276383650917
20
0.913558788345682
30
-5E-16
41
1
10
32.5273167108999
20
0.914554936725921
30
-5E-16
41
1
10
32.5243527874549
20
0.920028324600423
30
-5E-16
41
1
10
32.5177522400858
20
0.927108288875985
30
-5E-16
41
1
10
32.4972705768064
20
0.945784594300022
30
-5E-16
41
1
10
32.483059166197
20
0.957665909332775
30
-5E-16
41
1
10
32.4525095025045
20
0.982151509837138
30
-5E-16
41
1
10
32.4367471031264
20
0.994458751333923
30
-5E-16
41
1
10
32.4198404642679
20
1.00748994687589
30
-5E-16
0
SPLINE
5
1AD
100
AcDbEntity
8
1
62
256
6
ByLayer
370
-1
48
1
60
0
100
AcDbSpline
70
4
71
3
72
12
73
8
40
0
40
0
40
0
40
0
40
0.422118633920711
40
0.422118633920711
40
0.843213619146838
40
0.843213619146838
40
1
40
1
40
1
40
1
41
1
10
30.8206617981006
20
1.31521147803738
30
-6E-16
41
1
10
30.752820922134
20
1.31651924004831
30
-6E-16
41
1
10
30.6851097865107
20
1.30754246546593
30
-6E-16
41
1
10
30.5613997599862
20
1.27583500053146
30
-6E-16
41
1
10
30.5036232053323
20
1.25295054677997
30
-6E-16
41
1
10
30.4331142352124
20
1.21645348077544
30
-6E-16
41
1
10
30.4146703080277
20
1.20592193180246
30
-6E-16
41
1
10
30.3971061130668
20
1.19495078448836
30
-6E-16
0
SPLINE
5
1AE
100
AcDbEntity
8
1
62
256
6
ByLayer
370
-1
48
1
60
0
100
AcDbSpline
70
4
71
3
72
10
73
6
40
0
40
0
40
0
40
0
40
0.547319956130737
40
0.547319956130737
40
1
40
1
40
1
40
1
41
1
10
31.8380045394468
20
1.12041361155582
30
-5E-16
41
1
10
31.8356608236865
20
1.10355099087607
30
-5E-16
41
1
10
31.8357313352615
20
1.08508239786971
30
-5E-16
41
1
10
31.8400458452552
20
1.04943180020149
30
-5E-16
41
1
10
31.8435876777562
20
1.03240642277007
30
-5E-16
41
1
10
31.8486090015861
20
1.01485898431727
30
-5E-16
0
SPLINE
5
1AF
100
AcDbEntity
8
1
62
256
6
ByLayer
370
-1
48
1
60
0
100
AcDbSpline
70
4
71
3
72
16
73
12
40
0
40
0
40
0
40
0
40
0.056944617282495
40
0.056944617282495
40
0.279906644834068
40
0.279906644834068
40
0.505321967306675
40
0.505321967306675
40
0.744915047128815
40
0.744915047128815
40
1
40
1
40
1
40
1
41
1
10
31.6987241351043
20
0.89625583754605
30
-5E-16
41
1
10
31.7052583728455
20
0.895688590159637
30
-5E-16
41
1
10
31.7116703176459
20
0.895306053569584
30
-5E-16
41
1
10
31.742233053199
20
0.894348817651007
30
-5E-16
41
1
10
31.7644870478218
20
0.896472495819353
30
-5E-16
41
1
10
31.8017773270497
20
0.90607828537091
30
-5E-16
41
1
10
31.8172238553832
20
0.913731471032747
30
-5E-16
41
1
10
31.8406165068054
20
0.933975631793089
30
-5E-16
41
1
10
31.848351235272
20
0.947088364620242
30
-5E-16
41
1
10
31.8553215212922
20
0.977663949156096
30
-5E-16
41
1
10
31.8540893516226
20
0.995707440178478
30
-5E-16
41
1
10
31.8486090015861
20
1.01485898431727
30
-5E-16
0
SPLINE
5
1B0
100
AcDbEntity
8
1
62
256
6
ByLayer
370
-1
48
1
60
0
100
AcDbSpline
70
4
71
3
72
14
73
10
40
0
40
0
40
0
40
0
40
0.283961749036712
40
0.283961749036712
40
0.570285189259025
40
0.570285189259025
40
0.829451094335691
40
0.829451094335691
40
1
40
1
40
1
40
1
41
1
10
29.9124870564709
20
1.28714221815053
30
-6E-16
41
1
10
29.9014029736831
20
1.26824349811051
30
-6E-16
41
1
10
29.8958210009437
20
1.24917333836632
30
-6E-16
41
1
10
29.8979153012131
20
1.21329733184817
30
-6E-16
41
1
10
29.9057976043352
20
1.19595710623216
30
-6E-16
41
1
10
29.9338877269379
20
1.16735781321651
30
-6E-16
41
1
10
29.9533353941406
20
1.1552556571192
30
-6E-16
41
1
10
29.9931406110846
20
1.13973308085332
30
-6E-16
41
1
10
30.0112036551459
20
1.13462601437095
30
-6E-16
41
1
10
30.0306410190897
20
1.13084388417039
30
-6E-16
0
SPLINE
5
1B1
100
AcDbEntity
8
1
62
256
6
ByLayer
370
-1
48
1
60
0
100
AcDbSpline
70
4
71
3
72
16
73
12
40
0
40
0
40
0
40
0
40
0.0630415689509318
40
0.0630415689509318
40
0.285914332024978
40
0.285914332024978
40
0.511588305408906
40
0.511588305408906
40
0.751723061839378
40
0.751723061839378
40
1
40
1
40
1
40
1
41
1
10
29.2074898948528
20
1.37970784872928
30
-7E-16
41
1
10
29.2074731782287
20
1.37893579760566
30
-7E-16
41
1
10
29.2078436121841
20
1.37828403712183
30
-7E-16
41
1
10
29.2112459947201
20
1.37590619529041
30
-7E-16
41
1
10
29.21880619212
20
1.37560141464456
30
-7E-16
41
1
10
29.242291696143
20
1.37813239518948
30
-7E-16
41
1
10
29.2585972660656
20
1.38103596364778
30
-7E-16
41
1
10
29.2983719432102
20
1.38993198380001
30
-7E-16
41
1
10
29.3227057868768
20
1.39621651814602
30
-7E-16
41
1
10
29.3759262802407
20
1.41159476977782
30
-7E-16
41
1
10
29.4055222497636
20
1.42094561642381
30
-6E-16
41
1
10
29.4356673029473
20
1.43129953112498
30
-6E-16
0
LINE
5
48
100
AcDbEntity
8
1
62
256
6
ByLayer
370
-1
48
1
60
0
100
AcDbLine
10
32.677912
20
27.784472
30
0
11
32.520855
21
27.907022
31
0
39
0
210
0
220
0
230
1
0
LINE
5
4A
100
AcDbEntity
8
1
62
256
6
ByLayer
370
-1
48
1
60
0
100
AcDbLine
10
29.291193
20
23.767966
30
0
11
29.448251
21
23.645416
31
0
39
0
210
0
220
0
230
1
0
LINE
5
4B
100
AcDbEntity
8
1
62
256
6
ByLayer
370
-1
48
1
60
0
100
AcDbLine
10
31.434816
20
24.418928
30
0
11
31.306664
21
24.518924
31
0
39
0
210
0
220
0
230
1
0
LINE
5
4C
100
AcDbEntity
8
1
62
256
6
ByLayer
370
-1
48
1
60
0
100
AcDbLine
10
32.103256
20
26.262185
30
0
11
32.270628
21
26.131586
31
0
39
0
210
0
220
0
230
1
0
LINE
5
4D
100
AcDbEntity
8
1
62
256
6
ByLayer
370
-1
48
1
60
0
100
AcDbLine
10
29.862518
20
25.292853
30
0
11
29.695146
21
25.423452
31
0
39
0
210
0
220
0
230
1
0
LINE
5
4E
100
AcDbEntity
8
1
62
256
6
ByLayer
370
-1
48
1
60
0
100
AcDbLine
10
30.470117
20
27.183583
30
0
11
30.648299
21
27.044549
31
0
39
0
210
0
220
0
230
1
0
LINE
5
4F
100
AcDbEntity
8
1
62
256
6
ByLayer
370
-1
48
1
60
0
100
AcDbLine
10
16.313406
20
22.951484
30
0
11
16.266619
21
22.839905
31
0
39
0
210
0
220
0
230
1
0
LINE
5
50
100
AcDbEntity
8
1
62
256
6
ByLayer
370
-1
48
1
60
0
100
AcDbLine
10
13.5
20
21
30
0
11
0.5
21
21
31
0
39
0
210
0
220
0
230
1
0
LINE
5
51
100
AcDbEntity
8
1
62
256
6
ByLayer
370
-1
48
1
60
0
100
AcDbLine
10
0.5
20
-21
30
0
11
13.5
21
-21
31
0
39
0
210
0
220
0
230
1
0
LINE
5
52
100
AcDbEntity
8
1
62
256
6
ByLayer
370
-1
48
1
60
0
100
AcDbLine
10
31.289785
20
-23.996961
30
0
11
30.982531
21
-24.077489
31
0
39
0
210
0
220
0
230
1
0
LINE
5
53
100
AcDbEntity
8
1
62
256
6
ByLayer
370
-1
48
1
60
0
100
AcDbLine
10
28.333664
20
1.974456
30
0
11
28.306966
21
1.785971
31
0
39
0
210
0
220
0
230
1
0
LINE
5
54
100
AcDbEntity
8
1
62
256
6
ByLayer
370
-1
48
1
60
0
100
AcDbLine
10
31.839952
20
1.134448
30
0
11
31.837359
21
1.116143
31
0
39
0
210
0
220
0
230
1
0
LINE
5
55
100
AcDbEntity
8
1
62
256
6
ByLayer
370
-1
48
1
60
0
100
AcDbLine
10
29.946845
20
1.376539
30
0
11
29.950646
21
1.403373
31
0
39
0
210
0
220
0
230
1
0
LINE
5
56
100
AcDbEntity
8
4
62
256
6
ByLayer
370
-1
48
0.05
60
0
100
AcDbLine
10
0
20
0
30
0
11
40
21
0
31
0
39
0
210
0
220
0
230
1
0
LINE
5
58
100
AcDbEntity
8
SK4
62
256
6
ByLayer
370
-1
48
0.05
60
0
100
AcDbLine
10
50
20
0
30
0
11
-10
21
0
31
0
39
0
210
0
220
0
230
1
0
LINE
5
5A
100
AcDbEntity
8
80
62
256
6
ByLayer
370
-1
48
1
60
0
100
AcDbLine
10
0
20
0
30
0
11
-5
21
0
31
0
39
0
210
0
220
0
230
1
0
LINE
5
5B
100
AcDbEntity
8
81
62
256
6
ByLayer
370
-1
48
1
60
0
100
AcDbLine
10
40
20
31.42
30
0
11
44
21
31.42
31
0
39
0
210
0
220
0
230
1
0
LINE
5
5C
100
AcDbEntity
8
1
62
256
6
ByLayer
370
-1
48
1
60
0
100
AcDbLine
10
39.235105
20
22.793405
30
0
11
39.235105
21
23.371206
31
0
39
0
210
0
220
0
230
1
0
LINE
5
5D
100
AcDbEntity
8
1
62
256
6
ByLayer
370
-1
48
1
60
0
100
AcDbLine
10
0.9
20
5.2275
30
0
11
5.75
21
5.2275
31
0
39
0
210
0
220
0
230
1
0
LINE
5
5E
100
AcDbEntity
8
1
62
256
6
ByLayer
370
-1
48
1
60
0
100
AcDbLine
10
23.274657
20
6.31975
30
0
11
23.279047
21
6.522514
31
0
39
0
210
0
220
0
230
1
0
LINE
5
5F
100
AcDbEntity
8
1
62
256
6
ByLayer
370
-1
48
1
60
0
100
AcDbLine
10
0.5
20
-21
30
0
11
0.5
21
-5.6275
31
0
39
0
210
0
220
0
230
1
0
LINE
5
60
100
AcDbEntity
8
1
62
256
6
ByLayer
370
-1
48
1
60
0
100
AcDbLine
10
38.932527
20
-4.390964
30
0
11
38.749685
21
-4.416733
31
0
39
0
210
0
220
0
230
1
0
LINE
5
61
100
AcDbEntity
8
1
62
256
6
ByLayer
370
-1
48
1
60
0
100
AcDbLine
10
37.820903
20
-5.458088
30
0
11
37.820903
21
-7.597663
31
0
39
0
210
0
220
0
230
1
0
LINE
5
62
100
AcDbEntity
8
1
62
256
6
ByLayer
370
-1
48
1
60
0
100
AcDbLine
10
23.585502
20
-19.670476
30
0
11
26.003463
21
-0.691282
31
0
39
0
210
0
220
0
230
1
0
LINE
5
63
100
AcDbEntity
8
1
62
256
6
ByLayer
370
-1
48
1
60
0
100
AcDbLine
10
27.467827
20
-0.9031
30
0
11
37.49793
21
-2.311774
31
0
39
0
210
0
220
0
230
1
0
LINE
5
64
100
AcDbEntity
8
1
62
256
6
ByLayer
370
-1
48
1
60
0
100
AcDbLine
10
18.020128
20
-26.933322
30
0
11
18.020128
21
-12.632657
31
0
39
0
210
0
220
0
230
1
0
LINE
5
65
100
AcDbEntity
8
1
62
256
6
ByLayer
370
-1
48
1
60
0
100
AcDbLine
10
25.265246
20
7.816994
30
0
11
25.269127
21
7.996238
31
0
39
0
210
0
220
0
230
1
0
LINE
5
66
100
AcDbEntity
8
1
62
256
6
ByLayer
370
-1
48
1
60
0
100
AcDbLine
10
22.136131
20
25.126058
30
0
11
21.499038
21
23.772343
31
0
39
0
210
0
220
0
230
1
0
LINE
5
67
100
AcDbEntity
8
1
62
256
6
ByLayer
370
-1
48
1
60
0
100
AcDbLine
10
23.616827
20
4.484704
30
0
11
23.585209
21
4.271632
31
0
39
0
210
0
220
0
230
1
0
LINE
5
68
100
AcDbEntity
8
1
62
256
6
ByLayer
370
-1
48
1
60
0
100
AcDbLine
10
39.235105
20
22.78212
30
0
11
39.235105
21
5.820964
31
0
39
0
210
0
220
0
230
1
0
LINE
5
69
100
AcDbEntity
8
1
62
256
6
ByLayer
370
-1
48
1
60
0
100
AcDbLine
10
23.551441
20
-30.350308
30
0
11
23.551441
21
-30.310903
31
0
39
0
210
0
220
0
230
1
0
LINE
5
6A
100
AcDbEntity
8
1
62
256
6
ByLayer
370
-1
48
1
60
0
100
AcDbLine
10
30.541288
20
18.286249
30
0
11
29.929227
21
13.965065
31
0
39
0
210
0
220
0
230
1
0
LINE
5
6B
100
AcDbEntity
8
1
62
256
6
ByLayer
370
-1
48
1
60
0
100
AcDbLine
10
22.285985
20
26.617472
30
0
11
22.115674
21
26.349851
31
0
39
0
210
0
220
0
230
1
0
LINE
5
6C
100
AcDbEntity
8
1
62
256
6
ByLayer
370
-1
48
1
60
0
100
AcDbLine
10
16.266619
20
22.839905
30
0
11
16.266619
21
1.928208
31
0
39
0
210
0
220
0
230
1
0
LINE
5
6D
100
AcDbEntity
8
1
62
256
6
ByLayer
370
-1
48
1
60
0
100
AcDbLine
10
34.953966
20
-27.631991
30
0
11
34.949122
21
-25.189596
31
0
39
0
210
0
220
0
230
1
0
LINE
5
6E
100
AcDbEntity
8
1
62
256
6
ByLayer
370
-1
48
1
60
0
100
AcDbLine
10
23.687329
20
-19.688498
30
0
11
23.687329
21
-29.578842
31
0
39
0
210
0
220
0
230
1
0
LINE
5
6F
100
AcDbEntity
8
1
62
256
6
ByLayer
370
-1
48
1
60
0
100
AcDbLine
10
18.020128
20
3.660517
30
0
11
18.020128
21
24.114484
31
0
39
0
210
0
220
0
230
1
0
LINE
5
70
100
AcDbEntity
8
1
62
256
6
ByLayer
370
-1
48
1
60
0
100
AcDbLine
10
0.5
20
-5.6275
30
0
11
0.9
21
-5.2275
31
0
39
0
210
0
220
0
230
1
0
LINE
5
71
100
AcDbEntity
8
1
62
256
6
ByLayer
370
-1
48
1
60
0
100
AcDbLine
10
26.003463
20
-0.691282
30
0
11
25.904841
21
-0.6766
31
0
39
0
210
0
220
0
230
1
0
LINE
5
72
100
AcDbEntity
8
1
62
256
6
ByLayer
370
-1
48
1
60
0
100
AcDbLine
10
6.55
20
-4.4275
30
0
11
5.75
21
-5.2275
31
0
39
0
210
0
220
0
230
1
0
LINE
5
73
100
AcDbEntity
8
1
62
256
6
ByLayer
370
-1
48
1
60
0
100
AcDbLine
10
39.235105
20
-18.514123
30
0
11
39.235105
21
-28.80215
31
0
39
0
210
0
220
0
230
1
0
LINE
5
74
100
AcDbEntity
8
1
62
256
6
ByLayer
370
-1
48
1
60
0
100
AcDbLine
10
38.530472
20
-5.955457
30
0
11
38.526223
21
-5.953326
31
0
39
0
210
0
220
0
230
1
0
LINE
5
75
100
AcDbEntity
8
1
62
256
6
ByLayer
370
-1
48
1
60
0
100
AcDbLine
10
22.115674
20
26.349851
30
0
11
20.855834
21
23.873487
31
0
39
0
210
0
220
0
230
1
0
LINE
5
76
100
AcDbEntity
8
1
62
256
6
ByLayer
370
-1
48
1
60
0
100
AcDbLine
10
22.115674
20
3.04645
30
0
11
20.115878
21
2.952649
31
0
39
0
210
0
220
0
230
1
0
LINE
5
77
100
AcDbEntity
8
1
62
256
6
ByLayer
370
-1
48
1
60
0
100
AcDbLine
10
38.379777
20
-8.506991
30
0
11
38.379777
21
-5.864516
31
0
39
0
210
0
220
0
230
1
0
LINE
5
78
100
AcDbEntity
8
1
62
256
6
ByLayer
370
-1
48
1
60
0
100
AcDbLine
10
23.687329
20
23.604683
30
0
11
23.687329
21
8.90743
31
0
39
0
210
0
220
0
230
1
0
LINE
5
79
100
AcDbEntity
8
1
62
256
6
ByLayer
370
-1
48
1
60
0
100
AcDbLine
10
39.226354
20
-4.414605
30
0
11
39.226354
21
-13.102533
31
0
39
0
210
0
220
0
230
1
0
LINE
5
7A
100
AcDbEntity
8
1
62
256
6
ByLayer
370
-1
48
1
60
0
100
AcDbLine
10
5.75
20
-5.2275
30
0
11
0.9
21
-5.2275
31
0
39
0
210
0
220
0
230
1
0
LINE
5
7B
100
AcDbEntity
8
1
62
256
6
ByLayer
370
-1
48
1
60
0
100
AcDbLine
10
16.266619
20
0.412769
30
0
11
16.266619
21
-22.829937
31
0
39
0
210
0
220
0
230
1
0
LINE
5
7C
100
AcDbEntity
8
1
62
256
6
ByLayer
370
-1
48
1
60
0
100
AcDbLine
10
0
20
-20.5
30
0
11
0
21
-6.1275
31
0
39
0
210
0
220
0
230
1
0
LINE
5
7D
100
AcDbEntity
8
1
62
256
6
ByLayer
370
-1
48
1
60
0
100
AcDbLine
10
6.55
20
-4.4275
30
0
11
6.55
21
4.4275
31
0
39
0
210
0
220
0
230
1
0
LINE
5
7E
100
AcDbEntity
8
1
62
256
6
ByLayer
370
-1
48
1
60
0
100
AcDbLine
10
22.115674
20
26.349851
30
0
11
23.023781
21
30.082002
31
0
39
0
210
0
220
0
230
1
0
LINE
5
7F
100
AcDbEntity
8
1
62
256
6
ByLayer
370
-1
48
1
60
0
100
AcDbLine
10
23.525397
20
-29.597506
30
0
11
23.616827
21
-30.207073
31
0
39
0
210
0
220
0
230
1
0
LINE
5
80
100
AcDbEntity
8
1
62
256
6
ByLayer
370
-1
48
1
60
0
100
AcDbLine
10
38.465771
20
-29.591583
30
0
11
38.465771
21
-19.433371
31
0
39
0
210
0
220
0
230
1
0
LINE
5
81
100
AcDbEntity
8
1
62
256
6
ByLayer
370
-1
48
1
60
0
100
AcDbLine
10
34.949122
20
-25.189596
30
0
11
35.641591
21
-25.008108
31
0
39
0
210
0
220
0
230
1
0
LINE
5
82
100
AcDbEntity
8
1
62
256
6
ByLayer
370
-1
48
1
60
0
100
AcDbLine
10
22.115674
20
3.04645
30
0
11
23.023781
21
3.275886
31
0
39
0
210
0
220
0
230
1
0
LINE
5
83
100
AcDbEntity
8
1
62
256
6
ByLayer
370
-1
48
1
60
0
100
AcDbLine
10
21.463933
20
23.776497
30
0
11
21.463933
21
3.458482
31
0
39
0
210
0
220
0
230
1
0
LINE
5
84
100
AcDbEntity
8
1
62
256
6
ByLayer
370
-1
48
1
60
0
100
AcDbLine
10
38.465771
20
5.93905
30
0
11
38.465771
21
23.072835
31
0
39
0
210
0
220
0
230
1
0
LINE
5
85
100
AcDbEntity
8
1
62
256
6
ByLayer
370
-1
48
1
60
0
100
AcDbLine
10
0
20
20.5
30
0
11
0
21
6.1275
31
0
39
0
210
0
220
0
230
1
0
LINE
5
86
100
AcDbEntity
8
1
62
256
6
ByLayer
370
-1
48
1
60
0
100
AcDbLine
10
23.551441
20
4.141236
30
0
11
23.551441
21
4.581283
31
0
39
0
210
0
220
0
230
1
0
LINE
5
87
100
AcDbEntity
8
1
62
256
6
ByLayer
370
-1
48
1
60
0
100
AcDbLine
10
0.5
20
5.6275
30
0
11
0.9
21
5.2275
31
0
39
0
210
0
220
0
230
1
0
LINE
5
88
100
AcDbEntity
8
1
62
256
6
ByLayer
370
-1
48
1
60
0
100
AcDbLine
10
39.235105
20
-18.526133
30
0
11
39.235105
21
-4.657437
31
0
39
0
210
0
220
0
230
1
0
LINE
5
89
100
AcDbEntity
8
1
62
256
6
ByLayer
370
-1
48
1
60
0
100
AcDbLine
10
39.226354
20
23.327779
30
0
11
39.226354
21
22.792584
31
0
39
0
210
0
220
0
230
1
0
LINE
5
8A
100
AcDbEntity
8
1
62
256
6
ByLayer
370
-1
48
1
60
0
100
AcDbLine
10
13.5
20
21
30
0
11
13.5
21
-21
31
0
39
0
210
0
220
0
230
1
0
LINE
5
8B
100
AcDbEntity
8
1
62
256
6
ByLayer
370
-1
48
1
60
0
100
AcDbLine
10
38.526223
20
-9.192609
30
0
11
38.526223
21
-9.04257
31
0
39
0
210
0
220
0
230
1
0
LINE
5
8C
100
AcDbEntity
8
1
62
256
6
ByLayer
370
-1
48
1
60
0
100
AcDbLine
10
24.771639
20
-19.705898
30
0
11
27.467827
21
-0.9031
31
0
39
0
210
0
220
0
230
1
0
LINE
5
8D
100
AcDbEntity
8
1
62
256
6
ByLayer
370
-1
48
1
60
0
100
AcDbLine
10
0.5
20
5.6275
30
0
11
0.5
21
21
31
0
39
0
210
0
220
0
230
1
0
LINE
5
8E
100
AcDbEntity
8
1
62
256
6
ByLayer
370
-1
48
1
60
0
100
AcDbLine
10
23.617072
20
4.495997
30
0
11
23.616827
21
4.484704
31
0
39
0
210
0
220
0
230
1
0
LINE
5
8F
100
AcDbEntity
8
1
62
256
6
ByLayer
370
-1
48
1
60
0
100
AcDbLine
10
38.553483
20
-5.952957
30
0
11
38.553483
21
-9.022092
31
0
39
0
210
0
220
0
230
1
0
LINE
5
90
100
AcDbEntity
8
1
62
256
6
ByLayer
370
-1
48
1
60
0
100
AcDbLine
10
38.526223
20
-5.94639
30
0
11
38.526223
21
-9.051147
31
0
39
0
210
0
220
0
230
1
0
LINE
5
91
100
AcDbEntity
8
1
62
256
6
ByLayer
370
-1
48
1
60
0
100
AcDbLine
10
37.587254
20
-2.61357
30
0
11
37.587254
21
-0.250995
31
0
39
0
210
0
220
0
230
1
0
LINE
5
92
100
AcDbEntity
8
1
62
256
6
ByLayer
370
-1
48
1
60
0
100
AcDbLine
10
23.489576
20
-19.634636
30
0
11
25.904841
21
-0.6766
31
0
39
0
210
0
220
0
230
1
0
LINE
5
93
100
AcDbEntity
8
1
62
256
6
ByLayer
370
-1
48
1
60
0
100
AcDbLine
10
21.463933
20
-18.644864
30
0
11
21.463933
21
-29.894812
31
0
39
0
210
0
220
0
230
1
0
LINE
5
94
100
AcDbEntity
8
1
62
256
6
ByLayer
370
-1
48
1
60
0
100
AcDbLine
10
39.209317
20
22.835844
30
0
11
39.209317
21
23.262102
31
0
39
0
210
0
220
0
230
1
0
LINE
5
95
100
AcDbEntity
8
1
62
256
6
ByLayer
370
-1
48
1
60
0
100
AcDbLine
10
23.551441
20
8.834795
30
0
11
23.551441
21
23.611733
31
0
39
0
210
0
220
0
230
1
0
LINE
5
96
100
AcDbEntity
8
1
62
256
6
ByLayer
370
-1
48
1
60
0
100
AcDbLine
10
23.525397
20
-29.597506
30
0
11
23.526794
21
-30.301818
31
0
39
0
210
0
220
0
230
1
0
LINE
5
97
100
AcDbEntity
8
1
62
256
6
ByLayer
370
-1
48
1
60
0
100
AcDbLine
10
5.75
20
5.2275
30
0
11
6.55
21
4.4275
31
0
39
0
210
0
220
0
230
1
0
LINE
5
98
100
AcDbEntity
8
1
62
256
6
ByLayer
370
-1
48
1
60
0
100
AcDbLine
10
23.551441
20
-29.582896
30
0
11
23.551441
21
-19.658701
31
0
39
0
210
0
220
0
230
1
0
LINE
5
99
100
AcDbEntity
8
1
62
256
6
ByLayer
370
-1
48
1
60
0
100
AcDbLine
10
39.209317
20
-12.93116
30
0
11
39.209317
21
-4.409834
31
0
39
0
210
0
220
0
230
1
0
LINE
5
9A
100
AcDbEntity
8
1
62
256
6
ByLayer
370
-1
48
1
60
0
100
AcDbLine
10
23.617072
20
-30.330356
30
0
11
23.616827
21
-30.207073
31
0
39
0
210
0
220
0
230
1
0
LINE
5
9B
100
AcDbEntity
8
1
62
256
6
ByLayer
370
-1
48
1
60
0
100
AcDbLine
10
31.412416
20
24.429843
30
0
11
31.363362
21
24.468119
31
0
39
0
210
0
220
0
230
1
0
LINE
5
9C
100
AcDbEntity
8
1
62
256
6
ByLayer
370
-1
48
1
60
0
100
AcDbLine
10
29.620587
20
25.972806
30
0
11
29.436785
21
26.116224
31
0
39
0
210
0
220
0
230
1
0
LINE
5
9D
100
AcDbEntity
8
1
62
256
6
ByLayer
370
-1
48
1
60
0
100
AcDbLine
10
30.096289
20
24.584414
30
0
11
29.912487
21
24.727833
31
0
39
0
210
0
220
0
230
1
0
LINE
5
9E
100
AcDbEntity
8
1
62
256
6
ByLayer
370
-1
48
1
60
0
100
AcDbLine
10
32.488898
20
26.031235
30
0
11
32.329875
21
26.155319
31
0
39
0
210
0
220
0
230
1
0
LINE
5
9F
100
AcDbEntity
8
1
62
256
6
ByLayer
370
-1
48
1
60
0
100
AcDbLine
10
31.552481
20
27.112607
30
0
11
31.368922
21
27.255836
31
0
39
0
210
0
220
0
230
1
0
LINE
5
A0
100
AcDbEntity
8
1
62
256
6
ByLayer
370
-1
48
1
60
0
100
AcDbLine
10
30.825433
20
27.033175
30
0
11
30.986553
21
26.907456
31
0
39
0
210
0
220
0
230
1
0
LINE
5
A1
100
AcDbEntity
8
1
62
256
6
ByLayer
370
-1
48
1
60
0
100
AcDbLine
10
31.151365
20
26.909683
30
0
11
30.990245
21
27.035403
31
0
39
0
210
0
220
0
230
1
0
LINE
5
A2
100
AcDbEntity
8
1
62
256
6
ByLayer
370
-1
48
1
60
0
100
AcDbLine
10
30.100735
20
26.813862
30
0
11
29.916933
21
26.95728
31
0
39
0
210
0
220
0
230
1
0
LINE
5
A3
100
AcDbEntity
8
1
62
256
6
ByLayer
370
-1
48
1
60
0
100
AcDbLine
10
35.124523
20
-30.876474
30
0
11
35.149773
21
-29.858043
31
0
39
0
210
0
220
0
230
1
0
LINE
5
A4
100
AcDbEntity
8
1
62
256
6
ByLayer
370
-1
48
1
60
0
100
AcDbLine
10
28.386067
20
-31.120018
30
0
11
28.414847
21
-29.959192
31
0
39
0
210
0
220
0
230
1
0
LINE
5
A5
100
AcDbEntity
8
1
62
256
6
ByLayer
370
-1
48
1
60
0
100
AcDbLine
10
28.386067
20
3.575163
30
0
11
28.414847
21
7.337408
31
0
39
0
210
0
220
0
230
1
0
LINE
5
A6
100
AcDbEntity
8
1
62
256
6
ByLayer
370
-1
48
1
60
0
100
AcDbLine
10
35.124523
20
3.07877
30
0
11
35.149773
21
6.379509
31
0
39
0
210
0
220
0
230
1
0
LINE
5
A7
100
AcDbEntity
8
1
62
256
6
ByLayer
370
-1
48
1
60
0
100
AcDbLine
10
31.386109
20
1.219658
30
0
11
31.363362
21
1.059063
31
0
39
0
210
0
220
0
230
1
0
LINE
5
A8
100
AcDbEntity
8
1
62
256
6
ByLayer
370
-1
48
1
60
0
100
AcDbLine
10
30.420108
20
1.357348
30
0
11
30.397106
21
1.194951
31
0
39
0
210
0
220
0
230
1
0
MTEXT
5
1B2
100
AcDbEntity
8
SK6
62
256
6
ByLayer
370
-1
48
1
60
0
100
AcDbMText
10
0.873386
20
-42.438367
30
0
210
0
220
0
230
1
1
\W00.727;\fsimplex.shx,bigfont.shx;R390-063Q22-18L\P
40
3.5
41
0
44
1.084337
50
0
71
7
72
5
7
DEFAULT
0
DIMENSION
5
1C3
100
AcDbEntity
8
2
62
256
6
ByLayer
370
-3
48
1
60
0
100
AcDbDimension
2
DimnDraft3D1
10
0
20
51.25
30
0
11
16.346711
21
51.25
31
0
70
32
71
5
72
1
41
1
210
0
220
0
230
1
3
Standard
100
AcDbAlignedDimension
13
40
23
33.5
33
0
14
0
24
23
34
0
50
0
100
AcDbRotatedDimension
1001
ACAD
1000
DSTYLE
1002
{
1070
   279
1070
     0
1070
   172
1070
     1
1070
   173
1070
     1
1070
   340
1005
1B3
1070
   271
1070
     2
1070
   272
1070
     2
1070
    77
1070
     1
1070
    73
1070
     0
1070
   171
1070
     4
1070
   274
1070
     4
1070
   177
1070
     2
1070
   176
1070
     2
1070
   178
1070
     7
1070
    78
1070
     8
1070
    41
1041
3.175
1070
   147
1041
2.25
1070
    42
1041
2.0
1070
    44
1041
2.0
1070
   140
1041
4.5
1070
   343
1005
1C4
1070
   344
1005
1C4
1002
}
0
DIMENSION
5
1D8
100
AcDbEntity
8
2
62
256
6
ByLayer
370
-3
48
1
60
0
100
AcDbDimension
2
DimnDraft3D2
10
24.6
20
41.25
30
0
11
45
21
41.25
31
0
70
32
71
5
72
1
41
1
210
0
220
0
230
1
3
Standard
100
AcDbAlignedDimension
13
40
23
33.5
33
0
14
24.6
24
33.5
34
0
50
0
100
AcDbRotatedDimension
1001
ACAD
1000
DSTYLE
1002
{
1070
   279
1070
     0
1070
   172
1070
     1
1070
   173
1070
     1
1070
   340
1005
1B3
1070
   271
1070
     2
1070
   272
1070
     2
1070
    77
1070
     1
1070
    73
1070
     0
1070
   171
1070
     4
1070
   274
1070
     4
1070
   177
1070
     2
1070
   176
1070
     2
1070
   178
1070
     7
1070
    78
1070
     8
1070
    41
1041
3.175
1070
   147
1041
2.25
1070
    42
1041
2.0
1070
    44
1041
2.0
1070
   140
1041
4.5
1070
   343
1005
1C4
1070
   344
1005
1C4
1002
}
0
DIMENSION
5
1E7
100
AcDbEntity
8
SK2
62
256
6
ByLayer
370
-3
48
1
60
0
100
AcDbDimension
2
DimnDraft3D3
10
-9.75
20
-11
30
0
11
-9.75
21
-6.01727
31
0
70
32
71
5
72
1
41
1
210
0
220
0
230
1
3
Standard
100
AcDbAlignedDimension
13
-2
23
11
33
0
14
-2
24
-11
34
0
50
90
100
AcDbRotatedDimension
1001
ACAD
1000
DSTYLE
1002
{
1070
    74
1070
     0
1070
   279
1070
     0
1070
   172
1070
     1
1070
   173
1070
     1
1070
   340
1005
1B3
1070
   271
1070
     2
1070
   272
1070
     2
1070
    77
1070
     1
1070
    73
1070
     0
1070
   171
1070
     4
1070
   274
1070
     4
1070
   177
1070
     2
1070
   176
1070
     2
1070
   178
1070
     7
1070
    78
1070
     8
1070
    41
1041
3.175
1070
   147
1041
2.25
1070
    42
1041
2.0
1070
    44
1041
2.0
1070
   140
1041
4.5
1070
   343
1005
1C4
1070
   344
1005
1C4
1002
}
0
DIMENSION
5
1F5
100
AcDbEntity
8
2
62
256
6
ByLayer
370
-3
48
1
60
0
100
AcDbDimension
2
DimnDraft3D4
10
54.25
20
-31.5
30
0
11
54.25
21
-6.01727
31
0
70
32
71
5
72
1
41
1
210
0
220
0
230
1
3
Standard
100
AcDbAlignedDimension
13
42
23
31.5
33
0
14
42
24
-31.5
34
0
50
90
100
AcDbRotatedDimension
1001
ACAD
1000
DSTYLE
1002
{
1070
    74
1070
     0
1070
   279
1070
     0
1070
   172
1070
     1
1070
   173
1070
     1
1070
   340
1005
1B3
1070
   271
1070
     2
1070
   272
1070
     2
1070
    77
1070
     1
1070
    73
1070
     0
1070
   171
1070
     4
1070
   274
1070
     4
1070
   177
1070
     2
1070
   176
1070
     2
1070
   178
1070
     7
1070
    78
1070
     8
1070
    41
1041
3.175
1070
   147
1041
2.25
1070
    42
1041
2.0
1070
    44
1041
2.0
1070
   140
1041
4.5
1070
   343
1005
1C4
1070
   344
1005
1C4
1002
}
0
ENDSEC
0
SECTION
2
OBJECTS
0
DICTIONARY
5
243
330
0
100
AcDbDictionary
280
0
281
1
3
ACAD_GROUP
350
244
3
ACAD_MLINESTYLE
350
245
0
DICTIONARY
5
244
330
0
100
AcDbDictionary
280
0
281
1
0
DICTIONARY
5
245
330
0
100
AcDbDictionary
280
0
281
1
3
Standard
350
18
0
MLINESTYLE
5
18
330
245
100
AcDbMlineStyle
2
Standard
70
0
3

62
256
51
90
52
90
71
2
49
-0.5
62
256
6
ByLayer
49
0.5
62
256
6
ByLayer
0
RASTERVARIABLES
5
232
330

100
AcDbRasterVariables
90
0
70
1
71
1
72
1
0
ENDSEC
0
EOF
