0
SECTION
2
HEADER
9
$ACADVER
1
AC1015
9
$DWGCODEPAGE
3
ANSI_1252
9
$HANDSEED
5
1d8
9
$ANGBASE
50
0
9
$ANGDIR
70
0
9
$ATTMODE
70
1
9
$AUNITS
70
0
9
$AUPREC
70
0
9
$CECOLOR
62
256
9
$CELTSCALE
40
1
9
$CELTYPE
6
ByLayer
9
$CELWEIGHT
370
-1
9
$CLAYER
8
0
9
$CMLJUST
70
0
9
$CMLSCALE
40
1
9
$CMLSTYLE
2
Standard
9
$DIMSTYLE
2
Standard
9
$TEXTSIZE
40
0.2
9
$TEXTSTYLE
7
Standard
9
$LUNITS
70
2
9
$LUPREC
70
4
9
$EXTNAMES
290
1
9
$INSUNITS
70
4
9
$LTSCALE
40
1
9
$LWDISPLAY
290
0
9
$PDMODE
70
0
9
$PDSIZE
40
0
9
$PLINEGEN
70
0
0
ENDSEC
0
SECTION
2
CLASSES
0
CLASS
1
RASTERVARIABLES
2
AcDbRasterVariables
3
ISM
90
0
280
0
281
0
0
ENDSEC
0
SECTION
2
TABLES
0
TABLE
2
VPORT
5
1ce
100
AcDbSymbolTable
0
VPORT
5
1
100
AcDbSymbolTableRecord
100
AcDbViewportTableRecord
2
*Active
70
0
10
0
20
0
11
1
21
1
12
-1
22
1
13
0
23
0
14
0.5
24
0.5
15
10
25
10
16
0
26
0
36
1
17
0
27
0
37
0
0
ENDTAB
0
TABLE
2
LTYPE
5
1cf
100
AcDbSymbolTable
0
LTYPE
5
14
100
AcDbSymbolTableRecord
100
AcDbLinetypeTableRecord
70
0
2
ByBlock
3

72
65
73
0
40
0
0
LTYPE
5
15
100
AcDbSymbolTableRecord
100
AcDbLinetypeTableRecord
70
0
2
ByLayer
3

72
65
73
0
40
0
0
LTYPE
5
16
100
AcDbSymbolTableRecord
100
AcDbLinetypeTableRecord
70
0
2
CONTINUOUS
3
Solid line
72
65
73
0
40
0
0
LTYPE
5
3C
100
AcDbSymbolTableRecord
100
AcDbLinetypeTableRecord
70
0
2
DASHED
3
__ __ __ __ __ __ __ __ __
72
65
73
2
40
25.72
49
12.86
74
0
49
-12.86
74
0
0
LTYPE
5
3D
100
AcDbSymbolTableRecord
100
AcDbLinetypeTableRecord
70
0
2
HIDDEN
3
_ _ _ _ _ _ _ _ _ _ _ _ _ _ _
72
65
73
2
40
0.5
49
0.25
74
0
49
-0.25
74
0
0
LTYPE
5
3E
100
AcDbSymbolTableRecord
100
AcDbLinetypeTableRecord
70
0
2
PHANTOM
3
____ _ _ ____ _ _ _____ _ _ ____
72
65
73
6
40
50.5
49
18
74
0
49
-6.5
74
0
49
6.5
74
0
49
-6.5
74
0
49
6.5
74
0
49
-6.5
74
0
0
LTYPE
5
3F
100
AcDbSymbolTableRecord
100
AcDbLinetypeTableRecord
70
0
2
CENTER
3
____ _ ____ _ ____ _ ____
72
65
73
4
40
47.5
49
22
74
0
49
-8.5
74
0
49
8.5
74
0
49
-8.5
74
0
0
LTYPE
5
40
100
AcDbSymbolTableRecord
100
AcDbLinetypeTableRecord
70
0
2
DOT
3
.........................
72
65
73
2
40
10
49
0
74
0
49
-10
74
0
0
LTYPE
5
41
100
AcDbSymbolTableRecord
100
AcDbLinetypeTableRecord
70
0
2
DASHDOT
3
_._._._._._._._._._._._._._._._.
72
65
73
4
40
70
49
31
74
0
49
-13
74
0
49
13
74
0
49
-13
74
0
0
ENDTAB
0
TABLE
2
LAYER
5
1d0
100
AcDbSymbolTable
0
LAYER
5
10
100
AcDbSymbolTableRecord
100
AcDbLayerTableRecord
2
0
70
0
62
7
6
CONTINUOUS
290
1
370
-3
390
0
0
LAYER
5
43
100
AcDbSymbolTableRecord
100
AcDbLayerTableRecord
2
2
70
0
62
7
6
CONTINUOUS
290
1
370
-3
390
0
0
LAYER
5
45
100
AcDbSymbolTableRecord
100
AcDbLayerTableRecord
2
80
70
0
62
-6
6
CONTINUOUS
290
1
370
-3
390
0
0
LAYER
5
47
100
AcDbSymbolTableRecord
100
AcDbLayerTableRecord
2
81
70
0
62
-3
6
CONTINUOUS
290
1
370
-3
390
0
0
LAYER
5
49
100
AcDbSymbolTableRecord
100
AcDbLayerTableRecord
2
4
70
0
62
-2
6
CENTER
290
1
370
-3
390
0
0
LAYER
5
4D
100
AcDbSymbolTableRecord
100
AcDbLayerTableRecord
2
1
70
0
62
4
6
CONTINUOUS
290
1
370
-3
390
0
0
LAYER
5
1bb
100
AcDbSymbolTableRecord
100
AcDbLayerTableRecord
2
SK4
70
0
62
2
6
CENTER
290
1
370
-3
390
0
0
LAYER
5
1bc
100
AcDbSymbolTableRecord
100
AcDbLayerTableRecord
2
SK6
70
0
62
5
6
CONTINUOUS
290
1
370
-3
390
0
0
LAYER
5
1bd
100
AcDbSymbolTableRecord
100
AcDbLayerTableRecord
2
SK2
70
0
62
7
6
CONTINUOUS
290
1
370
-3
390
0
0
ENDTAB
0
TABLE
2
STYLE
5
1d1
100
AcDbSymbolTable
0
STYLE
5
11
100
AcDbSymbolTableRecord
100
AcDbTextStyleTableRecord
2
Standard
3
txt
70
0
71
0
40
0
41
1
42
0
50
0
0
STYLE
5
13B
100
AcDbSymbolTableRecord
100
AcDbTextStyleTableRecord
2
DEFAULT
3
simplex.shx
70
0
71
0
40
0
41
1
42
0
50
0
0
STYLE
5
13C
100
AcDbSymbolTableRecord
100
AcDbTextStyleTableRecord
2
DWGDirectTextStyle
3
SIMPLEX
70
0
71
0
40
0
41
1
42
0
50
0
0
ENDTAB
0
TABLE
2
DIMSTYLE
5
1d2
100
AcDbSymbolTable
100
AcDbDimStyleTable
0
DIMSTYLE
105
27
100
AcDbSymbolTableRecord
100
AcDbDimStyleTableRecord
2
Standard
70
0
3
<>
41
0.18
42
0.0625
44
0.18
140
0.18
147
0.09
73
0
74
0
77
1
271
2
275
0
278
52
280
0
340
11
0
ENDTAB
0
TABLE
2
VIEW
5
1d3
100
AcDbSymbolTable
0
ENDTAB
0
TABLE
2
UCS
5
1d4
100
AcDbSymbolTable
0
ENDTAB
0
TABLE
2
APPID
5
1d5
100
AcDbSymbolTable
0
APPID
5
12
100
AcDbSymbolTableRecord
100
AcDbRegAppTableRecord
2
ACAD
70
0
0
ENDTAB
0
TABLE
2
BLOCK_RECORD
5
1d6
100
AcDbSymbolTable
0
BLOCK_RECORD
5
1F
100
AcDbSymbolTableRecord
100
AcDbBlockTableRecord
2
*Model_Space
340
0
70
0
0
BLOCK_RECORD
5
1B
100
AcDbSymbolTableRecord
100
AcDbBlockTableRecord
2
*Paper_Space
340
0
70
0
0
BLOCK_RECORD
5
23
100
AcDbSymbolTableRecord
100
AcDbBlockTableRecord
2
*Paper_Space0
340
0
70
0
0
BLOCK_RECORD
5
13E
100
AcDbSymbolTableRecord
100
AcDbBlockTableRecord
2
DimnDraft3D1
340
0
70
0
0
BLOCK_RECORD
5
14C
100
AcDbSymbolTableRecord
100
AcDbBlockTableRecord
2
_CLOSED
340
0
70
0
0
BLOCK_RECORD
5
153
100
AcDbSymbolTableRecord
100
AcDbBlockTableRecord
2
DimnDraft3D2
340
0
70
0
0
BLOCK_RECORD
5
161
100
AcDbSymbolTableRecord
100
AcDbBlockTableRecord
2
DimnDraft3D3
340
0
70
0
0
BLOCK_RECORD
5
170
100
AcDbSymbolTableRecord
100
AcDbBlockTableRecord
2
DimnDraft3D4
340
0
70
0
0
ENDTAB
0
ENDSEC
0
SECTION
2
BLOCKS
0
BLOCK
5
20
100
AcDbEntity
8
0
100
AcDbBlockBegin
2
*Model_Space
70
0
10
0
20
0
30
0
3
*Model_Space
0
ENDBLK
5
21
100
AcDbEntity
8
0
100
AcDbBlockEnd
0
BLOCK
5
1C
100
AcDbEntity
8
0
100
AcDbBlockBegin
2
*Paper_Space
70
0
10
0
20
0
30
0
3
*Paper_Space
0
ENDBLK
5
1D
100
AcDbEntity
8
0
100
AcDbBlockEnd
0
BLOCK
5
24
100
AcDbEntity
8
0
100
AcDbBlockBegin
2
*Paper_Space0
70
0
10
0
20
0
30
0
3
*Paper_Space0
0
ENDBLK
5
25
100
AcDbEntity
8
0
100
AcDbBlockEnd
0
BLOCK
5
149
100
AcDbEntity
8
0
100
AcDbBlockBegin
2
DimnDraft3D1
70
0
10
0
20
0
30
0
3
DimnDraft3D1
0
MTEXT
5
13F
100
AcDbEntity
8
2
62
256
6
ByLayer
370
-1
48
1
60
0
100
AcDbMText
10
17.865461
20
42.875
30
0
210
0
220
0
230
1
1
\W01.000;\fsimplex.shx,bigfont.shx;40\P
40
4.5
41
0
44
1.084337
50
0
71
7
72
5
7
DEFAULT
0
LINE
5
140
100
AcDbEntity
8
2
62
256
6
ByLayer
370
-1
48
1
60
0
100
AcDbLine
10
40
20
24
30
0
11
40
21
43.75
31
0
39
0
210
0
220
0
230
1
0
LINE
5
141
100
AcDbEntity
8
2
62
256
6
ByLayer
370
-1
48
1
60
0
100
AcDbLine
10
0
20
19
30
0
11
0
21
43.75
31
0
39
0
210
0
220
0
230
1
0
LINE
5
142
100
AcDbEntity
8
2
62
256
6
ByLayer
370
-1
48
1
60
0
100
AcDbLine
10
40
20
41.75
30
0
11
0
21
41.75
31
0
39
0
210
0
220
0
230
1
0
LINE
5
143
100
AcDbEntity
8
2
62
256
6
ByLayer
370
-1
48
1
60
0
100
AcDbLine
10
40
20
41.75
30
0
11
36.825002
21
41.332003
31
0
39
0
210
0
220
0
230
1
0
LINE
5
144
100
AcDbEntity
8
2
62
256
6
ByLayer
370
-1
48
1
60
0
100
AcDbLine
10
40
20
41.75
30
0
11
36.824998
21
42.167997
31
0
39
0
210
0
220
0
230
1
0
LINE
5
145
100
AcDbEntity
8
2
62
256
6
ByLayer
370
-1
48
1
60
0
100
AcDbLine
10
36.825002
20
41.332003
30
0
11
36.824998
21
42.167997
31
0
39
0
210
0
220
0
230
1
0
LINE
5
146
100
AcDbEntity
8
2
62
256
6
ByLayer
370
-1
48
1
60
0
100
AcDbLine
10
0
20
41.75
30
0
11
3.174998
21
42.167997
31
0
39
0
210
0
220
0
230
1
0
LINE
5
147
100
AcDbEntity
8
2
62
256
6
ByLayer
370
-1
48
1
60
0
100
AcDbLine
10
0
20
41.75
30
0
11
3.175002
21
41.332003
31
0
39
0
210
0
220
0
230
1
0
LINE
5
148
100
AcDbEntity
8
2
62
256
6
ByLayer
370
-1
48
1
60
0
100
AcDbLine
10
3.174998
20
42.167997
30
0
11
3.175002
21
41.332003
31
0
39
0
210
0
220
0
230
1
0
ENDBLK
5
14A
100
AcDbEntity
8
0
100
AcDbBlockEnd
0
BLOCK
5
14D
100
AcDbEntity
8
0
100
AcDbBlockBegin
2
_CLOSED
70
0
10
0
20
0
30
0
3
_CLOSED
0
LINE
5
14F
100
AcDbEntity
8
0
62
256
6
ByLayer
370
-2
48
1
60
0
100
AcDbLine
10
-1
20
0.166667
30
0
11
0
21
0
31
0
39
0
210
0
220
0
230
1
0
LINE
5
150
100
AcDbEntity
8
0
62
256
6
ByLayer
370
-2
48
1
60
0
100
AcDbLine
10
0
20
0
30
0
11
-1
21
-0.166667
31
0
39
0
210
0
220
0
230
1
0
LINE
5
151
100
AcDbEntity
8
0
62
256
6
ByLayer
370
-2
48
1
60
0
100
AcDbLine
10
-1
20
0.166667
30
0
11
-1
21
-0.166667
31
0
39
0
210
0
220
0
230
1
0
LINE
5
152
100
AcDbEntity
8
0
62
256
6
ByLayer
370
-2
48
1
60
0
100
AcDbLine
10
0
20
0
30
0
11
-1
21
0
31
0
39
0
210
0
220
0
230
1
0
ENDBLK
5
14E
100
AcDbEntity
8
0
100
AcDbBlockEnd
0
BLOCK
5
15E
100
AcDbEntity
8
0
100
AcDbBlockBegin
2
DimnDraft3D2
70
0
10
0
20
0
30
0
3
DimnDraft3D2
0
MTEXT
5
154
100
AcDbEntity
8
2
62
256
6
ByLayer
370
-1
48
1
60
0
100
AcDbMText
10
46.51875
20
32.875
30
0
210
0
220
0
230
1
1
\W01.000;\fsimplex.shx,bigfont.shx;15.7\P
40
4.5
41
0
44
1.084337
50
0
71
7
72
5
7
DEFAULT
0
LINE
5
155
100
AcDbEntity
8
2
62
256
6
ByLayer
370
-1
48
1
60
0
100
AcDbLine
10
40
20
24
30
0
11
40
21
33.75
31
0
39
0
210
0
220
0
230
1
0
LINE
5
156
100
AcDbEntity
8
2
62
256
6
ByLayer
370
-1
48
1
60
0
100
AcDbLine
10
23.8
20
24
30
0
11
23.8
21
33.75
31
0
39
0
210
0
220
0
230
1
0
LINE
5
157
100
AcDbEntity
8
2
62
256
6
ByLayer
370
-1
48
1
60
0
100
AcDbLine
10
23.8
20
31.75
30
0
11
56.087171
21
31.75
31
0
39
0
210
0
220
0
230
1
0
LINE
5
158
100
AcDbEntity
8
2
62
256
6
ByLayer
370
-1
48
1
60
0
100
AcDbLine
10
40
20
31.75
30
0
11
36.825002
21
31.332003
31
0
39
0
210
0
220
0
230
1
0
LINE
5
159
100
AcDbEntity
8
2
62
256
6
ByLayer
370
-1
48
1
60
0
100
AcDbLine
10
40
20
31.75
30
0
11
36.824998
21
32.167997
31
0
39
0
210
0
220
0
230
1
0
LINE
5
15A
100
AcDbEntity
8
2
62
256
6
ByLayer
370
-1
48
1
60
0
100
AcDbLine
10
36.825002
20
31.332003
30
0
11
36.824998
21
32.167997
31
0
39
0
210
0
220
0
230
1
0
LINE
5
15B
100
AcDbEntity
8
2
62
256
6
ByLayer
370
-1
48
1
60
0
100
AcDbLine
10
23.8
20
31.75
30
0
11
26.974998
21
32.167997
31
0
39
0
210
0
220
0
230
1
0
LINE
5
15C
100
AcDbEntity
8
2
62
256
6
ByLayer
370
-1
48
1
60
0
100
AcDbLine
10
23.8
20
31.75
30
0
11
26.975002
21
31.332003
31
0
39
0
210
0
220
0
230
1
0
LINE
5
15D
100
AcDbEntity
8
2
62
256
6
ByLayer
370
-1
48
1
60
0
100
AcDbLine
10
26.974998
20
32.167997
30
0
11
26.975002
21
31.332003
31
0
39
0
210
0
220
0
230
1
0
ENDBLK
5
15F
100
AcDbEntity
8
0
100
AcDbBlockEnd
0
BLOCK
5
16D
100
AcDbEntity
8
0
100
AcDbBlockBegin
2
DimnDraft3D3
70
0
10
0
20
0
30
0
3
DimnDraft3D3
0
MTEXT
5
162
100
AcDbEntity
8
SK2
62
256
6
ByLayer
370
-1
48
1
60
0
100
AcDbMText
10
-10.875
20
-3.739145
30
0
210
0
220
0
230
1
1
\W01.000;\fsimplex.shx,bigfont.shx;%%c16\P
40
4.5
41
0
44
1.084337
50
90
71
7
72
5
7
DEFAULT
0
LINE
5
164
100
AcDbEntity
8
SK2
62
256
6
ByLayer
370
-1
48
1
60
0
100
AcDbLine
10
-2
20
8
30
0
11
-11.75
21
8
31
0
39
0
210
0
220
0
230
1
0
LINE
5
165
100
AcDbEntity
8
SK2
62
256
6
ByLayer
370
-1
48
1
60
0
100
AcDbLine
10
-2
20
-8
30
0
11
-11.75
21
-8
31
0
39
0
210
0
220
0
230
1
0
LINE
5
166
100
AcDbEntity
8
SK2
62
256
6
ByLayer
370
-1
48
1
60
0
100
AcDbLine
10
-9.75
20
19.25
30
0
11
-9.75
21
-19.25
31
0
39
0
210
0
220
0
230
1
0
LINE
5
167
100
AcDbEntity
8
SK2
62
256
6
ByLayer
370
-1
48
1
60
0
100
AcDbLine
10
-9.75
20
8
30
0
11
-10.167997
21
11.174998
31
0
39
0
210
0
220
0
230
1
0
LINE
5
168
100
AcDbEntity
8
SK2
62
256
6
ByLayer
370
-1
48
1
60
0
100
AcDbLine
10
-9.75
20
8
30
0
11
-9.332003
21
11.175002
31
0
39
0
210
0
220
0
230
1
0
LINE
5
169
100
AcDbEntity
8
SK2
62
256
6
ByLayer
370
-1
48
1
60
0
100
AcDbLine
10
-10.167997
20
11.174998
30
0
11
-9.332003
21
11.175002
31
0
39
0
210
0
220
0
230
1
0
LINE
5
16A
100
AcDbEntity
8
SK2
62
256
6
ByLayer
370
-1
48
1
60
0
100
AcDbLine
10
-9.75
20
-8
30
0
11
-9.332003
21
-11.174998
31
0
39
0
210
0
220
0
230
1
0
LINE
5
16B
100
AcDbEntity
8
SK2
62
256
6
ByLayer
370
-1
48
1
60
0
100
AcDbLine
10
-9.75
20
-8
30
0
11
-10.167997
21
-11.175002
31
0
39
0
210
0
220
0
230
1
0
LINE
5
16C
100
AcDbEntity
8
SK2
62
256
6
ByLayer
370
-1
48
1
60
0
100
AcDbLine
10
-9.332003
20
-11.174998
30
0
11
-10.167997
21
-11.175002
31
0
39
0
210
0
220
0
230
1
0
ENDBLK
5
16E
100
AcDbEntity
8
0
100
AcDbBlockEnd
0
BLOCK
5
17B
100
AcDbEntity
8
0
100
AcDbBlockBegin
2
DimnDraft3D4
70
0
10
0
20
0
30
0
3
DimnDraft3D4
0
MTEXT
5
171
100
AcDbEntity
8
2
62
256
6
ByLayer
370
-1
48
1
60
0
100
AcDbMText
10
53.125
20
-5.137993
30
0
210
0
220
0
230
1
1
\W01.000;\fsimplex.shx,bigfont.shx;%%c44\P
40
4.5
41
0
44
1.084337
50
90
71
7
72
5
7
DEFAULT
0
LINE
5
172
100
AcDbEntity
8
2
62
256
6
ByLayer
370
-1
48
1
60
0
100
AcDbLine
10
42
20
22
30
0
11
56.25
21
22
31
0
39
0
210
0
220
0
230
1
0
LINE
5
173
100
AcDbEntity
8
2
62
256
6
ByLayer
370
-1
48
1
60
0
100
AcDbLine
10
42
20
-22
30
0
11
56.25
21
-22
31
0
39
0
210
0
220
0
230
1
0
LINE
5
174
100
AcDbEntity
8
2
62
256
6
ByLayer
370
-1
48
1
60
0
100
AcDbLine
10
54.25
20
22
30
0
11
54.25
21
-22
31
0
39
0
210
0
220
0
230
1
0
LINE
5
175
100
AcDbEntity
8
2
62
256
6
ByLayer
370
-1
48
1
60
0
100
AcDbLine
10
54.25
20
22
30
0
11
54.667997
21
18.825002
31
0
39
0
210
0
220
0
230
1
0
LINE
5
176
100
AcDbEntity
8
2
62
256
6
ByLayer
370
-1
48
1
60
0
100
AcDbLine
10
54.25
20
22
30
0
11
53.832003
21
18.824998
31
0
39
0
210
0
220
0
230
1
0
LINE
5
177
100
AcDbEntity
8
2
62
256
6
ByLayer
370
-1
48
1
60
0
100
AcDbLine
10
54.667997
20
18.825002
30
0
11
53.832003
21
18.824998
31
0
39
0
210
0
220
0
230
1
0
LINE
5
178
100
AcDbEntity
8
2
62
256
6
ByLayer
370
-1
48
1
60
0
100
AcDbLine
10
54.25
20
-22
30
0
11
53.832003
21
-18.825002
31
0
39
0
210
0
220
0
230
1
0
LINE
5
179
100
AcDbEntity
8
2
62
256
6
ByLayer
370
-1
48
1
60
0
100
AcDbLine
10
54.25
20
-22
30
0
11
54.667997
21
-18.824998
31
0
39
0
210
0
220
0
230
1
0
LINE
5
17A
100
AcDbEntity
8
2
62
256
6
ByLayer
370
-1
48
1
60
0
100
AcDbLine
10
53.832003
20
-18.825002
30
0
11
54.667997
21
-18.824998
31
0
39
0
210
0
220
0
230
1
0
ENDBLK
5
17C
100
AcDbEntity
8
0
100
AcDbBlockEnd
0
ENDSEC
0
SECTION
2
ENTITIES
0
ARC
5
91
100
AcDbEntity
8
1
62
256
6
ByLayer
370
-1
48
1
60
0
100
AcDbCircle
39
0
10
23.175756
20
-15.52918
30
0
40
5
210
0
220
0
230
1
100
AcDbArc
50
244.557628
51
245.332095
0
ARC
5
92
100
AcDbEntity
8
1
62
256
6
ByLayer
370
-1
48
1
60
0
100
AcDbCircle
39
0
10
23.175756
20
-15.52918
30
0
40
5
210
0
220
0
230
1
100
AcDbArc
50
246.773178
51
248.547479
0
ARC
5
93
100
AcDbEntity
8
1
62
256
6
ByLayer
370
-1
48
1
60
0
100
AcDbCircle
39
0
10
-13.5
20
22
30
0
40
5
210
0
220
0
230
-1
100
AcDbArc
50
252.624045
51
270
0
ARC
5
94
100
AcDbEntity
8
1
62
256
6
ByLayer
370
-1
48
1
60
0
100
AcDbCircle
39
0
10
-13.5
20
-22
30
0
40
5
210
0
220
0
230
-1
100
AcDbArc
50
90
51
115.442372
0
ARC
5
95
100
AcDbEntity
8
1
62
256
6
ByLayer
370
-1
48
1
60
0
100
AcDbCircle
39
0
10
0.5
20
-16.5
30
0
40
0.5
210
0
220
0
230
1
100
AcDbArc
50
180
51
270
0
ARC
5
96
100
AcDbEntity
8
1
62
256
6
ByLayer
370
-1
48
1
60
0
100
AcDbCircle
39
0
10
0.5
20
16.5
30
0
40
0.5
210
0
220
0
230
1
100
AcDbArc
50
90
51
180
0
ELLIPSE
5
97
100
AcDbEntity
8
1
62
256
6
ByLayer
370
-1
48
1
60
0
100
AcDbEllipse
10
31.284824
20
12.802215
30
0
11
0.0398447600633963
21
-1.25032829694256
31
0
210
0
220
0
230
-1
40
0.203835
41
-1.02285987311543
42
-0.768298804721449
0
ELLIPSE
5
98
100
AcDbEntity
8
1
62
256
6
ByLayer
370
-1
48
1
60
0
100
AcDbEllipse
10
25.382204
20
13.512317
30
0
11
-1.19667918741231
21
1.60248523313453
31
0
210
0
220
0
230
1
40
0.855774
41
1.8019725269746
42
3.06018645382443
0
ELLIPSE
5
99
100
AcDbEntity
8
1
62
256
6
ByLayer
370
-1
48
1
60
0
100
AcDbEllipse
10
25.029919
20
-4.723927
30
0
11
0.994394610704562
21
3.20621803463464
31
0
210
0
220
0
230
-1
40
0.032977
41
-2.32614401977707
42
-2.2325205512587
0
ELLIPSE
5
9A
100
AcDbEntity
8
1
62
256
6
ByLayer
370
-1
48
1
60
0
100
AcDbEllipse
10
27.487293
20
-12.440871
30
0
11
-13.9398053407906
21
1.29685275219154
31
0
210
0
220
0
230
1
40
0.524722
41
-0.662752338434041
42
-0.437231867191304
0
ELLIPSE
5
9B
100
AcDbEntity
8
1
62
256
6
ByLayer
370
-1
48
1
60
0
100
AcDbEllipse
10
26.782642
20
-6.811375
30
0
11
-0.30404622569305
21
-1.9767538776089
31
0
210
0
220
0
230
1
40
0.094427
41
-2.69087332057991
42
-2.12138654738438
0
ELLIPSE
5
9C
100
AcDbEntity
8
1
62
256
6
ByLayer
370
-1
48
1
60
0
100
AcDbEllipse
10
27.864982
20
12.555769
30
0
11
2.21085577214351
21
1.41169857571017
31
0
210
0
220
0
230
-1
40
0.020134
41
-2.58308677221873
42
-1.90421703768143
0
ELLIPSE
5
9D
100
AcDbEntity
8
1
62
256
6
ByLayer
370
-1
48
1
60
0
100
AcDbEllipse
10
23.140627
20
15.455686
30
0
11
1.03093375484433
21
0.8868475716569
31
0
210
0
220
0
230
-1
40
0.038217
41
1.91188519273829
42
2.04773633645906
0
ELLIPSE
5
9E
100
AcDbEntity
8
1
62
256
6
ByLayer
370
-1
48
1
60
0
100
AcDbEllipse
10
23.223483
20
12.89788
30
0
11
1.19667918741223
21
-1.60248523313459
31
0
210
0
220
0
230
1
40
0.855774
41
-1.73839734808711
42
-1.57832279588296
0
ELLIPSE
5
9F
100
AcDbEntity
8
1
62
256
6
ByLayer
370
-1
48
1
60
0
100
AcDbEllipse
10
-110.904981
20
0.719889
30
0
11
321.467949878437
21
20.8500560029802
31
0
210
0
220
0
230
-1
40
0.00588
41
-1.12612340104284
42
-1.08874925071834
0
ELLIPSE
5
A0
100
AcDbEntity
8
1
62
256
6
ByLayer
370
-1
48
1
60
0
100
AcDbEllipse
10
-9.004708
20
-0.251607
30
0
11
112.119323469962
21
-21.1247661074967
31
0
210
0
220
0
230
-1
40
0.011606
41
-1.2282303259537
42
-1.14021110913012
0
ELLIPSE
5
A1
100
AcDbEntity
8
1
62
256
6
ByLayer
370
-1
48
1
60
0
100
AcDbEllipse
10
27.323446
20
11.73378
30
0
11
0.0304972176821075
21
1.99976746641045
31
0
210
0
220
0
230
1
40
0.080432
41
-1.7330963794387
42
-1.68402412440079
0
ELLIPSE
5
A2
100
AcDbEntity
8
1
62
256
6
ByLayer
370
-1
48
1
60
0
100
AcDbEllipse
10
25.029919
20
-6.345339
30
0
11
1.00000000000001
21
0
31
0
210
0
220
0
230
1
40
0.848408
41
1.39145074927019
42
-2.43207437619923
0
ELLIPSE
5
A3
100
AcDbEntity
8
1
62
256
6
ByLayer
370
-1
48
1
60
0
100
AcDbEllipse
10
27.487293
20
23.690146
30
0
11
10.2816770231057
21
9.501953356681
31
0
210
0
220
0
230
1
40
0.993228
41
2.88498209557212
42
3.09784911887621
0
ELLIPSE
5
A4
100
AcDbEntity
8
1
62
256
6
ByLayer
370
-1
48
1
60
0
100
AcDbEllipse
10
32.658001
20
-2.447151
30
0
11
-1.4668833977808
21
0.313453501041291
31
0
210
0
220
0
230
1
40
0.520853
41
0
42
6.28318530717959
0
ELLIPSE
5
A5
100
AcDbEntity
8
1
62
256
6
ByLayer
370
-1
48
1
60
0
100
AcDbEllipse
10
23.778548
20
13.312383
30
0
11
1.57449601566612
21
1.72515832944177
31
0
210
0
220
0
230
-1
40
0.850541
41
-2.30897829274498
42
-1.44347004769176
0
ELLIPSE
5
A6
100
AcDbEntity
8
1
62
256
6
ByLayer
370
-1
48
1
60
0
100
AcDbEllipse
10
27.645004
20
23.519493
30
0
11
8.81286601980487
21
8.14453144858371
31
0
210
0
220
0
230
1
40
0.993228
41
2.90417980057236
42
-2.83991820745655
0
ELLIPSE
5
A7
100
AcDbEntity
8
1
62
256
6
ByLayer
370
-1
48
1
60
0
100
AcDbEllipse
10
33.795036
20
12.98311
30
0
11
0.0398447600632061
21
-1.25032829694158
31
0
210
0
220
0
230
-1
40
0.203835
41
-0.911260639268064
42
-0.789845079615057
0
ELLIPSE
5
A8
100
AcDbEntity
8
1
62
256
6
ByLayer
370
-1
48
1
60
0
100
AcDbEllipse
10
30.436423
20
0.009149
30
0
11
4.07345856268612
21
21.2530365609986
31
0
210
0
220
0
230
-1
40
0.03441
41
1.45666845947483
42
1.73525836300752
0
ELLIPSE
5
A9
100
AcDbEntity
8
1
62
256
6
ByLayer
370
-1
48
1
60
0
100
AcDbEllipse
10
27.223781
20
11.7353
30
0
11
0.0304972176821075
21
1.99976746641045
31
0
210
0
220
0
230
1
40
0.080432
41
-1.73699395587952
42
-1.68852134517167
0
ELLIPSE
5
AA
100
AcDbEntity
8
1
62
256
6
ByLayer
370
-1
48
1
60
0
100
AcDbEllipse
10
76.219726
20
-0.224737
30
0
11
117.7879445437
21
-18.2814791516247
31
0
210
0
220
0
230
-1
40
0.093722
41
1.91901773062881
42
1.95491621874708
0
ELLIPSE
5
AB
100
AcDbEntity
8
1
62
256
6
ByLayer
370
-1
48
1
60
0
100
AcDbEllipse
10
25.029919
20
-1.193216
30
0
11
0.960522402631358
21
11.7703696291466
31
0
210
0
220
0
230
-1
40
0.023636
41
-2.05652853260489
42
-1.96409690908291
0
ELLIPSE
5
AC
100
AcDbEntity
8
1
62
256
6
ByLayer
370
-1
48
1
60
0
100
AcDbEllipse
10
32.658001
20
-2.447151
30
0
11
1.95584453037441
21
-0.417938001388388
31
0
210
0
220
0
230
1
40
0.520853
41
0.0410299206576877
42
2.83832394958965
0
ELLIPSE
5
AD
100
AcDbEntity
8
1
62
256
6
ByLayer
370
-1
48
1
60
0
100
AcDbEllipse
10
26.604256
20
-6.587489
30
0
11
-1
21
1.22460635382238E-16
31
0
210
0
220
0
230
1
40
0.848408
41
-1.94317592672293
42
-1.75014190431961
0
ELLIPSE
5
AE
100
AcDbEntity
8
1
62
256
6
ByLayer
370
-1
48
1
60
0
100
AcDbEllipse
10
28.627648
20
11.770774
30
0
11
-0.14375448406245
21
1.99482697202338
31
0
210
0
220
0
230
1
40
0.072819
41
-1.71735989946214
42
-1.66169499205122
0
ELLIPSE
5
AF
100
AcDbEntity
8
1
62
256
6
ByLayer
370
-1
48
1
60
0
100
AcDbEllipse
10
-110.904977
20
-0.377319
30
0
11
321.46739208841
21
-10.9615901275791
31
0
210
0
220
0
230
-1
40
0.055452
41
1.08723980835338
42
1.12461395931106
0
ELLIPSE
5
B0
100
AcDbEntity
8
1
62
256
6
ByLayer
370
-1
48
1
60
0
100
AcDbEllipse
10
23.226886
20
-7.510127
30
0
11
0.0966172898546803
21
-1.78473352118655
31
0
210
0
220
0
230
-1
40
0.556199
41
0.951446145091175
42
1.29032740735327
0
ELLIPSE
5
B1
100
AcDbEntity
8
1
62
256
6
ByLayer
370
-1
48
1
60
0
100
AcDbEllipse
10
23.226886
20
17.927646
30
0
11
0.0342674598100685
21
3.37387100770148
31
0
210
0
220
0
230
-1
40
0.295438
41
-2.61639517000878
42
-0.888785696714707
0
ELLIPSE
5
B2
100
AcDbEntity
8
1
62
256
6
ByLayer
370
-1
48
1
60
0
100
AcDbEllipse
10
25.208305
20
-6.569224
30
0
11
-0.30404622569305
21
-1.9767538776089
31
0
210
0
220
0
230
1
40
0.094427
41
-2.59831774941554
42
-2.12138654738438
0
ELLIPSE
5
B3
100
AcDbEntity
8
1
62
256
6
ByLayer
370
-1
48
1
60
0
100
AcDbEllipse
10
25.22116
20
13.379657
30
0
11
1.2621376692109
21
-1.53218796383174
31
0
210
0
220
0
230
1
40
0.51692
41
-0.0246333941664988
42
0.320708907926117
0
ELLIPSE
5
B4
100
AcDbEntity
8
1
62
256
6
ByLayer
370
-1
48
1
60
0
100
AcDbEllipse
10
26.604256
20
-5.834327
30
0
11
0.999830125309314
21
-0.173593024715114
31
0
210
0
220
0
230
-1
40
0.106176
41
-1.11108101587174
42
-0.766382178608669
0
ELLIPSE
5
B5
100
AcDbEntity
8
1
62
256
6
ByLayer
370
-1
48
1
60
0
100
AcDbEllipse
10
34.511554
20
0.009153
30
0
11
4.07521485562411
21
21.2621999187404
31
0
210
0
220
0
230
-1
40
0.03441
41
1.47765861266273
42
1.77132021467897
0
ELLIPSE
5
B6
100
AcDbEntity
8
1
62
256
6
ByLayer
370
-1
48
1
60
0
100
AcDbEllipse
10
272.732836
20
30.201838
30
0
11
266.850228633105
21
20.4204747702508
31
0
210
0
220
0
230
-1
40
0.001462
41
-2.6998039159555
42
-2.67825765601327
0
ELLIPSE
5
B7
100
AcDbEntity
8
1
62
256
6
ByLayer
370
-1
48
1
60
0
100
AcDbEllipse
10
31.528074
20
16.920461
30
0
11
1.08281808470802
21
2.39126117256758
31
0
210
0
220
0
230
1
40
0.980639
41
0
42
-3.1415893085302
0
ELLIPSE
5
B8
100
AcDbEntity
8
1
62
256
6
ByLayer
370
-1
48
1
60
0
100
AcDbEllipse
10
30.114795
20
17.746342
30
0
11
-0.282976459470363
21
-0.624916253097659
31
0
210
0
220
0
230
1
40
0.980639
41
1.48118571530975
42
2.26517635893055
0
ELLIPSE
5
B9
100
AcDbEntity
8
1
62
256
6
ByLayer
370
-1
48
1
60
0
100
AcDbEllipse
10
31.523693
20
16.922445
30
0
11
1.08281808470802
21
2.39126117256758
31
0
210
0
220
0
230
1
40
0.980639
41
0
42
-3.1415893085302
0
ELLIPSE
5
BA
100
AcDbEntity
8
1
62
256
6
ByLayer
370
-1
48
1
60
0
100
AcDbEllipse
10
31.728758
20
16.829587
30
0
11
-0.497683816838182
21
-1.09906918274391
31
0
210
0
220
0
230
1
40
0.980639
41
0.555715314086515
42
1.06450490353046
0
ELLIPSE
5
BB
100
AcDbEntity
8
1
62
256
6
ByLayer
370
-1
48
1
60
0
100
AcDbEllipse
10
31.044322
20
15.626365
30
0
11
-0.120450621232283
21
-0.265999338053231
31
0
210
0
220
0
230
1
40
0.980639
41
-1.39999057838558
42
-0.499151601576147
0
ELLIPSE
5
BC
100
AcDbEntity
8
1
62
256
6
ByLayer
370
-1
48
1
60
0
100
AcDbEllipse
10
31.474559
20
16.944694
30
0
11
0.691559816766856
21
1.52721880221316
31
0
210
0
220
0
230
1
40
0.980639
41
-1.13820343652242
42
-0.0937964330071559
0
ELLIPSE
5
BD
100
AcDbEntity
8
1
62
256
6
ByLayer
370
-1
48
1
60
0
100
AcDbEllipse
10
31.522964
20
16.922775
30
0
11
0.497683816838181
21
1.09906918274392
31
0
210
0
220
0
230
1
40
0.980639
41
0.363560256860583
42
0.501625523684378
0
ELLIPSE
5
BE
100
AcDbEntity
8
1
62
256
6
ByLayer
370
-1
48
1
60
0
100
AcDbEllipse
10
31.474559
20
16.944694
30
0
11
0.742503829514072
21
1.63972194690348
31
0
210
0
220
0
230
1
40
0.980639
41
0
42
6.28318530717959
0
ELLIPSE
5
BF
100
AcDbEntity
8
1
62
256
6
ByLayer
370
-1
48
1
60
0
100
AcDbEllipse
10
31.474559
20
16.944694
30
0
11
0.691559816766856
21
1.52721880221316
31
0
210
0
220
0
230
1
40
0.980639
41
0.958982213552122
42
2.00338921706737
0
ELLIPSE
5
C0
100
AcDbEntity
8
1
62
256
6
ByLayer
370
-1
48
1
60
0
100
AcDbEllipse
10
30.114795
20
17.746342
30
0
11
-0.282976459470363
21
-0.624916253097659
31
0
210
0
220
0
230
1
40
0.980639
41
0.697195071688952
42
1.48118571530975
0
ELLIPSE
5
C1
100
AcDbEntity
8
1
62
256
6
ByLayer
370
-1
48
1
60
0
100
AcDbEllipse
10
31.728758
20
16.829587
30
0
11
-0.497683816838182
21
-1.09906918274391
31
0
210
0
220
0
230
1
40
0.980639
41
2.89927963480598
42
-2.7780323967292
0
ELLIPSE
5
C2
100
AcDbEntity
8
1
62
256
6
ByLayer
370
-1
48
1
60
0
100
AcDbEllipse
10
31.728758
20
16.829587
30
0
11
-0.497683816838182
21
-1.09906918274391
31
0
210
0
220
0
230
1
40
0.980639
41
1.88189510495184
42
2.36268165836756
0
ELLIPSE
5
C3
100
AcDbEntity
8
1
62
256
6
ByLayer
370
-1
48
1
60
0
100
AcDbEllipse
10
31.474559
20
16.944694
30
0
11
0.691559816766856
21
1.52721880221316
31
0
210
0
220
0
230
1
40
0.980639
41
-0.0937964330071559
42
0.958982213552122
0
ELLIPSE
5
C4
100
AcDbEntity
8
1
62
256
6
ByLayer
370
-1
48
1
60
0
100
AcDbEllipse
10
32.413195
20
18.032808
30
0
11
-0.120450621232283
21
-0.265999338053231
31
0
210
0
220
0
230
1
40
0.980639
41
-2.6300312658116
42
-1.91773842839607
0
ELLIPSE
5
C5
100
AcDbEntity
8
1
62
256
6
ByLayer
370
-1
48
1
60
0
100
AcDbEllipse
10
31.728758
20
16.829587
30
0
11
-0.497683816838182
21
-1.09906918274391
31
0
210
0
220
0
230
1
40
0.980639
41
-2.63996712990542
42
-1.66040693828005
0
ELLIPSE
5
C6
100
AcDbEntity
8
1
62
256
6
ByLayer
370
-1
48
1
60
0
100
AcDbEllipse
10
31.728758
20
14.951388
30
0
11
-0.282976459470363
21
-0.624916253097659
31
0
210
0
220
0
230
1
40
0.980639
41
2.8704701277347
42
3.14158383335658
0
ELLIPSE
5
C7
100
AcDbEntity
8
1
62
256
6
ByLayer
370
-1
48
1
60
0
100
AcDbEllipse
10
30.114795
20
15.86479
30
0
11
-0.282976459470363
21
-0.624916253097659
31
0
210
0
220
0
230
1
40
0.980639
41
1.74160207520421
42
2.525592718825
0
ELLIPSE
5
C8
100
AcDbEntity
8
1
62
256
6
ByLayer
370
-1
48
1
60
0
100
AcDbEllipse
10
30.114795
20
15.86479
30
0
11
-0.282976459470363
21
-0.624916253097659
31
0
210
0
220
0
230
1
40
0.980639
41
2.525592718825
42
3.14158940486523
0
ELLIPSE
5
C9
100
AcDbEntity
8
1
62
256
6
ByLayer
370
-1
48
1
60
0
100
AcDbEllipse
10
30.366465
20
16.809312
30
0
11
-0.120450621232283
21
-0.265999338053231
31
0
210
0
220
0
230
1
40
0.980639
41
-2.44439758190086
42
-0.299013539210888
0
ELLIPSE
5
CA
100
AcDbEntity
8
1
62
256
6
ByLayer
370
-1
48
1
60
0
100
AcDbEllipse
10
31.728758
20
16.829587
30
0
11
0.497683816838181
21
1.09906918274392
31
0
210
0
220
0
230
1
40
0.980639
41
0.363560256860595
42
0.501625523684367
0
ELLIPSE
5
CB
100
AcDbEntity
8
1
62
256
6
ByLayer
370
-1
48
1
60
0
100
AcDbEllipse
10
31.728758
20
16.829587
30
0
11
0.497683816838181
21
1.09906918274392
31
0
210
0
220
0
230
1
40
0.980639
41
2.525592718825
42
-3.02595313578349
0
ELLIPSE
5
CC
100
AcDbEntity
8
1
62
256
6
ByLayer
370
-1
48
1
60
0
100
AcDbEllipse
10
31.474559
20
16.944694
30
0
11
0.691559816766856
21
1.52721880221316
31
0
210
0
220
0
230
1
40
0.980639
41
2.00338921706737
42
3.04779622058263
0
ELLIPSE
5
CD
100
AcDbEntity
8
1
62
256
6
ByLayer
370
-1
48
1
60
0
100
AcDbEllipse
10
31.474559
20
16.944694
30
0
11
0.691559816766856
21
1.52721880221316
31
0
210
0
220
0
230
1
40
0.980639
41
-2.18261044003768
42
-1.13820343652242
0
ELLIPSE
5
CE
100
AcDbEntity
8
1
62
256
6
ByLayer
370
-1
48
1
60
0
100
AcDbEllipse
10
31.728758
20
16.829587
30
0
11
-0.497683816838182
21
-1.09906918274391
31
0
210
0
220
0
230
1
40
0.980639
41
-1.66040693828005
42
-0.61599993476479
0
ELLIPSE
5
CF
100
AcDbEntity
8
1
62
256
6
ByLayer
370
-1
48
1
60
0
100
AcDbEllipse
10
31.522964
20
16.922775
30
0
11
0.497683816838181
21
1.09906918274392
31
0
210
0
220
0
230
1
40
0.980639
41
-2.77803239672922
42
-2.63996712990541
0
ELLIPSE
5
D0
100
AcDbEntity
8
1
62
256
6
ByLayer
370
-1
48
1
60
0
100
AcDbEllipse
10
31.474559
20
16.944694
30
0
11
0.691559816766856
21
1.52721880221316
31
0
210
0
220
0
230
1
40
0.980639
41
3.04779622058263
42
-2.18261044003768
0
ELLIPSE
5
D1
100
AcDbEntity
8
1
62
256
6
ByLayer
370
-1
48
1
60
0
100
AcDbEllipse
10
31.728758
20
18.707785
30
0
11
-0.282976459470363
21
-0.624916253097659
31
0
210
0
220
0
230
1
40
0.980639
41
-8.82023316056269E-06
42
0.310978849055615
0
ELLIPSE
5
D2
100
AcDbEntity
8
1
62
256
6
ByLayer
370
-1
48
1
60
0
100
AcDbEllipse
10
31.728758
20
18.707785
30
0
11
-0.282976459470363
21
-0.624916253097659
31
0
210
0
220
0
230
1
40
0.980639
41
0.554206931489355
42
1.22385422519373
0
ELLIPSE
5
D3
100
AcDbEntity
8
1
62
256
6
ByLayer
370
-1
48
1
60
0
100
AcDbEllipse
10
31.044322
20
18.012435
30
0
11
-0.120450621232283
21
-0.265999338053231
31
0
210
0
220
0
230
1
40
0.980639
41
-2.63119460716639
42
-0.87641629465925
0
ELLIPSE
5
D4
100
AcDbEntity
8
1
62
256
6
ByLayer
370
-1
48
1
60
0
100
AcDbEllipse
10
32.651904
20
-2.962033
30
0
11
-1.32019505800272
21
0.282108150937162
31
0
210
0
220
0
230
1
40
0.520853
41
-2.83731967375714
42
-0.0952982153659951
0
POINT
5
42
100
AcDbEntity
8
2
62
256
6
ByLayer
370
-1
48
1
60
0
100
AcDbPoint
10
40
20
21.88
30
0
39
0
210
0
220
0
230
1
50
360
0
POINT
5
44
100
AcDbEntity
8
80
62
256
6
ByLayer
370
-1
48
1
60
0
100
AcDbPoint
10
0
20
0
30
0
39
0
210
0
220
0
230
1
50
360
0
POINT
5
46
100
AcDbEntity
8
81
62
256
6
ByLayer
370
-1
48
1
60
0
100
AcDbPoint
10
40
20
21.88
30
0
39
0
210
0
220
0
230
1
50
360
0
SPLINE
5
D5
100
AcDbEntity
8
1
62
256
6
ByLayer
370
-1
48
1
60
0
100
AcDbSpline
70
4
71
3
72
37
73
33
40
0
40
0
40
0
40
0
40
0.0375810628789271
40
0.0776242947071008
40
0.120234962095555
40
0.162600133248305
40
0.190237934609037
40
0.19916017862555
40
0.200435059553499
40
0.201368437702166
40
0.201730744363974
40
0.202046569996597
40
0.20234515696471
40
0.20266058882443
40
0.203446219563875
40
0.209072831967867
40
0.213233073640403
40
0.217331001969872
40
0.218974972133159
40
0.220479884333325
40
0.221986062179122
40
0.223630913291699
40
0.227704335185475
40
0.240207231430352
40
0.266470957651018
40
0.301237672989308
40
0.337082985519242
40
0.424622621582934
40
0.54510170661448
40
0.677871393154811
40
0.83088579594175
40
1
40
1
40
1
40
1
41
1
10
24.0899096256476
20
-9.27925548168028
30
-1E-15
41
1
10
24.1633500761863
20
-9.29326108941103
30
-1E-15
41
1
10
24.3150278250273
20
-9.32210064071342
30
-1E-15
41
1
10
24.5499791179884
20
-9.36652591342911
30
-9E-16
41
1
10
24.7940995680467
20
-9.41231627141113
30
-9E-16
41
1
10
25.0144431910789
20
-9.45350007601206
30
-9E-16
41
1
10
25.1676851064116
20
-9.48107934487916
30
-9E-16
41
1
10
25.2417352475412
20
-9.49339026663992
30
-9E-16
41
1
10
25.2618537197235
20
-9.49552991815298
30
-9E-16
41
1
10
25.2661275692882
20
-9.49575950445768
30
-9E-16
41
1
10
25.2681667191938
20
-9.49562363945367
30
-9E-16
41
1
10
25.2689647601017
20
-9.49538916936274
30
-9E-16
41
1
10
25.2691110938672
20
-9.49500712265939
30
-9E-16
41
1
10
25.2683732495834
20
-9.49426267933583
30
-9E-16
41
1
10
25.2595915415624
20
-9.49022551778603
30
-9E-16
41
1
10
25.2389607733826
20
-9.48467807264021
30
-9E-16
41
1
10
25.217003402014
20
-9.47669211612006
30
-9E-16
41
1
10
25.2033324479373
20
-9.47065905564727
30
-9E-16
41
1
10
25.1981490902227
20
-9.46651851119884
30
-9E-16
41
1
10
25.197626091866
20
-9.46425268992169
30
-9E-16
41
1
10
25.2002416375965
20
-9.46268251218572
30
-9E-16
41
1
10
25.208229354085
20
-9.4614617489508
30
-9E-16
41
1
10
25.2381487913076
20
-9.46240887969438
30
-9E-16
41
1
10
25.3210696021171
20
-9.47390548183256
30
-9E-16
41
1
10
25.464863896072
20
-9.50039411017491
30
-9E-16
41
1
10
25.6545928060499
20
-9.53855425685151
30
-9E-16
41
1
10
25.9642709326866
20
-9.59813722744968
30
-9E-16
41
1
10
26.4419299273114
20
-9.68825755368781
30
-8E-16
41
1
10
27.1076761458142
20
-9.81240959492331
30
-8E-16
41
1
10
27.8981955795596
20
-9.97626418345385
30
-7E-16
41
1
10
28.7752182876228
20
-10.2157479207465
30
-7E-16
41
1
10
29.3921890628995
20
-10.3895511867052
30
-6E-16
41
1
10
29.7147541912584
20
-10.4855524007643
30
-6E-16
0
SPLINE
5
D6
100
AcDbEntity
8
1
62
256
6
ByLayer
370
-1
48
1
60
0
100
AcDbSpline
70
4
71
3
72
20
73
16
40
0
40
0
40
0
40
0
40
0.214041405547621
40
0.39267691100798
40
0.535924956075029
40
0.64382902749287
40
0.716451260963727
40
0.740336203827108
40
0.763361254708256
40
0.8176044244935
40
0.88953740483002
40
0.929396805156409
40
0.961923172420292
40
0.988699339574152
40
1
40
1
40
1
40
1
41
1
10
39.9884289868941
20
-11.8302155529362
30
0
41
1
10
39.9390366659438
20
-11.5474720942163
30
0
41
1
10
39.8486334848765
20
-11.0286652116924
30
0
41
1
10
39.7256556426421
20
-10.3206552468526
30
0
41
1
10
39.6275603715995
20
-9.75230551131574
30
0
41
1
10
39.5541428726861
20
-9.3237747632148
30
0
41
1
10
39.5078242571212
20
-9.05095433138567
30
0
41
1
10
39.4808497091922
20
-8.89109533536271
30
0
41
1
10
39.455671054278
20
-8.73957527545346
30
0
41
1
10
39.4164082373943
20
-8.522110954184
30
0
41
1
10
39.3652147047196
20
-8.31546173289172
30
0
41
1
10
39.3340968083307
20
-8.14967910853298
30
0
41
1
10
39.3202384981334
20
-8.05504964838383
30
0
41
1
10
39.3147871566713
20
-8.01325830027304
30
0
41
1
10
39.313618203147
20
-8.00774402451279
30
0
41
1
10
39.3134167172716
20
-8.00774228185119
30
0
0
SPLINE
5
D7
100
AcDbEntity
8
1
62
256
6
ByLayer
370
-1
48
1
60
0
100
AcDbSpline
70
4
71
3
72
10
73
6
40
0
40
0
40
0
40
0
40
0.0454682946930842
40
0.499182422217877
40
1
40
1
40
1
40
1
41
1
10
39.6685264178289
20
-9.98925868703506
30
0
41
1
10
39.6733905846203
20
-9.96397475998143
30
0
41
1
10
39.7268042943008
20
-9.68632849447809
30
0
41
1
10
39.8340539438988
20
-9.12850583005755
30
0
41
1
10
39.9367317512333
20
-8.59266264722226
30
0
41
1
10
39.9907009519511
20
-8.31062614264548
30
0
0
SPLINE
5
D8
100
AcDbEntity
8
1
62
256
6
ByLayer
370
-1
48
1
60
0
100
AcDbSpline
70
4
71
3
72
9
73
5
40
0
40
0
40
0
40
0
40
0.309085587873359
40
1
40
1
40
1
40
1
41
1
10
39.5139621554768
20
-6.93824411694553
30
0
41
1
10
39.5231743902098
20
-6.83623169530426
30
0
41
1
10
39.5531048582886
20
-6.5061611021745
30
0
41
1
10
39.5832411310528
20
-6.17609621383394
30
0
41
1
10
39.6042160455455
20
-5.94802883661444
30
0
0
SPLINE
5
D9
100
AcDbEntity
8
1
62
256
6
ByLayer
370
-1
48
1
60
0
100
AcDbSpline
70
4
71
2
72
6
73
3
40
0
40
0
40
0
40
1
40
1
40
1
41
1
10
39.5738228629441
20
-7.39107027094894
30
0
41
1
10
39.4089051370716
20
-6.23373752226149
30
0
41
1
10
39.2464420691637
20
-5.08913796627107
30
0
0
SPLINE
5
DA
100
AcDbEntity
8
1
62
256
6
ByLayer
370
-1
48
1
60
0
100
AcDbSpline
70
4
71
3
72
12
73
8
40
0
40
0
40
0
40
0
40
0.0086748899559793
40
0.0086748899559793
40
0.670071924816771
40
0.670071924816771
40
1
40
1
40
1
40
1
41
1
10
38.1228503
20
-14.618680139608
30
-1E-16
41
1
10
38.1228503
20
-14.6206945737249
30
-1E-16
41
1
10
38.1228556912306
20
-14.6227091963997
30
-1E-16
41
1
10
38.1236753587464
20
-14.7757294539884
30
-1E-16
41
1
10
38.1551723608747
20
-14.9312717630429
30
-1E-16
41
1
10
38.2578793687001
20
-15.1444249632688
30
-1E-16
41
1
10
38.3024103523175
20
-15.213620551238
30
-1E-16
41
1
10
38.3571648750507
20
-15.2757673389642
30
-1E-16
0
SPLINE
5
DB
100
AcDbEntity
8
1
62
256
6
ByLayer
370
-1
48
1
60
0
100
AcDbSpline
70
4
71
3
72
8
73
4
40
0
40
0
40
0
40
0
40
1
40
1
40
1
40
1
41
1
10
26.9680888626361
20
-5.79722712815473
30
-8E-16
41
1
10
27.0010110962406
20
-5.8019434796534
30
-8E-16
41
1
10
27.0337815354485
20
-5.80751344943968
30
-8E-16
41
1
10
27.0663185126015
20
-5.81391607463593
30
-8E-16
0
SPLINE
5
DC
100
AcDbEntity
8
1
62
256
6
ByLayer
370
-1
48
1
60
0
100
AcDbSpline
70
4
71
3
72
8
73
4
40
0
40
0
40
0
40
0
40
1
40
1
40
1
40
1
41
1
10
26.975012660987
20
-5.01952463484864
30
-8E-16
41
1
10
26.5214628779838
20
-4.9649126535511
30
-8E-16
41
1
10
26.0677492112888
20
-4.91152269731995
30
-9E-16
41
1
10
25.6138612602141
20
-4.85955610504033
30
-9E-16
0
SPLINE
5
DD
100
AcDbEntity
8
1
62
256
6
ByLayer
370
-1
48
1
60
0
100
AcDbSpline
70
4
71
3
72
8
73
4
40
0
40
0
40
0
40
0
40
1
40
1
40
1
40
1
41
1
10
38.8216226236613
20
-6.29542483524918
30
-1E-16
41
1
10
38.8206787908437
20
-6.85258668672523
30
-1E-16
41
1
10
38.8197320210979
20
-7.40974808503097
30
-1E-16
41
1
10
38.8187834771252
20
-7.9669092095653
30
-1E-16
0
SPLINE
5
DE
100
AcDbEntity
8
1
62
256
6
ByLayer
370
-1
48
1
60
0
100
AcDbSpline
70
4
71
3
72
10
73
6
40
0
40
0
40
0
40
0
40
0.567714616579653
40
0.567714616579653
40
1
40
1
40
1
40
1
41
1
10
38.8187834771252
20
-7.9669092095653
30
-1E-16
41
1
10
38.8187458225693
20
-7.98902695563515
30
-1E-16
41
1
10
38.8154937666686
20
-8.01071692498786
30
-1E-16
41
1
10
38.8041242418091
20
-8.04748968702833
30
-1E-16
41
1
10
38.7973266756819
20
-8.06298678895647
30
-1E-16
41
1
10
38.7887100613794
20
-8.07789305876852
30
-1E-16
0
SPLINE
5
DF
100
AcDbEntity
8
1
62
256
6
ByLayer
370
-1
48
1
60
0
100
AcDbSpline
70
4
71
2
72
6
73
3
40
0
40
0
40
0
40
1
40
1
40
1
41
0.499994003496145
10
25.7794761027886
20
11.3644502190159
30
-9E-16
41
0.500005996503855
10
25.7293854920012
20
11.3654878148906
30
-9E-16
41
0.499994003496145
10
25.6792986094767
20
11.3665253185024
30
-9E-16
0
SPLINE
5
E0
100
AcDbEntity
8
1
62
256
6
ByLayer
370
-1
48
1
60
0
100
AcDbSpline
70
4
71
3
72
10
73
6
40
0
40
0
40
0
40
0
40
0.5
40
0.5
40
1
40
1
40
1
40
1
41
1
10
15.6480152972792
20
15.9577446500411
30
3E-16
41
1
10
16.0600819790814
20
15.3927702106297
30
3E-16
41
1
10
16.6851588690141
20
14.6915112537194
30
3E-16
41
1
10
18.4903360866359
20
13.2964602681994
30
5E-16
41
1
10
19.6496664661922
20
12.627894605186
30
5E-16
41
1
10
21.0277406081744
20
12.1553126045062
30
6E-16
0
SPLINE
5
E1
100
AcDbEntity
8
1
62
256
6
ByLayer
370
-1
48
1
60
0
100
AcDbSpline
70
4
71
3
72
12
73
8
40
0
40
0
40
0
40
0
40
0.250094030102615
40
0.250094030102615
40
0.500188060205249
40
0.500188060205249
40
1
40
1
40
1
40
1
41
1
10
25.6792986094749
20
-21.1824237772453
30
0
41
1
10
25.6876498737891
20
-21.1824261791177
30
0
41
1
10
25.6960011381043
20
-21.1824285778151
30
0
41
1
10
25.7127036667364
20
-21.18243336886
30
0
41
1
10
25.7210549310534
20
-21.1824357612076
30
0
41
1
10
25.7460961644072
20
-21.182442925133
30
0
41
1
10
25.7627861334466
20
-21.1824476872059
30
0
41
1
10
25.7794761024897
20
-21.1824524366003
30
0
0
SPLINE
5
E2
100
AcDbEntity
8
1
62
256
6
ByLayer
370
-1
48
1
60
0
100
AcDbSpline
70
4
71
3
72
8
73
4
40
0
40
0
40
0
40
0
40
1
40
1
40
1
40
1
41
1
10
25.6138612602141
20
-4.85955610504041
30
-9E-16
41
1
10
25.5753161638381
20
-4.85514299536652
30
-9E-16
41
1
10
25.5358036373875
20
-4.8536020473301
30
-9E-16
41
1
10
25.4982629012671
20
-4.85538105592295
30
-9E-16
0
SPLINE
5
E3
100
AcDbEntity
8
1
62
256
6
ByLayer
370
-1
48
1
60
0
100
AcDbSpline
70
4
71
3
72
8
73
4
40
0
40
0
40
0
40
0
40
1
40
1
40
1
40
1
41
1
10
25.9750083431827
20
11.3821692635509
30
0
41
1
10
26.4432060592686
20
11.4271619472572
30
1E-16
41
1
10
26.9116781554889
20
11.4631620806398
30
1E-16
41
1
10
27.3799323272323
20
11.4979848543093
30
1E-16
0
SPLINE
5
E4
100
AcDbEntity
8
1
62
256
6
ByLayer
370
-1
48
1
60
0
100
AcDbSpline
70
4
71
3
72
16
73
12
40
0
40
0
40
0
40
0
40
0.183047808215626
40
0.183047808215626
40
0.365371146635603
40
0.365371146635603
40
0.560555130238704
40
0.560555130238704
40
0.781989056836111
40
0.781989056836111
40
1
40
1
40
1
40
1
41
1
10
38.0169848919153
20
-21.2558814640529
30
0
41
1
10
38.1002738383386
20
-21.2562957152821
30
0
41
1
10
38.1841641855347
20
-21.2435447531115
30
0
41
1
10
38.3386823192384
20
-21.1957633485475
30
0
41
1
10
38.4114281482189
20
-21.1602961232361
30
0
41
1
10
38.5436542813795
20
-21.0704376196663
30
0
41
1
10
38.6035317878551
20
-21.0138671753013
30
0
41
1
10
38.7074618745533
20
-20.8814295457755
30
0
41
1
10
38.7497086342863
20
-20.8023726313498
30
0
41
1
10
38.8047665241134
20
-20.6397461770961
30
0
41
1
10
38.818705535445
20
-20.5545947837301
30
0
41
1
10
38.8187834771252
20
-20.4697818037359
30
0
0
SPLINE
5
E5
100
AcDbEntity
8
1
62
256
6
ByLayer
370
-1
48
1
60
0
100
AcDbSpline
70
4
71
3
72
8
73
4
40
0
40
0
40
0
40
0
40
1
40
1
40
1
40
1
41
1
10
22.0085290776875
20
-20.3870929883055
30
0
41
1
10
21.6549078889781
20
-20.3057368661067
30
0
41
1
10
21.3253100030372
20
-20.187218327179
30
0
41
1
10
21.0277406081735
20
-20.0429341960871
30
0
0
SPLINE
5
E6
100
AcDbEntity
8
1
62
256
6
ByLayer
370
-1
48
1
60
0
100
AcDbSpline
70
4
71
3
72
16
73
12
40
0
40
0
40
0
40
0
40
0.160508277009393
40
0.160508277009393
40
0.411613602341474
40
0.411613602341474
40
0.662717543308875
40
0.662717543308875
40
0.913819727712954
40
0.913819727712954
40
1
40
1
40
1
40
1
41
1
10
38.8226611123661
20
-3.87247974424122
30
-1E-16
41
1
10
38.8225467518498
20
-3.9663700825358
30
-1E-16
41
1
10
38.8224379055708
20
-4.07232729518455
30
-1E-16
41
1
10
38.8221816281871
20
-4.36531883357978
30
-1E-16
41
1
10
38.8220435894902
20
-4.56889895929169
30
-1E-16
41
1
10
38.8218232109808
20
-4.9922807078527
30
-1E-16
41
1
10
38.8217377688075
20
-5.21792097657112
30
-1E-16
41
1
10
38.821627948562
20
-5.6597287457644
30
-1E-16
41
1
10
38.8216020224441
20
-5.88198912444327
30
-1E-16
41
1
10
38.8216084688321
20
-6.15839390646482
30
-1E-16
41
1
10
38.8216137548694
20
-6.22803746471104
30
-1E-16
41
1
10
38.8216226236613
20
-6.29542483524918
30
-1E-16
0
SPLINE
5
E7
100
AcDbEntity
8
1
62
256
6
ByLayer
370
-1
48
1
60
0
100
AcDbSpline
70
4
71
3
72
13
73
9
40
0
40
0
40
0
40
0
40
0.34855053731604
40
0.34855053731604
40
0.775057275600456
40
0.775057275600456
40
0.775057275600456
40
1
40
1
40
1
40
1
41
1
10
26.975012660987
20
-5.01952463484864
30
-8E-16
41
1
10
27.238721983381
20
-5.05127790454972
30
-8E-16
41
1
10
27.5006743198912
20
-5.11836654436624
30
-8E-16
41
1
10
28.0438917995393
20
-5.34216346137404
30
-7E-16
41
1
10
28.3248150718077
20
-5.52015469155572
30
-7E-16
41
1
10
28.5568192635373
20
-5.73862523823453
30
-7E-16
41
1
10
28.6803669467419
20
-5.85496593746672
30
-7E-16
41
1
10
28.7920134240881
20
-5.98409111775442
30
-7E-16
41
1
10
28.8876653336163
20
-6.12191469091627
30
-7E-16
0
SPLINE
5
E8
100
AcDbEntity
8
1
62
256
6
ByLayer
370
-1
48
1
60
0
100
AcDbSpline
70
4
71
3
72
12
73
8
40
0
40
0
40
0
40
0
40
0.264550507283537
40
0.264550507283537
40
0.770261805662339
40
0.770261805662339
40
1
40
1
40
1
40
1
41
1
10
15.1469838866489
20
-8.16880677373248
30
3E-16
41
1
10
15.1577103802686
20
-8.07051250968124
30
3E-16
41
1
10
15.1783144011262
20
-7.97382600202991
30
3E-16
41
1
10
15.2647465430485
20
-7.70439139487198
30
3E-16
41
1
10
15.3564063206352
20
-7.53882281444834
30
3E-16
41
1
10
15.5260259997929
20
-7.3359393359456
30
3E-16
41
1
10
15.5849190644612
20
-7.27704758922496
30
3E-16
41
1
10
15.6480152972787
20
-7.22442121902847
30
3E-16
0
SPLINE
5
E9
100
AcDbEntity
8
1
62
256
6
ByLayer
370
-1
48
1
60
0
100
AcDbSpline
70
4
71
3
72
14
73
10
40
0
40
0
40
0
40
0
40
0.243032525124675
40
0.243032525124675
40
0.484928615432528
40
0.484928615432528
40
0.748197737042726
40
0.748197737042726
40
1
40
1
40
1
40
1
41
1
10
38.0169848919153
20
-7.88669861097938
30
-1E-16
41
1
10
38.1065544743302
20
-7.90406963242947
30
-1E-16
41
1
10
38.195843578848
20
-7.92247953891803
30
-1E-16
41
1
10
38.3588971304144
20
-7.95807043099956
30
-1E-16
41
1
10
38.4349324822137
20
-7.97572833068918
30
-1E-16
41
1
10
38.5730243562479
20
-8.00993377700024
30
-1E-16
41
1
10
38.6350829050365
20
-8.02669061156902
30
-1E-16
41
1
10
38.7304944746009
20
-8.05536450082215
30
-1E-16
41
1
10
38.7660495030792
20
-8.06776857081607
30
-1E-16
41
1
10
38.7887100613794
20
-8.07789305876852
30
-1E-16
0
SPLINE
5
EA
100
AcDbEntity
8
1
62
256
6
ByLayer
370
-1
48
1
60
0
100
AcDbSpline
70
4
71
3
72
10
73
6
40
0
40
0
40
0
40
0
40
0.5
40
0.5
40
1
40
1
40
1
40
1
41
1
10
15.6480152972792
20
15.9577446500411
30
3E-16
41
1
10
15.2837443836459
20
16.4571874934269
30
3E-16
41
1
10
15.0791321743081
20
16.8579267001563
30
3E-16
41
1
10
14.9344002807883
20
17.2703787125856
30
0
41
1
10
14.9913010678957
20
17.2798276930081
30
0
41
1
10
15.146983886649
20
17.0911798729023
30
-2E-16
0
SPLINE
5
EB
100
AcDbEntity
8
1
62
256
6
ByLayer
370
-1
48
1
60
0
100
AcDbSpline
70
4
71
3
72
8
73
4
40
0
40
0
40
0
40
0
40
1
40
1
40
1
40
1
41
1
10
25.679298609476
20
11.3665253185023
30
-9E-16
41
1
10
25.6574845980235
20
11.366977175646
30
-9E-16
41
1
10
25.6356719974306
20
11.3674774166143
30
-9E-16
41
1
10
25.6138612602141
20
11.3680260521524
30
-9E-16
0
SPLINE
5
EC
100
AcDbEntity
8
1
62
256
6
ByLayer
370
-1
48
1
60
0
100
AcDbSpline
70
4
71
3
72
12
73
8
40
0
40
0
40
0
40
0
40
0.232899575517561
40
0.232899575517561
40
0.956306174645792
40
0.956306174645792
40
1
40
1
40
1
40
1
41
1
10
21.6717068129808
20
12.155465656402
30
2E-16
41
1
10
21.6608178867782
20
12.2267773682259
30
2E-16
41
1
10
21.6513685913337
20
12.2997601462225
30
2E-16
41
1
10
21.6199197023714
20
12.6036630170256
30
2E-16
41
1
10
21.6130543710654
20
12.8502752660264
30
2E-16
41
1
10
21.6312674738908
20
13.1118472792661
30
2E-16
41
1
10
21.6324060017355
20
13.1269344350869
30
2E-16
41
1
10
21.6336343176112
20
13.1420251304397
30
2E-16
0
SPLINE
5
ED
100
AcDbEntity
8
1
62
256
6
ByLayer
370
-1
48
1
60
0
100
AcDbSpline
70
4
71
3
72
8
73
4
40
0
40
0
40
0
40
0
40
1
40
1
40
1
40
1
41
1
10
38.6762147110329
20
-15.6354512575967
30
-1E-16
41
1
10
38.5694175979111
20
-15.5158412467599
30
-1E-16
41
1
10
38.4630545109148
20
-15.3959528577844
30
-1E-16
41
1
10
38.3571648750507
20
-15.2757673389642
30
-1E-16
0
SPLINE
5
EE
100
AcDbEntity
8
1
62
256
6
ByLayer
370
-1
48
1
60
0
100
AcDbSpline
70
4
71
3
72
10
73
6
40
0
40
0
40
0
40
0
40
0.5
40
0.5
40
1
40
1
40
1
40
1
41
1
10
15.6480152972792
20
-15.2621757706988
30
3E-16
41
1
10
16.0600819790814
20
-16.3213576901406
30
3E-16
41
1
10
16.6851588690141
20
-17.1810146471102
30
3E-16
41
1
10
18.4903360866358
20
-18.7175590717847
30
0
41
1
10
19.6496664661921
20
-19.3747397056979
30
1E-16
41
1
10
21.0277406081742
20
-20.0429341960863
30
0
0
SPLINE
5
EF
100
AcDbEntity
8
1
62
256
6
ByLayer
370
-1
48
1
60
0
100
AcDbSpline
70
4
71
3
72
8
73
4
40
0
40
0
40
0
40
0
40
1
40
1
40
1
40
1
41
1
10
25.6138612602118
20
-21.1824178336664
30
0
41
1
10
25.574893083291
20
-21.1824219560153
30
0
41
1
10
25.5356935488708
20
-21.1779848667307
30
0
41
1
10
25.4982629012647
20
-21.1694855343756
30
0
0
SPLINE
5
F0
100
AcDbEntity
8
1
62
256
6
ByLayer
370
-1
48
1
60
0
100
AcDbSpline
70
4
71
3
72
8
73
4
40
0
40
0
40
0
40
0
40
1
40
1
40
1
40
1
41
1
10
22.4746890845717
20
20.0622423820676
30
-2E-16
41
1
10
22.3192973996809
20
20.0222408332989
30
-2E-16
41
1
10
22.1639106993626
20
19.9822194485643
30
-2E-16
41
1
10
22.0085290776885
20
19.9421778866823
30
-2E-16
0
SPLINE
5
F1
100
AcDbEntity
8
1
62
256
6
ByLayer
370
-1
48
1
60
0
100
AcDbSpline
70
4
71
3
72
8
73
4
40
0
40
0
40
0
40
0
40
1
40
1
40
1
40
1
41
1
10
25.6792986094747
20
-21.1824237772322
30
0
41
1
10
25.6574845980225
20
-21.182417503395
30
0
41
1
10
25.6356719974301
20
-21.1824155263493
30
0
41
1
10
25.613861260214
20
-21.1824178336543
30
0
0
SPLINE
5
F2
100
AcDbEntity
8
1
62
256
6
ByLayer
370
-1
48
1
60
0
100
AcDbSpline
70
4
71
3
72
12
73
8
40
0
40
0
40
0
40
0
40
0.0572515511068979
40
0.0572515511068979
40
0.640341822321744
40
0.640341822321744
40
1
40
1
40
1
40
1
41
1
10
38.8226611123661
20
-16.0319375960626
30
-1E-16
41
1
10
38.8226676677338
20
-16.0239109464994
30
-1E-16
41
1
10
38.8225193195489
20
-16.0158778393985
30
-1E-16
41
1
10
38.8191618985742
20
-15.9270743229571
30
-1E-16
41
1
10
38.8001744389446
20
-15.8447300756275
30
-1E-16
41
1
10
38.7418939869301
20
-15.7216977866779
30
-1E-16
41
1
10
38.7125324867209
20
-15.6761262292006
30
-1E-16
41
1
10
38.6762147110329
20
-15.6354512575967
30
-1E-16
0
SPLINE
5
F3
100
AcDbEntity
8
1
62
256
6
ByLayer
370
-1
48
1
60
0
100
AcDbSpline
70
4
71
3
72
8
73
4
40
0
40
0
40
0
40
0
40
1
40
1
40
1
40
1
41
1
10
22.0085290776875
20
11.8539056415351
30
-1.1E-15
41
1
10
21.6549078889782
20
11.9504967889567
30
-1.1E-15
41
1
10
21.3253100030372
20
12.0532673402626
30
-1.1E-15
41
1
10
21.0277406081736
20
12.1553126045062
30
6E-16
0
SPLINE
5
F4
100
AcDbEntity
8
1
62
256
6
ByLayer
370
-1
48
1
60
0
100
AcDbSpline
70
4
71
3
72
8
73
4
40
0
40
0
40
0
40
0
40
1
40
1
40
1
40
1
41
1
10
27.2678402973905
20
11.3952662885952
30
-8E-16
41
1
10
26.7733370687155
20
11.3645844888787
30
-8E-16
41
1
10
26.2772277757822
20
11.3541396024267
30
-8E-16
41
1
10
25.779476102811
20
11.3644502190153
30
-9E-16
0
SPLINE
5
F5
100
AcDbEntity
8
1
62
256
6
ByLayer
370
-1
48
1
60
0
100
AcDbSpline
70
4
71
3
72
14
73
10
40
0
40
0
40
0
40
0
40
0.25
40
0.25
40
0.5
40
0.5
40
0.75
40
0.75
40
1
40
1
40
1
40
1
41
1
10
35.6190310812484
20
1.84698167658351
30
-3E-16
41
1
10
35.7416858199491
20
2.4982415576483
30
-3E-16
41
1
10
35.761262321582
20
3.19059570533472
30
-3E-16
41
1
10
35.3296160675388
20
4.45387066968217
30
-3E-16
41
1
10
34.7795078972077
20
5.00783131175581
30
-3E-16
41
1
10
33.430825036557
20
5.06989987935626
30
-4E-16
41
1
10
32.8053258684394
20
4.63990578810058
30
-4E-16
41
1
10
31.993394970393
20
3.58879930364935
30
-5E-16
41
1
10
31.7501596692397
20
2.94742365109732
30
-5E-16
41
1
10
31.6268772316223
20
2.29019300276971
30
-5E-16
0
SPLINE
5
F6
100
AcDbEntity
8
1
62
256
6
ByLayer
370
-1
48
1
60
0
100
AcDbSpline
70
4
71
3
72
8
73
4
40
0
40
0
40
0
40
0
40
1
40
1
40
1
40
1
41
1
10
22.4746890845716
20
-8.58993298420137
30
-1.1E-15
41
1
10
22.3192973996809
20
-8.55890479589308
30
-1.1E-15
41
1
10
22.1639106993625
20
-8.52786644567627
30
-1.1E-15
41
1
10
22.0085290776884
20
-8.49681775929557
30
-1.1E-15
0
SPLINE
5
F7
100
AcDbEntity
8
1
62
256
6
ByLayer
370
-1
48
1
60
0
100
AcDbSpline
70
4
71
3
72
8
73
4
40
0
40
0
40
0
40
0
40
1
40
1
40
1
40
1
41
1
10
22.0085290776883
20
-8.49681775929579
30
-1.1E-15
41
1
10
21.6709300364267
20
-8.42935800027396
30
-1.1E-15
41
1
10
21.3404720946757
20
-8.34332838174177
30
-1.1E-15
41
1
10
21.027740608174
20
-8.24160097895907
30
-1.2E-15
0
SPLINE
5
F8
100
AcDbEntity
8
1
62
256
6
ByLayer
370
-1
48
1
60
0
100
AcDbSpline
70
4
71
3
72
8
73
4
40
0
40
0
40
0
40
0
40
1
40
1
40
1
40
1
41
1
10
27.2678402973903
20
-21.1883559032843
30
1E-16
41
1
10
26.7733370687154
20
-21.1846144688668
30
1E-16
41
1
10
26.2772277757821
20
-21.1825940796924
30
0
41
1
10
25.7794761028109
20
-21.1824524365873
30
0
0
SPLINE
5
F9
100
AcDbEntity
8
1
62
256
6
ByLayer
370
-1
48
1
60
0
100
AcDbSpline
70
4
71
3
72
8
73
4
40
0
40
0
40
0
40
0
40
1
40
1
40
1
40
1
41
1
10
21.671706812983
20
12.1554656564029
30
2E-16
41
1
10
21.683116323134
20
12.0807446338876
30
2E-16
41
1
10
21.6988652198431
20
12.0076286121386
30
2E-16
41
1
10
21.7193202155088
20
11.936744345802
30
2E-16
0
SPLINE
5
FA
100
AcDbEntity
8
1
62
256
6
ByLayer
370
-1
48
1
60
0
100
AcDbSpline
70
4
71
3
72
10
73
6
40
0
40
0
40
0
40
0
40
0.902042680537407
40
0.902042680537407
40
1
40
1
40
1
40
1
41
1
10
23.3453450876949
20
19.6437671137043
30
-1E-16
41
1
10
23.2463092004861
20
19.6814979572526
30
-1E-16
41
1
10
23.1482007866969
20
19.7309898272812
30
-1E-16
41
1
10
23.0477735003522
20
19.7961300509403
30
-1E-16
41
1
10
23.037921756293
20
19.8026850043257
30
-2E-16
41
1
10
23.0281521920944
20
19.8093512889843
30
-2E-16
0
SPLINE
5
FB
100
AcDbEntity
8
1
62
256
6
ByLayer
370
-1
48
1
60
0
100
AcDbSpline
70
4
71
3
72
8
73
4
40
0
40
0
40
0
40
0
40
1
40
1
40
1
40
1
41
1
10
27.0643914265017
20
-5.81621192701218
30
-8E-16
41
1
10
27.0334121893509
20
-5.80914019431856
30
-8E-16
41
1
10
27.0012098617048
20
-5.80274779412781
30
-8E-16
41
1
10
26.9680888626365
20
-5.79722712815428
30
-8E-16
0
SPLINE
5
FC
100
AcDbEntity
8
1
62
256
6
ByLayer
370
-1
48
1
60
0
100
AcDbSpline
70
4
71
3
72
18
73
14
40
0
40
0
40
0
40
0
40
0.150686988437404
40
0.150686988437404
40
0.339082359177596
40
0.339082359177596
40
0.525719133397418
40
0.525719133397418
40
0.707572422078993
40
0.707572422078993
40
0.883186134557122
40
0.883186134557122
40
1
40
1
40
1
40
1
41
1
10
23.0281521920943
20
-7.19291098098429
30
-1E-15
41
1
10
22.9375858734018
20
-7.21172440818748
30
-1E-15
41
1
10
22.8499665332604
20
-7.24293918408529
30
-1.1E-15
41
1
10
22.6702006806018
20
-7.33716559472921
30
-1.1E-15
41
1
10
22.5799378245321
20
-7.40767291750956
30
-1.1E-15
41
1
10
22.4352402335561
20
-7.57252993607955
30
-1.1E-15
41
1
10
22.3784487843479
20
-7.66901775970382
30
-1.1E-15
41
1
10
22.3073916322051
20
-7.87176013477523
30
-1.1E-15
41
1
10
22.2911065358115
20
-7.980617484655
30
-1.1E-15
41
1
10
22.3002460660439
20
-8.19312851223833
30
-1.1E-15
41
1
10
22.3244427013416
20
-8.29985550833212
30
-1.1E-15
41
1
10
22.3948240577872
20
-8.46585730794817
30
-1.1E-15
41
1
10
22.4313189693122
20
-8.53022471904939
30
-1.1E-15
41
1
10
22.4746890845716
20
-8.58993298420137
30
-1.1E-15
0
SPLINE
5
FD
100
AcDbEntity
8
1
62
256
6
ByLayer
370
-1
48
1
60
0
100
AcDbSpline
70
4
71
3
72
10
73
6
40
0
40
0
40
0
40
0
40
0.5
40
0.5
40
1
40
1
40
1
40
1
41
1
10
15.6480152972792
20
-15.2621757706988
30
3E-16
41
1
10
15.2828419637212
20
-14.3235291645832
30
3E-16
41
1
10
15.0781315116082
20
-13.2959701829377
30
3E-16
41
1
10
14.9343300753297
20
-10.9219321047404
30
2E-16
41
1
10
14.9930787259418
20
-9.57914598071886
30
2E-16
41
1
10
15.1469838866489
20
-8.16880677373248
30
3E-16
0
SPLINE
5
FE
100
AcDbEntity
8
1
62
256
6
ByLayer
370
-1
48
1
60
0
100
AcDbSpline
70
4
71
3
72
10
73
6
40
0
40
0
40
0
40
0
40
0.155766918234174
40
0.155766918234174
40
1
40
1
40
1
40
1
41
1
10
22.3361268383282
20
-7.80793269005071
30
-2E-16
41
1
10
22.3777176891411
20
-7.80123575804004
30
-2E-16
41
1
10
22.4193900337531
20
-7.7935705887204
30
-2E-16
41
1
10
22.686114702421
20
-7.73850457538833
30
-2E-16
41
1
10
22.9161092231968
20
-7.66377395517245
30
-2E-16
41
1
10
23.1334578869859
20
-7.56387282515496
30
-1E-16
0
SPLINE
5
FF
100
AcDbEntity
8
1
62
256
6
ByLayer
370
-1
48
1
60
0
100
AcDbSpline
70
4
71
3
72
16
73
12
40
0
40
0
40
0
40
0
40
0.183047808215664
40
0.183047808215664
40
0.365371146635646
40
0.365371146635646
40
0.560555130238755
40
0.560555130238755
40
0.781989056836169
40
0.781989056836169
40
1
40
1
40
1
40
1
41
1
10
38.0169848919153
20
12.0607363680628
30
-1E-16
41
1
10
38.1002738383386
20
12.0658811234163
30
-1E-16
41
1
10
38.1841641855347
20
12.0696624056677
30
-1E-16
41
1
10
38.3386823192385
20
12.0740430259611
30
-1E-16
41
1
10
38.4114281482189
20
12.0747256169954
30
-1E-16
41
1
10
38.5436542813796
20
12.0732655696642
30
-1E-16
41
1
10
38.6035317878551
20
12.0709154717355
30
-1E-16
41
1
10
38.7074618745534
20
12.0631936657754
30
-1E-16
41
1
10
38.7497086342864
20
12.0573720955388
30
-1E-16
41
1
10
38.8047665241134
20
12.0434463087809
30
-1E-16
41
1
10
38.818705535445
20
12.035242912662
30
-1E-16
41
1
10
38.8187834771253
20
12.0262266464737
30
-1E-16
0
SPLINE
5
100
100
AcDbEntity
8
1
62
256
6
ByLayer
370
-1
48
1
60
0
100
AcDbSpline
70
4
71
3
72
8
73
4
40
0
40
0
40
0
40
0
40
1
40
1
40
1
40
1
41
1
10
27.4798163289166
20
11.5053971551233
30
1E-16
41
1
10
27.915014811096
20
11.5376242406083
30
1E-16
41
1
10
28.3501845887019
20
11.5687615345887
30
2E-16
41
1
10
28.7853591640056
20
11.6001217966201
30
2E-16
0
SPLINE
5
101
100
AcDbEntity
8
1
62
256
6
ByLayer
370
-1
48
1
60
0
100
AcDbSpline
70
4
71
3
72
16
73
12
40
0
40
0
40
0
40
0
40
0.0561124671589748
40
0.0561124671589748
40
0.348893786757484
40
0.348893786757484
40
0.634701742972079
40
0.634701742972079
40
0.839222396818462
40
0.839222396818462
40
1
40
1
40
1
40
1
41
1
10
0.499999999999972
20
4.62250000000006
30
1.1E-15
41
1
10
0.486388284273119
20
4.63611171572688
30
1.1E-15
41
1
10
0.472851851414219
20
4.64964814858578
30
1.1E-15
41
1
10
0.389760658828521
20
4.73273934117151
30
1.1E-15
41
1
10
0.322095366994518
20
4.80040463300551
30
1.1E-15
41
1
10
0.200923267525823
20
4.92157673247419
30
1.1E-15
41
1
10
0.145506688763348
20
4.97699331123667
30
1.1E-15
41
1
10
0.0685021390688973
20
5.0539978609311
30
-7E-16
41
1
10
0.0410605845537475
20
5.08143941544628
30
-7E-16
41
1
10
0.008701121693548
20
5.11379887830645
30
-7E-16
41
1
10
-7.7789524369E-06
20
5.12250777895247
30
-7E-16
41
1
10
3.359093057E-06
20
5.12249664090697
30
-7E-16
0
SPLINE
5
102
100
AcDbEntity
8
1
62
256
6
ByLayer
370
-1
48
1
60
0
100
AcDbSpline
70
4
71
3
72
8
73
4
40
0
40
0
40
0
40
0
40
1
40
1
40
1
40
1
41
1
10
25.4982629012668
20
-4.8553810559213
30
-9E-16
41
1
10
25.4561716294295
20
-4.85737570871774
30
-9E-16
41
1
10
25.4141085664486
20
-4.85965579433443
30
-9E-16
41
1
10
25.3720822281885
20
-4.86224133847617
30
-9E-16
0
SPLINE
5
103
100
AcDbEntity
8
1
62
256
6
ByLayer
370
-1
48
1
60
0
100
AcDbSpline
70
4
71
3
72
14
73
10
40
0
40
0
40
0
40
0
40
0.207879787449803
40
0.207879787449803
40
0.428971232059497
40
0.428971232059497
40
0.711141482669286
40
0.711141482669286
40
1
40
1
40
1
40
1
41
1
10
28.8876653336158
20
-6.12191469091675
30
-7E-16
41
1
10
28.8084690458986
20
-6.1143837466461
30
-7E-16
41
1
10
28.7099517191998
20
-6.10247840222127
30
-7E-16
41
1
10
28.4811381530749
20
-6.07057642753747
30
-7E-16
41
1
10
28.3462218335316
20
-6.04967670687486
30
-7E-16
41
1
10
28.0271688479947
20
-5.99647317246973
30
-7E-16
41
1
10
27.835305106478
20
-5.96187887939658
30
-7E-16
41
1
10
27.4527160973631
20
-5.88982258698368
30
-8E-16
41
1
10
27.2588954094784
20
-5.8518113494909
30
-8E-16
41
1
10
27.0663185126015
20
-5.81391607463607
30
-8E-16
0
SPLINE
5
104
100
AcDbEntity
8
1
62
256
6
ByLayer
370
-1
48
1
60
0
100
AcDbSpline
70
4
71
3
72
8
73
4
40
0
40
0
40
0
40
0
40
1
40
1
40
1
40
1
41
1
10
22.0085290776883
20
19.9421778866828
30
-2E-16
41
1
10
21.6709300364268
20
19.8551792265046
30
-2E-16
41
1
10
21.3404720946757
20
19.7321695294697
30
-3E-16
41
1
10
21.0277406081741
20
19.5773093082905
30
-3E-16
0
SPLINE
5
105
100
AcDbEntity
8
1
62
256
6
ByLayer
370
-1
48
1
60
0
100
AcDbSpline
70
4
71
3
72
8
73
4
40
0
40
0
40
0
40
0
40
1
40
1
40
1
40
1
41
1
10
38.8187834771252
20
-20.4697818037359
30
0
41
1
10
38.8201429093425
20
-18.9905027187193
30
0
41
1
10
38.8214529803043
20
-17.5112219202536
30
-1E-16
41
1
10
38.8226611123661
20
-16.0319375960626
30
-1E-16
0
SPLINE
5
106
100
AcDbEntity
8
1
62
256
6
ByLayer
370
-1
48
1
60
0
100
AcDbSpline
70
4
71
3
72
8
73
4
40
0
40
0
40
0
40
0
40
1
40
1
40
1
40
1
41
1
10
25.498262901267
20
11.3701204072288
30
-9E-16
41
1
10
24.2798757294455
20
11.3833414155427
30
-1E-15
41
1
10
23.1150280578627
20
11.551666947904
30
-1E-15
41
1
10
22.0085290776884
20
11.8539056415353
30
-1.1E-15
0
SPLINE
5
107
100
AcDbEntity
8
1
62
256
6
ByLayer
370
-1
48
1
60
0
100
AcDbSpline
70
4
71
3
72
8
73
4
40
0
40
0
40
0
40
0
40
1
40
1
40
1
40
1
41
1
10
38.8187834771253
20
12.0262266464737
30
-1E-16
41
1
10
38.8201429093425
20
11.8689680051877
30
-1E-16
41
1
10
38.8214529803043
20
11.7117061587225
30
-1E-16
41
1
10
38.8226611123661
20
11.5544376944126
30
-1E-16
0
SPLINE
5
108
100
AcDbEntity
8
1
62
256
6
ByLayer
370
-1
48
1
60
0
100
AcDbSpline
70
4
71
3
72
8
73
4
40
0
40
0
40
0
40
0
40
1
40
1
40
1
40
1
41
1
10
25.4982629012669
20
-21.1694855343636
30
0
41
1
10
24.2798757294454
20
-20.8928278174159
30
-1E-16
41
1
10
23.1150280578627
20
-20.6416605004277
30
0
41
1
10
22.0085290776884
20
-20.3870929883045
30
0
0
SPLINE
5
109
100
AcDbEntity
8
1
62
256
6
ByLayer
370
-1
48
1
60
0
100
AcDbSpline
70
4
71
3
72
8
73
4
40
0
40
0
40
0
40
0
40
1
40
1
40
1
40
1
41
1
10
25.6138612602119
20
11.3680260521532
30
-9E-16
41
1
10
25.574893083291
20
11.3690062724226
30
-9E-16
41
1
10
25.5356935488708
20
11.3697142383905
30
-9E-16
41
1
10
25.4982629012648
20
11.3701204072296
30
-9E-16
0
SPLINE
5
10A
100
AcDbEntity
8
1
62
256
6
ByLayer
370
-1
48
1
60
0
100
AcDbSpline
70
4
71
3
72
8
73
4
40
0
40
0
40
0
40
0
40
1
40
1
40
1
40
1
41
1
10
24.2712430705203
20
-6.8980496146597
30
-1E-15
41
1
10
24.2416137531327
20
-6.9636701210292
30
-1E-15
41
1
10
24.21135284862
20
-7.03133967567558
30
-1E-15
41
1
10
24.1806370132285
20
-7.10075924993237
30
-1E-15
0
SPLINE
5
10B
100
AcDbEntity
8
1
62
256
6
ByLayer
370
-1
48
1
60
0
100
AcDbSpline
70
4
71
3
72
17
73
13
40
0
40
0
40
0
40
0
40
0.193418349091193
40
0.193418349091193
40
0.4260890687519
40
0.4260890687519
40
0.4260890687519
40
0.697360574467628
40
0.697360574467628
40
0.891597765020576
40
0.891597765020576
40
1
40
1
40
1
40
1
41
1
10
25.3720822281874
20
-4.86224133847199
30
-9E-16
41
1
10
25.1318402553729
20
-4.87702150374756
30
-9E-16
41
1
10
24.8938530331464
20
-4.92802417418957
30
-9E-16
41
1
10
24.4013419314252
20
-5.10408187711343
30
-1E-15
41
1
10
24.1469290970287
20
-5.24316731161008
30
-1E-15
41
1
10
23.9222121854439
20
-5.41339935849658
30
-1E-15
41
1
10
23.6619409835857
20
-5.61056520207046
30
-1E-15
41
1
10
23.433635782242
20
-5.8582877360821
30
-1E-15
41
1
10
23.1619320220961
20
-6.34310606496976
30
-1E-15
41
1
10
23.082297639122
20
-6.5688881475069
30
-1E-15
41
1
10
23.0273040026015
20
-6.92905740442183
30
-1E-15
41
1
10
23.0209141895213
20
-7.06131379867216
30
-1E-15
41
1
10
23.0281521920944
20
-7.19291098098444
30
-1E-15
0
SPLINE
5
10C
100
AcDbEntity
8
1
62
256
6
ByLayer
370
-1
48
1
60
0
100
AcDbSpline
70
4
71
3
72
8
73
4
40
0
40
0
40
0
40
0
40
1
40
1
40
1
40
1
41
1
10
27.3799323272324
20
11.4979848543098
30
1E-16
41
1
10
27.4132271234027
20
11.5004608966419
30
1E-16
41
1
10
27.4465217923346
20
11.502931645889
30
1E-16
41
1
10
27.4798163289166
20
11.5053971551234
30
1E-16
0
SPLINE
5
10D
100
AcDbEntity
8
1
62
256
6
ByLayer
370
-1
48
1
60
0
100
AcDbSpline
70
4
71
3
72
10
73
6
40
0
40
0
40
0
40
0
40
0.902042680537483
40
0.902042680537483
40
1
40
1
40
1
40
1
41
1
10
23.3453450876948
20
-7.11476902393935
30
-1E-15
41
1
10
23.2463092004861
20
-7.12112265676333
30
-1E-15
41
1
10
23.1482007866968
20
-7.14413579054346
30
-1E-15
41
1
10
23.0477735003521
20
-7.184460554547
30
-1E-15
41
1
10
23.037921756293
20
-7.18860799893343
30
-1E-15
41
1
10
23.0281521920944
20
-7.19291098098441
30
-1E-15
0
SPLINE
5
10E
100
AcDbEntity
8
1
62
256
6
ByLayer
370
-1
48
1
60
0
100
AcDbSpline
70
4
71
3
72
12
73
8
40
0
40
0
40
0
40
0
40
0.264550507280021
40
0.264550507280021
40
0.770261805652122
40
0.770261805652122
40
1
40
1
40
1
40
1
41
1
10
15.1469838866489
20
17.0911798729022
30
-2E-16
41
1
10
15.1577103802686
20
17.0781821018255
30
-2E-16
41
1
10
15.1783144011262
20
17.0675646071114
30
-2E-16
41
1
10
15.2647465430485
20
17.0455493665926
30
-2E-16
41
1
10
15.3564063206352
20
17.0419466244717
30
-2E-16
41
1
10
15.526025999796
20
17.061755012503
30
-2E-16
41
1
10
15.584919064468
20
17.0716500547431
30
-2E-16
41
1
10
15.6480152972896
20
17.0858123479478
30
-2E-16
0
SPLINE
5
10F
100
AcDbEntity
8
1
62
256
6
ByLayer
370
-1
48
1
60
0
100
AcDbSpline
70
4
71
3
72
8
73
4
40
0
40
0
40
0
40
0
40
1
40
1
40
1
40
1
41
1
10
17.1768107667159
20
-6.98455216793147
30
-1.4E-15
41
1
10
18.4592402897164
20
-7.40478927508912
30
-1.3E-15
41
1
10
19.743001494691
20
-7.82369239313007
30
-1.2E-15
41
1
10
21.0277406081742
20
-8.24160097895879
30
-1.2E-15
0
SPLINE
5
110
100
AcDbEntity
8
1
62
256
6
ByLayer
370
-1
48
1
60
0
100
AcDbSpline
70
4
71
3
72
8
73
4
40
0
40
0
40
0
40
0
40
1
40
1
40
1
40
1
41
1
10
24.1806370132294
20
-7.10075924992455
30
-1E-15
41
1
10
23.895380523952
20
-7.09468916351096
30
-1E-15
41
1
10
23.608547985548
20
-7.09788328061174
30
-1E-15
41
1
10
23.3453450876948
20
-7.11476902393935
30
-1E-15
0
SPLINE
5
111
100
AcDbEntity
8
1
62
256
6
ByLayer
370
-1
48
1
60
0
100
AcDbSpline
70
4
71
3
72
12
73
8
40
0
40
0
40
0
40
0
40
0.342143298689266
40
0.342143298689266
40
0.769905604322024
40
0.769905604322024
40
1
40
1
40
1
40
1
41
1
10
23.0281521920943
20
19.8093512889843
30
-2E-16
41
1
10
22.9375858734018
20
19.7963681993193
30
-2E-16
41
1
10
22.8499665332604
20
19.7876540870982
30
-2E-16
41
1
10
22.6702006806019
20
19.7782974607061
30
-2E-16
41
1
10
22.5799378245322
20
19.7801372965047
30
-2E-16
41
1
10
22.4681466789691
20
19.793000434907
30
-2E-16
41
1
10
22.4335363315467
20
19.7994533277395
30
-2E-16
41
1
10
22.4043053869003
20
19.8076190595605
30
-2E-16
0
SPLINE
5
112
100
AcDbEntity
8
1
62
256
6
ByLayer
370
-1
48
1
60
0
100
AcDbSpline
70
4
71
3
72
12
73
8
40
0
40
0
40
0
40
0
40
0.319891230475073
40
0.319891230475073
40
0.683272732870815
40
0.683272732870815
40
1
40
1
40
1
40
1
41
1
10
17.1768107667159
20
17.6620688776097
30
4E-16
41
1
10
17.000958028542
20
17.5741896930492
30
4E-16
41
1
10
16.8194449744531
20
17.4908232868719
30
4E-16
41
1
10
16.4446748012999
20
17.3337718674434
30
3E-16
41
1
10
16.2480602297884
20
17.2608490752522
30
3E-16
41
1
10
15.9154503791534
20
17.1531628194392
30
-1E-16
41
1
10
15.7714065596617
20
17.1135081890219
30
-2E-16
41
1
10
15.6480152972901
20
17.0858123479482
30
-2E-16
0
SPLINE
5
113
100
AcDbEntity
8
1
62
256
6
ByLayer
370
-1
48
1
60
0
100
AcDbSpline
70
4
71
3
72
16
73
12
40
0
40
0
40
0
40
0
40
0.0105567045026258
40
0.0105567045026258
40
0.151467730290853
40
0.151467730290853
40
0.331459930995227
40
0.331459930995227
40
0.666938151174186
40
0.666938151174186
40
1
40
1
40
1
40
1
41
1
10
-3.5358875152E-06
20
-5.12250353588749
30
-7E-16
41
1
10
3.5358874015E-06
20
-5.12249646411257
30
-7E-16
41
1
10
3.79492189353E-05
20
-5.12246205078105
30
-7E-16
41
1
10
0.0011036336218808
20
-5.12139636637812
30
-7E-16
41
1
10
0.0086836109218495
20
-5.11381638907815
30
-7E-16
41
1
10
0.0360003047473469
20
-5.08649969525266
30
-7E-16
41
1
10
0.0587841112219252
20
-5.06371588877806
30
-7E-16
41
1
10
0.135241334518668
20
-4.98725866548131
30
1.1E-15
41
1
10
0.200462226633931
20
-4.92203777336604
30
1.1E-15
41
1
10
0.341461616562157
20
-4.78103838343785
30
1.1E-15
41
1
10
0.419857038348752
20
-4.70264296165124
30
1.1E-15
41
1
10
0.499999999999943
20
-4.62250000000006
30
1.1E-15
0
SPLINE
5
114
100
AcDbEntity
8
1
62
256
6
ByLayer
370
-1
48
1
60
0
100
AcDbSpline
70
4
71
3
72
14
73
10
40
0
40
0
40
0
40
0
40
0.182320305487054
40
0.182320305487054
40
0.545253712968196
40
0.545253712968196
40
0.910190446051078
40
0.910190446051078
40
1
40
1
40
1
40
1
41
1
10
17.1768107667159
20
-6.98455216793147
30
-1.4E-15
41
1
10
17.0762888910425
20
-6.95161232875793
30
-1.4E-15
41
1
10
16.9741987107406
20
-6.92709394166377
30
-1.4E-15
41
1
10
16.6713653007703
20
-6.88059025400892
30
-1.4E-15
41
1
10
16.4682186029418
20
-6.88493719965973
30
-1.4E-15
41
1
10
16.0910863027004
20
-6.96269750976498
30
-1.5E-15
41
1
10
15.9120974015094
20
-7.03751670794259
30
-1.5E-15
41
1
10
15.7202479641394
20
-7.16720899322561
30
3E-16
41
1
10
15.6833371650908
20
-7.19496047932267
30
3E-16
41
1
10
15.6480152972791
20
-7.22442121902901
30
3E-16
0
SPLINE
5
115
100
AcDbEntity
8
1
62
256
6
ByLayer
370
-1
48
1
60
0
100
AcDbSpline
70
4
71
3
72
8
73
4
40
0
40
0
40
0
40
0
40
1
40
1
40
1
40
1
41
1
10
17.1768107667159
20
17.6620688776097
30
4E-16
41
1
10
18.4592402897165
20
18.3029395396639
30
-4E-16
41
1
10
19.7430014946911
20
18.9411246199584
30
-4E-16
41
1
10
21.0277406081743
20
19.57730930829
30
-3E-16
0
SPLINE
5
116
100
AcDbEntity
8
1
62
256
6
ByLayer
370
-1
48
1
60
0
100
AcDbSpline
70
4
71
3
72
15
73
11
40
0
40
0
40
0
40
0
40
0.125
40
0.25
40
0.375
40
0.5
40
0.625
40
0.75
40
0.875
40
1
40
1
40
1
40
1
41
1
10
23.4190081711441
20
12.1585816769203
30
-1E-16
41
1
10
24.0593789876151
20
12.1607575944856
30
-1E-16
41
1
10
25.3572333882509
20
12.1545973669744
30
0
41
1
10
27.3146154029071
20
12.1338274099169
30
-1E-16
41
1
10
29.2696188408426
20
12.1387156672436
30
0
41
1
10
31.2249189545903
20
12.1596430592566
30
-1E-16
41
1
10
33.1792880622407
20
12.1983632807622
30
0
41
1
10
35.1338849637472
20
12.2560953883248
30
-1E-16
41
1
10
37.0667571564882
20
12.319209830414
30
0
41
1
10
38.3554040546395
20
12.3651897082563
30
-1E-16
41
1
10
38.9998102651388
20
12.3892572059183
30
0
0
SPLINE
5
117
100
AcDbEntity
8
1
62
256
6
ByLayer
370
-1
48
1
60
0
100
AcDbSpline
70
4
71
3
72
34
73
30
40
0
40
0
40
0
40
0
40
0.0625
40
0.09375
40
0.109375
40
0.1171875
40
0.125
40
0.15625
40
0.171875
40
0.1875
40
0.21875
40
0.25
40
0.28125
40
0.3125
40
0.34375
40
0.375
40
0.4375
40
0.5
40
0.5625
40
0.625
40
0.65625
40
0.6875
40
0.75
40
0.8125
40
0.859375
40
0.875
40
0.90625
40
0.9375
40
1
40
1
40
1
40
1
41
1
10
24.1587658413898
20
21.4052642908626
30
-1E-16
41
1
10
23.9440269973672
20
21.3962950476101
30
-1E-16
41
1
10
23.6145454723644
20
21.1993103457757
30
-1E-16
41
1
10
23.542015312865
20
20.8385525438092
30
-1E-16
41
1
10
23.5056472355894
20
20.6628326199411
30
-1E-16
41
1
10
23.4853546067121
20
20.5631258558114
30
-1E-16
41
1
10
23.4556640716769
20
20.4139570728644
30
-1E-16
41
1
10
23.4239642012081
20
20.240154633968
30
-1E-16
41
1
10
23.391495974282
20
20.0416584969802
30
-1E-16
41
1
10
23.3614443611612
20
19.8431934410006
30
-1E-16
41
1
10
23.3282419009466
20
19.5950596476178
30
-1E-16
41
1
10
23.2948371355517
20
19.29686073715
30
-1E-16
41
1
10
23.267329453984
20
18.9978690673187
30
-1E-16
41
1
10
23.244742771924
20
18.6976096356124
30
-1E-16
41
1
10
23.2261010050521
20
18.3956074395198
30
-1E-16
41
1
10
23.2052037570477
20
17.9899808221994
30
-1E-16
41
1
10
23.1840640634146
20
17.4762156270264
30
-1E-16
41
1
10
23.1686525219656
20
16.8421154242557
30
-1E-16
41
1
10
23.1651821761418
20
16.1836223619948
30
-1E-16
41
1
10
23.0876941931186
20
15.6428346107125
30
-1E-16
41
1
10
22.9082799095165
20
15.2386929508275
30
-2E-16
41
1
10
22.6536628820777
20
14.8745401701933
30
-2E-16
41
1
10
22.6160312852681
20
14.3141256973771
30
-2E-16
41
1
10
22.6226662643536
20
13.7159571444809
30
-2E-16
41
1
10
22.6216993328882
20
13.2792847561764
30
-2E-16
41
1
10
22.6213229104966
20
12.9516330391563
30
-2E-16
41
1
10
22.6620814898667
20
12.6743957881378
30
-2E-16
41
1
10
22.8742866695163
20
12.2959137906325
30
-2E-16
41
1
10
23.2041174083101
20
12.1746521783424
30
-1E-16
41
1
10
23.4190081709983
20
12.1585816769312
30
-1E-16
0
SPLINE
5
118
100
AcDbEntity
8
1
62
256
6
ByLayer
370
-1
48
1
60
0
100
AcDbSpline
70
4
71
3
72
44
73
40
40
-0.0482795240669522
40
-0.0482795240669522
40
0
40
0
40
0.0535858709848932
40
0.0535858709848932
40
0.107129547859876
40
0.107129547859876
40
0.161232036435214
40
0.161232036435214
40
0.215379076835184
40
0.215379076835184
40
0.267897031906463
40
0.267897031906463
40
0.317096834048404
40
0.317096834048404
40
0.370103171332341
40
0.370103171332341
40
0.424982119566783
40
0.424982119566783
40
0.476828059361377
40
0.476828059361377
40
0.528625424454025
40
0.528625424454025
40
0.580992529960377
40
0.580992529960377
40
0.6348945673346
40
0.6348945673346
40
0.689197544843965
40
0.689197544843965
40
0.742947245372962
40
0.742947245372962
40
0.792793188052499
40
0.792793188052499
40
0.843479228223404
40
0.843479228223404
40
0.898261296226699
40
0.898261296226699
40
0.951720475933048
40
0.951720475933048
40
1
40
1
40
1.05358587098489
40
1.05358587098489
41
1
10
31.6776623225145
20
14.3589177480944
30
-1E-16
41
1
10
31.1200001600992
20
14.3537077765113
30
-1E-16
41
1
10
30.8219813844849
20
14.4023845899372
30
1E-16
41
1
10
30.2662007109348
20
14.5927573278514
30
1E-16
41
1
10
30.0007514927252
20
14.7369766310166
30
1E-16
41
1
10
29.5349688698512
20
15.1013600284258
30
0
41
1
10
29.3286413430035
20
15.3272723891596
30
0
41
1
10
29.0082339426696
20
15.8281525823287
30
0
41
1
10
28.8891626481016
20
16.1104904756531
30
0
41
1
10
28.7611179598425
20
16.6805801673752
30
0
41
1
10
28.7477772616048
20
16.9759854266092
30
0
41
1
10
28.8203640608545
20
17.5236495239327
30
0
41
1
10
28.9002717827678
20
17.7844540052048
30
0
41
1
10
29.1410253781311
20
18.2843813474241
30
-2E-16
41
1
10
29.3109433574264
20
18.5277004216713
30
-2E-16
41
1
10
29.7211966983524
20
18.9536300384741
30
-2E-16
41
1
10
29.9696747887198
20
19.1409308998555
30
-2E-16
41
1
10
30.4882360641287
20
19.4130818842372
30
-1E-16
41
1
10
30.7637927716855
20
19.5063961233024
30
-1E-16
41
1
10
31.3160405185017
20
19.5991861405764
30
-1E-16
41
1
10
31.5999132930819
20
19.600144735927
30
-1E-16
41
1
10
32.1424650653908
20
19.51112586946
30
0
41
1
10
32.408660183242
20
19.4188764338801
30
0
41
1
10
32.8948991034435
20
19.1500572048542
30
0
41
1
10
33.119051815916
20
18.9679377926861
30
0
41
1
10
33.4894171223002
20
18.539595201791
30
0
41
1
10
33.6415551629285
20
18.2858619749788
30
1E-16
41
1
10
33.8499666433783
20
17.7462924698622
30
0
41
1
10
33.9114749453055
20
17.4514263604303
30
0
41
1
10
33.9405899205993
20
16.8828621158585
30
0
41
1
10
33.9151093134827
20
16.6022799957268
30
0
41
1
10
33.78675741486
20
16.0671237732184
30
0
41
1
10
33.6808979064451
20
15.8057778365568
30
1E-16
41
1
10
33.3866966424428
20
15.3175695719152
30
0
41
1
10
33.1886318914246
20
15.088109964937
30
0
41
1
10
32.7325872093142
20
14.7224286560139
30
0
41
1
10
32.4702863638838
20
14.5793357446406
30
0
41
1
10
31.9446917249627
20
14.4033336053519
30
0
41
1
10
31.6776623225145
20
14.3589177480944
30
-1E-16
41
1
10
31.1200001600992
20
14.3537077765113
30
-1E-16
0
SPLINE
5
119
100
AcDbEntity
8
1
62
256
6
ByLayer
370
-1
48
1
60
0
100
AcDbSpline
70
4
71
3
72
15
73
11
40
0
40
0
40
0
40
0
40
0.125
40
0.25
40
0.375
40
0.5
40
0.625
40
0.75
40
0.875
40
1
40
1
40
1
40
1
41
1
10
39.2001900665413
20
21.8801873250179
30
0
41
1
10
38.5570698769628
20
21.8792574619357
30
0
41
1
10
37.2899027624831
20
21.8714100663076
30
-1E-16
41
1
10
35.4425671915764
20
21.8425562362412
30
-1E-16
41
1
10
33.5842705064564
20
21.7955553682755
30
1E-16
41
1
10
31.7216947355042
20
21.7310196116226
30
-1E-16
41
1
10
29.8615219071003
20
21.6495611154942
30
-2E-16
41
1
10
27.9939598894011
20
21.5526514622071
30
2E-16
41
1
10
26.0740618358418
20
21.4836359053267
30
0
41
1
10
24.79720078303
20
21.4321240534667
30
0
41
1
10
24.1587658412942
20
21.4052642908586
30
-1E-16
0
SPLINE
5
11A
100
AcDbEntity
8
1
62
256
6
ByLayer
370
-1
48
1
60
0
100
AcDbSpline
70
4
71
3
72
34
73
30
40
0
40
0
40
0
40
0
40
0.0625
40
0.09375
40
0.125
40
0.140625
40
0.1875
40
0.25
40
0.3125
40
0.34375
40
0.375
40
0.4375
40
0.5
40
0.5625
40
0.625
40
0.65625
40
0.6875
40
0.71875
40
0.75
40
0.78125
40
0.8125
40
0.828125
40
0.84375
40
0.875
40
0.8828125
40
0.890625
40
0.90625
40
0.9375
40
1
40
1
40
1
40
1
41
1
10
38.9998102652835
20
12.3892572059237
30
0
41
1
10
39.2130217545429
20
12.397238079302
30
0
41
1
10
39.5195894903589
20
12.5960516238883
30
0
41
1
10
39.5595999617287
20
13.0226271141839
30
0
41
1
10
39.5796609954217
20
13.2815234340645
30
0
41
1
10
39.597024919564
20
13.5922793381187
30
0
41
1
10
39.6087860881893
20
14.0068659337117
30
0
41
1
10
39.6014070080883
20
14.5780717427835
30
0
41
1
10
39.5755868736456
20
15.09932374571
30
0
41
1
10
39.5495833892786
20
15.5182254075897
30
0
41
1
10
39.522130986746
20
15.9386326752923
30
0
41
1
10
39.4883758870508
20
16.4674029773376
30
0
41
1
10
39.463920565409
20
17.1086258293457
30
0
41
1
10
39.457102321151
20
17.7577935140392
30
0
41
1
10
39.5064170803397
20
18.2955914257736
30
0
41
1
10
39.6594850241141
20
18.703299667584
30
0
41
1
10
39.8402317539977
20
18.9742875522714
30
0
41
1
10
39.9675137655669
20
19.2692136583526
30
0
41
1
10
40.0012668736519
20
19.617711769788
30
0
41
1
10
39.9935062528433
20
19.8096625951743
30
0
41
1
10
39.9945365700516
20
19.8548107814191
30
0
41
1
10
39.9944768985139
20
19.989843423224
30
0
41
1
10
39.9944636508316
20
20.2296676516165
30
0
41
1
10
39.993553532333
20
20.6662065683024
30
0
41
1
10
39.9949184821498
20
21.195620870617
30
0
41
1
10
39.9811066400083
20
21.2120854985369
30
0
41
1
10
39.9326457949282
20
21.4419457471836
30
0
41
1
10
39.7301871568161
20
21.7376495053622
30
0
41
1
10
39.4118607471783
20
21.8642955849502
30
0
41
1
10
39.2001900664471
20
21.8801873250249
30
0
0
SPLINE
5
11B
100
AcDbEntity
8
1
62
256
6
ByLayer
370
-1
48
1
60
0
100
AcDbSpline
70
4
71
3
72
14
73
10
40
0
40
0
40
0
40
0
40
0.28396145785659
40
0.28396145785659
40
0.570284934646616
40
0.570284934646616
40
0.829450869060465
40
0.829450869060465
40
1
40
1
40
1
40
1
41
1
10
32.931426765919
20
16.6764013738989
30
0
41
1
10
32.9601658926853
20
16.687017997018
30
0
41
1
10
32.9885343052351
20
16.7035296053824
30
0
41
1
10
33.0394994933868
20
16.7470683327838
30
0
41
1
10
33.0628016488108
20
16.7749055500202
30
0
41
1
10
33.0973045502485
20
16.8351663932291
30
0
41
1
10
33.1099173796701
20
16.8678456285016
30
0
41
1
10
33.1217360854614
20
16.9236138865234
30
0
41
1
10
33.1241687141227
20
16.9465925377938
30
0
41
1
10
33.1241687141227
20
16.9692454769167
30
0
0
SPLINE
5
11C
100
AcDbEntity
8
1
62
256
6
ByLayer
370
-1
48
1
60
0
100
AcDbSpline
70
4
71
3
72
14
73
10
40
0
40
0
40
0
40
0
40
0.282169922576107
40
0.282169922576107
40
0.566902245317966
40
0.566902245317966
40
0.824523972080264
40
0.824523972080264
40
1
40
1
40
1
40
1
41
1
10
31.0142177589085
20
18.3262117218935
30
-1E-16
41
1
10
30.9878598471371
20
18.3510915344748
30
-1E-16
41
1
10
30.9567616031891
20
18.3724148175439
30
-1E-16
41
1
10
30.8890515272787
20
18.4034915691576
30
-1E-16
41
1
10
30.8513172321362
20
18.4135624038192
30
-1E-16
41
1
10
30.7790881427148
20
18.4187052965932
30
-1E-16
41
1
10
30.7435329769047
20
18.415129532826
30
-1E-16
41
1
10
30.687793790383
20
18.3987423876357
30
-1E-16
41
1
10
30.6658492079942
20
18.3891296033479
30
-1E-16
41
1
10
30.6457703154603
20
18.3770132207494
30
-1E-16
0
SPLINE
5
11D
100
AcDbEntity
8
1
62
256
6
ByLayer
370
-1
48
1
60
0
100
AcDbSpline
70
4
71
3
72
14
73
10
40
0
40
0
40
0
40
0
40
0.283961749036709
40
0.283961749036709
40
0.570285189259023
40
0.570285189259023
40
0.829451094335681
40
0.829451094335681
40
1
40
1
40
1
40
1
41
1
10
30.5320290360167
20
15.8038585075457
30
-1E-16
41
1
10
30.5203900113193
20
15.7728610342476
30
-1E-16
41
1
10
30.5142564252386
20
15.7393313368428
30
-1E-16
41
1
10
30.5153254966093
20
15.6723249021622
30
-1E-16
41
1
10
30.522718956221
20
15.6378190330688
30
-1E-16
41
1
10
30.5500110810899
20
15.5774109642676
30
-1E-16
41
1
10
30.5691250817024
20
15.5501175143288
30
-1E-16
41
1
10
30.608507325627
20
15.5122286016553
30
-1E-16
41
1
10
30.6264328841777
20
15.4987986469985
30
-1E-16
41
1
10
30.6457703154603
20
15.4877052922464
30
-1E-16
0
SPLINE
5
11E
100
AcDbEntity
8
1
62
256
6
ByLayer
370
-1
48
1
60
0
100
AcDbSpline
70
4
71
3
72
14
73
10
40
0
40
0
40
0
40
0
40
0.283961457856585
40
0.283961457856585
40
0.57028493464662
40
0.57028493464662
40
0.829450869060461
40
0.829450869060461
40
1
40
1
40
1
40
1
41
1
10
30.0565586644183
20
17.1953866570358
30
-2E-16
41
1
10
30.0216168734583
20
17.1875787429943
30
-2E-16
41
1
10
29.9873426619174
20
17.1737414163126
30
-2E-16
41
1
10
29.9260242491541
20
17.1348908672554
30
-2E-16
41
1
10
29.8981302054897
20
17.109132962679
30
-2E-16
41
1
10
29.8569217699364
20
17.05190853962
30
-2E-16
41
1
10
29.8419055783023
20
17.0203176020616
30
-2E-16
41
1
10
29.827840716765
20
16.9655664550482
30
-2E-16
41
1
10
29.8249486778701
20
16.9427958353032
30
-2E-16
41
1
10
29.8249486778701
20
16.9201428961803
30
-2E-16
0
SPLINE
5
11F
100
AcDbEntity
8
1
62
256
6
ByLayer
370
-1
48
1
60
0
100
AcDbSpline
70
4
71
3
72
18
73
14
40
0
40
0
40
0
40
0
40
0.212491695755303
40
0.212491695755303
40
0.386618276853808
40
0.386618276853808
40
0.562426360907934
40
0.562426360907934
40
0.715388416645938
40
0.715388416645938
40
0.918249208689864
40
0.918249208689864
40
1
40
1
40
1
40
1
41
1
10
30.5320290360167
20
15.8038585075457
30
-1E-16
41
1
10
30.5566681503287
20
15.8694782916624
30
-1E-16
41
1
10
30.570922332853
20
15.9403053328422
30
-1E-16
41
1
10
30.5722304399106
20
16.0717945012531
30
-1E-16
41
1
10
30.5635518980661
20
16.1334710709489
30
-1E-16
41
1
10
30.5254014776333
20
16.2532369114365
30
-1E-16
41
1
10
30.4949333824759
20
16.3130205492408
30
-1E-16
41
1
10
30.4220628298263
20
16.4124801251812
30
-1E-16
41
1
10
30.3809548101288
20
16.4549847913831
30
-1E-16
41
1
10
30.2772738829317
20
16.5389658673709
30
-2E-16
41
1
10
30.2104907136116
20
16.5772038712195
30
-2E-16
41
1
10
30.1138353024235
20
16.6160510451957
30
-2E-16
41
1
10
30.0853238575589
20
16.6256547518138
30
-2E-16
41
1
10
30.0565586644183
20
16.633614460171
30
-2E-16
0
SPLINE
5
120
100
AcDbEntity
8
1
62
256
6
ByLayer
370
-1
48
1
60
0
100
AcDbSpline
70
4
71
3
72
12
73
8
40
0
40
0
40
0
40
0
40
0.422118633920768
40
0.422118633920768
40
0.843213619146899
40
0.843213619146899
40
1
40
1
40
1
40
1
41
1
10
31.6048513905007
20
18.1235572968896
30
-1E-16
41
1
10
31.6698909308858
20
18.1333609299169
30
-1E-16
41
1
10
31.7318430713297
20
18.1542063355681
30
-1E-16
41
1
10
31.8406933000506
20
18.2114339179466
30
-1E-16
41
1
10
31.8892447346606
20
18.2483952327023
30
-1E-16
41
1
10
31.9461284716299
20
18.3064726347063
30
0
41
1
10
31.960736004608
20
18.3231435979543
30
0
41
1
10
31.9743881570157
20
18.3405020220177
30
0
0
SPLINE
5
121
100
AcDbEntity
8
1
62
256
6
ByLayer
370
-1
48
1
60
0
100
AcDbSpline
70
4
71
3
72
18
73
14
40
0
40
0
40
0
40
0
40
0.212491592102415
40
0.212491592102415
40
0.386618191488473
40
0.386618191488473
40
0.562426295050811
40
0.562426295050811
40
0.715388354469456
40
0.715388354469456
40
0.918249128147158
40
0.918249128147158
40
1
40
1
40
1
40
1
41
1
10
32.931426765919
20
16.6764013738989
30
0
41
1
10
32.8705877329419
20
16.653926610163
30
0
41
1
10
32.8099867004028
20
16.6202427737084
30
0
41
1
10
32.7070872700119
20
16.5395169089468
30
0
41
1
10
32.6623508207348
20
16.4949572982634
30
0
41
1
10
32.5830325701291
20
16.3938479032562
30
0
41
1
10
32.5474646614441
20
16.335591745441
30
0
41
1
10
32.4960191152633
20
16.2236827983412
30
0
41
1
10
32.4775191568522
20
16.1691031177829
30
0
41
1
10
32.4491308100148
20
16.0456045768099
30
0
41
1
10
32.4433493540046
20
15.9756844307524
30
0
41
1
10
32.4484596540493
20
15.8838391177987
30
0
41
1
10
32.4514810148986
20
15.8578013800329
30
0
41
1
10
32.4559563943205
20
15.8324924869118
30
0
0
SPLINE
5
122
100
AcDbEntity
8
1
62
256
6
ByLayer
370
-1
48
1
60
0
100
AcDbSpline
70
4
71
3
72
16
73
12
40
0
40
0
40
0
40
0
40
0.062445008261401
40
0.062445008261401
40
0.283207995985755
40
0.283207995985755
40
0.506745688833502
40
0.506745688833502
40
0.744607284736919
40
0.744607284736919
40
1
40
1
40
1
40
1
41
1
10
30.6457703154603
20
15.4877052922464
30
-1E-16
41
1
10
30.6529453435255
20
15.4835891751406
30
-1E-16
41
1
10
30.6603408625026
20
15.4797726391793
30
-1E-16
41
1
10
30.6944716185691
20
15.4640194400544
30
-1E-16
41
1
10
30.7236333540292
20
15.4556740755924
30
-1E-16
41
1
10
30.7827311234028
20
15.4477188717017
30
-1E-16
41
1
10
30.8134201941747
20
15.4480959374381
30
-1E-16
41
1
10
30.8741081772665
20
15.4570682438616
30
-1E-16
41
1
10
30.9047007337812
20
15.4662700980153
30
-1E-16
41
1
10
30.9626714501423
20
15.4925370871849
30
-1E-16
41
1
10
30.9903600113462
20
15.5104193769944
30
-1E-16
41
1
10
31.0142177589085
20
15.5310050387651
30
-1E-16
0
SPLINE
5
123
100
AcDbEntity
8
1
62
256
6
ByLayer
370
-1
48
1
60
0
100
AcDbSpline
70
4
71
3
72
16
73
12
40
0
40
0
40
0
40
0
40
0.0630415689509306
40
0.0630415689509306
40
0.285914332024972
40
0.285914332024972
40
0.511588305408906
40
0.511588305408906
40
0.751723061839372
40
0.751723061839372
40
1
40
1
40
1
40
1
41
1
10
29.8249486778701
20
16.9201428961803
30
-2E-16
41
1
10
29.8249486778701
20
16.9117377092935
30
-2E-16
41
1
10
29.8253403253313
20
16.9033141530076
30
-2E-16
41
1
10
29.8288580496601
20
16.8654865676026
30
-2E-16
41
1
10
29.8365645390422
20
16.8360459335395
30
-2E-16
41
1
10
29.8604348701772
20
16.7814408885189
30
-2E-16
41
1
10
29.8769849224374
20
16.755631059992
30
-2E-16
41
1
10
29.9173342363479
20
16.7092677905406
30
-2E-16
41
1
10
29.942009839644
20
16.6885564492873
30
-2E-16
41
1
10
29.9959759750056
20
16.6550149108127
30
-2E-16
41
1
10
30.0259859225953
20
16.6420743410903
30
-2E-16
41
1
10
30.0565586644183
20
16.633614460171
30
-2E-16
0
SPLINE
5
124
100
AcDbEntity
8
1
62
256
6
ByLayer
370
-1
48
1
60
0
100
AcDbSpline
70
4
71
3
72
12
73
8
40
0
40
0
40
0
40
0
40
0.495779676780362
40
0.495779676780362
40
0.900233025448794
40
0.900233025448794
40
1
40
1
40
1
40
1
41
1
10
31.9743881570157
20
15.5452953388893
30
0
41
1
10
31.9316867570441
20
15.5921152937255
30
0
41
1
10
31.8790791522904
20
15.632730917026
30
-1E-16
41
1
10
31.7683005191222
20
15.688543291238
30
-1E-16
41
1
10
31.7115882706899
20
15.7075439846379
30
-1E-16
41
1
10
31.6359020219661
20
15.7207122786671
30
-1E-16
41
1
10
31.6204763128411
20
15.7228379340766
30
-1E-16
41
1
10
31.6048513905007
20
15.7244300332802
30
-1E-16
0
SPLINE
5
125
100
AcDbEntity
8
1
62
256
6
ByLayer
370
-1
48
1
60
0
100
AcDbSpline
70
4
71
3
72
18
73
14
40
0
40
0
40
0
40
0
40
0.212491592102414
40
0.212491592102414
40
0.386618191488474
40
0.386618191488474
40
0.562426295050812
40
0.562426295050812
40
0.715388354469456
40
0.715388354469456
40
0.918249128147157
40
0.918249128147157
40
1
40
1
40
1
40
1
41
1
10
30.0565586644183
20
17.1953866570358
30
-2E-16
41
1
10
30.1305283709365
20
17.2119155496399
30
-2E-16
41
1
10
30.2035303918065
20
17.2399839332168
30
-2E-16
41
1
10
30.3245333639933
20
17.3125120976691
30
-1E-16
41
1
10
30.3759110577643
20
17.3540644000227
30
-1E-16
41
1
10
30.4629091449959
20
17.4516961882834
30
-1E-16
41
1
10
30.4994656358482
20
17.5095046933448
30
-1E-16
41
1
10
30.5468713707263
20
17.6232429599634
30
-1E-16
41
1
10
30.5611157969813
20
17.6797496434069
30
-1E-16
41
1
10
30.575957081908
20
17.8093826057471
30
-1E-16
41
1
10
30.571142929088
20
17.8841006873005
30
-1E-16
41
1
10
30.5496047575528
20
17.9833849184899
30
-1E-16
41
1
10
30.5416106508402
20
18.0116744300115
30
-1E-16
41
1
10
30.5320290360167
20
18.0392955440229
30
-1E-16
0
SPLINE
5
126
100
AcDbEntity
8
1
62
256
6
ByLayer
370
-1
48
1
60
0
100
AcDbSpline
70
4
71
3
72
18
73
14
40
0
40
0
40
0
40
0
40
0.212491695755303
40
0.212491695755303
40
0.386618276853806
40
0.386618276853806
40
0.562426360907933
40
0.562426360907933
40
0.715388416645938
40
0.715388416645938
40
0.918249208689864
40
0.918249208689864
40
1
40
1
40
1
40
1
41
1
10
32.4559563943205
20
18.067929523389
30
0
41
1
10
32.4444479599702
20
17.9963638652331
30
0
41
1
10
32.4425947716361
20
17.9199213685223
30
0
41
1
10
32.4593902060913
20
17.7802344999303
30
0
41
1
10
32.4747099892552
20
17.7155506233423
30
0
41
1
10
32.5205402400931
20
17.5923071789252
30
0
41
1
10
32.5519969143775
20
17.5320758897439
30
0
41
1
10
32.620827651717
20
17.4344456351368
30
0
41
1
10
32.6576801376179
20
17.3938679725628
30
0
41
1
10
32.7478139992732
20
17.3160213195865
30
0
41
1
10
32.8040015574078
20
17.2825812523004
30
0
41
1
10
32.8842290993303
20
17.2511729955525
30
0
41
1
10
32.9077678031294
20
17.2438210605176
30
0
41
1
10
32.931426765919
20
17.2381735707638
30
0
0
SPLINE
5
127
100
AcDbEntity
8
1
62
256
6
ByLayer
370
-1
48
1
60
0
100
AcDbSpline
70
4
71
3
72
16
73
12
40
0
40
0
40
0
40
0
40
0.0569446172824994
40
0.0569446172824994
40
0.279906644834071
40
0.279906644834071
40
0.505321967306682
40
0.505321967306682
40
0.74491504712881
40
0.74491504712881
40
1
40
1
40
1
40
1
41
1
10
32.3033470765325
20
15.5123751523476
30
0
41
1
10
32.3098326148276
20
15.5162887777235
30
0
41
1
10
32.3162017622676
20
15.5204501660624
30
0
41
1
10
32.346585342024
20
15.5418807678525
30
0
41
1
10
32.3687897161362
20
15.5626913542689
30
0
41
1
10
32.4061714854899
20
15.6084820494586
30
0
41
1
10
32.4217620686598
20
15.6340751815729
30
0
41
1
10
32.4456256603592
20
15.6879456294857
30
0
41
1
10
32.4537036673484
20
15.7169550227896
30
0
41
1
10
32.4615352833281
20
15.7751277312508
30
0
41
1
10
32.4608408922355
20
15.8048699718071
30
0
41
1
10
32.4559563943205
20
15.8324924869118
30
0
0
SPLINE
5
128
100
AcDbEntity
8
1
62
256
6
ByLayer
370
-1
48
1
60
0
100
AcDbSpline
70
4
71
3
72
16
73
12
40
0
40
0
40
0
40
0
40
0.0630415689509261
40
0.0630415689509261
40
0.285914332024973
40
0.285914332024973
40
0.5115883054089
40
0.5115883054089
40
0.751723061839369
40
0.751723061839369
40
1
40
1
40
1
40
1
41
1
10
33.1241687141227
20
16.9692454769167
30
0
41
1
10
33.1241687141227
20
16.9776506638036
30
0
41
1
10
33.1238393717997
20
16.9860460068891
30
0
41
1
10
33.1208816799989
20
17.0236199966784
30
0
41
1
10
33.1144009269368
20
17.0525055891302
30
0
41
1
10
33.0943673243808
20
17.1053732751624
30
0
41
1
10
33.0804920879887
20
17.1299718855137
30
0
41
1
10
33.0467676027327
20
17.1733352801051
30
0
41
1
10
33.0261932076413
20
17.1921894999096
30
0
41
1
10
32.9813905316211
20
17.2215816131323
30
0
41
1
10
32.9565724118262
20
17.2321712037591
30
0
41
1
10
32.931426765919
20
17.2381735707638
30
0
0
SPLINE
5
129
100
AcDbEntity
8
1
62
256
6
ByLayer
370
-1
48
1
60
0
100
AcDbSpline
70
4
71
3
72
14
73
10
40
0
40
0
40
0
40
0
40
0.283961749036712
40
0.283961749036712
40
0.570285189259025
40
0.570285189259025
40
0.829451094335678
40
0.829451094335678
40
1
40
1
40
1
40
1
41
1
10
32.4559563943205
20
18.067929523389
30
0
41
1
10
32.4613927484823
20
18.1017357086366
30
0
41
1
10
32.461620529751
20
18.1379396903598
30
0
41
1
10
32.4501982319367
20
18.2096343042142
30
0
41
1
10
32.4382128863437
20
18.2462194849447
30
0
41
1
10
32.4042152315799
20
18.3096639719845
30
0
41
1
10
32.3826978708147
20
18.3380457187046
30
0
41
1
10
32.3410694753697
20
18.3769517404732
30
0
41
1
10
32.322684507815
20
18.3905897260985
30
0
41
1
10
32.3033470765325
20
18.4016830808506
30
0
0
SPLINE
5
12A
100
AcDbEntity
8
1
62
256
6
ByLayer
370
-1
48
1
60
0
100
AcDbSpline
70
4
71
3
72
16
73
12
40
0
40
0
40
0
40
0
40
0.0569446172825043
40
0.0569446172825043
40
0.279906644834074
40
0.279906644834074
40
0.505321967306682
40
0.505321967306682
40
0.744915047128812
40
0.744915047128812
40
1
40
1
40
1
40
1
41
1
10
30.6457703154603
20
18.3770132207494
30
-1E-16
41
1
10
30.6392847771652
20
18.3730995953736
30
-1E-16
41
1
10
30.6329665132526
20
18.3689151658026
30
-1E-16
41
1
10
30.6030786816804
20
18.3472600778269
30
-1E-16
41
1
10
30.5820595339383
20
18.3259127936366
30
-1E-16
41
1
10
30.5484387635309
20
18.278419031579
30
-1E-16
41
1
10
30.5354848104248
20
18.2516319726998
30
-1E-16
41
1
10
30.5181709713828
20
18.1947956460661
30
-1E-16
41
1
10
30.5141554759445
20
18.1639466540487
30
-1E-16
41
1
10
30.5155506105868
20
18.1015958605873
30
-1E-16
41
1
10
30.5215715142704
20
18.0694416525604
30
-1E-16
41
1
10
30.5320290360167
20
18.0392955440229
30
-1E-16
0
SPLINE
5
12B
100
AcDbEntity
8
1
62
256
6
ByLayer
370
-1
48
1
60
0
100
AcDbSpline
70
4
71
3
72
14
73
10
40
0
40
0
40
0
40
0
40
0.282169922576107
40
0.282169922576107
40
0.566902245317967
40
0.566902245317967
40
0.824523972080263
40
0.824523972080263
40
1
40
1
40
1
40
1
41
1
10
31.9743881570157
20
15.5452953388893
30
0
41
1
10
31.9944997147207
20
15.5232440191654
30
0
41
1
10
32.0196410623356
20
15.5046181558312
30
0
41
1
10
32.0768821103034
20
15.4782820209747
30
0
41
1
10
32.1099587870443
20
15.4703202631027
30
0
41
1
10
32.1753593248468
20
15.4682694956349
30
0
41
1
10
32.2084510335281
20
15.4729607694771
30
0
41
1
10
32.2618195771151
20
15.4904213963395
30
0
41
1
10
32.2832681839986
20
15.5002587697491
30
0
41
1
10
32.3033470765325
20
15.5123751523476
30
0
0
SPLINE
5
12C
100
AcDbEntity
8
1
62
256
6
ByLayer
370
-1
48
1
60
0
100
AcDbSpline
70
4
71
3
72
16
73
12
40
0
40
0
40
0
40
0
40
0.0624450082614039
40
0.0624450082614039
40
0.283207995985775
40
0.283207995985775
40
0.506745688833539
40
0.506745688833539
40
0.744607284736975
40
0.744607284736975
40
1
40
1
40
1
40
1
41
1
10
32.3033470765325
20
18.4016830808506
30
0
41
1
10
32.2961720484673
20
18.4057991979564
30
0
41
1
10
32.2888388350406
20
18.4095875205307
30
0
41
1
10
32.2552681137473
20
18.4250871230233
30
0
41
1
10
32.227332115997
20
18.4328774452447
30
0
41
1
10
32.1720710778028
20
18.4390952889695
30
0
41
1
10
32.1440568242109
20
18.4375070044633
30
0
41
1
10
32.0899936723538
20
18.4255348220114
30
0
41
1
10
32.0635023253739
20
18.4144758458066
30
0
41
1
10
32.0148704683355
20
18.3839800062375
30
0
41
1
10
31.9925920447505
20
18.3636478816204
30
0
41
1
10
31.9743881570157
20
18.3405020220177
30
0
0
SPLINE
5
12D
100
AcDbEntity
8
1
62
256
6
ByLayer
370
-1
48
1
60
0
100
AcDbSpline
70
4
71
3
72
12
73
8
40
0
40
0
40
0
40
0
40
0.422118633920711
40
0.422118633920711
40
0.843213619146836
40
0.843213619146836
40
1
40
1
40
1
40
1
41
1
10
31.4410775637369
20
15.7219925730736
30
-1E-16
41
1
10
31.373385801984
20
15.7133899269124
30
-1E-16
41
1
10
31.3054764745456
20
15.6952420726143
30
-1E-16
41
1
10
31.1809028558916
20
15.6451344030114
30
-1E-16
41
1
10
31.1224591394947
20
15.612652541082
30
-1E-16
41
1
10
31.0508679457789
20
15.561235013929
30
-1E-16
41
1
10
31.0321100690881
20
15.5464434218183
30
-1E-16
41
1
10
31.0142177589085
20
15.5310050387651
30
-1E-16
0
SPLINE
5
12E
100
AcDbEntity
8
1
62
256
6
ByLayer
370
-1
48
1
60
0
100
AcDbSpline
70
4
71
3
72
12
73
8
40
0
40
0
40
0
40
0
40
0.495779676780355
40
0.495779676780355
40
0.900233025448794
40
0.900233025448794
40
1
40
1
40
1
40
1
41
1
10
31.0142177589085
20
18.3262117218935
30
-1E-16
41
1
10
31.0701815857529
20
18.2733862349851
30
-1E-16
41
1
10
31.1353417669993
20
18.227086516199
30
-1E-16
41
1
10
31.2644757026874
20
18.1629624386285
30
-1E-16
41
1
10
31.3279444432201
20
18.1409022501307
30
-1E-16
41
1
10
31.4085698228502
20
18.1254974039718
30
-1E-16
41
1
10
31.4248154789464
20
18.1230004577058
30
-1E-16
41
1
10
31.4410775637369
20
18.121119836683
30
-1E-16
0
SPLINE
5
12F
100
AcDbEntity
8
1
62
256
6
ByLayer
370
-1
48
1
60
0
100
AcDbSpline
70
4
71
3
72
13
73
9
40
0
40
0
40
0
40
0
40
0.14863156862426
40
0.321761320108652
40
0.494891071593044
40
0.58145594733524
40
0.841150574561828
40
1
40
1
40
1
40
1
41
1
10
39.3350391186554
20
-5.71732748106879
30
0
41
1
10
39.4062796430367
20
-5.71716527341786
30
0
41
1
10
39.5310074972889
20
-5.72650055081129
30
0
41
1
10
39.5595999617287
20
-5.77513847033788
30
0
41
1
10
39.5796609954216
20
-5.81345797989096
30
0
41
1
10
39.597024919564
20
-5.85730246156214
30
0
41
1
10
39.6056032708153
20
-5.89772596648851
30
0
41
1
10
39.6055613814345
20
-5.93067160350347
30
0
41
1
10
39.6046190010951
20
-5.94324310998465
30
0
0
SPLINE
5
130
100
AcDbEntity
8
1
62
256
6
ByLayer
370
-1
48
1
60
0
100
AcDbSpline
70
4
71
3
72
19
73
15
40
0
40
0
40
0
40
0
40
0.123442998704289
40
0.226786080705585
40
0.330129162706882
40
0.433472244708179
40
0.536815326709476
40
0.640158408710772
40
0.743501490712069
40
0.795173031712717
40
0.846844572713366
40
0.950187654714662
40
0.976023425214987
40
1
40
1
40
1
40
1
41
1
10
39.4857537262659
20
-6.89669243921583
30
0
41
1
10
39.4988606782766
20
-6.95473429645384
30
0
41
1
10
39.5372412533242
20
-7.06126695166924
30
0
41
1
10
39.6594850241141
20
-7.19350520531253
30
0
41
1
10
39.8402317539977
20
-7.2911034160218
30
0
41
1
10
39.9675137655669
20
-7.4089547772671
30
0
41
1
10
40.0012668736518
20
-7.56769121576914
30
0
41
1
10
39.9935062528432
20
-7.65952419775428
30
0
41
1
10
39.9945365700516
20
-7.68064727391697
30
0
41
1
10
39.9944768985139
20
-7.744347543326
30
0
41
1
10
39.9944636508316
20
-7.85746642091414
30
0
41
1
10
39.993553532333
20
-8.06351819439814
30
0
41
1
10
39.994902111379
20
-8.31000368413271
30
0
41
1
10
39.9884999958199
20
-8.31756874845456
30
0
41
1
10
39.9843798600368
20
-8.32376353284008
30
0
0
SPLINE
5
131
100
AcDbEntity
8
1
62
256
6
ByLayer
370
-1
48
1
60
0
100
AcDbSpline
70
4
71
3
72
11
73
7
40
0
40
0
40
0
40
0
40
0.160369925349927
40
0.370277444012445
40
0.580184962674964
40
1
40
1
40
1
40
1
41
1
10
25.0177648867214
20
-5.51510005307932
30
-9E-16
41
1
10
25.0181429943606
20
-5.54704410637274
30
-9E-16
41
1
10
25.0191812388141
20
-5.62079214542095
30
-9E-16
41
1
10
25.0192571342594
20
-5.73578876304131
30
-9E-16
41
1
10
25.0288905175809
20
-5.90798011198416
30
-9E-16
41
1
10
25.2421169286179
20
-6.03048769958923
30
-9E-16
41
1
10
25.3954906753875
20
-6.06693169915511
30
-9E-16
0
SPLINE
5
132
100
AcDbEntity
8
1
62
256
6
ByLayer
370
-1
48
1
60
0
100
AcDbSpline
70
4
71
3
72
15
73
11
40
0
40
0
40
0
40
0
40
0.125
40
0.25
40
0.375
40
0.5
40
0.625
40
0.75
40
0.875
40
1
40
1
40
1
40
1
41
1
10
39.2001900665412
20
-12.9766741738296
30
0
41
1
10
38.5570698769627
20
-12.8886496185373
30
-1E-16
41
1
10
37.289902762483
20
-12.6295608431039
30
-2E-16
41
1
10
35.4425671915764
20
-12.092464320803
30
-3E-16
41
1
10
33.5842705064564
20
-11.5735896679346
30
-4E-16
41
1
10
31.7216947355042
20
-11.0566737650846
30
-5E-16
41
1
10
29.8615219071003
20
-10.5254534928402
30
-6E-16
41
1
10
27.9939598894011
20
-10.0016930570345
30
-7E-16
41
1
10
26.0740618358418
20
-9.65521289049059
30
-9E-16
41
1
10
24.79720078303
20
-9.41440537987199
30
-9E-16
41
1
10
24.1587658412942
20
-9.29324700126026
30
-1E-15
0
SPLINE
5
133
100
AcDbEntity
8
1
62
256
6
ByLayer
370
-1
48
1
60
0
100
AcDbSpline
70
4
71
3
72
13
73
9
40
0
40
0
40
0
40
0
40
0.0628896396389239
40
0.131396879242216
40
0.336918598052093
40
0.610947556465262
40
0.884976514878432
40
1
40
1
40
1
40
1
41
1
10
39.572291858045
20
-7.37428500419185
30
0
41
1
10
39.5758704158313
20
-7.41309742208878
30
0
41
1
10
39.5827922900088
20
-7.49414698684984
30
0
41
1
10
39.597024919564
20
-7.7029873556001
30
0
41
1
10
39.6087860881892
20
-8.04558801650083
30
0
41
1
10
39.6014070080883
20
-8.51933064482043
30
0
41
1
10
39.5764157063749
20
-8.93314107651375
30
0
41
1
10
39.5581595768143
20
-9.17111341718015
30
0
41
1
10
39.55260458509
20
-9.24092053757087
30
0
0
SPLINE
5
134
100
AcDbEntity
8
1
62
256
6
ByLayer
370
-1
48
1
60
0
100
AcDbSpline
70
4
71
3
72
18
73
14
40
0
40
0
40
0
40
0
40
0.0765859286104705
40
0.192012687534162
40
0.307439446457853
40
0.365152825919699
40
0.422866205381544
40
0.538292964305235
40
0.567149654036158
40
0.596006343767081
40
0.653719723228926
40
0.769146482152618
40
1
40
1
40
1
40
1
41
1
10
39.9740547256845
20
-11.7658326136563
30
0
41
1
10
39.9855532576489
20
-11.8060216739132
30
0
41
1
10
40.0003963968267
20
-11.9030678878965
30
0
41
1
10
39.9935062528432
20
-11.9925785952649
30
0
41
1
10
39.9945365700516
20
-12.0167083667329
30
0
41
1
10
39.9944768985139
20
-12.0884200203928
30
0
41
1
10
39.9944636508316
20
-12.2157969997362
30
0
41
1
10
39.9935535323329
20
-12.4475253510523
30
0
41
1
10
39.9949184821497
20
-12.7289151154287
30
0
41
1
10
39.9811066400083
20
-12.735644704191
30
0
41
1
10
39.9326457949281
20
-12.8506538939372
30
0
41
1
10
39.7301871568161
20
-12.9782617068164
30
0
41
1
10
39.4118607471783
20
-12.9987057247925
30
0
41
1
10
39.2001900664471
20
-12.9766741738198
30
0
0
SPLINE
5
135
100
AcDbEntity
8
1
62
256
6
ByLayer
370
-1
48
1
60
0
100
AcDbSpline
70
4
71
3
72
26
73
22
40
0
40
0
40
0
40
0
40
0.0988386430356002
40
0.1482579645534
40
0.1729676253123
40
0.18532245569175
40
0.1976772860712
40
0.247096607589001
40
0.271806268347901
40
0.296515929106801
40
0.345935250624601
40
0.395354572142401
40
0.444773893660201
40
0.494193215178001
40
0.543612536695801
40
0.593031858213601
40
0.691870501249201
40
0.790709144284801
40
0.889547787320402
40
0.988386430356002
40
1
40
1
40
1
40
1
41
1
10
24.1587658413898
20
-9.29324700127827
30
-1E-15
41
1
10
23.9440269973672
20
-9.2527948939231
30
-1E-15
41
1
10
23.6145454723643
20
-9.14516364371684
30
-1E-15
41
1
10
23.542015312865
20
-9.04167693855416
30
-1E-15
41
1
10
23.5056472355894
20
-8.99293656314001
30
-1E-15
41
1
10
23.485354606712
20
-8.96585548525607
30
-1E-15
41
1
10
23.4556640716769
20
-8.9259607195068
30
-1E-15
41
1
10
23.4239642012081
20
-8.88140930888414
30
-1E-15
41
1
10
23.3914959742819
20
-8.83251963387346
30
-1E-15
41
1
10
23.3614443611612
20
-8.78474533244864
30
-1E-15
41
1
10
23.3282419009465
20
-8.72667732806002
30
-1E-15
41
1
10
23.2948371355516
20
-8.65822286876195
30
-1E-15
41
1
10
23.267329453984
20
-8.58958290557254
30
-1E-15
41
1
10
23.244742771924
20
-8.51870070519269
30
-1E-15
41
1
10
23.2261010050521
20
-8.44351953432331
30
-1E-15
41
1
10
23.2052037570476
20
-8.33480370144596
30
-1E-15
41
1
10
23.1840640634146
20
-8.17787781762996
30
7E-16
41
1
10
23.1686525219656
20
-7.93481453789187
30
7E-16
41
1
10
23.1651821761417
20
-7.61589656818683
30
7E-16
41
1
10
23.0995498453995
20
-7.3586335556073
30
7E-16
41
1
10
23.016032783221
20
-7.22402025094664
30
7E-16
41
1
10
23.0067159264875
20
-7.20989167615591
30
7E-16
0
SPLINE
5
136
100
AcDbEntity
8
1
62
256
6
ByLayer
370
-1
48
1
60
0
100
AcDbSpline
70
4
71
1
72
4
73
2
40
0
40
0
40
1
40
1
41
1
10
39.2001900665412
20
-12.9766741738296
30
0
41
1
10
38.6405913307268
20
-8.38712600087965
30
-1E-16
0
SPLINE
5
137
100
AcDbEntity
8
1
62
256
6
ByLayer
370
-1
48
1
60
0
100
AcDbSpline
70
4
71
1
72
4
73
2
40
0
40
0
40
1
40
1
41
1
10
24.1587658413898
20
-9.29324700127827
30
-1E-15
41
1
10
25.3954906753875
20
-6.06693169915511
30
-9E-16
0
SPLINE
5
138
100
AcDbEntity
8
1
62
256
6
ByLayer
370
-1
48
1
60
0
100
AcDbSpline
70
4
71
3
72
8
73
4
40
0
40
0
40
0
40
0
40
1
40
1
40
1
40
1
41
1
10
25.3954906753875
20
-6.06693169915511
30
-9E-16
41
1
10
29.8105242271655
20
-6.84032979972966
30
-6E-16
41
1
10
34.2255577789458
20
-7.61372790030461
30
-4E-16
41
1
10
38.6405913307268
20
-8.38712600087965
30
-1E-16
0
SPLINE
5
139
100
AcDbEntity
8
1
62
256
6
ByLayer
370
-1
48
1
60
0
100
AcDbSpline
70
4
71
3
72
20
73
16
40
0
40
0
40
0
40
0
40
0.0625
40
0.09375
40
0.125
40
0.15625
40
0.1875
40
0.25
40
0.5
40
0.75
40
0.8125
40
0.875
40
0.90625
40
0.9375
40
1
40
1
40
1
40
1
41
1
10
38.6405913307268
20
-8.38712600087965
30
-1E-16
41
1
10
38.7960530878173
20
-8.41349208067436
30
-1E-16
41
1
10
39.0328238091802
20
-8.40209668464726
30
-1E-16
41
1
10
39.2117148318167
20
-8.29061273222885
30
0
41
1
10
39.2652316647399
20
-8.17460008208096
30
0
41
1
10
39.2624561470708
20
-8.0485799677389
30
0
41
1
10
39.25117655962
20
-7.87927874741328
30
0
41
1
10
39.2594761502517
20
-7.42056200599603
30
0
41
1
10
39.2499763608165
20
-6.66577141429912
30
0
41
1
10
39.2482962070697
20
-5.91298556499277
30
0
41
1
10
39.2490081230279
20
-5.41044529091602
30
0
41
1
10
39.2480140359511
20
-5.20123799983404
30
0
41
1
10
39.2454867019729
20
-5.03416185882898
30
0
41
1
10
39.2490713293032
20
-4.86251643420817
30
0
41
1
10
39.0266100775479
20
-4.73856771963824
30
-1E-16
41
1
10
38.8713736266229
20
-4.70969239695293
30
-1E-16
0
LINE
5
48
100
AcDbEntity
8
4
62
256
6
ByLayer
370
-1
48
0.05
60
0
100
AcDbLine
10
0
20
0
30
0
11
40
21
0
31
0
39
0
210
0
220
0
230
1
0
LINE
5
4A
100
AcDbEntity
8
81
62
256
6
ByLayer
370
-1
48
1
60
0
100
AcDbLine
10
40
20
21.88
30
0
11
44
21
21.88
31
0
39
0
210
0
220
0
230
1
0
LINE
5
4B
100
AcDbEntity
8
80
62
256
6
ByLayer
370
-1
48
1
60
0
100
AcDbLine
10
0
20
0
30
0
11
-5
21
0
31
0
39
0
210
0
220
0
230
1
0
LINE
5
4C
100
AcDbEntity
8
1
62
256
6
ByLayer
370
-1
48
1
60
0
100
AcDbLine
10
32.834608
20
17.271415
30
0
11
33.029439
21
17.18319
31
0
39
0
210
0
220
0
230
1
0
LINE
5
4E
100
AcDbEntity
8
1
62
256
6
ByLayer
370
-1
48
1
60
0
100
AcDbLine
10
32.011735
20
15.576305
30
0
11
31.79652
21
15.673759
31
0
39
0
210
0
220
0
230
1
0
LINE
5
4F
100
AcDbEntity
8
1
62
256
6
ByLayer
370
-1
48
1
60
0
100
AcDbLine
10
33.998558
20
-2.985537
30
0
11
33.78753
21
-2.765987
31
0
39
0
210
0
220
0
230
1
0
LINE
5
50
100
AcDbEntity
8
1
62
256
6
ByLayer
370
-1
48
1
60
0
100
AcDbLine
10
31.695586
20
-2.318967
30
0
11
31.340878
21
-2.462349
31
0
39
0
210
0
220
0
230
1
0
LINE
5
51
100
AcDbEntity
8
1
62
256
6
ByLayer
370
-1
48
1
60
0
100
AcDbLine
10
30.397772
20
16.489706
30
0
11
30.172635
21
16.591653
31
0
39
0
210
0
220
0
230
1
0
LINE
5
52
100
AcDbEntity
8
1
62
256
6
ByLayer
370
-1
48
1
60
0
100
AcDbLine
10
31.230567
20
18.180323
30
0
11
31.445782
21
18.082869
31
0
39
0
210
0
220
0
230
1
0
LINE
5
53
100
AcDbEntity
8
1
62
256
6
ByLayer
370
-1
48
1
60
0
100
AcDbLine
10
13.5
20
17
30
0
11
0.5
21
17
31
0
39
0
210
0
220
0
230
1
0
LINE
5
54
100
AcDbEntity
8
1
62
256
6
ByLayer
370
-1
48
1
60
0
100
AcDbLine
10
0.5
20
-17
30
0
11
13.5
21
-17
31
0
39
0
210
0
220
0
230
1
0
LINE
5
55
100
AcDbEntity
8
1
62
256
6
ByLayer
370
-1
48
1
60
0
100
AcDbLine
10
15.648015
20
-17.484911
30
0
11
21.027741
21
-20.044269
31
0
39
0
210
0
220
0
230
1
0
LINE
5
56
100
AcDbEntity
8
1
62
256
6
ByLayer
370
-1
48
1
60
0
100
AcDbLine
10
38.819154
20
-20.065551
30
0
11
38.822661
21
-16.22089
31
0
39
0
210
0
220
0
230
1
0
LINE
5
57
100
AcDbEntity
8
SK4
62
256
6
ByLayer
370
-1
48
0.05
60
0
100
AcDbLine
10
50
20
0
30
0
11
-10
21
0
31
0
39
0
210
0
220
0
230
1
0
LINE
5
59
100
AcDbEntity
8
1
62
256
6
ByLayer
370
-1
48
1
60
0
100
AcDbLine
10
38.822661
20
-16.031935
30
0
11
38.822661
21
-12.910183
31
0
39
0
210
0
220
0
230
1
0
LINE
5
5A
100
AcDbEntity
8
1
62
256
6
ByLayer
370
-1
48
1
60
0
100
AcDbLine
10
13.5
20
17
30
0
11
13.5
21
-17
31
0
39
0
210
0
220
0
230
1
0
LINE
5
5B
100
AcDbEntity
8
1
62
256
6
ByLayer
370
-1
48
1
60
0
100
AcDbLine
10
34.621128
20
-2.822952
30
0
11
34.416822
21
-4.363331
31
0
39
0
210
0
220
0
230
1
0
LINE
5
5C
100
AcDbEntity
8
1
62
256
6
ByLayer
370
-1
48
1
60
0
100
AcDbLine
10
38.676215
20
-15.646447
30
0
11
38.676215
21
-12.891723
31
0
39
0
210
0
220
0
230
1
0
LINE
5
5D
100
AcDbEntity
8
1
62
256
6
ByLayer
370
-1
48
1
60
0
100
AcDbLine
10
15.648015
20
-17.484911
30
0
11
15.648015
21
-15.262176
31
0
39
0
210
0
220
0
230
1
0
LINE
5
5E
100
AcDbEntity
8
1
62
256
6
ByLayer
370
-1
48
1
60
0
100
AcDbLine
10
38.822661
20
12.392414
30
0
11
38.822661
21
11.554437
31
0
39
0
210
0
220
0
230
1
0
LINE
5
5F
100
AcDbEntity
8
1
62
256
6
ByLayer
370
-1
48
1
60
0
100
AcDbLine
10
38.357165
20
-12.830712
30
0
11
38.357165
21
-15.295905
31
0
39
0
210
0
220
0
230
1
0
LINE
5
60
100
AcDbEntity
8
1
62
256
6
ByLayer
370
-1
48
1
60
0
100
AcDbLine
10
27.26784
20
-21.188356
30
0
11
28.300167
21
-10.09193
31
0
39
0
210
0
220
0
230
1
0
LINE
5
61
100
AcDbEntity
8
1
62
256
6
ByLayer
370
-1
48
1
60
0
100
AcDbLine
10
0.5
20
4.6225
30
0
11
0.9
21
4.2225
31
0
39
0
210
0
220
0
230
1
0
LINE
5
62
100
AcDbEntity
8
1
62
256
6
ByLayer
370
-1
48
1
60
0
100
AcDbLine
10
5.8
20
-3.4225
30
0
11
5
21
-4.2225
31
0
39
0
210
0
220
0
230
1
0
LINE
5
63
100
AcDbEntity
8
1
62
256
6
ByLayer
370
-1
48
1
60
0
100
AcDbLine
10
38.822661
20
-16.031938
30
0
11
38.822661
21
-16.22089
31
0
39
0
210
0
220
0
230
1
0
LINE
5
64
100
AcDbEntity
8
1
62
256
6
ByLayer
370
-1
48
1
60
0
100
AcDbLine
10
22.79605
20
15.063654
30
0
11
22.523041
21
14.859781
31
0
39
0
210
0
220
0
230
1
0
LINE
5
65
100
AcDbEntity
8
1
62
256
6
ByLayer
370
-1
48
1
60
0
100
AcDbLine
10
25.679299
20
-21.182424
30
0
11
26.743292
21
-9.745607
31
0
39
0
210
0
220
0
230
1
0
LINE
5
66
100
AcDbEntity
8
1
62
256
6
ByLayer
370
-1
48
1
60
0
100
AcDbLine
10
21.027741
20
-8.241601
30
0
11
21.027741
21
12.155313
31
0
39
0
210
0
220
0
230
1
0
LINE
5
67
100
AcDbEntity
8
1
62
256
6
ByLayer
370
-1
48
1
60
0
100
AcDbLine
10
31.637045
20
12.171468
30
0
11
31.490582
21
11.908755
31
0
39
0
210
0
220
0
230
1
0
LINE
5
68
100
AcDbEntity
8
1
62
256
6
ByLayer
370
-1
48
1
60
0
100
AcDbLine
10
26.782642
20
-5.752689
30
0
11
25.208305
21
-5.510539
31
0
39
0
210
0
220
0
230
1
0
LINE
5
69
100
AcDbEntity
8
1
62
256
6
ByLayer
370
-1
48
1
60
0
100
AcDbLine
10
23.345345
20
19.643767
30
0
11
23.344918
21
19.631541
31
0
39
0
210
0
220
0
230
1
0
LINE
5
6A
100
AcDbEntity
8
1
62
256
6
ByLayer
370
-1
48
1
60
0
100
AcDbLine
10
0.5
20
-4.6225
30
0
11
0.9
21
-4.2225
31
0
39
0
210
0
220
0
230
1
0
LINE
5
6B
100
AcDbEntity
8
1
62
256
6
ByLayer
370
-1
48
1
60
0
100
AcDbLine
10
22.008529
20
11.853906
30
0
11
22.008529
21
-8.496818
31
0
39
0
210
0
220
0
230
1
0
LINE
5
6C
100
AcDbEntity
8
1
62
256
6
ByLayer
370
-1
48
1
60
0
100
AcDbLine
10
38.12285
20
-14.61868
30
0
11
38.12285
21
-12.765911
31
0
39
0
210
0
220
0
230
1
0
LINE
5
6D
100
AcDbEntity
8
1
62
256
6
ByLayer
370
-1
48
1
60
0
100
AcDbLine
10
21.027741
20
-20.042934
30
0
11
21.027741
21
-20.044269
31
0
39
0
210
0
220
0
230
1
0
LINE
5
6E
100
AcDbEntity
8
1
62
256
6
ByLayer
370
-1
48
1
60
0
100
AcDbLine
10
38.016985
20
-7.886699
30
0
11
38.016985
21
12.060736
31
0
39
0
210
0
220
0
230
1
0
LINE
5
6F
100
AcDbEntity
8
1
62
256
6
ByLayer
370
-1
48
1
60
0
100
AcDbLine
10
27.337341
20
-5.885763
30
0
11
38.78871
21
-8.077893
31
0
39
0
210
0
220
0
230
1
0
LINE
5
70
100
AcDbEntity
8
1
62
256
6
ByLayer
370
-1
48
1
60
0
100
AcDbLine
10
15.648015
20
15.957745
30
0
11
15.648015
21
-7.224421
31
0
39
0
210
0
220
0
230
1
0
LINE
5
71
100
AcDbEntity
8
1
62
256
6
ByLayer
370
-1
48
1
60
0
100
AcDbLine
10
5.8
20
-3.4225
30
0
11
5.8
21
3.4225
31
0
39
0
210
0
220
0
230
1
0
LINE
5
72
100
AcDbEntity
8
1
62
256
6
ByLayer
370
-1
48
1
60
0
100
AcDbLine
10
0
20
-16.5
30
0
11
0
21
-5.1225
31
0
39
0
210
0
220
0
230
1
0
LINE
5
73
100
AcDbEntity
8
1
62
256
6
ByLayer
370
-1
48
1
60
0
100
AcDbLine
10
0.5
20
-17
30
0
11
0.5
21
-4.6225
31
0
39
0
210
0
220
0
230
1
0
LINE
5
74
100
AcDbEntity
8
1
62
256
6
ByLayer
370
-1
48
1
60
0
100
AcDbLine
10
22.47711
20
11.74203
30
0
11
23.126253
21
12.226787
31
0
39
0
210
0
220
0
230
1
0
LINE
5
75
100
AcDbEntity
8
1
62
256
6
ByLayer
370
-1
48
1
60
0
100
AcDbLine
10
38.822661
20
-3.87248
30
0
11
38.822661
21
11.554438
31
0
39
0
210
0
220
0
230
1
0
LINE
5
76
100
AcDbEntity
8
1
62
256
6
ByLayer
370
-1
48
1
60
0
100
AcDbLine
10
38.818783
20
12.026227
30
0
11
38.818783
21
-7.966909
31
0
39
0
210
0
220
0
230
1
0
LINE
5
77
100
AcDbEntity
8
1
62
256
6
ByLayer
370
-1
48
1
60
0
100
AcDbLine
10
28.785359
20
11.600122
30
0
11
38.12285
21
12.273015
31
0
39
0
210
0
220
0
230
1
0
LINE
5
78
100
AcDbEntity
8
1
62
256
6
ByLayer
370
-1
48
1
60
0
100
AcDbLine
10
27.066319
20
-5.813916
30
0
11
27.064391
21
-5.816212
31
0
39
0
210
0
220
0
230
1
0
LINE
5
79
100
AcDbEntity
8
1
62
256
6
ByLayer
370
-1
48
1
60
0
100
AcDbLine
10
25.839135
20
11.36568
30
0
11
26.463406
21
11.831864
31
0
39
0
210
0
220
0
230
1
0
LINE
5
7A
100
AcDbEntity
8
1
62
256
6
ByLayer
370
-1
48
1
60
0
100
AcDbLine
10
22.523041
20
14.859781
30
0
11
22.697474
21
15.013565
31
0
39
0
210
0
220
0
230
1
0
LINE
5
7B
100
AcDbEntity
8
1
62
256
6
ByLayer
370
-1
48
1
60
0
100
AcDbLine
10
0.9
20
4.2225
30
0
11
5
21
4.2225
31
0
39
0
210
0
220
0
230
1
0
LINE
5
7C
100
AcDbEntity
8
1
62
256
6
ByLayer
370
-1
48
1
60
0
100
AcDbLine
10
38.12285
20
12.065113
30
0
11
38.12285
21
12.273015
31
0
39
0
210
0
220
0
230
1
0
LINE
5
7D
100
AcDbEntity
8
1
62
256
6
ByLayer
370
-1
48
1
60
0
100
AcDbLine
10
25.779476
20
-21.182452
30
0
11
26.841723
21
-9.764411
31
0
39
0
210
0
220
0
230
1
0
LINE
5
7E
100
AcDbEntity
8
1
62
256
6
ByLayer
370
-1
48
1
60
0
100
AcDbLine
10
25.498263
20
-4.855381
30
0
11
25.498263
21
11.37012
31
0
39
0
210
0
220
0
230
1
0
LINE
5
7F
100
AcDbEntity
8
1
62
256
6
ByLayer
370
-1
48
1
60
0
100
AcDbLine
10
25.613861
20
11.368026
30
0
11
25.613861
21
-4.859556
31
0
39
0
210
0
220
0
230
1
0
LINE
5
80
100
AcDbEntity
8
1
62
256
6
ByLayer
370
-1
48
1
60
0
100
AcDbLine
10
38.676215
20
12.07631
30
0
11
38.676215
21
12.381045
31
0
39
0
210
0
220
0
230
1
0
LINE
5
81
100
AcDbEntity
8
1
62
256
6
ByLayer
370
-1
48
1
60
0
100
AcDbLine
10
5
20
-4.2225
30
0
11
0.9
21
-4.2225
31
0
39
0
210
0
220
0
230
1
0
LINE
5
82
100
AcDbEntity
8
1
62
256
6
ByLayer
370
-1
48
1
60
0
100
AcDbLine
10
5
20
4.2225
30
0
11
5.8
21
3.4225
31
0
39
0
210
0
220
0
230
1
0
LINE
5
83
100
AcDbEntity
8
1
62
256
6
ByLayer
370
-1
48
1
60
0
100
AcDbLine
10
35.619031
20
1.846982
30
0
11
34.621128
21
-2.822952
31
0
39
0
210
0
220
0
230
1
0
LINE
5
84
100
AcDbEntity
8
1
62
256
6
ByLayer
370
-1
48
1
60
0
100
AcDbLine
10
38.12285
20
12.273015
30
0
11
38.12285
21
12.346228
31
0
39
0
210
0
220
0
230
1
0
LINE
5
85
100
AcDbEntity
8
1
62
256
6
ByLayer
370
-1
48
1
60
0
100
AcDbLine
10
38.357165
20
12.38056
30
0
11
38.357165
21
12.090535
31
0
39
0
210
0
220
0
230
1
0
LINE
5
86
100
AcDbEntity
8
1
62
256
6
ByLayer
370
-1
48
1
60
0
100
AcDbLine
10
0
20
5.1225
30
0
11
0
21
16.5
31
0
39
0
210
0
220
0
230
1
0
LINE
5
87
100
AcDbEntity
8
1
62
256
6
ByLayer
370
-1
48
1
60
0
100
AcDbLine
10
0.5
20
17
30
0
11
0.5
21
4.6225
31
0
39
0
210
0
220
0
230
1
0
LINE
5
88
100
AcDbEntity
8
1
62
256
6
ByLayer
370
-1
48
1
60
0
100
AcDbLine
10
26.463406
20
11.831864
30
0
11
26.971174
21
12.140654
31
0
39
0
210
0
220
0
230
1
0
LINE
5
89
100
AcDbEntity
8
1
62
256
6
ByLayer
370
-1
48
1
60
0
100
AcDbLine
10
30.291324
20
17.089079
30
0
11
30.056559
21
17.195387
31
0
39
0
210
0
220
0
230
1
0
LINE
5
8A
100
AcDbEntity
8
1
62
256
6
ByLayer
370
-1
48
1
60
0
100
AcDbLine
10
32.208843
20
18.234335
30
0
11
31.974388
21
18.340502
31
0
39
0
210
0
220
0
230
1
0
LINE
5
8B
100
AcDbEntity
8
1
62
256
6
ByLayer
370
-1
48
1
60
0
100
AcDbLine
10
30.766795
20
15.697551
30
0
11
30.532029
21
15.803859
31
0
39
0
210
0
220
0
230
1
0
LINE
5
8C
100
AcDbEntity
8
1
62
256
6
ByLayer
370
-1
48
1
60
0
100
AcDbLine
10
31.810645
20
18.030369
30
0
11
31.604851
21
18.123557
31
0
39
0
210
0
220
0
230
1
0
LINE
5
8D
100
AcDbEntity
8
1
62
256
6
ByLayer
370
-1
48
1
60
0
100
AcDbLine
10
30.766795
20
17.932988
30
0
11
30.532029
21
18.039296
31
0
39
0
210
0
220
0
230
1
0
LINE
5
8E
100
AcDbEntity
8
1
62
256
6
ByLayer
370
-1
48
1
60
0
100
AcDbLine
10
33.007128
20
17.203894
30
0
11
32.931427
21
17.238174
31
0
39
0
210
0
220
0
230
1
0
LINE
5
8F
100
AcDbEntity
8
1
62
256
6
ByLayer
370
-1
48
1
60
0
100
AcDbLine
10
32.140306
20
15.470164
30
0
11
31.974388
21
15.545295
31
0
39
0
210
0
220
0
230
1
0
LINE
5
90
100
AcDbEntity
8
1
62
256
6
ByLayer
370
-1
48
1
60
0
100
AcDbLine
10
31.441078
20
18.12112
30
0
11
31.646871
21
18.027932
31
0
39
0
210
0
220
0
230
1
0
MTEXT
5
13A
100
AcDbEntity
8
SK6
62
256
6
ByLayer
370
-1
48
1
60
0
100
AcDbMText
10
0.873386
20
-32.938367
30
0
210
0
220
0
230
1
1
\W00.730;\fsimplex.shx,bigfont.shx;R390-044Q16-17M\P
40
3.5
41
0
44
1.084337
50
0
71
7
72
5
7
DEFAULT
0
DIMENSION
5
14B
100
AcDbEntity
8
2
62
256
6
ByLayer
370
-3
48
1
60
0
100
AcDbDimension
2
DimnDraft3D1
10
0
20
41.75
30
0
11
16.346711
21
41.75
31
0
70
32
71
5
72
1
41
1
210
0
220
0
230
1
3
Standard
100
AcDbAlignedDimension
13
40
23
24
33
0
14
0
24
19
34
0
50
0
100
AcDbRotatedDimension
1001
ACAD
1000
DSTYLE
1002
{
1070
   279
1070
     0
1070
   172
1070
     1
1070
   173
1070
     1
1070
   340
1005
13B
1070
   271
1070
     2
1070
   272
1070
     2
1070
    77
1070
     1
1070
    73
1070
     0
1070
   171
1070
     4
1070
   274
1070
     4
1070
   177
1070
     2
1070
   176
1070
     2
1070
   178
1070
     7
1070
    78
1070
     8
1070
    41
1041
3.175
1070
   147
1041
2.25
1070
    42
1041
2.0
1070
    44
1041
2.0
1070
   140
1041
4.5
1070
   343
1005
14C
1070
   344
1005
14C
1002
}
0
DIMENSION
5
160
100
AcDbEntity
8
2
62
256
6
ByLayer
370
-3
48
1
60
0
100
AcDbDimension
2
DimnDraft3D2
10
23.8
20
31.75
30
0
11
45
21
31.75
31
0
70
32
71
5
72
1
41
1
210
0
220
0
230
1
3
Standard
100
AcDbAlignedDimension
13
40
23
24
33
0
14
23.8
24
24
34
0
50
0
100
AcDbRotatedDimension
1001
ACAD
1000
DSTYLE
1002
{
1070
   279
1070
     0
1070
   172
1070
     1
1070
   173
1070
     1
1070
   340
1005
13B
1070
   271
1070
     2
1070
   272
1070
     2
1070
    77
1070
     1
1070
    73
1070
     0
1070
   171
1070
     4
1070
   274
1070
     4
1070
   177
1070
     2
1070
   176
1070
     2
1070
   178
1070
     7
1070
    78
1070
     8
1070
    41
1041
3.175
1070
   147
1041
2.25
1070
    42
1041
2.0
1070
    44
1041
2.0
1070
   140
1041
4.5
1070
   343
1005
14C
1070
   344
1005
14C
1002
}
0
DIMENSION
5
16F
100
AcDbEntity
8
SK2
62
256
6
ByLayer
370
-3
48
1
60
0
100
AcDbDimension
2
DimnDraft3D3
10
-9.75
20
-8
30
0
11
-9.75
21
-5.257895
31
0
70
32
71
5
72
1
41
1
210
0
220
0
230
1
3
Standard
100
AcDbAlignedDimension
13
-2
23
8
33
0
14
-2
24
-8
34
0
50
90
100
AcDbRotatedDimension
1001
ACAD
1000
DSTYLE
1002
{
1070
    74
1070
     0
1070
   279
1070
     0
1070
   172
1070
     1
1070
   173
1070
     1
1070
   340
1005
13B
1070
   271
1070
     2
1070
   272
1070
     2
1070
    77
1070
     1
1070
    73
1070
     0
1070
   171
1070
     4
1070
   274
1070
     4
1070
   177
1070
     2
1070
   176
1070
     2
1070
   178
1070
     7
1070
    78
1070
     8
1070
    41
1041
3.175
1070
   147
1041
2.25
1070
    42
1041
2.0
1070
    44
1041
2.0
1070
   140
1041
4.5
1070
   343
1005
14C
1070
   344
1005
14C
1002
}
0
DIMENSION
5
17D
100
AcDbEntity
8
2
62
256
6
ByLayer
370
-3
48
1
60
0
100
AcDbDimension
2
DimnDraft3D4
10
54.25
20
-22
30
0
11
54.25
21
-6.656743
31
0
70
32
71
5
72
1
41
1
210
0
220
0
230
1
3
Standard
100
AcDbAlignedDimension
13
42
23
22
33
0
14
42
24
-22
34
0
50
90
100
AcDbRotatedDimension
1001
ACAD
1000
DSTYLE
1002
{
1070
    74
1070
     0
1070
   279
1070
     0
1070
   172
1070
     1
1070
   173
1070
     1
1070
   340
1005
13B
1070
   271
1070
     2
1070
   272
1070
     2
1070
    77
1070
     1
1070
    73
1070
     0
1070
   171
1070
     4
1070
   274
1070
     4
1070
   177
1070
     2
1070
   176
1070
     2
1070
   178
1070
     7
1070
    78
1070
     8
1070
    41
1041
3.175
1070
   147
1041
2.25
1070
    42
1041
2.0
1070
    44
1041
2.0
1070
   140
1041
4.5
1070
   343
1005
14C
1070
   344
1005
14C
1002
}
0
ENDSEC
0
SECTION
2
OBJECTS
0
DICTIONARY
5
1cb
330
0
100
AcDbDictionary
280
0
281
1
3
ACAD_GROUP
350
1cc
3
ACAD_MLINESTYLE
350
1cd
0
DICTIONARY
5
1cc
330
0
100
AcDbDictionary
280
0
281
1
0
DICTIONARY
5
1cd
330
0
100
AcDbDictionary
280
0
281
1
3
Standard
350
18
0
MLINESTYLE
5
18
330
1cd
100
AcDbMlineStyle
2
Standard
70
0
3

62
256
51
90
52
90
71
2
49
-0.5
62
256
6
ByLayer
49
0.5
62
256
6
ByLayer
0
RASTERVARIABLES
5
1ba
330

100
AcDbRasterVariables
90
0
70
1
71
1
72
1
0
ENDSEC
0
EOF
