0
SECTION
2
HEADER
9
$ACADVER
1
AC1015
9
$DWGCODEPAGE
3
ANSI_1252
9
$HANDSEED
5
3df
9
$ANGBASE
50
0
9
$ANGDIR
70
0
9
$ATTMODE
70
1
9
$AUNITS
70
0
9
$AUPREC
70
0
9
$CECOLOR
62
256
9
$CELTSCALE
40
1
9
$CELTYPE
6
ByLayer
9
$CELWEIGHT
370
-1
9
$CLAYER
8
0
9
$CMLJUST
70
0
9
$CMLSCALE
40
1
9
$CMLSTYLE
2
Standard
9
$DIMSTYLE
2
Standard
9
$TEXTSIZE
40
0.2
9
$TEXTSTYLE
7
Standard
9
$LUNITS
70
2
9
$LUPREC
70
4
9
$EXTNAMES
290
1
9
$INSUNITS
70
4
9
$LTSCALE
40
1
9
$LWDISPLAY
290
0
9
$PDMODE
70
0
9
$PDSIZE
40
0
9
$PLINEGEN
70
0
0
ENDSEC
0
SECTION
2
CLASSES
0
CLASS
1
RASTERVARIABLES
2
AcDbRasterVariables
3
ISM
90
0
280
0
281
0
0
ENDSEC
0
SECTION
2
TABLES
0
TABLE
2
VPORT
5
3d5
100
AcDbSymbolTable
0
VPORT
5
1
100
AcDbSymbolTableRecord
100
AcDbViewportTableRecord
2
*Active
70
0
10
0
20
0
11
1
21
1
12
-1
22
1
13
0
23
0
14
0.5
24
0.5
15
10
25
10
16
0
26
0
36
1
17
0
27
0
37
0
0
ENDTAB
0
TABLE
2
LTYPE
5
3d6
100
AcDbSymbolTable
0
LTYPE
5
14
100
AcDbSymbolTableRecord
100
AcDbLinetypeTableRecord
70
0
2
ByBlock
3

72
65
73
0
40
0
0
LTYPE
5
15
100
AcDbSymbolTableRecord
100
AcDbLinetypeTableRecord
70
0
2
ByLayer
3

72
65
73
0
40
0
0
LTYPE
5
16
100
AcDbSymbolTableRecord
100
AcDbLinetypeTableRecord
70
0
2
CONTINUOUS
3
Solid line
72
65
73
0
40
0
0
LTYPE
5
3C
100
AcDbSymbolTableRecord
100
AcDbLinetypeTableRecord
70
0
2
DASHED
3
__ __ __ __ __ __ __ __ __
72
65
73
2
40
25.72
49
12.86
74
0
49
-12.86
74
0
0
LTYPE
5
3D
100
AcDbSymbolTableRecord
100
AcDbLinetypeTableRecord
70
0
2
HIDDEN
3
_ _ _ _ _ _ _ _ _ _ _ _ _ _ _
72
65
73
2
40
0.5
49
0.25
74
0
49
-0.25
74
0
0
LTYPE
5
3E
100
AcDbSymbolTableRecord
100
AcDbLinetypeTableRecord
70
0
2
PHANTOM
3
____ _ _ ____ _ _ _____ _ _ ____
72
65
73
6
40
50.5
49
18
74
0
49
-6.5
74
0
49
6.5
74
0
49
-6.5
74
0
49
6.5
74
0
49
-6.5
74
0
0
LTYPE
5
3F
100
AcDbSymbolTableRecord
100
AcDbLinetypeTableRecord
70
0
2
CENTER
3
____ _ ____ _ ____ _ ____
72
65
73
4
40
47.5
49
22
74
0
49
-8.5
74
0
49
8.5
74
0
49
-8.5
74
0
0
LTYPE
5
40
100
AcDbSymbolTableRecord
100
AcDbLinetypeTableRecord
70
0
2
DOT
3
.........................
72
65
73
2
40
10
49
0
74
0
49
-10
74
0
0
LTYPE
5
41
100
AcDbSymbolTableRecord
100
AcDbLinetypeTableRecord
70
0
2
DASHDOT
3
_._._._._._._._._._._._._._._._.
72
65
73
4
40
70
49
31
74
0
49
-13
74
0
49
13
74
0
49
-13
74
0
0
ENDTAB
0
TABLE
2
LAYER
5
3d7
100
AcDbSymbolTable
0
LAYER
5
10
100
AcDbSymbolTableRecord
100
AcDbLayerTableRecord
2
0
70
0
62
7
6
CONTINUOUS
290
1
370
-3
390
0
0
LAYER
5
43
100
AcDbSymbolTableRecord
100
AcDbLayerTableRecord
2
2
70
0
62
7
6
CONTINUOUS
290
1
370
-3
390
0
0
LAYER
5
45
100
AcDbSymbolTableRecord
100
AcDbLayerTableRecord
2
80
70
0
62
-6
6
CONTINUOUS
290
1
370
-3
390
0
0
LAYER
5
47
100
AcDbSymbolTableRecord
100
AcDbLayerTableRecord
2
81
70
0
62
-3
6
CONTINUOUS
290
1
370
-3
390
0
0
LAYER
5
49
100
AcDbSymbolTableRecord
100
AcDbLayerTableRecord
2
1
70
0
62
4
6
CONTINUOUS
290
1
370
-3
390
0
0
LAYER
5
3c3
100
AcDbSymbolTableRecord
100
AcDbLayerTableRecord
2
SK6
70
0
62
5
6
CONTINUOUS
290
1
370
-3
390
0
0
LAYER
5
3c4
100
AcDbSymbolTableRecord
100
AcDbLayerTableRecord
2
SK2
70
0
62
7
6
CONTINUOUS
290
1
370
-3
390
0
0
ENDTAB
0
TABLE
2
STYLE
5
3d8
100
AcDbSymbolTable
0
STYLE
5
11
100
AcDbSymbolTableRecord
100
AcDbTextStyleTableRecord
2
Standard
3
txt
70
0
71
0
40
0
41
1
42
0
50
0
0
STYLE
5
343
100
AcDbSymbolTableRecord
100
AcDbTextStyleTableRecord
2
DEFAULT
3
simplex.shx
70
0
71
0
40
0
41
1
42
0
50
0
0
STYLE
5
344
100
AcDbSymbolTableRecord
100
AcDbTextStyleTableRecord
2
DWGDirectTextStyle
3
SIMPLEX
70
0
71
0
40
0
41
1
42
0
50
0
0
ENDTAB
0
TABLE
2
DIMSTYLE
5
3d9
100
AcDbSymbolTable
100
AcDbDimStyleTable
0
DIMSTYLE
105
27
100
AcDbSymbolTableRecord
100
AcDbDimStyleTableRecord
2
Standard
70
0
3
<>
41
0.18
42
0.0625
44
0.18
140
0.18
147
0.09
73
0
74
0
77
1
271
2
275
0
278
52
280
0
340
11
0
ENDTAB
0
TABLE
2
VIEW
5
3da
100
AcDbSymbolTable
0
ENDTAB
0
TABLE
2
UCS
5
3db
100
AcDbSymbolTable
0
ENDTAB
0
TABLE
2
APPID
5
3dc
100
AcDbSymbolTable
0
APPID
5
12
100
AcDbSymbolTableRecord
100
AcDbRegAppTableRecord
2
ACAD
70
0
0
ENDTAB
0
TABLE
2
BLOCK_RECORD
5
3dd
100
AcDbSymbolTable
0
BLOCK_RECORD
5
1F
100
AcDbSymbolTableRecord
100
AcDbBlockTableRecord
2
*Model_Space
340
0
70
0
0
BLOCK_RECORD
5
1B
100
AcDbSymbolTableRecord
100
AcDbBlockTableRecord
2
*Paper_Space
340
0
70
0
0
BLOCK_RECORD
5
23
100
AcDbSymbolTableRecord
100
AcDbBlockTableRecord
2
*Paper_Space0
340
0
70
0
0
BLOCK_RECORD
5
346
100
AcDbSymbolTableRecord
100
AcDbBlockTableRecord
2
DimnDraft3D1
340
0
70
0
0
BLOCK_RECORD
5
354
100
AcDbSymbolTableRecord
100
AcDbBlockTableRecord
2
_CLOSED
340
0
70
0
0
BLOCK_RECORD
5
35B
100
AcDbSymbolTableRecord
100
AcDbBlockTableRecord
2
DimnDraft3D2
340
0
70
0
0
BLOCK_RECORD
5
369
100
AcDbSymbolTableRecord
100
AcDbBlockTableRecord
2
DimnDraft3D3
340
0
70
0
0
BLOCK_RECORD
5
378
100
AcDbSymbolTableRecord
100
AcDbBlockTableRecord
2
DimnDraft3D4
340
0
70
0
0
ENDTAB
0
ENDSEC
0
SECTION
2
BLOCKS
0
BLOCK
5
20
100
AcDbEntity
8
0
100
AcDbBlockBegin
2
*Model_Space
70
0
10
0
20
0
30
0
3
*Model_Space
0
ENDBLK
5
21
100
AcDbEntity
8
0
100
AcDbBlockEnd
0
BLOCK
5
1C
100
AcDbEntity
8
0
100
AcDbBlockBegin
2
*Paper_Space
70
0
10
0
20
0
30
0
3
*Paper_Space
0
ENDBLK
5
1D
100
AcDbEntity
8
0
100
AcDbBlockEnd
0
BLOCK
5
24
100
AcDbEntity
8
0
100
AcDbBlockBegin
2
*Paper_Space0
70
0
10
0
20
0
30
0
3
*Paper_Space0
0
ENDBLK
5
25
100
AcDbEntity
8
0
100
AcDbBlockEnd
0
BLOCK
5
351
100
AcDbEntity
8
0
100
AcDbBlockBegin
2
DimnDraft3D1
70
0
10
0
20
0
30
0
3
DimnDraft3D1
0
MTEXT
5
347
100
AcDbEntity
8
2
62
256
6
ByLayer
370
-1
48
1
60
0
100
AcDbMText
10
23.565789
20
40.875
30
0
210
0
220
0
230
1
1
\W01.000;\fsimplex.shx,bigfont.shx;56.7\P
40
4.5
41
0
44
1.084337
50
0
71
7
72
5
7
DEFAULT
0
LINE
5
348
100
AcDbEntity
8
2
62
256
6
ByLayer
370
-1
48
1
60
0
100
AcDbLine
10
56.7
20
22
30
0
11
56.7
21
41.75
31
0
39
0
210
0
220
0
230
1
0
LINE
5
349
100
AcDbEntity
8
2
62
256
6
ByLayer
370
-1
48
1
60
0
100
AcDbLine
10
0
20
20.583932
30
0
11
0
21
41.75
31
0
39
0
210
0
220
0
230
1
0
LINE
5
34A
100
AcDbEntity
8
2
62
256
6
ByLayer
370
-1
48
1
60
0
100
AcDbLine
10
56.7
20
39.75
30
0
11
0
21
39.75
31
0
39
0
210
0
220
0
230
1
0
LINE
5
34B
100
AcDbEntity
8
2
62
256
6
ByLayer
370
-1
48
1
60
0
100
AcDbLine
10
56.7
20
39.75
30
0
11
53.525002
21
39.332003
31
0
39
0
210
0
220
0
230
1
0
LINE
5
34C
100
AcDbEntity
8
2
62
256
6
ByLayer
370
-1
48
1
60
0
100
AcDbLine
10
56.7
20
39.75
30
0
11
53.524998
21
40.167997
31
0
39
0
210
0
220
0
230
1
0
LINE
5
34D
100
AcDbEntity
8
2
62
256
6
ByLayer
370
-1
48
1
60
0
100
AcDbLine
10
53.525002
20
39.332003
30
0
11
53.524998
21
40.167997
31
0
39
0
210
0
220
0
230
1
0
LINE
5
34E
100
AcDbEntity
8
2
62
256
6
ByLayer
370
-1
48
1
60
0
100
AcDbLine
10
0
20
39.75
30
0
11
3.174998
21
40.167997
31
0
39
0
210
0
220
0
230
1
0
LINE
5
34F
100
AcDbEntity
8
2
62
256
6
ByLayer
370
-1
48
1
60
0
100
AcDbLine
10
0
20
39.75
30
0
11
3.175002
21
39.332003
31
0
39
0
210
0
220
0
230
1
0
LINE
5
350
100
AcDbEntity
8
2
62
256
6
ByLayer
370
-1
48
1
60
0
100
AcDbLine
10
3.174998
20
40.167997
30
0
11
3.175002
21
39.332003
31
0
39
0
210
0
220
0
230
1
0
ENDBLK
5
352
100
AcDbEntity
8
0
100
AcDbBlockEnd
0
BLOCK
5
355
100
AcDbEntity
8
0
100
AcDbBlockBegin
2
_CLOSED
70
0
10
0
20
0
30
0
3
_CLOSED
0
LINE
5
357
100
AcDbEntity
8
0
62
256
6
ByLayer
370
-2
48
1
60
0
100
AcDbLine
10
-1
20
0.166667
30
0
11
0
21
0
31
0
39
0
210
0
220
0
230
1
0
LINE
5
358
100
AcDbEntity
8
0
62
256
6
ByLayer
370
-2
48
1
60
0
100
AcDbLine
10
0
20
0
30
0
11
-1
21
-0.166667
31
0
39
0
210
0
220
0
230
1
0
LINE
5
359
100
AcDbEntity
8
0
62
256
6
ByLayer
370
-2
48
1
60
0
100
AcDbLine
10
-1
20
0.166667
30
0
11
-1
21
-0.166667
31
0
39
0
210
0
220
0
230
1
0
LINE
5
35A
100
AcDbEntity
8
0
62
256
6
ByLayer
370
-2
48
1
60
0
100
AcDbLine
10
0
20
0
30
0
11
-1
21
0
31
0
39
0
210
0
220
0
230
1
0
ENDBLK
5
356
100
AcDbEntity
8
0
100
AcDbBlockEnd
0
BLOCK
5
366
100
AcDbEntity
8
0
100
AcDbBlockBegin
2
DimnDraft3D2
70
0
10
0
20
0
30
0
3
DimnDraft3D2
0
MTEXT
5
35C
100
AcDbEntity
8
2
62
256
6
ByLayer
370
-1
48
1
60
0
100
AcDbMText
10
33.596272
20
28.875
30
0
210
0
220
0
230
1
1
\W01.000;\fsimplex.shx,bigfont.shx;36.6\P
40
4.5
41
0
44
1.084337
50
0
71
7
72
5
7
DEFAULT
0
LINE
5
35D
100
AcDbEntity
8
2
62
256
6
ByLayer
370
-1
48
1
60
0
100
AcDbLine
10
56.7
20
22
30
0
11
56.7
21
29.75
31
0
39
0
210
0
220
0
230
1
0
LINE
5
35E
100
AcDbEntity
8
2
62
256
6
ByLayer
370
-1
48
1
60
0
100
AcDbLine
10
20.060965
20
22
30
0
11
20.060965
21
29.75
31
0
39
0
210
0
220
0
230
1
0
LINE
5
35F
100
AcDbEntity
8
2
62
256
6
ByLayer
370
-1
48
1
60
0
100
AcDbLine
10
56.7
20
27.75
30
0
11
20.060965
21
27.75
31
0
39
0
210
0
220
0
230
1
0
LINE
5
360
100
AcDbEntity
8
2
62
256
6
ByLayer
370
-1
48
1
60
0
100
AcDbLine
10
56.7
20
27.75
30
0
11
53.525002
21
27.332003
31
0
39
0
210
0
220
0
230
1
0
LINE
5
361
100
AcDbEntity
8
2
62
256
6
ByLayer
370
-1
48
1
60
0
100
AcDbLine
10
56.7
20
27.75
30
0
11
53.524998
21
28.167997
31
0
39
0
210
0
220
0
230
1
0
LINE
5
362
100
AcDbEntity
8
2
62
256
6
ByLayer
370
-1
48
1
60
0
100
AcDbLine
10
53.525002
20
27.332003
30
0
11
53.524998
21
28.167997
31
0
39
0
210
0
220
0
230
1
0
LINE
5
363
100
AcDbEntity
8
2
62
256
6
ByLayer
370
-1
48
1
60
0
100
AcDbLine
10
20.060965
20
27.75
30
0
11
23.235964
21
28.167997
31
0
39
0
210
0
220
0
230
1
0
LINE
5
364
100
AcDbEntity
8
2
62
256
6
ByLayer
370
-1
48
1
60
0
100
AcDbLine
10
20.060965
20
27.75
30
0
11
23.235967
21
27.332003
31
0
39
0
210
0
220
0
230
1
0
LINE
5
365
100
AcDbEntity
8
2
62
256
6
ByLayer
370
-1
48
1
60
0
100
AcDbLine
10
23.235964
20
28.167997
30
0
11
23.235967
21
27.332003
31
0
39
0
210
0
220
0
230
1
0
ENDBLK
5
367
100
AcDbEntity
8
0
100
AcDbBlockEnd
0
BLOCK
5
375
100
AcDbEntity
8
0
100
AcDbBlockBegin
2
DimnDraft3D3
70
0
10
0
20
0
30
0
3
DimnDraft3D3
0
MTEXT
5
36A
100
AcDbEntity
8
SK2
62
256
6
ByLayer
370
-1
48
1
60
0
100
AcDbMText
10
-8.875
20
-3.739145
30
0
210
0
220
0
230
1
1
\W01.000;\fsimplex.shx,bigfont.shx;%%c16\P
40
4.5
41
0
44
1.084337
50
90
71
7
72
5
7
DEFAULT
0
LINE
5
36C
100
AcDbEntity
8
SK2
62
256
6
ByLayer
370
-1
48
1
60
0
100
AcDbLine
10
-2
20
8
30
0
11
-9.75
21
8
31
0
39
0
210
0
220
0
230
1
0
LINE
5
36D
100
AcDbEntity
8
SK2
62
256
6
ByLayer
370
-1
48
1
60
0
100
AcDbLine
10
-2
20
-8
30
0
11
-9.75
21
-8
31
0
39
0
210
0
220
0
230
1
0
LINE
5
36E
100
AcDbEntity
8
SK2
62
256
6
ByLayer
370
-1
48
1
60
0
100
AcDbLine
10
-7.75
20
19.25
30
0
11
-7.75
21
-19.25
31
0
39
0
210
0
220
0
230
1
0
LINE
5
36F
100
AcDbEntity
8
SK2
62
256
6
ByLayer
370
-1
48
1
60
0
100
AcDbLine
10
-7.75
20
8
30
0
11
-8.167997
21
11.174998
31
0
39
0
210
0
220
0
230
1
0
LINE
5
370
100
AcDbEntity
8
SK2
62
256
6
ByLayer
370
-1
48
1
60
0
100
AcDbLine
10
-7.75
20
8
30
0
11
-7.332003
21
11.175002
31
0
39
0
210
0
220
0
230
1
0
LINE
5
371
100
AcDbEntity
8
SK2
62
256
6
ByLayer
370
-1
48
1
60
0
100
AcDbLine
10
-8.167997
20
11.174998
30
0
11
-7.332003
21
11.175002
31
0
39
0
210
0
220
0
230
1
0
LINE
5
372
100
AcDbEntity
8
SK2
62
256
6
ByLayer
370
-1
48
1
60
0
100
AcDbLine
10
-7.75
20
-8
30
0
11
-7.332003
21
-11.174998
31
0
39
0
210
0
220
0
230
1
0
LINE
5
373
100
AcDbEntity
8
SK2
62
256
6
ByLayer
370
-1
48
1
60
0
100
AcDbLine
10
-7.75
20
-8
30
0
11
-8.167997
21
-11.175002
31
0
39
0
210
0
220
0
230
1
0
LINE
5
374
100
AcDbEntity
8
SK2
62
256
6
ByLayer
370
-1
48
1
60
0
100
AcDbLine
10
-7.332003
20
-11.174998
30
0
11
-8.167997
21
-11.175002
31
0
39
0
210
0
220
0
230
1
0
ENDBLK
5
376
100
AcDbEntity
8
0
100
AcDbBlockEnd
0
BLOCK
5
383
100
AcDbEntity
8
0
100
AcDbBlockBegin
2
DimnDraft3D4
70
0
10
0
20
0
30
0
3
DimnDraft3D4
0
MTEXT
5
379
100
AcDbEntity
8
2
62
256
6
ByLayer
370
-1
48
1
60
0
100
AcDbMText
10
67.825
20
-7.787664
30
0
210
0
220
0
230
1
1
\W01.000;\fsimplex.shx,bigfont.shx;%%c40.0\P
40
4.5
41
0
44
1.084337
50
90
71
7
72
5
7
DEFAULT
0
LINE
5
37A
100
AcDbEntity
8
2
62
256
6
ByLayer
370
-1
48
1
60
0
100
AcDbLine
10
58.7
20
20
30
0
11
70.95
21
20
31
0
39
0
210
0
220
0
230
1
0
LINE
5
37B
100
AcDbEntity
8
2
62
256
6
ByLayer
370
-1
48
1
60
0
100
AcDbLine
10
58.7
20
-20
30
0
11
70.95
21
-20
31
0
39
0
210
0
220
0
230
1
0
LINE
5
37C
100
AcDbEntity
8
2
62
256
6
ByLayer
370
-1
48
1
60
0
100
AcDbLine
10
68.95
20
20
30
0
11
68.95
21
-20
31
0
39
0
210
0
220
0
230
1
0
LINE
5
37D
100
AcDbEntity
8
2
62
256
6
ByLayer
370
-1
48
1
60
0
100
AcDbLine
10
68.95
20
20
30
0
11
69.367997
21
16.825002
31
0
39
0
210
0
220
0
230
1
0
LINE
5
37E
100
AcDbEntity
8
2
62
256
6
ByLayer
370
-1
48
1
60
0
100
AcDbLine
10
68.95
20
20
30
0
11
68.532003
21
16.824998
31
0
39
0
210
0
220
0
230
1
0
LINE
5
37F
100
AcDbEntity
8
2
62
256
6
ByLayer
370
-1
48
1
60
0
100
AcDbLine
10
69.367997
20
16.825002
30
0
11
68.532003
21
16.824998
31
0
39
0
210
0
220
0
230
1
0
LINE
5
380
100
AcDbEntity
8
2
62
256
6
ByLayer
370
-1
48
1
60
0
100
AcDbLine
10
68.95
20
-20
30
0
11
68.532003
21
-16.825002
31
0
39
0
210
0
220
0
230
1
0
LINE
5
381
100
AcDbEntity
8
2
62
256
6
ByLayer
370
-1
48
1
60
0
100
AcDbLine
10
68.95
20
-20
30
0
11
69.367997
21
-16.824998
31
0
39
0
210
0
220
0
230
1
0
LINE
5
382
100
AcDbEntity
8
2
62
256
6
ByLayer
370
-1
48
1
60
0
100
AcDbLine
10
68.532003
20
-16.825002
30
0
11
69.367997
21
-16.824998
31
0
39
0
210
0
220
0
230
1
0
ENDBLK
5
384
100
AcDbEntity
8
0
100
AcDbBlockEnd
0
ENDSEC
0
SECTION
2
ENTITIES
0
ARC
5
F0
100
AcDbEntity
8
1
62
256
6
ByLayer
370
-1
48
1
60
0
100
AcDbCircle
39
0
10
42.991797
20
5.570596
30
0
40
4
210
0
220
0
230
1
100
AcDbArc
50
272.409583
51
279.787941
0
ARC
5
F1
100
AcDbEntity
8
1
62
256
6
ByLayer
370
-1
48
1
60
0
100
AcDbCircle
39
0
10
42.991797
20
5.570596
30
0
40
4
210
0
220
0
230
1
100
AcDbArc
50
232.312657
51
239.691015
0
ARC
5
F2
100
AcDbEntity
8
1
62
256
6
ByLayer
370
-1
48
1
60
0
100
AcDbCircle
39
0
10
0.5
20
-18.083933
30
0
40
0.5
210
0
220
0
230
1
100
AcDbArc
50
180
51
270
0
ARC
5
F3
100
AcDbEntity
8
1
62
256
6
ByLayer
370
-1
48
1
60
0
100
AcDbCircle
39
0
10
0.5
20
18.083933
30
0
40
0.5
210
0
220
0
230
1
100
AcDbArc
50
90
51
180
0
ARC
5
F4
100
AcDbEntity
8
1
62
256
6
ByLayer
370
-1
48
1
60
0
100
AcDbCircle
39
0
10
55.317121
20
-18.477129
30
0
40
0.8
210
0
220
0
230
1
100
AcDbArc
50
268.405826
51
0
0
ELLIPSE
5
F5
100
AcDbEntity
8
1
62
256
6
ByLayer
370
-1
48
1
60
0
100
AcDbEllipse
10
34.603618
20
-14.321235
30
0
11
0.934254266744874
21
-0.830463102773987
31
0
210
0
220
0
230
1
40
0.933861
41
0.477446111045149
42
0.760670601974899
0
ELLIPSE
5
F6
100
AcDbEntity
8
1
62
256
6
ByLayer
370
-1
48
1
60
0
100
AcDbEllipse
10
34.603618
20
-14.321235
30
0
11
0.934254266744874
21
-0.830463102773987
31
0
210
0
220
0
230
1
40
0.933861
41
0.760670601974899
42
2.49862484338945
0
ELLIPSE
5
F7
100
AcDbEntity
8
1
62
256
6
ByLayer
370
-1
48
1
60
0
100
AcDbEllipse
10
56.606013
20
-9.238563
30
0
11
1.91522766958051
21
0.565523638270559
31
0
210
0
220
0
230
1
40
0.544097
41
-2.42090942732564
42
-2.20198469208752
0
ELLIPSE
5
F8
100
AcDbEntity
8
1
62
256
6
ByLayer
370
-1
48
1
60
0
100
AcDbEllipse
10
20.07497
20
12.750979
30
0
11
0.132221379076055
21
-2.99708483478783
31
0
210
0
220
0
230
1
40
0.123054
41
0.730045430278192
42
1.19321950729095
0
ELLIPSE
5
F9
100
AcDbEntity
8
1
62
256
6
ByLayer
370
-1
48
1
60
0
100
AcDbEllipse
10
20.725936
20
-10.421117
30
0
11
-1.54715646442563
21
2.37838113218149
31
0
210
0
220
0
230
1
40
0.604089
41
0.501257074427252
42
0.588285052784029
0
ELLIPSE
5
FA
100
AcDbEntity
8
1
62
256
6
ByLayer
370
-1
48
1
60
0
100
AcDbEllipse
10
-19.221251
20
9.926092
30
0
11
71.071564928625
21
-9.12931658195355
31
0
210
0
220
0
230
-1
40
0.017161
41
0.415149057033773
42
0.591233017671993
0
ELLIPSE
5
FB
100
AcDbEntity
8
1
62
256
6
ByLayer
370
-1
48
1
60
0
100
AcDbEllipse
10
53.238656
20
0.47138
30
0
11
1.5
21
0
31
0
210
0
220
0
230
1
40
0.899294
41
-2.99726743455679
42
-2.79580609952246
0
ELLIPSE
5
FC
100
AcDbEntity
8
1
62
256
6
ByLayer
370
-1
48
1
60
0
100
AcDbEllipse
10
72.177782
20
-2.020461
30
0
11
80.7074707856948
21
-17.9468291093622
31
0
210
0
220
0
230
-1
40
0.101327
41
1.75895688229656
42
1.84886451521028
0
ELLIPSE
5
FD
100
AcDbEntity
8
1
62
256
6
ByLayer
370
-1
48
1
60
0
100
AcDbEllipse
10
19.320159
20
-10.394364
30
0
11
1.44730006299037
21
2.42649963034243
31
0
210
0
220
0
230
1
40
0.490711
41
1.25285984379569
42
-1.96633507227382
0
ELLIPSE
5
FE
100
AcDbEntity
8
1
62
256
6
ByLayer
370
-1
48
1
60
0
100
AcDbEllipse
10
-36.939161
20
9.445242
30
0
11
71.0717375118368
21
3.52132893892021
31
0
210
0
220
0
230
-1
40
0.002197
41
0.412316918164225
42
0.522946853127163
0
ELLIPSE
5
FF
100
AcDbEntity
8
1
62
256
6
ByLayer
370
-1
48
1
60
0
100
AcDbEllipse
10
49.667028
20
0.117056
30
0
11
4.25130011283705
21
19.1151912625812
31
0
210
0
220
0
230
-1
40
0.101983
41
1.44407004108795
42
1.53160313692452
0
ELLIPSE
5
100
100
AcDbEntity
8
1
62
256
6
ByLayer
370
-1
48
1
60
0
100
AcDbEllipse
10
51.499623
20
13.633789
30
0
11
7.60934127527283E-17
21
1.24274077976514
31
0
210
0
220
0
230
1
40
0.995037
41
-2.77708747436488
42
-2.30818583924295
0
ELLIPSE
5
101
100
AcDbEntity
8
1
62
256
6
ByLayer
370
-1
48
1
60
0
100
AcDbEllipse
10
47.481823
20
-4.218905
30
0
11
1.19696240310791
21
-0.360251308874966
31
0
210
0
220
0
230
1
40
0.586979
41
2.1827191119145
42
2.3821548725245
0
ELLIPSE
5
102
100
AcDbEntity
8
1
62
256
6
ByLayer
370
-1
48
1
60
0
100
AcDbEllipse
10
51.746336
20
13.718218
30
0
11
-0.425324444468402
21
1.17541444475455
31
0
210
0
220
0
230
1
40
0.968726
41
1.83072148445041
42
2.81182281480274
0
ELLIPSE
5
103
100
AcDbEntity
8
1
62
256
6
ByLayer
370
-1
48
1
60
0
100
AcDbEllipse
10
44.175381
20
-17.846985
30
0
11
-1.21970452478631
21
-0.873109885533207
31
0
210
0
220
0
230
1
40
0.912892
41
2.56276912806469
42
2.69635676840376
0
ELLIPSE
5
104
100
AcDbEntity
8
1
62
256
6
ByLayer
370
-1
48
1
60
0
100
AcDbEllipse
10
35.453913
20
6.954236
30
0
11
2.90994229119758
21
-0.722817311383391
31
0
210
0
220
0
230
1
40
0.168992
41
-0.383586226251079
42
-0.0513891755465484
0
ELLIPSE
5
105
100
AcDbEntity
8
1
62
256
6
ByLayer
370
-1
48
1
60
0
100
AcDbEllipse
10
2.855658
20
7.211367
30
0
11
94.3982313784426
21
-16.4422416673195
31
0
210
0
220
0
230
-1
40
0.152613
41
-1.21962168923842
42
-1.20956650034888
0
ELLIPSE
5
106
100
AcDbEntity
8
1
62
256
6
ByLayer
370
-1
48
1
60
0
100
AcDbEllipse
10
17.925235
20
0
30
0
11
4.4398355469055
21
18.5797194786185
31
0
210
0
220
0
230
-1
40
0.089123
41
2.02706883910812
42
2.18755709299251
0
ELLIPSE
5
107
100
AcDbEntity
8
1
62
256
6
ByLayer
370
-1
48
1
60
0
100
AcDbEllipse
10
35.57398
20
6.77817
30
0
11
-2.4862290800305
21
-0.887297934671752
31
0
210
0
220
0
230
1
40
0.979467
41
1.75777950289164
42
2.52739764222315
0
ELLIPSE
5
108
100
AcDbEntity
8
1
62
256
6
ByLayer
370
-1
48
1
60
0
100
AcDbEllipse
10
51.513008
20
13.633789
30
0
11
-0.425324444468402
21
1.17541444475455
31
0
210
0
220
0
230
1
40
0.968726
41
1.86327336576313
42
2.45124177993153
0
ELLIPSE
5
109
100
AcDbEntity
8
1
62
256
6
ByLayer
370
-1
48
1
60
0
100
AcDbEllipse
10
22.746168
20
12.395112
30
0
11
1.90876204671388
21
2.31443890587432
31
0
210
0
220
0
230
1
40
0.597239
41
-2.76609483034811
42
-1.6845777808178
0
ELLIPSE
5
10A
100
AcDbEntity
8
1
62
256
6
ByLayer
370
-1
48
1
60
0
100
AcDbEllipse
10
20.725936
20
13.049055
30
0
11
-1.18125492727989
21
2.57973384908364
31
0
210
0
220
0
230
1
40
0.678375
41
1.1371830100964
42
1.64556052358353
0
ELLIPSE
5
10B
100
AcDbEntity
8
1
62
256
6
ByLayer
370
-1
48
1
60
0
100
AcDbEllipse
10
5.617089
20
6.810382
30
0
11
89.1885913520424
21
-15.5340741651817
31
0
210
0
220
0
230
-1
40
0.152628
41
-1.33311971459018
42
-1.32823624497187
0
ELLIPSE
5
10C
100
AcDbEntity
8
1
62
256
6
ByLayer
370
-1
48
1
60
0
100
AcDbEllipse
10
29.968033
20
9.135565
30
0
11
-0.717910447984817
21
-0.0667526022102181
31
0
210
0
220
0
230
1
40
0.68139
41
-1.06981344239699
42
-0.700685180711239
0
ELLIPSE
5
10D
100
AcDbEntity
8
1
62
256
6
ByLayer
370
-1
48
1
60
0
100
AcDbEllipse
10
26.618445
20
13.039655
30
0
11
0.132221379076055
21
-2.99708483478783
31
0
210
0
220
0
230
1
40
0.123054
41
0.154551391628787
42
1.3920193913356
0
ELLIPSE
5
10E
100
AcDbEntity
8
1
62
256
6
ByLayer
370
-1
48
1
60
0
100
AcDbEllipse
10
30.744612
20
0
30
0
11
14.5972014300289
21
17.452202370103
31
0
210
0
220
0
230
-1
40
0.437493
41
2.75343461635835
42
-2.58768993266142
0
ELLIPSE
5
10F
100
AcDbEntity
8
1
62
256
6
ByLayer
370
-1
48
1
60
0
100
AcDbEllipse
10
21.039885
20
13.331869
30
0
11
-0.083606145862925
21
1.24720087090009
31
0
210
0
220
0
230
1
40
0.151568
41
3.10655944095917
42
-2.40419139575886
0
ELLIPSE
5
110
100
AcDbEntity
8
1
62
256
6
ByLayer
370
-1
48
1
60
0
100
AcDbEllipse
10
18.8053
20
-10.680094
30
0
11
2.16444729302114
21
2.61065899089127
31
0
210
0
220
0
230
-1
40
0.487565
41
1.54988911222181
42
1.66835743235184
0
ELLIPSE
5
111
100
AcDbEntity
8
1
62
256
6
ByLayer
370
-1
48
1
60
0
100
AcDbEllipse
10
46.372986
20
-7.903099
30
0
11
1.66865798396324
21
5.77343728282952
31
0
210
0
220
0
230
-1
40
0.207718
41
-0.929474646243303
42
-0.758490742560526
0
ELLIPSE
5
112
100
AcDbEntity
8
1
62
256
6
ByLayer
370
-1
48
1
60
0
100
AcDbEllipse
10
29.89884
20
9.87972
30
0
11
0.044931120111408
21
1.24919221677272
31
0
210
0
220
0
230
1
40
0.16151
41
-2.54108901931006
42
-1.9085377775395
0
ELLIPSE
5
113
100
AcDbEntity
8
1
62
256
6
ByLayer
370
-1
48
1
60
0
100
AcDbEllipse
10
40.806763
20
0.122902
30
0
11
4.61290052950944
21
19.1176535051435
31
0
210
0
220
0
230
-1
40
0.040221
41
-0.98454707337221
42
-0.849088792734429
0
ELLIPSE
5
114
100
AcDbEntity
8
1
62
256
6
ByLayer
370
-1
48
1
60
0
100
AcDbEllipse
10
11.71473
20
10.217815
30
0
11
94.4278509216885
21
-22.7766658084996
31
0
210
0
220
0
230
-1
40
0.035933
41
-1.20171348082178
42
-1.19165827519321
0
ELLIPSE
5
115
100
AcDbEntity
8
1
62
256
6
ByLayer
370
-1
48
1
60
0
100
AcDbEllipse
10
32.904384
20
-0.012848
30
0
11
0.547081129332494
21
-19.1423383687904
31
0
210
0
220
0
230
-1
40
0.346328
41
2.86330263348288
42
2.9925908648275
0
ELLIPSE
5
116
100
AcDbEntity
8
1
62
256
6
ByLayer
370
-1
48
1
60
0
100
AcDbEllipse
10
20.07497
20
-10.844576
30
0
11
-0.385420230697089
21
-2.97513886159443
31
0
210
0
220
0
230
1
40
0.023648
41
-1.43908958854977
42
-1.17446578089738
0
ELLIPSE
5
117
100
AcDbEntity
8
1
62
256
6
ByLayer
370
-1
48
1
60
0
100
AcDbEllipse
10
41.68844
20
0.060662
30
0
11
2.38235240199123
21
19.134125099966
31
0
210
0
220
0
230
-1
40
0.222635
41
-0.811607850234212
42
-0.800801596085612
0
ELLIPSE
5
118
100
AcDbEntity
8
1
62
256
6
ByLayer
370
-1
48
1
60
0
100
AcDbEllipse
10
43.89534
20
0.123432
30
0
11
4.63278835391512
21
19.2000763819574
31
0
210
0
220
0
230
-1
40
0.040221
41
-1.0267903958447
42
-0.861197560139353
0
ELLIPSE
5
119
100
AcDbEntity
8
1
62
256
6
ByLayer
370
-1
48
1
60
0
100
AcDbEllipse
10
20.624027
20
12.581215
30
0
11
-1.24708211701101
21
-0.0853592023822602
31
0
210
0
220
0
230
1
40
0.123693
41
-2.22243916288001
42
-1.81972332129936
0
ELLIPSE
5
11A
100
AcDbEntity
8
1
62
256
6
ByLayer
370
-1
48
1
60
0
100
AcDbEllipse
10
44.397365
20
-1.798733
30
0
11
-2.69520799898587
21
-0.961879382000316
31
0
210
0
220
0
230
1
40
0.979467
41
2.59525856984475
42
-2.0213048964545
0
ELLIPSE
5
11B
100
AcDbEntity
8
1
62
256
6
ByLayer
370
-1
48
1
60
0
100
AcDbEllipse
10
53.238656
20
0.47138
30
0
11
1.44741261293809
21
-0.393696238117331
31
0
210
0
220
0
230
1
40
0.424822
41
0.115037032744328
42
2.83062584132546
0
ELLIPSE
5
11C
100
AcDbEntity
8
1
62
256
6
ByLayer
370
-1
48
1
60
0
100
AcDbEllipse
10
41.451474
20
-0.340195
30
0
11
3.40359090930296
21
18.8199041684766
31
0
210
0
220
0
230
-1
40
0.297519
41
2.91125963331626
42
2.99599336401237
0
ELLIPSE
5
11D
100
AcDbEntity
8
1
62
256
6
ByLayer
370
-1
48
1
60
0
100
AcDbEllipse
10
24.416464
20
15.405618
30
0
11
1.54357944893108
21
-2.68837543599059
31
0
210
0
220
0
230
1
40
0.961735
41
-0.63662940938457
42
-0.238735179664874
0
ELLIPSE
5
11E
100
AcDbEntity
8
1
62
256
6
ByLayer
370
-1
48
1
60
0
100
AcDbEllipse
10
23.088854
20
0.098251
30
0
11
3.76252207817794
21
19.1105900784114
31
0
210
0
220
0
230
-1
40
0.145329
41
1.65014029443563
42
1.78559857501713
0
ELLIPSE
5
11F
100
AcDbEntity
8
1
62
256
6
ByLayer
370
-1
48
1
60
0
100
AcDbEllipse
10
14.488156
20
9.652066
30
0
11
89.192177491346
21
-21.5140214212163
31
0
210
0
220
0
230
-1
40
0.035928
41
-1.31527467671075
42
-1.31038994912321
0
ELLIPSE
5
120
100
AcDbEntity
8
1
62
256
6
ByLayer
370
-1
48
1
60
0
100
AcDbEllipse
10
-28.080206
20
11.965119
30
0
11
71.0717252254423
21
-3.46273776236443
31
0
210
0
220
0
230
-1
40
0.012106
41
0.383200312899394
42
0.592847494313173
0
ELLIPSE
5
121
100
AcDbEntity
8
1
62
256
6
ByLayer
370
-1
48
1
60
0
100
AcDbEllipse
10
41.68846
20
0.069651
30
0
11
2.73669588973194
21
19.1329561975457
31
0
210
0
220
0
230
-1
40
0.211231
41
2.83725419126968
42
2.8480603701801
0
ELLIPSE
5
122
100
AcDbEntity
8
1
62
256
6
ByLayer
370
-1
48
1
60
0
100
AcDbEllipse
10
54.065726
20
-1.494468
30
0
11
80.5376293606595
21
-14.1104116712651
31
0
210
0
220
0
230
-1
40
0.169769
41
-1.89660478687703
42
-1.80526227371857
0
ELLIPSE
5
123
100
AcDbEntity
8
1
62
256
6
ByLayer
370
-1
48
1
60
0
100
AcDbEllipse
10
39.209169
20
9.582848
30
0
11
1.24463127805781
21
0.115728050533047
31
0
210
0
220
0
230
1
40
0.68139
41
1.79640510473611
42
2.18626810483994
0
ELLIPSE
5
124
100
AcDbEntity
8
1
62
256
6
ByLayer
370
-1
48
1
60
0
100
AcDbEllipse
10
36.836792
20
-1E-06
30
0
11
75.943334997776
21
-14.9514065243911
31
0
210
0
220
0
230
-1
40
0.145334
41
1.75857114885266
42
1.7794069673694
0
ELLIPSE
5
125
100
AcDbEntity
8
1
62
256
6
ByLayer
370
-1
48
1
60
0
100
AcDbEllipse
10
62.92468
20
-2.117517
30
0
11
80.569499085455
21
-19.4402569956369
31
0
210
0
220
0
230
-1
40
0.039978
41
-1.87651544744758
42
-1.7851729343838
0
ELLIPSE
5
126
100
AcDbEntity
8
1
62
256
6
ByLayer
370
-1
48
1
60
0
100
AcDbEllipse
10
47.481823
20
13.926927
30
0
11
0.425324444468631
21
-1.17541444475447
31
0
210
0
220
0
230
1
40
0.968726
41
-0.993982589526685
42
-0.166890604449007
0
ELLIPSE
5
127
100
AcDbEntity
8
1
62
256
6
ByLayer
370
-1
48
1
60
0
100
AcDbEllipse
10
18.8053
20
12.694965
30
0
11
2.49044370109731
21
-2.88152237645649
31
0
210
0
220
0
230
-1
40
0.111219
41
0.890301104967024
42
1.00876942430619
0
ELLIPSE
5
128
100
AcDbEntity
8
1
62
256
6
ByLayer
370
-1
48
1
60
0
100
AcDbEllipse
10
48.041388
20
2.56778
30
0
11
-1.17727350117852
21
-0.420151286351565
31
0
210
0
220
0
230
1
40
0.979467
41
-2.14753742665855
42
-1.74482158507789
0
ELLIPSE
5
129
100
AcDbEntity
8
1
62
256
6
ByLayer
370
-1
48
1
60
0
100
AcDbEllipse
10
37.867316
20
8.750516
30
0
11
-0.463589520272056
21
-0.0431053858073963
31
0
210
0
220
0
230
1
40
0.68139
41
1.40811310142445
42
2.24093518668038
0
ELLIPSE
5
12A
100
AcDbEntity
8
1
62
256
6
ByLayer
370
-1
48
1
60
0
100
AcDbEllipse
10
21.223062
20
13.344148
30
0
11
0.0452247908203128
21
-1.24973802668283
31
0
210
0
220
0
230
-1
40
0.245464
41
-1.26173679605934
42
-0.739194258150527
0
ELLIPSE
5
12B
100
AcDbEntity
8
1
62
256
6
ByLayer
370
-1
48
1
60
0
100
AcDbEllipse
10
3.36558
20
7.189606
30
0
11
94.1875378640742
21
-16.4031035525403
31
0
210
0
220
0
230
-1
40
0.15264
41
-1.2087161532449
42
-1.20522931555077
0
ELLIPSE
5
12C
100
AcDbEntity
8
1
62
256
6
ByLayer
370
-1
48
1
60
0
100
AcDbEllipse
10
-6.003179
20
8.168188
30
0
11
94.4008235143644
21
-18.5016041992799
31
0
210
0
220
0
230
-1
40
0.129866
41
1.15754430252719
42
1.16759950826051
0
ELLIPSE
5
12D
100
AcDbEntity
8
1
62
256
6
ByLayer
370
-1
48
1
60
0
100
AcDbEllipse
10
-5.503912
20
8.162263
30
0
11
94.2061200928877
21
-18.4671737597949
31
0
210
0
220
0
230
-1
40
0.129901
41
1.15314240858627
42
1.15662873411325
0
ELLIPSE
5
12E
100
AcDbEntity
8
1
62
256
6
ByLayer
370
-1
48
1
60
0
100
AcDbEllipse
10
35.316427
20
-13.519343
30
0
11
0.934254266744874
21
-0.830463102773987
31
0
210
0
220
0
230
1
40
0.933861
41
-2.21083223459419
42
0
0
ELLIPSE
5
12F
100
AcDbEntity
8
1
62
256
6
ByLayer
370
-1
48
1
60
0
100
AcDbEllipse
10
35.316427
20
-13.519343
30
0
11
0.934254266744874
21
-0.830463102773987
31
0
210
0
220
0
230
1
40
0.933861
41
0
42
0.760672618407665
0
ELLIPSE
5
130
100
AcDbEntity
8
1
62
256
6
ByLayer
370
-1
48
1
60
0
100
AcDbEllipse
10
35.316427
20
-13.519343
30
0
11
0.934254266744874
21
-0.830463102773987
31
0
210
0
220
0
230
1
40
0.933861
41
0.760673086805168
42
3.03409412767105
0
ELLIPSE
5
131
100
AcDbEntity
8
1
62
256
6
ByLayer
370
-1
48
1
60
0
100
AcDbEllipse
10
29.357351
20
-12.883651
30
0
11
1.05037044507486
21
-0.696606436052599
31
0
210
0
220
0
230
-1
40
0.965591
41
-1.65103683320957
42
-1.44809324099878
0
ELLIPSE
5
132
100
AcDbEntity
8
1
62
256
6
ByLayer
370
-1
48
1
60
0
100
AcDbEllipse
10
21.109078
20
12.320974
30
0
11
-0.719324105926606
21
-0.0492356767037864
31
0
210
0
220
0
230
1
40
0.123693
41
-1.74657469501239
42
-0.527963471937086
0
ELLIPSE
5
133
100
AcDbEntity
8
1
62
256
6
ByLayer
370
-1
48
1
60
0
100
AcDbEllipse
10
38.055793
20
5.584454
30
0
11
1.51387685443412
21
-1.88270688775509
31
0
210
0
220
0
230
-1
40
0.42343
41
-1.8776398531261
42
-1.70792031425177
0
ELLIPSE
5
134
100
AcDbEntity
8
1
62
256
6
ByLayer
370
-1
48
1
60
0
100
AcDbEllipse
10
35.4774
20
7.048789
30
0
11
-0.111405999704779
21
-2.99793073689667
31
0
210
0
220
0
230
1
40
0.125292
41
0.787121213444636
42
2.0245892131514
0
ELLIPSE
5
135
100
AcDbEntity
8
1
62
256
6
ByLayer
370
-1
48
1
60
0
100
AcDbEllipse
10
22.813124
20
8.838484
30
0
11
89.4277297856697
21
-19.8446275487684
31
0
210
0
220
0
230
-1
40
0.091129
41
1.26192257035901
42
1.28128796294187
0
ELLIPSE
5
136
100
AcDbEntity
8
1
62
256
6
ByLayer
370
-1
48
1
60
0
100
AcDbEllipse
10
17.925235
20
0
30
0
11
0.732752698602158
21
-18.5830156352047
31
0
210
0
220
0
230
-1
40
0.251928
41
3.03707049933946
42
-3.08562655409302
0
ELLIPSE
5
137
100
AcDbEntity
8
1
62
256
6
ByLayer
370
-1
48
1
60
0
100
AcDbEllipse
10
-36.939153
20
9.445242
30
0
11
71.0717298278174
21
3.52132856708526
31
0
210
0
220
0
230
-1
40
0.002197
41
0.542964635686052
42
0.593546245419177
0
ELLIPSE
5
138
100
AcDbEntity
8
1
62
256
6
ByLayer
370
-1
48
1
60
0
100
AcDbEllipse
10
20.597841
20
12.581957
30
0
11
1.24708211701101
21
0.0853592023822609
31
0
210
0
220
0
230
1
40
0.123693
41
0.737946169991034
42
0.892647572780546
0
ELLIPSE
5
139
100
AcDbEntity
8
1
62
256
6
ByLayer
370
-1
48
1
60
0
100
AcDbEllipse
10
35.036386
20
0.034494
30
0
11
1.36763675830682
21
19.1979465665912
31
0
210
0
220
0
230
-1
40
0.234045
41
2.33265775332747
42
2.46728996568143
0
ELLIPSE
5
13A
100
AcDbEntity
8
1
62
256
6
ByLayer
370
-1
48
1
60
0
100
AcDbEllipse
10
20.139854
20
11.803037
30
0
11
-2.83645478555459
21
-0.194147213552055
31
0
210
0
220
0
230
1
40
0.123693
41
-1.46462122064466
42
-1.19215885769124
0
ELLIPSE
5
13B
100
AcDbEntity
8
1
62
256
6
ByLayer
370
-1
48
1
60
0
100
AcDbEllipse
10
52.755617
20
0.117582
30
0
11
4.27041249881983
21
19.2011265984895
31
0
210
0
220
0
230
-1
40
0.101983
41
1.43692085949479
42
1.57505058039963
0
ELLIPSE
5
13C
100
AcDbEntity
8
1
62
256
6
ByLayer
370
-1
48
1
60
0
100
AcDbEllipse
10
51.499623
20
13.633789
30
0
11
7.60934127527283E-17
21
1.24274077976514
31
0
210
0
220
0
230
1
40
0.995037
41
2.55862639100245
42
2.79674430019575
0
ELLIPSE
5
13D
100
AcDbEntity
8
1
62
256
6
ByLayer
370
-1
48
1
60
0
100
AcDbEllipse
10
75.362493
20
-0.608783
30
0
11
82.8854419117309
21
-5.89994974061787
31
0
210
0
220
0
230
-1
40
0.232646
41
2.03844575956089
42
2.07859964105578
0
ELLIPSE
5
13E
100
AcDbEntity
8
1
62
256
6
ByLayer
370
-1
48
1
60
0
100
AcDbEllipse
10
38.757795
20
2.663239
30
0
11
0.155369317980678
21
1.24030656493877
31
0
210
0
220
0
230
1
40
0.109913
41
-1.90962355543951
42
-1.82078152552151
0
ELLIPSE
5
13F
100
AcDbEntity
8
1
62
256
6
ByLayer
370
-1
48
1
60
0
100
AcDbEllipse
10
12.230368
20
10.193914
30
0
11
94.2084959025505
21
-22.7233536264823
31
0
210
0
220
0
230
-1
40
0.035937
41
-1.19083612996115
42
-1.18734900853411
0
ELLIPSE
5
140
100
AcDbEntity
8
1
62
256
6
ByLayer
370
-1
48
1
60
0
100
AcDbEllipse
10
41.451474
20
-0.379442
30
0
11
3.76650969996558
21
18.8172954047263
31
0
210
0
220
0
230
-1
40
0.284944
41
-1.20725366247422
42
-0.928223040384955
0
ELLIPSE
5
141
100
AcDbEntity
8
1
62
256
6
ByLayer
370
-1
48
1
60
0
100
AcDbEllipse
10
50.624944
20
0.171381
30
0
11
6.25120014062136
21
19.1322626556374
31
0
210
0
220
0
230
-1
40
0.119019
41
-1.58246694677718
42
-1.45319244105188
0
ELLIPSE
5
142
100
AcDbEntity
8
1
62
256
6
ByLayer
370
-1
48
1
60
0
100
AcDbEllipse
10
32.592519
20
-0.64795
30
0
11
6.0175145345027
21
18.8369836330815
31
0
210
0
220
0
230
-1
40
0.137678
41
2.29356885500177
42
2.57259947709854
0
ELLIPSE
5
143
100
AcDbEntity
8
1
62
256
6
ByLayer
370
-1
48
1
60
0
100
AcDbEllipse
10
18.401477
20
13.155003
30
0
11
12.395699092484
21
0.67576111394516
31
0
210
0
220
0
230
-1
40
0.099924
41
1.04906711411188
42
1.0967056849331
0
ELLIPSE
5
144
100
AcDbEntity
8
1
62
256
6
ByLayer
370
-1
48
1
60
0
100
AcDbEllipse
10
31.947809
20
0.034346
30
0
11
1.36176570998799
21
19.1155328323862
31
0
210
0
220
0
230
-1
40
0.234045
41
2.28958836283956
42
2.4250466434636
0
ELLIPSE
5
145
100
AcDbEntity
8
1
62
256
6
ByLayer
370
-1
48
1
60
0
100
AcDbEllipse
10
32.904384
20
0.159764
30
0
11
6.10818628844253
21
19.1254410604958
31
0
210
0
220
0
230
-1
40
0.137742
41
2.20931759963421
42
2.33860583101472
0
ELLIPSE
5
146
100
AcDbEntity
8
1
62
256
6
ByLayer
370
-1
48
1
60
0
100
AcDbEllipse
10
5.622837
20
2.697065
30
0
11
89.1987686920192
21
-6.27987524554715
31
0
210
0
220
0
230
-1
40
0.20911
41
1.28696891075834
42
1.29185297749211
0
ELLIPSE
5
147
100
AcDbEntity
8
1
62
256
6
ByLayer
370
-1
48
1
60
0
100
AcDbEllipse
10
28.359041
20
11.321468
30
0
11
38.9356965890849
21
3.99341700742714
31
0
210
0
220
0
230
-1
40
0.031935
41
0.95921503242072
42
0.987137153594733
0
ELLIPSE
5
148
100
AcDbEntity
8
1
62
256
6
ByLayer
370
-1
48
1
60
0
100
AcDbEllipse
10
50.310428
20
-0.666416
30
0
11
6.1573368310867
21
18.8416057453216
31
0
210
0
220
0
230
-1
40
0.118956
41
-1.82182059861015
42
-1.53754327053573
0
ELLIPSE
5
149
100
AcDbEntity
8
1
62
256
6
ByLayer
370
-1
48
1
60
0
100
AcDbEllipse
10
41.763338
20
0.083881
30
0
11
3.45319435883426
21
19.1158840640974
31
0
210
0
220
0
230
-1
40
0.297425
41
2.82711293312012
42
2.95640116443285
0
ELLIPSE
5
14A
100
AcDbEntity
8
1
62
256
6
ByLayer
370
-1
48
1
60
0
100
AcDbEllipse
10
54.065726
20
-0.59172
30
0
11
80.5622012717252
21
-5.73457707125337
31
0
210
0
220
0
230
-1
40
0.232646
41
1.75896845981139
42
1.8503109731151
0
ELLIPSE
5
14B
100
AcDbEntity
8
1
62
256
6
ByLayer
370
-1
48
1
60
0
100
AcDbEllipse
10
37.788707
20
9.595936
30
0
11
-0.0449311201114079
21
-1.24919221677272
31
0
210
0
220
0
230
1
40
0.16151
41
0.377044376904638
42
0.84921776962181
0
ELLIPSE
5
14C
100
AcDbEntity
8
1
62
256
6
ByLayer
370
-1
48
1
60
0
100
AcDbEllipse
10
47.542478
20
-3.841731
30
0
11
-0.861452456594968
21
0.138533626473401
31
0
210
0
220
0
230
1
40
0.904351
41
-0.819145580483932
42
-0.307493543342819
0
ELLIPSE
5
14D
100
AcDbEntity
8
1
62
256
6
ByLayer
370
-1
48
1
60
0
100
AcDbEllipse
10
50.548861
20
0.121645
30
0
11
4.4245216444697
21
19.1387776849288
31
0
210
0
220
0
230
-1
40
0.10776
41
-1.43658422046604
42
-1.4257795177101
0
ELLIPSE
5
14E
100
AcDbEntity
8
1
62
256
6
ByLayer
370
-1
48
1
60
0
100
AcDbEllipse
10
26.177431
20
0.098675
30
0
11
3.77874362372834
21
19.192982497741
31
0
210
0
220
0
230
-1
40
0.145329
41
1.69320968502307
42
1.82784189727792
0
ELLIPSE
5
14F
100
AcDbEntity
8
1
62
256
6
ByLayer
370
-1
48
1
60
0
100
AcDbEllipse
10
5.09543
20
2.704358
30
0
11
89.4359083941691
21
-6.29660298839412
31
0
210
0
220
0
230
-1
40
0.209111
41
1.26742205049357
42
1.27630570140417
0
ELLIPSE
5
150
100
AcDbEntity
8
1
62
256
6
ByLayer
370
-1
48
1
60
0
100
AcDbEllipse
10
26.457472
20
-4.040625
30
0
11
1.43244235686628
21
-0.445094253226631
31
0
210
0
220
0
230
1
40
0.599014
41
0.184017954591492
42
2.69694552366201
0
ELLIPSE
5
151
100
AcDbEntity
8
1
62
256
6
ByLayer
370
-1
48
1
60
0
100
AcDbEllipse
10
47.616749
20
13.302937
30
0
11
-0.127939835582061
21
1.24343532138637
31
0
210
0
220
0
230
1
40
0.130562
41
-2.31100604359329
42
-2.0649517253382
0
ELLIPSE
5
152
100
AcDbEntity
8
1
62
256
6
ByLayer
370
-1
48
1
60
0
100
AcDbEllipse
10
48.000361
20
2.7626
30
0
11
-1.17727350117852
21
-0.420151286351565
31
0
210
0
220
0
230
1
40
0.979467
41
-1.7230577468504
42
-1.44159938131328
0
ELLIPSE
5
153
100
AcDbEntity
8
1
62
256
6
ByLayer
370
-1
48
1
60
0
100
AcDbEllipse
10
44.336354
20
-1.627779
30
0
11
-0.311151802422085
21
-2.98382046307239
31
0
210
0
220
0
230
1
40
0.079791
41
1.41645054085721
42
2.65391854056399
0
ELLIPSE
5
154
100
AcDbEntity
8
1
62
256
6
ByLayer
370
-1
48
1
60
0
100
AcDbEllipse
10
28.98724
20
2.3E-05
30
0
11
22.8852713225254
21
18.580949098828
31
0
210
0
220
0
230
-1
40
0.014614
41
-2.25489884003897
42
-2.22684924550301
0
ELLIPSE
5
155
100
AcDbEntity
8
1
62
256
6
ByLayer
370
-1
48
1
60
0
100
AcDbEllipse
10
40.806763
20
-0.042645
30
0
11
1.6861013030951
21
-19.1143338373178
31
0
210
0
220
0
230
-1
40
0.228207
41
-0.187682577865538
42
-0.052224297235808
0
ELLIPSE
5
156
100
AcDbEntity
8
1
62
256
6
ByLayer
370
-1
48
1
60
0
100
AcDbEllipse
10
36.836789
20
6E-06
30
0
11
75.9714489949271
21
-2.77233655255098
31
0
210
0
220
0
230
-1
40
0.24188
41
-1.81683822311699
42
-1.80905246260885
0
ELLIPSE
5
157
100
AcDbEntity
8
1
62
256
6
ByLayer
370
-1
48
1
60
0
100
AcDbEllipse
10
32.829512
20
-0.018856
30
0
11
0.754779589508149
21
-19.1407111892384
31
0
210
0
220
0
230
-1
40
0.251933
41
2.99515944676657
42
3.00596560034246
0
ELLIPSE
5
158
100
AcDbEntity
8
1
62
256
6
ByLayer
370
-1
48
1
60
0
100
AcDbEllipse
10
28.98721
20
0
30
0
11
21.5128377030026
21
-14.5772628484296
31
0
210
0
220
0
230
-1
40
0.535808
41
-2.61503205681396
42
-2.58698243328022
0
ELLIPSE
5
159
100
AcDbEntity
8
1
62
256
6
ByLayer
370
-1
48
1
60
0
100
AcDbEllipse
10
34.128428
20
-14.615464
30
0
11
0.982835488615608
21
-0.873647184118234
31
0
210
0
220
0
230
1
40
0.933861
41
0.834827512868496
42
2.16632671799215
0
ELLIPSE
5
15A
100
AcDbEntity
8
1
62
256
6
ByLayer
370
-1
48
1
60
0
100
AcDbEllipse
10
28.359038
20
11.321468
30
0
11
38.935699965089
21
3.99341727686887
31
0
210
0
220
0
230
-1
40
0.031935
41
0.812568631073712
42
0.908086646229898
0
ELLIPSE
5
15B
100
AcDbEntity
8
1
62
256
6
ByLayer
370
-1
48
1
60
0
100
AcDbEllipse
10
44.365171
20
-1.448585
30
0
11
-2.93203507479237
21
0.471512326360659
31
0
210
0
220
0
230
1
40
0.904351
41
2.31192806393189
42
2.97854267949021
0
ELLIPSE
5
15C
100
AcDbEntity
8
1
62
256
6
ByLayer
370
-1
48
1
60
0
100
AcDbEllipse
10
26.679456
20
12.148298
30
0
11
-2.85502535629622
21
-0.195418315979605
31
0
210
0
220
0
230
1
40
0.123693
41
-2.12149636947572
42
-1.69349079109544
0
ELLIPSE
5
15D
100
AcDbEntity
8
1
62
256
6
ByLayer
370
-1
48
1
60
0
100
AcDbEllipse
10
3.368163
20
2.856662
30
0
11
94.2067002926155
21
-6.63563013806253
31
0
210
0
220
0
230
-1
40
0.209141
41
1.16393510109618
42
1.16742206456227
0
ELLIPSE
5
15E
100
AcDbEntity
8
1
62
256
6
ByLayer
370
-1
48
1
60
0
100
AcDbEllipse
10
44.175381
20
-17.846985
30
0
11
-1.01642043732192
21
-0.727591571277672
31
0
210
0
220
0
230
1
40
0.912892
41
0.185118351698247
42
2.47654996925487
0
ELLIPSE
5
15F
100
AcDbEntity
8
1
62
256
6
ByLayer
370
-1
48
1
60
0
100
AcDbEllipse
10
44.175381
20
-17.846985
30
0
11
-1.01642043732192
21
-0.727591571277672
31
0
210
0
220
0
230
1
40
0.912892
41
2.47654996925487
42
2.78781639577488
0
ELLIPSE
5
160
100
AcDbEntity
8
1
62
256
6
ByLayer
370
-1
48
1
60
0
100
AcDbEllipse
10
43.89534
20
-0.042829
30
0
11
1.6933706760949
21
-19.1967424197784
31
0
210
0
220
0
230
-1
40
0.228207
41
-0.14461318730306
42
-0.00998097490737079
0
ELLIPSE
5
161
100
AcDbEntity
8
1
62
256
6
ByLayer
370
-1
48
1
60
0
100
AcDbEllipse
10
53.238656
20
0.47138
30
0
11
1.5
21
0
31
0
210
0
220
0
230
1
40
0.899294
41
-0.825583675093412
42
-0.239899107240495
0
ELLIPSE
5
162
100
AcDbEntity
8
1
62
256
6
ByLayer
370
-1
48
1
60
0
100
AcDbEllipse
10
19.320159
20
12.097219
30
0
11
-1.84974342413553
21
2.13565615051938
31
0
210
0
220
0
230
1
40
0.141186
41
-1.03870801675663
42
2.02528237435346
0
ELLIPSE
5
163
100
AcDbEntity
8
1
62
256
6
ByLayer
370
-1
48
1
60
0
100
AcDbEllipse
10
2.855641
20
2.855307
30
0
11
94.4213701555192
21
-6.64765989488301
31
0
210
0
220
0
230
-1
40
0.209112
41
1.1682693818066
42
1.1783245683132
0
ELLIPSE
5
164
100
AcDbEntity
8
1
62
256
6
ByLayer
370
-1
48
1
60
0
100
AcDbEllipse
10
29.196839
20
-15.144586
30
0
11
1.70119666306638
21
6.50618340941328
31
0
210
0
220
0
230
-1
40
0.028035
41
1.0970429723791
42
1.14759004180176
0
ELLIPSE
5
165
100
AcDbEntity
8
1
62
256
6
ByLayer
370
-1
48
1
60
0
100
AcDbEllipse
10
29.196839
20
-15.144586
30
0
11
1.70119666306638
21
6.50618340941328
31
0
210
0
220
0
230
-1
40
0.028035
41
1.35815384747385
42
1.49975881391594
0
ELLIPSE
5
166
100
AcDbEntity
8
1
62
256
6
ByLayer
370
-1
48
1
60
0
100
AcDbEllipse
10
19.320159
20
12.097219
30
0
11
-1.84974342413553
21
2.13565615051938
31
0
210
0
220
0
230
1
40
0.141186
41
-1.85198137429435
42
-1.67661990371119
0
ELLIPSE
5
167
100
AcDbEntity
8
1
62
256
6
ByLayer
370
-1
48
1
60
0
100
AcDbEllipse
10
19.083225
20
12.52432
30
0
11
-1.24708211701101
21
-0.0853592023822602
31
0
210
0
220
0
230
1
40
0.123693
41
-1.81972332129936
42
-1.36156587442381
0
ELLIPSE
5
168
100
AcDbEntity
8
1
62
256
6
ByLayer
370
-1
48
1
60
0
100
AcDbEllipse
10
32.592519
20
0.052107
30
0
11
0.539367686625673
21
-18.8432019659652
31
0
210
0
220
0
230
-1
40
0.346563
41
2.62912143404124
42
2.90815205613344
0
ELLIPSE
5
169
100
AcDbEntity
8
1
62
256
6
ByLayer
370
-1
48
1
60
0
100
AcDbEllipse
10
84.221448
20
0.755969
30
0
11
82.8802377941769
21
7.30623290203059
31
0
210
0
220
0
230
-1
40
0.22684
41
2.07499864588216
42
2.11515252711998
0
ELLIPSE
5
16A
100
AcDbEntity
8
1
62
256
6
ByLayer
370
-1
48
1
60
0
100
AcDbEllipse
10
30.744612
20
0
30
0
11
16.3543880189457
21
-18.5015781691383
31
0
210
0
220
0
230
-1
40
0.106859
41
2.15120471112879
42
3.09326546928865
0
ELLIPSE
5
16B
100
AcDbEntity
8
1
62
256
6
ByLayer
370
-1
48
1
60
0
100
AcDbEllipse
10
36.419131
20
0.001724
30
0
11
75.9515821240157
21
-14.95261069448
31
0
210
0
220
0
230
-1
40
0.145348
41
1.74327780339387
42
1.7468658112976
0
ELLIPSE
5
16C
100
AcDbEntity
8
1
62
256
6
ByLayer
370
-1
48
1
60
0
100
AcDbEllipse
10
41.763338
20
0.093558
30
0
11
3.82162274854263
21
19.1125180651455
31
0
210
0
220
0
230
-1
40
0.284878
41
-0.972620980324577
42
-0.843332748993363
0
ELLIPSE
5
16D
100
AcDbEntity
8
1
62
256
6
ByLayer
370
-1
48
1
60
0
100
AcDbEllipse
10
26.457472
20
-4.040625
30
0
11
1.19370196405524
21
-0.370911877688859
31
0
210
0
220
0
230
1
40
0.599014
41
0
42
6.28318530717959
0
ELLIPSE
5
16E
100
AcDbEntity
8
1
62
256
6
ByLayer
370
-1
48
1
60
0
100
AcDbEllipse
10
84.221449
20
-2.178583
30
0
11
82.8929520155359
21
-20.0008727370672
31
0
210
0
220
0
230
-1
40
0.039978
41
-2.10480412261366
42
-2.06465024192496
0
ELLIPSE
5
16F
100
AcDbEntity
8
1
62
256
6
ByLayer
370
-1
48
1
60
0
100
AcDbEllipse
10
48.068124
20
2.572727
30
0
11
1.17727350117852
21
0.420151286351568
31
0
210
0
220
0
230
1
40
0.979467
41
1.4185349067394
42
1.73476041580792
0
ELLIPSE
5
170
100
AcDbEntity
8
1
62
256
6
ByLayer
370
-1
48
1
60
0
100
AcDbEllipse
10
46.372986
20
13.525694
30
0
11
2.05145240461023
21
-0.515380911647178
31
0
210
0
220
0
230
-1
40
0.230803
41
1.32372997084561
42
1.49471387428988
0
ELLIPSE
5
171
100
AcDbEntity
8
1
62
256
6
ByLayer
370
-1
48
1
60
0
100
AcDbEllipse
10
75.362493
20
-1.537566
30
0
11
82.8601611568291
21
-14.5173256881035
31
0
210
0
220
0
230
-1
40
0.169769
41
-2.12489345405226
42
-2.08473957251765
0
ELLIPSE
5
172
100
AcDbEntity
8
1
62
256
6
ByLayer
370
-1
48
1
60
0
100
AcDbEllipse
10
40.464077
20
-1.560688
30
0
11
-2.28346620752078
21
-1.94570863160716
31
0
210
0
220
0
230
1
40
0.299609
41
-2.33373370222008
42
-1.21257302010702
0
ELLIPSE
5
173
100
AcDbEntity
8
1
62
256
6
ByLayer
370
-1
48
1
60
0
100
AcDbEllipse
10
31.605123
20
6.692114
30
0
11
2.33099041932615
21
1.88851361260907
31
0
210
0
220
0
230
1
40
0.183838
41
-2.32682697040158
42
-1.20566628828861
0
ELLIPSE
5
174
100
AcDbEntity
8
1
62
256
6
ByLayer
370
-1
48
1
60
0
100
AcDbEllipse
10
66.503538
20
-1.741579
30
0
11
82.8633141026677
21
-16.3094347197707
31
0
210
0
220
0
230
-1
40
0.144467
41
2.02657752590473
42
2.06673140761213
0
ELLIPSE
5
175
100
AcDbEntity
8
1
62
256
6
ByLayer
370
-1
48
1
60
0
100
AcDbEllipse
10
-36.907238
20
9.446873
30
0
11
71.0391918023868
21
3.51967628335008
31
0
210
0
220
0
230
-1
40
0.002198
41
-0.612124163421685
42
-0.606362089530536
0
ELLIPSE
5
176
100
AcDbEntity
8
1
62
256
6
ByLayer
370
-1
48
1
60
0
100
AcDbEllipse
10
35.316427
20
-13.519343
30
0
11
1.12110512009385
21
-0.996555723328785
31
0
210
0
220
0
230
1
40
0.933861
41
0.692830823726179
42
2.7410696859357
0
ELLIPSE
5
177
100
AcDbEntity
8
1
62
256
6
ByLayer
370
-1
48
1
60
0
100
AcDbEllipse
10
35.036386
20
0.087113
30
0
11
3.36377670548731
21
19.1921848931171
31
0
210
0
220
0
230
-1
40
0.170789
41
-0.419507631977978
42
-0.253914796441534
0
ELLIPSE
5
178
100
AcDbEntity
8
1
62
256
6
ByLayer
370
-1
48
1
60
0
100
AcDbEllipse
10
44.289107
20
-1.801481
30
0
11
-2.88845915276617
21
0.785660904316199
31
0
210
0
220
0
230
1
40
0.424822
41
-2.95690130390442
42
-2.95382061649262
0
ELLIPSE
5
179
100
AcDbEntity
8
1
62
256
6
ByLayer
370
-1
48
1
60
0
100
AcDbEllipse
10
31.947809
20
0.086739
30
0
11
3.34933654543872
21
19.1097958863096
31
0
210
0
220
0
230
-1
40
0.170789
41
-0.3772643096598
42
-0.241806029040031
0
ELLIPSE
5
17A
100
AcDbEntity
8
1
62
256
6
ByLayer
370
-1
48
1
60
0
100
AcDbEllipse
10
5.094928
20
6.830548
30
0
11
89.4149808490044
21
-15.5742265736708
31
0
210
0
220
0
230
-1
40
0.152613
41
-1.31759985864556
42
-1.30871629668305
0
ELLIPSE
5
17B
100
AcDbEntity
8
1
62
256
6
ByLayer
370
-1
48
1
60
0
100
AcDbEllipse
10
35.538411
20
6.39263
30
0
11
-2.84941449293757
21
-0.264943674678368
31
0
210
0
220
0
230
1
40
0.68139
41
2.91115618978142
42
-3.09533514229775
0
ELLIPSE
5
17C
100
AcDbEntity
8
1
62
256
6
ByLayer
370
-1
48
1
60
0
100
AcDbEllipse
10
35.538411
20
6.39263
30
0
11
-2.84941449293757
21
-0.264943674678368
31
0
210
0
220
0
230
1
40
0.68139
41
-2.59514952454736
42
-1.74829691210828
0
ELLIPSE
5
17D
100
AcDbEntity
8
1
62
256
6
ByLayer
370
-1
48
1
60
0
100
AcDbEllipse
10
47.542478
20
13.040861
30
0
11
0.870483295637788
21
0.0595880244088756
31
0
210
0
220
0
230
1
40
0.124479
41
-2.69820012222148
42
-0.695736599449351
0
ELLIPSE
5
17E
100
AcDbEntity
8
1
62
256
6
ByLayer
370
-1
48
1
60
0
100
AcDbEllipse
10
53.041646
20
-0.252921
30
0
11
1.20617717744841
21
-0.32808019843111
31
0
210
0
220
0
230
1
40
0.424822
41
0.115037032744328
42
-3.02655562084547
0
ELLIPSE
5
17F
100
AcDbEntity
8
1
62
256
6
ByLayer
370
-1
48
1
60
0
100
AcDbEllipse
10
32.829472
20
0.120712
30
0
11
4.57313293089764
21
19.137319909022
31
0
210
0
220
0
230
-1
40
0.089121
41
2.21865125882145
42
2.22945756352637
0
ELLIPSE
5
180
100
AcDbEntity
8
1
62
256
6
ByLayer
370
-1
48
1
60
0
100
AcDbEllipse
10
-5.494806
20
1.444363
30
0
11
94.220129526335
21
-3.39174432239406
31
0
210
0
220
0
230
-1
40
0.216147
41
-1.18991326547097
42
-1.1864264981354
0
ELLIPSE
5
181
100
AcDbEntity
8
1
62
256
6
ByLayer
370
-1
48
1
60
0
100
AcDbEllipse
10
13.954143
20
9.678381
30
0
11
89.4427046622273
21
-21.5742098887424
31
0
210
0
220
0
230
-1
40
0.035933
41
-1.29969242862127
42
-1.29080882043464
0
ELLIPSE
5
182
100
AcDbEntity
8
1
62
256
6
ByLayer
370
-1
48
1
60
0
100
AcDbEllipse
10
48.341875
20
2.499163
30
0
11
-1.17727350117852
21
-0.420151286351566
31
0
210
0
220
0
230
1
40
0.979467
41
-2.6250106552759
42
-2.14753742665855
0
ELLIPSE
5
183
100
AcDbEntity
8
1
62
256
6
ByLayer
370
-1
48
1
60
0
100
AcDbEllipse
10
50.993328
20
16.468338
30
0
11
0.698167701796606
21
1.5773987638413
31
0
210
0
220
0
230
1
40
0.965653
41
1.54125334384272
42
2.69376943458297
0
ELLIPSE
5
184
100
AcDbEntity
8
1
62
256
6
ByLayer
370
-1
48
1
60
0
100
AcDbEllipse
10
42.134373
20
2.118466
30
0
11
-1.67412583518813
21
0.415845750195472
31
0
210
0
220
0
230
1
40
0.168992
41
2.72355215726564
42
3.14158908449352
0
ELLIPSE
5
185
100
AcDbEntity
8
1
62
256
6
ByLayer
370
-1
48
1
60
0
100
AcDbEllipse
10
42.134373
20
2.118466
30
0
11
-1.67412583518813
21
0.415845750195472
31
0
210
0
220
0
230
1
40
0.168992
41
2.79977024113529E-05
42
0.366796633989723
0
ELLIPSE
5
186
100
AcDbEntity
8
1
62
256
6
ByLayer
370
-1
48
1
60
0
100
AcDbEllipse
10
33.275419
20
11.322556
30
0
11
-1.62716239750019
21
0.572684496176928
31
0
210
0
220
0
230
1
40
0.698418
41
0.0685568193272175
42
0.934228949175852
0
ELLIPSE
5
187
100
AcDbEntity
8
1
62
256
6
ByLayer
370
-1
48
1
60
0
100
AcDbEllipse
10
33.275419
20
11.322556
30
0
11
-1.62716239750019
21
0.572684496176928
31
0
210
0
220
0
230
1
40
0.698418
41
2.92263306120421
42
-3.07296906965318
0
ELLIPSE
5
188
100
AcDbEntity
8
1
62
256
6
ByLayer
370
-1
48
1
60
0
100
AcDbEllipse
10
24.416464
20
16.21254
30
0
11
-0.858927274001967
21
1.49595084744638
31
0
210
0
220
0
230
1
40
0.961735
41
0.617591948723339
42
1.72577316360267
0
ELLIPSE
5
189
100
AcDbEntity
8
1
62
256
6
ByLayer
370
-1
48
1
60
0
100
AcDbEllipse
10
24.416464
20
16.21254
30
0
11
-0.858927274001967
21
1.49595084744638
31
0
210
0
220
0
230
1
40
0.961735
41
-2.56900728742728
42
-2.5239441464948
0
ELLIPSE
5
18A
100
AcDbEntity
8
1
62
256
6
ByLayer
370
-1
48
1
60
0
100
AcDbEllipse
10
51.189605
20
16.381465
30
0
11
-0.302741704894993
21
-0.683996681364225
31
0
210
0
220
0
230
1
40
0.965653
41
-0.617847314499348
42
0.00112059584463172
0
ELLIPSE
5
18B
100
AcDbEntity
8
1
62
256
6
ByLayer
370
-1
48
1
60
0
100
AcDbEllipse
10
50.991373
20
16.469203
30
0
11
0.302741704894992
21
0.683996681364225
31
0
210
0
220
0
230
1
40
0.965653
41
-2.74954793318165
42
-2.67408522101789
0
ELLIPSE
5
18C
100
AcDbEntity
8
1
62
256
6
ByLayer
370
-1
48
1
60
0
100
AcDbEllipse
10
50.952003
20
16.486628
30
0
11
0.526155369469906
21
1.18876428579344
31
0
210
0
220
0
230
1
40
0.965653
41
0
42
6.28318530717959
0
ELLIPSE
5
18D
100
AcDbEntity
8
1
62
256
6
ByLayer
370
-1
48
1
60
0
100
AcDbEllipse
10
50.952003
20
16.486628
30
0
11
0.418900621077964
21
0.946439258304777
31
0
210
0
220
0
230
1
40
0.965653
41
-0.0946796621105601
42
0.95423394418831
0
ELLIPSE
5
18E
100
AcDbEntity
8
1
62
256
6
ByLayer
370
-1
48
1
60
0
100
AcDbEllipse
10
50.952003
20
16.486628
30
0
11
0.418900621077964
21
0.946439258304777
31
0
210
0
220
0
230
1
40
0.965653
41
2.0005766670105
42
3.04691299147924
0
ELLIPSE
5
18F
100
AcDbEntity
8
1
62
256
6
ByLayer
370
-1
48
1
60
0
100
AcDbEllipse
10
50.205129
20
15.774256
30
0
11
-0.170798127627924
21
-0.38589117584987
31
0
210
0
220
0
230
1
40
0.965653
41
2.52388134166999
42
-3.14142702015506
0
ELLIPSE
5
190
100
AcDbEntity
8
1
62
256
6
ByLayer
370
-1
48
1
60
0
100
AcDbEllipse
10
51.189605
20
16.381465
30
0
11
-0.302741704894993
21
-0.683996681364225
31
0
210
0
220
0
230
1
40
0.965653
41
1.96898561127703
42
2.36152721032541
0
ELLIPSE
5
191
100
AcDbEntity
8
1
62
256
6
ByLayer
370
-1
48
1
60
0
100
AcDbEllipse
10
51.189605
20
17.543119
30
0
11
-0.170798127627924
21
-0.38589117584987
31
0
210
0
220
0
230
1
40
0.965653
41
-0.000183843101675139
42
0.362686875104389
0
ELLIPSE
5
192
100
AcDbEntity
8
1
62
256
6
ByLayer
370
-1
48
1
60
0
100
AcDbEllipse
10
51.189605
20
16.381465
30
0
11
0.302741704894992
21
0.683996681364225
31
0
210
0
220
0
230
1
40
0.965653
41
-2.59826994487717
42
-2.1764061757284
0
ELLIPSE
5
193
100
AcDbEntity
8
1
62
256
6
ByLayer
370
-1
48
1
60
0
100
AcDbEllipse
10
50.205129
20
16.936514
30
0
11
-0.170798127627924
21
-0.38589117584987
31
0
210
0
220
0
230
1
40
0.965653
41
1.477405863202
42
2.25230631753644
0
ELLIPSE
5
194
100
AcDbEntity
8
1
62
256
6
ByLayer
370
-1
48
1
60
0
100
AcDbEllipse
10
51.189605
20
15.21981
30
0
11
-0.170798127627924
21
-0.38589117584987
31
0
210
0
220
0
230
1
40
0.965653
41
3.06374928185091
42
-3.14142558116439
0
ELLIPSE
5
195
100
AcDbEntity
8
1
62
256
6
ByLayer
370
-1
48
1
60
0
100
AcDbEllipse
10
50.952003
20
16.486628
30
0
11
0.418900621077964
21
0.946439258304777
31
0
210
0
220
0
230
1
40
0.965653
41
0.95423394418831
42
2.0005766670105
0
ELLIPSE
5
196
100
AcDbEntity
8
1
62
256
6
ByLayer
370
-1
48
1
60
0
100
AcDbEllipse
10
51.189605
20
17.543119
30
0
11
-0.170798127627924
21
-0.38589117584987
31
0
210
0
220
0
230
1
40
0.965653
41
0.496689419190349
42
1.20686442495822
0
ELLIPSE
5
197
100
AcDbEntity
8
1
62
256
6
ByLayer
370
-1
48
1
60
0
100
AcDbEllipse
10
50.952003
20
16.486628
30
0
11
0.418900621077964
21
0.946439258304777
31
0
210
0
220
0
230
1
40
0.965653
41
-1.1410159865793
42
-0.0946796621105601
0
ELLIPSE
5
198
100
AcDbEntity
8
1
62
256
6
ByLayer
370
-1
48
1
60
0
100
AcDbEllipse
10
51.189605
20
16.381465
30
0
11
-0.302741704894993
21
-0.683996681364225
31
0
210
0
220
0
230
1
40
0.965653
41
3.02088508628276
42
-2.74954793318166
0
ELLIPSE
5
199
100
AcDbEntity
8
1
62
256
6
ByLayer
370
-1
48
1
60
0
100
AcDbEllipse
10
51.603048
20
17.123849
30
0
11
-0.0748759564245638
21
-0.169170302209066
31
0
210
0
220
0
230
1
40
0.965653
41
-2.33442567179444
42
-1.93472822863155
0
ELLIPSE
5
19A
100
AcDbEntity
8
1
62
256
6
ByLayer
370
-1
48
1
60
0
100
AcDbEllipse
10
50.363947
20
16.359592
30
0
11
-0.0748759564245638
21
-0.169170302209066
31
0
210
0
220
0
230
1
40
0.965653
41
-2.43876682769092
42
-0.285565744267588
0
ELLIPSE
5
19B
100
AcDbEntity
8
1
62
256
6
ByLayer
370
-1
48
1
60
0
100
AcDbEllipse
10
51.189605
20
16.381465
30
0
11
-0.302741704894993
21
-0.683996681364225
31
0
210
0
220
0
230
1
40
0.965653
41
-2.6740852210179
42
-1.6641867903878
0
ELLIPSE
5
19C
100
AcDbEntity
8
1
62
256
6
ByLayer
370
-1
48
1
60
0
100
AcDbEllipse
10
50.993328
20
16.468338
30
0
11
0.698167701796606
21
1.5773987638413
31
0
210
0
220
0
230
1
40
0.965653
41
2.6936427477596
42
-1.16687751285229
0
ELLIPSE
5
19D
100
AcDbEntity
8
1
62
256
6
ByLayer
370
-1
48
1
60
0
100
AcDbEllipse
10
50.993328
20
16.468338
30
0
11
0.698167701796606
21
1.5773987638413
31
0
210
0
220
0
230
1
40
0.965653
41
-1.16687809560915
42
0
0
ELLIPSE
5
19E
100
AcDbEntity
8
1
62
256
6
ByLayer
370
-1
48
1
60
0
100
AcDbEllipse
10
50.993328
20
16.468338
30
0
11
0.698167701796606
21
1.5773987638413
31
0
210
0
220
0
230
1
40
0.965653
41
0
42
1.56045199760134
0
ELLIPSE
5
19F
100
AcDbEntity
8
1
62
256
6
ByLayer
370
-1
48
1
60
0
100
AcDbEllipse
10
50.952003
20
16.486628
30
0
11
0.418900621077964
21
0.946439258304777
31
0
210
0
220
0
230
1
40
0.965653
41
-2.18735870940148
42
-1.1410159865793
0
ELLIPSE
5
1A0
100
AcDbEntity
8
1
62
256
6
ByLayer
370
-1
48
1
60
0
100
AcDbEllipse
10
50.776163
20
15.63908
30
0
11
-0.0748759564245638
21
-0.169170302209066
31
0
210
0
220
0
230
1
40
0.965653
41
-1.39274616690828
42
-0.789885763805921
0
ELLIPSE
5
1A1
100
AcDbEntity
8
1
62
256
6
ByLayer
370
-1
48
1
60
0
100
AcDbEllipse
10
50.991373
20
16.469203
30
0
11
0.302741704894992
21
0.683996681364225
31
0
210
0
220
0
230
1
40
0.965653
41
0.392044720408134
42
0.467507432571887
0
ELLIPSE
5
1A2
100
AcDbEntity
8
1
62
256
6
ByLayer
370
-1
48
1
60
0
100
AcDbEllipse
10
51.189605
20
16.381465
30
0
11
-0.302741704894993
21
-0.683996681364225
31
0
210
0
220
0
230
1
40
0.965653
41
-1.6641867903878
42
-0.617847314499348
0
ELLIPSE
5
1A3
100
AcDbEntity
8
1
62
256
6
ByLayer
370
-1
48
1
60
0
100
AcDbEllipse
10
50.205129
20
15.774256
30
0
11
-0.170798127627924
21
-0.38589117584987
31
0
210
0
220
0
230
1
40
0.965653
41
1.74884648668154
42
2.52374533909046
0
ELLIPSE
5
1A4
100
AcDbEntity
8
1
62
256
6
ByLayer
370
-1
48
1
60
0
100
AcDbEllipse
10
50.205129
20
16.936514
30
0
11
-0.170798127627924
21
-0.38589117584987
31
0
210
0
220
0
230
1
40
0.965653
41
0.702503222040219
42
1.477405863202
0
ELLIPSE
5
1A5
100
AcDbEntity
8
1
62
256
6
ByLayer
370
-1
48
1
60
0
100
AcDbEllipse
10
50.952003
20
16.486628
30
0
11
0.418900621077964
21
0.946439258304777
31
0
210
0
220
0
230
1
40
0.965653
41
3.04691299147924
42
-2.18735870940148
0
ELLIPSE
5
1A6
100
AcDbEntity
8
1
62
256
6
ByLayer
370
-1
48
1
60
0
100
AcDbEllipse
10
50.776163
20
17.101944
30
0
11
-0.0748759564245638
21
-0.169170302209066
31
0
210
0
220
0
230
1
40
0.965653
41
-2.6111144662558
42
-0.88928633605333
0
ELLIPSE
5
1A7
100
AcDbEntity
8
1
62
256
6
ByLayer
370
-1
48
1
60
0
100
AcDbEllipse
10
51.189605
20
16.381465
30
0
11
0.302741704894992
21
0.683996681364225
31
0
210
0
220
0
230
1
40
0.965653
41
0.392044720408139
42
0.467507432571896
0
ELLIPSE
5
1A8
100
AcDbEntity
8
1
62
256
6
ByLayer
370
-1
48
1
60
0
100
AcDbEllipse
10
34.279546
20
-14.926157
30
0
11
-0.934254266744877
21
0.830463102773984
31
0
210
0
220
0
230
1
40
0.933861
41
-2.21097062883015
42
-0.759829408373565
0
ELLIPSE
5
1A9
100
AcDbEntity
8
1
62
256
6
ByLayer
370
-1
48
1
60
0
100
AcDbEllipse
10
34.350826
20
-14.845968
30
0
11
-0.710033242726106
21
0.631151958108228
31
0
210
0
220
0
230
1
40
0.933861
41
-2.23759631543475
42
-0.721910538253731
0
ELLIPSE
5
1AA
100
AcDbEntity
8
1
62
256
6
ByLayer
370
-1
48
1
60
0
100
AcDbEllipse
10
42.093048
20
1.952098
30
0
11
-1.00447550111288
21
0.249507450117283
31
0
210
0
220
0
230
1
40
0.168992
41
2.13720402945504
42
-3.09963601798866
0
ELLIPSE
5
1AB
100
AcDbEntity
8
1
62
256
6
ByLayer
370
-1
48
1
60
0
100
AcDbEllipse
10
42.093048
20
1.952098
30
0
11
-1.00447550111288
21
0.249507450117283
31
0
210
0
220
0
230
1
40
0.168992
41
-2.053297156625
42
-1.00438862413475
0
ELLIPSE
5
1AC
100
AcDbEntity
8
1
62
256
6
ByLayer
370
-1
48
1
60
0
100
AcDbEllipse
10
42.134373
20
2.118466
30
0
11
-1.67412583518813
21
0.415845750195472
31
0
210
0
220
0
230
1
40
0.168992
41
2.77461691713827
42
-1.52340359427035E-15
0
ELLIPSE
5
1AD
100
AcDbEntity
8
1
62
256
6
ByLayer
370
-1
48
1
60
0
100
AcDbEllipse
10
42.134373
20
2.118466
30
0
11
-1.67412583518813
21
0.415845750195472
31
0
210
0
220
0
230
1
40
0.168992
41
0
42
0.366877768461768
0
ELLIPSE
5
1AE
100
AcDbEntity
8
1
62
256
6
ByLayer
370
-1
48
1
60
0
100
AcDbEllipse
10
42.132419
20
2.110597
30
0
11
-0.725939782446796
21
0.180320360084761
31
0
210
0
220
0
230
1
40
0.168992
41
1.57501756321797
42
1.65047983412279
0
ELLIPSE
5
1AF
100
AcDbEntity
8
1
62
256
6
ByLayer
370
-1
48
1
60
0
100
AcDbEllipse
10
42.093048
20
1.952098
30
0
11
-1.00447550111288
21
0.249507450117283
31
0
210
0
220
0
230
1
40
0.168992
41
1.0882954969648
42
2.13720402945504
0
ELLIPSE
5
1B0
100
AcDbEntity
8
1
62
256
6
ByLayer
370
-1
48
1
60
0
100
AcDbEllipse
10
42.093048
20
1.952098
30
0
11
-1.00447550111288
21
0.249507450117283
31
0
210
0
220
0
230
1
40
0.168992
41
-3.09963601798866
42
-2.053297156625
0
ELLIPSE
5
1B1
100
AcDbEntity
8
1
62
256
6
ByLayer
370
-1
48
1
60
0
100
AcDbEllipse
10
42.093048
20
1.952098
30
0
11
-1.261660049707
21
0.313391000147312
31
0
210
0
220
0
230
1
40
0.168992
41
0
42
6.28318530717959
0
ELLIPSE
5
1B2
100
AcDbEntity
8
1
62
256
6
ByLayer
370
-1
48
1
60
0
100
AcDbEllipse
10
42.093048
20
1.952098
30
0
11
-1.00447550111288
21
0.249507450117283
31
0
210
0
220
0
230
1
40
0.168992
41
0.0419566356011371
42
1.0882954969648
0
ELLIPSE
5
1B3
100
AcDbEntity
8
1
62
256
6
ByLayer
370
-1
48
1
60
0
100
AcDbEllipse
10
42.093048
20
1.952098
30
0
11
-1.00447550111288
21
0.249507450117283
31
0
210
0
220
0
230
1
40
0.168992
41
-1.00438862413475
42
0.0419566356011371
0
ELLIPSE
5
1B4
100
AcDbEntity
8
1
62
256
6
ByLayer
370
-1
48
1
60
0
100
AcDbEllipse
10
33.471696
20
11.880238
30
0
11
-0.705575346858054
21
0.248329277182807
31
0
210
0
220
0
230
1
40
0.698418
41
1.7740963934093
42
1.8495590233117
0
ELLIPSE
5
1B5
100
AcDbEntity
8
1
62
256
6
ByLayer
370
-1
48
1
60
0
100
AcDbEllipse
10
33.273464
20
11.317003
30
0
11
-0.705575346858054
21
0.248329277182807
31
0
210
0
220
0
230
1
40
0.698418
41
1.7740963934093
42
1.84955902331171
0
ELLIPSE
5
1B6
100
AcDbEntity
8
1
62
256
6
ByLayer
370
-1
48
1
60
0
100
AcDbEllipse
10
33.275419
20
11.322556
30
0
11
-1.62716239750019
21
0.572684496176928
31
0
210
0
220
0
230
1
40
0.698418
41
-3.07302383077375
42
0
0
ELLIPSE
5
1B7
100
AcDbEntity
8
1
62
256
6
ByLayer
370
-1
48
1
60
0
100
AcDbEllipse
10
33.275419
20
11.322556
30
0
11
-1.62716239750019
21
0.572684496176928
31
0
210
0
220
0
230
1
40
0.698418
41
0.934168770047992
42
-3.14155649918813
0
ELLIPSE
5
1B8
100
AcDbEntity
8
1
62
256
6
ByLayer
370
-1
48
1
60
0
100
AcDbEllipse
10
33.275419
20
11.322556
30
0
11
-1.62716239750019
21
0.572684496176928
31
0
210
0
220
0
230
1
40
0.698418
41
0
42
0.106179234250398
0
ELLIPSE
5
1B9
100
AcDbEntity
8
1
62
256
6
ByLayer
370
-1
48
1
60
0
100
AcDbEllipse
10
33.471696
20
11.040059
30
0
11
0.39806523579425
21
-0.140100207180675
31
0
210
0
220
0
230
1
40
0.698418
41
1.87874097826752
42
2.58891551133741
0
ELLIPSE
5
1BA
100
AcDbEntity
8
1
62
256
6
ByLayer
370
-1
48
1
60
0
100
AcDbEllipse
10
33.234093
20
11.205139
30
0
11
-0.976297438500116
21
0.343610697706157
31
0
210
0
220
0
230
1
40
0.698418
41
-2.90055700829859
42
-1.85422021089172
0
ELLIPSE
5
1BB
100
AcDbEntity
8
1
62
256
6
ByLayer
370
-1
48
1
60
0
100
AcDbEllipse
10
33.234093
20
11.205139
30
0
11
-0.976297438500116
21
0.343610697706157
31
0
210
0
220
0
230
1
40
0.698418
41
1.28737244269808
42
2.33628510311719
0
ELLIPSE
5
1BC
100
AcDbEntity
8
1
62
256
6
ByLayer
370
-1
48
1
60
0
100
AcDbEllipse
10
33.234093
20
11.205139
30
0
11
-0.976297438500116
21
0.343610697706157
31
0
210
0
220
0
230
1
40
0.698418
41
-0.805307550472614
42
0.241035645291206
0
ELLIPSE
5
1BD
100
AcDbEntity
8
1
62
256
6
ByLayer
370
-1
48
1
60
0
100
AcDbEllipse
10
32.48722
20
11.627288
30
0
11
0.39806523579425
21
-0.140100207180675
31
0
210
0
220
0
230
1
40
0.698418
41
-0.0106947982508375
42
0.76420478960789
0
ELLIPSE
5
1BE
100
AcDbEntity
8
1
62
256
6
ByLayer
370
-1
48
1
60
0
100
AcDbEllipse
10
33.471696
20
11.880238
30
0
11
0.705575346858054
21
-0.248329277182807
31
0
210
0
220
0
230
1
40
0.698418
41
-2.37738786398189
42
-1.36749626018049
0
ELLIPSE
5
1BF
100
AcDbEntity
8
1
62
256
6
ByLayer
370
-1
48
1
60
0
100
AcDbEllipse
10
33.234093
20
11.205139
30
0
11
-0.976297438500116
21
0.343610697706157
31
0
210
0
220
0
230
1
40
0.698418
41
-1.85422021089172
42
-0.805307550472614
0
ELLIPSE
5
1C0
100
AcDbEntity
8
1
62
256
6
ByLayer
370
-1
48
1
60
0
100
AcDbEllipse
10
33.234093
20
11.205139
30
0
11
-0.976297438500116
21
0.343610697706157
31
0
210
0
220
0
230
1
40
0.698418
41
2.33628510311719
42
-2.90055700829859
0
ELLIPSE
5
1C1
100
AcDbEntity
8
1
62
256
6
ByLayer
370
-1
48
1
60
0
100
AcDbEllipse
10
33.234093
20
11.205139
30
0
11
-0.976297438500116
21
0.343610697706157
31
0
210
0
220
0
230
1
40
0.698418
41
0.241035645291206
42
1.28737244269808
0
ELLIPSE
5
1C2
100
AcDbEntity
8
1
62
256
6
ByLayer
370
-1
48
1
60
0
100
AcDbEllipse
10
33.273464
20
11.317003
30
0
11
-0.705575346858054
21
0.248329277182807
31
0
210
0
220
0
230
1
40
0.698418
41
-1.36749626018049
42
-1.2920336302781
0
ELLIPSE
5
1C3
100
AcDbEntity
8
1
62
256
6
ByLayer
370
-1
48
1
60
0
100
AcDbEllipse
10
33.471696
20
11.880238
30
0
11
0.705575346858054
21
-0.248329277182807
31
0
210
0
220
0
230
1
40
0.698418
41
-2.78821651421232
42
-2.37753620764845
0
ELLIPSE
5
1C4
100
AcDbEntity
8
1
62
256
6
ByLayer
370
-1
48
1
60
0
100
AcDbEllipse
10
33.471696
20
11.880238
30
0
11
-0.705575346858054
21
0.248329277182807
31
0
210
0
220
0
230
1
40
0.698418
41
1.8495590233117
42
2.55696134197128
0
ELLIPSE
5
1C5
100
AcDbEntity
8
1
62
256
6
ByLayer
370
-1
48
1
60
0
100
AcDbEllipse
10
32.48722
20
11.627288
30
0
11
0.39806523579425
21
-0.140100207180675
31
0
210
0
220
0
230
1
40
0.698418
41
0.764472133433783
42
1.22551381422508
0
ELLIPSE
5
1C6
100
AcDbEntity
8
1
62
256
6
ByLayer
370
-1
48
1
60
0
100
AcDbEllipse
10
33.234093
20
11.205139
30
0
11
-1.22626731405812
21
0.431588315959424
31
0
210
0
220
0
230
1
40
0.698418
41
0
42
6.28318530717959
0
ELLIPSE
5
1C7
100
AcDbEntity
8
1
62
256
6
ByLayer
370
-1
48
1
60
0
100
AcDbEllipse
10
33.058254
20
11.421506
30
0
11
0.174507271615963
21
-0.0614183372711489
31
0
210
0
220
0
230
1
40
0.698418
41
3.13089785533895
42
-0.552677142252361
0
ELLIPSE
5
1C8
100
AcDbEntity
8
1
62
256
6
ByLayer
370
-1
48
1
60
0
100
AcDbEllipse
10
33.885139
20
11.280938
30
0
11
0.174507271615963
21
-0.0614183372711489
31
0
210
0
220
0
230
1
40
0.698418
41
-2.10684856153818
42
-0.915495890579209
0
ELLIPSE
5
1C9
100
AcDbEntity
8
1
62
256
6
ByLayer
370
-1
48
1
60
0
100
AcDbEllipse
10
33.471696
20
11.040059
30
0
11
0.39806523579425
21
-0.140100207180675
31
0
210
0
220
0
230
1
40
0.698418
41
1.03474409205157
42
1.74491446447987
0
ELLIPSE
5
1CA
100
AcDbEntity
8
1
62
256
6
ByLayer
370
-1
48
1
60
0
100
AcDbEllipse
10
24.199299
20
17.067901
30
0
11
0.092116838081371
21
-0.160435308276858
31
0
210
0
220
0
230
1
40
0.961735
41
-2.28382856198086
42
-1.85807966409805
0
ELLIPSE
5
1CB
100
AcDbEntity
8
1
62
256
6
ByLayer
370
-1
48
1
60
0
100
AcDbEllipse
10
24.612742
20
15.168296
30
0
11
0.210125976596425
21
-0.365965946447752
31
0
210
0
220
0
230
1
40
0.961735
41
1.82628829944294
42
2.53645903435591
0
ELLIPSE
5
1CC
100
AcDbEntity
8
1
62
256
6
ByLayer
370
-1
48
1
60
0
100
AcDbEllipse
10
24.612742
20
16.325237
30
0
11
0.372450783161435
21
-0.648678976168053
31
0
210
0
220
0
230
1
40
0.961735
41
2.08551683662014
42
2.46107129376747
0
ELLIPSE
5
1CD
100
AcDbEntity
8
1
62
256
6
ByLayer
370
-1
48
1
60
0
100
AcDbEllipse
10
24.375139
20
16.188812
30
0
11
-0.51535636440118
21
0.897570508467829
31
0
210
0
220
0
230
1
40
0.961735
41
2.07891670572328
42
3.12783009148963
0
ELLIPSE
5
1CE
100
AcDbEntity
8
1
62
256
6
ByLayer
370
-1
48
1
60
0
100
AcDbEllipse
10
24.375139
20
16.188812
30
0
11
-0.51535636440118
21
0.897570508467829
31
0
210
0
220
0
230
1
40
0.961735
41
-2.10901238260111
42
-1.06267594786653
0
ELLIPSE
5
1CF
100
AcDbEntity
8
1
62
256
6
ByLayer
370
-1
48
1
60
0
100
AcDbEllipse
10
24.199299
20
15.610973
30
0
11
0.092116838081371
21
-0.160435308276858
31
0
210
0
220
0
230
1
40
0.961735
41
-2.36074262429841
42
-0.626642308950403
0
ELLIPSE
5
1D0
100
AcDbEntity
8
1
62
256
6
ByLayer
370
-1
48
1
60
0
100
AcDbEllipse
10
24.375139
20
16.188812
30
0
11
-0.51535636440118
21
0.897570508467829
31
0
210
0
220
0
230
1
40
0.961735
41
-1.06267594786653
42
-0.0137625621001639
0
ELLIPSE
5
1D1
100
AcDbEntity
8
1
62
256
6
ByLayer
370
-1
48
1
60
0
100
AcDbEllipse
10
24.612742
20
16.325237
30
0
11
0.372450783161435
21
-0.648678976168053
31
0
210
0
220
0
230
1
40
0.961735
41
-2.6321832965127
42
-1.58584360041887
0
ELLIPSE
5
1D2
100
AcDbEntity
8
1
62
256
6
ByLayer
370
-1
48
1
60
0
100
AcDbEllipse
10
23.628265
20
16.937821
30
0
11
0.210125976596425
21
-0.365965946447752
31
0
210
0
220
0
230
1
40
0.961735
41
2.646765873735E-05
42
0.509409357077134
0
ELLIPSE
5
1D3
100
AcDbEntity
8
1
62
256
6
ByLayer
370
-1
48
1
60
0
100
AcDbEllipse
10
24.612742
20
16.325237
30
0
11
-0.372450783161432
21
0.648678976168054
31
0
210
0
220
0
230
1
40
0.961735
41
2.56564098756576
42
2.64110368055023
0
ELLIPSE
5
1D4
100
AcDbEntity
8
1
62
256
6
ByLayer
370
-1
48
1
60
0
100
AcDbEllipse
10
24.612742
20
16.325237
30
0
11
0.372450783161435
21
-0.648678976168053
31
0
210
0
220
0
230
1
40
0.961735
41
0.641298840836397
42
1.02513834051571
0
ELLIPSE
5
1D5
100
AcDbEntity
8
1
62
256
6
ByLayer
370
-1
48
1
60
0
100
AcDbEllipse
10
23.628265
20
15.780278
30
0
11
0.210125976596425
21
-0.365965946447752
31
0
210
0
220
0
230
1
40
0.961735
41
1.55574905317091
42
2.33064586192972
0
ELLIPSE
5
1D6
100
AcDbEntity
8
1
62
256
6
ByLayer
370
-1
48
1
60
0
100
AcDbEllipse
10
24.375139
20
16.188812
30
0
11
-0.51535636440118
21
0.897570508467829
31
0
210
0
220
0
230
1
40
0.961735
41
1.03258027098869
42
2.07891670572328
0
ELLIPSE
5
1D7
100
AcDbEntity
8
1
62
256
6
ByLayer
370
-1
48
1
60
0
100
AcDbEllipse
10
24.41451
20
16.211418
30
0
11
-0.372450783161432
21
0.648678976168054
31
0
210
0
220
0
230
1
40
0.961735
41
-0.575951666024037
42
-0.500488973039569
0
ELLIPSE
5
1D8
100
AcDbEntity
8
1
62
256
6
ByLayer
370
-1
48
1
60
0
100
AcDbEllipse
10
24.612742
20
16.325237
30
0
11
0.372450783161435
21
-0.648678976168053
31
0
210
0
220
0
230
1
40
0.961735
41
-1.58584360041887
42
-0.575951666024035
0
ELLIPSE
5
1D9
100
AcDbEntity
8
1
62
256
6
ByLayer
370
-1
48
1
60
0
100
AcDbEllipse
10
23.787084
20
16.353595
30
0
11
0.092116838081371
21
-0.160435308276858
31
0
210
0
220
0
230
1
40
0.961735
41
-2.62233984136895
42
-0.811530242508187
0
ELLIPSE
5
1DA
100
AcDbEntity
8
1
62
256
6
ByLayer
370
-1
48
1
60
0
100
AcDbEllipse
10
24.375139
20
16.188812
30
0
11
-0.51535636440118
21
0.897570508467829
31
0
210
0
220
0
230
1
40
0.961735
41
3.12783009148963
42
-2.10901238260111
0
ELLIPSE
5
1DB
100
AcDbEntity
8
1
62
256
6
ByLayer
370
-1
48
1
60
0
100
AcDbEllipse
10
23.628265
20
15.780278
30
0
11
0.210125976596425
21
-0.365965946447752
31
0
210
0
220
0
230
1
40
0.961735
41
0.780850029291439
42
1.55574905317091
0
ELLIPSE
5
1DC
100
AcDbEntity
8
1
62
256
6
ByLayer
370
-1
48
1
60
0
100
AcDbEllipse
10
24.375139
20
16.188812
30
0
11
-0.51535636440118
21
0.897570508467829
31
0
210
0
220
0
230
1
40
0.961735
41
-0.0137625621001639
42
1.03258027098869
0
ELLIPSE
5
1DD
100
AcDbEntity
8
1
62
256
6
ByLayer
370
-1
48
1
60
0
100
AcDbEllipse
10
24.612742
20
15.168296
30
0
11
0.210125976596425
21
-0.365965946447752
31
0
210
0
220
0
230
1
40
0.961735
41
2.67043511998443
42
3.14156539517224
0
ELLIPSE
5
1DE
100
AcDbEntity
8
1
62
256
6
ByLayer
370
-1
48
1
60
0
100
AcDbEllipse
10
24.375139
20
16.188812
30
0
11
-0.647307510842062
21
1.1273832473509
31
0
210
0
220
0
230
1
40
0.961735
41
0
42
6.28318530717959
0
ELLIPSE
5
1DF
100
AcDbEntity
8
1
62
256
6
ByLayer
370
-1
48
1
60
0
100
AcDbEllipse
10
24.41451
20
16.211418
30
0
11
-0.372450783161432
21
0.648678976168054
31
0
210
0
220
0
230
1
40
0.961735
41
2.56564098756575
42
2.64110368055023
0
ELLIPSE
5
1E0
100
AcDbEntity
8
1
62
256
6
ByLayer
370
-1
48
1
60
0
100
AcDbEllipse
10
23.628265
20
16.937821
30
0
11
0.210125976596425
21
-0.365965946447752
31
0
210
0
220
0
230
1
40
0.961735
41
0.509409357077134
42
1.28430998288268
0
ELLIPSE
5
1E1
100
AcDbEntity
8
1
62
256
6
ByLayer
370
-1
48
1
60
0
100
AcDbEllipse
10
25.026184
20
15.582573
30
0
11
0.092116838081371
21
-0.160435308276858
31
0
210
0
220
0
230
1
40
0.961735
41
-1.31530435414679
42
-0.853112706270537
0
ELLIPSE
5
1E2
100
AcDbEntity
8
1
62
256
6
ByLayer
370
-1
48
1
60
0
100
AcDbEllipse
10
24.416464
20
16.21254
30
0
11
-0.858927274001967
21
1.49595084744638
31
0
210
0
220
0
230
1
40
0.961735
41
1.72562293451662
42
-2.07524604734386
0
ELLIPSE
5
1E3
100
AcDbEntity
8
1
62
256
6
ByLayer
370
-1
48
1
60
0
100
AcDbEllipse
10
24.416464
20
16.21254
30
0
11
-0.858927274001967
21
1.49595084744638
31
0
210
0
220
0
230
1
40
0.961735
41
-2.07524604734386
42
0
0
ELLIPSE
5
1E4
100
AcDbEntity
8
1
62
256
6
ByLayer
370
-1
48
1
60
0
100
AcDbEllipse
10
24.416464
20
16.21254
30
0
11
-0.858927274001967
21
1.49595084744638
31
0
210
0
220
0
230
1
40
0.961735
41
0
42
0.64611982097997
0
ELLIPSE
5
1E5
100
AcDbEntity
8
1
62
256
6
ByLayer
370
-1
48
1
60
0
100
AcDbEllipse
10
24.612742
20
16.325237
30
0
11
-0.372450783161432
21
0.648678976168054
31
0
210
0
220
0
230
1
40
0.961735
41
2.64110368055023
42
-3.11971198990315
0
ELLIPSE
5
1E6
100
AcDbEntity
8
1
62
256
6
ByLayer
370
-1
48
1
60
0
100
AcDbEllipse
10
24.612742
20
16.325237
30
0
11
0.372450783161435
21
-0.648678976168053
31
0
210
0
220
0
230
1
40
0.961735
41
3.10245576446593
42
-2.63229206920839
0
POINT
5
42
100
AcDbEntity
8
2
62
256
6
ByLayer
370
-1
48
1
60
0
100
AcDbPoint
10
56.7
20
19.92
30
0
39
0
210
0
220
0
230
1
50
360
0
POINT
5
44
100
AcDbEntity
8
80
62
256
6
ByLayer
370
-1
48
1
60
0
100
AcDbPoint
10
0
20
0
30
0
39
0
210
0
220
0
230
1
50
360
0
POINT
5
46
100
AcDbEntity
8
81
62
256
6
ByLayer
370
-1
48
1
60
0
100
AcDbPoint
10
56.7
20
19.92
30
0
39
0
210
0
220
0
230
1
50
360
0
SPLINE
5
1E7
100
AcDbEntity
8
1
62
256
6
ByLayer
370
-1
48
1
60
0
100
AcDbSpline
70
4
71
2
72
6
73
3
40
0
40
0
40
0
40
1
40
1
40
1
41
1
10
46.8164571293501
20
19.5785092784532
30
-2E-16
41
1
10
46.7352125913111
20
19.5754650956584
30
-2E-16
41
1
10
46.6542378595399
20
19.5634308699983
30
-2E-16
0
SPLINE
5
1E8
100
AcDbEntity
8
1
62
256
6
ByLayer
370
-1
48
1
60
0
100
AcDbSpline
70
4
71
2
72
6
73
3
40
0
40
0
40
0
40
1
40
1
40
1
41
1
10
55.6013246667293
20
13.1707775844294
30
0
41
1
10
55.6826638008652
20
13.173530521035
30
0
41
1
10
55.7627364917028
20
13.185859299827
30
0
0
SPLINE
5
1E9
100
AcDbEntity
8
1
62
256
6
ByLayer
370
-1
48
1
60
0
100
AcDbSpline
70
4
71
1
72
4
73
2
40
0
40
0
40
1
40
1
41
1
10
47.8134133330244
20
0.983571195236152
30
-5E-16
41
1
10
47.3211484199605
20
4.82220844073188
30
-6E-16
0
SPLINE
5
1EA
100
AcDbEntity
8
1
62
256
6
ByLayer
370
-1
48
1
60
0
100
AcDbSpline
70
4
71
2
72
6
73
3
40
0
40
0
40
0
40
1
40
1
40
1
41
1
10
37.9084506575553
20
4.62116715447794
30
-1.2E-15
41
1
10
37.8448544303805
20
4.63769823177063
30
-1.2E-15
41
1
10
37.7815455892378
20
4.65123191045617
30
-1.2E-15
0
SPLINE
5
1EB
100
AcDbEntity
8
1
62
256
6
ByLayer
370
-1
48
1
60
0
100
AcDbSpline
70
4
71
3
72
15
73
11
40
0
40
0
40
0
40
0
40
0.0561146167786858
40
0.114147976090373
40
0.190084755147193
40
0.294601443145573
40
0.42777219406676
40
0.589724607744998
40
0.78059007852855
40
1
40
1
40
1
40
1
41
1
10
43.5720953256375
20
1.63303342174194
30
-8E-16
41
1
10
43.6392500896211
20
1.6176237679006
30
-8E-16
41
1
10
43.7761948171748
20
1.58578552390108
30
-8E-16
41
1
10
44.0058265392972
20
1.53192540015954
30
-8E-16
41
1
10
44.2951922932811
20
1.46253336663426
30
-8E-16
41
1
10
44.6752674548549
20
1.36821192723977
30
-7E-16
41
1
10
45.1585327351058
20
1.24205345693284
30
-7E-16
41
1
10
45.7443398874023
20
1.08148006622295
30
-7E-16
41
1
10
46.4304226523051
20
0.878874279242439
30
-6E-16
41
1
10
46.9284954714793
20
0.75446129475759
30
-6E-16
41
1
10
47.1957834828325
20
0.69097184179148
30
-6E-16
0
SPLINE
5
1EC
100
AcDbEntity
8
1
62
256
6
ByLayer
370
-1
48
1
60
0
100
AcDbSpline
70
4
71
3
72
14
73
10
40
0
40
0
40
0
40
0
40
0.178418891471872
40
0.321451056225671
40
0.429994670732824
40
0.504965552004947
40
0.617295096506473
40
0.782339353732395
40
1
40
1
40
1
40
1
41
1
10
38.8941909254672
20
6.86524223760642
30
-1.1E-15
41
1
10
38.8060411493979
20
6.7307712087098
30
-1.1E-15
41
1
10
38.6463840887541
20
6.48819162375841
30
-1.1E-15
41
1
10
38.4312095593623
20
6.16303897280773
30
-1.1E-15
41
1
10
38.2660368974835
20
5.91556346745762
30
-1.1E-15
41
1
10
38.1108365371802
20
5.68139396571823
30
-1.1E-15
41
1
10
37.9292255285101
20
5.40848340180187
30
-1.1E-15
41
1
10
37.6797895895754
20
5.04385430638425
30
-1.2E-15
41
1
10
37.4887803963345
20
4.76844644393552
30
-1.2E-15
41
1
10
37.3811530369687
20
4.61523000636547
30
-1.2E-15
0
SPLINE
5
1ED
100
AcDbEntity
8
1
62
256
6
ByLayer
370
-1
48
1
60
0
100
AcDbSpline
70
4
71
3
72
11
73
7
40
0
40
0
40
0
40
0
40
0.0529750362078521
40
0.311828476062172
40
0.62604028988513
40
1
40
1
40
1
40
1
41
1
10
37.333019973789
20
4.38588513332678
30
6E-16
41
1
10
37.3151315127626
20
4.36731298651799
30
6E-16
41
1
10
37.2102100995366
20
4.2557404053068
30
6E-16
41
1
10
37.008148006656
20
4.00952780271831
30
6E-16
41
1
10
36.7215465446051
20
3.60982648527318
30
6E-16
41
1
10
36.5169453226195
20
3.31364314516347
30
5E-16
41
1
10
36.4080450965661
20
3.14933047570895
30
5E-16
0
SPLINE
5
1EE
100
AcDbEntity
8
1
62
256
6
ByLayer
370
-1
48
1
60
0
100
AcDbSpline
70
4
71
3
72
9
73
5
40
0
40
0
40
0
40
0
40
0.547416373617823
40
1
40
1
40
1
40
1
41
1
10
56.1770836584581
20
-11.6770183765183
30
0
41
1
10
56.2097308039889
20
-11.4703472981937
30
0
41
1
10
56.2697522336362
20
-11.0909039537414
30
0
41
1
10
56.3304869079388
20
-10.7074626405404
30
0
41
1
10
56.3581146692334
20
-10.5333231021425
30
0
0
SPLINE
5
1EF
100
AcDbEntity
8
1
62
256
6
ByLayer
370
-1
48
1
60
0
100
AcDbSpline
70
4
71
3
72
8
73
4
40
0
40
0
40
0
40
0
40
1
40
1
40
1
40
1
41
1
10
56.5682661887494
20
-9.21269649660508
30
0
41
1
10
56.6029141576712
20
-8.99508313577655
30
0
41
1
10
56.6376601061377
20
-8.77679677523727
30
0
41
1
10
56.6725316878447
20
-8.55781069923393
30
0
0
SPLINE
5
1F0
100
AcDbEntity
8
1
62
256
6
ByLayer
370
-1
48
1
60
0
100
AcDbSpline
70
4
71
3
72
9
73
5
40
0
40
0
40
0
40
0
40
0.0467817857354908
40
1
40
1
40
1
40
1
41
1
10
47.4555006525457
20
12.9288408979766
30
-6E-16
41
1
10
47.4558275599083
20
12.9304516480432
30
-6E-16
41
1
10
47.4628213035815
20
12.9649046741213
30
-6E-16
41
1
10
47.4699474524197
20
12.9998625785033
30
-6E-16
41
1
10
47.4768144669502
20
13.033442500404
30
-6E-16
0
SPLINE
5
1F1
100
AcDbEntity
8
1
62
256
6
ByLayer
370
-1
48
1
60
0
100
AcDbSpline
70
4
71
2
72
6
73
3
40
0
40
0
40
0
40
1
40
1
40
1
41
1
10
20.2322639958652
20
19.7916068949593
30
0
41
1
10
20.1536610408386
20
19.7938203153197
30
0
41
1
10
20.0753316595583
20
19.7868469014353
30
0
0
SPLINE
5
1F2
100
AcDbEntity
8
1
62
256
6
ByLayer
370
-1
48
1
60
0
100
AcDbSpline
70
4
71
3
72
10
73
6
40
0
40
0
40
0
40
0
40
0.197937224907784
40
0.575838834115996
40
1
40
1
40
1
40
1
41
1
10
46.8984934127165
20
-3.67694275363084
30
-6E-16
41
1
10
46.7954129642161
20
-3.80198511197153
30
-6E-16
41
1
10
46.4947336112193
20
-4.16434524718443
30
-6E-16
41
1
10
45.967585101591
20
-4.7851306745346
30
-7E-16
41
1
10
45.5430954067726
20
-5.2761283472895
30
-7E-16
41
1
10
45.3177898724636
20
-5.53362334071849
30
-7E-16
0
SPLINE
5
1F3
100
AcDbEntity
8
1
62
256
6
ByLayer
370
-1
48
1
60
0
100
AcDbSpline
70
4
71
3
72
8
73
4
40
0
40
0
40
0
40
0
40
1
40
1
40
1
40
1
41
1
10
50.4153963834288
20
-8.69723271955164
30
-4E-16
41
1
10
50.4339484946222
20
-8.70616381886765
30
-4E-16
41
1
10
50.4535239957098
20
-8.7149683184505
30
-4E-16
41
1
10
50.4739489386341
20
-8.72366768216665
30
-4E-16
0
SPLINE
5
1F4
100
AcDbEntity
8
1
62
256
6
ByLayer
370
-1
48
1
60
0
100
AcDbSpline
70
4
71
3
72
13
73
9
40
0
40
0
40
0
40
0
40
0.31897158463269
40
0.744537151503973
40
0.873008856633659
40
0.921643649513583
40
0.964787914894927
40
1
40
1
40
1
40
1
41
1
10
46.6052830805336
20
-7.55373177042426
30
-6E-16
41
1
10
46.6258331744041
20
-7.55924029433035
30
-6E-16
41
1
10
46.6733696924902
20
-7.57124089961769
30
-6E-16
41
1
10
46.7294300300358
20
-7.58465266537704
30
-6E-16
41
1
10
46.7661753623417
20
-7.5911900370466
30
-6E-16
41
1
10
46.7768563418004
20
-7.59194406183678
30
-6E-16
41
1
10
46.781107667641
20
-7.59147654199248
30
-6E-16
41
1
10
46.7816692446707
20
-7.5905566270412
30
-6E-16
41
1
10
46.7817135438257
20
-7.59007839070151
30
-6E-16
0
SPLINE
5
1F5
100
AcDbEntity
8
1
62
256
6
ByLayer
370
-1
48
1
60
0
100
AcDbSpline
70
4
71
3
72
8
73
4
40
0
40
0
40
0
40
0
40
1
40
1
40
1
40
1
41
1
10
48.2101037562393
20
-7.95901102330768
30
-5E-16
41
1
10
48.2800138587885
20
-7.97914186273638
30
-5E-16
41
1
10
48.3497272487309
20
-7.99961701034741
30
-5E-16
41
1
10
48.4193131746931
20
-8.02039250262374
30
-5E-16
0
SPLINE
5
1F6
100
AcDbEntity
8
1
62
256
6
ByLayer
370
-1
48
1
60
0
100
AcDbSpline
70
4
71
1
72
4
73
2
40
0
40
0
40
1
40
1
41
1
10
56.6732417381985
20
-9.9635978386755
30
0
41
1
10
56.1803392563016
20
-6.42872708926996
30
0
0
SPLINE
5
1F7
100
AcDbEntity
8
1
62
256
6
ByLayer
370
-1
48
1
60
0
100
AcDbSpline
70
4
71
3
72
10
73
6
40
0
40
0
40
0
40
0
40
0.474296718004514
40
0.97363662614754
40
1
40
1
40
1
40
1
41
1
10
38.4016569229631
20
9.15894489188995
30
7E-16
41
1
10
38.3931311084405
20
9.27752132582043
30
7E-16
41
1
10
38.3758492548829
20
9.52086720633255
30
7E-16
41
1
10
38.3586118498051
20
9.76988822889075
30
7E-16
41
1
10
38.3496384657686
20
9.90144381909403
30
7E-16
41
1
10
38.3491887139673
20
9.90804222128642
30
7E-16
0
SPLINE
5
1F8
100
AcDbEntity
8
1
62
256
6
ByLayer
370
-1
48
1
60
0
100
AcDbSpline
70
4
71
3
72
10
73
6
40
0
40
0
40
0
40
0
40
0.362695052524395
40
0.695586328137446
40
1
40
1
40
1
40
1
41
1
10
38.9448523208781
20
12.1218808835501
30
7E-16
41
1
10
38.8784270801187
20
12.3954900504737
30
7E-16
41
1
10
38.7560368125376
20
12.9232869875438
30
7E-16
41
1
10
38.599112967644
20
13.6923487546581
30
7E-16
41
1
10
38.5007662631129
20
14.1851604063806
30
7E-16
41
1
10
38.4549090524063
20
14.4214280976694
30
7E-16
0
SPLINE
5
1F9
100
AcDbEntity
8
1
62
256
6
ByLayer
370
-1
48
1
60
0
100
AcDbSpline
70
4
71
2
72
6
73
3
40
0
40
0
40
0
40
1
40
1
40
1
41
1
10
29.072277166299
20
15.0755729951407
30
1E-16
41
1
10
29.0005068710539
20
15.0882813163833
30
1E-16
41
1
10
28.9290185221367
20
15.0937184212075
30
1E-16
0
SPLINE
5
1FA
100
AcDbEntity
8
1
62
256
6
ByLayer
370
-1
48
1
60
0
100
AcDbSpline
70
4
71
2
72
6
73
3
40
0
40
0
40
0
40
1
40
1
40
1
41
1
10
37.8400095886053
20
8.78133948663057
30
6E-16
41
1
10
37.9373188541576
20
8.76665166879417
30
6E-16
41
1
10
38.0332113795352
20
8.75860913670923
30
6E-16
0
SPLINE
5
1FB
100
AcDbEntity
8
1
62
256
6
ByLayer
370
-1
48
1
60
0
100
AcDbSpline
70
4
71
3
72
10
73
6
40
0
40
0
40
0
40
0
40
0.278555185208152
40
0.611852643007825
40
1
40
1
40
1
40
1
41
1
10
30.1502981296239
20
15.9907112472768
30
2E-16
41
1
10
30.0139825342804
20
15.9036394303101
30
1E-16
41
1
10
29.713247339818
20
15.7122613674888
30
1E-16
41
1
10
29.2156272836206
20
15.3990028741375
30
1E-16
41
1
10
28.8547669204368
20
15.1726800663844
30
1E-16
41
1
10
28.6597767825447
20
15.0508142009673
30
1E-16
0
SPLINE
5
1FC
100
AcDbEntity
8
1
62
256
6
ByLayer
370
-1
48
1
60
0
100
AcDbSpline
70
4
71
1
72
4
73
2
40
0
40
0
40
1
40
1
41
1
10
30.1294559783775
20
-12.2420009881338
30
1E-16
41
1
10
30.012101579362
20
-12.2618069778269
30
1E-16
0
SPLINE
5
1FD
100
AcDbEntity
8
1
62
256
6
ByLayer
370
-1
48
1
60
0
100
AcDbSpline
70
4
71
2
72
6
73
3
40
0
40
0
40
0
40
1
40
1
40
1
41
1
10
28.9379067387511
20
-18.7116078756227
30
1E-16
41
1
10
29.0209188433411
20
-18.7269047351188
30
1E-16
41
1
10
29.1041976553382
20
-18.7336653977817
30
1E-16
0
SPLINE
5
1FE
100
AcDbEntity
8
1
62
256
6
ByLayer
370
-1
48
1
60
0
100
AcDbSpline
70
4
71
3
72
8
73
4
40
0
40
0
40
0
40
0
40
1
40
1
40
1
40
1
41
1
10
19.0698742395993
20
-7.72107349736254
30
-5E-16
41
1
10
18.9800373651731
20
-7.80716404778488
30
-5E-16
41
1
10
18.8900668615605
20
-7.89326965666694
30
-5E-16
41
1
10
18.7999304967989
20
-7.97940749748111
30
-5E-16
0
SPLINE
5
1FF
100
AcDbEntity
8
1
62
256
6
ByLayer
370
-1
48
1
60
0
100
AcDbSpline
70
4
71
3
72
10
73
6
40
0
40
0
40
0
40
0
40
0.376487319082529
40
0.715223009629483
40
1
40
1
40
1
40
1
41
1
10
30.0880083704031
20
-12.6802900381351
30
1E-16
41
1
10
30.041097889308
20
-12.4300073040319
30
1E-16
41
1
10
29.9516140981267
20
-11.937007668669
30
1E-16
41
1
10
29.8260011236398
20
-11.2010309386129
30
1E-16
41
1
10
29.746606221654
20
-10.7169644262927
30
1E-16
41
1
10
29.7096707089615
20
-10.4902361244812
30
1E-16
0
SPLINE
5
200
100
AcDbEntity
8
1
62
256
6
ByLayer
370
-1
48
1
60
0
100
AcDbSpline
70
4
71
2
72
6
73
3
40
0
40
0
40
0
40
1
40
1
40
1
41
1
10
20.097653572273
20
-11.2620410578037
30
1.3E-15
41
1
10
20.2043729508482
20
-11.2900593869758
30
1.3E-15
41
1
10
20.3113081937101
20
-11.312649850289
30
1.3E-15
0
SPLINE
5
201
100
AcDbEntity
8
1
62
256
6
ByLayer
370
-1
48
1
60
0
100
AcDbSpline
70
4
71
3
72
16
73
12
40
0
40
0
40
0
40
0
40
0.220287332839996
40
0.220287332839996
40
0.440555413815004
40
0.440555413815004
40
0.660747230303654
40
0.660747230303654
40
0.8764177771201
40
0.8764177771201
40
1
40
1
40
1
40
1
41
1
10
17.4555026439042
20
-8.54152899320377
30
1.1E-15
41
1
10
17.4911906444459
20
-8.41661055576574
30
1.2E-15
41
1
10
17.5517402110851
20
-8.29470888666461
30
1.2E-15
41
1
10
17.7121341702296
20
-8.07757767116192
30
1.2E-15
41
1
10
17.814214446062
20
-7.9793257792341
30
1.2E-15
41
1
10
18.0455645626415
20
-7.82091564705678
30
1.2E-15
41
1
10
18.1781461258794
20
-7.75854590991224
30
1.2E-15
41
1
10
18.4520944380709
20
-7.68067122441522
30
1.2E-15
41
1
10
18.59711900317
20
-7.66320225906347
30
1.2E-15
41
1
10
18.821132505432
20
-7.67218187991196
30
1.2E-15
41
1
10
18.9033096767586
20
-7.68312037091562
30
1.2E-15
41
1
10
18.9830311988136
20
-7.70137889359901
30
1.2E-15
0
SPLINE
5
202
100
AcDbEntity
8
1
62
256
6
ByLayer
370
-1
48
1
60
0
100
AcDbSpline
70
4
71
3
72
14
73
10
40
0
40
0
40
0
40
0
40
0.153795494600215
40
0.153795494600215
40
0.504076510104854
40
0.504076510104854
40
0.920401333260243
40
0.920401333260243
40
1
40
1
40
1
40
1
41
1
10
46.912102075674
20
12.5869605966476
30
-2E-16
41
1
10
46.9510016874166
20
12.5840934325732
30
-2E-16
41
1
10
46.992448704593
20
12.581542624255
30
-2E-16
41
1
10
47.1336492752798
20
12.5766409758128
30
-1E-16
41
1
10
47.2420149981164
20
12.5789367021306
30
-1E-16
41
1
10
47.4824566690396
20
12.6090317233274
30
-1E-16
41
1
10
47.6189229153413
20
12.6421408467373
30
-1E-16
41
1
10
47.7716632588228
20
12.7052396308864
30
-1E-16
41
1
10
47.7961757173343
20
12.7162022723047
30
-1E-16
41
1
10
47.8203532267955
20
12.7278959746822
30
-1E-16
0
SPLINE
5
203
100
AcDbEntity
8
1
62
256
6
ByLayer
370
-1
48
1
60
0
100
AcDbSpline
70
4
71
3
72
20
73
16
40
0
40
0
40
0
40
0
40
0.127209352580245
40
0.127209352580245
40
0.253899053997238
40
0.253899053997238
40
0.388382687594649
40
0.388382687594649
40
0.531844041956898
40
0.531844041956898
40
0.682835582698846
40
0.682835582698846
40
0.84016467651034
40
0.84016467651034
40
1
40
1
40
1
40
1
41
1
10
37.358092294763
20
-12.9597451479998
30
6E-16
41
1
10
37.3630743858652
20
-12.7950396360722
30
6E-16
41
1
10
37.34363468459
20
-12.6245536118112
30
6E-16
41
1
10
37.2617123906209
20
-12.3019738516626
30
6E-16
41
1
10
37.1984123191738
20
-12.1454298250139
30
6E-16
41
1
10
37.034316551917
20
-11.8543902199938
30
6E-16
41
1
10
36.9293778757277
20
-11.7179987955944
30
6E-16
41
1
10
36.6898778764284
20
-11.4821167186179
30
6E-16
41
1
10
36.5507393346156
20
-11.3825264614182
30
5E-16
41
1
10
36.2590383769672
20
-11.2355495144947
30
5E-16
41
1
10
36.1023634810886
20
-11.1890923145923
30
5E-16
41
1
10
35.7957474450326
20
-11.1572398810796
30
5E-16
41
1
10
35.6421281032339
20
-11.1738850758475
30
5E-16
41
1
10
35.3644449768985
20
-11.2711715127985
30
5E-16
41
1
10
35.2366156392866
20
-11.3542988694513
30
5E-16
41
1
10
35.133340349639
20
-11.4676502455794
30
5E-16
0
SPLINE
5
204
100
AcDbEntity
8
1
62
256
6
ByLayer
370
-1
48
1
60
0
100
AcDbSpline
70
4
71
3
72
8
73
4
40
0
40
0
40
0
40
0
40
1
40
1
40
1
40
1
41
1
10
30.1528080236647
20
-12.1516358838352
30
2E-16
41
1
10
30.1008323483294
20
-12.1690657371706
30
1E-16
41
1
10
30.0488924205449
20
-12.1861770019937
30
1E-16
41
1
10
29.9969845979268
20
-12.2029630922007
30
1E-16
0
SPLINE
5
205
100
AcDbEntity
8
1
62
256
6
ByLayer
370
-1
48
1
60
0
100
AcDbSpline
70
4
71
3
72
8
73
4
40
0
40
0
40
0
40
0
40
1
40
1
40
1
40
1
41
1
10
55.2948650757624
20
12.4727815123901
30
-1E-16
41
1
10
52.9549119821465
20
12.4778208443558
30
-2E-16
41
1
10
50.6149733433434
20
12.4828468990938
30
-4E-16
41
1
10
48.27505016
20
12.4878589406305
30
-5E-16
0
SPLINE
5
206
100
AcDbEntity
8
1
62
256
6
ByLayer
370
-1
48
1
60
0
100
AcDbSpline
70
4
71
3
72
10
73
6
40
0
40
0
40
0
40
0
40
0.665916157794717
40
0.665916157794717
40
1
40
1
40
1
40
1
41
1
10
50.8188855908515
20
12.5963070215877
30
1E-16
41
1
10
50.7441947303447
20
12.6408544082067
30
1E-16
41
1
10
50.6785213964623
20
12.7012786792162
30
1E-16
41
1
10
50.5946144522738
20
12.8138676359031
30
1E-16
41
1
10
50.5687713777597
20
12.8554483086732
30
1E-16
41
1
10
50.545340766483
20
12.9003620039281
30
1E-16
0
SPLINE
5
207
100
AcDbEntity
8
1
62
256
6
ByLayer
370
-1
48
1
60
0
100
AcDbSpline
70
4
71
3
72
8
73
4
40
0
40
0
40
0
40
0
40
1
40
1
40
1
40
1
41
1
10
46.3278898956304
20
12.7742066812038
30
-6E-16
41
1
10
46.3993655630722
20
12.7211435855661
30
-6E-16
41
1
10
46.4713425398962
20
12.6681243549996
30
-6E-16
41
1
10
46.54385007
20
12.6151796560749
30
-6E-16
0
SPLINE
5
208
100
AcDbEntity
8
1
62
256
6
ByLayer
370
-1
48
1
60
0
100
AcDbSpline
70
4
71
1
72
4
73
2
40
0
40
0
40
1
40
1
41
1
10
40.2776229456955
20
0.724390779723421
30
8E-16
41
1
10
38.4923501393258
20
2.22243405771945
30
7E-16
0
SPLINE
5
209
100
AcDbEntity
8
1
62
256
6
ByLayer
370
-1
48
1
60
0
100
AcDbSpline
70
4
71
3
72
8
73
4
40
0
40
0
40
0
40
0
40
1
40
1
40
1
40
1
41
1
10
30.3311402766051
20
7.6853345488615
30
2E-16
41
1
10
30.6895070046323
20
7.57170108148514
30
2E-16
41
1
10
31.0518009814628
20
7.46983640792894
30
2E-16
41
1
10
31.4186683351926
20
7.39320065923687
30
2E-16
0
SPLINE
5
20A
100
AcDbEntity
8
1
62
256
6
ByLayer
370
-1
48
1
60
0
100
AcDbSpline
70
4
71
3
72
10
73
6
40
0
40
0
40
0
40
0
40
0.459800460594915
40
0.459800460594915
40
1
40
1
40
1
40
1
41
1
10
29.3406993312469
20
-16.9675895934288
30
1E-16
41
1
10
29.4156924459183
20
-16.9682919009964
30
1E-16
41
1
10
29.4894202685204
20
-16.9724832689844
30
1E-16
41
1
10
29.6426196885998
20
-16.9888748027228
30
1E-16
41
1
10
29.7217832279227
20
-17.0024573655572
30
1E-16
41
1
10
29.7944170121253
20
-17.0201276049484
30
1E-16
0
SPLINE
5
20B
100
AcDbEntity
8
1
62
256
6
ByLayer
370
-1
48
1
60
0
100
AcDbSpline
70
4
71
3
72
8
73
4
40
0
40
0
40
0
40
0
40
1
40
1
40
1
40
1
41
1
10
45.3796435454169
20
-10.3557248447754
30
-7E-16
41
1
10
45.8125433157486
20
-10.2913121504175
30
2E-16
41
1
10
46.2561913503223
20
-10.252089572384
30
2E-16
41
1
10
46.7
20
-10.2475032461978
30
3E-16
0
SPLINE
5
20C
100
AcDbEntity
8
1
62
256
6
ByLayer
370
-1
48
1
60
0
100
AcDbSpline
70
4
71
3
72
8
73
4
40
0
40
0
40
0
40
0
40
1
40
1
40
1
40
1
41
1
10
55.9045054763966
20
-10.9482722932587
30
0
41
1
10
55.8443570046226
20
-10.7700503715453
30
-1E-16
41
1
10
55.7842449571081
20
-10.5918172413025
30
-1E-16
41
1
10
55.7241766184998
20
-10.4135706704367
30
-1E-16
0
SPLINE
5
20D
100
AcDbEntity
8
1
62
256
6
ByLayer
370
-1
48
1
60
0
100
AcDbSpline
70
4
71
1
72
4
73
2
40
0
40
0
40
1
40
1
41
1
10
20.1231361699962
20
-18.5709586729625
30
0
41
1
10
20.1231361699936
20
-11.6805934339273
30
4E-16
0
SPLINE
5
20E
100
AcDbEntity
8
1
62
256
6
ByLayer
370
-1
48
1
60
0
100
AcDbSpline
70
4
71
3
72
20
73
16
40
0
40
0
40
0
40
0
40
0.0833712236285375
40
0.0833712236285375
40
0.266812309556452
40
0.266812309556452
40
0.379615583788016
40
0.379615583788016
40
0.566857301112035
40
0.566857301112035
40
0.754072383718024
40
0.754072383718024
40
0.941552055337945
40
0.941552055337945
40
1
40
1
40
1
40
1
41
1
10
55.3418836104783
20
13.16489344156
30
-1E-16
41
1
10
55.3283334441056
20
13.1015514004687
30
-1E-16
41
1
10
55.3151487869418
20
13.0419608293238
30
-1E-16
41
1
10
55.2749333470248
20
12.8667969580118
30
-1E-16
41
1
10
55.2495358354771
20
12.7665872053468
30
-1E-16
41
1
10
55.2158519632906
20
12.6498552467993
30
-1E-16
41
1
10
55.2045281680313
20
12.6152098399576
30
-1E-16
41
1
10
55.1798538090349
20
12.5528452646954
30
-1E-16
41
1
10
55.1696694545191
20
12.5436368647426
30
-1E-16
41
1
10
55.1616802890559
20
12.585512935564
30
-1E-16
41
1
10
55.1637674964615
20
12.6371608150286
30
-1E-16
41
1
10
55.1796914323858
20
12.7935265011916
30
-1E-16
41
1
10
55.1937576952596
20
12.9005045515991
30
-1E-16
41
1
10
55.2183541046568
20
13.0671148786025
30
-1E-16
41
1
10
55.2246986321489
20
13.1089734267451
30
-1E-16
41
1
10
55.2314715683233
20
13.1527120531956
30
-1E-16
0
SPLINE
5
20F
100
AcDbEntity
8
1
62
256
6
ByLayer
370
-1
48
1
60
0
100
AcDbSpline
70
4
71
1
72
4
73
2
40
0
40
0
40
1
40
1
41
1
10
20.1231361699951
20
12.0408473840632
30
0
41
1
10
20.1231361699974
20
12.3263422829614
30
0
0
SPLINE
5
210
100
AcDbEntity
8
1
62
256
6
ByLayer
370
-1
48
1
60
0
100
AcDbSpline
70
4
71
3
72
12
73
8
40
0
40
0
40
0
40
0
40
0.308547830100825
40
0.308547830100825
40
0.61709566020277
40
0.61709566020277
40
1
40
1
40
1
40
1
41
1
10
35.8638379680888
20
8.35046928381922
30
5E-16
41
1
10
35.3682382314596
20
8.3648035632464
30
5E-16
41
1
10
34.8726372665186
20
8.3791304535998
30
4E-16
41
1
10
33.8814328707693
20
8.40776939211773
30
4E-16
41
1
10
33.3858294397279
20
8.42208144028982
30
3E-16
41
1
10
32.275185026613
20
8.45413787319671
30
3E-16
41
1
10
31.6601433756125
20
8.47187823254788
30
2E-16
41
1
10
31.0450998085186
20
8.4896070486684
30
2E-16
0
SPLINE
5
211
100
AcDbEntity
8
1
62
256
6
ByLayer
370
-1
48
1
60
0
100
AcDbSpline
70
4
71
3
72
30
73
26
40
0
40
0
40
0
40
0
40
0.0467817713737847
40
0.0467817713737847
40
0.124400725464996
40
0.124400725464996
40
0.246933883614935
40
0.246933883614935
40
0.372791949972272
40
0.372791949972272
40
0.456102519400683
40
0.456102519400683
40
0.539888106377349
40
0.539888106377349
40
0.61737117854928
40
0.61737117854928
40
0.700461653257163
40
0.700461653257163
40
0.823885330542784
40
0.823885330542784
40
0.920215291628093
40
0.920215291628093
40
0.983445668436637
40
0.983445668436637
40
1
40
1
40
1
40
1
41
1
10
54.2557820835864
20
-0.520023032700209
30
-1E-16
41
1
10
54.2557818130585
20
-0.548549473281497
30
-1E-16
41
1
10
54.2487719800273
20
-0.583191883357074
30
-2E-16
41
1
10
54.2142486307676
20
-0.683924836227504
30
-2E-16
41
1
10
54.1761796238889
20
-0.75660357669355
30
-2E-16
41
1
10
54.0526851761365
20
-0.939987018589733
30
-2E-16
41
1
10
53.9504081133451
20
-1.05253232471691
30
-2E-16
41
1
10
53.7074055945451
20
-1.24270202743728
30
-2E-16
41
1
10
53.5604763926349
20
-1.32309765016873
30
-2E-16
41
1
10
53.2946952382928
20
-1.39849955799383
30
-2E-16
41
1
10
53.1801569628746
20
-1.41354188259601
30
-2E-16
41
1
10
52.9515510845556
20
-1.4048032705646
30
-2E-16
41
1
10
52.8343849253436
20
-1.38043920471671
30
-2E-16
41
1
10
52.6249601635694
20
-1.29916655931763
30
-2E-16
41
1
10
52.5289092668673
20
-1.24404085668095
30
-3E-16
41
1
10
52.3514137001237
20
-1.10892657876903
30
-3E-16
41
1
10
52.2693522890377
20
-1.02608964684157
30
-3E-16
41
1
10
52.0955811481296
20
-0.80714547193881
30
-3E-16
41
1
10
52.0148629725217
20
-0.660717699511082
30
-3E-16
41
1
10
51.909970082332
20
-0.404791731601932
30
-3E-16
41
1
10
51.876064991287
20
-0.290857538778027
30
-3E-16
41
1
10
51.8405388425948
20
-0.125733575692749
30
-3E-16
41
1
10
51.8316346513207
20
-0.0655859146129671
30
-3E-16
41
1
10
51.8277818583893
20
-0.0073791435785324
30
-3E-16
41
1
10
51.8273759748707
20
0.0039093989865364
30
-3E-16
41
1
10
51.8273760721575
20
0.0141680333862837
30
-3E-16
0
SPLINE
5
212
100
AcDbEntity
8
1
62
256
6
ByLayer
370
-1
48
1
60
0
100
AcDbSpline
70
4
71
3
72
12
73
8
40
0
40
0
40
0
40
0
40
0.376820011968683
40
0.376820011968683
40
0.800437191004104
40
0.800437191004104
40
1
40
1
40
1
40
1
41
1
10
20.4846330798406
20
12.3232660534898
30
0
41
1
10
20.5388054033309
20
12.2590848640397
30
0
41
1
10
20.6061921592401
20
12.2054412580791
30
0
41
1
10
20.7672703267284
20
12.1214328591863
30
0
41
1
10
20.8653666791902
20
12.0937296304888
30
0
41
1
10
21.0163670900324
20
12.0808403841028
30
0
41
1
10
21.0663767646176
20
12.0808400295629
30
0
41
1
10
21.1168191279905
20
12.0849895736573
30
0
0
SPLINE
5
213
100
AcDbEntity
8
1
62
256
6
ByLayer
370
-1
48
1
60
0
100
AcDbSpline
70
4
71
3
72
12
73
8
40
0
40
0
40
0
40
0
40
0.481227915467027
40
0.481227915467027
40
0.737388448971787
40
0.737388448971787
40
1
40
1
40
1
40
1
41
1
10
31.4186683351927
20
7.39320065923684
30
2E-16
41
1
10
31.3751374754924
20
7.50618294383523
30
2E-16
41
1
10
31.3443897312459
20
7.62548490746434
30
2E-16
41
1
10
31.3220682479786
20
7.80774937385647
30
2E-16
41
1
10
31.3187564851765
20
7.87167390950697
30
2E-16
41
1
10
31.3207856134452
20
7.99925706420987
30
2E-16
41
1
10
31.3263383960857
20
8.06325127045494
30
2E-16
41
1
10
31.3357958917675
20
8.12562777603392
30
2E-16
0
SPLINE
5
214
100
AcDbEntity
8
1
62
256
6
ByLayer
370
-1
48
1
60
0
100
AcDbSpline
70
4
71
3
72
8
73
4
40
0
40
0
40
0
40
0
40
1
40
1
40
1
40
1
41
1
10
30.5571409447606
20
-5.5165489349119
30
-1.6E-15
41
1
10
32.0004870154325
20
-7.70452447744313
30
-1.5E-15
41
1
10
33.4709796126167
20
-9.742061045876
30
-1.4E-15
41
1
10
35.1333403496438
20
-11.4676502455707
30
5E-16
0
SPLINE
5
215
100
AcDbEntity
8
1
62
256
6
ByLayer
370
-1
48
1
60
0
100
AcDbSpline
70
4
71
3
72
12
73
8
40
0
40
0
40
0
40
0
40
0.5
40
0.5
40
0.75
40
0.75
40
1
40
1
40
1
40
1
41
1
10
52.1381376496346
20
2.1028892290276
30
-3E-16
41
1
10
52.3123291107179
20
2.93711057627917
30
-3E-16
41
1
10
52.6612069444891
20
3.77683937518444
30
-2E-16
41
1
10
53.6526612373622
20
4.58780363081962
30
-2E-16
41
1
10
54.1097145016511
20
4.77549262506315
30
-2E-16
41
1
10
54.9333533715797
20
4.53886758328741
30
-1E-16
41
1
10
55.1959005706962
20
4.12968783852043
30
-1E-16
41
1
10
55.2948650757623
20
3.71345166210003
30
-1E-16
0
SPLINE
5
216
100
AcDbEntity
8
1
62
256
6
ByLayer
370
-1
48
1
60
0
100
AcDbSpline
70
4
71
3
72
18
73
14
40
0
40
0
40
0
40
0
40
0.0875110659569914
40
0.0875110659569914
40
0.293042669987805
40
0.293042669987805
40
0.495452557773829
40
0.495452557773829
40
0.69917081659436
40
0.69917081659436
40
0.907714603056459
40
0.907714603056459
40
1
40
1
40
1
40
1
41
1
10
56.11712107
20
-6.53488919426138
30
0
41
1
10
56.11712107
20
-6.55135025177592
30
0
41
1
10
56.1144722129296
20
-6.56727188687856
30
0
41
1
10
56.0968586444072
20
-6.617767526053
30
0
41
1
10
56.069538866903
20
-6.64940907899668
30
0
41
1
10
55.990089660381
20
-6.69944769840751
30
0
41
1
10
55.9372764026131
20
-6.71872046102322
30
0
41
1
10
55.8134577467637
20
-6.74328275250031
30
-1E-16
41
1
10
55.740698889048
20
-6.74882318370544
30
-1E-16
41
1
10
55.583988288163
20
-6.74581483433474
30
-1E-16
41
1
10
55.4977293062949
20
-6.73690582228494
30
-1E-16
41
1
10
55.372649915745
20
-6.71461357937653
30
-1E-16
41
1
10
55.3336379041532
20
-6.70639461423775
30
-1E-16
41
1
10
55.2948650757624
20
-6.69698428695878
30
-1E-16
0
SPLINE
5
217
100
AcDbEntity
8
1
62
256
6
ByLayer
370
-1
48
1
60
0
100
AcDbSpline
70
4
71
3
72
8
73
4
40
0
40
0
40
0
40
0
40
1
40
1
40
1
40
1
41
1
10
28.825940857647
20
-3.13215061017573
30
-1.7E-15
41
1
10
28.7108154427272
20
-3.01930558795973
30
-1.7E-15
41
1
10
28.5970215672409
20
-2.90522043077681
30
-1.7E-15
41
1
10
28.4844446972763
20
-2.78999166973861
30
-1.7E-15
0
SPLINE
5
218
100
AcDbEntity
8
1
62
256
6
ByLayer
370
-1
48
1
60
0
100
AcDbSpline
70
4
71
1
72
4
73
2
40
0
40
0
40
1
40
1
41
1
10
22.559713724681
20
11.2450820386552
30
1E-16
41
1
10
20.1231361699919
20
12.0408473840611
30
0
0
SPLINE
5
219
100
AcDbEntity
8
1
62
256
6
ByLayer
370
-1
48
1
60
0
100
AcDbSpline
70
4
71
3
72
10
73
6
40
0
40
0
40
0
40
0
40
0.5
40
0.5
40
1
40
1
40
1
40
1
41
1
10
35.6648175891132
20
4.92270052593116
30
5E-16
41
1
10
35.1679555001124
20
5.18258471797702
30
5E-16
41
1
10
34.6552605228357
20
5.45944181496574
30
4E-16
41
1
10
33.6389272075365
20
6.08425092708663
30
4E-16
41
1
10
33.0782864791807
20
6.40132624101656
30
3E-16
41
1
10
32.7617438308984
20
6.9661726633357
30
3E-16
0
SPLINE
5
21A
100
AcDbEntity
8
1
62
256
6
ByLayer
370
-1
48
1
60
0
100
AcDbSpline
70
4
71
3
72
8
73
4
40
0
40
0
40
0
40
0
40
1
40
1
40
1
40
1
41
1
10
37.6848954647606
20
-13.7000068494249
30
6E-16
41
1
10
37.7366696821399
20
-13.7280488741837
30
6E-16
41
1
10
37.7887180784526
20
-13.7557204242005
30
6E-16
41
1
10
37.8410453899999
20
-13.7830120778673
30
6E-16
0
SPLINE
5
21B
100
AcDbEntity
8
1
62
256
6
ByLayer
370
-1
48
1
60
0
100
AcDbSpline
70
4
71
3
72
10
73
6
40
0
40
0
40
0
40
0
40
0.553111709294549
40
0.553111709294549
40
1
40
1
40
1
40
1
41
1
10
27.6152920874024
20
10.2214428393903
30
0
41
1
10
27.480926404348
20
10.1617862430301
30
0
41
1
10
27.3339079558586
20
10.119408507737
30
0
41
1
10
27.0595556969628
20
10.0785609441997
30
0
41
1
10
26.9325174354831
20
10.0730075010095
30
0
41
1
10
26.8058629819996
20
10.0807979405997
30
-1E-16
0
SPLINE
5
21C
100
AcDbEntity
8
1
62
256
6
ByLayer
370
-1
48
1
60
0
100
AcDbSpline
70
4
71
3
72
8
73
4
40
0
40
0
40
0
40
0
40
1
40
1
40
1
40
1
41
1
10
27.6617343316193
20
4.45322700331746
30
0
41
1
10
28.0946340999764
20
4.39703613654248
30
0
41
1
10
28.5382821324338
20
4.35988513139
30
1E-16
41
1
10
28.98209078
20
4.33141088788159
30
1E-16
0
SPLINE
5
21D
100
AcDbEntity
8
1
62
256
6
ByLayer
370
-1
48
1
60
0
100
AcDbSpline
70
4
71
3
72
8
73
4
40
0
40
0
40
0
40
0
40
1
40
1
40
1
40
1
41
1
10
39.3739661740231
20
14.7526577397832
30
7E-16
41
1
10
39.388068351281
20
14.7493441374782
30
7E-16
41
1
10
39.4021156572615
20
14.7458798311765
30
7E-16
41
1
10
39.4160955518743
20
14.7422673469093
30
7E-16
0
SPLINE
5
21E
100
AcDbEntity
8
1
62
256
6
ByLayer
370
-1
48
1
60
0
100
AcDbSpline
70
4
71
3
72
8
73
4
40
0
40
0
40
0
40
0
40
1
40
1
40
1
40
1
41
1
10
37.3433993048125
20
-13.4488630632605
30
6E-16
41
1
10
37.4559709502727
20
-13.5340151480759
30
6E-16
41
1
10
37.56976465051
20
-13.6177408679452
30
6E-16
41
1
10
37.6848954647606
20
-13.7000068498265
30
6E-16
0
SPLINE
5
21F
100
AcDbEntity
8
1
62
256
6
ByLayer
370
-1
48
1
60
0
100
AcDbSpline
70
4
71
3
72
8
73
4
40
0
40
0
40
0
40
0
40
1
40
1
40
1
40
1
41
1
10
38.590503479873
20
-3.43615505633022
30
7E-16
41
1
10
38.3386078542246
20
-3.52192946295193
30
7E-16
41
1
10
38.0885802448005
20
-3.59580088095257
30
6E-16
41
1
10
37.84104539
20
-3.65420086469152
30
6E-16
0
SPLINE
5
220
100
AcDbEntity
8
1
62
256
6
ByLayer
370
-1
48
1
60
0
100
AcDbSpline
70
4
71
3
72
8
73
4
40
0
40
0
40
0
40
0
40
1
40
1
40
1
40
1
41
1
10
46.4103080106195
20
13.0144090419206
30
-2E-16
41
1
10
46.2835692228383
20
12.9857969412683
30
-2E-16
41
1
10
46.1568296555395
20
12.9571848650602
30
-2E-16
41
1
10
46.030089308745
20
12.9285728132979
30
-2E-16
0
SPLINE
5
221
100
AcDbEntity
8
1
62
256
6
ByLayer
370
-1
48
1
60
0
100
AcDbSpline
70
4
71
3
72
8
73
4
40
0
40
0
40
0
40
0
40
1
40
1
40
1
40
1
41
1
10
46.7
20
12.5009359720928
30
-6E-16
41
1
10
46.6476726868489
20
12.5388788461964
30
-6E-16
41
1
10
46.5956242889495
20
12.5769664559766
30
-6E-16
41
1
10
46.54385007
20
12.6151796560778
30
-6E-16
0
SPLINE
5
222
100
AcDbEntity
8
1
62
256
6
ByLayer
370
-1
48
1
60
0
100
AcDbSpline
70
4
71
3
72
16
73
12
40
0
40
0
40
0
40
0
40
0.219212173829214
40
0.219212173829214
40
0.438519238348989
40
0.438519238348989
40
0.658002995859765
40
0.658002995859765
40
0.8776052829137
40
0.8776052829137
40
1
40
1
40
1
40
1
41
1
10
30.5571409447606
20
-10.5202805167076
30
2E-16
41
1
10
30.6914255632776
20
-10.5541474334724
30
2E-16
41
1
10
30.8209630809433
20
-10.6076872693909
30
2E-16
41
1
10
31.0492008343102
20
-10.7445946090662
30
2E-16
41
1
10
31.1510364255294
20
-10.8298395416899
30
2E-16
41
1
10
31.3134221236645
20
-11.0189570053551
30
2E-16
41
1
10
31.3761817134568
20
-11.1254318107093
30
2E-16
41
1
10
31.4544898146396
20
-11.3438761130118
30
2E-16
41
1
10
31.4710935896892
20
-11.4588507757274
30
2E-16
41
1
10
31.4596788677798
20
-11.6319982577747
30
2E-16
41
1
10
31.4482051952331
20
-11.6936260139489
30
2E-16
41
1
10
31.429649175704
20
-11.7532087827148
30
2E-16
0
SPLINE
5
223
100
AcDbEntity
8
1
62
256
6
ByLayer
370
-1
48
1
60
0
100
AcDbSpline
70
4
71
3
72
8
73
4
40
0
40
0
40
0
40
0
40
1
40
1
40
1
40
1
41
1
10
55.2948650757623
20
2.3972176025373
30
-1E-16
41
1
10
55.2860706125408
20
2.34752155030157
30
-1E-16
41
1
10
55.2765267605869
20
2.29807386311921
30
-1E-16
41
1
10
55.2662877969885
20
2.24885601449102
30
-1E-16
0
SPLINE
5
224
100
AcDbEntity
8
1
62
256
6
ByLayer
370
-1
48
1
60
0
100
AcDbSpline
70
4
71
3
72
14
73
10
40
0
40
0
40
0
40
0
40
0.167614686603828
40
0.167614686603828
40
0.450430179136216
40
0.450430179136216
40
0.743095693820766
40
0.743095693820766
40
1
40
1
40
1
40
1
41
1
10
35.4263186073053
20
19.1191267172597
30
0
41
1
10
35.4976135905906
20
19.0204430883155
30
0
41
1
10
35.5753419161334
20
18.9261411691628
30
0
41
1
10
35.7950623383259
20
18.6917217119323
30
1E-16
41
1
10
35.9478368389914
20
18.5615812444869
30
1E-16
41
1
10
36.2634956251231
20
18.3514158068338
30
1E-16
41
1
10
36.4311355974457
20
18.2703169957367
30
1E-16
41
1
10
36.7278344151974
20
18.1793764706665
30
1E-16
41
1
10
36.862714718885
20
18.1609123590786
30
1E-16
41
1
10
36.9814270440972
20
18.1675388170756
30
1E-16
0
SPLINE
5
225
100
AcDbEntity
8
1
62
256
6
ByLayer
370
-1
48
1
60
0
100
AcDbSpline
70
4
71
3
72
16
73
12
40
0
40
0
40
0
40
0
40
0.18243357796238
40
0.18243357796238
40
0.388486596009207
40
0.388486596009207
40
0.59788104131075
40
0.59788104131075
40
0.84413159924893
40
0.84413159924893
40
1
40
1
40
1
40
1
41
1
10
25.4573385313279
20
12.8858138767457
30
1E-16
41
1
10
25.4021730384764
20
12.8544096921517
30
1E-16
41
1
10
25.3448569246637
20
12.8265340529185
30
1E-16
41
1
10
25.2181295025605
20
12.7767316156256
30
1E-16
41
1
10
25.146729090197
20
12.7560435434987
30
1E-16
41
1
10
25.0023816727687
20
12.7344301471459
30
1E-16
41
1
10
24.9278258730416
20
12.7341270184459
30
1E-16
41
1
10
24.7778423422715
20
12.7561541992945
30
0
41
1
10
24.7019375172948
20
12.7818681899851
30
0
41
1
10
24.5884665593525
20
12.8365210023294
30
0
41
1
10
24.5462863754374
20
12.8609015137433
30
0
41
1
10
24.5056387329942
20
12.8880513661624
30
0
0
SPLINE
5
226
100
AcDbEntity
8
1
62
256
6
ByLayer
370
-1
48
1
60
0
100
AcDbSpline
70
4
71
3
72
26
73
22
40
0
40
0
40
0
40
0
40
0.214650669937637
40
0.214650669937637
40
0.448262897294505
40
0.448262897294505
40
0.580752768919688
40
0.580752768919688
40
0.660319425657416
40
0.660319425657416
40
0.713140051627158
40
0.713140051627158
40
0.755092518774325
40
0.755092518774325
40
0.79714413400844
40
0.79714413400844
40
0.852375005977479
40
0.852375005977479
40
0.948965963020974
40
0.948965963020974
40
1
40
1
40
1
40
1
41
1
10
21.4443510838437
20
9.8609681100323
30
-4E-16
41
1
10
21.5341456711081
20
9.92105747851821
30
-4E-16
41
1
10
21.636764588094
20
10.0271031644045
30
-3E-16
41
1
10
21.8756515815164
20
10.3220157032806
30
1E-16
41
1
10
22.0165527469673
20
10.5223238620017
30
1E-16
41
1
10
22.2784398003236
20
10.8655382222337
30
1E-16
41
1
10
22.3835078593141
20
10.9984760399654
30
1E-16
41
1
10
22.5804176366044
20
11.2011170625513
30
1E-16
41
1
10
22.6620607029937
20
11.2760074248017
30
1E-16
41
1
10
22.8154435101443
20
11.3813082496308
30
1E-16
41
1
10
22.882614259497
20
11.4186767202476
30
1E-16
41
1
10
23.0104824756623
20
11.4650126012548
30
2E-16
41
1
10
23.0709398158072
20
11.4783249124717
30
2E-16
41
1
10
23.1905819336292
20
11.4850935393213
30
2E-16
41
1
10
23.2511082395291
20
11.4785548813215
30
2E-16
41
1
10
23.3814416320537
20
11.4452035075393
30
2E-16
41
1
10
23.4504617640578
20
11.4127995494574
30
2E-16
41
1
10
23.6198482360973
20
11.3081636476946
30
2E-16
41
1
10
23.7100758650001
20
11.2233852674056
30
2E-16
41
1
10
23.8292394073783
20
11.09222504045
30
2E-16
41
1
10
23.8673155394286
20
11.0459173376892
30
2E-16
41
1
10
23.9027892237835
20
10.9997242868897
30
2E-16
0
SPLINE
5
227
100
AcDbEntity
8
1
62
256
6
ByLayer
370
-1
48
1
60
0
100
AcDbSpline
70
4
71
3
72
8
73
4
40
0
40
0
40
0
40
0
40
1
40
1
40
1
40
1
41
1
10
44.2852732157711
20
14.3725891352351
30
-8E-16
41
1
10
43.7365674330879
20
13.9908540386812
30
-8E-16
41
1
10
43.4346490154496
20
13.4570242324468
30
-8E-16
41
1
10
43.2771317074978
20
12.8925922344874
30
-8E-16
0
SPLINE
5
228
100
AcDbEntity
8
1
62
256
6
ByLayer
370
-1
48
1
60
0
100
AcDbSpline
70
4
71
3
72
8
73
4
40
0
40
0
40
0
40
0
40
1
40
1
40
1
40
1
41
1
10
20.4665415635338
20
11.6611705637954
30
0
41
1
10
20.3537051600921
20
11.6925659159276
30
0
41
1
10
20.2386927035365
20
11.7239278630169
30
0
41
1
10
20.1231361699922
20
11.7554884465791
30
0
0
SPLINE
5
229
100
AcDbEntity
8
1
62
256
6
ByLayer
370
-1
48
1
60
0
100
AcDbSpline
70
4
71
3
72
12
73
8
40
0
40
0
40
0
40
0
40
0.481227915612126
40
0.481227915612126
40
0.737388449049493
40
0.737388449049493
40
1
40
1
40
1
40
1
41
1
10
22.559713724681
20
11.2450820386552
30
1E-16
41
1
10
22.5161828650237
20
11.337259477806
30
1E-16
41
1
10
22.4854351208306
20
11.4395638569244
30
1E-16
41
1
10
22.463113637654
20
11.6046151728516
30
1E-16
41
1
10
22.4598018748822
20
11.6641161414405
30
1E-16
41
1
10
22.4618310032009
20
11.7861566502281
30
1E-16
41
1
10
22.4673837858607
20
11.8490980462693
30
1E-16
41
1
10
22.4768412815561
20
11.9121054092169
30
1E-16
0
SPLINE
5
22A
100
AcDbEntity
8
1
62
256
6
ByLayer
370
-1
48
1
60
0
100
AcDbSpline
70
4
71
3
72
18
73
14
40
0
40
0
40
0
40
0
40
0.152994520784831
40
0.152994520784831
40
0.30536998138223
40
0.30536998138223
40
0.467055205208268
40
0.467055205208268
40
0.707017871016295
40
0.707017871016295
40
0.950279090657523
40
0.950279090657523
40
1
40
1
40
1
40
1
41
1
10
55.2948650757623
20
-19.0812489885792
30
-1E-16
41
1
10
55.3693516730604
20
-19.0835808222659
30
-1E-16
41
1
10
55.4454246255498
20
-19.0740077606828
30
-1E-16
41
1
10
55.5870683194933
20
-19.033933185086
30
-1E-16
41
1
10
55.6545597084933
20
-19.0031169981545
30
-1E-16
41
1
10
55.778533677594
20
-18.9246894187363
30
-1E-16
41
1
10
55.8356169555788
20
-18.8753711547771
30
-1E-16
41
1
10
55.9556772121275
20
-18.7414880315997
30
0
41
1
10
56.0105668784727
20
-18.6492528047547
30
0
41
1
10
56.0868563055095
20
-18.456683272685
30
0
41
1
10
56.1088432307663
20
-18.3538857736496
30
0
41
1
10
56.1164733197417
20
-18.2304404626269
30
0
41
1
10
56.11712107
20
-18.2093621983936
30
0
41
1
10
56.11712107
20
-18.1882926493852
30
0
0
SPLINE
5
22B
100
AcDbEntity
8
1
62
256
6
ByLayer
370
-1
48
1
60
0
100
AcDbSpline
70
4
71
3
72
8
73
4
40
0
40
0
40
0
40
0
40
1
40
1
40
1
40
1
41
1
10
55.2252107547996
20
13.1646975290595
30
-1E-16
41
1
10
55.1844417374318
20
12.9342023264724
30
-1E-16
41
1
10
55.1436934961389
20
12.703703410885
30
-1E-16
41
1
10
55.1029696405588
20
12.4732001448482
30
-1E-16
0
SPLINE
5
22C
100
AcDbEntity
8
1
62
256
6
ByLayer
370
-1
48
1
60
0
100
AcDbSpline
70
4
71
3
72
8
73
4
40
0
40
0
40
0
40
0
40
1
40
1
40
1
40
1
41
1
10
43.9922949579334
20
-18.3268937754904
30
1E-16
41
1
10
43.6283023192091
20
-18.4701183474214
30
1E-16
41
1
10
43.4048650815274
20
-18.6226397134048
30
1E-16
41
1
10
43.2771317074964
20
-18.7495241058988
30
1E-16
0
SPLINE
5
22D
100
AcDbEntity
8
1
62
256
6
ByLayer
370
-1
48
1
60
0
100
AcDbSpline
70
4
71
3
72
10
73
6
40
0
40
0
40
0
40
0
40
0.766485518664938
40
0.766485518664938
40
1
40
1
40
1
40
1
41
1
10
29.706747797584
20
19.145665683668
30
-1E-16
41
1
10
29.8341262652907
20
19.1328856502122
30
-1E-16
41
1
10
29.9662722726646
20
19.1184995691004
30
-1E-16
41
1
10
30.1335301681521
20
19.098879169086
30
-1E-16
41
1
10
30.1725991326554
20
19.0941905278864
30
-1E-16
41
1
10
30.2111988855417
20
19.0894452941308
30
-1E-16
0
SPLINE
5
22E
100
AcDbEntity
8
1
62
256
6
ByLayer
370
-1
48
1
60
0
100
AcDbSpline
70
4
71
3
72
8
73
4
40
0
40
0
40
0
40
0
40
1
40
1
40
1
40
1
41
1
10
55.192763650159
20
-10.6093541096774
30
-1E-16
41
1
10
55.3593231310379
20
-12.5907397355623
30
-1E-16
41
1
10
55.6133677052679
20
-14.5682948736172
30
-1E-16
41
1
10
55.9045054763965
20
-16.5420937143415
30
0
0
SPLINE
5
22F
100
AcDbEntity
8
1
62
256
6
ByLayer
370
-1
48
1
60
0
100
AcDbSpline
70
4
71
3
72
18
73
14
40
0
40
0
40
0
40
0
40
0.15299452078483
40
0.15299452078483
40
0.30536998138223
40
0.30536998138223
40
0.467055205208268
40
0.467055205208268
40
0.707017871016294
40
0.707017871016294
40
0.950279090657523
40
0.950279090657523
40
1
40
1
40
1
40
1
41
1
10
55.2948650757624
20
12.4727815123901
30
-1E-16
41
1
10
55.3693516730605
20
12.4726210977681
30
-1E-16
41
1
10
55.4454246255498
20
12.4719747855237
30
-1E-16
41
1
10
55.5870683194934
20
12.4698733837443
30
-1E-16
41
1
10
55.6545597084934
20
12.4683990311308
30
-1E-16
41
1
10
55.7785336775941
20
12.4648100959273
30
-1E-16
41
1
10
55.8356169555789
20
12.4626245720399
30
-1E-16
41
1
10
55.9556772121275
20
12.4568108462125
30
0
41
1
10
56.0105668784727
20
12.4529007062086
30
0
41
1
10
56.0868563055095
20
12.4448679881832
30
0
41
1
10
56.1088432307664
20
12.4406439902346
30
0
41
1
10
56.1164733197418
20
12.4356357130896
30
0
41
1
10
56.11712107
20
12.4347827891651
30
0
41
1
10
56.11712107
20
12.4339324303969
30
0
0
SPLINE
5
230
100
AcDbEntity
8
1
62
256
6
ByLayer
370
-1
48
1
60
0
100
AcDbSpline
70
4
71
3
72
8
73
4
40
0
40
0
40
0
40
0
40
1
40
1
40
1
40
1
41
1
10
26.2743857413548
20
-0.239047316306255
30
1.7E-15
41
1
10
25.9098378405106
20
-0.750198808733614
30
1.7E-15
41
1
10
25.6863046241087
20
-1.35324808683862
30
1.7E-15
41
1
10
25.5592224932706
20
-1.96155252935131
30
1.6E-15
0
SPLINE
5
231
100
AcDbEntity
8
1
62
256
6
ByLayer
370
-1
48
1
60
0
100
AcDbSpline
70
4
71
3
72
8
73
4
40
0
40
0
40
0
40
0
40
1
40
1
40
1
40
1
41
1
10
36.5206889385181
20
-3.64580392032883
30
5E-16
41
1
10
34.0439567236346
20
-1.17219173395782
30
4E-16
41
1
10
31.8657849962273
20
1.60370640747666
30
3E-16
41
1
10
29.7315488729664
20
4.26068279457903
30
1E-16
0
SPLINE
5
232
100
AcDbEntity
8
1
62
256
6
ByLayer
370
-1
48
1
60
0
100
AcDbSpline
70
4
71
3
72
8
73
4
40
0
40
0
40
0
40
0
40
1
40
1
40
1
40
1
41
1
10
40.1947505019884
20
1.24315511751377
30
8E-16
41
1
10
40.0921460880216
20
1.32540859562184
30
8E-16
41
1
10
39.9942049784796
20
1.40455033618912
30
8E-16
41
1
10
39.9040544184778
20
1.47793487779791
30
7E-16
0
SPLINE
5
233
100
AcDbEntity
8
1
62
256
6
ByLayer
370
-1
48
1
60
0
100
AcDbSpline
70
4
71
3
72
8
73
4
40
0
40
0
40
0
40
0
40
1
40
1
40
1
40
1
41
1
10
20.8725942660602
20
10.334131891253
30
-4E-16
41
1
10
23.007457620016
20
8.64621803057292
30
-3E-16
41
1
10
25.1848894541412
20
6.51639878645713
30
-2E-16
41
1
10
27.6617343316193
20
4.45322700331746
30
0
0
SPLINE
5
234
100
AcDbEntity
8
1
62
256
6
ByLayer
370
-1
48
1
60
0
100
AcDbSpline
70
4
71
3
72
8
73
4
40
0
40
0
40
0
40
0
40
1
40
1
40
1
40
1
41
1
10
48.27505016
20
4.82079648383552
30
-5E-16
41
1
10
48.2610702650505
20
4.82488124331431
30
-5E-16
41
1
10
48.2470229587298
20
4.82873439259436
30
-5E-16
41
1
10
48.2329207811291
20
4.83235297662245
30
-5E-16
0
SPLINE
5
235
100
AcDbEntity
8
1
62
256
6
ByLayer
370
-1
48
1
60
0
100
AcDbSpline
70
4
71
1
72
4
73
2
40
0
40
0
40
1
40
1
41
1
10
37.8410453899999
20
-13.7830120778675
30
6E-16
41
1
10
37.8410453899999
20
-3.65420086469158
30
6E-16
0
SPLINE
5
236
100
AcDbEntity
8
1
62
256
6
ByLayer
370
-1
48
1
60
0
100
AcDbSpline
70
4
71
3
72
12
73
8
40
0
40
0
40
0
40
0
40
0.269482089764626
40
0.269482089764626
40
0.730602248608373
40
0.730602248608373
40
1
40
1
40
1
40
1
41
1
10
36.8900892469934
20
4.55038076395834
30
6E-16
41
1
10
36.8131954656961
20
4.55671899464866
30
6E-16
41
1
10
36.722536416738
20
4.56876851817523
30
6E-16
41
1
10
36.4518582187138
20
4.62017149431054
30
5E-16
41
1
10
36.2507926955439
20
4.67368292691083
30
5E-16
41
1
10
35.9185103040763
20
4.80018764236215
30
5E-16
41
1
10
35.7914720425966
20
4.85645379259969
30
5E-16
41
1
10
35.664817589113
20
4.92270052593122
30
5E-16
0
SPLINE
5
237
100
AcDbEntity
8
1
62
256
6
ByLayer
370
-1
48
1
60
0
100
AcDbSpline
70
4
71
3
72
8
73
4
40
0
40
0
40
0
40
0
40
1
40
1
40
1
40
1
41
1
10
46.2170469022582
20
-18.5420441892526
30
-2E-16
41
1
10
46.2121145672246
20
-18.6891307366195
30
-2E-16
41
1
10
46.2072171420423
20
-18.8362836052069
30
-2E-16
41
1
10
46.2023539123528
20
-18.9835010720324
30
-2E-16
0
SPLINE
5
238
100
AcDbEntity
8
1
62
256
6
ByLayer
370
-1
48
1
60
0
100
AcDbSpline
70
4
71
3
72
8
73
4
40
0
40
0
40
0
40
0
40
1
40
1
40
1
40
1
41
1
10
55.9091024364793
20
-16.5707389155923
30
0
41
1
10
55.9767508329541
20
-16.9605319841423
30
0
41
1
10
56.0461865777242
20
-17.3500922366601
30
0
41
1
10
56.1171236
20
-17.7394422913822
30
0
0
SPLINE
5
239
100
AcDbEntity
8
1
62
256
6
ByLayer
370
-1
48
1
60
0
100
AcDbSpline
70
4
71
3
72
8
73
4
40
0
40
0
40
0
40
0
40
1
40
1
40
1
40
1
41
1
10
38.590503479873
20
-3.43615505633022
30
7E-16
41
1
10
40.7253668342205
20
-6.05110738028878
30
8E-16
41
1
10
42.9027986678544
20
-8.41397616075352
30
-8E-16
41
1
10
45.3796435454169
20
-10.3557248447754
30
-7E-16
0
SPLINE
5
23A
100
AcDbEntity
8
1
62
256
6
ByLayer
370
-1
48
1
60
0
100
AcDbSpline
70
4
71
1
72
4
73
2
40
0
40
0
40
1
40
1
41
1
10
28.98209078
20
-3.26332664315049
30
-1.7E-15
41
1
10
28.98209078
20
4.33141088788159
30
1E-16
0
SPLINE
5
23B
100
AcDbEntity
8
1
62
256
6
ByLayer
370
-1
48
1
60
0
100
AcDbSpline
70
4
71
3
72
10
73
6
40
0
40
0
40
0
40
0
40
0.27860930814896
40
0.27860930814896
40
1
40
1
40
1
40
1
41
1
10
29.340699331247
20
16.2934770262606
30
1E-16
41
1
10
29.3862742749581
20
16.2837540940091
30
1E-16
41
1
10
29.4313365799701
20
16.2726750755947
30
1E-16
41
1
10
29.5889242819818
20
16.2285457406669
30
1E-16
41
1
10
29.6976445039274
20
16.1877072617145
30
1E-16
41
1
10
29.7944170121253
20
16.1400595944081
30
1E-16
0
SPLINE
5
23C
100
AcDbEntity
8
1
62
256
6
ByLayer
370
-1
48
1
60
0
100
AcDbSpline
70
4
71
1
72
4
73
2
40
0
40
0
40
1
40
1
41
1
10
20.1231361699922
20
11.7554883731168
30
0
41
1
10
20.1231361699919
20
12.0408473840611
30
0
0
SPLINE
5
23D
100
AcDbEntity
8
1
62
256
6
ByLayer
370
-1
48
1
60
0
100
AcDbSpline
70
4
71
3
72
8
73
4
40
0
40
0
40
0
40
0
40
1
40
1
40
1
40
1
41
1
10
26.026593779255
20
-16.6647689992296
30
-1E-16
41
1
10
24.467742382028
20
-17.6331933914346
30
-2E-16
41
1
10
23.0694343149862
20
-18.3695474190414
30
-3E-16
41
1
10
21.6981863376469
20
-18.740294908653
30
1E-16
0
SPLINE
5
23E
100
AcDbEntity
8
1
62
256
6
ByLayer
370
-1
48
1
60
0
100
AcDbSpline
70
4
71
3
72
12
73
8
40
0
40
0
40
0
40
0
40
0.446455142377294
40
0.446455142377294
40
0.894411028589206
40
0.894411028589206
40
1
40
1
40
1
40
1
41
1
10
30.258568274528
20
5.08474133826473
30
2E-16
41
1
10
30.1642370116446
20
4.85762256934211
30
2E-16
41
1
10
30.0619365060316
20
4.66839917045817
30
1E-16
41
1
10
29.8874005751494
20
4.39337805406731
30
1E-16
41
1
10
29.8121625022911
20
4.30447486424916
30
1E-16
41
1
10
29.7509377970496
20
4.26598559922158
30
1E-16
41
1
10
29.7404949312489
20
4.26173520074812
30
1E-16
41
1
10
29.7315488729664
20
4.26068279457903
30
1E-16
0
SPLINE
5
23F
100
AcDbEntity
8
1
62
256
6
ByLayer
370
-1
48
1
60
0
100
AcDbSpline
70
4
71
3
72
16
73
12
40
0
40
0
40
0
40
0
40
0.191117190641683
40
0.191117190641683
40
0.410788370351689
40
0.410788370351689
40
0.630481398022273
40
0.630481398022273
40
0.85022601506329
40
0.85022601506329
40
1
40
1
40
1
40
1
41
1
10
49.1474907685092
20
3.35915487293636
30
-5E-16
41
1
10
49.1763709887968
20
3.4756918847032
30
-5E-16
41
1
10
49.1879843962453
20
3.5974009043286
30
-5E-16
41
1
10
49.1742738265819
20
3.85356196263217
30
-5E-16
41
1
10
49.1428324530309
20
3.990735035375
30
-5E-16
41
1
10
49.0368902567168
20
4.24291529565102
30
-5E-16
41
1
10
48.9609229739708
20
4.36140340179801
30
-5E-16
41
1
10
48.7754595191534
20
4.56383199477591
30
-5E-16
41
1
10
48.6633904204186
20
4.65056526606335
30
-5E-16
41
1
10
48.4573476662953
20
4.76052259551824
30
-5E-16
41
1
10
48.367432691792
20
4.79599287989987
30
-5E-16
41
1
10
48.27505016
20
4.82079648383552
30
-5E-16
0
SPLINE
5
240
100
AcDbEntity
8
1
62
256
6
ByLayer
370
-1
48
1
60
0
100
AcDbSpline
70
4
71
2
72
6
73
3
40
0
40
0
40
0
40
1
40
1
40
1
41
0.500000784561903
10
22.1861451985681
20
12.266602230304
30
1E-16
41
0.499999215438097
10
23.0298063026612
20
12.3114482009914
30
2E-16
41
0.500000784561903
10
23.8748962157049
20
12.3563648397999
30
2E-16
0
SPLINE
5
241
100
AcDbEntity
8
1
62
256
6
ByLayer
370
-1
48
1
60
0
100
AcDbSpline
70
4
71
1
72
4
73
2
40
0
40
0
40
1
40
1
41
1
10
46.7
20
-19.051147970682
30
-2E-16
41
1
10
46.7
20
-10.2475032461978
30
3E-16
0
SPLINE
5
242
100
AcDbEntity
8
1
62
256
6
ByLayer
370
-1
48
1
60
0
100
AcDbSpline
70
4
71
3
72
8
73
4
40
0
40
0
40
0
40
0
40
1
40
1
40
1
40
1
41
1
10
29.9757737353241
20
8.84497213003445
30
1E-16
41
1
10
30.1691464921091
20
8.79058735769453
30
2E-16
41
1
10
30.3623460610952
20
8.74325331501504
30
2E-16
41
1
10
30.5541449925349
20
8.70324835322481
30
2E-16
0
SPLINE
5
243
100
AcDbEntity
8
1
62
256
6
ByLayer
370
-1
48
1
60
0
100
AcDbSpline
70
4
71
3
72
8
73
4
40
0
40
0
40
0
40
0
40
1
40
1
40
1
40
1
41
1
10
20.6144199463793
20
-11.3792901248194
30
-2E-16
41
1
10
20.4496995625246
20
-11.4802889997793
30
1E-16
41
1
10
20.2858791237993
20
-11.5812120317679
30
4E-16
41
1
10
20.1231361699936
20
-11.6805934339279
30
4E-16
0
SPLINE
5
244
100
AcDbEntity
8
1
62
256
6
ByLayer
370
-1
48
1
60
0
100
AcDbSpline
70
4
71
3
72
8
73
4
40
0
40
0
40
0
40
0
40
1
40
1
40
1
40
1
41
1
10
55.192763650159
20
-10.6093541096774
30
-1E-16
41
1
10
55.176298670932
20
-10.5111757733453
30
-1E-16
41
1
10
55.1601392885378
20
-10.4115444568328
30
-1E-16
41
1
10
55.1444226868995
20
-10.3111331796617
30
-1E-16
0
SPLINE
5
245
100
AcDbEntity
8
1
62
256
6
ByLayer
370
-1
48
1
60
0
100
AcDbSpline
70
4
71
3
72
16
73
12
40
0
40
0
40
0
40
0
40
0.0129406686264482
40
0.0129406686264482
40
0.152775951532692
40
0.152775951532692
40
0.329330199789636
40
0.329330199789636
40
0.665630111733405
40
0.665630111733405
40
1
40
1
40
1
40
1
41
1
10
-3.5358875294E-06
20
-5.12250353588752
30
1E-16
41
1
10
3.5358873873E-06
20
-5.1224964641126
30
1E-16
41
1
10
5.68013869753E-05
20
-5.12244319861301
30
1E-16
41
1
10
0.0013681447456833
20
-5.1211318552543
30
1E-16
41
1
10
0.0090333998855527
20
-5.11346660011444
30
1E-16
41
1
10
0.036285311255881
20
-5.08621468874412
30
1E-16
41
1
10
0.0587305875953774
20
-5.06376941240464
30
1E-16
41
1
10
0.134894928895349
20
-4.98760507110464
30
1E-16
41
1
10
0.200458735867073
20
-4.92204126413293
30
1E-16
41
1
10
0.341724447784443
20
-4.78077555221554
30
1E-16
41
1
10
0.420139056336282
20
-4.70236094366371
30
1E-16
41
1
10
0.499999999999929
20
-4.62250000000009
30
1E-16
0
SPLINE
5
246
100
AcDbEntity
8
1
62
256
6
ByLayer
370
-1
48
1
60
0
100
AcDbSpline
70
4
71
3
72
22
73
18
40
0
40
0
40
0
40
0
40
0.0800909188285208
40
0.0800909188285208
40
0.223333836393232
40
0.223333836393232
40
0.37985717436902
40
0.37985717436902
40
0.539597338161797
40
0.539597338161797
40
0.694825868470858
40
0.694825868470858
40
0.842539961590073
40
0.842539961590073
40
0.980962617331097
40
0.980962617331097
40
1
40
1
40
1
40
1
41
1
10
26.2743857413548
20
-0.239047316306255
30
1.7E-15
41
1
10
26.3265064206227
20
-0.234842983645478
30
1.7E-15
41
1
10
26.3846140713345
20
-0.238369862912805
30
1.7E-15
41
1
10
26.5584948054875
20
-0.267559225537184
30
1.7E-15
41
1
10
26.6861287082635
20
-0.308889518484847
30
1.7E-15
41
1
10
26.9676298311485
20
-0.433873038706651
30
1.7E-15
41
1
10
27.126819218036
20
-0.522886311442221
30
1.7E-15
41
1
10
27.4454531839624
20
-0.739144421575588
30
1.8E-15
41
1
10
27.6093780748307
20
-0.870430513814767
30
1.8E-15
41
1
10
27.9053856868659
20
-1.15588531650243
30
-1.8E-15
41
1
10
28.0424087320675
20
-1.31364094552637
30
-1.8E-15
41
1
10
28.2626236167848
20
-1.63138900973073
30
-1.7E-15
41
1
10
28.3512602379508
20
-1.79573875079652
30
-1.7E-15
41
1
10
28.4660309440397
20
-2.10353507062652
30
-1.7E-15
41
1
10
28.4973493493463
20
-2.25233016785489
30
-1.7E-15
41
1
10
28.5001035807928
20
-2.40334981190023
30
-1.7E-15
41
1
10
28.4998951921487
20
-2.4216201839329
30
-1.7E-15
41
1
10
28.4991376872678
20
-2.43957452380133
30
-1.7E-15
0
SPLINE
5
247
100
AcDbEntity
8
1
62
256
6
ByLayer
370
-1
48
1
60
0
100
AcDbSpline
70
4
71
3
72
12
73
8
40
0
40
0
40
0
40
0
40
0.377624667109976
40
0.377624667109976
40
0.801205997780184
40
0.801205997780184
40
1
40
1
40
1
40
1
41
1
10
38.590503479873
20
-3.43615505633022
30
7E-16
41
1
10
38.6220634476427
20
-3.26736239000809
30
7E-16
41
1
10
38.6729797302815
20
-3.06534463276918
30
7E-16
41
1
10
38.8074937953871
20
-2.59484954034701
30
7E-16
41
1
10
38.8963739502065
20
-2.31514895891297
30
7E-16
41
1
10
39.0309693942268
20
-1.88682594309654
30
7E-16
41
1
10
39.0750927788218
20
-1.74542382284014
30
7E-16
41
1
10
39.1175228816412
20
-1.60215651297082
30
7E-16
0
SPLINE
5
248
100
AcDbEntity
8
1
62
256
6
ByLayer
370
-1
48
1
60
0
100
AcDbSpline
70
4
71
3
72
12
73
8
40
0
40
0
40
0
40
0
40
0.4002496901187
40
0.4002496901187
40
0.941640234911989
40
0.941640234911989
40
1
40
1
40
1
40
1
41
1
10
46.9121020756671
20
12.5869605966498
30
-2E-16
41
1
10
46.8390697282131
20
12.6149575033156
30
-2E-16
41
1
10
46.7682046240958
20
12.6542060645379
30
-2E-16
41
1
10
46.6078374664246
20
12.7727551783238
30
-2E-16
41
1
10
46.5187123865368
20
12.8625831168704
30
-2E-16
41
1
10
46.4279006921709
20
12.9887326842989
30
-2E-16
41
1
10
46.4190596719646
20
13.0014212028065
30
-2E-16
41
1
10
46.4103080106195
20
13.0144090419206
30
-2E-16
0
SPLINE
5
249
100
AcDbEntity
8
1
62
256
6
ByLayer
370
-1
48
1
60
0
100
AcDbSpline
70
4
71
3
72
10
73
6
40
0
40
0
40
0
40
0
40
0.751174558438929
40
0.751174558438929
40
1
40
1
40
1
40
1
41
1
10
29.9757737353362
20
8.84497213005091
30
1E-16
41
1
10
29.8781787589685
20
8.8724200532196
30
1E-16
41
1
10
29.7817100528648
20
8.91647860735262
30
1E-16
41
1
10
29.663826145012
20
8.99424553733255
30
1E-16
41
1
10
29.6351118325251
20
9.01531862069109
30
1E-16
41
1
10
29.607374287283
20
9.0378940729924
30
1E-16
0
SPLINE
5
24A
100
AcDbEntity
8
1
62
256
6
ByLayer
370
-1
48
1
60
0
100
AcDbSpline
70
4
71
3
72
8
73
4
40
0
40
0
40
0
40
0
40
1
40
1
40
1
40
1
41
1
10
29.7315488729664
20
4.26068279457903
30
1E-16
41
1
10
29.4796532462686
20
4.26686258878112
30
1E-16
41
1
10
29.2296256358112
20
4.29020534298473
30
1E-16
41
1
10
28.98209078
20
4.33141088788156
30
1E-16
0
SPLINE
5
24B
100
AcDbEntity
8
1
62
256
6
ByLayer
370
-1
48
1
60
0
100
AcDbSpline
70
4
71
3
72
10
73
6
40
0
40
0
40
0
40
0
40
0.795564290401286
40
0.795564290401286
40
1
40
1
40
1
40
1
41
1
10
52.6120770868603
20
13.021689811299
30
2E-16
41
1
10
52.5868519084731
20
13.0248491211972
30
2E-16
41
1
10
52.5606470131364
20
13.0312231873258
30
2E-16
41
1
10
52.5268591705488
20
13.0430505167406
30
2E-16
41
1
10
52.5198917848424
20
13.0456699874761
30
2E-16
41
1
10
52.5128644657724
20
13.0484907501523
30
2E-16
0
SPLINE
5
24C
100
AcDbEntity
8
1
62
256
6
ByLayer
370
-1
48
1
60
0
100
AcDbSpline
70
4
71
3
72
8
73
4
40
0
40
0
40
0
40
0
40
1
40
1
40
1
40
1
41
1
10
52.4818346052895
20
12.8615828685906
30
0
41
1
10
52.4606913295486
20
12.8393070658851
30
0
41
1
10
52.4383735731781
20
12.8181753456765
30
0
41
1
10
52.4149665407584
20
12.7982219961143
30
0
0
SPLINE
5
24D
100
AcDbEntity
8
1
62
256
6
ByLayer
370
-1
48
1
60
0
100
AcDbSpline
70
4
71
3
72
8
73
4
40
0
40
0
40
0
40
0
40
1
40
1
40
1
40
1
41
1
10
21.6981863376469
20
-18.740294908653
30
1E-16
41
1
10
21.5456629216515
20
-18.6454871531686
30
1E-16
41
1
10
21.39374240143
20
-18.5402417067079
30
1E-16
41
1
10
21.242666743069
20
-18.4245811532541
30
0
0
SPLINE
5
24E
100
AcDbEntity
8
1
62
256
6
ByLayer
370
-1
48
1
60
0
100
AcDbSpline
70
4
71
3
72
10
73
6
40
0
40
0
40
0
40
0
40
0.824291853400882
40
0.824291853400882
40
1
40
1
40
1
40
1
41
1
10
20.5254544180696
20
-8.05207899779748
30
1.3E-15
41
1
10
20.6588419090255
20
-8.08218699846984
30
1.3E-15
41
1
10
20.7882609046463
20
-8.13354073827125
30
1.4E-15
41
1
10
20.9278458373501
20
-8.21616967722122
30
1.4E-15
41
1
10
20.9520731258544
20
-8.23165742251138
30
1.4E-15
41
1
10
20.9756320702439
20
-8.24788412583743
30
1.4E-15
0
SPLINE
5
24F
100
AcDbEntity
8
1
62
256
6
ByLayer
370
-1
48
1
60
0
100
AcDbSpline
70
4
71
3
72
10
73
6
40
0
40
0
40
0
40
0
40
0.766485518677509
40
0.766485518677509
40
1
40
1
40
1
40
1
41
1
10
29.7067477975839
20
-10.4893514793106
30
-1.7E-15
41
1
10
29.8341262652927
20
-10.4635721162522
30
-1.6E-15
41
1
10
29.9662722726689
20
-10.4538285702839
30
-1.6E-15
41
1
10
30.1335301681563
20
-10.463156597031
30
-1.6E-15
41
1
10
30.1725991326574
20
-10.4669142848556
30
-1.6E-15
41
1
10
30.2111988855416
20
-10.4722174233393
30
2E-16
0
SPLINE
5
250
100
AcDbEntity
8
1
62
256
6
ByLayer
370
-1
48
1
60
0
100
AcDbSpline
70
4
71
3
72
8
73
4
40
0
40
0
40
0
40
0
40
1
40
1
40
1
40
1
41
1
10
20.4846330798406
20
12.3232660534898
30
0
41
1
10
20.3647282976283
20
12.3244513023103
30
0
41
1
10
20.2442341454802
20
12.3254802291607
30
0
41
1
10
20.1231361699957
20
12.3263422829616
30
0
0
SPLINE
5
251
100
AcDbEntity
8
1
62
256
6
ByLayer
370
-1
48
1
60
0
100
AcDbSpline
70
4
71
3
72
8
73
4
40
0
40
0
40
0
40
0
40
1
40
1
40
1
40
1
41
1
10
30.8399258978293
20
8.61254677144322
30
2E-16
41
1
10
30.9084742578079
20
8.57168052602157
30
2E-16
41
1
10
30.9768658608841
20
8.53070083518838
30
2E-16
41
1
10
31.0450998085186
20
8.4896070486684
30
2E-16
0
SPLINE
5
252
100
AcDbEntity
8
1
62
256
6
ByLayer
370
-1
48
1
60
0
100
AcDbSpline
70
4
71
3
72
8
73
4
40
0
40
0
40
0
40
0
40
1
40
1
40
1
40
1
41
1
10
37.1738295841751
20
4.20224257953353
30
6E-16
41
1
10
37.0792499838354
20
4.31828904749074
30
6E-16
41
1
10
36.9846698716385
20
4.43433510912567
30
6E-16
41
1
10
36.8900892469931
20
4.55038076395832
30
6E-16
0
SPLINE
5
253
100
AcDbEntity
8
1
62
256
6
ByLayer
370
-1
48
1
60
0
100
AcDbSpline
70
4
71
3
72
20
73
16
40
0
40
0
40
0
40
0
40
0.0687508156409886
40
0.0687508156409886
40
0.248895449429695
40
0.248895449429695
40
0.42894228030436
40
0.42894228030436
40
0.608292129377788
40
0.608292129377788
40
0.786560790126293
40
0.786560790126293
40
0.963744292896124
40
0.963744292896124
40
1
40
1
40
1
40
1
41
1
10
55.7241766184998
20
-10.4135706704367
30
-1E-16
41
1
10
55.7248551248104
20
-10.4687752406935
30
-1E-16
41
1
10
55.7248253896478
20
-10.5214154104098
30
-1E-16
41
1
10
55.7221653367008
20
-10.6996317739371
30
-1E-16
41
1
10
55.7152921334519
20
-10.8085444691503
30
-1E-16
41
1
10
55.6925712455274
20
-10.9684015922089
30
-1E-16
41
1
10
55.6764058574133
20
-11.0215870720587
30
-1E-16
41
1
10
55.6367698244383
20
-11.0653068464299
30
-1E-16
41
1
10
55.6127655769292
20
-11.0566768670182
30
-1E-16
41
1
10
55.5599476184041
20
-10.9798847151421
30
-1E-16
41
1
10
55.5304191210161
20
-10.9110036593275
30
-1E-16
41
1
10
55.4696887411862
20
-10.7239248675189
30
-1E-16
41
1
10
55.4376514287057
20
-10.6034392712443
30
-1E-16
41
1
10
55.4000935101396
20
-10.4375733106053
30
-1E-16
41
1
10
55.3937130509632
20
-10.4085162075918
30
-1E-16
41
1
10
55.387355961941
20
-10.3786930021478
30
-1E-16
0
SPLINE
5
254
100
AcDbEntity
8
1
62
256
6
ByLayer
370
-1
48
1
60
0
100
AcDbSpline
70
4
71
3
72
10
73
6
40
0
40
0
40
0
40
0
40
0.766485535625798
40
0.766485535625798
40
1
40
1
40
1
40
1
41
1
10
38.5657024046976
20
-17.9153670507493
30
-2E-16
41
1
10
38.6930808752016
20
-17.89457320051
30
-2E-16
41
1
10
38.8252268856173
20
-17.8802355536496
30
-2E-16
41
1
10
38.9924847809191
20
-17.8713226446495
30
-2E-16
41
1
10
39.0315537425601
20
-17.869911967641
30
-2E-16
41
1
10
39.0701534926552
20
-17.8691900756666
30
-2E-16
0
SPLINE
5
255
100
AcDbEntity
8
1
62
256
6
ByLayer
370
-1
48
1
60
0
100
AcDbSpline
70
4
71
3
72
8
73
4
40
0
40
0
40
0
40
0
40
1
40
1
40
1
40
1
41
1
10
29.6333955344683
20
8.6786353516512
30
1E-16
41
1
10
29.8776084822217
20
8.35776327558096
30
1E-16
41
1
10
30.1124316240959
20
8.02722579781971
30
1E-16
41
1
10
30.3311402766049
20
7.68533454886068
30
2E-16
0
SPLINE
5
256
100
AcDbEntity
8
1
62
256
6
ByLayer
370
-1
48
1
60
0
100
AcDbSpline
70
4
71
3
72
8
73
4
40
0
40
0
40
0
40
0
40
1
40
1
40
1
40
1
41
1
10
39.3739661740231
20
-17.863378114202
30
-2E-16
41
1
10
39.3880683512809
20
-17.8631022926398
30
-2E-16
41
1
10
39.4021156572614
20
-17.8629171635258
30
-2E-16
41
1
10
39.4160955518742
20
-17.8628226472438
30
-2E-16
0
SPLINE
5
257
100
AcDbEntity
8
1
62
256
6
ByLayer
370
-1
48
1
60
0
100
AcDbSpline
70
4
71
3
72
8
73
4
40
0
40
0
40
0
40
0
40
1
40
1
40
1
40
1
41
1
10
30.5150115669095
20
-10.5138741795642
30
2E-16
41
1
10
30.5291137441673
20
-10.5158038975038
30
2E-16
41
1
10
30.5431610501478
20
-10.5179399445469
30
2E-16
41
1
10
30.5571409447606
20
-10.5202805167076
30
2E-16
0
SPLINE
5
258
100
AcDbEntity
8
1
62
256
6
ByLayer
370
-1
48
1
60
0
100
AcDbSpline
70
4
71
3
72
8
73
4
40
0
40
0
40
0
40
0
40
1
40
1
40
1
40
1
41
1
10
28.4844446972718
20
-2.7899916697433
30
-1.7E-15
41
1
10
28.4893079269912
20
-2.67328557126481
30
-1.7E-15
41
1
10
28.4942053522036
20
-2.55648046370808
30
-1.7E-15
41
1
10
28.4991376872678
20
-2.43957452380133
30
-1.7E-15
0
SPLINE
5
259
100
AcDbEntity
8
1
62
256
6
ByLayer
370
-1
48
1
60
0
100
AcDbSpline
70
4
71
3
72
8
73
4
40
0
40
0
40
0
40
0
40
1
40
1
40
1
40
1
41
1
10
30.5541449925353
20
8.70324835322626
30
2E-16
41
1
10
30.6545250645049
20
8.66435130634494
30
2E-16
41
1
10
30.7512223771727
20
8.63277613020156
30
2E-16
41
1
10
30.8399258978293
20
8.61254677144322
30
2E-16
0
SPLINE
5
25A
100
AcDbEntity
8
1
62
256
6
ByLayer
370
-1
48
1
60
0
100
AcDbSpline
70
4
71
3
72
8
73
4
40
0
40
0
40
0
40
0
40
1
40
1
40
1
40
1
41
1
10
31.3357958917676
20
8.12562777603392
30
2E-16
41
1
10
31.2331914778962
20
8.24463077453225
30
2E-16
41
1
10
31.1352503684438
20
8.36655414209571
30
2E-16
41
1
10
31.0450998085186
20
8.4896070486684
30
2E-16
0
SPLINE
5
25B
100
AcDbEntity
8
1
62
256
6
ByLayer
370
-1
48
1
60
0
100
AcDbSpline
70
4
71
3
72
8
73
4
40
0
40
0
40
0
40
0
40
1
40
1
40
1
40
1
41
1
10
29.3899359497677
20
9.39993233490347
30
1E-16
41
1
10
29.3128258896105
20
9.46262361970037
30
1E-16
41
1
10
29.2357154906726
20
9.52531470366236
30
1E-16
41
1
10
29.1586047526375
20
9.58800558659786
30
1E-16
0
SPLINE
5
25C
100
AcDbEntity
8
1
62
256
6
ByLayer
370
-1
48
1
60
0
100
AcDbSpline
70
4
71
3
72
8
73
4
40
0
40
0
40
0
40
0
40
1
40
1
40
1
40
1
41
1
10
21.6951903829236
20
12.1580844667228
30
1E-16
41
1
10
21.5033914522358
20
12.1251332968085
30
1E-16
41
1
10
21.3101918840201
20
12.1008970118536
30
1E-16
41
1
10
21.1168191279927
20
12.0849895736576
30
0
0
SPLINE
5
25D
100
AcDbEntity
8
1
62
256
6
ByLayer
370
-1
48
1
60
0
100
AcDbSpline
70
4
71
3
72
8
73
4
40
0
40
0
40
0
40
0
40
1
40
1
40
1
40
1
41
1
10
38.8347283426556
20
2.23487788073766
30
7E-16
41
1
10
39.0281011002034
20
2.13092237142601
30
7E-16
41
1
10
39.2213006699573
20
2.03005303309635
30
7E-16
41
1
10
39.4130996021543
20
1.93233447371469
30
7E-16
0
SPLINE
5
25E
100
AcDbEntity
8
1
62
256
6
ByLayer
370
-1
48
1
60
0
100
AcDbSpline
70
4
71
3
72
12
73
8
40
0
40
0
40
0
40
0
40
0.481227915325281
40
0.481227915325281
40
0.73738844889579
40
0.73738844889579
40
1
40
1
40
1
40
1
41
1
10
40.2776229456955
20
0.724390779723421
30
8E-16
41
1
10
40.2340920859542
20
0.815129840076992
30
8E-16
41
1
10
40.2033443416571
20
0.905973419057261
30
8E-16
41
1
10
40.1810228583039
20
1.03600533936347
30
8E-16
41
1
10
40.1777110954734
20
1.0799971646598
30
8E-16
41
1
10
40.1797402236956
20
1.16451172894321
30
8E-16
41
1
10
40.1852930063184
20
1.20517592234853
30
8E-16
41
1
10
40.1947505019884
20
1.24315511751377
30
8E-16
0
SPLINE
5
25F
100
AcDbEntity
8
1
62
256
6
ByLayer
370
-1
48
1
60
0
100
AcDbSpline
70
4
71
3
72
8
73
4
40
0
40
0
40
0
40
0
40
1
40
1
40
1
40
1
41
1
10
37.8410453899999
20
-3.65420086469158
30
6E-16
41
1
10
37.3972367413781
20
-3.63944598205688
30
6E-16
41
1
10
36.9535887078624
20
-3.64072553313639
30
6E-16
41
1
10
36.5206889385181
20
-3.64580392032883
30
5E-16
0
SPLINE
5
260
100
AcDbEntity
8
1
62
256
6
ByLayer
370
-1
48
1
60
0
100
AcDbSpline
70
4
71
3
72
8
73
4
40
0
40
0
40
0
40
0
40
1
40
1
40
1
40
1
41
1
10
39.6988805078036
20
1.66663497648295
30
7E-16
41
1
10
39.7674288677772
20
1.60388915735214
30
7E-16
41
1
10
39.8358204708483
20
1.54098941854912
30
7E-16
41
1
10
39.9040544184778
20
1.47793487779791
30
7E-16
0
SPLINE
5
261
100
AcDbEntity
8
1
62
256
6
ByLayer
370
-1
48
1
60
0
100
AcDbSpline
70
4
71
3
72
10
73
6
40
0
40
0
40
0
40
0
40
0.499999999999999
40
0.499999999999999
40
1
40
1
40
1
40
1
41
1
10
23.9027892237835
20
10.9997242868897
30
2E-16
41
1
10
24.2188036901269
20
10.5882172060036
30
-2E-16
41
1
10
24.7772010916358
20
10.4479970972353
30
-2E-16
41
1
10
25.7943098877834
20
10.1896615962689
30
-1E-16
41
1
10
26.309834216726
20
10.1113083729183
30
-1E-16
41
1
10
26.8058629819996
20
10.0807979405997
30
-1E-16
0
SPLINE
5
262
100
AcDbEntity
8
1
62
256
6
ByLayer
370
-1
48
1
60
0
100
AcDbSpline
70
4
71
3
72
8
73
4
40
0
40
0
40
0
40
0
40
1
40
1
40
1
40
1
41
1
10
39.4160955518742
20
-15.1905021955543
30
7E-16
41
1
10
40.85944162295
20
-16.5973158667932
30
8E-16
41
1
10
42.3299342204915
20
-17.6518363641175
30
0
41
1
10
43.992294957934
20
-18.3268937754888
30
1E-16
0
SPLINE
5
263
100
AcDbEntity
8
1
62
256
6
ByLayer
370
-1
48
1
60
0
100
AcDbSpline
70
4
71
3
72
8
73
4
40
0
40
0
40
0
40
0
40
1
40
1
40
1
40
1
41
1
10
46.7
20
-19.051147970682
30
-2E-16
41
1
10
46.6476726868488
20
-19.0503168827735
30
-2E-16
41
1
10
46.5956242889494
20
-19.0492486089415
30
-2E-16
41
1
10
46.54385007
20
-19.0479398780283
30
-2E-16
0
SPLINE
5
264
100
AcDbEntity
8
1
62
256
6
ByLayer
370
-1
48
1
60
0
100
AcDbSpline
70
4
71
3
72
8
73
4
40
0
40
0
40
0
40
0
40
1
40
1
40
1
40
1
41
1
10
22.186145198568
20
12.266602230304
30
1E-16
41
1
10
22.1179059260049
20
12.2700781394521
30
1E-16
41
1
10
22.049513934461
20
12.273523873712
30
1E-16
41
1
10
21.9809712878637
20
12.2769395631547
30
1E-16
0
SPLINE
5
265
100
AcDbEntity
8
1
62
256
6
ByLayer
370
-1
48
1
60
0
100
AcDbSpline
70
4
71
3
72
8
73
4
40
0
40
0
40
0
40
0
40
1
40
1
40
1
40
1
41
1
10
46.4103080106195
20
-4.17137092541051
30
-6E-16
41
1
10
46.2835692228382
20
-4.02191523725554
30
-6E-16
41
1
10
46.1568296555395
20
-3.87246008596637
30
-6E-16
41
1
10
46.030089308745
20
-3.72300547154487
30
-7E-16
0
SPLINE
5
266
100
AcDbEntity
8
1
62
256
6
ByLayer
370
-1
48
1
60
0
100
AcDbSpline
70
4
71
3
72
8
73
4
40
0
40
0
40
0
40
0
40
1
40
1
40
1
40
1
41
1
10
39.4130996021548
20
1.93233447371554
30
7E-16
41
1
10
39.5134796742517
20
1.84121457013882
30
7E-16
41
1
10
39.6101769870422
20
1.75155013709988
30
7E-16
41
1
10
39.6988805078036
20
1.66663497648295
30
7E-16
0
SPLINE
5
267
100
AcDbEntity
8
1
62
256
6
ByLayer
370
-1
48
1
60
0
100
AcDbSpline
70
4
71
3
72
8
73
4
40
0
40
0
40
0
40
0
40
1
40
1
40
1
40
1
41
1
10
55.909102436479
20
-10.9607300356883
30
0
41
1
10
55.9074522000918
20
-10.9566153507546
30
0
41
1
10
55.9059194137937
20
-10.9524618367775
30
0
41
1
10
55.9045054763967
20
-10.9482722932588
30
0
0
SPLINE
5
268
100
AcDbEntity
8
1
62
256
6
ByLayer
370
-1
48
1
60
0
100
AcDbSpline
70
4
71
3
72
8
73
4
40
0
40
0
40
0
40
0
40
1
40
1
40
1
40
1
41
1
10
37.4689352881029
20
18.8082392008525
30
-3E-16
41
1
10
37.5404109562965
20
18.7943764681814
30
-3E-16
41
1
10
37.6123879338829
20
18.7802152253716
30
-3E-16
41
1
10
37.6848954647606
20
18.7657765058815
30
-3E-16
0
SPLINE
5
269
100
AcDbEntity
8
1
62
256
6
ByLayer
370
-1
48
1
60
0
100
AcDbSpline
70
4
71
3
72
10
73
6
40
0
40
0
40
0
40
0
40
0.340534408933757
40
0.340534408933757
40
1
40
1
40
1
40
1
41
1
10
29.6073742872831
20
9.03789407299249
30
1E-16
41
1
10
29.5790345868642
20
9.07328741418067
30
1E-16
41
1
10
29.5518008543068
20
9.11104806520112
30
1E-16
41
1
10
29.4758972236659
20
9.22715804580469
30
1E-16
41
1
10
29.4303241904103
20
9.31154993765307
30
1E-16
41
1
10
29.3899359497674
20
9.39993233490151
30
1E-16
0
SPLINE
5
26A
100
AcDbEntity
8
1
62
256
6
ByLayer
370
-1
48
1
60
0
100
AcDbSpline
70
4
71
3
72
8
73
4
40
0
40
0
40
0
40
0
40
1
40
1
40
1
40
1
41
1
10
46.9121020756697
20
12.5869605966576
30
-2E-16
41
1
10
46.9185899486132
20
12.5634433452748
30
-2E-16
41
1
10
46.9254183580861
20
12.5405653858007
30
-2E-16
41
1
10
46.9325909222052
20
12.5184117014252
30
-2E-16
0
SPLINE
5
26B
100
AcDbEntity
8
1
62
256
6
ByLayer
370
-1
48
1
60
0
100
AcDbSpline
70
4
71
3
72
16
73
12
40
0
40
0
40
0
40
0
40
0.219212173829219
40
0.219212173829219
40
0.438519238348997
40
0.438519238348997
40
0.658002995859775
40
0.658002995859775
40
0.877605282913711
40
0.877605282913711
40
1
40
1
40
1
40
1
41
1
10
39.4160955518742
20
-17.8628226472438
30
-2E-16
41
1
10
39.5503801703912
20
-17.8796191888884
30
-2E-16
41
1
10
39.679917688057
20
-17.9045529120627
30
-2E-16
41
1
10
39.9081554414239
20
-17.9654714121958
30
-1E-16
41
1
10
40.009991032643
20
-18.0022672764847
30
-1E-16
41
1
10
40.1723767307781
20
-18.0810329876707
30
-1E-16
41
1
10
40.2351363205704
20
-18.1240607711467
30
-1E-16
41
1
10
40.3134444217532
20
-18.2091556487747
30
-1E-16
41
1
10
40.3300481968028
20
-18.2523778480543
30
-1E-16
41
1
10
40.3186334748934
20
-18.3149534857269
30
-1E-16
41
1
10
40.3071598023467
20
-18.3367205735556
30
-1E-16
41
1
10
40.2886037828176
20
-18.3572849759452
30
-1E-16
0
SPLINE
5
26C
100
AcDbEntity
8
1
62
256
6
ByLayer
370
-1
48
1
60
0
100
AcDbSpline
70
4
71
3
72
8
73
4
40
0
40
0
40
0
40
0
40
1
40
1
40
1
40
1
41
1
10
48.27505016
20
12.4878589406305
30
-5E-16
41
1
10
47.750059746003
20
12.4922245050538
30
-5E-16
41
1
10
47.2250425817244
20
12.4965834222543
30
-6E-16
41
1
10
46.6999999999989
20
12.5009359720933
30
-6E-16
0
SPLINE
5
26D
100
AcDbEntity
8
1
62
256
6
ByLayer
370
-1
48
1
60
0
100
AcDbSpline
70
4
71
1
72
4
73
2
40
0
40
0
40
1
40
1
41
1
10
22.4768412815561
20
11.9121054092169
30
1E-16
41
1
10
21.6951903829236
20
12.1580844667228
30
1E-16
0
SPLINE
5
26E
100
AcDbEntity
8
1
62
256
6
ByLayer
370
-1
48
1
60
0
100
AcDbSpline
70
4
71
3
72
8
73
4
40
0
40
0
40
0
40
0
40
1
40
1
40
1
40
1
41
1
10
23.9150876106644
20
12.3794414571432
30
2E-16
41
1
10
23.9830610708297
20
12.371791861057
30
2E-16
41
1
10
24.0515599066337
20
12.365825474732
30
2E-16
41
1
10
24.1205581551431
20
12.3614885618543
30
-2E-16
0
SPLINE
5
26F
100
AcDbEntity
8
1
62
256
6
ByLayer
370
-1
48
1
60
0
100
AcDbSpline
70
4
71
3
72
8
73
4
40
0
40
0
40
0
40
0
40
1
40
1
40
1
40
1
41
1
10
35.4263186073053
20
19.1191267172597
30
0
41
1
10
34.8781261642642
20
19.0499179380747
30
0
41
1
10
34.5757365673421
20
18.9370855058738
30
0
41
1
10
34.4181771003842
20
18.7775516693506
30
0
0
SPLINE
5
270
100
AcDbEntity
8
1
62
256
6
ByLayer
370
-1
48
1
60
0
100
AcDbSpline
70
4
71
3
72
8
73
4
40
0
40
0
40
0
40
0
40
1
40
1
40
1
40
1
41
1
10
21.24266675
20
7.10919344391309
30
1.4E-15
41
1
10
20.8669008938565
20
7.6436296660749
30
1.4E-15
41
1
10
20.4939064051216
20
8.16996899581187
30
1.3E-15
41
1
10
20.1231361699962
20
8.68420487431422
30
1.3E-15
0
SPLINE
5
271
100
AcDbEntity
8
1
62
256
6
ByLayer
370
-1
48
1
60
0
100
AcDbSpline
70
4
71
2
72
6
73
3
40
0
40
0
40
0
40
1
40
1
40
1
41
0.50000078825273
10
25.2851981680143
20
12.4313189056564
30
-1E-16
41
0.49999921174727
10
26.1443259751953
20
12.4769771965136
30
-1E-16
41
0.50000078825273
10
27.004883360976
20
12.522706034979
30
0
0
SPLINE
5
272
100
AcDbEntity
8
1
62
256
6
ByLayer
370
-1
48
1
60
0
100
AcDbSpline
70
4
71
3
72
10
73
6
40
0
40
0
40
0
40
0
40
0.482089560676598
40
0.482089560676598
40
1
40
1
40
1
40
1
41
1
10
25.2851981680145
20
12.4313189056564
30
-1E-16
41
1
10
25.0645335158714
20
12.3663352013814
30
-2E-16
41
1
10
24.8354954582131
20
12.3253775612793
30
-2E-16
41
1
10
24.3621077570481
20
12.2957684487995
30
-2E-16
41
1
10
24.1143787944069
20
12.3110035266549
30
-2E-16
41
1
10
23.874896215705
20
12.3563648397999
30
2E-16
0
SPLINE
5
273
100
AcDbEntity
8
1
62
256
6
ByLayer
370
-1
48
1
60
0
100
AcDbSpline
70
4
71
3
72
16
73
12
40
0
40
0
40
0
40
0
40
0.220287332839994
40
0.220287332839994
40
0.440555413815002
40
0.440555413815002
40
0.660747230303652
40
0.660747230303652
40
0.876417777120094
40
0.876417777120094
40
1
40
1
40
1
40
1
41
1
10
17.4555026439043
20
18.5642463102291
30
0
41
1
10
17.4911906444459
20
18.5577738588916
30
0
41
1
10
17.5517402110851
20
18.549827597882
30
0
41
1
10
17.7121341702296
20
18.5335269081132
30
1E-16
41
1
10
17.8142144460621
20
18.5249794599374
30
1E-16
41
1
10
18.0455645626416
20
18.510204668406
30
1E-16
41
1
10
18.1781461258794
20
18.5038084098262
30
1E-16
41
1
10
18.452094438071
20
18.4956665051866
30
1E-16
41
1
10
18.59711900317
20
18.493744155213
30
1E-16
41
1
10
18.821132505432
20
18.4947109026504
30
-1E-16
41
1
10
18.9033096767587
20
18.4958925963869
30
-1E-16
41
1
10
18.9830311988137
20
18.4978216871296
30
-1E-16
0
SPLINE
5
274
100
AcDbEntity
8
1
62
256
6
ByLayer
370
-1
48
1
60
0
100
AcDbSpline
70
4
71
3
72
14
73
10
40
0
40
0
40
0
40
0
40
0.336400423048163
40
0.336400423048163
40
0.674993646842076
40
0.674993646842076
40
0.930071898585628
40
0.930071898585628
40
1
40
1
40
1
40
1
41
1
10
44.5237721962266
20
-2.1110250565311
30
-7E-16
41
1
10
44.7748217993935
20
-2.30817473134508
30
-7E-16
41
1
10
45.0290973585634
20
-2.49541609185943
30
-7E-16
41
1
10
45.4759970068907
20
-2.85688350446097
30
-7E-16
41
1
10
45.674737750797
20
-3.0374545046198
30
-7E-16
41
1
10
45.9167031724303
20
-3.34901954361393
30
-7E-16
41
1
10
45.9885161904536
20
-3.48500680938937
30
-7E-16
41
1
10
46.0243154880072
20
-3.651791097619
30
-7E-16
41
1
10
46.028855377883
20
-3.68762728073736
30
-7E-16
41
1
10
46.030089308745
20
-3.72300547154487
30
-7E-16
0
SPLINE
5
275
100
AcDbEntity
8
1
62
256
6
ByLayer
370
-1
48
1
60
0
100
AcDbSpline
70
4
71
3
72
10
73
6
40
0
40
0
40
0
40
0
40
0.561471145341736
40
0.561471145341736
40
1
40
1
40
1
40
1
41
1
10
52.6316562882249
20
13.0470215957529
30
2E-16
41
1
10
52.6058326326495
20
13.009017534746
30
2E-16
41
1
10
52.5785360955649
20
12.9728786552144
30
2E-16
41
1
10
52.5280924878405
20
12.9119342027611
30
2E-16
41
1
10
52.505205905748
20
12.8862060388298
30
2E-16
41
1
10
52.4818346052895
20
12.8615828685906
30
0
0
SPLINE
5
276
100
AcDbEntity
8
1
62
256
6
ByLayer
370
-1
48
1
60
0
100
AcDbSpline
70
4
71
3
72
8
73
4
40
0
40
0
40
0
40
0
40
1
40
1
40
1
40
1
41
1
10
35.1333403496432
20
-11.4676502455748
30
5E-16
41
1
10
34.7693265337653
20
-11.8713821971216
30
4E-16
41
1
10
34.5457995153874
20
-12.3370046309516
30
4E-16
41
1
10
34.4181771003819
20
-12.7926390535856
30
4E-16
0
SPLINE
5
277
100
AcDbEntity
8
1
62
256
6
ByLayer
370
-1
48
1
60
0
100
AcDbSpline
70
4
71
3
72
12
73
8
40
0
40
0
40
0
40
0
40
0.102905150295183
40
0.102905150295183
40
0.942955684780138
40
0.942955684780138
40
1
40
1
40
1
40
1
41
1
10
47.9291080997613
20
4.91028699237484
30
-5E-16
41
1
10
47.9120571740842
20
4.91465957417171
30
-5E-16
41
1
10
47.8949193999628
20
4.91869108396483
30
-5E-16
41
1
10
47.7387872098187
20
4.95214635369749
30
-5E-16
41
1
10
47.5934400874426
20
4.95924314298406
30
-6E-16
41
1
10
47.4438481489269
20
4.94229361457843
30
-6E-16
41
1
10
47.4342430972344
20
4.94109688948345
30
-6E-16
41
1
10
47.4246570118036
20
4.93979397086915
30
-6E-16
0
SPLINE
5
278
100
AcDbEntity
8
1
62
256
6
ByLayer
370
-1
48
1
60
0
100
AcDbSpline
70
4
71
3
72
8
73
4
40
0
40
0
40
0
40
0
40
1
40
1
40
1
40
1
41
1
10
37.6848954647606
20
18.7657765056297
30
-3E-16
41
1
10
37.73666968214
20
18.749852263872
30
-3E-16
41
1
10
37.7887180784527
20
18.7338165914861
30
-3E-16
41
1
10
37.84104539
20
18.7176801898915
30
-3E-16
0
SPLINE
5
279
100
AcDbEntity
8
1
62
256
6
ByLayer
370
-1
48
1
60
0
100
AcDbSpline
70
4
71
3
72
16
73
12
40
0
40
0
40
0
40
0
40
0.219212173829219
40
0.219212173829219
40
0.438519238348998
40
0.438519238348998
40
0.658002995859775
40
0.658002995859775
40
0.87760528291371
40
0.87760528291371
40
1
40
1
40
1
40
1
41
1
10
39.4160955518743
20
14.7422673469093
30
7E-16
41
1
10
39.5503801703913
20
14.7207667477329
30
7E-16
41
1
10
39.679917688057
20
14.6840328226604
30
7E-16
41
1
10
39.9081554414239
20
14.5852893979693
30
7E-16
41
1
10
40.0099910326431
20
14.5218846582196
30
8E-16
41
1
10
40.1723767307782
20
14.3763640234628
30
8E-16
41
1
10
40.2351363205705
20
14.2922018976247
30
8E-16
41
1
10
40.3134444217532
20
14.1141454904877
30
8E-16
41
1
10
40.3300481968029
20
14.0177753130621
30
8E-16
41
1
10
40.3186334748935
20
13.8683844417319
30
8E-16
41
1
10
40.3071598023467
20
13.8143564211977
30
8E-16
41
1
10
40.2886037828177
20
13.7613074203663
30
8E-16
0
SPLINE
5
27A
100
AcDbEntity
8
1
62
256
6
ByLayer
370
-1
48
1
60
0
100
AcDbSpline
70
4
71
3
72
8
73
4
40
0
40
0
40
0
40
0
40
1
40
1
40
1
40
1
41
1
10
37.84104539
20
-13.7830120778675
30
6E-16
41
1
10
38.3607461482173
20
-14.292978996924
30
7E-16
41
1
10
38.8848648900332
20
-14.7642898635396
30
7E-16
41
1
10
39.4160955518742
20
-15.1905021955543
30
7E-16
0
SPLINE
5
27B
100
AcDbEntity
8
1
62
256
6
ByLayer
370
-1
48
1
60
0
100
AcDbSpline
70
4
71
3
72
16
73
12
40
0
40
0
40
0
40
0
40
0.0799602042381939
40
0.0799602042381939
40
0.365059749102172
40
0.365059749102172
40
0.642901278245588
40
0.642901278245588
40
0.841592223748455
40
0.841592223748455
40
1
40
1
40
1
40
1
41
1
10
0.499999999999929
20
4.62250000000009
30
1E-16
41
1
10
0.480779461548664
20
4.64172053845135
30
1E-16
41
1
10
0.461689533054539
20
4.66081046694546
30
1E-16
41
1
10
0.375790024427957
20
4.74670997557206
30
1E-16
41
1
10
0.310650392689624
20
4.81184960731039
30
1E-16
41
1
10
0.193900530952718
20
4.9285994690473
30
1E-16
41
1
10
0.14047944752592
20
4.9820205524741
30
1E-16
41
1
10
0.0662609128950322
20
5.05623908710498
30
1E-16
41
1
10
0.0398306985945709
20
5.08266930140545
30
1E-16
41
1
10
0.008439273173181
20
5.11406072682684
30
1E-16
41
1
10
-7.7789524653E-06
20
5.1225077789525
30
1E-16
41
1
10
3.3590930286E-06
20
5.122496640907
30
1E-16
0
SPLINE
5
27C
100
AcDbEntity
8
1
62
256
6
ByLayer
370
-1
48
1
60
0
100
AcDbSpline
70
4
71
3
72
8
73
4
40
0
40
0
40
0
40
0
40
1
40
1
40
1
40
1
41
1
10
28.98209078
20
-3.26332664315066
30
-1.7E-15
41
1
10
29.5017915391575
20
-4.03110339785195
30
-1.7E-15
41
1
10
30.0259102819302
20
-4.78572148744209
30
-1.6E-15
41
1
10
30.5571409447606
20
-5.5165489349119
30
-1.6E-15
0
SPLINE
5
27D
100
AcDbEntity
8
1
62
256
6
ByLayer
370
-1
48
1
60
0
100
AcDbSpline
70
4
71
3
72
8
73
4
40
0
40
0
40
0
40
0
40
1
40
1
40
1
40
1
41
1
10
20.8725942660602
20
10.334131891253
30
-4E-16
41
1
10
20.6206986383107
20
10.4299112858766
30
-4E-16
41
1
10
20.3706710268178
20
10.5415742478118
30
4E-16
41
1
10
20.1231361699936
20
10.6666853459644
30
4E-16
0
SPLINE
5
27E
100
AcDbEntity
8
1
62
256
6
ByLayer
370
-1
48
1
60
0
100
AcDbSpline
70
4
71
3
72
8
73
4
40
0
40
0
40
0
40
0
40
1
40
1
40
1
40
1
41
1
10
55.2948650757623
20
-19.0812489885792
30
-1E-16
41
1
10
52.9549119821464
20
-19.0079957907315
30
2E-16
41
1
10
50.6149733433434
20
-18.9344148435637
30
1E-16
41
1
10
48.27505016
20
-18.8604879963991
30
-1E-16
0
SPLINE
5
27F
100
AcDbEntity
8
1
62
256
6
ByLayer
370
-1
48
1
60
0
100
AcDbSpline
70
4
71
3
72
8
73
4
40
0
40
0
40
0
40
0
40
1
40
1
40
1
40
1
41
1
10
48.27505016
20
-18.8604879963991
30
-1E-16
41
1
10
47.7500597460024
20
-18.9242059368601
30
-1E-16
41
1
10
47.2250425817234
20
-18.9877569126102
30
-1E-16
41
1
10
46.6999999999974
20
-19.0511479706823
30
-2E-16
0
SPLINE
5
280
100
AcDbEntity
8
1
62
256
6
ByLayer
370
-1
48
1
60
0
100
AcDbSpline
70
4
71
1
72
4
73
2
40
0
40
0
40
1
40
1
41
1
10
31.4186683351926
20
7.39320065923684
30
2E-16
41
1
10
29.6333955344683
20
8.6786353516512
30
1E-16
0
SPLINE
5
281
100
AcDbEntity
8
1
62
256
6
ByLayer
370
-1
48
1
60
0
100
AcDbSpline
70
4
71
3
72
8
73
4
40
0
40
0
40
0
40
0
40
1
40
1
40
1
40
1
41
1
10
28.98209078
20
-3.26332664315035
30
-1.7E-15
41
1
10
28.9297634684527
20
-3.21997298320801
30
-1.7E-15
41
1
10
28.8777150721399
20
-3.17624146310115
30
-1.7E-15
41
1
10
28.8259408547606
20
-3.13215060741905
30
-1.7E-15
0
SPLINE
5
282
100
AcDbEntity
8
1
62
256
6
ByLayer
370
-1
48
1
60
0
100
AcDbSpline
70
4
71
3
72
8
73
4
40
0
40
0
40
0
40
0
40
1
40
1
40
1
40
1
41
1
10
38.4844428267967
20
2.40332543869917
30
7E-16
41
1
10
38.4937614564945
20
2.3410322918221
30
7E-16
41
1
10
38.4968922279992
20
2.2800887962818
30
7E-16
41
1
10
38.4923501393258
20
2.22243405771945
30
7E-16
0
SPLINE
5
283
100
AcDbEntity
8
1
62
256
6
ByLayer
370
-1
48
1
60
0
100
AcDbSpline
70
4
71
3
72
8
73
4
40
0
40
0
40
0
40
0
40
1
40
1
40
1
40
1
41
1
10
22.4768412815561
20
11.9121054092169
30
1E-16
41
1
10
22.3742368677798
20
12.0225158694343
30
1E-16
41
1
10
22.2762957584169
20
12.1407660976674
30
1E-16
41
1
10
22.186145198568
20
12.266602230304
30
1E-16
0
SPLINE
5
284
100
AcDbEntity
8
1
62
256
6
ByLayer
370
-1
48
1
60
0
100
AcDbSpline
70
4
71
4
72
10
73
5
40
0
40
0
40
0
40
0
40
0
40
1
40
1
40
1
40
1
40
1
41
0.58576360902712
10
46.8055635377241
20
-7.59089781098892
30
-1E-16
41
0.585089834435405
10
46.4429244482825
20
-8.1739827372914
30
3E-16
41
0.571453795751031
10
46.0072317427031
20
-8.94492772446321
30
2E-16
41
0.570988843075605
10
45.6320057823055
20
-9.7279204520407
30
2E-16
41
0.575485171620008
10
45.3796435454169
20
-10.3557248447754
30
-7E-16
0
SPLINE
5
285
100
AcDbEntity
8
1
62
256
6
ByLayer
370
-1
48
1
60
0
100
AcDbSpline
70
4
71
3
72
18
73
14
40
0
40
0
40
0
40
0
40
0.0493219294775302
40
0.0493219294775302
40
0.241336283960273
40
0.241336283960273
40
0.460354233883802
40
0.460354233883802
40
0.700062282417867
40
0.700062282417867
40
0.946900019429721
40
0.946900019429721
40
1
40
1
40
1
40
1
41
1
10
26.0265937792467
20
-16.6647689992451
30
-1E-16
41
1
10
26.0427903529557
20
-16.6356345813167
30
-1E-16
41
1
10
26.0601054824208
20
-16.6059883888968
30
-1E-16
41
1
10
26.1493544253239
20
-16.4600194480735
30
-1E-16
41
1
10
26.2365843690655
20
-16.3376321542554
30
-1E-16
41
1
10
26.4446902026749
20
-16.0811323111955
30
-1E-16
41
1
10
26.5712724388369
20
-15.9444465385985
30
-1E-16
41
1
10
26.8499359704866
20
-15.6780307288584
30
-1E-16
41
1
10
27.0071833984591
20
-15.546476741427
30
0
41
1
10
27.3228738287715
20
-15.313572129206
30
0
41
1
10
27.4856556423522
20
-15.2098739954585
30
0
41
1
10
27.6669428097007
20
-15.1098572394058
30
0
41
1
10
27.6985990977378
20
-15.0930261264621
30
0
41
1
10
27.7296682122866
20
-15.0771096905442
30
0
0
SPLINE
5
286
100
AcDbEntity
8
1
62
256
6
ByLayer
370
-1
48
1
60
0
100
AcDbSpline
70
4
71
3
72
8
73
4
40
0
40
0
40
0
40
0
40
1
40
1
40
1
40
1
41
1
10
37.84104539
20
18.7176801898914
30
-3E-16
41
1
10
38.3607461482173
20
18.4771875871139
30
-2E-16
41
1
10
38.8848648900332
20
18.1899762534935
30
-2E-16
41
1
10
39.4160955518743
20
17.8604291227722
30
-2E-16
0
SPLINE
5
287
100
AcDbEntity
8
1
62
256
6
ByLayer
370
-1
48
1
60
0
100
AcDbSpline
70
4
71
3
72
10
73
6
40
0
40
0
40
0
40
0
40
0.885037923149577
40
0.885037923149577
40
1
40
1
40
1
40
1
41
1
10
55.9045054763965
20
-16.5420937143415
30
0
41
1
10
55.9057535997389
20
-16.5505554965309
30
0
41
1
10
55.907096867565
20
-16.559007035281
30
0
41
1
10
55.908723120636
20
-16.5685437108474
30
0
41
1
10
55.9089119667286
20
-16.5696414204193
30
0
41
1
10
55.9091024364793
20
-16.5707389155923
30
0
0
SPLINE
5
288
100
AcDbEntity
8
1
62
256
6
ByLayer
370
-1
48
1
60
0
100
AcDbSpline
70
4
71
3
72
8
73
4
40
0
40
0
40
0
40
0
40
1
40
1
40
1
40
1
41
1
10
21.2426667462761
20
-8.30758957775009
30
1.4E-15
41
1
10
21.3943083235063
20
-8.44568747380944
30
1.4E-15
41
1
10
21.5461534855089
20
-8.58371042891406
30
1.4E-15
41
1
10
21.6981863376469
20
-8.72166356436722
30
1.4E-15
0
SPLINE
5
289
100
AcDbEntity
8
1
62
256
6
ByLayer
370
-1
48
1
60
0
100
AcDbSpline
70
4
71
3
72
8
73
4
40
0
40
0
40
0
40
0
40
1
40
1
40
1
40
1
41
1
10
26.2743857413548
20
-0.239047316306255
30
1.7E-15
41
1
10
24.612796907964
20
1.87861262568492
30
1.6E-15
41
1
10
23.1416429145411
20
4.12365129907207
30
1.5E-15
41
1
10
21.698186337647
20
6.25929829837642
30
1.4E-15
0
SPLINE
5
28A
100
AcDbEntity
8
1
62
256
6
ByLayer
370
-1
48
1
60
0
100
AcDbSpline
70
4
71
3
72
8
73
4
40
0
40
0
40
0
40
0
40
1
40
1
40
1
40
1
41
1
10
37.358092294763
20
-12.9597451479998
30
6E-16
41
1
10
37.3531599597142
20
-13.1228057489741
30
6E-16
41
1
10
37.3482625345169
20
-13.2858450334124
30
6E-16
41
1
10
37.3433993048125
20
-13.4488630632605
30
6E-16
0
SPLINE
5
28B
100
AcDbEntity
8
1
62
256
6
ByLayer
370
-1
48
1
60
0
100
AcDbSpline
70
4
71
3
72
10
73
6
40
0
40
0
40
0
40
0
40
0.459800466178319
40
0.459800466178319
40
1
40
1
40
1
40
1
41
1
10
38.1996539383606
20
7.20925025047515
30
-1.1E-15
41
1
10
38.2746470539364
20
7.1903997210222
30
-1.1E-15
41
1
10
38.3483748774162
20
7.16491139119159
30
-1.1E-15
41
1
10
38.5015742973435
20
7.09632687156841
30
-1.1E-15
41
1
10
38.5807378357814
20
7.05048790580645
30
-1.1E-15
41
1
10
38.6533716192389
20
6.99743590432101
30
-1.1E-15
0
SPLINE
5
28C
100
AcDbEntity
8
1
62
256
6
ByLayer
370
-1
48
1
60
0
100
AcDbSpline
70
4
71
3
72
16
73
12
40
0
40
0
40
0
40
0
40
0.219212173829219
40
0.219212173829219
40
0.438519238348995
40
0.438519238348995
40
0.65800299585977
40
0.65800299585977
40
0.877605282913703
40
0.877605282913703
40
1
40
1
40
1
40
1
41
1
10
30.5571409447606
20
19.0466969642857
30
0
41
1
10
30.6914255632777
20
19.0479680713998
30
0
41
1
10
30.8209630809434
20
19.0475884074324
30
0
41
1
10
31.0492008343103
20
19.0424288028852
30
0
41
1
10
31.1510364255295
20
19.0375422706065
30
0
41
1
10
31.3134221236646
20
19.0224731437984
30
0
41
1
10
31.3761817134568
20
19.0120450128447
30
0
41
1
10
31.4544898146396
20
18.9859583483522
30
-2E-16
41
1
10
31.4710935896893
20
18.9699179922651
30
-2E-16
41
1
10
31.4596788677798
20
18.9420516441661
30
-2E-16
41
1
10
31.4482051952331
20
18.9313880520403
30
-2E-16
41
1
10
31.4296491757041
20
18.9203697269909
30
-2E-16
0
SPLINE
5
28D
100
AcDbEntity
8
1
62
256
6
ByLayer
370
-1
48
1
60
0
100
AcDbSpline
70
4
71
3
72
26
73
22
40
0
40
0
40
0
40
0
40
0.105280088765506
40
0.105280088765506
40
0.16545709258144
40
0.16545709258144
40
0.210742252644009
40
0.210742252644009
40
0.256621783157303
40
0.256621783157303
40
0.29560068313412
40
0.29560068313412
40
0.362960733866616
40
0.362960733866616
40
0.493226151964775
40
0.493226151964775
40
0.709916916989742
40
0.709916916989742
40
0.930686452804235
40
0.930686452804235
40
1
40
1
40
1
40
1
41
1
10
41.6206984380108
20
0.278397082779008
30
9E-16
41
1
10
41.5446873434753
20
0.39900969148556
30
8E-16
41
1
10
41.4566362778258
20
0.512000557581587
30
8E-16
41
1
10
41.2886829584949
20
0.664011214541262
30
8E-16
41
1
10
41.2202448180153
20
0.714715095798937
30
8E-16
41
1
10
41.086785118132
20
0.786238343256713
30
8E-16
41
1
10
41.0238028942428
20
0.811736050091611
30
8E-16
41
1
10
40.8927168778445
20
0.844817982138323
30
8E-16
41
1
10
40.8227128666791
20
0.85232029904256
30
8E-16
41
1
10
40.6994197353253
20
0.847733096335816
30
8E-16
41
1
10
40.6437918639902
20
0.838571593657235
30
8E-16
41
1
10
40.5028036384617
20
0.7998146511936
30
8E-16
41
1
10
40.4221320904313
20
0.760133524621892
30
8E-16
41
1
10
40.2102129736197
20
0.622230107616389
30
8E-16
41
1
10
40.094517660263
20
0.501502314510958
30
8E-16
41
1
10
39.8200914555522
20
0.146639962975655
30
7E-16
41
1
10
39.6776289596579
20
-0.119276274537896
30
7E-16
41
1
10
39.4225262252727
20
-0.687575862284888
30
7E-16
41
1
10
39.3082501109512
20
-0.999007983451548
30
7E-16
41
1
10
39.176864679375
20
-1.40592119932313
30
7E-16
41
1
10
39.1464924885051
20
-1.50433922365087
30
7E-16
41
1
10
39.1175228816413
20
-1.60215651297062
30
7E-16
0
SPLINE
5
28E
100
AcDbEntity
8
1
62
256
6
ByLayer
370
-1
48
1
60
0
100
AcDbSpline
70
4
71
4
72
13
73
8
40
0
40
0
40
0
40
0
40
0
40
0.519078417073028
40
0.519078417073028
40
0.519078417073028
40
1
40
1
40
1
40
1
40
1
41
0.57548517161615
10
36.5206889385181
20
-3.64580392032882
30
5E-16
41
0.570913501073277
10
36.7773137041263
20
-3.39451365786159
30
6E-16
41
0.571470770568939
10
37.1608744391659
20
-2.8802640250299
30
6E-16
41
0.585786437626905
10
37.6053857901597
20
-2.15674782763951
30
6E-16
41
0.585786437626905
10
38.3093384591777
20
-0.909316944168808
30
7E-16
41
0.573498070382907
10
38.6921768871638
20
-0.176020675446255
30
7E-16
41
0.571248274808587
10
38.9996068951901
20
0.508516115806999
30
7E-16
41
0.574319865275173
10
39.1900948838423
20
1.0263113433331
30
7E-16
0
SPLINE
5
28F
100
AcDbEntity
8
1
62
256
6
ByLayer
370
-1
48
1
60
0
100
AcDbSpline
70
4
71
3
72
20
73
16
40
0
40
0
40
0
40
0
40
0.102994576924805
40
0.102994576924805
40
0.276776854392931
40
0.276776854392931
40
0.456611697286933
40
0.456611697286933
40
0.631442540539157
40
0.631442540539157
40
0.796726882212225
40
0.796726882212225
40
0.95135691911215
40
0.95135691911215
40
1
40
1
40
1
40
1
41
1
10
44.2852732157687
20
14.3725891352412
30
-8E-16
41
1
10
44.3565681991821
20
14.2901086263002
30
-8E-16
41
1
10
44.4342965248621
20
14.2055520113575
30
-8E-16
41
1
10
44.6540169473025
20
13.9799975163245
30
-7E-16
41
1
10
44.806791448064
20
13.8370424012204
30
-7E-16
41
1
10
45.1224502342971
20
13.564767662453
30
-7E-16
41
1
10
45.2900902066239
20
13.4321006278351
30
-7E-16
41
1
10
45.6016967343052
20
13.2010336502183
30
-7E-16
41
1
10
45.7506251920525
20
13.0982834104873
30
-7E-16
41
1
10
45.9986417570744
20
12.934935012622
30
-7E-16
41
1
10
46.1035423620158
20
12.8698163608094
30
-6E-16
41
1
10
46.2521924469074
20
12.7829644588044
30
-6E-16
41
1
10
46.3015584574414
20
12.7574427987431
30
-6E-16
41
1
10
46.3283762123854
20
12.7515732783386
30
-6E-16
41
1
10
46.3320302832461
20
12.7522546021699
30
-6E-16
41
1
10
46.3327877792955
20
12.755137573262
30
-6E-16
0
SPLINE
5
290
100
AcDbEntity
8
1
62
256
6
ByLayer
370
-1
48
1
60
0
100
AcDbSpline
70
4
71
3
72
8
73
4
40
0
40
0
40
0
40
0
40
1
40
1
40
1
40
1
41
1
10
21.698186337647
20
6.25929829837642
30
1.4E-15
41
1
10
21.5456629216515
20
6.54990227273601
30
1.4E-15
41
1
10
21.3937424014301
20
6.83342618607193
30
1.4E-15
41
1
10
21.2426667430691
20
7.10919345377059
30
1.4E-15
0
SPLINE
5
291
100
AcDbEntity
8
1
62
256
6
ByLayer
370
-1
48
1
60
0
100
AcDbSpline
70
4
71
3
72
8
73
4
40
0
40
0
40
0
40
0
40
1
40
1
40
1
40
1
41
1
10
30.5150115669095
20
19.0519623505491
30
0
41
1
10
30.5291137441674
20
19.0502162657143
30
0
41
1
10
30.5431610501478
20
19.0484607587763
30
0
41
1
10
30.5571409447606
20
19.0466969642857
30
0
0
SPLINE
5
292
100
AcDbEntity
8
1
62
256
6
ByLayer
370
-1
48
1
60
0
100
AcDbSpline
70
4
71
3
72
10
73
6
40
0
40
0
40
0
40
0
40
0.296117025073437
40
0.296117025073437
40
1
40
1
40
1
40
1
41
1
10
29.6073742872835
20
9.03789407299254
30
1E-16
41
1
10
29.6140217919212
20
9.00272491789124
30
1E-16
41
1
10
29.6196226166601
20
8.9673397388683
30
1E-16
41
1
10
29.6344705521974
20
8.84774195919181
30
1E-16
41
1
10
29.6381673370699
20
8.76246181083533
30
1E-16
41
1
10
29.6333955344683
20
8.6786353516512
30
1E-16
0
SPLINE
5
293
100
AcDbEntity
8
1
62
256
6
ByLayer
370
-1
48
1
60
0
100
AcDbSpline
70
4
71
3
72
10
73
6
40
0
40
0
40
0
40
0
40
0.821754770422391
40
0.821754770422391
40
1
40
1
40
1
40
1
41
1
10
55.2948650757623
20
2.3972176025373
30
-1E-16
41
1
10
55.3581305494036
20
2.75472029526355
30
-1E-16
41
1
10
55.3822053429108
20
3.12341889946694
30
-1E-16
41
1
10
55.3266479022171
20
3.55880762530799
30
-1E-16
41
1
10
55.31308556772
20
3.63681784375058
30
-1E-16
41
1
10
55.294865075764
20
3.71345166210037
30
-1E-16
0
SPLINE
5
294
100
AcDbEntity
8
1
62
256
6
ByLayer
370
-1
48
1
60
0
100
AcDbSpline
70
4
71
3
72
8
73
4
40
0
40
0
40
0
40
0
40
1
40
1
40
1
40
1
41
1
10
46.2023539123527
20
-18.9835010720325
30
-2E-16
41
1
10
46.3149255570631
20
-19.0061375125611
30
-2E-16
41
1
10
46.4287192565342
20
-19.0276028927329
30
-2E-16
41
1
10
46.54385007
20
-19.0479398779728
30
-2E-16
0
SPLINE
5
295
100
AcDbEntity
8
1
62
256
6
ByLayer
370
-1
48
1
60
0
100
AcDbSpline
70
4
71
3
72
8
73
4
40
0
40
0
40
0
40
0
40
1
40
1
40
1
40
1
41
1
10
20.4665415635337
20
11.6611705637954
30
0
41
1
10
21.1520778922935
20
11.4704284470285
30
0
41
1
10
21.8476623422624
20
11.3169908218836
30
1E-16
41
1
10
22.559713724681
20
11.2450820386552
30
1E-16
0
SPLINE
5
296
100
AcDbEntity
8
1
62
256
6
ByLayer
370
-1
48
1
60
0
100
AcDbSpline
70
4
71
3
72
8
73
4
40
0
40
0
40
0
40
0
40
1
40
1
40
1
40
1
41
1
10
21.2426667499997
20
-18.4245811518598
30
0
41
1
10
20.8669008938564
20
-18.5001677330948
30
0
41
1
10
20.4939064051214
20
-18.549228402336
30
0
41
1
10
20.1231361699962
20
-18.5709586732886
30
0
0
SPLINE
5
297
100
AcDbEntity
8
1
62
256
6
ByLayer
370
-1
48
1
60
0
100
AcDbSpline
70
4
71
4
72
13
73
8
40
0
40
0
40
0
40
0
40
0
40
0.366948163936481
40
0.366948163936481
40
0.366948163936481
40
1
40
1
40
1
40
1
40
1
41
0.575353953199488
10
28.2738375613681
20
4.3866574200902
30
0
41
0.577748362901105
10
28.4803289606127
20
4.47236254864987
30
0
41
0.581657625949171
10
28.6993482077085
20
4.63446465872845
30
1E-16
41
0.585786437626905
10
28.9155997908177
20
4.85937863455908
30
1E-16
41
0.585786437626905
10
29.4503838520088
20
5.53883464021733
30
1E-16
41
0.57349807038692
10
29.8332222799225
20
6.17568330148733
30
1E-16
41
0.571248274809689
10
30.1406522879253
20
6.94932006374731
30
2E-16
41
0.574319865273166
10
30.3311402766049
20
7.68533454886069
30
2E-16
0
SPLINE
5
298
100
AcDbEntity
8
1
62
256
6
ByLayer
370
-1
48
1
60
0
100
AcDbSpline
70
4
71
3
72
20
73
16
40
0
40
0
40
0
40
0
40
0.127209352603803
40
0.127209352603803
40
0.253899054044019
40
0.253899054044019
40
0.388382687669428
40
0.388382687669428
40
0.531844042072565
40
0.531844042072565
40
0.6828355828703
40
0.6828355828703
40
0.840164676751969
40
0.840164676751969
40
1
40
1
40
1
40
1
41
1
10
46.2170469022582
20
-18.5420441892527
30
-2E-16
41
1
10
46.2220289933546
20
-18.3934738725529
30
-2E-16
41
1
10
46.2025892920794
20
-18.2507655016321
30
-2E-16
41
1
10
46.1206669981217
20
-17.9991222942661
30
-2E-16
41
1
10
46.0573669266865
20
-17.8865820089849
30
-2E-16
41
1
10
45.8932711594636
20
-17.6964206875602
30
2E-16
41
1
10
45.7883324832968
20
-17.6188609782792
30
2E-16
41
1
10
45.548832484043
20
-17.5110475404179
30
2E-16
41
1
10
45.4096939422526
20
-17.4828701365163
30
2E-16
41
1
10
45.1179929846385
20
-17.4848224496029
30
2E-16
41
1
10
44.9613180887719
20
-17.518054401147
30
2E-16
41
1
10
44.6547020527251
20
-17.6456276200967
30
2E-16
41
1
10
44.5010827109246
20
-17.7441349278166
30
1E-16
41
1
10
44.2233995848565
20
-17.9948423451
30
1E-16
41
1
10
44.0955702474704
20
-18.1517104600517
30
1E-16
41
1
10
43.9922949579292
20
-18.3268937755004
30
1E-16
0
SPLINE
5
299
100
AcDbEntity
8
1
62
256
6
ByLayer
370
-1
48
1
60
0
100
AcDbSpline
70
4
71
3
72
8
73
4
40
0
40
0
40
0
40
0
40
1
40
1
40
1
40
1
41
1
10
21.9809712878637
20
12.2769395631547
30
1E-16
41
1
10
21.8922677673118
20
12.2247754087826
30
1E-16
41
1
10
21.7955704547662
20
12.1862306776191
30
1E-16
41
1
10
21.6951903829236
20
12.1580844667228
30
1E-16
0
SPLINE
5
29A
100
AcDbEntity
8
1
62
256
6
ByLayer
370
-1
48
1
60
0
100
AcDbSpline
70
4
71
3
72
12
73
8
40
0
40
0
40
0
40
0
40
0.308547830283028
40
0.308547830283028
40
0.617095660567177
40
0.617095660567177
40
1
40
1
40
1
40
1
41
1
10
44.7227925752024
20
0.996569272722382
30
-7E-16
41
1
10
44.2271928385732
20
1.04611173014976
30
-8E-16
41
1
10
43.7315918736322
20
1.09564363784369
30
-8E-16
41
1
10
42.7403874778829
20
1.19468626224787
30
-9E-16
41
1
10
42.2447840468415
20
1.24419697898264
30
-9E-16
41
1
10
41.1341396346752
20
1.35512608156927
30
8E-16
41
1
10
40.5190979846232
20
1.41653872017545
30
8E-16
41
1
10
39.9040544184778
20
1.47793487779791
30
7E-16
0
SPLINE
5
29B
100
AcDbEntity
8
1
62
256
6
ByLayer
370
-1
48
1
60
0
100
AcDbSpline
70
4
71
3
72
8
73
4
40
0
40
0
40
0
40
0
40
1
40
1
40
1
40
1
41
1
10
46.7
20
-10.2475032461985
30
3E-16
41
1
10
49.528686822173
20
-10.4042989424661
30
-4E-16
41
1
10
52.3596434086242
20
-10.5339648765708
30
-3E-16
41
1
10
55.1927636501591
20
-10.6093541096774
30
-1E-16
0
SPLINE
5
29C
100
AcDbEntity
8
1
62
256
6
ByLayer
370
-1
48
1
60
0
100
AcDbSpline
70
4
71
3
72
26
73
22
40
0
40
0
40
0
40
0
40
0.105280088765511
40
0.105280088765511
40
0.165457092581428
40
0.165457092581428
40
0.210742252644
40
0.210742252644
40
0.256621783157296
40
0.256621783157296
40
0.295600683134101
40
0.295600683134101
40
0.362960733866584
40
0.362960733866584
40
0.493226151964712
40
0.493226151964712
40
0.709916916989649
40
0.709916916989649
40
0.930686452804116
40
0.930686452804116
40
1
40
1
40
1
40
1
41
1
10
32.7617438308971
20
6.96617266333473
30
3E-16
41
1
10
32.6857327363616
20
7.10180871439408
30
3E-16
41
1
10
32.5976816707121
20
7.23397928618709
30
3E-16
41
1
10
32.4297283513812
20
7.41375600618196
30
3E-16
41
1
10
32.3612902109015
20
7.4741364640511
30
3E-16
41
1
10
32.2278305110183
20
7.55672723491955
30
3E-16
41
1
10
32.1648482871291
20
7.58503152746633
30
3E-16
41
1
10
32.0337622707308
20
7.6165908136644
30
3E-16
41
1
10
31.9637582595654
20
7.61947320111861
30
3E-16
41
1
10
31.8404651282115
20
7.60006762009291
30
3E-16
41
1
10
31.7848372568765
20
7.58160131013929
30
3E-16
41
1
10
31.643849031348
20
7.51450092087524
30
2E-16
41
1
10
31.5631774833176
20
7.4533897164437
30
2E-16
41
1
10
31.3512583665061
20
7.2548155613857
30
2E-16
41
1
10
31.2355630531493
20
7.09563092406489
30
2E-16
41
1
10
30.9611368484386
20
6.66358919011623
30
2E-16
41
1
10
30.8186743525443
20
6.37293703928989
30
2E-16
41
1
10
30.5635716181592
20
5.81707322372679
30
2E-16
41
1
10
30.4492955038377
20
5.54378550893148
30
2E-16
41
1
10
30.3179100722614
20
5.22782111758124
30
2E-16
41
1
10
30.2875378813915
20
5.1544906583307
30
2E-16
41
1
10
30.2585682745276
20
5.08474133826454
30
2E-16
0
SPLINE
5
29D
100
AcDbEntity
8
1
62
256
6
ByLayer
370
-1
48
1
60
0
100
AcDbSpline
70
4
71
3
72
8
73
4
40
0
40
0
40
0
40
0
40
1
40
1
40
1
40
1
41
1
10
50.545340766483
20
12.9003620039281
30
1E-16
41
1
10
50.5264151840692
20
12.9366400946283
30
1E-16
41
1
10
50.5081767569894
20
12.974949994759
30
1E-16
41
1
10
50.4910247846537
20
13.0150271438664
30
1E-16
0
SPLINE
5
29E
100
AcDbEntity
8
1
62
256
6
ByLayer
370
-1
48
1
60
0
100
AcDbSpline
70
4
71
3
72
8
73
4
40
0
40
0
40
0
40
0
40
1
40
1
40
1
40
1
41
1
10
22.0325803068368
20
-11.7405237184571
30
-2E-16
41
1
10
22.8485522924042
20
-12.0661134678788
30
0
41
1
10
23.6772223160975
20
-12.3157323741708
30
0
41
1
10
24.532464605832
20
-12.5025695022888
30
0
0
SPLINE
5
29F
100
AcDbEntity
8
1
62
256
6
ByLayer
370
-1
48
1
60
0
100
AcDbSpline
70
4
71
3
72
8
73
4
40
0
40
0
40
0
40
0
40
1
40
1
40
1
40
1
41
1
10
39.1900948838423
20
1.02631134333311
30
7E-16
41
1
10
39.5484616129352
20
0.91635797131562
30
7E-16
41
1
10
39.9107555908513
20
0.811413551576635
30
7E-16
41
1
10
40.2776229456955
20
0.724390779723421
30
8E-16
0
SPLINE
5
2A0
100
AcDbEntity
8
1
62
256
6
ByLayer
370
-1
48
1
60
0
100
AcDbSpline
70
4
71
3
72
10
73
6
40
0
40
0
40
0
40
0
40
0.5
40
0.5
40
1
40
1
40
1
40
1
41
1
10
41.6206984380107
20
0.278397082778866
30
9E-16
41
1
10
41.9367129043541
20
-0.22304720515848
30
9E-16
41
1
10
42.4951103058631
20
-0.594704654094244
30
-9E-16
41
1
10
43.5122191020105
20
-1.34915517171464
30
-8E-16
41
1
10
44.0277434309528
20
-1.72149283445924
30
-8E-16
41
1
10
44.5237721962266
20
-2.11102505653187
30
-7E-16
0
SPLINE
5
2A1
100
AcDbEntity
8
1
62
256
6
ByLayer
370
-1
48
1
60
0
100
AcDbSpline
70
4
71
1
72
4
73
2
40
0
40
0
40
1
40
1
41
1
10
20.1231361699962
20
8.68420487440807
30
1.3E-15
41
1
10
20.1231361699937
20
10.6666853459646
30
4E-16
0
SPLINE
5
2A2
100
AcDbEntity
8
1
62
256
6
ByLayer
370
-1
48
1
60
0
100
AcDbSpline
70
4
71
3
72
10
73
6
40
0
40
0
40
0
40
0
40
0.766485535630588
40
0.766485535630588
40
1
40
1
40
1
40
1
41
1
10
38.5657024046976
20
14.8768988317835
30
7E-16
41
1
10
38.6930808752024
20
14.8796987077352
30
7E-16
41
1
10
38.825226885619
20
14.8697824322049
30
7E-16
41
1
10
38.9924847809208
20
14.8409249147245
30
7E-16
41
1
10
39.031553742561
20
14.8329925775027
30
7E-16
41
1
10
39.0701534926553
20
14.8239474910321
30
7E-16
0
SPLINE
5
2A3
100
AcDbEntity
8
1
62
256
6
ByLayer
370
-1
48
1
60
0
100
AcDbSpline
70
4
71
3
72
8
73
4
40
0
40
0
40
0
40
0
40
1
40
1
40
1
40
1
41
1
10
56.1171236
20
-11.4790482786549
30
0
41
1
10
56.0477429792334
20
-11.306288650529
30
0
41
1
10
55.9784002737578
20
-11.1335166553513
30
0
41
1
10
55.909102436479
20
-10.9607300356883
30
0
0
SPLINE
5
2A4
100
AcDbEntity
8
1
62
256
6
ByLayer
370
-1
48
1
60
0
100
AcDbSpline
70
4
71
3
72
8
73
4
40
0
40
0
40
0
40
0
40
1
40
1
40
1
40
1
41
1
10
38.4923501393258
20
2.22243405771943
30
7E-16
41
1
10
38.7365630879282
20
1.83053364441523
30
7E-16
41
1
10
38.9713862306127
20
1.43242646446367
30
7E-16
41
1
10
39.1900948838423
20
1.02631134333311
30
7E-16
0
SPLINE
5
2A5
100
AcDbEntity
8
1
62
256
6
ByLayer
370
-1
48
1
60
0
100
AcDbSpline
70
4
71
3
72
26
73
22
40
0
40
0
40
0
40
0
40
0.112029096821794
40
0.112029096821794
40
0.224781994311163
40
0.224781994311163
40
0.329662657939915
40
0.329662657939915
40
0.427705806729755
40
0.427705806729755
40
0.523222397990771
40
0.523222397990771
40
0.619913829634754
40
0.619913829634754
40
0.720916648052706
40
0.720916648052706
40
0.828956166610777
40
0.828956166610777
40
0.945841145498994
40
0.945841145498994
40
1
40
1
40
1
40
1
41
1
10
54.6956272783421
20
-0.399611325970341
30
-1E-16
41
1
10
54.6557106901215
20
-0.578722216583742
30
-1E-16
41
1
10
54.5864613890935
20
-0.753931284245795
30
-1E-16
41
1
10
54.3947694177285
20
-1.0673695109916
30
-1E-16
41
1
10
54.2689521311494
20
-1.20984380879202
30
-1E-16
41
1
10
53.9877811126716
20
-1.42712848405665
30
-2E-16
41
1
10
53.8309321799654
20
-1.50898814429036
30
-2E-16
41
1
10
53.5134304203812
20
-1.60604661231639
30
-2E-16
41
1
10
53.349284545066
20
-1.6265495171161
30
-2E-16
41
1
10
53.0322380550555
20
-1.61116228859475
30
-2E-16
41
1
10
52.8749189678652
20
-1.57653571470209
30
-2E-16
41
1
10
52.5819104733423
20
-1.45947472818037
30
-3E-16
41
1
10
52.4426700840744
20
-1.37500328963782
30
-3E-16
41
1
10
52.1948315564503
20
-1.16547063210695
30
-3E-16
41
1
10
52.0846284424452
20
-1.03617381021823
30
-3E-16
41
1
10
51.9040584451346
20
-0.744448678637895
30
-3E-16
41
1
10
51.8345597912564
20
-0.576686497337192
30
-3E-16
41
1
10
51.745729269922
20
-0.218530268859268
30
-3E-16
41
1
10
51.7296370019538
20
-0.0227275338203583
30
-3E-16
41
1
10
51.7497846648157
20
0.257276285333319
30
-3E-16
41
1
10
51.7625627475039
20
0.345844320199689
30
-3E-16
41
1
10
51.7815418797743
20
0.432820342580925
30
-3E-16
0
SPLINE
5
2A6
100
AcDbEntity
8
1
62
256
6
ByLayer
370
-1
48
1
60
0
100
AcDbSpline
70
4
71
1
72
4
73
2
40
0
40
0
40
1
40
1
41
1
10
31.3357958917676
20
8.12562777603392
30
2E-16
41
1
10
30.5541449925355
20
8.70324835322612
30
2E-16
0
SPLINE
5
2A7
100
AcDbEntity
8
1
62
256
6
ByLayer
370
-1
48
1
60
0
100
AcDbSpline
70
4
71
3
72
12
73
8
40
0
40
0
40
0
40
0
40
0.286197127705877
40
0.286197127705877
40
0.933000907847174
40
0.933000907847174
40
1
40
1
40
1
40
1
41
1
10
48.298879396022
20
13.1093311258159
30
-1E-16
41
1
10
48.2623705267799
20
13.0631128102817
30
-1E-16
41
1
10
48.2226225744112
20
13.019400198647
30
-1E-16
41
1
10
48.0850020302
20
12.8865736782138
30
-1E-16
41
1
10
47.9752773910001
20
12.8079302713267
30
-1E-16
41
1
10
47.8452393550113
20
12.7401637121493
30
-1E-16
41
1
10
47.8328429597536
20
12.7339367631357
30
-1E-16
41
1
10
47.8203532267955
20
12.7278959746822
30
-1E-16
0
SPLINE
5
2A8
100
AcDbEntity
8
1
62
256
6
ByLayer
370
-1
48
1
60
0
100
AcDbSpline
70
4
71
3
72
8
73
4
40
0
40
0
40
0
40
0
40
1
40
1
40
1
40
1
41
1
10
39.4160955518743
20
17.8604291227722
30
-2E-16
41
1
10
40.9436524769175
20
17.051522711976
30
8E-16
41
1
10
42.5020197503424
20
15.810136002015
30
-9E-16
41
1
10
44.2852732157707
20
14.3725891352382
30
-8E-16
0
SPLINE
5
2A9
100
AcDbEntity
8
1
62
256
6
ByLayer
370
-1
48
1
60
0
100
AcDbSpline
70
4
71
3
72
8
73
4
40
0
40
0
40
0
40
0
40
1
40
1
40
1
40
1
41
1
10
38.8347283426677
20
2.2348778807546
30
7E-16
41
1
10
38.7590789664784
20
2.27554632614752
30
7E-16
41
1
10
38.684106293749
20
2.32291126568416
30
7E-16
41
1
10
38.6130275832866
20
2.37545152051001
30
7E-16
0
SPLINE
5
2AA
100
AcDbEntity
8
1
62
256
6
ByLayer
370
-1
48
1
60
0
100
AcDbSpline
70
4
71
3
72
10
73
6
40
0
40
0
40
0
40
0
40
0.508966164710142
40
0.508966164710142
40
1
40
1
40
1
40
1
41
1
10
46.4645346383313
20
-4.19281561035029
30
-6E-16
41
1
10
46.45520978412
20
-4.18844864814153
30
-6E-16
41
1
10
46.4459693518332
20
-4.1844450540116
30
-6E-16
41
1
10
46.4279006921709
20
-4.17729756803649
30
-6E-16
41
1
10
46.4190596719646
20
-4.17413670841378
30
-6E-16
41
1
10
46.4103080106195
20
-4.17137092541046
30
-6E-16
0
SPLINE
5
2AB
100
AcDbEntity
8
1
62
256
6
ByLayer
370
-1
48
1
60
0
100
AcDbSpline
70
4
71
3
72
8
73
4
40
0
40
0
40
0
40
0
40
1
40
1
40
1
40
1
41
1
10
33.9938732439096
20
19.1707965321016
30
0
41
1
10
34.4568835768395
20
19.1839542109484
30
0
41
1
10
34.9329957298888
20
19.1661470770804
30
0
41
1
10
35.4263186073053
20
19.1191267172597
30
0
0
SPLINE
5
2AC
100
AcDbEntity
8
1
62
256
6
ByLayer
370
-1
48
1
60
0
100
AcDbSpline
70
4
71
3
72
8
73
4
40
0
40
0
40
0
40
0
40
1
40
1
40
1
40
1
41
1
10
52.2792929812747
20
17.601715548563
30
0
41
1
10
52.2689379187173
20
17.6144319148979
30
0
41
1
10
52.258386242345
20
17.6269804357201
30
0
41
1
10
52.2476453089961
20
17.6393546396529
30
0
0
SPLINE
5
2AD
100
AcDbEntity
8
1
62
256
6
ByLayer
370
-1
48
1
60
0
100
AcDbSpline
70
4
71
3
72
8
73
4
40
0
40
0
40
0
40
0
40
1
40
1
40
1
40
1
41
1
10
49.7038591420564
20
17.5088378892081
30
0
41
1
10
49.621228730048
20
17.4103264438051
30
0
41
1
10
49.5491515298184
20
17.3027271249541
30
0
41
1
10
49.4913271606175
20
17.1888476238726
30
0
0
SPLINE
5
2AE
100
AcDbEntity
8
1
62
256
6
ByLayer
370
-1
48
1
60
0
100
AcDbSpline
70
4
71
3
72
14
73
10
40
0
40
0
40
0
40
0
40
0.301632841810062
40
0.301632841810062
40
0.602402032079644
40
0.602402032079644
40
0.899200904780736
40
0.899200904780736
40
1
40
1
40
1
40
1
41
1
10
49.4913271606175
20
17.1888476238726
30
0
41
1
10
49.4044385978461
20
17.0104848880316
30
0
41
1
10
49.3461952029575
20
16.8142907029272
30
0
41
1
10
49.301033080078
20
16.4204593004831
30
0
41
1
10
49.310749328672
20
16.2185452822499
30
0
41
1
10
49.3950675487912
20
15.8398237865627
30
0
41
1
10
49.4726467191523
20
15.6561188278465
30
0
41
1
10
49.6186800930211
20
15.4410676345439
30
0
41
1
10
49.6599345796146
20
15.3882434371706
30
0
41
1
10
49.7043781313738
20
15.3384307667803
30
0
0
SPLINE
5
2AF
100
AcDbEntity
8
1
62
256
6
ByLayer
370
-1
48
1
60
0
100
AcDbSpline
70
4
71
3
72
15
73
11
40
0
40
0
40
0
40
0
40
0.0625
40
0.125
40
0.25
40
0.5
40
0.75
40
0.875
40
0.9375
40
1
40
1
40
1
40
1
41
1
10
55.8923155420654
20
19.90994449854
30
0
41
1
10
55.692884978526
20
19.9093451563755
30
0
41
1
10
55.2930099433748
20
19.9084640264626
30
0
41
1
10
54.5182127331906
20
19.904986104533
30
0
41
1
10
53.1906452842325
20
19.8867211687117
30
0
41
1
10
51.2724704300556
20
19.8300613955608
30
-1E-16
41
1
10
49.3755096806838
20
19.712155023155
30
0
41
1
10
48.008015771216
20
19.6343685818647
30
-1E-16
41
1
10
47.2105110863891
20
19.5871464896816
30
-1E-16
41
1
10
46.8140863923165
20
19.5847335208409
30
-2E-16
41
1
10
46.6156037251616
20
19.5613789840006
30
-2E-16
0
SPLINE
5
2B0
100
AcDbEntity
8
1
62
256
6
ByLayer
370
-1
48
1
60
0
100
AcDbSpline
70
4
71
3
72
25
73
21
40
0
40
0
40
0
40
0
40
0.0625
40
0.09375
40
0.125
40
0.1875
40
0.25
40
0.3125
40
0.375
40
0.4375
40
0.5
40
0.5625
40
0.625
40
0.6875
40
0.75
40
0.8125
40
0.875
40
0.90625
40
0.9375
40
1
40
1
40
1
40
1
41
1
10
55.797046938697
20
13.1874967573323
30
0
41
1
10
55.9512688417656
20
13.1952216631952
30
0
41
1
10
56.1540574280672
20
13.3930189487255
30
0
41
1
10
56.1377090941742
20
13.7119301560797
30
0
41
1
10
56.1162429411879
20
14.0196166542939
30
0
41
1
10
56.0805955675836
20
14.3926704365501
30
0
41
1
10
56.0371807473638
20
14.8342850889396
30
0
41
1
10
56.0128765827361
20
15.2833203635085
30
0
41
1
10
56.0283693178539
20
15.7407651113728
30
0
41
1
10
56.1047507731465
20
16.207634149317
30
0
41
1
10
56.2314361084648
20
16.6701864115389
30
0
41
1
10
56.3978765753627
20
17.114713682998
30
0
41
1
10
56.6531478491945
20
17.5253218581638
30
0
41
1
10
56.6767197001603
20
18.0056885070604
30
0
41
1
10
56.6708674995329
20
18.4762943186369
30
0
41
1
10
56.6744754111816
20
18.9468158631756
30
0
41
1
10
56.6635055035754
20
19.3467819973085
30
0
41
1
10
56.4943185038359
20
19.6146435402037
30
0
41
1
10
56.2684978426176
20
19.8277976635041
30
0
41
1
10
56.0460566861057
20
19.908288314509
30
0
41
1
10
55.8923155420654
20
19.90994449854
30
0
0
SPLINE
5
2B1
100
AcDbEntity
8
1
62
256
6
ByLayer
370
-1
48
1
60
0
100
AcDbSpline
70
4
71
3
72
10
73
6
40
0
40
0
40
0
40
0
40
0.718876635471726
40
0.718876635471726
40
1
40
1
40
1
40
1
41
1
10
49.7043781313738
20
15.3384307667803
30
0
41
1
10
49.8234631273022
20
15.1981230553871
30
0
41
1
10
49.9676916115493
20
15.0758839513447
30
0
41
1
10
50.1870266838428
20
14.943745009682
30
0
41
1
10
50.2513218457649
20
14.9104142356055
30
0
41
1
10
50.3174975978328
20
14.8812021223893
30
1E-16
0
SPLINE
5
2B2
100
AcDbEntity
8
1
62
256
6
ByLayer
370
-1
48
1
60
0
100
AcDbSpline
70
4
71
3
72
16
73
12
40
0
40
0
40
0
40
0
40
0.120604819024158
40
0.120604819024158
40
0.345356142983205
40
0.345356142983205
40
0.563246656687214
40
0.563246656687214
40
0.774983924976776
40
0.774983924976776
40
1
40
1
40
1
40
1
41
1
10
50.3653682841504
20
14.8609221380088
30
1E-16
41
1
10
50.4621006198532
20
14.8216412070826
30
1E-16
41
1
10
50.5623450268708
20
14.7911053378944
30
1E-16
41
1
10
50.8523499806407
20
14.7316245822793
30
1E-16
41
1
10
51.050217162474
20
14.7257904424509
30
0
41
1
10
51.4224421841553
20
14.7816901047314
30
0
41
1
10
51.6024002076069
20
14.8422687374208
30
0
41
1
10
51.9196854692144
20
15.0162261522516
30
0
41
1
10
52.062169701058
20
15.1301508034149
30
0
41
1
10
52.3093310520109
20
15.4034590490961
30
0
41
1
10
52.415190604645
20
15.5693389342847
30
0
41
1
10
52.4946929752053
20
15.7468295316711
30
0
0
SPLINE
5
2B3
100
AcDbEntity
8
1
62
256
6
ByLayer
370
-1
48
1
60
0
100
AcDbSpline
70
4
71
3
72
25
73
21
40
0
40
0
40
0
40
0
40
0.0625
40
0.09375
40
0.125
40
0.1875
40
0.25
40
0.3125
40
0.375
40
0.4375
40
0.5
40
0.5625
40
0.625
40
0.6875
40
0.75
40
0.8125
40
0.875
40
0.90625
40
0.9375
40
1
40
1
40
1
40
1
41
1
10
46.6156037251616
20
19.5613789840006
30
-2E-16
41
1
10
46.4627142920451
20
19.5530480603243
30
-2E-16
41
1
10
46.2416984091601
20
19.3632929980656
30
-2E-16
41
1
10
46.2265188297552
20
19.0583053298853
30
-2E-16
41
1
10
46.1997518594139
20
18.7718330393236
30
-2E-16
41
1
10
46.157718334739
20
18.4336439044214
30
-2E-16
41
1
10
46.0926571661158
20
18.039477047183
30
-2E-16
41
1
10
46.0120738182636
20
17.6367884339535
30
-2E-16
41
1
10
45.9225177457541
20
17.2121632557874
30
-2E-16
41
1
10
45.830538403159
20
16.7521867037394
30
-2E-16
41
1
10
45.7112120901891
20
16.2863200827765
30
2E-16
41
1
10
45.5396151065551
20
15.844024697866
30
2E-16
41
1
10
45.2869735387734
20
15.4322149224492
30
2E-16
41
1
10
45.2625850550366
20
14.9521497733739
30
2E-16
41
1
10
45.2684944148247
20
14.4814748370873
30
2E-16
41
1
10
45.2647524977498
20
14.0109608408671
30
2E-16
41
1
10
45.2827277077484
20
13.6102759269208
30
2E-16
41
1
10
45.438491577957
20
13.3437561668318
30
0
41
1
10
45.6662319461993
20
13.1303974755264
30
0
41
1
10
45.8929465662992
20
13.049469733509
30
0
41
1
10
46.0466589402232
20
13.0478118719963
30
0
0
SPLINE
5
2B4
100
AcDbEntity
8
1
62
256
6
ByLayer
370
-1
48
1
60
0
100
AcDbSpline
70
4
71
3
72
15
73
11
40
0
40
0
40
0
40
0
40
0.0625
40
0.125
40
0.25
40
0.5
40
0.75
40
0.875
40
0.9375
40
1
40
1
40
1
40
1
41
1
10
46.0466589402232
20
13.0478118719963
30
0
41
1
10
46.2458757173346
20
13.0484430868053
30
0
41
1
10
46.6469886541779
20
13.0471889007807
30
1E-16
41
1
10
47.457485244266
20
13.037293639348
30
1E-16
41
1
10
48.8911420205143
20
13.0076202268275
30
0
41
1
10
50.9309741786981
20
13.0110800778726
30
1E-16
41
1
10
52.9782747532373
20
13.0627383624177
30
0
41
1
10
54.3976218690463
20
13.1172622042287
30
0
41
1
10
55.1950445840731
20
13.1652999070016
30
0
41
1
10
55.5982315028592
20
13.1633706273004
30
0
41
1
10
55.797046938697
20
13.1874967573323
30
0
0
SPLINE
5
2B5
100
AcDbEntity
8
1
62
256
6
ByLayer
370
-1
48
1
60
0
100
AcDbSpline
70
4
71
3
72
14
73
10
40
0
40
0
40
0
40
0
40
0.258374536041622
40
0.258374536041622
40
0.520163709547353
40
0.520163709547353
40
0.808397479016398
40
0.808397479016398
40
1
40
1
40
1
40
1
41
1
10
52.4946929752053
20
15.7468295316711
30
0
41
1
10
52.5667451175851
20
15.9007097413784
30
0
41
1
10
52.6170984181904
20
16.0688459461007
30
0
41
1
10
52.6689461025303
20
16.4083439113749
30
0
41
1
10
52.6697950009196
20
16.5847974357015
30
0
41
1
10
52.6151985457523
20
16.94190989231
30
0
41
1
10
52.5549755511693
20
17.1252286008157
30
0
41
1
10
52.4181934328392
20
17.4014744834717
30
0
41
1
10
52.3529023328571
20
17.5060988039029
30
0
41
1
10
52.2792929812747
20
17.6017155485631
30
0
0
SPLINE
5
2B6
100
AcDbEntity
8
1
62
256
6
ByLayer
370
-1
48
1
60
0
100
AcDbSpline
70
4
71
3
72
12
73
8
40
0
40
0
40
0
40
0
40
0.104422572989201
40
0.354986258589504
40
0.605549944189807
40
0.85611362979011
40
1
40
1
40
1
40
1
41
1
10
56.3319294790584
20
-7.60866075855199
30
0
41
1
10
56.3566702042658
20
-7.63703560398773
30
0
41
1
10
56.4475055121951
20
-7.73039035450688
30
0
41
1
10
56.6531478491945
20
-7.87625849424234
30
0
41
1
10
56.6767197001603
20
-8.14041227968232
30
0
41
1
10
56.6716980229858
20
-8.36929344556913
30
0
41
1
10
56.6725345239332
20
-8.50824254426604
30
0
41
1
10
56.6725316839012
20
-8.55915573597477
30
0
0
SPLINE
5
2B7
100
AcDbEntity
8
1
62
256
6
ByLayer
370
-1
48
1
60
0
100
AcDbSpline
70
4
71
3
72
14
73
10
40
0
40
0
40
0
40
0
40
0.0174560522383044
40
0.155720837561946
40
0.293985622885588
40
0.43225040820923
40
0.708779978856514
40
0.985309549503798
40
1
40
1
40
1
40
1
41
1
10
56.1239948760743
20
-11.8530280926313
30
0
41
1
10
56.1292635083934
20
-11.8441466192155
30
0
41
1
10
56.1723776663192
20
-11.7649845529327
30
0
41
1
10
56.1829864563295
20
-11.6183511640499
30
0
41
1
10
56.1814667506337
20
-11.4159745727997
30
0
41
1
10
56.0243065809011
20
-11.1918121525269
30
0
41
1
10
55.9471147869786
20
-10.8732256543105
30
0
41
1
10
55.9237246717972
20
-10.602645781538
30
0
41
1
10
55.9209728543986
20
-10.4616705332837
30
0
41
1
10
55.9208561954389
20
-10.4545539147784
30
0
0
SPLINE
5
2B8
100
AcDbEntity
8
1
62
256
6
ByLayer
370
-1
48
1
60
0
100
AcDbSpline
70
4
71
3
72
14
73
10
40
0
40
0
40
0
40
0
40
0.19416525257565
40
0.291247878863475
40
0.388330505151301
40
0.582495757726951
40
0.776661010302601
40
0.970826262878251
40
1
40
1
40
1
40
1
41
1
10
55.3648902210408
20
-6.7486831277192
30
-1E-16
41
1
10
55.4813006552117
20
-6.77680905798121
30
-1E-16
41
1
10
55.6534835871069
20
-6.7889444083502
30
-1E-16
41
1
10
55.8438552732595
20
-6.76981998222439
30
-1E-16
41
1
10
56.0077458083692
20
-6.73073452438331
30
0
41
1
10
56.1680181521765
20
-6.65214162261964
30
0
41
1
10
56.1829864563295
20
-6.49626599011438
30
0
41
1
10
56.1818972062078
20
-6.38259854834499
30
0
41
1
10
56.1556577073727
20
-6.31798817502624
30
0
41
1
10
56.1518851276529
20
-6.30949666937229
30
0
0
SPLINE
5
2B9
100
AcDbEntity
8
1
62
256
6
ByLayer
370
-1
48
1
60
0
100
AcDbSpline
70
4
71
1
72
4
73
2
40
0
40
0
40
1
40
1
41
1
10
55.8923155420654
20
-10.5151454898071
30
0
41
1
10
55.3648902210408
20
-6.7486831277192
30
-1E-16
0
SPLINE
5
2BA
100
AcDbEntity
8
1
62
256
6
ByLayer
370
-1
48
1
60
0
100
AcDbSpline
70
4
71
3
72
8
73
4
40
0
40
0
40
0
40
0
40
1
40
1
40
1
40
1
41
1
10
48.1094724736735
20
-4.94514118778901
30
-5E-16
41
1
10
50.5263934258363
20
-5.55668108020706
30
-4E-16
41
1
10
52.9443145500323
20
-6.16333417980167
30
-2E-16
41
1
10
55.3648902210408
20
-6.7486831277192
30
-1E-16
0
SPLINE
5
2BB
100
AcDbEntity
8
1
62
256
6
ByLayer
370
-1
48
1
60
0
100
AcDbSpline
70
4
71
3
72
22
73
18
40
0
40
0
40
0
40
0
40
0.0719540961004293
40
0.107931144150644
40
0.143908192200858
40
0.215862288301288
40
0.287816384401717
40
0.359770480502146
40
0.431724576602576
40
0.503678672703005
40
0.575632768803434
40
0.647586864903863
40
0.719540961004293
40
0.791495057104722
40
0.863449153205151
40
0.935403249305581
40
1
40
1
40
1
40
1
41
1
10
46.6156037251616
20
-7.55822592423283
30
-6E-16
41
1
10
46.462714292045
20
-7.52019150329329
30
-6E-16
41
1
10
46.2416984091601
20
-7.42420898526072
30
-6E-16
41
1
10
46.2265188297552
20
-7.34492348928035
30
-6E-16
41
1
10
46.1997518594139
20
-7.30188613405133
30
-6E-16
41
1
10
46.1577183347389
20
-7.28910706892506
30
-6E-16
41
1
10
46.0926571661158
20
-7.30054011836677
30
-6E-16
41
1
10
46.0120738182636
20
-7.29988081673895
30
-7E-16
41
1
10
45.9225177457541
20
-7.23113660157227
30
-7E-16
41
1
10
45.830538403159
20
-7.03831491039745
30
-7E-16
41
1
10
45.7112120901891
20
-6.79474209184031
30
-7E-16
41
1
10
45.5396151065551
20
-6.57374449452672
30
-7E-16
41
1
10
45.2869735387734
20
-6.33492072440893
30
-7E-16
41
1
10
45.2625850550366
20
-6.11996857812653
30
-7E-16
41
1
10
45.2684944148247
20
-5.91385062134981
30
-7E-16
41
1
10
45.2648800354342
20
-5.71322167009203
30
-7E-16
41
1
10
45.2777063929474
20
-5.58222390312321
30
-7E-16
41
1
10
45.3182208393442
20
-5.53309870807536
30
-7E-16
0
SPLINE
5
2BC
100
AcDbEntity
8
1
62
256
6
ByLayer
370
-1
48
1
60
0
100
AcDbSpline
70
4
71
1
72
4
73
2
40
0
40
0
40
1
40
1
41
1
10
46.6156037251616
20
-7.55822592423283
30
-6E-16
41
1
10
48.1094724736735
20
-4.94514118778901
30
-5E-16
0
SPLINE
5
2BD
100
AcDbEntity
8
1
62
256
6
ByLayer
370
-1
48
1
60
0
100
AcDbSpline
70
4
71
3
72
13
73
9
40
0
40
0
40
0
40
0
40
0.0907021999832636
40
0.318026649987447
40
0.545351099991632
40
0.659013324993724
40
0.772675549995816
40
1
40
1
40
1
40
1
41
1
10
56.6732332867535
20
-9.96457634382136
30
0
41
1
10
56.6729936829799
20
-9.99209380290117
30
0
41
1
10
56.6715902858519
20
-10.0882585143399
30
0
41
1
10
56.6744754111815
20
-10.254438412884
30
0
41
1
10
56.6635055035754
20
-10.4280988031358
30
0
41
1
10
56.4943185038358
20
-10.5106769652125
30
0
41
1
10
56.2684978426176
20
-10.5573920961032
30
0
41
1
10
56.0460566861057
20
-10.5464521451148
30
0
41
1
10
55.8923155420654
20
-10.5151454898071
30
0
0
SPLINE
5
2BE
100
AcDbEntity
8
1
62
256
6
ByLayer
370
-1
48
1
60
0
100
AcDbSpline
70
4
71
3
72
8
73
4
40
0
40
0
40
0
40
0
40
1
40
1
40
1
40
1
41
1
10
47.9897624038253
20
-4.90386878681826
30
-5E-16
41
1
10
48.0274451639201
20
-4.92042641216491
30
-5E-16
41
1
10
48.0679191912636
20
-4.93463865089583
30
-5E-16
41
1
10
48.1094724736735
20
-4.94514118778901
30
-5E-16
0
SPLINE
5
2BF
100
AcDbEntity
8
1
62
256
6
ByLayer
370
-1
48
1
60
0
100
AcDbSpline
70
4
71
3
72
15
73
11
40
0
40
0
40
0
40
0
40
0.0625
40
0.125
40
0.25
40
0.5
40
0.75
40
0.875
40
0.9375
40
1
40
1
40
1
40
1
41
1
10
55.8923155420654
20
-10.5151454898071
30
0
41
1
10
55.692884978526
20
-10.4733356331967
30
-1E-16
41
1
10
55.2930099433748
20
-10.3922636384951
30
-1E-16
41
1
10
54.5182127331905
20
-10.1571840576155
30
-1E-16
41
1
10
53.1906452842325
20
-9.68084709466865
30
-2E-16
41
1
10
51.2724704300556
20
-9.03088542325605
30
-3E-16
41
1
10
49.3755096806837
20
-8.30746154596343
30
-4E-16
41
1
10
48.008015771216
20
-7.893042807782
30
-5E-16
41
1
10
47.2105110863891
20
-7.70626774088959
30
-6E-16
41
1
10
46.8140863923164
20
-7.61065502739854
30
-6E-16
41
1
10
46.6156037251616
20
-7.55822592423283
30
-6E-16
0
SPLINE
5
2C0
100
AcDbEntity
8
1
62
256
6
ByLayer
370
-1
48
1
60
0
100
AcDbSpline
70
4
71
3
72
9
73
5
40
0
40
0
40
0
40
0
40
0.189143652000096
40
1
40
1
40
1
40
1
41
1
10
47.1770958478853
20
12.9262287389971
30
-6E-16
41
1
10
47.1778870405008
20
12.9338814532764
30
-6E-16
41
1
10
47.1822336023915
20
12.9741842807632
30
-6E-16
41
1
10
47.1874618080622
20
13.0136314434933
30
-6E-16
41
1
10
47.1922567181769
20
13.0451314985655
30
-6E-16
0
SPLINE
5
2C1
100
AcDbEntity
8
1
62
256
6
ByLayer
370
-1
48
1
60
0
100
AcDbSpline
70
4
71
3
72
9
73
5
40
0
40
0
40
0
40
0
40
0.346175917439283
40
1
40
1
40
1
40
1
41
1
10
45.4768309473121
20
15.7614703541514
30
-7E-16
41
1
10
45.2203411722089
20
15.6994853484597
30
-7E-16
41
1
10
44.4835224676927
20
15.512246598733
30
-7E-16
41
1
10
43.7412709507626
20
15.32694022735
30
-8E-16
41
1
10
43.2562021200282
20
15.2021084013845
30
-7E-16
0
SPLINE
5
2C2
100
AcDbEntity
8
1
62
256
6
ByLayer
370
-1
48
1
60
0
100
AcDbSpline
70
4
71
3
72
14
73
10
40
0
40
0
40
0
40
0
40
0.318876608514065
40
0.318876608514065
40
0.636840192197959
40
0.636840192197959
40
0.950606482930045
40
0.950606482930045
40
1
40
1
40
1
40
1
41
1
10
40.6323725535039
20
2.61330699124755
30
-1E-15
41
1
10
40.5454839907324
20
2.58379405144981
30
-1E-15
41
1
10
40.4872405958439
20
2.55996452071773
30
-1E-15
41
1
10
40.4420784729643
20
2.50126760552158
30
-1E-15
41
1
10
40.4517947215583
20
2.45751153169439
30
-1E-15
41
1
10
40.5361129416775
20
2.3636160378185
30
8E-16
41
1
10
40.6136921120387
20
2.31748527703485
30
8E-16
41
1
10
40.7396267708743
20
2.27098568659392
30
8E-16
41
1
10
40.7578065363191
20
2.26467182619703
30
8E-16
41
1
10
40.7767407863627
20
2.25844644707144
30
8E-16
0
SPLINE
5
2C3
100
AcDbEntity
8
1
62
256
6
ByLayer
370
-1
48
1
60
0
100
AcDbSpline
70
4
71
3
72
25
73
21
40
0
40
0
40
0
40
0
40
0.0625
40
0.09375
40
0.125
40
0.1875
40
0.25
40
0.3125
40
0.375
40
0.4375
40
0.5
40
0.5625
40
0.625
40
0.6875
40
0.75
40
0.8125
40
0.875
40
0.90625
40
0.9375
40
1
40
1
40
1
40
1
41
1
10
37.7566491180479
20
4.6577430623127
30
-1.2E-15
41
1
10
37.6037596849314
20
4.69678988060636
30
-1.2E-15
41
1
10
37.3827438020465
20
4.67831726394994
30
-1.2E-15
41
1
10
37.3675642226416
20
4.56025675233676
30
-1.2E-15
41
1
10
37.3407972523003
20
4.41231717968307
30
-1.2E-15
41
1
10
37.2987637276253
20
4.19285379400219
30
-1.2E-15
41
1
10
37.2337025590021
20
3.90603730435762
30
-1.2E-15
41
1
10
37.15311921115
20
3.62756223284015
30
-1.2E-15
41
1
10
37.0635631386405
20
3.41411378231587
30
-1.2E-15
41
1
10
36.9715837960454
20
3.32237715565088
30
-1.2E-15
41
1
10
36.8522574830754
20
3.28636680690121
30
-1.2E-15
41
1
10
36.6806604994415
20
3.2400971901229
30
6E-16
41
1
10
36.4280189316597
20
3.23597677277624
30
5E-16
41
1
10
36.403630447923
20
3.15639035368972
30
5E-16
41
1
10
36.409539807711
20
3.07290454975484
30
5E-16
41
1
10
36.4057978906361
20
2.99140469047552
30
5E-16
41
1
10
36.4237731006347
20
2.91688492280767
30
5E-16
41
1
10
36.5795369708434
20
2.83201605074004
30
5E-16
41
1
10
36.8072773390857
20
2.73878079158536
30
6E-16
41
1
10
37.0339919591856
20
2.66896976972339
30
6E-16
41
1
10
37.1877043331095
20
2.6309493722413
30
6E-16
0
SPLINE
5
2C4
100
AcDbEntity
8
1
62
256
6
ByLayer
370
-1
48
1
60
0
100
AcDbSpline
70
4
71
3
72
18
73
14
40
0
40
0
40
0
40
0
40
0.0735017734009264
40
0.176446020800823
40
0.27939026820072
40
0.382334515600617
40
0.485278763000515
40
0.588223010400412
40
0.691167257800309
40
0.794111505200206
40
0.845583628900154
40
0.897055752600103
40
1
40
1
40
1
40
1
41
1
10
47.1951500534278
20
0.690951458663164
30
-6E-16
41
1
10
47.2101245962492
20
0.691326168583288
30
-6E-16
41
1
10
47.2578736733094
20
0.71098519829485
30
-6E-16
41
1
10
47.3724815013512
20
0.770756288782366
30
-6E-16
41
1
10
47.538921968249
20
0.796694772667195
30
-6E-16
41
1
10
47.7941932420808
20
0.811804847375072
30
-5E-16
41
1
10
47.8177650930466
20
0.888525593394007
30
-5E-16
41
1
10
47.8119128924192
20
0.972657907700949
30
-5E-16
41
1
10
47.8155208040679
20
1.0540414075372
30
-5E-16
41
1
10
47.8045508964617
20
1.12674451036827
30
-5E-16
41
1
10
47.6353638967222
20
1.21517875582259
30
-6E-16
41
1
10
47.409543235504
20
1.30794014683568
30
-6E-16
41
1
10
47.187102078992
20
1.37665079082376
30
-6E-16
41
1
10
47.0333609349518
20
1.41469460008534
30
-6E-16
0
SPLINE
5
2C5
100
AcDbEntity
8
1
62
256
6
ByLayer
370
-1
48
1
60
0
100
AcDbSpline
70
4
71
3
72
15
73
11
40
0
40
0
40
0
40
0
40
0.0625
40
0.125
40
0.25
40
0.5
40
0.75
40
0.875
40
0.9375
40
1
40
1
40
1
40
1
41
1
10
47.0333609349518
20
1.41469460008534
30
-6E-16
41
1
10
46.8339303714123
20
1.46355243004555
30
-6E-16
41
1
10
46.4340553362611
20
1.55848578497844
30
-6E-16
41
1
10
45.6592581260769
20
1.83311827145676
30
-7E-16
41
1
10
44.3316906771188
20
2.38182135816655
30
-8E-16
41
1
10
42.4135158229419
20
3.10851777358337
30
-9E-16
41
1
10
40.5165550735701
20
3.87931772845772
30
-1E-15
41
1
10
39.1490611641023
20
4.31377307038397
30
-1.1E-15
41
1
10
38.3515564792755
20
4.50114283854353
30
-1.1E-15
41
1
10
37.9551317852028
20
4.61215033527893
30
-1.1E-15
41
1
10
37.7566491180479
20
4.6577430623127
30
-1.2E-15
0
SPLINE
5
2C6
100
AcDbEntity
8
1
62
256
6
ByLayer
370
-1
48
1
60
0
100
AcDbSpline
70
4
71
3
72
11
73
7
40
0
40
0
40
0
40
0
40
0.164122754305213
40
0.328245508610426
40
0.656491017220853
40
1
40
1
40
1
40
1
41
1
10
37.1877043331095
20
2.6309493722413
30
6E-16
41
1
10
37.3869211102209
20
2.58109855183179
30
6E-16
41
1
10
37.7880340470642
20
2.49259309238047
30
6E-16
41
1
10
38.5985306371523
20
2.35905115993316
30
7E-16
41
1
10
39.6416184183293
20
2.26952632168459
30
7E-16
41
1
10
40.4775948919423
20
2.18036945404279
30
8E-16
41
1
10
40.9050074334966
20
2.13465571055667
30
8E-16
0
SPLINE
5
2C7
100
AcDbEntity
8
1
62
256
6
ByLayer
370
-1
48
1
60
0
100
AcDbSpline
70
4
71
1
72
4
73
2
40
0
40
0
40
1
40
1
41
1
10
47.0333609349518
20
1.41469460008534
30
-6E-16
41
1
10
46.5059356139272
20
5.18927207996748
30
-6E-16
0
SPLINE
5
2C8
100
AcDbEntity
8
1
62
256
6
ByLayer
370
-1
48
1
60
0
100
AcDbSpline
70
4
71
3
72
12
73
8
40
0
40
0
40
0
40
0
40
0.25165141965485
40
0.377477129482276
40
0.503302839309701
40
0.754954258964551
40
1
40
1
40
1
40
1
41
1
10
46.5059356139272
20
5.18927207996748
30
-6E-16
41
1
10
46.6223460480981
20
5.16223333114001
30
-6E-16
41
1
10
46.7945289799932
20
5.11051889986754
30
-6E-16
41
1
10
46.9849006661458
20
5.04039660205208
30
-6E-16
41
1
10
47.1487912012555
20
4.97102983360875
30
-6E-16
41
1
10
47.307380729053
20
4.88801619670633
30
-6E-16
41
1
10
47.3187601085013
20
4.84369566393525
30
-6E-16
41
1
10
47.3211011740222
20
4.82263731987766
30
-6E-16
0
SPLINE
5
2C9
100
AcDbEntity
8
1
62
256
6
ByLayer
370
-1
48
1
60
0
100
AcDbSpline
70
4
71
3
72
8
73
4
40
0
40
0
40
0
40
0
40
1
40
1
40
1
40
1
41
1
10
39.2505178665599
20
6.85438229326806
30
-1.1E-15
41
1
10
41.6674388187226
20
6.30397594651811
30
-9E-16
41
1
10
44.0853599429187
20
5.7512972159598
30
-8E-16
41
1
10
46.5059356139272
20
5.18927207996748
30
-6E-16
0
SPLINE
5
2CA
100
AcDbEntity
8
1
62
256
6
ByLayer
370
-1
48
1
60
0
100
AcDbSpline
70
4
71
1
72
4
73
2
40
0
40
0
40
1
40
1
41
1
10
37.7566491180479
20
4.6577430623127
30
-1.2E-15
41
1
10
39.2505178665599
20
6.85438229326806
30
-1.1E-15
0
SPLINE
5
2CB
100
AcDbEntity
8
1
62
256
6
ByLayer
370
-1
48
1
60
0
100
AcDbSpline
70
4
71
3
72
10
73
6
40
0
40
0
40
0
40
0
40
0.106477726397857
40
0.404318484265238
40
1
40
1
40
1
40
1
41
1
10
38.8953924368836
20
6.86761925235496
30
-1.1E-15
41
1
10
38.8972435891736
20
6.8708679702078
30
-1.1E-15
41
1
10
38.9072695678259
20
6.88235093945218
30
-1.1E-15
41
1
10
38.972602272835
20
6.89899696286344
30
-1.1E-15
41
1
10
39.1342849557554
20
6.88080613757609
30
-1.1E-15
41
1
10
39.2505178665599
20
6.85438229326806
30
-1.1E-15
0
SPLINE
5
2CC
100
AcDbEntity
8
1
62
256
6
ByLayer
370
-1
48
1
60
0
100
AcDbSpline
70
4
71
3
72
14
73
10
40
0
40
0
40
0
40
0
40
0.258374536041623
40
0.258374536041623
40
0.520163709547352
40
0.520163709547352
40
0.808397479016397
40
0.808397479016397
40
1
40
1
40
1
40
1
41
1
10
43.6357383680917
20
1.62358663373865
30
-8E-16
41
1
10
43.7077905104714
20
1.61626386323621
30
-8E-16
41
1
10
43.7581438110767
20
1.62727289193117
30
-8E-16
41
1
10
43.8099914954166
20
1.67175672888047
30
-8E-16
41
1
10
43.8108403938059
20
1.70164057782878
30
-8E-16
41
1
10
43.7562439386386
20
1.76778518726925
30
-8E-16
41
1
10
43.6960209440556
20
1.81221271227346
30
-8E-16
41
1
10
43.5592388257255
20
1.90871944472457
30
-8E-16
41
1
10
43.4939477257434
20
1.95329153621893
30
-8E-16
41
1
10
43.420338374161
20
2.00108105435939
30
-8E-16
0
SPLINE
5
2CD
100
AcDbEntity
8
1
62
256
6
ByLayer
370
-1
48
1
60
0
100
AcDbSpline
70
4
71
3
72
18
73
14
40
0
40
0
40
0
40
0
40
0.162600988457447
40
0.162600988457447
40
0.332996094284669
40
0.332996094284669
40
0.503772203001936
40
0.503772203001936
40
0.669272814739438
40
0.669272814739438
40
0.830144082047365
40
0.830144082047365
40
1
40
1
40
1
40
1
41
1
10
43.420338374161
20
2.00108105435936
30
-8E-16
41
1
10
43.3092917436099
20
2.07084532606564
30
-8E-16
41
1
10
43.1756341350891
20
2.14831308337168
30
-8E-16
41
1
10
42.8743793325007
20
2.30349920547334
30
-8E-16
41
1
10
42.7011312762823
20
2.38300957554503
30
-9E-16
41
1
10
42.3418578903677
20
2.52233503589361
30
-9E-16
41
1
10
42.1505996954672
20
2.58407038192655
30
-9E-16
41
1
10
41.7822299090199
20
2.67199057469495
30
-9E-16
41
1
10
41.599678994188
20
2.70006183185848
30
-9E-16
41
1
10
41.2678311460473
20
2.71901447483677
30
-9E-16
41
1
10
41.1134070544018
20
2.7110909400233
30
-1E-15
41
1
10
40.8403131410603
20
2.67262446738147
30
-1E-15
41
1
10
40.7199834970986
20
2.64094879395159
30
-1E-15
41
1
10
40.6323725535039
20
2.61330699124755
30
-1E-15
0
SPLINE
5
2CE
100
AcDbEntity
8
1
62
256
6
ByLayer
370
-1
48
1
60
0
100
AcDbSpline
70
4
71
3
72
9
73
5
40
0
40
0
40
0
40
0
40
0.919539108366334
40
1
40
1
40
1
40
1
41
1
10
37.6469810068135
20
-18.0100726653825
30
-3E-16
41
1
10
37.7633914409844
20
-18.0234449560704
30
-3E-16
41
1
10
37.8882242188609
20
-17.990824327022
30
-3E-16
41
1
10
37.9976013936096
20
-17.9340421451962
30
-3E-16
41
1
10
38.0063016891942
20
-17.9293223411659
30
-3E-16
0
SPLINE
5
2CF
100
AcDbEntity
8
1
62
256
6
ByLayer
370
-1
48
1
60
0
100
AcDbSpline
70
4
71
3
72
15
73
11
40
0
40
0
40
0
40
0
40
0.0625
40
0.125
40
0.25
40
0.5
40
0.75
40
0.875
40
0.9375
40
1
40
1
40
1
40
1
41
1
10
38.1744063278381
20
-19.6059828863086
30
2E-16
41
1
10
37.9749757642986
20
-19.5970869516767
30
2E-16
41
1
10
37.5751007291475
20
-19.5800841961261
30
2E-16
41
1
10
36.8003035189632
20
-19.5299710308686
30
1E-16
41
1
10
35.4727360700051
20
-19.4185672133327
30
-4E-16
41
1
10
33.5545612158283
20
-19.2386591601307
30
4E-16
41
1
10
31.6576004664565
20
-18.9902093928065
30
2E-16
41
1
10
30.2901065569887
20
-18.8388794256119
30
2E-16
41
1
10
29.4926018721618
20
-18.759983576664
30
1E-16
41
1
10
29.0961771780891
20
-18.7387236860391
30
1E-16
41
1
10
28.8976945109343
20
-18.7076999100724
30
1E-16
0
SPLINE
5
2D0
100
AcDbEntity
8
1
62
256
6
ByLayer
370
-1
48
1
60
0
100
AcDbSpline
70
4
71
3
72
8
73
4
40
0
40
0
40
0
40
0
40
1
40
1
40
1
40
1
41
1
10
30.0854390522994
20
-12.3799714510848
30
1E-16
41
1
10
30.0693742773461
20
-12.3944566505621
30
1E-16
41
1
10
30.0537597407645
20
-12.409451700998
30
1E-16
41
1
10
30.0386245143481
20
-12.4248612899343
30
1E-16
0
SPLINE
5
2D1
100
AcDbEntity
8
1
62
256
6
ByLayer
370
-1
48
1
60
0
100
AcDbSpline
70
4
71
3
72
8
73
4
40
0
40
0
40
0
40
0
40
1
40
1
40
1
40
1
41
1
10
30.2729604807114
20
-17.0251284306233
30
2E-16
41
1
10
30.3103283539831
20
-17.0455329468082
30
2E-16
41
1
10
30.3504166909847
20
-17.0597261749416
30
2E-16
41
1
10
30.3915632594462
20
-17.0654865699538
30
2E-16
0
SPLINE
5
2D2
100
AcDbEntity
8
1
62
256
6
ByLayer
370
-1
48
1
60
0
100
AcDbSpline
70
4
71
3
72
22
73
18
40
0
40
0
40
0
40
0
40
0.076284922817897
40
0.114427384226845
40
0.152569845635794
40
0.228854768453691
40
0.305139691271588
40
0.381424614089485
40
0.457709536907382
40
0.533994459725279
40
0.610279382543176
40
0.686564305361073
40
0.76284922817897
40
0.839134150996867
40
0.915419073814764
40
0.991703996632661
40
1
40
1
40
1
40
1
41
1
10
28.8976945109343
20
-18.7076999100724
30
1E-16
41
1
10
28.7448050778177
20
-18.692763522606
30
1E-16
41
1
10
28.5237891949328
20
-18.5067529072427
30
1E-16
41
1
10
28.5086096155279
20
-18.2227932382058
30
1E-16
41
1
10
28.4818426451866
20
-17.9623646940315
30
0
41
1
10
28.4398091205117
20
-17.6625330348356
30
0
41
1
10
28.3747479518885
20
-17.3183426141472
30
0
41
1
10
28.2941646040363
20
-16.9642409005171
30
0
41
1
10
28.2046085315268
20
-16.5772279982841
30
0
41
1
10
28.1126291889317
20
-16.134304011787
30
0
41
1
10
27.9933028759618
20
-15.6760436777426
30
0
41
1
10
27.8217058923278
20
-15.2430217328676
30
0
41
1
10
27.5690643245461
20
-14.8332288516627
30
0
41
1
10
27.5446758408093
20
-14.3682168005758
30
0
41
1
10
27.5505852005974
20
-13.913227241774
30
0
41
1
10
27.5479549444257
20
-13.5932831246502
30
0
41
1
10
27.551758149787
20
-13.4232316994343
30
0
41
1
10
27.5522362623573
20
-13.4065616815981
30
0
0
SPLINE
5
2D3
100
AcDbEntity
8
1
62
256
6
ByLayer
370
-1
48
1
60
0
100
AcDbSpline
70
4
71
3
72
13
73
9
40
0
40
0
40
0
40
0
40
0.171070218892054
40
0.37830266416904
40
0.585535109446027
40
0.68915133208452
40
0.792767554723014
40
1
40
1
40
1
40
1
41
1
10
38.9550389710057
20
-17.8755218812638
30
-2E-16
41
1
10
38.956226954185
20
-18.001702383931
30
-2E-16
41
1
10
38.9531681464555
20
-18.2784749910939
30
-2E-16
41
1
10
38.9565661969543
20
-18.7071915025794
30
-2E-16
41
1
10
38.9455962893481
20
-19.0935298418203
30
-2E-16
41
1
10
38.7764092896085
20
-19.3455141469712
30
-2E-16
41
1
10
38.5505886283903
20
-19.5422310302845
30
2E-16
41
1
10
38.3281474718784
20
-19.6107937453858
30
2E-16
41
1
10
38.1744063278381
20
-19.6059828863086
30
2E-16
0
SPLINE
5
2D4
100
AcDbEntity
8
1
62
256
6
ByLayer
370
-1
48
1
60
0
100
AcDbSpline
70
4
71
1
72
4
73
2
40
0
40
0
40
1
40
1
41
1
10
28.8976945109343
20
-18.7076999100724
30
1E-16
41
1
10
30.3915632594462
20
-17.0654865699538
30
2E-16
0
SPLINE
5
2D5
100
AcDbEntity
8
1
62
256
6
ByLayer
370
-1
48
1
60
0
100
AcDbSpline
70
4
71
1
72
4
73
2
40
0
40
0
40
1
40
1
41
1
10
38.1744063278381
20
-19.6059828863086
30
2E-16
41
1
10
37.6469810068135
20
-18.0100726653825
30
-3E-16
0
SPLINE
5
2D6
100
AcDbEntity
8
1
62
256
6
ByLayer
370
-1
48
1
60
0
100
AcDbSpline
70
4
71
3
72
8
73
4
40
0
40
0
40
0
40
0
40
1
40
1
40
1
40
1
41
1
10
30.3915632594462
20
-17.0654865699538
30
2E-16
41
1
10
32.808484211609
20
-17.4037665884444
30
3E-16
41
1
10
35.226405335805
20
-17.7308879373677
30
-4E-16
41
1
10
37.6469810068135
20
-18.0100726653825
30
-3E-16
0
SPLINE
5
2D7
100
AcDbEntity
8
1
62
256
6
ByLayer
370
-1
48
1
60
0
100
AcDbSpline
70
4
71
1
72
4
73
2
40
0
40
0
40
1
40
1
41
1
10
29.3154517207245
20
-13.8352942296937
30
1E-16
41
1
10
28.7880263996999
20
-10.4129453891199
30
-1.7E-15
0
SPLINE
5
2D8
100
AcDbEntity
8
1
62
256
6
ByLayer
370
-1
48
1
60
0
100
AcDbSpline
70
4
71
3
72
11
73
7
40
0
40
0
40
0
40
0
40
0.0692271962723713
40
0.301920397204278
40
0.534613598136186
40
1
40
1
40
1
40
1
41
1
10
21.1731130358655
20
-8.29316180978705
30
1.4E-15
41
1
10
21.1730193723693
20
-8.30419321771348
30
1.4E-15
41
1
10
21.1730179326705
20
-8.35242199199112
30
1.4E-15
41
1
10
21.1768580891139
20
-8.43891037228664
30
1.4E-15
41
1
10
21.2546930586077
20
-8.59090320141109
30
1.4E-15
41
1
10
21.4163757415281
20
-8.69543362507815
30
1.4E-15
41
1
10
21.5326086523326
20
-8.72320792783026
30
1.4E-15
0
SPLINE
5
2D9
100
AcDbEntity
8
1
62
256
6
ByLayer
370
-1
48
1
60
0
100
AcDbSpline
70
4
71
3
72
23
73
19
40
0
40
0
40
0
40
0
40
0.0703222466778207
40
0.105483370016731
40
0.140644493355641
40
0.210966740033462
40
0.281288986711283
40
0.351611233389103
40
0.421933480066924
40
0.492255726744745
40
0.562577973422565
40
0.632900220100386
40
0.703222466778207
40
0.773544713456027
40
0.843866960133848
40
0.914189206811669
40
0.98451145348949
40
1
40
1
40
1
40
1
41
1
10
20.0387399038206
20
-11.2487228690563
30
1.3E-15
41
1
10
19.8858504707041
20
-11.2144966135092
30
1.3E-15
41
1
10
19.6648345878192
20
-11.0862166233538
30
1.3E-15
41
1
10
19.6496550084143
20
-10.9434333263603
30
-5E-16
41
1
10
19.622888038073
20
-10.835895533913
30
-5E-16
41
1
10
19.580854513398
20
-10.7410954782647
30
-5E-16
41
1
10
19.5157933447749
20
-10.6528630055292
30
-5E-16
41
1
10
19.4352099969227
20
-10.5522902250209
30
-5E-16
41
1
10
19.3456539244132
20
-10.388705060746
30
-5E-16
41
1
10
19.2536745818181
20
-10.1114354367105
30
-5E-16
41
1
10
19.1343482688481
20
-9.7897941455409
30
-5E-16
41
1
10
18.9627512852142
20
-9.4930939798638
30
-5E-16
41
1
10
18.7101097174324
20
-9.18889392881985
30
-5E-16
41
1
10
18.6857212336957
20
-8.88792419696435
30
-6E-16
41
1
10
18.6916305934838
20
-8.59675577983936
30
-6E-16
41
1
10
18.6878886764089
20
-8.30428267134729
30
-6E-16
41
1
10
18.7038524677374
20
-8.08634519049357
30
-6E-16
41
1
10
18.7828002107238
20
-7.99556003459026
30
-5E-16
41
1
10
18.7990981563842
20
-7.98018990301895
30
-5E-16
0
SPLINE
5
2DA
100
AcDbEntity
8
1
62
256
6
ByLayer
370
-1
48
1
60
0
100
AcDbSpline
70
4
71
3
72
9
73
5
40
0
40
0
40
0
40
0
40
0.918905276572926
40
1
40
1
40
1
40
1
41
1
10
28.7880263996999
20
-10.4129453891199
30
-1.7E-15
41
1
10
28.9044368338708
20
-10.4389127460534
30
-1.7E-15
41
1
10
29.0293557174488
20
-10.4366350911684
30
-1.7E-15
41
1
10
29.1387976689732
20
-10.4165259040106
30
-1.7E-15
41
1
10
29.1475708154572
20
-10.4147813816807
30
-1.7E-15
0
SPLINE
5
2DB
100
AcDbEntity
8
1
62
256
6
ByLayer
370
-1
48
1
60
0
100
AcDbSpline
70
4
71
1
72
4
73
2
40
0
40
0
40
1
40
1
41
1
10
20.0387399038206
20
-11.2487228690563
30
1.3E-15
41
1
10
21.5326086523326
20
-8.72320792783026
30
1.4E-15
0
SPLINE
5
2DC
100
AcDbEntity
8
1
62
256
6
ByLayer
370
-1
48
1
60
0
100
AcDbSpline
70
4
71
3
72
14
73
10
40
0
40
0
40
0
40
0
40
0.0686411374438167
40
0.254912909955053
40
0.44118468246629
40
0.627456454977527
40
0.720592341233145
40
0.813728227488763
40
1
40
1
40
1
40
1
41
1
10
30.0880022896297
20
-12.6802354267102
30
1E-16
41
1
10
30.0921093806905
20
-12.7171108369531
30
1E-16
41
1
10
30.098623990475
20
-12.8536291210164
30
1E-16
41
1
10
30.094003678192
20
-13.0830996966634
30
1E-16
41
1
10
30.0976115898406
20
-13.3756619123453
30
1E-16
41
1
10
30.0866416822344
20
-13.6218264293759
30
1E-16
41
1
10
29.9174546824949
20
-13.7581726121341
30
1E-16
41
1
10
29.6916340212767
20
-13.8506099100839
30
1E-16
41
1
10
29.4691928647648
20
-13.8613518468699
30
1E-16
41
1
10
29.3154517207245
20
-13.8352942296937
30
1E-16
0
SPLINE
5
2DD
100
AcDbEntity
8
1
62
256
6
ByLayer
370
-1
48
1
60
0
100
AcDbSpline
70
4
71
3
72
15
73
11
40
0
40
0
40
0
40
0
40
0.0625
40
0.125
40
0.25
40
0.5
40
0.75
40
0.875
40
0.9375
40
1
40
1
40
1
40
1
41
1
10
29.3154517207245
20
-13.8352942296937
30
1E-16
41
1
10
29.116021157185
20
-13.7997962265668
30
1E-16
41
1
10
28.7161461220338
20
-13.7310331206488
30
1E-16
41
1
10
27.9413489118496
20
-13.531415648063
30
0
41
1
10
26.6137814628915
20
-13.1241487052638
30
-1E-16
41
1
10
24.6956066087147
20
-12.5605505058643
30
-2E-16
41
1
10
22.7986458593428
20
-11.919630169102
30
-3E-16
41
1
10
21.4311519498751
20
-11.5499301778189
30
1.4E-15
41
1
10
20.6336472650482
20
-11.3802882193344
30
1.3E-15
41
1
10
20.2372225709755
20
-11.2988508530236
30
1.3E-15
41
1
10
20.0387399038206
20
-11.2487228690563
30
1.3E-15
0
SPLINE
5
2DE
100
AcDbEntity
8
1
62
256
6
ByLayer
370
-1
48
1
60
0
100
AcDbSpline
70
4
71
3
72
8
73
4
40
0
40
0
40
0
40
0
40
1
40
1
40
1
40
1
41
1
10
21.5326086523326
20
-8.72320792783026
30
1.4E-15
41
1
10
23.9495296044953
20
-9.30124314553348
30
1.5E-15
41
1
10
26.3674507286914
20
-9.87227017851379
30
1.7E-15
41
1
10
28.7880263996999
20
-10.4129453891199
30
-1.7E-15
0
SPLINE
5
2DF
100
AcDbEntity
8
1
62
256
6
ByLayer
370
-1
48
1
60
0
100
AcDbSpline
70
4
71
3
72
8
73
4
40
0
40
0
40
0
40
0
40
1
40
1
40
1
40
1
41
1
10
30.1507931186852
20
15.9910270270884
30
2E-16
41
1
10
30.2135685805456
20
16.0309875840028
30
2E-16
41
1
10
30.2999424783462
20
16.0528399477633
30
2E-16
41
1
10
30.3915632594462
20
16.0422757484159
30
2E-16
0
SPLINE
5
2E0
100
AcDbEntity
8
1
62
256
6
ByLayer
370
-1
48
1
60
0
100
AcDbSpline
70
4
71
3
72
15
73
11
40
0
40
0
40
0
40
0
40
0.0625
40
0.125
40
0.25
40
0.5
40
0.75
40
0.875
40
0.9375
40
1
40
1
40
1
40
1
41
1
10
28.3287497259959
20
9.70471996402577
30
0
41
1
10
28.5279665031073
20
9.66668347903916
30
1E-16
41
1
10
28.9290794399506
20
9.59775583934839
30
1E-16
41
1
10
29.7395760300387
20
9.48904489451724
30
1E-16
41
1
10
31.1732328062871
20
9.37678252948612
30
2E-16
41
1
10
33.2130649644708
20
9.19589781837414
30
3E-16
41
1
10
35.26036553901
20
9.09777517825799
30
5E-16
41
1
10
36.679712654819
20
8.95488930605731
30
6E-16
41
1
10
37.4771353698457
20
8.83839945758453
30
6E-16
41
1
10
37.8803222886319
20
8.77196022198711
30
6E-16
41
1
10
38.0791377244697
20
8.75235668227506
30
6E-16
0
SPLINE
5
2E1
100
AcDbEntity
8
1
62
256
6
ByLayer
370
-1
48
1
60
0
100
AcDbSpline
70
4
71
3
72
8
73
4
40
0
40
0
40
0
40
0
40
1
40
1
40
1
40
1
41
1
10
31.9864689171465
20
10.7491933710964
30
3E-16
41
1
10
32.0155152760643
20
10.7224260411436
30
3E-16
41
1
10
32.0460575083726
20
10.6964069080387
30
3E-16
41
1
10
32.0779266910277
20
10.6712002474201
30
3E-16
0
SPLINE
5
2E2
100
AcDbEntity
8
1
62
256
6
ByLayer
370
-1
48
1
60
0
100
AcDbSpline
70
4
71
3
72
8
73
4
40
0
40
0
40
0
40
0
40
1
40
1
40
1
40
1
41
1
10
34.6578492006464
20
10.4012752039134
30
4E-16
41
1
10
34.7022530857098
20
10.435313534323
30
4E-16
41
1
10
34.7420358975829
20
10.4736763465466
30
4E-16
41
1
10
34.776783760978
20
10.5167656725859
30
4E-16
0
SPLINE
5
2E3
100
AcDbEntity
8
1
62
256
6
ByLayer
370
-1
48
1
60
0
100
AcDbSpline
70
4
71
3
72
8
73
4
40
0
40
0
40
0
40
0
40
1
40
1
40
1
40
1
41
1
10
38.0791377244697
20
8.75235668227506
30
6E-16
41
1
10
38.1460701890416
20
8.74311378210965
30
6E-16
41
1
10
38.2094183138225
20
8.74720568817406
30
6E-16
41
1
10
38.2629245071523
20
8.76108067017648
30
6E-16
0
SPLINE
5
2E4
100
AcDbEntity
8
1
62
256
6
ByLayer
370
-1
48
1
60
0
100
AcDbSpline
70
4
71
3
72
22
73
18
40
0
40
0
40
0
40
0
40
0.0541497404578167
40
0.126907452730292
40
0.199665165002768
40
0.272422877275244
40
0.345180589547719
40
0.417938301820195
40
0.490696014092671
40
0.563453726365146
40
0.636211438637622
40
0.708969150910097
40
0.781726863182573
40
0.854484575455049
40
0.890863431591287
40
0.927242287727524
40
1
40
1
40
1
40
1
41
1
10
38.3935521259487
20
9.1438300575268
30
7E-16
41
1
10
38.3839037714525
20
9.19093732868183
30
7E-16
41
1
10
38.3589852027577
20
9.29015778084786
30
7E-16
41
1
10
38.3192715331366
20
9.42514176931033
30
7E-16
41
1
10
38.2949673685088
20
9.57901648274577
30
6E-16
41
1
10
38.3104601036267
20
9.78278381491711
30
7E-16
41
1
10
38.3868415589192
20
10.0799426305686
30
7E-16
41
1
10
38.5135268942376
20
10.4030249063877
30
7E-16
41
1
10
38.6799673611354
20
10.6845813090969
30
7E-16
41
1
10
38.9352386349672
20
10.9378359717541
30
7E-16
41
1
10
38.958810485933
20
11.2796067820768
30
7E-16
41
1
10
38.9529582853056
20
11.6213443446254
30
7E-16
41
1
10
38.9565661969543
20
11.9609144790645
30
7E-16
41
1
10
38.9455962893481
20
12.2522800221035
30
7E-16
41
1
10
38.7764092896086
20
12.478031803565
30
7E-16
41
1
10
38.5505886283904
20
12.6749261328226
30
7E-16
41
1
10
38.3281474718784
20
12.775227608043
30
7E-16
41
1
10
38.1744063278382
20
12.8055132673322
30
6E-16
0
SPLINE
5
2E5
100
AcDbEntity
8
1
62
256
6
ByLayer
370
-1
48
1
60
0
100
AcDbSpline
70
4
71
3
72
18
73
14
40
0
40
0
40
0
40
0
40
0.162600988457447
40
0.162600988457447
40
0.33299609428467
40
0.33299609428467
40
0.503772203001937
40
0.503772203001937
40
0.669272814739438
40
0.669272814739438
40
0.830144082047366
40
0.830144082047366
40
1
40
1
40
1
40
1
41
1
10
34.5613837670474
20
11.8990741622571
30
4E-16
41
1
10
34.4503371364963
20
12.033067756441
30
4E-16
41
1
10
34.3166795279755
20
12.1616384001176
30
4E-16
41
1
10
34.015424725387
20
12.3893274779962
30
4E-16
41
1
10
33.8421766691687
20
12.48979697958
30
4E-16
41
1
10
33.4829032832541
20
12.6372602931955
30
4E-16
41
1
10
33.2916450883536
20
12.6861674420215
30
3E-16
41
1
10
32.9232753019063
20
12.7193908809461
30
3E-16
41
1
10
32.7407243870744
20
12.7058021149848
30
3E-16
41
1
10
32.4088765389336
20
12.6214578172637
30
3E-16
41
1
10
32.2544524472882
20
12.5512807986029
30
3E-16
41
1
10
31.9813585339467
20
12.3680994682549
30
3E-16
41
1
10
31.8610288899849
20
12.2506499563598
30
3E-16
41
1
10
31.7734179463903
20
12.1278251649837
30
3E-16
0
SPLINE
5
2E6
100
AcDbEntity
8
1
62
256
6
ByLayer
370
-1
48
1
60
0
100
AcDbSpline
70
4
71
3
72
8
73
4
40
0
40
0
40
0
40
0
40
1
40
1
40
1
40
1
41
1
10
30.3915632594462
20
16.0422757484159
30
2E-16
41
1
10
32.808484211609
20
15.7627166283225
30
3E-16
41
1
10
35.2264053358051
20
15.4745917626108
30
5E-16
41
1
10
37.6469810068135
20
15.1500310653242
30
6E-16
0
SPLINE
5
2E7
100
AcDbEntity
8
1
62
256
6
ByLayer
370
-1
48
1
60
0
100
AcDbSpline
70
4
71
1
72
4
73
2
40
0
40
0
40
1
40
1
41
1
10
38.1744063278382
20
12.8055132673322
30
6E-16
41
1
10
37.6469810068135
20
15.1500310653242
30
6E-16
0
SPLINE
5
2E8
100
AcDbEntity
8
1
62
256
6
ByLayer
370
-1
48
1
60
0
100
AcDbSpline
70
4
71
3
72
12
73
8
40
0
40
0
40
0
40
0
40
0.283889264510378
40
0.425833896765567
40
0.567778529020756
40
0.851667793531134
40
1
40
1
40
1
40
1
41
1
10
37.6469810068135
20
15.1500310653242
30
6E-16
41
1
10
37.7633914409844
20
15.1343816966239
30
6E-16
41
1
10
37.9355743728796
20
15.0627922154905
30
6E-16
41
1
10
38.1259460590322
20
14.9301409183405
30
6E-16
41
1
10
38.2898365941419
20
14.7787517793628
30
6E-16
41
1
10
38.4194969351328
20
14.6052886033123
30
7E-16
41
1
10
38.4485830980119
20
14.4720349158574
30
7E-16
41
1
10
38.4543196353483
20
14.4262562090255
30
7E-16
0
SPLINE
5
2E9
100
AcDbEntity
8
1
62
256
6
ByLayer
370
-1
48
1
60
0
100
AcDbSpline
70
4
71
1
72
4
73
2
40
0
40
0
40
1
40
1
41
1
10
28.8976945109343
20
15.0990369411606
30
1E-16
41
1
10
30.3915632594462
20
16.0422757484159
30
2E-16
0
SPLINE
5
2EA
100
AcDbEntity
8
1
62
256
6
ByLayer
370
-1
48
1
60
0
100
AcDbSpline
70
4
71
3
72
25
73
21
40
0
40
0
40
0
40
0
40
0.0625
40
0.09375
40
0.125
40
0.1875
40
0.25
40
0.3125
40
0.375
40
0.4375
40
0.5
40
0.5625
40
0.625
40
0.6875
40
0.75
40
0.8125
40
0.875
40
0.90625
40
0.9375
40
1
40
1
40
1
40
1
41
1
10
28.8976945109343
20
15.0990369411606
30
1E-16
41
1
10
28.7448050778178
20
15.12421869029
30
1E-16
41
1
10
28.5237891949328
20
14.9983293033446
30
1E-16
41
1
10
28.5086096155279
20
14.727905740123
30
1E-16
41
1
10
28.4818426451866
20
14.4453565989535
30
0
41
1
10
28.4398091205117
20
14.0772698463025
30
0
41
1
10
28.3747479518885
20
13.6243516174506
30
0
41
1
10
28.2941646040364
20
13.1728456591598
30
0
41
1
10
28.2046085315269
20
12.7585318396319
30
0
41
1
10
28.1126291889317
20
12.4171900270686
30
0
41
1
10
27.9933028759618
20
12.1153170337396
30
0
41
1
10
27.8217058923278
20
11.819409671915
30
0
41
1
10
27.5690643245461
20
11.5739150124616
30
0
41
1
10
27.5446758408094
20
11.2301137352125
30
0
41
1
10
27.5505852005974
20
10.8888336061891
30
0
41
1
10
27.5468432835225
20
10.5491782634489
30
0
41
1
10
27.5648184935211
20
10.2559901088757
30
0
41
1
10
27.7205823637298
20
10.0337748354096
30
0
41
1
10
27.948322731972
20
9.83639503779949
30
0
41
1
10
28.175037352072
20
9.73498857262354
30
0
41
1
10
28.3287497259959
20
9.70471996402577
30
0
0
SPLINE
5
2EB
100
AcDbEntity
8
1
62
256
6
ByLayer
370
-1
48
1
60
0
100
AcDbSpline
70
4
71
3
72
15
73
11
40
0
40
0
40
0
40
0
40
0.0625
40
0.125
40
0.25
40
0.5
40
0.75
40
0.875
40
0.9375
40
1
40
1
40
1
40
1
41
1
10
38.1744063278382
20
12.8055132673322
30
6E-16
41
1
10
37.9749757642987
20
12.8428034506978
30
6E-16
41
1
10
37.5751007291475
20
12.9154270289754
30
6E-16
41
1
10
36.8003035189633
20
13.1249730214553
30
6E-16
41
1
10
35.4727360700052
20
13.5369775204414
30
5E-16
41
1
10
33.5545612158283
20
14.0635256440144
30
4E-16
41
1
10
31.6576004664565
20
14.5880144819153
30
2E-16
41
1
10
30.2901065569887
20
14.876971946528
30
2E-16
41
1
10
29.4926018721618
20
14.9935455171784
30
1E-16
41
1
10
29.0961771780892
20
15.0776521534121
30
1E-16
41
1
10
28.8976945109343
20
15.0990369411606
30
1E-16
0
SPLINE
5
2EC
100
AcDbEntity
8
1
62
256
6
ByLayer
370
-1
48
1
60
0
100
AcDbSpline
70
4
71
3
72
14
73
10
40
0
40
0
40
0
40
0
40
0.258374536041622
40
0.258374536041622
40
0.520163709547351
40
0.520163709547351
40
0.808397479016397
40
0.808397479016397
40
1
40
1
40
1
40
1
41
1
10
34.776783760978
20
10.5167656725859
30
4E-16
41
1
10
34.8488359033578
20
10.6016710878156
30
4E-16
41
1
10
34.8991892039631
20
10.7090889789807
30
4E-16
41
1
10
34.951036888303
20
10.9431316809991
30
4E-16
41
1
10
34.9518857866923
20
11.0699859445338
30
4E-16
41
1
10
34.897289331525
20
11.3310821833978
30
4E-16
41
1
10
34.837066336942
20
11.4731813834183
30
4E-16
41
1
10
34.7002842186119
20
11.7100862414563
30
4E-16
41
1
10
34.6349931186298
20
11.805990908667
30
4E-16
41
1
10
34.5613837670474
20
11.8990741622571
30
4E-16
0
SPLINE
5
2ED
100
AcDbEntity
8
1
62
256
6
ByLayer
370
-1
48
1
60
0
100
AcDbSpline
70
4
71
3
72
14
73
10
40
0
40
0
40
0
40
0
40
0.301632841810064
40
0.301632841810064
40
0.602402032079644
40
0.602402032079644
40
0.899200904780736
40
0.899200904780736
40
1
40
1
40
1
40
1
41
1
10
31.7734179463903
20
12.1278251649837
30
3E-16
41
1
10
31.6865293836188
20
12.0001332390622
30
2E-16
41
1
10
31.6282859887303
20
11.8663276259142
30
2E-16
41
1
10
31.5831238658507
20
11.589363089612
30
2E-16
41
1
10
31.5928401144447
20
11.4368392285489
30
2E-16
41
1
10
31.6771583345639
20
11.1416467836518
30
2E-16
41
1
10
31.754737504925
20
10.9980080337468
30
2E-16
41
1
10
31.9007708787938
20
10.829922452118
30
3E-16
41
1
10
31.9420253653873
20
10.788533124976
30
3E-16
41
1
10
31.9864689171465
20
10.7491933710964
30
3E-16
0
SPLINE
5
2EE
100
AcDbEntity
8
1
62
256
6
ByLayer
370
-1
48
1
60
0
100
AcDbSpline
70
4
71
3
72
8
73
4
40
0
40
0
40
0
40
0
40
1
40
1
40
1
40
1
41
1
10
23.1275143100329
20
15.1655995780272
30
2E-16
41
1
10
23.17185829576
20
15.1125770411552
30
2E-16
41
1
10
23.2196887110004
20
15.0620278449411
30
2E-16
41
1
10
23.2704044955472
20
15.0143860453678
30
2E-16
0
SPLINE
5
2EF
100
AcDbEntity
8
1
62
256
6
ByLayer
370
-1
48
1
60
0
100
AcDbSpline
70
4
71
3
72
10
73
6
40
0
40
0
40
0
40
0
40
0.661648178076396
40
0.661648178076396
40
1
40
1
40
1
40
1
41
1
10
24.9299853252468
20
14.5812336056394
30
-2E-16
41
1
10
25.0189610464248
20
14.6047009670657
30
-2E-16
41
1
10
25.1050897232808
20
14.6354068270076
30
-2E-16
41
1
10
25.2279333203315
20
14.6918861630959
30
-2E-16
41
1
10
25.2685508293241
20
14.7128728937887
30
-1E-16
41
1
10
25.3080167799825
20
14.7355864282823
30
-1E-16
0
SPLINE
5
2F0
100
AcDbEntity
8
1
62
256
6
ByLayer
370
-1
48
1
60
0
100
AcDbSpline
70
4
71
3
72
8
73
4
40
0
40
0
40
0
40
0
40
1
40
1
40
1
40
1
41
1
10
25.8894269957691
20
15.3460040741713
30
-1E-16
41
1
10
25.8992364431565
20
15.3647350404898
30
-1E-16
41
1
10
25.908706325808
20
15.3837006629439
30
-1E-16
41
1
10
25.9178291538644
20
15.4028876447517
30
-1E-16
0
SPLINE
5
2F1
100
AcDbEntity
8
1
62
256
6
ByLayer
370
-1
48
1
60
0
100
AcDbSpline
70
4
71
3
72
25
73
21
40
0
40
0
40
0
40
0
40
0.0625
40
0.09375
40
0.125
40
0.1875
40
0.25
40
0.3125
40
0.375
40
0.4375
40
0.5
40
0.5625
40
0.625
40
0.6875
40
0.75
40
0.8125
40
0.875
40
0.90625
40
0.9375
40
1
40
1
40
1
40
1
41
1
10
20.0387399038207
20
19.7873546143226
30
0
41
1
10
19.8858504707041
20
19.7890766423822
30
0
41
1
10
19.6648345878192
20
19.6037363686984
30
0
41
1
10
19.6496550084143
20
19.2839854859308
30
0
41
1
10
19.622888038073
20
18.9744825487573
30
0
41
1
10
19.5808545133981
20
18.5980194089854
30
-1E-16
41
1
10
19.5157933447749
20
18.1515685792003
30
-1E-16
41
1
10
19.4352099969227
20
17.6990627745857
30
-1E-16
41
1
10
19.3456539244132
20
17.2417438227513
30
-1E-16
41
1
10
19.2536745818181
20
16.7808535513071
30
-1E-16
41
1
10
19.1343482688482
20
16.3281363847443
30
-1E-16
41
1
10
18.9627512852142
20
15.8953367475545
30
-1E-16
41
1
10
18.7101097174325
20
15.5020052643054
30
-1E-16
41
1
10
18.6857212336957
20
15.0249829515597
30
-1E-16
41
1
10
18.6916305934838
20
14.5559417220432
30
-1E-16
41
1
10
18.6878886764089
20
14.0875450507008
30
-1E-16
41
1
10
18.7058638864074
20
13.6873979171547
30
-1E-16
41
1
10
18.8616277566161
20
13.4125038396854
30
-1E-16
41
1
10
19.0893681248584
20
13.1861843848027
30
-1E-16
41
1
10
19.3160827449583
20
13.0918199724347
30
-1E-16
41
1
10
19.4697951188822
20
13.080835979995
30
-1E-16
0
SPLINE
5
2F2
100
AcDbEntity
8
1
62
256
6
ByLayer
370
-1
48
1
60
0
100
AcDbSpline
70
4
71
3
72
12
73
8
40
0
40
0
40
0
40
0
40
0.207920619910987
40
0.471947079940658
40
0.603960309955494
40
0.735973539970329
40
1
40
1
40
1
40
1
41
1
10
30.0955135474334
20
17.9415963640571
30
1E-16
41
1
10
30.0955912119558
20
18.0646684510261
30
1E-16
41
1
10
30.0966791440817
20
18.3444027724121
30
1E-16
41
1
10
30.0866416822345
20
18.7094995540021
30
1E-16
41
1
10
29.9174546824949
20
18.9865538075829
30
1E-16
41
1
10
29.6916340212767
20
19.2125611651618
30
1E-16
41
1
10
29.4691928647648
20
19.3062369944585
30
1E-16
41
1
10
29.3154517207245
20
19.3172251799136
30
1E-16
0
SPLINE
5
2F3
100
AcDbEntity
8
1
62
256
6
ByLayer
370
-1
48
1
60
0
100
AcDbSpline
70
4
71
3
72
14
73
10
40
0
40
0
40
0
40
0
40
0.301632841810064
40
0.301632841810064
40
0.602402032079644
40
0.602402032079644
40
0.899200904780734
40
0.899200904780734
40
1
40
1
40
1
40
1
41
1
10
22.9144633392766
20
17.0214466634709
30
2E-16
41
1
10
22.8275747765052
20
16.8442284313513
30
1E-16
41
1
10
22.7693313816166
20
16.6514288289915
30
1E-16
41
1
10
22.7241692587371
20
16.261724619715
30
1E-16
41
1
10
22.733885507331
20
16.0585470184851
30
1E-16
41
1
10
22.8182037274503
20
15.6745306973865
30
1E-16
41
1
10
22.8957828978114
20
15.4881126350062
30
2E-16
41
1
10
23.0418162716802
20
15.2699055414474
30
2E-16
41
1
10
23.0830707582737
20
15.2162735404678
30
2E-16
41
1
10
23.1275143100329
20
15.1655995780272
30
2E-16
0
SPLINE
5
2F4
100
AcDbEntity
8
1
62
256
6
ByLayer
370
-1
48
1
60
0
100
AcDbSpline
70
4
71
3
72
16
73
12
40
0
40
0
40
0
40
0
40
0.234732885937303
40
0.234732885937303
40
0.480717460323106
40
0.480717460323106
40
0.727252055399307
40
0.727252055399307
40
0.966170874934649
40
0.966170874934649
40
1
40
1
40
1
40
1
41
1
10
25.7024291599337
20
17.2633284103904
30
-1E-16
41
1
10
25.5913825293826
20
17.4104976100461
30
-1E-16
41
1
10
25.4577249208619
20
17.5411836545535
30
-1E-16
41
1
10
25.1564701182734
20
17.754622483191
30
-2E-16
41
1
10
24.983222062055
20
17.837770618381
30
-2E-16
41
1
10
24.6239486761405
20
17.9371858882589
30
-2E-16
41
1
10
24.43269048124
20
17.9546304286517
30
-2E-16
41
1
10
24.0643206947926
20
17.9204984485243
30
-2E-16
41
1
10
23.8817697799608
20
17.8704271980815
30
2E-16
41
1
10
23.689778290261
20
17.7804595224704
30
2E-16
41
1
10
23.6661291069433
20
17.7686702652258
30
2E-16
41
1
10
23.6427146091139
20
17.7562940633935
30
2E-16
0
SPLINE
5
2F5
100
AcDbEntity
8
1
62
256
6
ByLayer
370
-1
48
1
60
0
100
AcDbSpline
70
4
71
3
72
10
73
6
40
0
40
0
40
0
40
0
40
0.413184972941763
40
0.413184972941763
40
1
40
1
40
1
40
1
41
1
10
23.5896642816338
20
17.727020618282
30
2E-16
41
1
10
23.4720995318558
20
17.6593782039813
30
2E-16
41
1
10
23.3613975250637
20
17.5770023473098
30
2E-16
41
1
10
23.122403926833
20
17.3511294153341
30
2E-16
41
1
10
23.0020742828713
20
17.1926562202278
30
2E-16
41
1
10
22.9144633392766
20
17.0214466634709
30
2E-16
0
SPLINE
5
2F6
100
AcDbEntity
8
1
62
256
6
ByLayer
370
-1
48
1
60
0
100
AcDbSpline
70
4
71
3
72
15
73
11
40
0
40
0
40
0
40
0
40
0.0625
40
0.125
40
0.25
40
0.5
40
0.75
40
0.875
40
0.9375
40
1
40
1
40
1
40
1
41
1
10
29.3154517207245
20
19.3172251799136
30
1E-16
41
1
10
29.1160211571851
20
19.32873955636
30
1E-16
41
1
10
28.7161461220339
20
19.3513826052428
30
1E-16
41
1
10
27.9413489118497
20
19.4160017063908
30
0
41
1
10
26.6137814628916
20
19.5343272692683
30
-1E-16
41
1
10
24.6956066087147
20
19.6601037872148
30
-2E-16
41
1
10
22.7986458593429
20
19.7384428153599
30
1E-16
41
1
10
21.4311519498751
20
19.7718049557259
30
1E-16
41
1
10
20.6336472650482
20
19.7731659213322
30
0
41
1
10
20.2372225709756
20
19.7983257143384
30
0
41
1
10
20.0387399038207
20
19.7873546143226
30
0
0
SPLINE
5
2F7
100
AcDbEntity
8
1
62
256
6
ByLayer
370
-1
48
1
60
0
100
AcDbSpline
70
4
71
3
72
14
73
10
40
0
40
0
40
0
40
0
40
0.258374536041621
40
0.258374536041621
40
0.520163709547352
40
0.520163709547352
40
0.808397479016397
40
0.808397479016397
40
1
40
1
40
1
40
1
41
1
10
25.9178291538644
20
15.4028876447517
30
-1E-16
41
1
10
25.9898812962442
20
15.547670915328
30
-1E-16
41
1
10
26.0402345968495
20
15.7105697227408
30
-1E-16
41
1
10
26.0920822811894
20
16.0449972517043
30
-1E-16
41
1
10
26.0929311795787
20
16.2204884127575
30
-1E-16
41
1
10
26.0383347244114
20
16.5770544097553
30
-1E-16
41
1
10
25.9781117298283
20
16.7626832014427
30
-1E-16
41
1
10
25.8413296114982
20
17.0497216194124
30
-1E-16
41
1
10
25.7760385115161
20
17.1604176398346
30
-1E-16
41
1
10
25.7024291599337
20
17.2633284103904
30
-1E-16
0
SPLINE
5
2F8
100
AcDbEntity
8
1
62
256
6
ByLayer
370
-1
48
1
60
0
100
AcDbSpline
70
4
71
3
72
14
73
10
40
0
40
0
40
0
40
0
40
0.0696718493834147
40
0.139343698766829
40
0.278687397533659
40
0.557374795067317
40
0.836062192600976
40
0.975405891367805
40
1
40
1
40
1
40
1
41
1
10
19.4697951188822
20
13.080835979995
30
-1E-16
41
1
10
19.6690118959937
20
13.0691063436908
30
0
41
1
10
20.0701248328369
20
13.0460190643849
30
0
41
1
10
20.880621422925
20
13.0035597276603
30
0
41
1
10
22.3142781991734
20
12.9448548736249
30
-1E-16
41
1
10
24.3541103573571
20
12.8894237549258
30
-2E-16
41
1
10
26.4014109318964
20
12.8973746000718
30
-1E-16
41
1
10
27.6895696636928
20
12.8935337764942
30
0
41
1
10
28.1603829573254
20
12.8928988556723
30
0
41
1
10
28.2309724483112
20
12.8925682159169
30
0
0
SPLINE
5
2F9
100
AcDbEntity
8
1
62
256
6
ByLayer
370
-1
48
1
60
0
100
AcDbSpline
70
4
71
3
72
18
73
14
40
0
40
0
40
0
40
0
40
0.213394464779721
40
0.213394464779721
40
0.389004322610662
40
0.389004322610662
40
0.566252444177969
40
0.566252444177969
40
0.721175490823056
40
0.721175490823056
40
0.927416435499179
40
0.927416435499179
40
1
40
1
40
1
40
1
41
1
10
51.5555583421439
20
17.1806891379021
30
0
41
1
10
51.5503758154603
20
17.1363161060272
30
0
41
1
10
51.5509116903879
20
17.0891335897255
30
0
41
1
10
51.5635153391033
20
17.0032175536196
30
0
41
1
10
51.573733672102
20
16.9635194277925
30
0
41
1
10
51.6027010953501
20
16.8883604340988
30
0
41
1
10
51.6220138232086
20
16.8518977277639
30
0
41
1
10
51.6635586098066
20
16.793113983689
30
0
41
1
10
51.6855914201038
20
16.7688460483452
30
0
41
1
10
51.7392066059842
20
16.7226417743078
30
0
41
1
10
51.7724222042812
20
16.7031968235733
30
0
41
1
10
51.8179450945657
20
16.6862148310608
30
0
41
1
10
51.830018650425
20
16.6825874004282
30
0
41
1
10
51.8421420426148
20
16.6797719608291
30
0
0
SPLINE
5
2FA
100
AcDbEntity
8
1
62
256
6
ByLayer
370
-1
48
1
60
0
100
AcDbSpline
70
4
71
3
72
12
73
8
40
0
40
0
40
0
40
0
40
0.464390992171651
40
0.464390992171651
40
0.846401077318508
40
0.846401077318508
40
1
40
1
40
1
40
1
41
1
10
51.2555971880232
20
15.6245299228428
30
0
41
1
10
51.2308572531942
20
15.6516372715357
30
0
41
1
10
51.2001557237055
20
15.6749384079005
30
0
41
1
10
51.1347025894516
20
15.7066113678638
30
0
41
1
10
51.1008249000729
20
15.717179200493
30
0
41
1
10
51.0496228396382
20
15.724894811837
30
0
41
1
10
51.0343058173541
20
15.7263157540637
30
0
41
1
10
51.0187163771112
20
15.7268783217616
30
0
0
SPLINE
5
2FB
100
AcDbEntity
8
1
62
256
6
ByLayer
370
-1
48
1
60
0
100
AcDbSpline
70
4
71
3
72
14
73
10
40
0
40
0
40
0
40
0
40
0.283738489034221
40
0.283738489034221
40
0.570489531030767
40
0.570489531030767
40
0.830294403552171
40
0.830294403552171
40
1
40
1
40
1
40
1
41
1
10
51.2555971880232
20
15.6245299228428
30
0
41
1
10
51.2676554793962
20
15.6113177494419
30
0
41
1
10
51.2828386679785
20
15.6002999114183
30
0
41
1
10
51.3176160231572
20
15.5850978937103
30
0
41
1
10
51.3378103877356
20
15.5807880406919
30
0
41
1
10
51.3779023503761
20
15.5807167765
30
0
41
1
10
51.3982578306261
20
15.5842253612918
30
0
41
1
10
51.4306443180102
20
15.5958014834174
30
0
41
1
10
51.4433665249887
20
15.6019389490066
30
0
41
1
10
51.4553648927676
20
15.6093603910335
30
0
0
SPLINE
5
2FC
100
AcDbEntity
8
1
62
256
6
ByLayer
370
-1
48
1
60
0
100
AcDbSpline
70
4
71
3
72
14
73
10
40
0
40
0
40
0
40
0
40
0.284523597312296
40
0.284523597312296
40
0.571736866218039
40
0.571736866218039
40
0.831999616286237
40
0.831999616286237
40
1
40
1
40
1
40
1
41
1
10
50.3806025992774
20
15.7783221647232
30
-1E-16
41
1
10
50.3728919201079
20
15.7589583694221
30
-1E-16
41
1
10
50.3686497547073
20
15.7380579948468
30
-1E-16
41
1
10
50.368607684036
20
15.6963638030819
30
-1E-16
41
1
10
50.3729267049702
20
15.6749329312009
30
-1E-16
41
1
10
50.3895636942403
20
15.6375040006972
30
-1E-16
41
1
10
50.4013780071856
20
15.6206378544029
30
-1E-16
41
1
10
50.4257120146608
20
15.5974913794991
30
-1E-16
41
1
10
50.43666635933
20
15.5893909529416
30
-1E-16
41
1
10
50.4485111444571
20
15.5826920043605
30
0
0
SPLINE
5
2FD
100
AcDbEntity
8
1
62
256
6
ByLayer
370
-1
48
1
60
0
100
AcDbSpline
70
4
71
3
72
16
73
12
40
0
40
0
40
0
40
0
40
0.0670553612811606
40
0.0670553612811606
40
0.291697905104264
40
0.291697905104264
40
0.519329228663779
40
0.519329228663779
40
0.761535715028722
40
0.761535715028722
40
1
40
1
40
1
40
1
41
1
10
49.9465742141469
20
16.4600232335498
30
0
41
1
10
49.9465742375425
20
16.4544155132406
30
0
41
1
10
49.9468547714474
20
16.4487944106244
30
0
41
1
10
49.9492710910622
20
16.4245886954852
30
0
41
1
10
49.9543242844952
20
16.4059925760463
30
0
41
1
10
49.9698644283606
20
16.3715138581945
30
0
41
1
10
49.9806063010731
20
16.3552259955042
30
0
41
1
10
50.0067541931889
20
16.3259949254186
30
0
41
1
10
50.0227263726194
20
16.3129536267492
30
0
41
1
10
50.056809633415
20
16.2923688600254
30
0
41
1
10
50.0752278208442
20
16.2845181504174
30
0
41
1
10
50.0940188988066
20
16.2792393417962
30
0
0
SPLINE
5
2FE
100
AcDbEntity
8
1
62
256
6
ByLayer
370
-1
48
1
60
0
100
AcDbSpline
70
4
71
3
72
12
73
8
40
0
40
0
40
0
40
0
40
0.377026290846267
40
0.377026290846267
40
0.761056372063251
40
0.761056372063251
40
1
40
1
40
1
40
1
41
1
10
50.9638997641067
20
15.725426402221
30
0
41
1
10
50.9250350579074
20
15.7220359647949
30
0
41
1
10
50.8851384230219
20
15.7134754897434
30
0
41
1
10
50.8095258030542
20
15.6881252824098
30
0
41
1
10
50.7728827041993
20
15.670918329358
30
0
41
1
10
50.718822949873
20
15.6381160989702
30
0
41
1
10
50.6991022956824
20
15.6242062514474
30
0
41
1
10
50.6807284035219
20
15.6093034581681
30
0
0
SPLINE
5
2FF
100
AcDbEntity
8
1
62
256
6
ByLayer
370
-1
48
1
60
0
100
AcDbSpline
70
4
71
3
72
18
73
14
40
0
40
0
40
0
40
0
40
0.2133930797378
40
0.2133930797378
40
0.389003177496048
40
0.389003177496048
40
0.566251555260791
40
0.566251555260791
40
0.721174645896046
40
0.721174645896046
40
0.927415342089921
40
0.927415342089921
40
1
40
1
40
1
40
1
41
1
10
50.0940174209407
20
16.6334696419059
30
0
41
1
10
50.1398858619857
20
16.6438051064225
30
0
41
1
10
50.1850545582332
20
16.6611608839597
30
0
41
1
10
50.2597299843192
20
16.705916280241
30
0
41
1
10
50.2913539188291
20
16.7315920168211
30
1E-16
41
1
10
50.3444084856608
20
16.7918639805171
30
1E-16
41
1
10
50.3663949497285
20
16.8275149095585
30
1E-16
41
1
10
50.3943350506654
20
16.8977888332362
30
1E-16
41
1
10
50.4023643691958
20
16.9327819592181
30
1E-16
41
1
10
50.4096008401051
20
17.0132399102055
30
1E-16
41
1
10
50.4053248731418
20
17.0596899204164
30
1E-16
41
1
10
50.3907039748851
20
17.119118613624
30
1E-16
41
1
10
50.3860300906842
20
17.1344992464771
30
1E-16
41
1
10
50.3805968783734
20
17.1495681069736
30
1E-16
0
SPLINE
5
300
100
AcDbEntity
8
1
62
256
6
ByLayer
370
-1
48
1
60
0
100
AcDbSpline
70
4
71
3
72
12
73
8
40
0
40
0
40
0
40
0
40
0.464390992172113
40
0.464390992172113
40
0.846401077319348
40
0.846401077319348
40
1
40
1
40
1
40
1
41
1
10
50.6807212062874
20
17.3344116900348
30
1E-16
41
1
10
50.7161059702447
20
17.3025928656778
30
1E-16
41
1
10
50.756840458285
20
17.2748510718364
30
1E-16
41
1
10
50.8369218241274
20
17.2367035544792
30
1E-16
41
1
10
50.8761506490188
20
17.2237672719257
30
1E-16
41
1
10
50.9316438065709
20
17.2141523910492
30
1E-16
41
1
10
50.9478362420055
20
17.2123439848526
30
1E-16
41
1
10
50.9638935638261
20
17.2115743295029
30
1E-16
0
SPLINE
5
301
100
AcDbEntity
8
1
62
256
6
ByLayer
370
-1
48
1
60
0
100
AcDbSpline
70
4
71
3
72
14
73
10
40
0
40
0
40
0
40
0
40
0.284523597312294
40
0.284523597312294
40
0.571736866218038
40
0.571736866218038
40
0.831999616286247
40
0.831999616286247
40
1
40
1
40
1
40
1
41
1
10
51.5555583421439
20
17.1806891379021
30
0
41
1
10
51.5580877672936
20
17.2023461923932
30
0
41
1
10
51.5574054868725
20
17.2254261610577
30
0
41
1
10
51.5488236365672
20
17.2709373604346
30
0
41
1
10
51.5406866640677
20
17.2940580843244
30
0
41
1
10
51.5184858326539
20
17.333949610192
30
0
41
1
10
51.5046852686923
20
17.3516948850484
30
0
41
1
10
51.4785252328635
20
17.3756495728456
30
0
41
1
10
51.4672022464268
20
17.3839131628222
30
0
41
1
10
51.4553574612998
20
17.3906121114034
30
0
0
SPLINE
5
302
100
AcDbEntity
8
1
62
256
6
ByLayer
370
-1
48
1
60
0
100
AcDbSpline
70
4
71
3
72
14
73
10
40
0
40
0
40
0
40
0
40
0.283738489034231
40
0.283738489034231
40
0.570489531030774
40
0.570489531030774
40
0.830294403552178
40
0.830294403552178
40
1
40
1
40
1
40
1
41
1
10
50.6807212062874
20
17.3344116900348
30
1E-16
41
1
10
50.6634746049156
20
17.3499202456513
30
1E-16
41
1
10
50.6433577102366
20
17.3631217764264
30
1E-16
41
1
10
50.5999279747585
20
17.3821533980413
30
1E-16
41
1
10
50.5758973624198
20
17.3881612010922
30
1E-16
41
1
10
50.5302074552425
20
17.390710154605
30
1E-16
41
1
10
50.5078491061075
20
17.3880880535601
30
1E-16
41
1
10
50.4736027158847
20
17.3773351374115
30
1E-16
41
1
10
50.4605020807681
20
17.3713651667572
30
1E-16
41
1
10
50.4485037129892
20
17.3639437247304
30
1E-16
0
SPLINE
5
303
100
AcDbEntity
8
1
62
256
6
ByLayer
370
-1
48
1
60
0
100
AcDbSpline
70
4
71
3
72
16
73
12
40
0
40
0
40
0
40
0
40
0.076871419661366
40
0.076871419661366
40
0.334398795997699
40
0.334398795997699
40
0.595352471693276
40
0.595352471693276
40
0.873014930031167
40
0.873014930031167
40
1
40
1
40
1
40
1
41
1
10
51.95729439161
20
16.513280882214
30
0
41
1
10
51.9572943682143
20
16.5188886025233
30
0
41
1
10
51.9570721240177
20
16.5244839057078
30
0
41
1
10
51.9551583049302
20
16.5484672106065
30
0
41
1
10
51.9511551199631
20
16.5665985889702
30
0
41
1
10
51.9388783215379
20
16.5996329273548
30
0
41
1
10
51.9304048044306
20
16.614916800023
30
0
41
1
10
51.9098664057862
20
16.6416650691486
30
0
41
1
10
51.8973630077394
20
16.6531710609685
30
0
41
1
10
51.877893317717
20
16.6658256397831
30
0
41
1
10
51.8715414505551
20
16.6692511800196
30
0
41
1
10
51.8650451823744
20
16.6721160124653
30
0
0
SPLINE
5
304
100
AcDbEntity
8
1
62
256
6
ByLayer
370
-1
48
1
60
0
100
AcDbSpline
70
4
71
3
72
18
73
14
40
0
40
0
40
0
40
0
40
0.213394464779724
40
0.213394464779724
40
0.389004322610665
40
0.389004322610665
40
0.566252444177967
40
0.566252444177967
40
0.721175490823057
40
0.721175490823057
40
0.92741643549918
40
0.92741643549918
40
1
40
1
40
1
40
1
41
1
10
50.3806025992774
20
15.7783221647232
30
-1E-16
41
1
10
50.3964009717063
20
15.8179965491816
30
1E-16
41
1
10
50.4058639394545
20
15.8607535079314
30
1E-16
41
1
10
50.407822772789
20
15.9402240878482
30
1E-16
41
1
10
50.4029230824293
20
15.9775681453235
30
1E-16
41
1
10
50.3800116182319
20
16.0500467292759
30
1E-16
41
1
10
50.3613965472629
20
16.0862006478024
30
1E-16
41
1
10
50.3163999729151
20
16.146512177226
30
1E-16
41
1
10
50.2908222649468
20
16.1723491090194
30
1E-16
41
1
10
50.2259829181102
20
16.2235212750313
30
0
41
1
10
50.1840106368886
20
16.2468419947425
30
0
41
1
10
50.1254291311215
20
16.2696038216058
30
0
41
1
10
50.1097930468425
20
16.2748080521805
30
0
41
1
10
50.0940188988066
20
16.2792393417962
30
0
0
SPLINE
5
305
100
AcDbEntity
8
1
62
256
6
ByLayer
370
-1
48
1
60
0
100
AcDbSpline
70
4
71
3
72
18
73
14
40
0
40
0
40
0
40
0
40
0.213393079737799
40
0.213393079737799
40
0.389003177496043
40
0.389003177496043
40
0.566251555260787
40
0.566251555260787
40
0.721174645896041
40
0.721174645896041
40
0.927415342089918
40
0.927415342089918
40
1
40
1
40
1
40
1
41
1
10
51.8421435204806
20
16.3255416607195
30
0
41
1
10
51.8068908561228
20
16.3105075793519
30
0
41
1
10
51.7717209399121
20
16.2887262719873
30
0
41
1
10
51.711607999807
20
16.2375254177769
30
0
41
1
10
51.6853027422624
20
16.2094955976521
30
0
41
1
10
51.6383042015718
20
16.14654319452
30
0
41
1
10
51.6170154270635
20
16.1105834632103
30
0
41
1
10
51.5856235817104
20
16.0418373057015
30
0
41
1
10
51.5740493834015
20
16.0084131682499
30
0
41
1
10
51.5555887913535
20
15.9329230916134
30
0
41
1
10
51.5511081011255
20
15.8903488389895
30
0
41
1
10
51.5526703585663
20
15.8366999913454
30
0
41
1
10
51.5537816617533
20
15.8228961817128
30
0
41
1
10
51.555564063048
20
15.8094431956518
30
0
0
SPLINE
5
306
100
AcDbEntity
8
1
62
256
6
ByLayer
370
-1
48
1
60
0
100
AcDbSpline
70
4
71
3
72
16
73
12
40
0
40
0
40
0
40
0
40
0.0668638488454855
40
0.0668638488454855
40
0.290854271538579
40
0.290854271538579
40
0.517824973971277
40
0.517824973971277
40
0.759328674281169
40
0.759328674281169
40
1
40
1
40
1
40
1
41
1
10
51.4553574612998
20
17.3906121114034
30
0
41
1
10
51.4506143366814
20
17.3932946377296
30
0
41
1
10
51.445768439162
20
17.3957416450677
30
0
41
1
10
51.4245081693955
20
17.4052366459002
30
0
41
1
10
51.4071326147207
20
17.4097742827323
30
0
41
1
10
51.3729376354208
20
17.4128697310246
30
0
41
1
10
51.3556942861759
20
17.4114017968312
30
0
41
1
10
51.322614228579
20
17.4028559240807
30
0
41
1
10
51.3065194793929
20
17.3953378338345
30
0
41
1
10
51.2782874379251
20
17.3757327690684
30
0
41
1
10
51.2658309930427
20
17.3634687899807
30
0
41
1
10
51.2555899907887
20
17.3496381547096
30
0
0
SPLINE
5
307
100
AcDbEntity
8
1
62
256
6
ByLayer
370
-1
48
1
60
0
100
AcDbSpline
70
4
71
3
72
16
73
12
40
0
40
0
40
0
40
0
40
0.0650212293342984
40
0.0650212293342984
40
0.289691523269472
40
0.289691523269472
40
0.517236422326116
40
0.517236422326116
40
0.759263521180989
40
0.759263521180989
40
1
40
1
40
1
40
1
41
1
10
50.4485037129892
20
17.3639437247304
30
1E-16
41
1
10
50.4439037291415
20
17.3610984616013
30
1E-16
41
1
10
50.4394440233181
20
17.3580313667763
30
1E-16
41
1
10
50.4204372023844
20
17.3435521780315
30
1E-16
41
1
10
50.4075514039116
20
17.3297337516657
30
1E-16
41
1
10
50.3871960910651
20
17.2990822588763
30
1E-16
41
1
10
50.379526363784
20
17.2818316542445
30
1E-16
41
1
10
50.3697242990634
20
17.2452995767816
30
1E-16
41
1
10
50.367833286378
20
17.2255078848118
30
1E-16
41
1
10
50.3700154226028
20
17.1869066658015
30
1E-16
41
1
10
50.3740640377613
20
17.1676867554262
30
1E-16
41
1
10
50.3805968783734
20
17.1495681069736
30
1E-16
0
SPLINE
5
308
100
AcDbEntity
8
1
62
256
6
ByLayer
370
-1
48
1
60
0
100
AcDbSpline
70
4
71
3
72
14
73
10
40
0
40
0
40
0
40
0
40
0.284519249123235
40
0.284519249123235
40
0.571733062184455
40
0.571733062184455
40
0.831996244286529
40
0.831996244286529
40
1
40
1
40
1
40
1
41
1
10
51.8421435204806
20
16.3255416607195
30
0
41
1
10
51.8593490657087
20
16.3328792498534
30
0
41
1
10
51.8763368329176
20
16.3438949152789
30
0
41
1
10
51.906860530979
20
16.3723985246085
30
0
41
1
10
51.9208129216334
20
16.3904177194594
30
0
41
1
10
51.9414402630548
20
16.4290880141025
30
0
41
1
10
51.9489576696411
20
16.4499343208166
30
0
41
1
10
51.9558866629483
20
16.4850397314221
30
0
41
1
10
51.9572944500388
20
16.4992760509597
30
0
41
1
10
51.95729439161
20
16.513280882214
30
0
0
SPLINE
5
309
100
AcDbEntity
8
1
62
256
6
ByLayer
370
-1
48
1
60
0
100
AcDbSpline
70
4
71
3
72
14
73
10
40
0
40
0
40
0
40
0
40
0.28451924912323
40
0.28451924912323
40
0.57173306218445
40
0.57173306218445
40
0.831996244286513
40
0.831996244286513
40
1
40
1
40
1
40
1
41
1
10
50.0940174209407
20
16.6334696419059
30
0
41
1
10
50.071630700637
20
16.6284252770207
30
0
41
1
10
50.0497185597837
20
16.6195891737381
30
0
41
1
10
50.0105709629928
20
16.5949025621738
30
0
41
1
10
49.9928005925616
20
16.5785732318185
30
0
41
1
10
49.9666093564404
20
16.5423655558008
30
0
41
1
10
49.9571056732361
20
16.5223983889803
30
0
41
1
10
49.948350599557
20
16.4881012142919
30
0
41
1
10
49.946574155718
20
16.4740280648042
30
0
41
1
10
49.9465742141469
20
16.4600232335498
30
0
0
SPLINE
5
30A
100
AcDbEntity
8
1
62
256
6
ByLayer
370
-1
48
1
60
0
100
AcDbSpline
70
4
71
3
72
12
73
8
40
0
40
0
40
0
40
0
40
0.377026290639701
40
0.377026290639701
40
0.761056371823051
40
0.761056371823051
40
1
40
1
40
1
40
1
41
1
10
51.0187101768305
20
17.2130262490435
30
1E-16
41
1
10
51.0564424344906
20
17.2169179160854
30
1E-16
41
1
10
51.0927262599405
20
17.2270774457898
30
1E-16
41
1
10
51.1577161301251
20
17.2571293562895
30
1E-16
41
1
10
51.1872126966941
20
17.2774994144021
30
1E-16
41
1
10
51.228358062932
20
17.3160176431044
30
0
41
1
10
51.2427435719177
20
17.3322888631522
30
0
41
1
10
51.2555899907887
20
17.3496381547096
30
0
0
SPLINE
5
30B
100
AcDbEntity
8
1
62
256
6
ByLayer
370
-1
48
1
60
0
100
AcDbSpline
70
4
71
3
72
16
73
12
40
0
40
0
40
0
40
0
40
0.0668638488455252
40
0.0668638488455252
40
0.290854271538802
40
0.290854271538802
40
0.517824973971678
40
0.517824973971678
40
0.759328674281761
40
0.759328674281761
40
1
40
1
40
1
40
1
41
1
10
50.4485111444571
20
15.5826920043605
30
0
41
1
10
50.4532542690754
20
15.5800094780342
30
0
41
1
10
50.4581584617408
20
15.5775366688577
30
0
41
1
10
50.4799212606546
20
15.5678192451174
30
0
41
1
10
50.4983468411679
20
15.5628168595208
30
0
41
1
10
50.5358051984616
20
15.5582770173528
30
0
41
1
10
50.5553169197436
20
15.5587409542513
30
0
41
1
10
50.5940065031405
20
15.5648040117329
30
0
41
1
10
50.6135700503712
20
15.5707867877553
30
0
41
1
10
50.6494092518101
20
15.5870248704266
30
0
41
1
10
50.6660809696253
20
15.5974231402949
30
0
41
1
10
50.6807284035218
20
15.6093034581679
30
0
0
SPLINE
5
30C
100
AcDbEntity
8
1
62
256
6
ByLayer
370
-1
48
1
60
0
100
AcDbSpline
70
4
71
3
72
16
73
12
40
0
40
0
40
0
40
0
40
0.0650212293342957
40
0.0650212293342957
40
0.28969152326947
40
0.28969152326947
40
0.517236422326122
40
0.517236422326122
40
0.759263521180983
40
0.759263521180983
40
1
40
1
40
1
40
1
41
1
10
51.4553648927676
20
15.6093603910335
30
0
41
1
10
51.4599648766153
20
15.6122056541625
30
0
41
1
10
51.4644794038662
20
15.6152484846412
30
0
41
1
10
51.4839702905545
20
15.6295134225046
30
0
41
1
10
51.4978948423508
20
15.6428720893998
30
0
41
1
10
51.5214924164029
20
15.6720885347514
30
0
41
1
10
51.531419858518
20
15.6883398590405
30
0
41
1
10
51.5468104844425
20
15.7223984003112
30
0
41
1
10
51.5521594909074
20
15.7406595601004
30
0
41
1
10
51.5575580267725
20
15.7759055207369
30
0
41
1
10
51.5577072046921
20
15.7932674585987
30
0
41
1
10
51.555564063048
20
15.8094431956517
30
0
0
SPLINE
5
30D
100
AcDbEntity
8
1
62
256
6
ByLayer
370
-1
48
1
60
0
100
AcDbSpline
70
4
71
3
72
16
73
12
40
0
40
0
40
0
40
0
40
0.0650212293342971
40
0.0650212293342971
40
0.289691523269472
40
0.289691523269472
40
0.51723642232612
40
0.51723642232612
40
0.759263521180987
40
0.759263521180987
40
1
40
1
40
1
40
1
41
1
10
42.5964102856539
20
1.674980861828
30
-9E-16
41
1
10
42.6010102695017
20
1.67434944077692
30
-9E-16
41
1
10
42.6055247967526
20
1.67389277908811
30
-9E-16
41
1
10
42.6250156834408
20
1.67265649598963
30
-9E-16
41
1
10
42.6389402352371
20
1.67383432833381
30
-9E-16
41
1
10
42.6625378092892
20
1.68020379172063
30
-9E-16
41
1
10
42.6724652514043
20
1.6855196991234
30
-9E-16
41
1
10
42.6878558773289
20
1.69985324845166
30
-9E-16
41
1
10
42.6932048837937
20
1.70925483331277
30
-9E-16
41
1
10
42.6986034196589
20
1.7305810126424
30
-9E-16
41
1
10
42.6987525975784
20
1.7427104720912
30
-9E-16
41
1
10
42.6966094559343
20
1.75561241505974
30
-9E-16
0
SPLINE
5
30E
100
AcDbEntity
8
1
62
256
6
ByLayer
370
-1
48
1
60
0
100
AcDbSpline
70
4
71
3
72
12
73
8
40
0
40
0
40
0
40
0
40
0.46439099217165
40
0.46439099217165
40
0.846401077318505
40
0.846401077318505
40
1
40
1
40
1
40
1
41
1
10
42.3966425809095
20
1.79723983187861
30
-9E-16
41
1
10
42.3719026460805
20
1.83120379317268
30
-9E-16
41
1
10
42.3412011165919
20
1.86463484568318
30
-9E-16
41
1
10
42.2757479823379
20
1.91805490165353
30
-9E-16
41
1
10
42.2418702929592
20
1.93985720579443
30
-9E-16
41
1
10
42.1906682325245
20
1.96310875425291
30
9E-16
41
1
10
42.1753512102404
20
1.96902143703198
30
9E-16
41
1
10
42.1597617699975
20
1.97396464599885
30
9E-16
0
SPLINE
5
30F
100
AcDbEntity
8
1
62
256
6
ByLayer
370
-1
48
1
60
0
100
AcDbSpline
70
4
71
3
72
16
73
12
40
0
40
0
40
0
40
0
40
0.0670553612811623
40
0.0670553612811623
40
0.291697905104262
40
0.291697905104262
40
0.519329228663789
40
0.519329228663789
40
0.76153571502873
40
0.76153571502873
40
1
40
1
40
1
40
1
41
1
10
41.0876196070332
20
2.19427592307869
30
-1E-15
41
1
10
41.0876196304289
20
2.19329454791236
30
-1E-15
41
1
10
41.0879001643337
20
2.19236870733221
30
-1E-15
41
1
10
41.0903164839485
20
2.18863203034203
30
-1E-15
41
1
10
41.0953696773815
20
2.18642016889902
30
-1E-15
41
1
10
41.110909821247
20
2.18366681180774
30
-1E-15
41
1
10
41.1216516939594
20
2.18311143969936
30
-1E-15
41
1
10
41.1477995860753
20
2.18377357652395
30
-1E-15
41
1
10
41.1637717655057
20
2.18511246834149
30
-1E-15
41
1
10
41.1978550263013
20
2.18958573791832
30
-9E-16
41
1
10
41.2162732137305
20
2.19273600416119
30
-9E-16
41
1
10
41.2350642916929
20
2.19665521428814
30
-9E-16
0
SPLINE
5
310
100
AcDbEntity
8
1
62
256
6
ByLayer
370
-1
48
1
60
0
100
AcDbSpline
70
4
71
3
72
14
73
10
40
0
40
0
40
0
40
0
40
0.284519249123236
40
0.284519249123236
40
0.571733062184456
40
0.571733062184456
40
0.831996244286532
40
0.831996244286532
40
1
40
1
40
1
40
1
41
1
10
42.9831889133669
20
1.7755726297284
30
-8E-16
41
1
10
43.000394458595
20
1.76136660743143
30
-8E-16
41
1
10
43.017382225804
20
1.74841611712938
30
-8E-16
41
1
10
43.0479059238653
20
1.72715858664054
30
-8E-16
41
1
10
43.0618583145197
20
1.71858470313083
30
-8E-16
41
1
10
43.0824856559411
20
1.7081897285619
30
-8E-16
41
1
10
43.0900030625275
20
1.70567332342714
30
-8E-16
41
1
10
43.0969320558347
20
1.70614510171495
30
-8E-16
41
1
10
43.0983398429251
20
1.70748926772228
30
-8E-16
41
1
10
43.0983397844963
20
1.70994017341007
30
-8E-16
0
SPLINE
5
311
100
AcDbEntity
8
1
62
256
6
ByLayer
370
-1
48
1
60
0
100
AcDbSpline
70
4
71
3
72
16
73
12
40
0
40
0
40
0
40
0
40
0.0668638488455278
40
0.0668638488455278
40
0.290854271538803
40
0.290854271538803
40
0.517824973971682
40
0.517824973971682
40
0.759328674281758
40
0.759328674281758
40
1
40
1
40
1
40
1
41
1
10
41.5895565373434
20
1.91750852453336
30
9E-16
41
1
10
41.5942996619617
20
1.91587457943856
30
9E-16
41
1
10
41.5992038546271
20
1.91436454845177
30
9E-16
41
1
10
41.6209666535409
20
1.90841363854506
30
9E-16
41
1
10
41.6393922340542
20
1.90529768079463
30
9E-16
41
1
10
41.6768505913479
20
1.90240261050644
30
9E-16
41
1
10
41.6963623126299
20
1.90262579051409
30
9E-16
41
1
10
41.7350518960269
20
1.90638544935408
30
9E-16
41
1
10
41.7546154432576
20
1.91017192874918
30
9E-16
41
1
10
41.7904546446964
20
1.92075571256385
30
9E-16
41
1
10
41.8071263625117
20
1.92764803305465
30
9E-16
41
1
10
41.8217737964081
20
1.93571235869916
30
9E-16
0
SPLINE
5
312
100
AcDbEntity
8
1
62
256
6
ByLayer
370
-1
48
1
60
0
100
AcDbSpline
70
4
71
3
72
18
73
14
40
0
40
0
40
0
40
0
40
0.213393079737798
40
0.213393079737798
40
0.389003177496039
40
0.389003177496039
40
0.566251555260788
40
0.566251555260788
40
0.721174645896041
40
0.721174645896041
40
0.927415342089917
40
0.927415342089917
40
1
40
1
40
1
40
1
41
1
10
42.9831889133669
20
1.7755726297284
30
-8E-16
41
1
10
42.9479362490092
20
1.80467953272134
30
-8E-16
41
1
10
42.9127663327984
20
1.83124373482875
30
-8E-16
41
1
10
42.8526533926934
20
1.86870656254226
30
-8E-16
41
1
10
42.8263481351487
20
1.88182444991503
30
-8E-16
41
1
10
42.7793495944582
20
1.89551451433678
30
-9E-16
41
1
10
42.7580608199498
20
1.8959651513967
30
-9E-16
41
1
10
42.7266689745968
20
1.88413594569846
30
-9E-16
41
1
10
42.7150947762878
20
1.87342022456414
30
-9E-16
41
1
10
42.6966341842398
20
1.84033576334778
30
-9E-16
41
1
10
42.6921534940119
20
1.8149447027514
30
-9E-16
41
1
10
42.6937157514526
20
1.77677769481073
30
-9E-16
41
1
10
42.6948270546397
20
1.76634266236459
30
-9E-16
41
1
10
42.6966094559343
20
1.75561241505977
30
-9E-16
0
SPLINE
5
313
100
AcDbEntity
8
1
62
256
6
ByLayer
370
-1
48
1
60
0
100
AcDbSpline
70
4
71
3
72
14
73
10
40
0
40
0
40
0
40
0
40
0.112614183546306
40
0.112614183546306
40
0.489883594657685
40
0.489883594657685
40
0.872172425296174
40
0.872172425296174
40
1
40
1
40
1
40
1
41
1
10
43.0983397844963
20
1.70994017341007
30
-8E-16
41
1
10
43.0983397611006
20
1.71092154857638
30
-8E-16
41
1
10
43.098117516904
20
1.7120820538284
30
-8E-16
41
1
10
43.0962036978166
20
1.71784171437582
30
-8E-16
41
1
10
43.0922005128495
20
1.72428073528636
30
-8E-16
41
1
10
43.0799237144242
20
1.74017177842589
30
-8E-16
41
1
10
43.071450197317
20
1.74985917297351
30
-8E-16
41
1
10
43.0581723845793
20
1.76403065889724
30
-8E-16
41
1
10
43.0546559538625
20
1.76771275068163
30
-8E-16
41
1
10
43.0509834332727
20
1.77149857796988
30
-8E-16
0
SPLINE
5
314
100
AcDbEntity
8
1
62
256
6
ByLayer
370
-1
48
1
60
0
100
AcDbSpline
70
4
71
3
72
14
73
10
40
0
40
0
40
0
40
0
40
0.28373848903422
40
0.28373848903422
40
0.570489531030766
40
0.570489531030766
40
0.830294403552166
40
0.830294403552166
40
1
40
1
40
1
40
1
41
1
10
42.3966425809095
20
1.79723983187861
30
-9E-16
41
1
10
42.4087008722825
20
1.78068573243189
30
-9E-16
41
1
10
42.4238840608649
20
1.76430206013444
30
-9E-16
41
1
10
42.4586614160436
20
1.7342896473445
30
-9E-16
41
1
10
42.478855780622
20
1.72023590563205
30
-9E-16
41
1
10
42.5189477432624
20
1.69820819448066
30
-9E-16
41
1
10
42.5393032235124
20
1.68946965131079
30
-9E-16
41
1
10
42.5716897108965
20
1.67950006210998
30
-9E-16
41
1
10
42.5844119178751
20
1.67662782891415
30
-9E-16
41
1
10
42.5964102856539
20
1.674980861828
30
-9E-16
0
SPLINE
5
315
100
AcDbEntity
8
1
62
256
6
ByLayer
370
-1
48
1
60
0
100
AcDbSpline
70
4
71
3
72
14
73
10
40
0
40
0
40
0
40
0
40
0.128227673532556
40
0.128227673532556
40
0.478181258865418
40
0.478181258865418
40
0.795297043569474
40
0.795297043569474
40
1
40
1
40
1
40
1
41
1
10
41.1937923851126
20
2.24590456056799
30
-9E-16
41
1
10
41.1860166539969
20
2.24339761094706
30
-9E-16
41
1
10
41.1784722849594
20
2.24089381954209
30
-1E-15
41
1
10
41.1516163558791
20
2.2316594422949
30
-1E-15
41
1
10
41.1338459854479
20
2.22486277415285
30
-1E-15
41
1
10
41.1076547493267
20
2.21285843393534
30
-1E-15
41
1
10
41.0981510661224
20
2.2073784197236
30
-1E-15
41
1
10
41.0893959924434
20
2.19955514553581
30
-1E-15
41
1
10
41.0876195486044
20
2.19672682876646
30
-1E-15
41
1
10
41.0876196070332
20
2.19427592307869
30
-1E-15
0
SPLINE
5
316
100
AcDbEntity
8
1
62
256
6
ByLayer
370
-1
48
1
60
0
100
AcDbSpline
70
4
71
3
72
12
73
8
40
0
40
0
40
0
40
0
40
0.377026290846268
40
0.377026290846268
40
0.761056372063255
40
0.761056372063255
40
1
40
1
40
1
40
1
41
1
10
42.104945156993
20
1.98716869380789
30
9E-16
41
1
10
42.0660804507938
20
1.99365471146541
30
9E-16
41
1
10
42.0261838159082
20
1.99409600555353
30
9E-16
41
1
10
41.9505711959405
20
1.98512531959347
30
9E-16
41
1
10
41.9139280970856
20
1.97557093640279
30
9E-16
41
1
10
41.8598683427594
20
1.95502169167349
30
9E-16
41
1
10
41.8401476885688
20
1.94582833196711
30
9E-16
41
1
10
41.8217737964083
20
1.93571235869922
30
9E-16
0
SPLINE
5
317
100
AcDbEntity
8
1
62
256
6
ByLayer
370
-1
48
1
60
0
100
AcDbSpline
70
4
71
3
72
18
73
14
40
0
40
0
40
0
40
0
40
0.213394464779724
40
0.213394464779724
40
0.389004322610662
40
0.389004322610662
40
0.566252444177967
40
0.566252444177967
40
0.721175490823058
40
0.721175490823058
40
0.92741643549918
40
0.92741643549918
40
1
40
1
40
1
40
1
41
1
10
41.5216479921637
20
2.03863331859745
30
8E-16
41
1
10
41.5374463645927
20
2.06478088828388
30
8E-16
41
1
10
41.5469093323409
20
2.09168172416915
30
8E-16
41
1
10
41.5488681656754
20
2.13677310460244
30
8E-16
41
1
10
41.5439684753156
20
2.15607623558358
30
8E-16
41
1
10
41.5210570111182
20
2.18755335318482
30
8E-16
41
1
10
41.5024419401492
20
2.19996761772893
30
8E-16
41
1
10
41.4574453658014
20
2.21406396052092
30
-9E-16
41
1
10
41.4318676578332
20
2.21715711193397
30
-9E-16
41
1
10
41.3670283109965
20
2.21762541418863
30
-9E-16
41
1
10
41.3250560297749
20
2.21297077062493
30
-9E-16
41
1
10
41.2664745240078
20
2.20294195409176
30
-9E-16
41
1
10
41.2508384397289
20
2.19994519056576
30
-9E-16
41
1
10
41.2350642916929
20
2.19665521428817
30
-9E-16
0
SPLINE
5
318
100
AcDbEntity
8
1
62
256
6
ByLayer
370
-1
48
1
60
0
100
AcDbSpline
70
4
71
3
72
8
73
4
40
0
40
0
40
0
40
0
40
1
40
1
40
1
40
1
41
1
10
41.5216479921637
20
2.03863331859745
30
8E-16
41
1
10
41.5170423069054
20
2.03101054120143
30
8E-16
41
1
10
41.5136741258101
20
2.0231872293038
30
8E-16
41
1
10
41.5117038545855
20
2.0153575632082
30
8E-16
0
SPLINE
5
319
100
AcDbEntity
8
1
62
256
6
ByLayer
370
-1
48
1
60
0
100
AcDbSpline
70
4
71
3
72
12
73
8
40
0
40
0
40
0
40
0
40
0.401238823523995
40
0.401238823523995
40
0.765116117951707
40
0.765116117951707
40
1
40
1
40
1
40
1
41
1
10
41.5096741418662
20
1.99954185179274
30
8E-16
41
1
10
41.5096599289009
20
1.98648871997031
30
8E-16
41
1
10
41.5139790147686
20
1.97338745742445
30
8E-16
41
1
10
41.5306090871266
20
1.95066411423827
30
8E-16
41
1
10
41.5424234000719
20
1.94049301972115
30
8E-16
41
1
10
41.5667574075471
20
1.92649749981288
30
8E-16
41
1
10
41.5777117522163
20
1.92158889983753
30
9E-16
41
1
10
41.5895565373434
20
1.91750852453336
30
9E-16
0
SPLINE
5
31A
100
AcDbEntity
8
1
62
256
6
ByLayer
370
-1
48
1
60
0
100
AcDbSpline
70
4
71
3
72
18
73
14
40
0
40
0
40
0
40
0
40
0.213394464779723
40
0.213394464779723
40
0.389004322610662
40
0.389004322610662
40
0.566252444177968
40
0.566252444177968
40
0.721175490823058
40
0.721175490823058
40
0.927416435499176
40
0.927416435499176
40
1
40
1
40
1
40
1
41
1
10
32.6626933850501
20
10.855072378353
30
3E-16
41
1
10
32.678491757479
20
10.8985634392884
30
3E-16
41
1
10
32.6879547252273
20
10.9444487297969
30
3E-16
41
1
10
32.6899135585618
20
11.0259523427341
30
3E-16
41
1
10
32.685013868202
20
11.0627988309101
30
3E-16
41
1
10
32.6621024040046
20
11.1296989607014
30
3E-16
41
1
10
32.6434873330356
20
11.1605375640687
30
3E-16
41
1
10
32.5984907586878
20
11.2068871305453
30
3E-16
41
1
10
32.5729130507195
20
11.2244734227424
30
3E-16
41
1
10
32.5080737038829
20
11.2549453216224
30
3E-16
41
1
10
32.4661014226613
20
11.2650816641405
30
3E-16
41
1
10
32.4075199168942
20
11.2707485702432
30
3E-16
41
1
10
32.3918838326152
20
11.2715020036872
30
3E-16
41
1
10
32.3761096845793
20
11.2715747098903
30
3E-16
0
SPLINE
5
31B
100
AcDbEntity
8
1
62
256
6
ByLayer
370
-1
48
1
60
0
100
AcDbSpline
70
4
71
3
72
14
73
10
40
0
40
0
40
0
40
0
40
0.283738489034224
40
0.283738489034224
40
0.570489531030756
40
0.570489531030756
40
0.830294403552152
40
0.830294403552152
40
1
40
1
40
1
40
1
41
1
10
32.9628119920601
20
11.9240235363762
30
3E-16
41
1
10
32.9455653906883
20
11.9298106679896
30
3E-16
41
1
10
32.9254484960093
20
11.9348986896734
30
3E-16
41
1
10
32.8820187605312
20
11.9423833239124
30
3E-16
41
1
10
32.8579881481926
20
11.9448472706915
30
3E-16
41
1
10
32.8122982410152
20
11.9459552261252
30
3E-16
41
1
10
32.7899398918802
20
11.9449326203321
30
3E-16
41
1
10
32.7556935016574
20
11.9405175323122
30
3E-16
41
1
10
32.7425928665408
20
11.9380437889253
30
3E-16
41
1
10
32.7305944987619
20
11.934945728059
30
3E-16
0
SPLINE
5
31C
100
AcDbEntity
8
1
62
256
6
ByLayer
370
-1
48
1
60
0
100
AcDbSpline
70
4
71
3
72
14
73
10
40
0
40
0
40
0
40
0
40
0.284519249123235
40
0.284519249123235
40
0.571733062184456
40
0.571733062184456
40
0.831996244286534
40
0.831996244286534
40
1
40
1
40
1
40
1
41
1
10
34.1242343062533
20
10.9743942659403
30
4E-16
41
1
10
34.1414398514814
20
10.96776677465
30
4E-16
41
1
10
34.1584276186903
20
10.9642708966339
30
4E-16
41
1
10
34.1889513167517
20
10.9646651832424
30
4E-16
41
1
10
34.2029037074061
20
10.9686623590702
30
4E-16
41
1
10
34.2235310488275
20
10.9834081306559
30
4E-16
41
1
10
34.2310484554138
20
10.9937358819356
30
4E-16
41
1
10
34.237977448721
20
11.0147563437404
30
4E-16
41
1
10
34.2393852358115
20
11.0241690027595
30
4E-16
41
1
10
34.2393851773827
20
11.0342981430178
30
4E-16
0
SPLINE
5
31D
100
AcDbEntity
8
1
62
256
6
ByLayer
370
-1
48
1
60
0
100
AcDbSpline
70
4
71
3
72
18
73
14
40
0
40
0
40
0
40
0
40
0.213393079737799
40
0.213393079737799
40
0.389003177496047
40
0.389003177496047
40
0.56625155526079
40
0.56625155526079
40
0.721174645896044
40
0.721174645896044
40
0.927415342089919
40
0.927415342089919
40
1
40
1
40
1
40
1
41
1
10
32.3761082067134
20
11.5277754686398
30
3E-16
41
1
10
32.4219766477584
20
11.5443588098771
30
3E-16
41
1
10
32.4671453440059
20
11.5651183775352
30
3E-16
41
1
10
32.5418207700919
20
11.6077590935254
30
3E-16
41
1
10
32.5734447046018
20
11.6292577345278
30
3E-16
41
1
10
32.6264992714335
20
11.6729599564204
30
3E-16
41
1
10
32.6484857355012
20
11.6957547804127
30
3E-16
41
1
10
32.6764258364381
20
11.7355133748064
30
3E-16
41
1
10
32.6844551549685
20
11.7533650169591
30
3E-16
41
1
10
32.6916916258778
20
11.7913846032288
30
3E-16
41
1
10
32.6874156589145
20
11.8111189702968
30
3E-16
41
1
10
32.6727947606579
20
11.8349900661704
30
3E-16
41
1
10
32.6681208764569
20
11.84103002173
30
3E-16
41
1
10
32.6626876641461
20
11.8468403065284
30
3E-16
0
SPLINE
5
31E
100
AcDbEntity
8
1
62
256
6
ByLayer
370
-1
48
1
60
0
100
AcDbSpline
70
4
71
3
72
16
73
12
40
0
40
0
40
0
40
0
40
0.0668638488454786
40
0.0668638488454786
40
0.290854271538574
40
0.290854271538574
40
0.517824973971258
40
0.517824973971258
40
0.759328674281157
40
0.759328674281157
40
1
40
1
40
1
40
1
41
1
10
33.7374482470725
20
11.7637810180573
30
4E-16
41
1
10
33.7327051224541
20
11.766618373682
30
4E-16
41
1
10
33.7278592249347
20
11.7694024889412
30
4E-16
41
1
10
33.7065989551682
20
11.7811332353577
30
4E-16
41
1
10
33.6892234004934
20
11.7894609133667
30
4E-16
41
1
10
33.6550284211935
20
11.8036350080415
30
4E-16
41
1
10
33.6377850719487
20
11.8096351658527
30
4E-16
41
1
10
33.6047050143518
20
11.8191091293349
30
4E-16
41
1
10
33.5886102651656
20
11.8225272414126
30
4E-16
41
1
10
33.5603782236978
20
11.8264321063512
30
4E-16
41
1
10
33.5479217788154
20
11.8269800564115
30
4E-16
41
1
10
33.5376807765614
20
11.8262960869296
30
4E-16
0
SPLINE
5
31F
100
AcDbEntity
8
1
62
256
6
ByLayer
370
-1
48
1
60
0
100
AcDbSpline
70
4
71
3
72
16
73
12
40
0
40
0
40
0
40
0
40
0.0668638488455273
40
0.0668638488455273
40
0.290854271538802
40
0.290854271538802
40
0.51782497397168
40
0.51782497397168
40
0.759328674281759
40
0.759328674281759
40
1
40
1
40
1
40
1
41
1
10
32.7306019302298
20
10.6466368449923
30
3E-16
41
1
10
32.7353450548481
20
10.6437994893676
30
3E-16
41
1
10
32.7402492475134
20
10.6411810074895
30
3E-16
41
1
10
32.7620120464273
20
10.6308780918201
30
3E-16
41
1
10
32.7804376269406
20
10.6255338411125
30
3E-16
41
1
10
32.8178959842343
20
10.6206319477907
30
3E-16
41
1
10
32.8374077055163
20
10.6210768914395
30
3E-16
41
1
10
32.8760972889132
20
10.6275412142398
30
3E-16
41
1
10
32.895660836144
20
10.6339789613313
30
3E-16
41
1
10
32.9315000375828
20
10.6516882395017
30
3E-16
41
1
10
32.9481717553981
20
10.6631170998098
30
3E-16
41
1
10
32.9628191892945
20
10.6763210168782
30
3E-16
0
SPLINE
5
320
100
AcDbEntity
8
1
62
256
6
ByLayer
370
-1
48
1
60
0
100
AcDbSpline
70
4
71
3
72
14
73
10
40
0
40
0
40
0
40
0
40
0.28452359731229
40
0.28452359731229
40
0.571736866218037
40
0.571736866218037
40
0.83199961628624
40
0.83199961628624
40
1
40
1
40
1
40
1
41
1
10
32.6626933850501
20
10.855072378353
30
3E-16
41
1
10
32.6549827058806
20
10.833845785606
30
3E-16
41
1
10
32.65074054048
20
10.8112819817067
30
3E-16
41
1
10
32.6506984698087
20
10.7666867069382
30
3E-16
41
1
10
32.6550174907429
20
10.74397350297
30
3E-16
41
1
10
32.671654480013
20
10.7044346652819
30
3E-16
41
1
10
32.6834687929583
20
10.6866737767393
30
3E-16
41
1
10
32.7078028004335
20
10.6622708173274
30
3E-16
41
1
10
32.7187571451027
20
10.6537224415998
30
3E-16
41
1
10
32.7306019302298
20
10.6466368449923
30
3E-16
0
SPLINE
5
321
100
AcDbEntity
8
1
62
256
6
ByLayer
370
-1
48
1
60
0
100
AcDbSpline
70
4
71
3
72
16
73
12
40
0
40
0
40
0
40
0
40
0.0650212293342816
40
0.0650212293342816
40
0.289691523269467
40
0.289691523269467
40
0.517236422326112
40
0.517236422326112
40
0.759263521180989
40
0.759263521180989
40
1
40
1
40
1
40
1
41
1
10
32.7305944987619
20
11.934945728059
30
3E-16
41
1
10
32.7259945149142
20
11.9337579806747
30
3E-16
41
1
10
32.7215348090908
20
11.9324750982807
30
3E-16
41
1
10
32.7025279881571
20
11.926409095204
30
3E-16
41
1
10
32.6896421896843
20
11.9205924225773
30
3E-16
41
1
10
32.6692868768378
20
11.9077054780797
30
3E-16
41
1
10
32.6616171495567
20
11.9004619012121
30
3E-16
41
1
10
32.651815084836
20
11.8852562683047
30
3E-16
41
1
10
32.6499240721507
20
11.8770925510919
30
3E-16
41
1
10
32.6521062083755
20
11.8614608518731
30
3E-16
41
1
10
32.656154823534
20
11.8538265353608
30
3E-16
41
1
10
32.6626876641461
20
11.8468403065284
30
3E-16
0
SPLINE
5
322
100
AcDbEntity
8
1
62
256
6
ByLayer
370
-1
48
1
60
0
100
AcDbSpline
70
4
71
3
72
14
73
10
40
0
40
0
40
0
40
0
40
0.283738489034222
40
0.283738489034222
40
0.570489531030767
40
0.570489531030767
40
0.830294403552167
40
0.830294403552167
40
1
40
1
40
1
40
1
41
1
10
33.5376879737959
20
10.5785935674317
30
4E-16
41
1
10
33.5497462651689
20
10.5580649455333
30
4E-16
41
1
10
33.5649294537512
20
10.5389588369372
30
4E-16
41
1
10
33.59970680893
20
10.5068902861333
30
4E-16
41
1
10
33.6199011735083
20
10.4935264491971
30
4E-16
41
1
10
33.6599931361488
20
10.4765131132013
30
4E-16
41
1
10
33.6803486163988
20
10.4718449888305
30
4E-16
41
1
10
33.7127351037829
20
10.4709755546006
30
4E-16
41
1
10
33.7254573107615
20
10.4723740741244
30
4E-16
41
1
10
33.7374556785403
20
10.4754721349907
30
4E-16
0
SPLINE
5
323
100
AcDbEntity
8
1
62
256
6
ByLayer
370
-1
48
1
60
0
100
AcDbSpline
70
4
71
3
72
16
73
12
40
0
40
0
40
0
40
0
40
0.0670553612811671
40
0.0670553612811671
40
0.29169790510429
40
0.29169790510429
40
0.519329228663793
40
0.519329228663793
40
0.761535715028728
40
0.761535715028728
40
1
40
1
40
1
40
1
41
1
10
34.2393851773827
20
11.0342981430178
30
4E-16
41
1
10
34.239385153987
20
11.0383539852132
30
4E-16
41
1
10
34.2391629097904
20
11.0425405328471
30
4E-16
41
1
10
34.2372490907029
20
11.0610905310213
30
4E-16
41
1
10
34.2332459057358
20
11.0767205145847
30
4E-16
41
1
10
34.2209691073106
20
11.1084021803618
30
4E-16
41
1
10
34.2124955902033
20
11.1248593461502
30
4E-16
41
1
10
34.1919571915589
20
11.1574877481594
30
4E-16
41
1
10
34.1794537935121
20
11.1739858558429
30
4E-16
41
1
10
34.1529328529744
20
11.2041387706701
30
4E-16
41
1
10
34.1386749147231
20
11.2181516689755
30
4E-16
41
1
10
34.1242328283875
20
11.2305950246898
30
4E-16
0
SPLINE
5
324
100
AcDbEntity
8
1
62
256
6
ByLayer
370
-1
48
1
60
0
100
AcDbSpline
70
4
71
3
72
18
73
14
40
0
40
0
40
0
40
0
40
0.213394464779719
40
0.213394464779719
40
0.389004322610662
40
0.389004322610662
40
0.566252444177968
40
0.566252444177968
40
0.721175490823054
40
0.721175490823054
40
0.927416435499174
40
0.927416435499174
40
1
40
1
40
1
40
1
41
1
10
33.8376491279167
20
11.6470973562271
30
4E-16
41
1
10
33.832466601233
20
11.6337689854461
30
4E-16
41
1
10
33.8330024761606
20
11.6162933008012
30
4E-16
41
1
10
33.845606124876
20
11.5761659139781
30
4E-16
41
1
10
33.8558244578747
20
11.5544312288378
30
4E-16
41
1
10
33.8847918811229
20
11.5047378313991
30
4E-16
41
1
10
33.9041046089813
20
11.4758814731676
30
4E-16
41
1
10
33.9456493955793
20
11.4197243786925
30
4E-16
41
1
10
33.9676822058765
20
11.392066006263
30
4E-16
41
1
10
34.0212973917569
20
11.3297030176583
30
4E-16
41
1
10
34.0545129900539
20
11.2946864046301
30
4E-16
41
1
10
34.1000358803384
20
11.2519161925736
30
4E-16
41
1
10
34.1121094361977
20
11.2410405848378
30
4E-16
41
1
10
34.1242328283874
20
11.2305950246898
30
4E-16
0
SPLINE
5
325
100
AcDbEntity
8
1
62
256
6
ByLayer
370
-1
48
1
60
0
100
AcDbSpline
70
4
71
3
72
16
73
12
40
0
40
0
40
0
40
0
40
0.0670553612811695
40
0.0670553612811695
40
0.291697905104265
40
0.291697905104265
40
0.51932922866379
40
0.51932922866379
40
0.761535715028733
40
0.761535715028733
40
1
40
1
40
1
40
1
41
1
10
32.2286649999196
20
11.3761197200318
30
3E-16
41
1
10
32.2286650233152
20
11.3720638778364
30
3E-16
41
1
10
32.2289455572201
20
11.3680429481336
30
3E-16
41
1
10
32.2313618768349
20
11.3509206993891
30
3E-16
41
1
10
32.2364150702679
20
11.3382740937662
30
3E-16
41
1
10
32.2519552141334
20
11.315864536848
30
3E-16
41
1
10
32.2626970868458
20
11.3058524258316
30
3E-16
41
1
10
32.2888449789617
20
11.2891622182499
30
3E-16
41
1
10
32.3048171583921
20
11.282519922397
30
3E-16
41
1
10
32.3389004191877
20
11.2738537480764
30
3E-16
41
1
10
32.3573186066169
20
11.2716613217268
30
3E-16
41
1
10
32.3761096845793
20
11.2715747098903
30
3E-16
0
SPLINE
5
326
100
AcDbEntity
8
1
62
256
6
ByLayer
370
-1
48
1
60
0
100
AcDbSpline
70
4
71
3
72
12
73
8
40
0
40
0
40
0
40
0
40
0.464390992172105
40
0.464390992172105
40
0.846401077319351
40
0.846401077319351
40
1
40
1
40
1
40
1
41
1
10
32.9628119920601
20
11.9240235363762
30
3E-16
41
1
10
32.9981967560174
20
11.9121501079993
30
3E-16
41
1
10
33.0389312440577
20
11.9011884401827
30
3E-16
41
1
10
33.1190126099002
20
11.8829563988598
30
3E-16
41
1
10
33.1582414347915
20
11.8751443880204
30
3E-16
41
1
10
33.2137345923436
20
11.864882245476
30
3E-16
41
1
10
33.2299270277782
20
11.8619779593115
30
3E-16
41
1
10
33.2459843495988
20
11.8591677866817
30
3E-16
0
SPLINE
5
327
100
AcDbEntity
8
1
62
256
6
ByLayer
370
-1
48
1
60
0
100
AcDbSpline
70
4
71
3
72
12
73
8
40
0
40
0
40
0
40
0
40
0.464390992171655
40
0.464390992171655
40
0.846401077318514
40
0.846401077318514
40
1
40
1
40
1
40
1
41
1
10
33.5376879737959
20
10.5785935674317
30
4E-16
41
1
10
33.5129480389669
20
10.6207120361422
30
4E-16
41
1
10
33.4822465094783
20
10.6601802428995
30
4E-16
41
1
10
33.4167933752243
20
10.7199753238044
30
4E-16
41
1
10
33.3829156858456
20
10.7429914593377
30
3E-16
41
1
10
33.3317136254109
20
10.7654458507036
30
3E-16
41
1
10
33.3163966031268
20
10.7708374389867
30
3E-16
41
1
10
33.3008071628839
20
10.774976998591
30
3E-16
0
SPLINE
5
328
100
AcDbEntity
8
1
62
256
6
ByLayer
370
-1
48
1
60
0
100
AcDbSpline
70
4
71
3
72
14
73
10
40
0
40
0
40
0
40
0
40
0.284523597312292
40
0.284523597312292
40
0.57173686621804
40
0.57173686621804
40
0.831999616286239
40
0.831999616286239
40
1
40
1
40
1
40
1
41
1
10
33.8376491279167
20
11.6470973562271
30
4E-16
41
1
10
33.8401785530663
20
11.6536025067676
30
4E-16
41
1
10
33.8394962726452
20
11.6621745348758
30
4E-16
41
1
10
33.83091442234
20
11.6822667542521
30
4E-16
41
1
10
33.8227774498405
20
11.6941320528483
30
4E-16
41
1
10
33.8005766184267
20
11.717862404743
30
4E-16
41
1
10
33.786776054465
20
11.7299797792962
30
4E-16
41
1
10
33.7606160186362
20
11.7491944636743
30
4E-16
41
1
10
33.7492930321995
20
11.7566954214498
30
4E-16
41
1
10
33.7374482470725
20
11.7637810180573
30
4E-16
0
SPLINE
5
329
100
AcDbEntity
8
1
62
256
6
ByLayer
370
-1
48
1
60
0
100
AcDbSpline
70
4
71
3
72
12
73
8
40
0
40
0
40
0
40
0
40
0.377026290639696
40
0.377026290639696
40
0.761056371823062
40
0.761056371823062
40
1
40
1
40
1
40
1
41
1
10
33.3008009626033
20
11.8498489857298
30
3E-16
41
1
10
33.3385332202633
20
11.8436292000944
30
3E-16
41
1
10
33.3748170457132
20
11.8380613808612
30
3E-16
41
1
10
33.4398069158978
20
11.82970735177
30
4E-16
41
1
10
33.4693034824668
20
11.8268882642125
30
4E-16
41
1
10
33.5104488487047
20
11.8253287806812
30
4E-16
41
1
10
33.5248343576904
20
11.8254381085557
30
4E-16
41
1
10
33.5376807765614
20
11.8262960869296
30
4E-16
0
SPLINE
5
32A
100
AcDbEntity
8
1
62
256
6
ByLayer
370
-1
48
1
60
0
100
AcDbSpline
70
4
71
3
72
16
73
12
40
0
40
0
40
0
40
0
40
0.0650212293342979
40
0.0650212293342979
40
0.289691523269472
40
0.289691523269472
40
0.517236422326125
40
0.517236422326125
40
0.759263521180992
40
0.759263521180992
40
1
40
1
40
1
40
1
41
1
10
33.7374556785403
20
10.4754721349907
30
4E-16
41
1
10
33.742055662388
20
10.4766598823749
30
4E-16
41
1
10
33.746570189639
20
10.4780985283107
30
4E-16
41
1
10
33.7660610763272
20
10.4855399022924
30
4E-16
41
1
10
33.7799856281235
20
10.4943079737425
30
4E-16
41
1
10
33.8035832021756
20
10.5164071206862
30
4E-16
41
1
10
33.8135106442907
20
10.5300655188155
30
4E-16
41
1
10
33.8289012702152
20
10.5611498715201
30
4E-16
41
1
10
33.8342502766801
20
10.579138749858
30
4E-16
41
1
10
33.8396488125452
20
10.6163093324496
30
4E-16
41
1
10
33.8397979904648
20
10.6358707940037
30
4E-16
41
1
10
33.8376548488207
20
10.6553294280517
30
4E-16
0
SPLINE
5
32B
100
AcDbEntity
8
1
62
256
6
ByLayer
370
-1
48
1
60
0
100
AcDbSpline
70
4
71
3
72
18
73
14
40
0
40
0
40
0
40
0
40
0.213393079737795
40
0.213393079737795
40
0.38900317749604
40
0.38900317749604
40
0.566251555260788
40
0.566251555260788
40
0.72117464589604
40
0.72117464589604
40
0.927415342089917
40
0.927415342089917
40
1
40
1
40
1
40
1
41
1
10
34.1242343062533
20
10.9743942659403
30
4E-16
41
1
10
34.0889816418955
20
10.9879734186433
30
4E-16
41
1
10
34.0538117256848
20
10.9956232788733
30
4E-16
41
1
10
33.9936987855797
20
10.9943588001664
30
4E-16
41
1
10
33.9673935280351
20
10.9879720597305
30
4E-16
41
1
10
33.9203949873445
20
10.9614767608138
30
4E-16
41
1
10
33.8991062128362
20
10.9406642747818
30
4E-16
41
1
10
33.8677143674831
20
10.891098275513
30
4E-16
41
1
10
33.8561401691742
20
10.8631746039658
30
4E-16
41
1
10
33.8376795771262
20
10.7932640411048
30
4E-16
41
1
10
33.8331988868982
20
10.7486494766425
30
4E-16
41
1
10
33.834761144339
20
10.6876750028359
30
4E-16
41
1
10
33.835872447526
20
10.6715127235489
30
4E-16
41
1
10
33.8376548488207
20
10.6553294280517
30
4E-16
0
SPLINE
5
32C
100
AcDbEntity
8
1
62
256
6
ByLayer
370
-1
48
1
60
0
100
AcDbSpline
70
4
71
3
72
12
73
8
40
0
40
0
40
0
40
0
40
0.377026290846267
40
0.377026290846267
40
0.761056372063252
40
0.761056372063252
40
1
40
1
40
1
40
1
41
1
10
33.2459905498794
20
10.7842957995429
30
3E-16
41
1
10
33.2071258436802
20
10.7872979711921
30
3E-16
41
1
10
33.1672292087946
20
10.7826007532719
30
3E-16
41
1
10
33.0916165888269
20
10.7607724758749
30
3E-16
41
1
10
33.054973489972
20
10.743286196882
30
3E-16
41
1
10
33.0009137356457
20
10.708152166163
30
3E-16
41
1
10
32.9811930814552
20
10.6928841466407
30
3E-16
41
1
10
32.9628191892946
20
10.6763210168783
30
3E-16
0
SPLINE
5
32D
100
AcDbEntity
8
1
62
256
6
ByLayer
370
-1
48
1
60
0
100
AcDbSpline
70
4
71
3
72
14
73
10
40
0
40
0
40
0
40
0
40
0.284519249123233
40
0.284519249123233
40
0.571733062184463
40
0.571733062184463
40
0.831996244286531
40
0.831996244286531
40
1
40
1
40
1
40
1
41
1
10
32.3761082067134
20
11.5277754686398
30
3E-16
41
1
10
32.3537214864097
20
11.5196817420268
30
3E-16
41
1
10
32.3318093455565
20
11.5091860493287
30
3E-16
41
1
10
32.2926617487655
20
11.4842887705381
30
3E-16
41
1
10
32.2748913783343
20
11.4694436091813
30
3E-16
41
1
10
32.2487001422131
20
11.4388892024752
30
3E-16
41
1
10
32.2391964590088
20
11.4229178644642
30
3E-16
41
1
10
32.2304413853297
20
11.3967089798268
30
3E-16
41
1
10
32.2286649414907
20
11.3862488602901
30
3E-16
41
1
10
32.2286649999196
20
11.3761197200318
30
3E-16
0
SPLINE
5
32E
100
AcDbEntity
8
1
62
256
6
ByLayer
370
-1
48
1
60
0
100
AcDbSpline
70
4
71
3
72
16
73
12
40
0
40
0
40
0
40
0
40
0.0670553612811669
40
0.0670553612811669
40
0.291697905104299
40
0.291697905104299
40
0.519329228663799
40
0.519329228663799
40
0.761535715028721
40
0.761535715028721
40
1
40
1
40
1
40
1
41
1
10
25.3804305702691
20
16.1544108411819
30
-1E-16
41
1
10
25.3804305468734
20
16.1599958092211
30
-1E-16
41
1
10
25.3802083026768
20
16.1656132571747
30
-1E-16
41
1
10
25.3782944835893
20
16.1898857449714
30
-1E-16
41
1
10
25.3742912986222
20
16.2087514157695
30
-1E-16
41
1
10
25.362014500197
20
16.2441524793713
30
-1E-16
41
1
10
25.3535409830897
20
16.2611089712349
30
-1E-16
41
1
10
25.3330025844452
20
16.2920130776582
30
-1E-16
41
1
10
25.3204991863985
20
16.3060974031633
30
-1E-16
41
1
10
25.2939782458608
20
16.3289431125648
30
-1E-16
41
1
10
25.2797203076095
20
16.3380315641811
30
-1E-16
41
1
10
25.2652782212738
20
16.344588049789
30
-1E-16
0
SPLINE
5
32F
100
AcDbEntity
8
1
62
256
6
ByLayer
370
-1
48
1
60
0
100
AcDbSpline
70
4
71
3
72
16
73
12
40
0
40
0
40
0
40
0
40
0.0650212293342834
40
0.0650212293342834
40
0.289691523269459
40
0.289691523269459
40
0.517236422326118
40
0.517236422326118
40
0.759263521180977
40
0.759263521180977
40
1
40
1
40
1
40
1
41
1
10
24.8785010714267
20
15.2846398442217
30
-2E-16
41
1
10
24.8831010552744
20
15.2871942091622
30
-2E-16
41
1
10
24.8876155825253
20
15.2899800154555
30
-2E-16
41
1
10
24.9071064692136
20
15.3032637632061
30
-2E-16
41
1
10
24.9210310210098
20
15.3162812973525
30
-2E-16
41
1
10
24.9446285950619
20
15.3456899970176
30
-2E-16
41
1
10
24.9545560371771
20
15.3624868162528
30
-2E-16
41
1
10
24.9699466631016
20
15.3984783334199
30
-2E-16
41
1
10
24.9752956695665
20
15.4182004529233
30
-2E-16
41
1
10
24.9806942054316
20
15.457052848273
30
-2E-16
41
1
10
24.9808433833512
20
15.4765930800934
30
-2E-16
41
1
10
24.978700241707
20
15.4951943523172
30
-2E-16
0
SPLINE
5
330
100
AcDbEntity
8
1
62
256
6
ByLayer
370
-1
48
1
60
0
100
AcDbSpline
70
4
71
3
72
18
73
14
40
0
40
0
40
0
40
0
40
0.213393079737809
40
0.213393079737809
40
0.389003177496054
40
0.389003177496054
40
0.566251555260799
40
0.566251555260799
40
0.721174645896048
40
0.721174645896048
40
0.927415342089919
40
0.927415342089919
40
1
40
1
40
1
40
1
41
1
10
23.5171535995998
20
16.4046358186585
30
2E-16
41
1
10
23.5630220406448
20
16.4178535325425
30
2E-16
41
1
10
23.6081907368923
20
16.4377737147767
30
2E-16
41
1
10
23.6828661629783
20
16.48564502824
30
2E-16
41
1
10
23.7144900974881
20
16.5121567602489
30
2E-16
41
1
10
23.7675446643199
20
16.572219464075
30
2E-16
41
1
10
23.7895311283876
20
16.6067657719864
30
2E-16
41
1
10
23.8174712293245
20
16.6732012393964
30
2E-16
41
1
10
23.8255005478549
20
16.7056581359278
30
2E-16
41
1
10
23.8327370187642
20
16.7793132178088
30
2E-16
41
1
10
23.8284610518009
20
16.8211246253456
30
2E-16
41
1
10
23.8138401535442
20
16.8741764535159
30
2E-16
41
1
10
23.8091662693433
20
16.8878623705683
30
2E-16
41
1
10
23.8037330570324
20
16.9012364388141
30
2E-16
0
SPLINE
5
331
100
AcDbEntity
8
1
62
256
6
ByLayer
370
-1
48
1
60
0
100
AcDbSpline
70
4
71
3
72
12
73
8
40
0
40
0
40
0
40
0
40
0.377026290639685
40
0.377026290639685
40
0.761056371823073
40
0.761056371823073
40
1
40
1
40
1
40
1
41
1
10
24.4418463554896
20
16.9506677731542
30
-2E-16
41
1
10
24.4795786131497
20
16.9516431074252
30
-2E-16
41
1
10
24.5158624385996
20
16.9576147617211
30
-2E-16
41
1
10
24.5808523087842
20
16.9778844611812
30
-2E-16
41
1
10
24.6103488753532
20
16.9925367711503
30
-2E-16
41
1
10
24.6514942415911
20
17.0214539265738
30
-2E-16
41
1
10
24.6658797505768
20
17.0339159743737
30
-2E-16
41
1
10
24.6787261694478
20
17.0474417425869
30
-2E-16
0
SPLINE
5
332
100
AcDbEntity
8
1
62
256
6
ByLayer
370
-1
48
1
60
0
100
AcDbSpline
70
4
71
3
72
18
73
14
40
0
40
0
40
0
40
0
40
0.21339446477972
40
0.21339446477972
40
0.389004322610661
40
0.389004322610661
40
0.566252444177966
40
0.566252444177966
40
0.721175490823062
40
0.721175490823062
40
0.927416435499172
40
0.927416435499172
40
1
40
1
40
1
40
1
41
1
10
23.8037387779365
20
15.5355540689715
30
2E-16
41
1
10
23.8195371503654
20
15.579817826628
30
2E-16
41
1
10
23.8290001181136
20
15.6272045372116
30
2E-16
41
1
10
23.8309589514481
20
15.7140661937179
30
2E-16
41
1
10
23.8260592610884
20
15.7544169337758
30
2E-16
41
1
10
23.803147796891
20
15.8312500490525
30
2E-16
41
1
10
23.784532725922
20
15.8687629867838
30
2E-16
41
1
10
23.7395361515742
20
15.9297058457769
30
2E-16
41
1
10
23.7139584436059
20
15.9550846182491
30
2E-16
41
1
10
23.6491190967693
20
16.0039498296096
30
2E-16
41
1
10
23.6071468155477
20
16.0250150484904
30
2E-16
41
1
10
23.5485653097805
20
16.044218494753
30
2E-16
41
1
10
23.5329292255016
20
16.0484350548927
30
2E-16
41
1
10
23.5171550774657
20
16.0518427413424
30
2E-16
0
SPLINE
5
333
100
AcDbEntity
8
1
62
256
6
ByLayer
370
-1
48
1
60
0
100
AcDbSpline
70
4
71
3
72
14
73
10
40
0
40
0
40
0
40
0
40
0.283738489034258
40
0.283738489034258
40
0.570489531030766
40
0.570489531030766
40
0.830294403552166
40
0.830294403552166
40
1
40
1
40
1
40
1
41
1
10
24.1038573849465
20
17.0671883827715
30
-2E-16
41
1
10
24.0866107835747
20
17.0808908294602
30
-2E-16
41
1
10
24.0664938888957
20
17.0926068626095
30
-2E-16
41
1
10
24.0230641534176
20
17.1095449963274
30
2E-16
41
1
10
23.9990335410789
20
17.11492444029
30
2E-16
41
1
10
23.9533436339015
20
17.117226884913
30
2E-16
41
1
10
23.9309852847666
20
17.1148959764847
30
2E-16
41
1
10
23.8967388945438
20
17.1052660904002
30
2E-16
41
1
10
23.8836382594272
20
17.0999123952455
30
2E-16
41
1
10
23.8716398916483
20
17.0932497175031
30
2E-16
0
SPLINE
5
334
100
AcDbEntity
8
1
62
256
6
ByLayer
370
-1
48
1
60
0
100
AcDbSpline
70
4
71
3
72
16
73
12
40
0
40
0
40
0
40
0
40
0.0668638488455313
40
0.0668638488455313
40
0.290854271538818
40
0.290854271538818
40
0.517824973971684
40
0.517824973971684
40
0.759328674281751
40
0.759328674281751
40
1
40
1
40
1
40
1
41
1
10
23.8716473231162
20
15.3192250908422
30
2E-16
41
1
10
23.8763904477345
20
15.3162654028689
30
2E-16
41
1
10
23.8812946403998
20
15.3135361538589
30
2E-16
41
1
10
23.9030574393136
20
15.3028068091989
30
2E-16
41
1
10
23.921483019827
20
15.2972705111091
30
2E-16
41
1
10
23.9589413771206
20
15.2922294950416
30
2E-16
41
1
10
23.9784530984027
20
15.2927266716367
30
2E-16
41
1
10
24.0171426817996
20
15.2994326473192
30
2E-16
41
1
10
24.0367062290303
20
15.3060687768018
30
2E-16
41
1
10
24.0725454304691
20
15.3241560291826
30
-2E-16
41
1
10
24.0892171482844
20
15.3357668494983
30
-2E-16
41
1
10
24.1038645821809
20
15.3490794529725
30
-2E-16
0
SPLINE
5
335
100
AcDbEntity
8
1
62
256
6
ByLayer
370
-1
48
1
60
0
100
AcDbSpline
70
4
71
3
72
14
73
10
40
0
40
0
40
0
40
0
40
0.283738489034214
40
0.283738489034214
40
0.570489531030749
40
0.570489531030749
40
0.830294403552163
40
0.830294403552163
40
1
40
1
40
1
40
1
41
1
10
24.6787333666823
20
15.3293328127881
30
-2E-16
41
1
10
24.6907916580553
20
15.3126514039419
30
-2E-16
41
1
10
24.7059748466376
20
15.2981025940769
30
-2E-16
41
1
10
24.7407522018163
20
15.2761965394967
30
-2E-16
41
1
10
24.7609465663947
20
15.2686144443997
30
-2E-16
41
1
10
24.8010385290352
20
15.2630978385298
30
-2E-16
41
1
10
24.8213940092851
20
15.2642787635114
30
-2E-16
41
1
10
24.8537804966693
20
15.2728407526941
30
-2E-16
41
1
10
24.8665027036478
20
15.2779771664793
30
-2E-16
41
1
10
24.8785010714267
20
15.2846398442217
30
-2E-16
0
SPLINE
5
336
100
AcDbEntity
8
1
62
256
6
ByLayer
370
-1
48
1
60
0
100
AcDbSpline
70
4
71
3
72
14
73
10
40
0
40
0
40
0
40
0
40
0.28452359731229
40
0.28452359731229
40
0.571736866218042
40
0.571736866218042
40
0.83199961628625
40
0.83199961628625
40
1
40
1
40
1
40
1
41
1
10
23.8037387779365
20
15.5355540689715
30
2E-16
41
1
10
23.796028098767
20
15.5139503477237
30
2E-16
41
1
10
23.7917859333664
20
15.4907437672655
30
2E-16
41
1
10
23.791743862695
20
15.4445828952612
30
2E-16
41
1
10
23.7960628836293
20
15.4209231885869
30
2E-16
41
1
10
23.8126998728993
20
15.3796432415012
30
2E-16
41
1
10
23.8245141858447
20
15.3610597434611
30
2E-16
41
1
10
23.8488481933199
20
15.3355472650284
30
2E-16
41
1
10
23.8598025379891
20
15.3266161823502
30
2E-16
41
1
10
23.8716473231162
20
15.3192250908422
30
2E-16
0
SPLINE
5
337
100
AcDbEntity
8
1
62
256
6
ByLayer
370
-1
48
1
60
0
100
AcDbSpline
70
4
71
3
72
12
73
8
40
0
40
0
40
0
40
0
40
0.37702629084626
40
0.37702629084626
40
0.76105637206326
40
0.76105637206326
40
1
40
1
40
1
40
1
41
1
10
24.3870359427658
20
15.4724325523421
30
-2E-16
41
1
10
24.3481712365665
20
15.4708070022425
30
-2E-16
41
1
10
24.308274601681
20
15.4627609879781
30
-2E-16
41
1
10
24.2326619817133
20
15.4363920443207
30
-2E-16
41
1
10
24.1960188828584
20
15.4176364233934
30
-2E-16
41
1
10
24.1419591285321
20
15.3813042381317
30
-2E-16
41
1
10
24.1222384743415
20
15.3657789200834
30
-2E-16
41
1
10
24.103864582181
20
15.3490794529727
30
-2E-16
0
SPLINE
5
338
100
AcDbEntity
8
1
62
256
6
ByLayer
370
-1
48
1
60
0
100
AcDbSpline
70
4
71
3
72
16
73
12
40
0
40
0
40
0
40
0
40
0.0650212293343207
40
0.0650212293343207
40
0.289691523269481
40
0.289691523269481
40
0.517236422326125
40
0.517236422326125
40
0.759263521180994
40
0.759263521180994
40
1
40
1
40
1
40
1
41
1
10
23.8716398916483
20
17.0932497175031
30
2E-16
41
1
10
23.8670399078006
20
17.0906953525625
30
2E-16
41
1
10
23.8625802019772
20
17.0879410229848
30
2E-16
41
1
10
23.8435733810435
20
17.0749352103547
30
2E-16
41
1
10
23.8306875825707
20
17.0625140952431
30
2E-16
41
1
10
23.8103322697241
20
17.0349669985735
30
2E-16
41
1
10
23.8026625424431
20
17.0194664872024
30
2E-16
41
1
10
23.7928604777224
20
16.9866837436717
30
2E-16
41
1
10
23.7909694650371
20
16.9689470939285
30
2E-16
41
1
10
23.7931516012619
20
16.9344472787618
30
2E-16
41
1
10
23.7972002164204
20
16.9173172858685
30
2E-16
41
1
10
23.8037330570324
20
16.9012364388141
30
2E-16
0
SPLINE
5
339
100
AcDbEntity
8
1
62
256
6
ByLayer
370
-1
48
1
60
0
100
AcDbSpline
70
4
71
3
72
12
73
8
40
0
40
0
40
0
40
0
40
0.464390992172096
40
0.464390992172096
40
0.846401077319348
40
0.846401077319348
40
1
40
1
40
1
40
1
41
1
10
24.1038573849465
20
17.0671883827715
30
-2E-16
41
1
10
24.1392421489038
20
17.0390751428778
30
-2E-16
41
1
10
24.1799766369441
20
17.0143684090533
30
-2E-16
41
1
10
24.2600580027865
20
16.9793802560002
30
-2E-16
41
1
10
24.2992868276779
20
16.9669922587036
30
-2E-16
41
1
10
24.35477998523
20
16.9563543202421
30
-2E-16
41
1
10
24.3709724206645
20
16.9540407427244
30
-2E-16
41
1
10
24.3870297424851
20
16.952550714031
30
-2E-16
0
SPLINE
5
33A
100
AcDbEntity
8
1
62
256
6
ByLayer
370
-1
48
1
60
0
100
AcDbSpline
70
4
71
3
72
12
73
8
40
0
40
0
40
0
40
0
40
0.464390992171639
40
0.464390992171639
40
0.846401077318503
40
0.846401077318503
40
1
40
1
40
1
40
1
41
1
10
24.6787333666822
20
15.3293328127881
30
-2E-16
41
1
10
24.6539934318533
20
15.3635579741269
30
-2E-16
41
1
10
24.6232919023646
20
15.3940253128226
30
-2E-16
41
1
10
24.5578387681106
20
15.4374125299915
30
-2E-16
41
1
10
24.5239610787319
20
15.4528729786635
30
-2E-16
41
1
10
24.4727590182973
20
15.4659747282561
30
-2E-16
41
1
10
24.4574419960132
20
15.4687909400898
30
-2E-16
41
1
10
24.4418525557703
20
15.4705496114653
30
-2E-16
0
SPLINE
5
33B
100
AcDbEntity
8
1
62
256
6
ByLayer
370
-1
48
1
60
0
100
AcDbSpline
70
4
71
3
72
18
73
14
40
0
40
0
40
0
40
0
40
0.213394464779721
40
0.213394464779721
40
0.389004322610663
40
0.389004322610663
40
0.566252444177971
40
0.566252444177971
40
0.721175490823055
40
0.721175490823055
40
0.927416435499176
40
0.927416435499176
40
1
40
1
40
1
40
1
41
1
10
24.978694520803
20
16.8608767221598
30
-2E-16
41
1
10
24.9735119941194
20
16.8227082446142
30
-2E-16
41
1
10
24.974047869047
20
16.7810625506538
30
-2E-16
41
1
10
24.9866515177623
20
16.7025622069748
30
-2E-16
41
1
10
24.996869850761
20
16.6652652619203
30
-2E-16
41
1
10
25.0258372740092
20
16.5919092852193
30
-2E-16
41
1
10
25.0451500018677
20
16.5547969198272
30
-2E-16
41
1
10
25.0866947884657
20
16.4918721543781
30
-2E-16
41
1
10
25.1087275987629
20
16.4644580147022
30
-2E-16
41
1
10
25.1623427846433
20
16.4091482480345
30
-2E-16
41
1
10
25.1955583829402
20
16.3830552210499
30
-2E-16
41
1
10
25.2410812732248
20
16.356353934188
30
-1E-16
41
1
10
25.2531548290841
20
16.3500918838309
30
-1E-16
41
1
10
25.2652782212738
20
16.344588049789
30
-1E-16
0
SPLINE
5
33C
100
AcDbEntity
8
1
62
256
6
ByLayer
370
-1
48
1
60
0
100
AcDbSpline
70
4
71
3
72
16
73
12
40
0
40
0
40
0
40
0
40
0.0668638488454667
40
0.0668638488454667
40
0.290854271538549
40
0.290854271538549
40
0.517824973971245
40
0.517824973971245
40
0.759328674281135
40
0.759328674281135
40
1
40
1
40
1
40
1
41
1
10
24.8784936399588
20
17.0586644708825
30
-2E-16
41
1
10
24.8737505153405
20
17.0616241588559
30
-2E-16
41
1
10
24.8689046178211
20
17.0643868790797
30
-2E-16
41
1
10
24.8476443480545
20
17.0754047599516
30
-2E-16
41
1
10
24.8302687933798
20
17.0815439493949
30
-2E-16
41
1
10
24.7960738140799
20
17.0884586930443
30
-2E-16
41
1
10
24.778830464835
20
17.0892639433396
30
-2E-16
41
1
10
24.7457504072381
20
17.085778778496
30
-2E-16
41
1
10
24.729655658052
20
17.0811343222382
30
-2E-16
41
1
10
24.7014236165842
20
17.067414858537
30
-2E-16
41
1
10
24.6889671717018
20
17.0582243135235
30
-2E-16
41
1
10
24.6787261694477
20
17.0474417425869
30
-2E-16
0
SPLINE
5
33D
100
AcDbEntity
8
1
62
256
6
ByLayer
370
-1
48
1
60
0
100
AcDbSpline
70
4
71
3
72
14
73
10
40
0
40
0
40
0
40
0
40
0.284519249123223
40
0.284519249123223
40
0.571733062184462
40
0.571733062184462
40
0.831996244286531
40
0.831996244286531
40
1
40
1
40
1
40
1
41
1
10
25.2652796991397
20
15.9917949724728
30
-1E-16
41
1
10
25.2824852443677
20
15.9952711930895
30
-1E-16
41
1
10
25.2994730115767
20
16.0025619131756
30
-1E-16
41
1
10
25.3299967096381
20
16.0244577873346
30
-1E-16
41
1
10
25.3439491002925
20
16.0395030341453
30
-1E-16
41
1
10
25.3645764417139
20
16.0737711754687
30
-1E-16
41
1
10
25.3720938483002
20
16.0930080436235
30
-1E-16
41
1
10
25.3790228416074
20
16.1265680545172
30
-1E-16
41
1
10
25.3804306286979
20
16.1404628318953
30
-1E-16
41
1
10
25.3804305702691
20
16.1544108411819
30
-1E-16
0
SPLINE
5
33E
100
AcDbEntity
8
1
62
256
6
ByLayer
370
-1
48
1
60
0
100
AcDbSpline
70
4
71
3
72
14
73
10
40
0
40
0
40
0
40
0
40
0.284523597312286
40
0.284523597312286
40
0.571736866218025
40
0.571736866218025
40
0.831999616286225
40
0.831999616286225
40
1
40
1
40
1
40
1
41
1
10
24.978694520803
20
16.8608767221598
30
-2E-16
41
1
10
24.9812239459527
20
16.8795055325683
30
-2E-16
41
1
10
24.9805416655316
20
16.8998846532654
30
-2E-16
41
1
10
24.9719598152263
20
16.9410939448431
30
-2E-16
41
1
10
24.9638228427268
20
16.9625615054746
30
-2E-16
41
1
10
24.941622011313
20
17.0006468718202
30
-2E-16
41
1
10
24.9278214473514
20
17.018089927864
30
-2E-16
41
1
10
24.9016614115226
20
17.0425539590441
30
-2E-16
41
1
10
24.8903384250859
20
17.0512733793746
30
-2E-16
41
1
10
24.8784936399588
20
17.0586644708825
30
-2E-16
0
SPLINE
5
33F
100
AcDbEntity
8
1
62
256
6
ByLayer
370
-1
48
1
60
0
100
AcDbSpline
70
4
71
3
72
18
73
14
40
0
40
0
40
0
40
0
40
0.213393079737795
40
0.213393079737795
40
0.389003177496041
40
0.389003177496041
40
0.566251555260791
40
0.566251555260791
40
0.721174645896039
40
0.721174645896039
40
0.927415342089919
40
0.927415342089919
40
1
40
1
40
1
40
1
41
1
10
25.2652796991397
20
15.9917949724728
30
-1E-16
41
1
10
25.2300270347819
20
15.9846724990487
30
-2E-16
41
1
10
25.1948571185712
20
15.9704932974724
30
-2E-16
41
1
10
25.1347441784661
20
15.9309832990935
30
-2E-16
41
1
10
25.1084389209215
20
15.9075253817971
30
-2E-16
41
1
10
25.0614403802309
20
15.8509398550678
30
-2E-16
41
1
10
25.0401516057225
20
15.8167941382536
30
-2E-16
41
1
10
25.0087597603695
20
15.7483767892684
30
-2E-16
41
1
10
24.9971855620606
20
15.7138845358066
30
-2E-16
41
1
10
24.9787249700126
20
15.6337849214805
30
-2E-16
41
1
10
24.9742442797846
20
15.5869457206151
30
-2E-16
41
1
10
24.9758065372254
20
15.5263960372998
30
-2E-16
41
1
10
24.9769178404124
20
15.5106645998322
30
-2E-16
41
1
10
24.978700241707
20
15.4951943523173
30
-2E-16
0
SPLINE
5
340
100
AcDbEntity
8
1
62
256
6
ByLayer
370
-1
48
1
60
0
100
AcDbSpline
70
4
71
3
72
14
73
10
40
0
40
0
40
0
40
0
40
0.284519249123223
40
0.284519249123223
40
0.571733062184455
40
0.571733062184455
40
0.831996244286533
40
0.831996244286533
40
1
40
1
40
1
40
1
41
1
10
23.5171535995998
20
16.4046358186585
30
2E-16
41
1
10
23.494766879296
20
16.3981847325297
30
2E-16
41
1
10
23.4728547384428
20
16.3880665941246
30
2E-16
41
1
10
23.4337071416519
20
16.3612191523123
30
2E-16
41
1
10
23.4159367712207
20
16.3439817432609
30
2E-16
41
1
10
23.3897455350995
20
16.3065189910212
30
2E-16
41
1
10
23.3802418518951
20
16.2861416661704
30
2E-16
41
1
10
23.3714867782161
20
16.2515331781569
30
2E-16
41
1
10
23.3697103343771
20
16.2374267298295
30
2E-16
41
1
10
23.3697103928059
20
16.2234787205428
30
2E-16
0
SPLINE
5
341
100
AcDbEntity
8
1
62
256
6
ByLayer
370
-1
48
1
60
0
100
AcDbSpline
70
4
71
3
72
16
73
12
40
0
40
0
40
0
40
0
40
0.06705536128117
40
0.06705536128117
40
0.291697905104272
40
0.291697905104272
40
0.519329228663793
40
0.519329228663793
40
0.761535715028749
40
0.761535715028749
40
1
40
1
40
1
40
1
41
1
10
23.3697103928059
20
16.2234787205428
30
2E-16
41
1
10
23.3697104162016
20
16.2178937525036
30
2E-16
41
1
10
23.3699909501065
20
16.2123097726418
30
2E-16
41
1
10
23.3724072697213
20
16.1883258046243
30
2E-16
41
1
10
23.3774604631543
20
16.1700630152049
30
2E-16
41
1
10
23.3930006070197
20
16.1365356604938
30
2E-16
41
1
10
23.4037424797322
20
16.1208815860858
30
2E-16
41
1
10
23.429890371848
20
16.0931982719393
30
2E-16
41
1
10
23.4458625512784
20
16.0811056100929
30
2E-16
41
1
10
23.4799458120741
20
16.0626019438375
30
2E-16
41
1
10
23.4983639995033
20
16.055902174638
30
2E-16
41
1
10
23.5171550774656
20
16.0518427413424
30
2E-16
0
LINE
5
48
100
AcDbEntity
8
1
62
256
6
ByLayer
370
-1
48
1
60
0
100
AcDbLine
10
43.802593
20
1.677353
30
0
11
43.808618
21
1.703411
31
0
39
0
210
0
220
0
230
1
0
LINE
5
4A
100
AcDbEntity
8
81
62
256
6
ByLayer
370
-1
48
1
60
0
100
AcDbLine
10
56.7
20
19.92
30
0
11
66.7
21
19.92
31
0
39
0
210
0
220
0
230
1
0
LINE
5
4B
100
AcDbEntity
8
1
62
256
6
ByLayer
370
-1
48
1
60
0
100
AcDbLine
10
40.459992
20
2.533543
30
0
11
40.454092
21
2.508021
31
0
39
0
210
0
220
0
230
1
0
LINE
5
4C
100
AcDbEntity
8
1
62
256
6
ByLayer
370
-1
48
1
60
0
100
AcDbLine
10
32.682943
20
11.753164
30
0
11
32.74511
21
11.929798
31
0
39
0
210
0
220
0
230
1
0
LINE
5
4D
100
AcDbEntity
8
1
62
256
6
ByLayer
370
-1
48
1
60
0
100
AcDbLine
10
32.74809
20
11.938266
30
0
11
32.885214
21
12.327875
31
0
39
0
210
0
220
0
230
1
0
LINE
5
4E
100
AcDbEntity
8
1
62
256
6
ByLayer
370
-1
48
1
60
0
100
AcDbLine
10
34.022546
20
11.331886
30
0
11
33.85577
21
10.858028
31
0
39
0
210
0
220
0
230
1
0
LINE
5
4F
100
AcDbEntity
8
1
62
256
6
ByLayer
370
-1
48
1
60
0
100
AcDbLine
10
25.948754
20
15.469081
30
0
11
25.949806
21
15.47148
31
0
39
0
210
0
220
0
230
1
0
LINE
5
50
100
AcDbEntity
8
1
62
256
6
ByLayer
370
-1
48
1
60
0
100
AcDbLine
10
22.882985
20
16.953865
30
0
11
22.881663
21
16.95085
31
0
39
0
210
0
220
0
230
1
0
LINE
5
51
100
AcDbEntity
8
1
62
256
6
ByLayer
370
-1
48
1
60
0
100
AcDbLine
10
51.863945
20
17.969403
30
0
11
51.691427
21
18.04576
31
0
39
0
210
0
220
0
230
1
0
LINE
5
52
100
AcDbEntity
8
1
62
256
6
ByLayer
370
-1
48
1
60
0
100
AcDbLine
10
51.789058
20
16.697588
30
0
11
51.896851
21
16.649877
31
0
39
0
210
0
220
0
230
1
0
LINE
5
53
100
AcDbEntity
8
1
62
256
6
ByLayer
370
-1
48
1
60
0
100
AcDbLine
10
51.36034
20
15.605724
30
0
11
51.154111
21
15.697003
31
0
39
0
210
0
220
0
230
1
0
LINE
5
54
100
AcDbEntity
8
1
62
256
6
ByLayer
370
-1
48
1
60
0
100
AcDbLine
10
50.375861
20
16.160174
30
0
11
50.161706
21
16.25496
31
0
39
0
210
0
220
0
230
1
0
LINE
5
55
100
AcDbEntity
8
1
62
256
6
ByLayer
370
-1
48
1
60
0
100
AcDbLine
10
50.812505
20
17.248529
30
0
11
51.018734
21
17.157251
31
0
39
0
210
0
220
0
230
1
0
LINE
5
56
100
AcDbEntity
8
1
62
256
6
ByLayer
370
-1
48
1
60
0
100
AcDbLine
10
34.92083
20
10.807678
30
0
11
34.926098
21
10.829168
31
0
39
0
210
0
220
0
230
1
0
LINE
5
57
100
AcDbEntity
8
1
62
256
6
ByLayer
370
-1
48
1
60
0
100
AcDbLine
10
31.624603
20
11.816084
30
0
11
31.619355
21
11.794671
31
0
39
0
210
0
220
0
230
1
0
LINE
5
58
100
AcDbEntity
8
1
62
256
6
ByLayer
370
-1
48
1
60
0
100
AcDbLine
10
23.729986
20
17.807677
30
0
11
23.557469
21
17.708623
31
0
39
0
210
0
220
0
230
1
0
LINE
5
59
100
AcDbEntity
8
1
62
256
6
ByLayer
370
-1
48
1
60
0
100
AcDbLine
10
25.275323
20
14.716722
30
0
11
25.44784
21
14.815775
31
0
39
0
210
0
220
0
230
1
0
LINE
5
5A
100
AcDbEntity
8
1
62
256
6
ByLayer
370
-1
48
1
60
0
100
AcDbLine
10
24.612231
20
16.995445
30
0
11
24.771874
21
17.087107
31
0
39
0
210
0
220
0
230
1
0
LINE
5
5B
100
AcDbEntity
8
1
62
256
6
ByLayer
370
-1
48
1
60
0
100
AcDbLine
10
25.356124
20
16.061004
30
0
11
25.177542
21
15.958468
31
0
39
0
210
0
220
0
230
1
0
LINE
5
5C
100
AcDbEntity
8
1
62
256
6
ByLayer
370
-1
48
1
60
0
100
AcDbLine
10
23.628837
20
16.451712
30
0
11
23.83832
21
16.571991
31
0
39
0
210
0
220
0
230
1
0
LINE
5
5D
100
AcDbEntity
8
1
62
256
6
ByLayer
370
-1
48
1
60
0
100
AcDbLine
10
24.402552
20
15.534393
30
0
11
24.191988
21
15.413494
31
0
39
0
210
0
220
0
230
1
0
LINE
5
5E
100
AcDbEntity
8
1
62
256
6
ByLayer
370
-1
48
1
60
0
100
AcDbLine
10
42.723877
20
1.940339
30
0
11
42.696782
21
1.831258
31
0
39
0
210
0
220
0
230
1
0
LINE
5
5F
100
AcDbEntity
8
1
62
256
6
ByLayer
370
-1
48
1
60
0
100
AcDbLine
10
41.543666
20
2.0889
30
0
11
41.578887
21
2.230695
31
0
39
0
210
0
220
0
230
1
0
LINE
5
60
100
AcDbEntity
8
1
62
256
6
ByLayer
370
-1
48
1
60
0
100
AcDbLine
10
0.5
20
-18.583933
30
0
11
19.670233
21
-18.583933
31
0
39
0
210
0
220
0
230
1
0
LINE
5
61
100
AcDbEntity
8
1
62
256
6
ByLayer
370
-1
48
1
60
0
100
AcDbLine
10
17.239023
20
18.583933
30
0
11
0.5
21
18.583933
31
0
39
0
210
0
220
0
230
1
0
LINE
5
62
100
AcDbEntity
8
1
62
256
6
ByLayer
370
-1
48
1
60
0
100
AcDbLine
10
33.995839
20
19.173223
30
0
11
30.557141
21
19.081453
31
0
39
0
210
0
220
0
230
1
0
LINE
5
63
100
AcDbEntity
8
1
62
256
6
ByLayer
370
-1
48
1
60
0
100
AcDbLine
10
39.416096
20
-19.081453
30
0
11
46.54385
21
-19.271675
31
0
39
0
210
0
220
0
230
1
0
LINE
5
64
100
AcDbEntity
8
1
62
256
6
ByLayer
370
-1
48
1
60
0
100
AcDbLine
10
46.54385
20
-19.271675
30
0
11
48.27505
21
-19.081453
31
0
39
0
210
0
220
0
230
1
0
LINE
5
65
100
AcDbEntity
8
1
62
256
6
ByLayer
370
-1
48
1
60
0
100
AcDbLine
10
48.27505
20
-19.081453
30
0
11
55.294865
21
-19.276819
31
0
39
0
210
0
220
0
230
1
0
LINE
5
66
100
AcDbEntity
8
1
62
256
6
ByLayer
370
-1
48
1
60
0
100
AcDbLine
10
38.891766
20
-19.139065
30
0
11
39.416096
21
-19.081453
31
0
39
0
210
0
220
0
230
1
0
LINE
5
67
100
AcDbEntity
8
1
62
256
6
ByLayer
370
-1
48
1
60
0
100
AcDbLine
10
30.557141
20
19.081453
30
0
11
29.692109
21
19.176502
31
0
39
0
210
0
220
0
230
1
0
LINE
5
68
100
AcDbEntity
8
80
62
256
6
ByLayer
370
-1
48
1
60
0
100
AcDbLine
10
0
20
0
30
0
11
-10
21
0
31
0
39
0
210
0
220
0
230
1
0
LINE
5
69
100
AcDbEntity
8
1
62
256
6
ByLayer
370
-1
48
1
60
0
100
AcDbLine
10
0
20
5.1225
30
0
11
0
21
18.083933
31
0
39
0
210
0
220
0
230
1
0
LINE
5
6A
100
AcDbEntity
8
1
62
256
6
ByLayer
370
-1
48
1
60
0
100
AcDbLine
10
5.8
20
3.4225
30
0
11
5.8
21
-3.4225
31
0
39
0
210
0
220
0
230
1
0
LINE
5
6B
100
AcDbEntity
8
1
62
256
6
ByLayer
370
-1
48
1
60
0
100
AcDbLine
10
48.638879
20
3.69485
30
0
11
48.338391
21
3.763467
31
0
39
0
210
0
220
0
230
1
0
LINE
5
6C
100
AcDbEntity
8
1
62
256
6
ByLayer
370
-1
48
1
60
0
100
AcDbLine
10
55.294865
20
3.713452
30
0
11
55.294865
21
12.472782
31
0
39
0
210
0
220
0
230
1
0
LINE
5
6D
100
AcDbEntity
8
1
62
256
6
ByLayer
370
-1
48
1
60
0
100
AcDbLine
10
31.429649
20
-11.753209
30
0
11
31.456188
21
-11.517391
31
0
39
0
210
0
220
0
230
1
0
LINE
5
6E
100
AcDbEntity
8
1
62
256
6
ByLayer
370
-1
48
1
60
0
100
AcDbLine
10
46.54385
20
5.165444
30
0
11
46.54385
21
12.61518
31
0
39
0
210
0
220
0
230
1
0
LINE
5
6F
100
AcDbEntity
8
1
62
256
6
ByLayer
370
-1
48
1
60
0
100
AcDbLine
10
17.455503
20
18.564246
30
0
11
17.730879
21
14.541056
31
0
39
0
210
0
220
0
230
1
0
LINE
5
70
100
AcDbEntity
8
1
62
256
6
ByLayer
370
-1
48
1
60
0
100
AcDbLine
10
0.9
20
4.2225
30
0
11
0.5
21
4.6225
31
0
39
0
210
0
220
0
230
1
0
LINE
5
71
100
AcDbEntity
8
1
62
256
6
ByLayer
370
-1
48
1
60
0
100
AcDbLine
10
31.438053
20
-11.391837
30
0
11
31.379204
21
-11.914756
31
0
39
0
210
0
220
0
230
1
0
LINE
5
72
100
AcDbEntity
8
1
62
256
6
ByLayer
370
-1
48
1
60
0
100
AcDbLine
10
0.5
20
-18.583933
30
0
11
0.5
21
-4.6225
31
0
39
0
210
0
220
0
230
1
0
LINE
5
73
100
AcDbEntity
8
1
62
256
6
ByLayer
370
-1
48
1
60
0
100
AcDbLine
10
29.499529
20
-14.730364
30
0
11
28.9204
21
-16.963422
31
0
39
0
210
0
220
0
230
1
0
LINE
5
74
100
AcDbEntity
8
1
62
256
6
ByLayer
370
-1
48
1
60
0
100
AcDbLine
10
5
20
-4.2225
30
0
11
5.8
21
-3.4225
31
0
39
0
210
0
220
0
230
1
0
LINE
5
75
100
AcDbEntity
8
1
62
256
6
ByLayer
370
-1
48
1
60
0
100
AcDbLine
10
36.773403
20
-13.617509
30
0
11
37.358092
21
-12.959745
31
0
39
0
210
0
220
0
230
1
0
LINE
5
76
100
AcDbEntity
8
1
62
256
6
ByLayer
370
-1
48
1
60
0
100
AcDbLine
10
21.356192
20
12.986286
30
0
11
21.371979
21
12.755631
31
0
39
0
210
0
220
0
230
1
0
LINE
5
77
100
AcDbEntity
8
1
62
256
6
ByLayer
370
-1
48
1
60
0
100
AcDbLine
10
30.557141
20
-5.516549
30
0
11
30.557141
21
-10.520281
31
0
39
0
210
0
220
0
230
1
0
LINE
5
78
100
AcDbEntity
8
1
62
256
6
ByLayer
370
-1
48
1
60
0
100
AcDbLine
10
25.304807
20
12.442577
30
0
11
25.285198
21
12.431319
31
0
39
0
210
0
220
0
230
1
0
LINE
5
79
100
AcDbEntity
8
1
62
256
6
ByLayer
370
-1
48
1
60
0
100
AcDbLine
10
39.416096
20
-19.081453
30
0
11
39.416096
21
-18.894259
31
0
39
0
210
0
220
0
230
1
0
LINE
5
7A
100
AcDbEntity
8
1
62
256
6
ByLayer
370
-1
48
1
60
0
100
AcDbLine
10
46.54385
20
-19.271675
30
0
11
46.54385
21
-19.04794
31
0
39
0
210
0
220
0
230
1
0
LINE
5
7B
100
AcDbEntity
8
1
62
256
6
ByLayer
370
-1
48
1
60
0
100
AcDbLine
10
38.358483
20
6.764207
30
0
11
37.779354
21
7.314856
31
0
39
0
210
0
220
0
230
1
0
LINE
5
7C
100
AcDbEntity
8
1
62
256
6
ByLayer
370
-1
48
1
60
0
100
AcDbLine
10
56.117121
20
-18.477129
30
0
11
56.117121
21
-18.188293
31
0
39
0
210
0
220
0
230
1
0
LINE
5
7D
100
AcDbEntity
8
1
62
256
6
ByLayer
370
-1
48
1
60
0
100
AcDbLine
10
5.8
20
3.4225
30
0
11
5
21
4.2225
31
0
39
0
210
0
220
0
230
1
0
LINE
5
7E
100
AcDbEntity
8
1
62
256
6
ByLayer
370
-1
48
1
60
0
100
AcDbLine
10
55.294865
20
-19.276819
30
0
11
55.294865
21
-19.081249
31
0
39
0
210
0
220
0
230
1
0
LINE
5
7F
100
AcDbEntity
8
1
62
256
6
ByLayer
370
-1
48
1
60
0
100
AcDbLine
10
0.9
20
-4.2225
30
0
11
0.5
21
-4.6225
31
0
39
0
210
0
220
0
230
1
0
LINE
5
80
100
AcDbEntity
8
1
62
256
6
ByLayer
370
-1
48
1
60
0
100
AcDbLine
10
21.698186
20
6.259298
30
0
11
21.698186
21
-8.721664
31
0
39
0
210
0
220
0
230
1
0
LINE
5
81
100
AcDbEntity
8
1
62
256
6
ByLayer
370
-1
48
1
60
0
100
AcDbLine
10
48.232921
20
4.832353
30
0
11
48.638879
21
3.69485
31
0
39
0
210
0
220
0
230
1
0
LINE
5
82
100
AcDbEntity
8
1
62
256
6
ByLayer
370
-1
48
1
60
0
100
AcDbLine
10
40.25646
20
-18.154423
30
0
11
40.238159
21
-18.412205
31
0
39
0
210
0
220
0
230
1
0
LINE
5
83
100
AcDbEntity
8
1
62
256
6
ByLayer
370
-1
48
1
60
0
100
AcDbLine
10
29.794417
20
16.14006
30
0
11
29.827407
21
15.78526
31
0
39
0
210
0
220
0
230
1
0
LINE
5
84
100
AcDbEntity
8
1
62
256
6
ByLayer
370
-1
48
1
60
0
100
AcDbLine
10
47.772159
20
3.966086
30
0
11
47.839922
21
3.776213
31
0
39
0
210
0
220
0
230
1
0
LINE
5
85
100
AcDbEntity
8
1
62
256
6
ByLayer
370
-1
48
1
60
0
100
AcDbLine
10
39.416096
20
11.756157
30
0
11
39.416096
21
6.805242
31
0
39
0
210
0
220
0
230
1
0
LINE
5
86
100
AcDbEntity
8
1
62
256
6
ByLayer
370
-1
48
1
60
0
100
AcDbLine
10
38.351697
20
6.043954
30
0
11
38.106671
21
6.099907
31
0
39
0
210
0
220
0
230
1
0
LINE
5
87
100
AcDbEntity
8
1
62
256
6
ByLayer
370
-1
48
1
60
0
100
AcDbLine
10
55.294865
20
-6.696984
30
0
11
55.294865
21
2.397218
31
0
39
0
210
0
220
0
230
1
0
LINE
5
88
100
AcDbEntity
8
1
62
256
6
ByLayer
370
-1
48
1
60
0
100
AcDbLine
10
56.117124
20
-17.739387
30
0
11
56.117124
21
-11.479048
31
0
39
0
210
0
220
0
230
1
0
LINE
5
89
100
AcDbEntity
8
1
62
256
6
ByLayer
370
-1
48
1
60
0
100
AcDbLine
10
47.424657
20
4.939794
30
0
11
47.772159
21
3.966086
31
0
39
0
210
0
220
0
230
1
0
LINE
5
8A
100
AcDbEntity
8
1
62
256
6
ByLayer
370
-1
48
1
60
0
100
AcDbLine
10
19.903065
20
12.281579
30
0
11
19.815379
21
12.131335
31
0
39
0
210
0
220
0
230
1
0
LINE
5
8B
100
AcDbEntity
8
1
62
256
6
ByLayer
370
-1
48
1
60
0
100
AcDbLine
10
47.772159
20
3.966086
30
0
11
47.420517
21
4.046385
31
0
39
0
210
0
220
0
230
1
0
LINE
5
8C
100
AcDbEntity
8
1
62
256
6
ByLayer
370
-1
48
1
60
0
100
AcDbLine
10
16.943996
20
16.130395
30
0
11
16.708044
21
18.46234
31
0
39
0
210
0
220
0
230
1
0
LINE
5
8D
100
AcDbEntity
8
1
62
256
6
ByLayer
370
-1
48
1
60
0
100
AcDbLine
10
36.773396
20
-15.161686
30
0
11
36.773403
21
-13.617509
31
0
39
0
210
0
220
0
230
1
0
LINE
5
8E
100
AcDbEntity
8
1
62
256
6
ByLayer
370
-1
48
1
60
0
100
AcDbLine
10
38.447952
20
6.188822
30
0
11
38.353739
21
6.207113
31
0
39
0
210
0
220
0
230
1
0
LINE
5
8F
100
AcDbEntity
8
1
62
256
6
ByLayer
370
-1
48
1
60
0
100
AcDbLine
10
18.641561
20
-8.961211
30
0
11
17.229538
21
-9.32455
31
0
39
0
210
0
220
0
230
1
0
LINE
5
90
100
AcDbEntity
8
1
62
256
6
ByLayer
370
-1
48
1
60
0
100
AcDbLine
10
20.123136
20
12.040847
30
0
11
19.903065
21
12.281579
31
0
39
0
210
0
220
0
230
1
0
LINE
5
91
100
AcDbEntity
8
1
62
256
6
ByLayer
370
-1
48
1
60
0
100
AcDbLine
10
29.233663
20
15.410571
30
0
11
28.9204
21
16.38297
31
0
39
0
210
0
220
0
230
1
0
LINE
5
92
100
AcDbEntity
8
1
62
256
6
ByLayer
370
-1
48
1
60
0
100
AcDbLine
10
39.416096
20
17.860429
30
0
11
39.416096
21
14.742267
31
0
39
0
210
0
220
0
230
1
0
LINE
5
93
100
AcDbEntity
8
1
62
256
6
ByLayer
370
-1
48
1
60
0
100
AcDbLine
10
47.929108
20
4.910287
30
0
11
48.338391
21
3.763467
31
0
39
0
210
0
220
0
230
1
0
LINE
5
94
100
AcDbEntity
8
1
62
256
6
ByLayer
370
-1
48
1
60
0
100
AcDbLine
10
14.839439
20
-11.069215
30
0
11
14.31381
21
-11.483524
31
0
39
0
210
0
220
0
230
1
0
LINE
5
95
100
AcDbEntity
8
1
62
256
6
ByLayer
370
-1
48
1
60
0
100
AcDbLine
10
0.9
20
-4.2225
30
0
11
5
21
-4.2225
31
0
39
0
210
0
220
0
230
1
0
LINE
5
96
100
AcDbEntity
8
1
62
256
6
ByLayer
370
-1
48
1
60
0
100
AcDbLine
10
38.653372
20
6.997436
30
0
11
38.76865
21
6.674423
31
0
39
0
210
0
220
0
230
1
0
LINE
5
97
100
AcDbEntity
8
1
62
256
6
ByLayer
370
-1
48
1
60
0
100
AcDbLine
10
55.904505
20
-16.557659
30
0
11
55.904505
21
-10.948272
31
0
39
0
210
0
220
0
230
1
0
LINE
5
98
100
AcDbEntity
8
1
62
256
6
ByLayer
370
-1
48
1
60
0
100
AcDbLine
10
30.198025
20
-11.976809
30
0
11
30.135288
21
-12.218714
31
0
39
0
210
0
220
0
230
1
0
LINE
5
99
100
AcDbEntity
8
1
62
256
6
ByLayer
370
-1
48
1
60
0
100
AcDbLine
10
38.199654
20
7.20925
30
0
11
38.358483
21
6.764207
31
0
39
0
210
0
220
0
230
1
0
LINE
5
9A
100
AcDbEntity
8
1
62
256
6
ByLayer
370
-1
48
1
60
0
100
AcDbLine
10
18.641561
20
13.405763
30
0
11
16.967246
21
15.493013
31
0
39
0
210
0
220
0
230
1
0
LINE
5
9B
100
AcDbEntity
8
1
62
256
6
ByLayer
370
-1
48
1
60
0
100
AcDbLine
10
30.557141
20
-13.729321
30
0
11
30.557141
21
-17.024655
31
0
39
0
210
0
220
0
230
1
0
LINE
5
9C
100
AcDbEntity
8
1
62
256
6
ByLayer
370
-1
48
1
60
0
100
AcDbLine
10
39.070153
20
14.823947
30
0
11
39.366193
21
11.640104
31
0
39
0
210
0
220
0
230
1
0
LINE
5
9D
100
AcDbEntity
8
1
62
256
6
ByLayer
370
-1
48
1
60
0
100
AcDbLine
10
39.416096
20
-15.190502
30
0
11
39.416096
21
-17.862823
31
0
39
0
210
0
220
0
230
1
0
LINE
5
9E
100
AcDbEntity
8
1
62
256
6
ByLayer
370
-1
48
1
60
0
100
AcDbLine
10
16.967246
20
15.493013
30
0
11
16.871377
21
15.666959
31
0
39
0
210
0
220
0
230
1
0
LINE
5
9F
100
AcDbEntity
8
1
62
256
6
ByLayer
370
-1
48
1
60
0
100
AcDbLine
10
30.515012
20
19.051962
30
0
11
30.563314
21
18.34627
31
0
39
0
210
0
220
0
230
1
0
LINE
5
A0
100
AcDbEntity
8
1
62
256
6
ByLayer
370
-1
48
1
60
0
100
AcDbLine
10
39.373966
20
14.752658
30
0
11
39.609492
21
12.219631
31
0
39
0
210
0
220
0
230
1
0
LINE
5
A1
100
AcDbEntity
8
1
62
256
6
ByLayer
370
-1
48
1
60
0
100
AcDbLine
10
30.557141
20
18.34097
30
0
11
30.557141
21
15.975384
31
0
39
0
210
0
220
0
230
1
0
LINE
5
A2
100
AcDbEntity
8
1
62
256
6
ByLayer
370
-1
48
1
60
0
100
AcDbLine
10
30.198025
20
-11.976809
30
0
11
30.787521
21
-10.615272
31
0
39
0
210
0
220
0
230
1
0
LINE
5
A3
100
AcDbEntity
8
1
62
256
6
ByLayer
370
-1
48
1
60
0
100
AcDbLine
10
55.904505
20
12.471809
30
0
11
55.904505
21
13.220162
31
0
39
0
210
0
220
0
230
1
0
LINE
5
A4
100
AcDbEntity
8
1
62
256
6
ByLayer
370
-1
48
1
60
0
100
AcDbLine
10
23.874896
20
12.356365
30
0
11
23.915088
21
12.379441
31
0
39
0
210
0
220
0
230
1
0
LINE
5
A5
100
AcDbEntity
8
1
62
256
6
ByLayer
370
-1
48
1
60
0
100
AcDbLine
10
55.909102
20
-10.96073
30
0
11
55.909102
21
-16.572527
31
0
39
0
210
0
220
0
230
1
0
LINE
5
A6
100
AcDbEntity
8
1
62
256
6
ByLayer
370
-1
48
1
60
0
100
AcDbLine
10
37.684895
20
-13.700007
30
0
11
37.684895
21
-17.930591
31
0
39
0
210
0
220
0
230
1
0
LINE
5
A7
100
AcDbEntity
8
1
62
256
6
ByLayer
370
-1
48
1
60
0
100
AcDbLine
10
45.632358
20
-17.725253
30
0
11
46.217047
21
-18.542044
31
0
39
0
210
0
220
0
230
1
0
LINE
5
A8
100
AcDbEntity
8
1
62
256
6
ByLayer
370
-1
48
1
60
0
100
AcDbLine
10
0.5
20
18.583933
30
0
11
0.5
21
4.6225
31
0
39
0
210
0
220
0
230
1
0
LINE
5
A9
100
AcDbEntity
8
1
62
256
6
ByLayer
370
-1
48
1
60
0
100
AcDbLine
10
30.198025
20
-11.976809
30
0
11
30.153491
21
-11.96231
31
0
39
0
210
0
220
0
230
1
0
LINE
5
AA
100
AcDbEntity
8
1
62
256
6
ByLayer
370
-1
48
1
60
0
100
AcDbLine
10
24.637788
20
12.417948
30
0
11
25.304807
21
12.442577
31
0
39
0
210
0
220
0
230
1
0
LINE
5
AB
100
AcDbEntity
8
1
62
256
6
ByLayer
370
-1
48
1
60
0
100
AcDbLine
10
34.418177
20
18.777552
30
0
11
34.159485
21
18.042534
31
0
39
0
210
0
220
0
230
1
0
LINE
5
AC
100
AcDbEntity
8
1
62
256
6
ByLayer
370
-1
48
1
60
0
100
AcDbLine
10
27.914442
20
-5.311767
30
0
11
27.914448
21
-4.321274
31
0
39
0
210
0
220
0
230
1
0
LINE
5
AD
100
AcDbEntity
8
1
62
256
6
ByLayer
370
-1
48
1
60
0
100
AcDbLine
10
56.117124
20
13.469462
30
0
11
56.117124
21
12.439296
31
0
39
0
210
0
220
0
230
1
0
LINE
5
AE
100
AcDbEntity
8
1
62
256
6
ByLayer
370
-1
48
1
60
0
100
AcDbLine
10
5
20
4.2225
30
0
11
0.9
21
4.2225
31
0
39
0
210
0
220
0
230
1
0
LINE
5
AF
100
AcDbEntity
8
1
62
256
6
ByLayer
370
-1
48
1
60
0
100
AcDbLine
10
20.903644
20
13.005762
30
0
11
20.92103
21
12.751745
31
0
39
0
210
0
220
0
230
1
0
LINE
5
B0
100
AcDbEntity
8
1
62
256
6
ByLayer
370
-1
48
1
60
0
100
AcDbLine
10
55.909102
20
13.232785
30
0
11
55.909102
21
12.470692
31
0
39
0
210
0
220
0
230
1
0
LINE
5
B1
100
AcDbEntity
8
1
62
256
6
ByLayer
370
-1
48
1
60
0
100
AcDbLine
10
21.242667
20
-8.30759
30
0
11
21.242667
21
7.109193
31
0
39
0
210
0
220
0
230
1
0
LINE
5
B2
100
AcDbEntity
8
1
62
256
6
ByLayer
370
-1
48
1
60
0
100
AcDbLine
10
56.117121
20
-17.739442
30
0
11
56.117121
21
-18.188293
31
0
39
0
210
0
220
0
230
1
0
LINE
5
B3
100
AcDbEntity
8
1
62
256
6
ByLayer
370
-1
48
1
60
0
100
AcDbLine
10
18.840505
20
-7.940558
30
0
11
18.53402
21
-7.693292
31
0
39
0
210
0
220
0
230
1
0
LINE
5
B4
100
AcDbEntity
8
1
62
256
6
ByLayer
370
-1
48
1
60
0
100
AcDbLine
10
48.27505
20
-4.957808
30
0
11
48.27505
21
0.692059
31
0
39
0
210
0
220
0
230
1
0
LINE
5
B5
100
AcDbEntity
8
1
62
256
6
ByLayer
370
-1
48
1
60
0
100
AcDbLine
10
48.27505
20
-19.081453
30
0
11
48.27505
21
-18.860488
31
0
39
0
210
0
220
0
230
1
0
LINE
5
B6
100
AcDbEntity
8
1
62
256
6
ByLayer
370
-1
48
1
60
0
100
AcDbLine
10
45.632351
20
-19.234758
30
0
11
45.632358
21
-17.725253
31
0
39
0
210
0
220
0
230
1
0
LINE
5
B7
100
AcDbEntity
8
1
62
256
6
ByLayer
370
-1
48
1
60
0
100
AcDbLine
10
29.340699
20
16.293477
30
0
11
29.412326
21
15.523143
31
0
39
0
210
0
220
0
230
1
0
LINE
5
B8
100
AcDbEntity
8
1
62
256
6
ByLayer
370
-1
48
1
60
0
100
AcDbLine
10
56.117121
20
12.433932
30
0
11
56.117121
21
-6.534889
31
0
39
0
210
0
220
0
230
1
0
LINE
5
B9
100
AcDbEntity
8
1
62
256
6
ByLayer
370
-1
48
1
60
0
100
AcDbLine
10
20.92103
20
12.751745
30
0
11
19.380228
21
12.69485
31
0
39
0
210
0
220
0
230
1
0
LINE
5
BA
100
AcDbEntity
8
1
62
256
6
ByLayer
370
-1
48
1
60
0
100
AcDbLine
10
14.812185
20
18.46234
30
0
11
16.708044
21
18.46234
31
0
39
0
210
0
220
0
230
1
0
LINE
5
BB
100
AcDbEntity
8
1
62
256
6
ByLayer
370
-1
48
1
60
0
100
AcDbLine
10
16.967246
20
15.493013
30
0
11
14.31381
21
18.395553
31
0
39
0
210
0
220
0
230
1
0
LINE
5
BC
100
AcDbEntity
8
1
62
256
6
ByLayer
370
-1
48
1
60
0
100
AcDbLine
10
54.695627
20
-0.399611
30
0
11
54.695632
21
0.150859
31
0
39
0
210
0
220
0
230
1
0
LINE
5
BD
100
AcDbEntity
8
1
62
256
6
ByLayer
370
-1
48
1
60
0
100
AcDbLine
10
43.277132
20
12.892592
30
0
11
42.768105
21
10.843335
31
0
39
0
210
0
220
0
230
1
0
LINE
5
BE
100
AcDbEntity
8
1
62
256
6
ByLayer
370
-1
48
1
60
0
100
AcDbLine
10
35.80784
20
-14.249142
30
0
11
35.442694
21
-14.659925
31
0
39
0
210
0
220
0
230
1
0
LINE
5
BF
100
AcDbEntity
8
1
62
256
6
ByLayer
370
-1
48
1
60
0
100
AcDbLine
10
16.943996
20
16.130395
30
0
11
14.812185
21
18.46234
31
0
39
0
210
0
220
0
230
1
0
LINE
5
C0
100
AcDbEntity
8
1
62
256
6
ByLayer
370
-1
48
1
60
0
100
AcDbLine
10
30.211199
20
19.089445
30
0
11
30.277759
21
18.117021
31
0
39
0
210
0
220
0
230
1
0
LINE
5
C1
100
AcDbEntity
8
1
62
256
6
ByLayer
370
-1
48
1
60
0
100
AcDbLine
10
0
20
-18.083933
30
0
11
0
21
-5.1225
31
0
39
0
210
0
220
0
230
1
0
LINE
5
C2
100
AcDbEntity
8
1
62
256
6
ByLayer
370
-1
48
1
60
0
100
AcDbLine
10
38.565702
20
14.876899
30
0
11
38.737515
21
13.029092
31
0
39
0
210
0
220
0
230
1
0
LINE
5
C3
100
AcDbEntity
8
1
62
256
6
ByLayer
370
-1
48
1
60
0
100
AcDbLine
10
20.123136
20
12.326342
30
0
11
19.903065
21
12.281579
31
0
39
0
210
0
220
0
230
1
0
LINE
5
C4
100
AcDbEntity
8
1
62
256
6
ByLayer
370
-1
48
1
60
0
100
AcDbLine
10
18.983031
20
18.497822
30
0
11
19.13018
21
16.348002
31
0
39
0
210
0
220
0
230
1
0
LINE
5
C5
100
AcDbEntity
8
1
62
256
6
ByLayer
370
-1
48
1
60
0
100
AcDbLine
10
19.351909
20
13.108584
30
0
11
19.380228
21
12.69485
31
0
39
0
210
0
220
0
230
1
0
LINE
5
C6
100
AcDbEntity
8
1
62
256
6
ByLayer
370
-1
48
1
60
0
100
AcDbLine
10
47.189736
20
-2.348435
30
0
11
47.28994
21
-2.38225
31
0
39
0
210
0
220
0
230
1
0
LINE
5
C7
100
AcDbEntity
8
1
62
256
6
ByLayer
370
-1
48
1
60
0
100
AcDbLine
10
14.812185
20
-11.069218
30
0
11
16.708044
21
-11.069218
31
0
39
0
210
0
220
0
230
1
0
LINE
5
C8
100
AcDbEntity
8
1
62
256
6
ByLayer
370
-1
48
1
60
0
100
AcDbLine
10
38.913204
20
11.13959
30
0
11
38.958684
21
10.650467
31
0
39
0
210
0
220
0
230
1
0
LINE
5
C9
100
AcDbEntity
8
1
62
256
6
ByLayer
370
-1
48
1
60
0
100
AcDbLine
10
40.288604
20
-18.357285
30
0
11
40.297805
21
-18.22768
31
0
39
0
210
0
220
0
230
1
0
LINE
5
CA
100
AcDbEntity
8
1
62
256
6
ByLayer
370
-1
48
1
60
0
100
AcDbLine
10
54.695632
20
0.150859
30
0
11
55.266288
21
2.248856
31
0
39
0
210
0
220
0
230
1
0
LINE
5
CB
100
AcDbEntity
8
1
62
256
6
ByLayer
370
-1
48
1
60
0
100
AcDbLine
10
16.871377
20
15.666959
30
0
11
16.943996
21
16.130395
31
0
39
0
210
0
220
0
230
1
0
LINE
5
CC
100
AcDbEntity
8
1
62
256
6
ByLayer
370
-1
48
1
60
0
100
AcDbLine
10
30.557141
20
19.081453
30
0
11
30.557141
21
19.046697
31
0
39
0
210
0
220
0
230
1
0
LINE
5
CD
100
AcDbEntity
8
1
62
256
6
ByLayer
370
-1
48
1
60
0
100
AcDbLine
10
47.573611
20
12.934167
30
0
11
47.915934
21
13.034651
31
0
39
0
210
0
220
0
230
1
0
LINE
5
CE
100
AcDbEntity
8
1
62
256
6
ByLayer
370
-1
48
1
60
0
100
AcDbLine
10
37.684895
20
18.765777
30
0
11
37.684895
21
15.082365
31
0
39
0
210
0
220
0
230
1
0
LINE
5
CF
100
AcDbEntity
8
1
62
256
6
ByLayer
370
-1
48
1
60
0
100
AcDbLine
10
27.914448
20
-4.321274
30
0
11
28.499138
21
-2.439575
31
0
39
0
210
0
220
0
230
1
0
LINE
5
D0
100
AcDbEntity
8
1
62
256
6
ByLayer
370
-1
48
1
60
0
100
AcDbLine
10
48.27505
20
4.820796
30
0
11
48.27505
21
12.487859
31
0
39
0
210
0
220
0
230
1
0
LINE
5
D1
100
AcDbEntity
8
1
62
256
6
ByLayer
370
-1
48
1
60
0
100
AcDbLine
10
28.825941
20
-3.132151
30
0
11
28.825941
21
-10.367538
31
0
39
0
210
0
220
0
230
1
0
LINE
5
D2
100
AcDbEntity
8
1
62
256
6
ByLayer
370
-1
48
1
60
0
100
AcDbLine
10
51.35081
20
15.582388
30
0
11
51.255597
21
15.62453
31
0
39
0
210
0
220
0
230
1
0
LINE
5
D3
100
AcDbEntity
8
1
62
256
6
ByLayer
370
-1
48
1
60
0
100
AcDbLine
10
51.216942
20
17.125287
30
0
11
51.01871
21
17.213026
31
0
39
0
210
0
220
0
230
1
0
LINE
5
D4
100
AcDbEntity
8
1
62
256
6
ByLayer
370
-1
48
1
60
0
100
AcDbLine
10
50.963894
20
17.211574
30
0
11
51.162126
21
17.123835
31
0
39
0
210
0
220
0
230
1
0
LINE
5
D5
100
AcDbEntity
8
1
62
256
6
ByLayer
370
-1
48
1
60
0
100
AcDbLine
10
51.476968
20
17.251655
30
0
11
51.25559
21
17.349638
31
0
39
0
210
0
220
0
230
1
0
LINE
5
D6
100
AcDbEntity
8
1
62
256
6
ByLayer
370
-1
48
1
60
0
100
AcDbLine
10
50.602059
20
15.680304
30
0
11
50.380603
21
15.778322
31
0
39
0
210
0
220
0
230
1
0
LINE
5
D7
100
AcDbEntity
8
1
62
256
6
ByLayer
370
-1
48
1
60
0
100
AcDbLine
10
50.315474
20
16.535451
30
0
11
50.094017
21
16.63347
31
0
39
0
210
0
220
0
230
1
0
LINE
5
D8
100
AcDbEntity
8
1
62
256
6
ByLayer
370
-1
48
1
60
0
100
AcDbLine
10
50.602053
20
17.05155
30
0
11
50.380597
21
17.149568
31
0
39
0
210
0
220
0
230
1
0
LINE
5
D9
100
AcDbEntity
8
1
62
256
6
ByLayer
370
-1
48
1
60
0
100
AcDbLine
10
51.885257
20
16.660689
30
0
11
51.842142
21
16.679772
31
0
39
0
210
0
220
0
230
1
0
LINE
5
DA
100
AcDbEntity
8
1
62
256
6
ByLayer
370
-1
48
1
60
0
100
AcDbLine
10
42.455166
20
2.032845
30
0
11
42.396643
21
1.79724
31
0
39
0
210
0
220
0
230
1
0
LINE
5
DB
100
AcDbEntity
8
1
62
256
6
ByLayer
370
-1
48
1
60
0
100
AcDbLine
10
42.159762
20
1.973965
30
0
11
42.192863
21
2.107226
31
0
39
0
210
0
220
0
230
1
0
LINE
5
DC
100
AcDbEntity
8
1
62
256
6
ByLayer
370
-1
48
1
60
0
100
AcDbLine
10
41.249123
20
2.253255
30
0
11
41.235064
21
2.196655
31
0
39
0
210
0
220
0
230
1
0
LINE
5
DD
100
AcDbEntity
8
1
62
256
6
ByLayer
370
-1
48
1
60
0
100
AcDbLine
10
42.138214
20
2.121104
30
0
11
42.104945
21
1.987169
31
0
39
0
210
0
220
0
230
1
0
LINE
5
DE
100
AcDbEntity
8
1
62
256
6
ByLayer
370
-1
48
1
60
0
100
AcDbLine
10
42.993106
20
1.815497
30
0
11
42.983189
21
1.775573
31
0
39
0
210
0
220
0
230
1
0
LINE
5
DF
100
AcDbEntity
8
1
62
256
6
ByLayer
370
-1
48
1
60
0
100
AcDbLine
10
41.882193
20
2.178949
30
0
11
41.821774
21
1.935712
31
0
39
0
210
0
220
0
230
1
0
LINE
5
E0
100
AcDbEntity
8
1
62
256
6
ByLayer
370
-1
48
1
60
0
100
AcDbLine
10
33.444223
20
11.347531
30
0
11
33.245991
21
10.784296
31
0
39
0
210
0
220
0
230
1
0
LINE
5
E1
100
AcDbEntity
8
1
62
256
6
ByLayer
370
-1
48
1
60
0
100
AcDbLine
10
32.687681
20
11.917854
30
0
11
32.662688
21
11.84684
31
0
39
0
210
0
220
0
230
1
0
LINE
5
E2
100
AcDbEntity
8
1
62
256
6
ByLayer
370
-1
48
1
60
0
100
AcDbLine
10
32.483706
20
11.577288
30
0
11
32.37611
21
11.271575
31
0
39
0
210
0
220
0
230
1
0
LINE
5
E3
100
AcDbEntity
8
1
62
256
6
ByLayer
370
-1
48
1
60
0
100
AcDbLine
10
32.88415
20
11.484295
30
0
11
32.662693
21
10.855072
31
0
39
0
210
0
220
0
230
1
0
LINE
5
E4
100
AcDbEntity
8
1
62
256
6
ByLayer
370
-1
48
1
60
0
100
AcDbLine
10
33.759066
20
11.207592
30
0
11
33.537688
21
10.578594
31
0
39
0
210
0
220
0
230
1
0
LINE
5
E5
100
AcDbEntity
8
1
62
256
6
ByLayer
370
-1
48
1
60
0
100
AcDbLine
10
33.300807
20
10.774977
30
0
11
33.499039
21
11.338212
31
0
39
0
210
0
220
0
230
1
0
LINE
5
E6
100
AcDbEntity
8
1
62
256
6
ByLayer
370
-1
48
1
60
0
100
AcDbLine
10
34.189069
20
11.158609
30
0
11
34.124234
21
10.974394
31
0
39
0
210
0
220
0
230
1
0
LINE
5
E7
100
AcDbEntity
8
1
62
256
6
ByLayer
370
-1
48
1
60
0
100
AcDbLine
10
33.184197
20
11.30532
30
0
11
32.962819
21
10.676321
31
0
39
0
210
0
220
0
230
1
0
LINE
5
E8
100
AcDbEntity
8
1
62
256
6
ByLayer
370
-1
48
1
60
0
100
AcDbLine
10
24.585268
20
15.586251
30
0
11
24.387036
21
15.472433
31
0
39
0
210
0
220
0
230
1
0
LINE
5
E9
100
AcDbEntity
8
1
62
256
6
ByLayer
370
-1
48
1
60
0
100
AcDbLine
10
24.02519
20
17.02839
30
0
11
23.803733
21
16.901236
31
0
39
0
210
0
220
0
230
1
0
LINE
5
EA
100
AcDbEntity
8
1
62
256
6
ByLayer
370
-1
48
1
60
0
100
AcDbLine
10
24.734991
20
17.079747
30
0
11
24.678726
21
17.047442
31
0
39
0
210
0
220
0
230
1
0
LINE
5
EB
100
AcDbEntity
8
1
62
256
6
ByLayer
370
-1
48
1
60
0
100
AcDbLine
10
24.441853
20
15.47055
30
0
11
24.640085
21
15.584368
31
0
39
0
210
0
220
0
230
1
0
LINE
5
EC
100
AcDbEntity
8
1
62
256
6
ByLayer
370
-1
48
1
60
0
100
AcDbLine
10
25.327461
20
16.027497
30
0
11
25.26528
21
15.991795
31
0
39
0
210
0
220
0
230
1
0
LINE
5
ED
100
AcDbEntity
8
1
62
256
6
ByLayer
370
-1
48
1
60
0
100
AcDbLine
10
23.738612
20
16.178996
30
0
11
23.517155
21
16.051843
31
0
39
0
210
0
220
0
230
1
0
LINE
5
EE
100
AcDbEntity
8
1
62
256
6
ByLayer
370
-1
48
1
60
0
100
AcDbLine
10
24.025195
20
15.662707
30
0
11
23.803739
21
15.535554
31
0
39
0
210
0
220
0
230
1
0
LINE
5
EF
100
AcDbEntity
8
1
62
256
6
ByLayer
370
-1
48
1
60
0
100
AcDbLine
10
24.900111
20
15.456441
30
0
11
24.678733
21
15.329333
31
0
39
0
210
0
220
0
230
1
0
MTEXT
5
342
100
AcDbEntity
8
SK6
62
256
6
ByLayer
370
-1
48
1
60
0
100
AcDbMText
10
39.225
20
-35.645425
30
0
210
0
220
0
230
1
1
\W00.740;\fsimplex.shx,bigfont.shx;R390-040Q16-36M\P
40
3.5
41
0
44
1.084337
50
0
71
7
72
5
7
DEFAULT
0
DIMENSION
5
353
100
AcDbEntity
8
2
62
256
6
ByLayer
370
-3
48
1
60
0
100
AcDbDimension
2
DimnDraft3D1
10
0
20
39.75
30
0
11
22.047039
21
39.75
31
0
70
32
71
5
72
1
41
1
210
0
220
0
230
1
3
Standard
100
AcDbAlignedDimension
13
56.7
23
22
33
0
14
0
24
20.583932
34
0
50
0
100
AcDbRotatedDimension
1001
ACAD
1000
DSTYLE
1002
{
1070
   279
1070
     0
1070
   172
1070
     1
1070
   173
1070
     1
1070
   340
1005
343
1070
   271
1070
     2
1070
   272
1070
     2
1070
    77
1070
     1
1070
    73
1070
     0
1070
   171
1070
     4
1070
   274
1070
     4
1070
   177
1070
     2
1070
   176
1070
     2
1070
   178
1070
     7
1070
    78
1070
     8
1070
    41
1041
3.175
1070
   147
1041
2.25
1070
    42
1041
2.0
1070
    44
1041
2.0
1070
   140
1041
4.5
1070
   343
1005
354
1070
   344
1005
354
1002
}
0
DIMENSION
5
368
100
AcDbEntity
8
2
62
256
6
ByLayer
370
-3
48
1
60
0
100
AcDbDimension
2
DimnDraft3D2
10
20.060965
20
27.75
30
0
11
32.077522
21
27.75
31
0
70
32
71
5
72
1
41
1
210
0
220
0
230
1
3
Standard
100
AcDbAlignedDimension
13
56.7
23
22
33
0
14
20.060965
24
22
34
0
50
0
100
AcDbRotatedDimension
1001
ACAD
1000
DSTYLE
1002
{
1070
   279
1070
     0
1070
   172
1070
     1
1070
   173
1070
     1
1070
   340
1005
343
1070
   271
1070
     2
1070
   272
1070
     2
1070
    77
1070
     1
1070
    73
1070
     0
1070
   171
1070
     4
1070
   274
1070
     4
1070
   177
1070
     2
1070
   176
1070
     2
1070
   178
1070
     7
1070
    78
1070
     8
1070
    41
1041
3.175
1070
   147
1041
2.25
1070
    42
1041
2.0
1070
    44
1041
2.0
1070
   140
1041
4.5
1070
   343
1005
354
1070
   344
1005
354
1002
}
0
DIMENSION
5
377
100
AcDbEntity
8
SK2
62
256
6
ByLayer
370
-3
48
1
60
0
100
AcDbDimension
2
DimnDraft3D3
10
-7.75
20
-8
30
0
11
-7.75
21
-5.257895
31
0
70
32
71
5
72
1
41
1
210
0
220
0
230
1
3
Standard
100
AcDbAlignedDimension
13
-2
23
8
33
0
14
-2
24
-8
34
0
50
90
100
AcDbRotatedDimension
1001
ACAD
1000
DSTYLE
1002
{
1070
    74
1070
     0
1070
   279
1070
     0
1070
   172
1070
     1
1070
   173
1070
     1
1070
   340
1005
343
1070
   271
1070
     2
1070
   272
1070
     2
1070
    77
1070
     1
1070
    73
1070
     0
1070
   171
1070
     4
1070
   274
1070
     4
1070
   177
1070
     2
1070
   176
1070
     2
1070
   178
1070
     7
1070
    78
1070
     8
1070
    41
1041
3.175
1070
   147
1041
2.25
1070
    42
1041
2.0
1070
    44
1041
2.0
1070
   140
1041
4.5
1070
   343
1005
354
1070
   344
1005
354
1002
}
0
DIMENSION
5
385
100
AcDbEntity
8
2
62
256
6
ByLayer
370
-3
48
1
60
0
100
AcDbDimension
2
DimnDraft3D4
10
68.95
20
-20
30
0
11
68.95
21
-9.306414
31
0
70
32
71
5
72
1
41
1
210
0
220
0
230
1
3
Standard
100
AcDbAlignedDimension
13
58.7
23
20
33
0
14
58.7
24
-20
34
0
50
90
100
AcDbRotatedDimension
1001
ACAD
1000
DSTYLE
1002
{
1070
    74
1070
     0
1070
   279
1070
     0
1070
   172
1070
     1
1070
   173
1070
     1
1070
   340
1005
343
1070
   271
1070
     2
1070
   272
1070
     2
1070
    77
1070
     1
1070
    73
1070
     0
1070
   171
1070
     4
1070
   274
1070
     4
1070
   177
1070
     2
1070
   176
1070
     2
1070
   178
1070
     7
1070
    78
1070
     8
1070
    41
1041
3.175
1070
   147
1041
2.25
1070
    42
1041
2.0
1070
    44
1041
2.0
1070
   140
1041
4.5
1070
   343
1005
354
1070
   344
1005
354
1002
}
0
ENDSEC
0
SECTION
2
OBJECTS
0
DICTIONARY
5
3d2
330
0
100
AcDbDictionary
280
0
281
1
3
ACAD_GROUP
350
3d3
3
ACAD_MLINESTYLE
350
3d4
0
DICTIONARY
5
3d3
330
0
100
AcDbDictionary
280
0
281
1
0
DICTIONARY
5
3d4
330
0
100
AcDbDictionary
280
0
281
1
3
Standard
350
18
0
MLINESTYLE
5
18
330
3d4
100
AcDbMlineStyle
2
Standard
70
0
3

62
256
51
90
52
90
71
2
49
-0.5
62
256
6
ByLayer
49
0.5
62
256
6
ByLayer
0
RASTERVARIABLES
5
3c2
330

100
AcDbRasterVariables
90
0
70
1
71
1
72
1
0
ENDSEC
0
EOF
